  0
SECTION
  2
HEADER
  9
$ACADVER
  1
AC1015
  9
$ACADMAINTVER
 70
     6
  9
$DWGCODEPAGE
  3
ANSI_932
  9
$INSBASE
 10
0.0
 20
0.0
 30
0.0
  9
$EXTMIN
 10
-16.40066929133858
 20
-112.8545386736291
 30
0.0
  9
$EXTMAX
 10
165.6606099840977
 20
43.40760176273467
 30
0.0
  9
$LIMMIN
 10
0.0
 20
0.0
  9
$LIMMAX
 10
420.0
 20
297.0
  9
$ORTHOMODE
 70
     0
  9
$REGENMODE
 70
     1
  9
$FILLMODE
 70
     1
  9
$QTEXTMODE
 70
     0
  9
$MIRRTEXT
 70
     1
  9
$LTSCALE
 40
1.0
  9
$ATTMODE
 70
     1
  9
$TEXTSIZE
 40
3.5
  9
$TRACEWID
 40
1.0
  9
$TEXTSTYLE
  7
STANDARD
  9
$CLAYER
  8
AM_0
  9
$CELTYPE
  6
ByLayer
  9
$CECOLOR
 62
   256
  9
$CELTSCALE
 40
1.0
  9
$DISPSILH
 70
     0
  9
$DIMSCALE
 40
1.0
  9
$DIMASZ
 40
2.5
  9
$DIMEXO
 40
0.0
  9
$DIMDLI
 40
8.0
  9
$DIMRND
 40
0.0
  9
$DIMDLE
 40
0.0
  9
$DIMEXE
 40
0.4
  9
$DIMTP
 40
0.25
  9
$DIMTM
 40
0.25
  9
$DIMTXT
 40
3.4
  9
$DIMCEN
 40
0.0
  9
$DIMTSZ
 40
0.0
  9
$DIMTOL
 70
     0
  9
$DIMLIM
 70
     0
  9
$DIMTIH
 70
     0
  9
$DIMTOH
 70
     0
  9
$DIMSE1
 70
     0
  9
$DIMSE2
 70
     0
  9
$DIMTAD
 70
     3
  9
$DIMZIN
 70
     1
  9
$DIMBLK
  1
Open30
  9
$DIMASO
 70
     1
  9
$DIMSHO
 70
     1
  9
$DIMPOST
  1

  9
$DIMAPOST
  1
"
  9
$DIMALT
 70
     0
  9
$DIMALTD
 70
     2
  9
$DIMALTF
 40
0.0393701
  9
$DIMLFAC
 40
1.0
  9
$DIMTOFL
 70
     1
  9
$DIMTVP
 40
0.0
  9
$DIMTIX
 70
     0
  9
$DIMSOXD
 70
     0
  9
$DIMSAH
 70
     0
  9
$DIMBLK1
  1

  9
$DIMBLK2
  1

  9
$DIMSTYLE
  2
AM_JIS
  9
$DIMCLRD
 70
     3
  9
$DIMCLRE
 70
     3
  9
$DIMCLRT
 70
     2
  9
$DIMTFAC
 40
0.71
  9
$DIMGAP
 40
1.0
  9
$DIMJUST
 70
     0
  9
$DIMSD1
 70
     0
  9
$DIMSD2
 70
     0
  9
$DIMTOLJ
 70
     0
  9
$DIMTZIN
 70
     1
  9
$DIMALTZ
 70
     0
  9
$DIMALTTZ
 70
     0
  9
$DIMUPT
 70
     0
  9
$DIMDEC
 70
     0
  9
$DIMTDEC
 70
     2
  9
$DIMALTU
 70
     2
  9
$DIMALTTD
 70
     2
  9
$DIMTXSTY
  7
STANDARD
  9
$DIMAUNIT
 70
     1
  9
$DIMADEC
 70
     2
  9
$DIMALTRND
 40
0.0
  9
$DIMAZIN
 70
     2
  9
$DIMDSEP
 70
    46
  9
$DIMATFIT
 70
     3
  9
$DIMFRAC
 70
     0
  9
$DIMLDRBLK
  1
Open30
  9
$DIMLUNIT
 70
     2
  9
$DIMLWD
 70
    -1
  9
$DIMLWE
 70
    -1
  9
$DIMTMOVE
 70
     0
  9
$LUNITS
 70
     2
  9
$LUPREC
 70
     2
  9
$SKETCHINC
 40
1.0
  9
$FILLETRAD
 40
2.5
  9
$AUNITS
 70
     1
  9
$AUPREC
 70
     5
  9
$MENU
  1
.
  9
$ELEVATION
 40
0.0
  9
$PELEVATION
 40
0.0
  9
$THICKNESS
 40
0.0
  9
$LIMCHECK
 70
     0
  9
$CHAMFERA
 40
2.5
  9
$CHAMFERB
 40
2.5
  9
$CHAMFERC
 40
20.0
  9
$CHAMFERD
 40
0.0
  9
$SKPOLY
 70
     0
  9
$TDCREATE
 40
2454515.425223704
  9
$TDUCREATE
 40
2454515.050223704
  9
$TDUPDATE
 40
2455482.558468415
  9
$TDUUPDATE
 40
2455482.183468415
  9
$TDINDWG
 40
0.1920458912
  9
$TDUSRTIMER
 40
0.192045706
  9
$USRTIMER
 70
     1
  9
$ANGBASE
 50
0.0
  9
$ANGDIR
 70
     0
  9
$PDMODE
 70
     0
  9
$PDSIZE
 40
0.0
  9
$PLINEWID
 40
0.0
  9
$SPLFRAME
 70
     0
  9
$SPLINETYPE
 70
     6
  9
$SPLINESEGS
 70
   232
  9
$HANDSEED
  5
9F30
  9
$SURFTAB1
 70
     6
  9
$SURFTAB2
 70
     6
  9
$SURFTYPE
 70
     6
  9
$SURFU
 70
     6
  9
$SURFV
 70
     6
  9
$UCSBASE
  2

  9
$UCSNAME
  2

  9
$UCSORG
 10
0.0
 20
0.0
 30
0.0
  9
$UCSXDIR
 10
1.0
 20
0.0
 30
0.0
  9
$UCSYDIR
 10
0.0
 20
1.0
 30
0.0
  9
$UCSORTHOREF
  2

  9
$UCSORTHOVIEW
 70
     0
  9
$UCSORGTOP
 10
0.0
 20
0.0
 30
0.0
  9
$UCSORGBOTTOM
 10
0.0
 20
0.0
 30
0.0
  9
$UCSORGLEFT
 10
0.0
 20
0.0
 30
0.0
  9
$UCSORGRIGHT
 10
0.0
 20
0.0
 30
0.0
  9
$UCSORGFRONT
 10
0.0
 20
0.0
 30
0.0
  9
$UCSORGBACK
 10
0.0
 20
0.0
 30
0.0
  9
$PUCSBASE
  2

  9
$PUCSNAME
  2

  9
$PUCSORG
 10
0.0
 20
0.0
 30
0.0
  9
$PUCSXDIR
 10
1.0
 20
0.0
 30
0.0
  9
$PUCSYDIR
 10
0.0
 20
1.0
 30
0.0
  9
$PUCSORTHOREF
  2

  9
$PUCSORTHOVIEW
 70
     0
  9
$PUCSORGTOP
 10
0.0
 20
0.0
 30
0.0
  9
$PUCSORGBOTTOM
 10
0.0
 20
0.0
 30
0.0
  9
$PUCSORGLEFT
 10
0.0
 20
0.0
 30
0.0
  9
$PUCSORGRIGHT
 10
0.0
 20
0.0
 30
0.0
  9
$PUCSORGFRONT
 10
0.0
 20
0.0
 30
0.0
  9
$PUCSORGBACK
 10
0.0
 20
0.0
 30
0.0
  9
$USERI1
 70
     0
  9
$USERI2
 70
     0
  9
$USERI3
 70
     0
  9
$USERI4
 70
     0
  9
$USERI5
 70
     0
  9
$USERR1
 40
0.0
  9
$USERR2
 40
0.0
  9
$USERR3
 40
0.0
  9
$USERR4
 40
0.0
  9
$USERR5
 40
0.0
  9
$WORLDVIEW
 70
     1
  9
$SHADEDGE
 70
     3
  9
$SHADEDIF
 70
    70
  9
$TILEMODE
 70
     1
  9
$MAXACTVP
 70
    64
  9
$PINSBASE
 10
0.0
 20
0.0
 30
0.0
  9
$PLIMCHECK
 70
     0
  9
$PEXTMIN
 10
1.000000000000000E+20
 20
1.000000000000000E+20
 30
1.000000000000000E+20
  9
$PEXTMAX
 10
-1.000000000000000E+20
 20
-1.000000000000000E+20
 30
-1.000000000000000E+20
  9
$PLIMMIN
 10
-0.2500002402958907
 20
-0.2499999962453767
  9
$PLIMMAX
 10
10.74999951940822
 20
8.249999763458732
  9
$UNITMODE
 70
     0
  9
$VISRETAIN
 70
     1
  9
$PLINEGEN
 70
     0
  9
$PSLTSCALE
 70
     0
  9
$TREEDEPTH
 70
  3020
  9
$CMLSTYLE
  2
Standard
  9
$CMLJUST
 70
     0
  9
$CMLSCALE
 40
20.0
  9
$PROXYGRAPHICS
 70
     1
  9
$MEASUREMENT
 70
     1
  9
$CELWEIGHT
370
    -1
  9
$ENDCAPS
280
     0
  9
$JOINSTYLE
280
     0
  9
$LWDISPLAY
290
     0
  9
$INSUNITS
 70
     4
  9
$HYPERLINKBASE
  1

  9
$STYLESHEET
  1
monochrome.ctb
  9
$XEDIT
290
     1
  9
$CEPSNTYPE
380
     0
  9
$PSTYLEMODE
290
     1
  9
$FINGERPRINTGUID
  2
{83560354-33C6-4D0B-ACBD-ACED89838CBF}
  9
$VERSIONGUID
  2
{0A47361E-9219-44D1-973A-32F171ACB442}
  9
$EXTNAMES
290
     1
  9
$PSVPSCALE
 40
0.0
  9
$OLESTARTUP
290
     0
  0
ENDSEC
  0
SECTION
  2
CLASSES
  0
CLASS
  1
ACDBDICTIONARYWDFLT
  2
AcDbDictionaryWithDefault
  3
ObjectDBX Classes
 90
        0
280
     0
281
     0
  0
CLASS
  1
ACDBPLACEHOLDER
  2
AcDbPlaceHolder
  3
ObjectDBX Classes
 90
        0
280
     0
281
     0
  0
CLASS
  1
LAYOUT
  2
AcDbLayout
  3
ObjectDBX Classes
 90
        0
280
     0
281
     0
  0
CLASS
  1
ACME_DOCUMENT
  2
AcMeDbDoc
  3
AcMeServices
 90
        0
280
     1
281
     0
  0
CLASS
  1
AMGSETTINGSOBJ
  2
AmgSettingsObj
  3
"AcadM|Product Description: AutoCAD Mechanical 2000|Company: Autodesk"
 90
        0
280
     1
281
     0
  0
CLASS
  1
ACMESCOPE
  2
AcMeScope
  3
AcMeServices
 90
        0
280
     1
281
     0
  0
CLASS
  1
ACMECOMMANDHISTORY
  2
AcMeCommandHistory
  3
AcMeServices
 90
        0
280
     1
281
     0
  0
CLASS
  1
DICTIONARYVAR
  2
AcDbDictionaryVar
  3
ObjectDBX Classes
 90
        0
280
     0
281
     0
  0
CLASS
  1
ACIMSYSVARMAN
  2
AcImSysVarManager
  3
AcMeServices
 90
        0
280
     1
281
     0
  0
CLASS
  1
ACIMREALSYSVAR
  2
AcImRealSysVar
  3
AcMeServices
 90
        0
280
     1
281
     0
  0
CLASS
  1
ACIMINTSYSVAR
  2
AcImIntSysVar
  3
AcMeServices
 90
        0
280
     1
281
     0
  0
CLASS
  1
ACMEDRAWINGMAN
  2
AcMeDrawingMan
  3
AcMeServices
 90
        0
280
     1
281
     0
  0
CLASS
  1
ACMEVIEW
  2
AcMeView
  3
AcMeServices
 90
        0
280
     1
281
     0
  0
CLASS
  1
ACDBENTITYCACHE
  2
AcMeEntityCache
  3
AcMeServices
 90
        0
280
     1
281
     0
  0
CLASS
  1
GSMANAGER
  2
AcMeGSManager
  3
AcMeServices
 90
        0
280
     1
281
     0
  0
CLASS
  1
AMDTINTERNALREACTOR
  2
AmdtInternalReactor
  3
AcMeServices
 90
        0
280
     1
281
     0
  0
CLASS
  1
ACMESTATEMGR
  2
AcMeStateMgr
  3
AcMeServices
 90
        0
280
     1
281
     0
  0
CLASS
  1
ACME_DATABASE
  2
AcMeDbDatabase
  3
AcMeServices
 90
        0
280
     1
281
     0
  0
CLASS
  1
ACRFINSADJUSTERMGR
  2
AcRfInsAdjusterMgr
  3
AcMeServices
 90
        0
280
     1
281
     0
  0
CLASS
  1
ACMDATADICTIONARY
  2
AcmDataDictionary
  3
"AcmSymBB|Product Description: AutoCAD Mechanical 2004 DX|Company: Autodesk"
 90
        0
280
     1
281
     0
  0
CLASS
  1
ACMDATAENTRYBLOCK
  2
AcmDataEntryBlock
  3
"AcmSymBB|Product Description: AutoCAD Mechanical 2004 DX|Company: Autodesk"
 90
        0
280
     1
281
     0
  0
CLASS
  1
AMGOBJPROPCFG
  2
AmgObjPropCfg
  3
"AmgLay|Product Description: AutoCAD Mechanical 2000|Company: Autodesk"
 90
        1
280
     1
281
     0
  0
CLASS
  1
LAYER_INDEX
  2
AcDbLayerIndex
  3
ObjectDBX Classes
 90
        0
280
     0
281
     0
  0
CLASS
  1
IDBUFFER
  2
AcDbIdBuffer
  3
ObjectDBX Classes
 90
        0
280
     0
281
     0
  0
CLASS
  1
ACIMSTRSYSVAR
  2
AcImStrSysVar
  3
AcMeServices
 90
        0
280
     1
281
     0
  0
CLASS
  1
ACMSTANDARDJIS
  2
AcmStandardJIS
  3
"Amdt_StdImp|Product Description: AutoCAD Mechanical 2004 DX|Company: Autodesk"
 90
        0
280
     1
281
     0
  0
CLASS
  1
ACMSURFSTANDARDJIS
  2
AcmSurfTextStdJIS
  3
"Amdt_StdImp|Product Description: AutoCAD Mechanical 2004 DX|Company: Autodesk"
 90
        0
280
     1
281
     0
  0
CLASS
  1
ACMFCFSTANDARDJIS
  2
AcmFCFStdJIS
  3
"Amdt_StdImp|Product Description: AutoCAD Mechanical 2004 DX|Company: Autodesk"
 90
        0
280
     1
281
     0
  0
CLASS
  1
ACMWELDSTANDARDJIS
  2
AcmWeldingStdJIS
  3
"Amdt_StdImp|Product Description: AutoCAD Mechanical 2004 DX|Company: Autodesk"
 90
        0
280
     1
281
     0
  0
CLASS
  1
ACMIDSTANDARDJIS
  2
AcmIdStdJIS
  3
"Amdt_StdImp|Product Description: AutoCAD Mechanical 2004 DX|Company: Autodesk"
 90
        0
280
     1
281
     0
  0
CLASS
  1
ACMDATUMSTANDARDJIS
  2
AcmDatumStdJIS
  3
"Amdt_StdImp|Product Description: AutoCAD Mechanical 2004 DX|Company: Autodesk"
 90
        0
280
     1
281
     0
  0
CLASS
  1
ACMBOMSTANDARDJIS
  2
AcmBOMStdJIS
  3
"Amdt_StdImp|Product Description: AutoCAD Mechanical 2004 DX|Company: Autodesk"
 90
        0
280
     1
281
     0
  0
CLASS
  1
ACAMGFILTERDAT
  2
AcAmgFilterDat
  3
"AcadM|Product Description: AutoCAD Mechanical 2000|Company: Autodesk"
 90
        0
280
     1
281
     0
  0
CLASS
  1
AMDTNOTE
  2
AmdtNote
  3
"AcmSymBB|Product Description: AutoCAD Mechanical 2004 DX|Company: Autodesk"
 90
     1023
280
     1
281
     1
  0
CLASS
  1
TABLESTYLE
  2
AcDbTableStyle
  3
ObjectDBX Classes
 90
     2047
280
     0
281
     0
  0
CLASS
  1
ACGREFMASTER
  2
AcGrefMaster
  3
AcAttribServices
 90
        0
280
     1
281
     0
  0
CLASS
  1
AM_DRAWING_MGR
  2
AcDmDwgMgr
  3
AcMechDwgViewMgmt
 90
        0
280
     1
281
     0
  0
CLASS
  1
AM_DWG_DOCUMENT
  2
AcDmDwgDocument
  3
AcMechDwgViewMgmt
 90
        0
280
     1
281
     0
  0
CLASS
  1
AM_DWG_SHEET
  2
AcDmSheet
  3
AcMechDwgViewMgmt
 90
        0
280
     1
281
     0
  0
CLASS
  1
AM_VIEWDIMPARMAP
  2
AcDmViewDimParMap
  3
AcMechDwgViewMgmt
 90
        0
280
     1
281
     0
  0
CLASS
  1
AM_DWGMGR_NAME
  2
AcDmDwgMgrName
  3
AcMechDwgViewMgmt
 90
        0
280
     1
281
     0
  0
CLASS
  1
ACGREFACADMASTER
  2
AcGrefacadMaster
  3
AcGrefServices
 90
        0
280
     1
281
     0
  0
CLASS
  1
AMDTMENUSTATEMGR
  2
AmdtMenuStateMgr
  3
McadcomServices
 90
        0
280
     1
281
     0
  0
CLASS
  1
AMDTMCOMMENUSTATE
  2
AmdtMcomMenuState
  3
McadcomServices
 90
        0
280
     1
281
     0
  0
CLASS
  1
AMIMASTER
  2
AmiMaster
  3
AmiServices
 90
        0
280
     1
281
     0
  0
CLASS
  1
MAPIAMMOUDLE
  2
MApiAmModule
  3
MApiAmServices
 90
        0
280
     1
281
     0
  0
CLASS
  1
AMDTADMENUSTATE
  2
AmdtAdMenuState
  3
DesignerServices
 90
        0
280
     1
281
     0
  0
CLASS
  1
ADAPPL
  2
AcAdAppl
  3
DesignerServices
 90
        0
280
     1
281
     0
  0
CLASS
  1
DEPMGR
  2
AcAdDepMgr
  3
DesignerServices
 90
        0
280
     1
281
     0
  0
CLASS
  1
PARAMMGR
  2
AcAdParamMgr
  3
DesignerServices
 90
        0
280
     1
281
     0
  0
CLASS
  1
PARAMSCOPE
  2
AcAdParamScope
  3
DesignerServices
 90
        0
280
     1
281
     0
  0
CLASS
  1
NAMEDAPPL
  2
AcAdNamedAppl
  3
DesignerServices
 90
        0
280
     1
281
     0
  0
CLASS
  1
AMDTDMMENUSTATE
  2
AmdtDmMenuState
  3
AcMechDwgViewMgmt
 90
        0
280
     1
281
     0
  0
CLASS
  1
AMDTAMMENUSTATE
  2
AmdtAmMenuState
  3
DesignerAssemblies
 90
        0
280
     1
281
     0
  0
CLASS
  1
ACAMPROJECT
  2
AcAmProject
  3
DesignerAssemblies
 90
        0
280
     1
281
     0
  0
CLASS
  1
ACAMGRCOMPDEF
  2
AcAmGrCompDef
  3
DesignerAssemblies
 90
        0
280
     1
281
     0
  0
CLASS
  1
ACCMCONTEXT
  2
AcCmContext
  3
DesignerAssemblies
 90
        0
280
     1
281
     0
  0
CLASS
  1
ACAMCOMPDEF
  2
AcAmCompDef
  3
DesignerAssemblies
 90
        0
280
     1
281
     0
  0
CLASS
  1
ACAMCOMPDEFMGR
  2
AcAmCompDefMgr
  3
DesignerAssemblies
 90
        0
280
     1
281
     0
  0
CLASS
  1
AMCONTEXTMGR
  2
AcAmContextMgr
  3
DesignerAssemblies
 90
        0
280
     1
281
     0
  0
CLASS
  1
ACAMCONTEXTMODELER
  2
AcAmContextModeler
  3
DesignerAssemblies
 90
        0
280
     1
281
     0
  0
CLASS
  1
ACAMGTITLESTD
  2
AcAmgTitleStd
  3
"TITLEAPP"
 90
        0
280
     1
281
     0
  0
CLASS
  1
ACMDETAILSTANDARDJIS
  2
AmdtDetailSymStdJIS
  3
"Amdt_StdImp|Product Description: AutoCAD Mechanical 2004 DX|Company: Autodesk"
 90
        0
280
     1
281
     0
  0
CLASS
  1
ACMSECTIONSTANDARDJIS
  2
AmdtSectionSymStdJIS
  3
"Amdt_StdImp|Product Description: AutoCAD Mechanical 2004 DX|Company: Autodesk"
 90
        0
280
     1
281
     0
  0
CLASS
  1
ACMCENTERLINESTANDARDJIS
  2
AmdtCenterLineStdJIS
  3
"Amdt_StdImp|Product Description: AutoCAD Mechanical 2004 DX|Company: Autodesk"
 90
        0
280
     1
281
     0
  0
CLASS
  1
ACMTHREADLINESTANDARDJIS
  2
AmdtThreadLineStdJIS
  3
"Amdt_StdImp|Product Description: AutoCAD Mechanical 2004 DX|Company: Autodesk"
 90
        0
280
     1
281
     0
  0
CLASS
  1
ACMNOTESTANDARDJIS
  2
AmdtNoteStdJIS
  3
"Amdt_StdImp|Product Description: AutoCAD Mechanical 2004 DX|Company: Autodesk"
 90
        0
280
     1
281
     0
  0
CLASS
  1
AMDTNOTETEMPLATEDB
  2
AmdtNoteTemplateDB
  3
AMDT_STDIMP_MODULE_NAME
 90
        0
280
     1
281
     0
  0
CLASS
  1
ACAMGLAYSTD
  2
AcAmgLayStd
  3
"AcAmgLayStd|Product Description: AutoCAD Mechanical 2000|Company: Autodesk"
 90
        0
280
     1
281
     0
  0
CLASS
  1
ACAMGDIMSTD
  2
AcAmgDimStd
  3
"AcAmgDimStd|Product Description: AutoCAD Mechanical 2000|Company: Autodesk"
 90
        0
280
     1
281
     0
  0
CLASS
  1
ACAMGHOLECHARTSTDJIS
  2
AcAmgHoleChartStdJIS
  3
ACMSYMBB_MODULE_NAME
 90
        0
280
     1
281
     0
  0
CLASS
  1
CATALOGSTATE
  2
AcAmCatalogState
  3
DesignerAssemblies
 90
        0
280
     1
281
     0
  0
CLASS
  1
ACAMGRCOMPDEFSET
  2
AcAmGrCompDefSet
  3
DesignerAssemblies
 90
        0
280
     1
281
     0
  0
CLASS
  1
AMDTBROWSERDBTAB
  2
AmdtBrowserDbTab
  3
McadcomServices
 90
        0
280
     1
281
     0
  0
CLASS
  1
CBROWSERAPPOBJECT
  2
CBrowserAppObject
  3
McadcomServices
 90
        0
280
     1
281
     0
  0
CLASS
  1
DM_PLACEHOLDER
  2
AcDmSelsetPlaceholder
  3
AcMechDwgViewMgmt
 90
        0
280
     1
281
     0
  0
CLASS
  1
SORTENTSTABLE
  2
AcDbSortentsTable
  3
ObjectDBX Classes
 90
        0
280
     0
281
     0
  0
ENDSEC
  0
SECTION
  2
TABLES
  0
TABLE
  2
VPORT
  5
8
330
0
100
AcDbSymbolTable
 70
     3
  0
VPORT
  5
9F28
330
8
100
AcDbSymbolTableRecord
100
AcDbViewportTableRecord
  2
*Active
 70
     0
 10
0.0
 20
0.0
 11
1.0
 21
1.0
 12
50.59195252020317
 22
-28.08301364060586
 13
0.0
 23
0.0
 14
2.5
 24
2.5
 15
10.0
 25
10.0
 16
0.0
 26
0.0
 36
1.0
 17
0.0
 27
0.0
 37
0.0
 40
157.5319676960096
 41
1.610603290676417
 42
50.0
 43
0.0
 44
0.0
 50
0.0
 51
0.0
 71
    16
 72
 20000
 73
     1
 74
     3
 75
     0
 76
     0
 77
     0
 78
     0
281
     0
 65
     1
110
0.0
120
0.0
130
0.0
111
1.0
121
0.0
131
0.0
112
0.0
122
1.0
132
0.0
 79
     0
146
0.0
  0
ENDTAB
  0
TABLE
  2
LTYPE
  5
5
330
0
100
AcDbSymbolTable
 70
    13
  0
LTYPE
  5
14
330
5
100
AcDbSymbolTableRecord
100
AcDbLinetypeTableRecord
  2
ByBlock
 70
     0
  3

 72
    65
 73
     0
 40
0.0
  0
LTYPE
  5
15
330
5
100
AcDbSymbolTableRecord
100
AcDbLinetypeTableRecord
  2
ByLayer
 70
     0
  3

 72
    65
 73
     0
 40
0.0
  0
LTYPE
  5
16
330
5
100
AcDbSymbolTableRecord
100
AcDbLinetypeTableRecord
  2
Continuous
 70
     0
  3
Solid line
 72
    65
 73
     0
 40
0.0
  0
LTYPE
  5
5E
330
5
100
AcDbSymbolTableRecord
100
AcDbLinetypeTableRecord
  2
AM_ISO02W050
 70
     0
  3
__ __ __ __ __ __ __ __ __ __ __ __ __ __ __
 72
    65
 73
     2
 40
7.5
 49
6.0
 74
     0
 49
-1.5
 74
     0
  0
LTYPE
  5
5F
330
5
100
AcDbSymbolTableRecord
100
AcDbLinetypeTableRecord
  2
AM_ISO08W050
 70
     0
  3
____ . ____ . ____ . ____ . ____ . ____ . ____
 72
    65
 73
     4
 40
18.0
 49
12.0
 74
     0
 49
-1.5
 74
     0
 49
3.0
 74
     0
 49
-1.5
 74
     0
  0
LTYPE
  5
60
330
5
100
AcDbSymbolTableRecord
100
AcDbLinetypeTableRecord
  2
AM_ISO09W050
 70
     0
  3
_____ . . _____ . . _____ . . ____ .. ____
 72
    65
 73
     6
 40
22.5
 49
12.0
 74
     0
 49
-1.5
 74
     0
 49
3.0
 74
     0
 49
-1.5
 74
     0
 49
3.0
 74
     0
 49
-1.5
 74
     0
  0
LTYPE
  5
61
330
5
100
AcDbSymbolTableRecord
100
AcDbLinetypeTableRecord
  2
Amconstr
 70
     0
  3
_______________________
 72
    65
 73
     2
 40
9999.0
 49
9999.0
 74
     0
 49
0.0
 74
     0
  0
LTYPE
  5
62
330
5
100
AcDbSymbolTableRecord
100
AcDbLinetypeTableRecord
  2
AM_ISO02W050x2
 70
     0
  3
 _ _ _ _ _ _ _ _ _ _ _ _
 72
    65
 73
     2
 40
3.75
 49
3.0
 74
     0
 49
-0.75
 74
     0
  0
LTYPE
  5
63
330
5
100
AcDbSymbolTableRecord
100
AcDbLinetypeTableRecord
  2
AM_ISO08W050x2
 70
     0
  3
__ . __ . __ . __ . __ . __
 72
    65
 73
     4
 40
9.0
 49
6.0
 74
     0
 49
-0.75
 74
     0
 49
1.5
 74
     0
 49
-0.75
 74
     0
  0
LTYPE
  5
66
330
5
100
AcDbSymbolTableRecord
100
AcDbLinetypeTableRecord
  2
Amzigzag
 70
     0
  3
/\/-/\/-/\/-/\/-/\/-/\/
 72
    65
 73
     2
 40
11.0001
 49
0.0001
 74
     4
 75
   135
340
65
 46
0.04
 50
0.0
 44
0.0
 45
0.0
 49
-11.0
 74
     0
  0
LTYPE
  5
2CF
330
5
100
AcDbSymbolTableRecord
100
AcDbLinetypeTableRecord
  2
ACJISTGB
 70
     0
  3
__ . . __ . .
 72
    65
 73
     6
 40
9.0
 49
4.0
 74
     0
 49
-1.0
 74
     0
 49
1.0
 74
     0
 49
-1.0
 74
     0
 49
1.0
 74
     0
 49
-1.0
 74
     0
  0
LTYPE
  5
2D0
330
5
100
AcDbSymbolTableRecord
100
AcDbLinetypeTableRecord
  2
ACJISTGL
 70
     0
  3
_ _ _ _ _
 72
    65
 73
     2
 40
3.0
 49
2.0
 74
     0
 49
-1.0
 74
     0
  0
LTYPE
  5
7C5
330
5
100
AcDbSymbolTableRecord
100
AcDbLinetypeTableRecord
  2
CENTER
 70
     0
  3
____ _ ____ _ ____ _ ____ _ ____ _ ____ _ ____
 72
    65
 73
     4
 40
17.5
 49
13.0
 74
     0
 49
-1.5
 74
     0
 49
1.5
 74
     0
 49
-1.5
 74
     0
  0
LTYPE
  5
7816
330
5
100
AcDbSymbolTableRecord
100
AcDbLinetypeTableRecord
  2
HIDDEN
 70
     0
  3
Hidden __ __ __ __ __ __ __ __ __ __ __ __ __ _
 72
    65
 73
     2
 40
9.524999999999999
 49
6.35
 74
     0
 49
-3.175
 74
     0
  0
LTYPE
  5
7817
330
5
100
AcDbSymbolTableRecord
100
AcDbLinetypeTableRecord
  2
PHANTOM2
 70
     0
  3
Phantom (.5x) ___ _ _ ___ _ _ ___ _ _ ___ _ _
 72
    65
 73
     6
 40
31.75
 49
15.875
 74
     0
 49
-3.175
 74
     0
 49
3.175
 74
     0
 49
-3.175
 74
     0
 49
3.175
 74
     0
 49
-3.175
 74
     0
  0
ENDTAB
  0
TABLE
  2
LAYER
  5
2
102
{ACAD_XDICTIONARY
360
7879
102
}
330
0
100
AcDbSymbolTable
 70
     5
  0
LAYER
  5
10
330
2
100
AcDbSymbolTableRecord
100
AcDbLayerTableRecord
  2
0
 70
     0
 62
     7
  6
Continuous
370
    -3
390
F
  0
LAYER
  5
DE
330
2
100
AcDbSymbolTableRecord
100
AcDbLayerTableRecord
  2
AM_5
 70
     0
 62
     3
  6
Continuous
370
    13
390
F
  0
LAYER
  5
142
330
2
100
AcDbSymbolTableRecord
100
AcDbLayerTableRecord
  2
Defpoints
 70
     0
 62
     7
  6
Continuous
290
     0
370
    -3
390
F
  0
LAYER
  5
76D
330
2
100
AcDbSymbolTableRecord
100
AcDbLayerTableRecord
  2
AM_0
 70
     0
 62
     7
  6
Continuous
370
    30
390
F
  0
LAYER
  5
858
330
2
100
AcDbSymbolTableRecord
100
AcDbLayerTableRecord
  2
AM_7
 70
     0
 62
     4
  6
AM_ISO08W050
370
    13
390
F
  0
ENDTAB
  0
TABLE
  2
STYLE
  5
3
330
0
100
AcDbSymbolTable
 70
     4
  0
STYLE
  5
11
330
3
100
AcDbSymbolTableRecord
100
AcDbTextStyleTableRecord
  2
STANDARD
 70
     0
 40
0.0
 41
1.0
 50
0.0
 71
     0
 42
3.5
  3
ISOCP.SHX
  4
EXTFONT.SHX
  0
STYLE
  5
65
330
3
100
AcDbSymbolTableRecord
100
AcDbTextStyleTableRecord
  2

 70
     1
 40
0.0
 41
1.0
 50
0.0
 71
     0
 42
2.5
  3
ltypeshp.shx
  4

  0
STYLE
  5
2C7
330
3
100
AcDbSymbolTableRecord
100
AcDbTextStyleTableRecord
  2
ACJISTS
 70
     0
 40
1.0
 41
1.0
 50
0.0
 71
     0
 42
2.5
  3
isocp.shx
  4
bigfont.shx
  0
STYLE
  5
2CE
330
3
100
AcDbSymbolTableRecord
100
AcDbTextStyleTableRecord
  2
ACJISGDT
 70
     0
 40
0.0
 41
1.0
 50
0.0
 71
     0
 42
2.5
  3
amgdt.shx
  4

  0
ENDTAB
  0
TABLE
  2
VIEW
  5
6
330
0
100
AcDbSymbolTable
 70
     6
  0
VIEW
  5
781
330
6
100
AcDbSymbolTableRecord
100
AcDbViewTableRecord
  2
AM_VIEW1
 70
     0
 40
155.8529411764706
 10
105.0
 20
219.0735294117647
 41
210.0
 11
0.0
 21
0.0
 31
1.0
 12
0.0
 22
0.0
 32
0.0
 42
50.0
 43
0.0
 44
0.0
 50
0.0
 71
    16
281
     0
 72
     0
  0
VIEW
  5
782
330
6
100
AcDbSymbolTableRecord
100
AcDbViewTableRecord
  2
AM_VIEW2
 70
     0
 40
155.8529411764706
 10
315.0
 20
219.0735294117647
 41
210.0
 11
0.0
 21
0.0
 31
1.0
 12
0.0
 22
0.0
 32
0.0
 42
50.0
 43
0.0
 44
0.0
 50
0.0
 71
    16
281
     0
 72
     0
  0
VIEW
  5
783
330
6
100
AcDbSymbolTableRecord
100
AcDbViewTableRecord
  2
AM_VIEW3
 70
     0
 40
155.8529411764706
 10
105.0
 20
77.92647058823529
 41
210.0
 11
0.0
 21
0.0
 31
1.0
 12
0.0
 22
0.0
 32
0.0
 42
50.0
 43
0.0
 44
0.0
 50
0.0
 71
    16
281
     0
 72
     0
  0
VIEW
  5
784
330
6
100
AcDbSymbolTableRecord
100
AcDbViewTableRecord
  2
AM_VIEW4
 70
     0
 40
155.8529411764706
 10
315.0
 20
77.92647058823529
 41
210.0
 11
0.0
 21
0.0
 31
1.0
 12
0.0
 22
0.0
 32
0.0
 42
50.0
 43
0.0
 44
0.0
 50
0.0
 71
    16
281
     0
 72
     0
  0
VIEW
  5
785
330
6
100
AcDbSymbolTableRecord
100
AcDbViewTableRecord
  2
AM_VIEW5
 70
     0
 40
155.8529411764706
 10
210.0
 20
148.5
 41
210.0
 11
0.0
 21
0.0
 31
1.0
 12
0.0
 22
0.0
 32
0.0
 42
50.0
 43
0.0
 44
0.0
 50
0.0
 71
    16
281
     0
 72
     0
  0
VIEW
  5
786
330
6
100
AcDbSymbolTableRecord
100
AcDbViewTableRecord
  2
AM_VIEW6
 70
     0
 40
311.7027652941176
 10
210.0
 20
148.5
 41
419.9958
 11
0.0
 21
0.0
 31
1.0
 12
0.0
 22
0.0
 32
0.0
 42
50.0
 43
0.0
 44
0.0
 50
0.0
 71
    16
281
     0
 72
     0
  0
ENDTAB
  0
TABLE
  2
UCS
  5
7
330
0
100
AcDbSymbolTable
 70
     0
  0
ENDTAB
  0
TABLE
  2
APPID
  5
9
330
0
100
AcDbSymbolTable
 70
    38
  0
APPID
  5
12
330
9
100
AcDbSymbolTableRecord
100
AcDbRegAppTableRecord
  2
ACAD
 70
     0
  0
APPID
  5
46
330
9
100
AcDbSymbolTableRecord
100
AcDbRegAppTableRecord
  2
MCAD_NO_VIS
 70
     0
  0
APPID
  5
47
330
9
100
AcDbSymbolTableRecord
100
AcDbRegAppTableRecord
  2
ACAD_TEMP_GRAPHIC
 70
     0
  0
APPID
  5
17C
330
9
100
AcDbSymbolTableRecord
100
AcDbRegAppTableRecord
  2
GENIUS_GENDTOL_13
 70
     0
  0
APPID
  5
76E
330
9
100
AcDbSymbolTableRecord
100
AcDbRegAppTableRecord
  2
GENIUS_GENREC_14
 70
     0
  0
APPID
  5
76F
330
9
100
AcDbSymbolTableRecord
100
AcDbRegAppTableRecord
  2
GENIUS_GENODEF_13
 70
     0
  0
APPID
  5
770
330
9
100
AcDbSymbolTableRecord
100
AcDbRegAppTableRecord
  2
GENIUS_GENOBJ-N-REC_13
 70
     0
  0
APPID
  5
771
330
9
100
AcDbSymbolTableRecord
100
AcDbRegAppTableRecord
  2
GENIUS_GENOBJ-N-HTC_13
 70
     0
  0
APPID
  5
772
330
9
100
AcDbSymbolTableRecord
100
AcDbRegAppTableRecord
  2
GENIUS_GENHATCH_13
 70
     0
  0
APPID
  5
7DB
330
9
100
AcDbSymbolTableRecord
100
AcDbRegAppTableRecord
  2
GENIUS_GENCFG_13
 70
     0
  0
APPID
  5
7DC
330
9
100
AcDbSymbolTableRecord
100
AcDbRegAppTableRecord
  2
GENIUS_GENCFG0_13
 70
     0
  0
APPID
  5
7DD
330
9
100
AcDbSymbolTableRecord
100
AcDbRegAppTableRecord
  2
GENIUS_GENCFG1_13
 70
     0
  0
APPID
  5
7DE
330
9
100
AcDbSymbolTableRecord
100
AcDbRegAppTableRecord
  2
GENIUS_GENCFG2_13
 70
     0
  0
APPID
  5
7DF
330
9
100
AcDbSymbolTableRecord
100
AcDbRegAppTableRecord
  2
GENIUS_GENCFG3_13
 70
     0
  0
APPID
  5
7E0
330
9
100
AcDbSymbolTableRecord
100
AcDbRegAppTableRecord
  2
GENIUS_GENCFG4_13
 70
     0
  0
APPID
  5
7E1
330
9
100
AcDbSymbolTableRecord
100
AcDbRegAppTableRecord
  2
GENIUS_GENBLLY_14
 70
     0
  0
APPID
  5
7E2
330
9
100
AcDbSymbolTableRecord
100
AcDbRegAppTableRecord
  2
GENIUS_GENOBJ-N-CEN_13
 70
     0
  0
APPID
  5
7EF
330
9
100
AcDbSymbolTableRecord
100
AcDbRegAppTableRecord
  2
GENIUS_GENTRA_14
 70
     0
  0
APPID
  5
7F9
330
9
100
AcDbSymbolTableRecord
100
AcDbRegAppTableRecord
  2
GENIUS_GENOBJ-N-TIT_13
 70
     0
  0
APPID
  5
7FA
330
9
100
AcDbSymbolTableRecord
100
AcDbRegAppTableRecord
  2
GENIUS_GENTITLE_13
 70
     0
  0
APPID
  5
7FB
330
9
100
AcDbSymbolTableRecord
100
AcDbRegAppTableRecord
  2
GENIUS_GENOENT_13
 70
     0
  0
APPID
  5
7FC
330
9
100
AcDbSymbolTableRecord
100
AcDbRegAppTableRecord
  2
GENIUS_GENOREF_13
 70
     0
  0
APPID
  5
7FD
330
9
100
AcDbSymbolTableRecord
100
AcDbRegAppTableRecord
  2
GENIUS_GENOLIS_13
 70
     0
  0
APPID
  5
7FE
330
9
100
AcDbSymbolTableRecord
100
AcDbRegAppTableRecord
  2
GENIUS_GENZVEED_13
 70
     0
  0
APPID
  5
7FF
330
9
100
AcDbSymbolTableRecord
100
AcDbRegAppTableRecord
  2
GENIUS_GENSCREG_15
 70
     0
  0
APPID
  5
800
330
9
100
AcDbSymbolTableRecord
100
AcDbRegAppTableRecord
  2
GENIUS_GENOBJ-N-SDF_13
 70
     0
  0
APPID
  5
D1F
330
9
100
AcDbSymbolTableRecord
100
AcDbRegAppTableRecord
  2
GENIUS_GENOBJ-N-RSBK_13
 70
     0
  0
APPID
  5
D20
330
9
100
AcDbSymbolTableRecord
100
AcDbRegAppTableRecord
  2
GENIUS_GENOBJ-N-LIB_13
 70
     0
  0
APPID
  5
D21
330
9
100
AcDbSymbolTableRecord
100
AcDbRegAppTableRecord
  2
GENIUS_GENSCALE_13
 70
     0
  0
APPID
  5
FD0
330
9
100
AcDbSymbolTableRecord
100
AcDbRegAppTableRecord
  2
BASE_TYPE
 70
     0
  0
APPID
  5
1250
330
9
100
AcDbSymbolTableRecord
100
AcDbRegAppTableRecord
  2
GENIUS_GENOBJ-N-FIL_13
 70
     0
  0
APPID
  5
173C
330
9
100
AcDbSymbolTableRecord
100
AcDbRegAppTableRecord
  2
GENIUS_GENOBJ-N-CRS_13
 70
     0
  0
APPID
  5
7819
330
9
100
AcDbSymbolTableRecord
100
AcDbRegAppTableRecord
  2
AD_DRAW
 70
     0
  0
APPID
  5
781C
330
9
100
AcDbSymbolTableRecord
100
AcDbRegAppTableRecord
  2
ACATTRIBSERVICES
 70
     0
  0
APPID
  5
783A
330
9
100
AcDbSymbolTableRecord
100
AcDbRegAppTableRecord
  2
DESIGNERASSEMBLIES
 70
     0
  0
APPID
  5
784D
330
9
100
AcDbSymbolTableRecord
100
AcDbRegAppTableRecord
  2
ACADM_DIM_EDIT
 70
     0
  0
APPID
  5
784E
330
9
100
AcDbSymbolTableRecord
100
AcDbRegAppTableRecord
  2
AMDT_DM_ADJ
 70
     0
  0
APPID
  5
78A6
330
9
100
AcDbSymbolTableRecord
100
AcDbRegAppTableRecord
  2
ACAD_PSEXT
 70
     0
  0
ENDTAB
  0
TABLE
  2
DIMSTYLE
  5
A
330
0
100
AcDbSymbolTable
 70
    10
100
AcDbDimStyleTable
  0
DIMSTYLE
105
BF
102
{ACAD_REACTORS
330
8BDB
330
8BE3
330
8D1E
102
}
330
A
100
AcDbSymbolTableRecord
100
AcDbDimStyleTableRecord
  2
AM_JIS
 70
     0
  4
"
 41
2.5
 42
0.0
 43
8.0
 44
0.4
 47
0.1
 48
0.1000000001
 73
     0
 74
     0
 77
     3
 78
     1
 79
     2
140
3.4
141
0.0
143
0.0393701
146
0.71
147
1.0
172
     1
176
     3
177
     3
178
     2
179
     2
271
     2
272
     2
275
     1
283
     0
284
     1
340
11
341
C0
342
C0
371
    -1
372
    -1
  0
DIMSTYLE
105
C6
330
A
100
AcDbSymbolTableRecord
100
AcDbDimStyleTableRecord
  2
AM_JIS$3
 70
     0
  4
"
 41
2.5
 42
0.0
 43
10.0
 44
1.0
 47
0.1
 48
0.1
 73
     0
 77
     3
 78
     1
 79
     2
140
3.4
141
0.0
143
0.0393701
146
0.71
147
1.0
172
     1
176
     3
177
     3
178
     2
179
     1
271
     2
272
     2
275
     1
283
     0
284
     1
288
     1
289
     0
340
11
341
C0
342
C0
371
    -1
372
    -1
  0
DIMSTYLE
105
C7
330
A
100
AcDbSymbolTableRecord
100
AcDbDimStyleTableRecord
  2
AM_JIS$4
 70
     0
  4
"
 41
2.5
 42
0.0
 43
10.0
 44
1.0
 47
0.1
 48
0.1000000001
 73
     0
 77
     3
 78
     1
 79
     2
140
3.4
141
0.0
143
0.0393701
146
0.71
147
1.0
172
     1
176
     3
177
     3
178
     2
179
     1
271
     2
272
     2
275
     1
283
     0
284
     1
288
     1
289
     0
340
11
341
C0
342
C0
371
    -1
372
    -1
  0
DIMSTYLE
105
C8
330
A
100
AcDbSymbolTableRecord
100
AcDbDimStyleTableRecord
  2
AM_JIS$6
 70
     0
  4
"
 41
2.5
 42
0.0
 43
10.0
 44
1.0
 47
0.1
 48
0.1000000001
 73
     0
 74
     0
 77
     1
 78
     1
 79
     2
140
3.4
141
0.0
143
0.0393701
146
0.71
147
1.0
172
     1
176
     3
177
   256
178
     2
179
     1
271
     2
272
     2
275
     1
283
     0
284
     8
340
11
341
C0
342
C0
371
    -1
372
    -1
  0
DIMSTYLE
105
C9
330
A
100
AcDbSymbolTableRecord
100
AcDbDimStyleTableRecord
  2
AM_JIS$7
 70
     0
  4
"
 41
2.5
 42
0.0
 43
8.0
 44
0.4
 47
0.1
 48
0.1
 73
     0
 74
     0
 77
     3
 78
     1
 79
     2
140
3.4
141
0.0
143
0.0393701
146
0.71
147
1.0
172
     1
176
     3
177
     3
178
     2
179
     1
271
     2
272
     2
275
     1
283
     0
284
     1
340
11
341
C0
342
C0
371
    -1
372
    -1
  0
DIMSTYLE
105
CA
330
A
100
AcDbSymbolTableRecord
100
AcDbDimStyleTableRecord
  2
AM_JIS$SF
 70
     0
  4
"
 41
2.5
 42
1.0
 43
8.0
 44
1.0
 47
0.1
 48
0.1
 73
     0
 74
     0
 75
     1
 76
     1
 77
     3
 78
     1
 79
     2
140
3.4
141
0.0
143
0.0393701
146
0.71
147
1.0
176
     3
177
   256
178
     2
179
     1
271
     2
272
     2
275
     1
283
     0
340
11
341
C0
342
C0
371
    -1
372
    -1
  0
DIMSTYLE
105
CF
330
A
100
AcDbSymbolTableRecord
100
AcDbDimStyleTableRecord
  2
AM_JIS$SH
 70
     0
  4
"
 41
2.5
 42
1.0
 43
8.0
 44
1.0
 47
0.1
 48
0.1
 73
     0
 74
     0
 75
     1
 76
     1
 77
     3
 78
     1
 79
     2
140
3.4
141
0.0
143
0.0393701
144
2.0
146
0.71
147
1.0
173
     1
176
     3
177
   256
178
     2
271
     2
272
     2
340
11
341
C0
343
CB
344
C0
371
    -1
372
    -1
  0
DIMSTYLE
105
7D3
330
A
100
AcDbSymbolTableRecord
100
AcDbDimStyleTableRecord
  2
STANDARD
 70
     0
340
11
  0
DIMSTYLE
105
3CAC
330
A
100
AcDbSymbolTableRecord
100
AcDbDimStyleTableRecord
  2
AM_JIS$2
 70
     0
  4
"
 41
2.5
 42
0.1
 43
8.0
 44
1.0
 47
0.1
 48
0.1
 73
     0
 74
     0
 77
     3
 78
     1
 79
     2
140
3.4
141
0.0
143
0.0393701
146
0.71
147
0.9999999999999996
172
     1
176
     3
177
     3
178
     2
179
     1
271
     2
272
     2
275
     1
283
     0
284
     1
340
11
341
C0
342
C0
371
    -1
372
    -1
  0
DIMSTYLE
105
3CAD
102
{ACAD_REACTORS
330
99BC
330
9A9E
330
9AF6
330
9D83
102
}
330
A
100
AcDbSymbolTableRecord
100
AcDbDimStyleTableRecord
  2
AM_JIS$0
 70
     0
  4
"
 41
2.5
 42
0.1
 43
8.0
 44
0.5
 47
0.1
 48
0.1
 73
     0
 74
     0
 77
     3
 78
     1
 79
     2
140
3.4
141
0.0
143
0.0393701
146
0.71
147
0.9999999999999996
172
     1
176
     3
177
     3
178
     2
179
     1
271
     2
272
     2
275
     1
283
     0
284
     1
340
11
341
C0
342
C0
371
    -1
372
    -1
  0
ENDTAB
  0
TABLE
  2
BLOCK_RECORD
  5
1
330
0
100
AcDbSymbolTable
 70
    11
  0
BLOCK_RECORD
  5
1F
102
{ACAD_XDICTIONARY
360
68
102
}
330
1
100
AcDbSymbolTableRecord
100
AcDbBlockTableRecord
  2
*Model_Space
340
22
  0
BLOCK_RECORD
  5
1B
330
1
100
AcDbSymbolTableRecord
100
AcDbBlockTableRecord
  2
*Paper_Space
340
1E
  0
BLOCK_RECORD
  5
23
330
1
100
AcDbSymbolTableRecord
100
AcDbBlockTableRecord
  2
*Paper_Space0
340
26
  0
BLOCK_RECORD
  5
C0
330
1
100
AcDbSymbolTableRecord
100
AcDbBlockTableRecord
  2
_Open30
340
0
102
{BLKREFS
331
9EAA
331
9EAB
331
9EB3
331
9EB4
331
9EBC
331
9EBD
331
9EC5
331
9EC6
331
9ECE
331
9ECF
331
9ED9
331
9EDA
331
9EE4
331
9EE5
102
}
  0
BLOCK_RECORD
  5
CB
330
1
100
AcDbSymbolTableRecord
100
AcDbBlockTableRecord
  2
GENAXEH
340
0
  0
BLOCK_RECORD
  5
7831
330
1
100
AcDbSymbolTableRecord
100
AcDbBlockTableRecord
  2
*U3
340
0
  0
BLOCK_RECORD
  5
8D8A
330
1
100
AcDbSymbolTableRecord
100
AcDbBlockTableRecord
  2
*D4
340
0
  0
BLOCK_RECORD
  5
8DBA
330
1
100
AcDbSymbolTableRecord
100
AcDbBlockTableRecord
  2
*D5
340
0
  0
BLOCK_RECORD
  5
8DE8
330
1
100
AcDbSymbolTableRecord
100
AcDbBlockTableRecord
  2
*D6
340
0
  0
BLOCK_RECORD
  5
99BD
330
1
100
AcDbSymbolTableRecord
100
AcDbBlockTableRecord
  2
*D7
340
0
  0
BLOCK_RECORD
  5
9A9F
330
1
100
AcDbSymbolTableRecord
100
AcDbBlockTableRecord
  2
*D8
340
0
  0
BLOCK_RECORD
  5
9AF7
330
1
100
AcDbSymbolTableRecord
100
AcDbBlockTableRecord
  2
*D9
340
0
  0
BLOCK_RECORD
  5
9D84
330
1
100
AcDbSymbolTableRecord
100
AcDbBlockTableRecord
  2
*D10
340
0
  0
ENDTAB
  0
ENDSEC
  0
SECTION
  2
BLOCKS
  0
BLOCK
  5
20
330
1F
100
AcDbEntity
  8
0
100
AcDbBlockBegin
  2
*Model_Space
 70
     0
 71
     0
 10
0.0
 20
0.0
 30
0.0
  3
*Model_Space
  1

  0
ENDBLK
  5
21
330
1F
100
AcDbEntity
  8
0
100
AcDbBlockEnd
  0
BLOCK
  5
1C
330
1B
100
AcDbEntity
 67
     1
  8
0
100
AcDbBlockBegin
  2
*Paper_Space
 70
     0
 71
     0
 10
0.0
 20
0.0
 30
0.0
  3
*Paper_Space
  1

  0
ENDBLK
  5
1D
330
1B
100
AcDbEntity
 67
     1
  8
0
100
AcDbBlockEnd
  0
BLOCK
  5
24
330
23
100
AcDbEntity
  8
0
100
AcDbBlockBegin
  2
*Paper_Space0
 70
     0
 71
     0
 10
0.0
 20
0.0
 30
0.0
  3
*Paper_Space0
  1

  0
VIEWPORT
  5
82
330
23
100
AcDbEntity
  8
0
100
AcDbViewport
 10
5.249999639556163
 20
3.999999883606678
 30
0.0
 40
15.37157224495366
 41
8.992999745766948
 68
     1
 69
     1
 12
5.249999639556163
 22
3.999999883606678
 13
0.0
 23
0.0
 14
10.0
 24
10.0
 15
10.0
 25
10.0
 16
0.0
 26
0.0
 36
1.0
 17
0.0
 27
0.0
 37
0.0
 42
50.0
 43
0.0
 44
0.0
 45
8.992999745766948
 50
0.0
 51
0.0
 72
   100
 90
    32800
  1

281
     0
 71
     1
 74
     0
110
0.0
120
0.0
130
0.0
111
1.0
121
0.0
131
0.0
112
0.0
122
1.0
132
0.0
 79
     0
146
0.0
  0
ENDBLK
  5
25
330
23
100
AcDbEntity
  8
0
100
AcDbBlockEnd
  0
BLOCK
  5
C4
330
C0
100
AcDbEntity
  8
0
100
AcDbBlockBegin
  2
_Open30
 70
     0
 71
     0
 10
0.0
 20
0.0
 30
0.0
  3
_Open30
  1

  0
LINE
  5
C1
330
C0
100
AcDbEntity
  8
0
 62
     0
370
    -2
100
AcDbLine
 10
-1.0
 20
0.26794919
 30
0.0
 11
0.0
 21
0.0
 31
0.0
  0
LINE
  5
C2
330
C0
100
AcDbEntity
  8
0
 62
     0
370
    -2
100
AcDbLine
 10
0.0
 20
0.0
 30
0.0
 11
-1.0
 21
-0.26794919
 31
0.0
  0
LINE
  5
C3
330
C0
100
AcDbEntity
  8
0
 62
     0
370
    -2
100
AcDbLine
 10
0.0
 20
0.0
 30
0.0
 11
-1.0
 21
0.0
 31
0.0
  0
ENDBLK
  5
C5
330
C0
100
AcDbEntity
  8
0
100
AcDbBlockEnd
  0
BLOCK
  5
CD
330
CB
100
AcDbEntity
  8
0
100
AcDbBlockBegin
  2
GENAXEH
 70
     0
 71
     0
 10
0.0
 20
0.0
 30
0.0
  3
GENAXEH
  1

  0
LINE
  5
CC
330
CB
100
AcDbEntity
  8
0
100
AcDbLine
 10
-1.0
 20
0.0
 30
0.0
 11
1.0
 21
0.0
 31
0.0
  0
ENDBLK
  5
CE
330
CB
100
AcDbEntity
  8
0
100
AcDbBlockEnd
  0
BLOCK
  5
7832
330
7831
100
AcDbEntity
  8
0
100
AcDbBlockBegin
  2
*U3
 70
     1
 71
     0
 10
0.0
 20
0.0
 30
0.0
  3
*U3
  1

  0
ENDBLK
  5
7833
330
7831
100
AcDbEntity
  8
0
100
AcDbBlockEnd
  0
BLOCK
  5
8EBC
330
8D8A
100
AcDbEntity
  8
0
100
AcDbBlockBegin
  2
*D4
 70
     1
 71
     0
 10
0.0
 20
0.0
 30
0.0
  3
*D4
  1

  0
LINE
  5
9EA7
330
8D8A
100
AcDbEntity
  8
AM_5
 62
     3
100
AcDbLine
 10
150.0000000000002
 20
-61.34971969508639
 30
0.0
 11
165.3907370090976
 21
-61.34971969508639
 31
0.0
  0
LINE
  5
9EA8
330
8D8A
100
AcDbEntity
  8
AM_5
 62
     3
100
AcDbLine
 10
150.0000000000002
 20
-81.34971969508642
 30
0.0
 11
165.3907370090976
 21
-81.34971969508644
 31
0.0
  0
LINE
  5
9EA9
330
8D8A
100
AcDbEntity
  8
AM_5
 62
     3
100
AcDbLine
 10
164.9907370090976
 20
-63.84971969508639
 30
0.0
 11
164.9907370090976
 21
-78.84971969508644
 31
0.0
  0
INSERT
  5
9EAA
330
8D8A
100
AcDbEntity
  8
AM_5
 62
     3
100
AcDbBlockReference
  2
_Open30
 10
164.9907370090976
 20
-61.34971969508639
 30
0.0
 41
2.5
 42
2.5
 43
2.5
 50
90.0
  0
INSERT
  5
9EAB
330
8D8A
100
AcDbEntity
  8
AM_5
 62
     3
100
AcDbBlockReference
  2
_Open30
 10
164.9907370090976
 20
-81.34971969508644
 30
0.0
 41
2.5
 42
2.5
 43
2.5
 50
270.0
  0
MTEXT
  5
9EAC
330
8D8A
100
AcDbEntity
  8
AM_5
 62
     2
100
AcDbMText
 10
162.2904023634283
 20
-71.34971969508639
 30
0.0
 40
3.4
 41
0.0
 71
     5
 72
     1
  1
20
 11
6.123031769111886E-17
 21
1.0
 31
0.0
 73
     1
 44
1.0
  0
POINT
  5
9EAD
330
8D8A
100
AcDbEntity
  8
Defpoints
 62
     0
100
AcDbPoint
 10
150.0000000000002
 20
-61.34971969508639
 30
0.0
  0
POINT
  5
9EAE
330
8D8A
100
AcDbEntity
  8
Defpoints
 62
     0
100
AcDbPoint
 10
150.0000000000002
 20
-81.34971969508642
 30
0.0
  0
POINT
  5
9EAF
330
8D8A
100
AcDbEntity
  8
Defpoints
 62
     0
100
AcDbPoint
 10
164.9907370090976
 20
-81.34971969508644
 30
0.0
  0
ENDBLK
  5
8EBD
330
8D8A
100
AcDbEntity
  8
0
100
AcDbBlockEnd
  0
BLOCK
  5
8EC4
330
8DBA
100
AcDbEntity
  8
0
100
AcDbBlockBegin
  2
*D5
 70
     1
 71
     0
 10
0.0
 20
0.0
 30
0.0
  3
*D5
  1

  0
LINE
  5
9EB0
330
8DBA
100
AcDbEntity
  8
AM_5
 62
     3
100
AcDbLine
 10
16.00000000000011
 20
25.00000000000002
 30
0.0
 11
-11.47919030656523
 21
25.00000000000003
 31
0.0
  0
LINE
  5
9EB1
330
8DBA
100
AcDbEntity
  8
AM_5
 62
     3
100
AcDbLine
 10
-3.602170014913895
 20
0.0
 30
0.0
 11
-11.47919030656524
 21
0.0000000000000022
 31
0.0
  0
LINE
  5
9EB2
330
8DBA
100
AcDbEntity
  8
AM_5
 62
     3
100
AcDbLine
 10
-11.07919030656523
 20
22.50000000000003
 30
0.0
 11
-11.07919030656524
 21
2.500000000000002
 31
0.0
  0
INSERT
  5
9EB3
330
8DBA
100
AcDbEntity
  8
AM_5
 62
     3
100
AcDbBlockReference
  2
_Open30
 10
-11.07919030656523
 20
25.00000000000003
 30
0.0
 41
2.5
 42
2.5
 43
2.5
 50
90.0
  0
INSERT
  5
9EB4
330
8DBA
100
AcDbEntity
  8
AM_5
 62
     3
100
AcDbBlockReference
  2
_Open30
 10
-11.07919030656524
 20
0.0000000000000021
 30
0.0
 41
2.5
 42
2.5
 43
2.5
 50
270.0
  0
MTEXT
  5
9EB5
330
8DBA
100
AcDbEntity
  8
AM_5
 62
     2
100
AcDbMText
 10
-13.77952495223453
 20
12.50000000000003
 30
0.0
 40
3.4
 41
0.0
 71
     5
 72
     1
  1
25
 11
6.123031769111886E-17
 21
1.0
 31
0.0
 73
     1
 44
1.0
  0
POINT
  5
9EB6
330
8DBA
100
AcDbEntity
  8
Defpoints
 62
     0
100
AcDbPoint
 10
16.00000000000011
 20
25.00000000000002
 30
0.0
  0
POINT
  5
9EB7
330
8DBA
100
AcDbEntity
  8
Defpoints
 62
     0
100
AcDbPoint
 10
-3.602170014913895
 20
0.0
 30
0.0
  0
POINT
  5
9EB8
330
8DBA
100
AcDbEntity
  8
Defpoints
 62
     0
100
AcDbPoint
 10
-11.07919030656524
 20
0.0000000000000021
 30
0.0
  0
ENDBLK
  5
8EC5
330
8DBA
100
AcDbEntity
  8
0
100
AcDbBlockEnd
  0
BLOCK
  5
8ECC
330
8DE8
100
AcDbEntity
  8
0
100
AcDbBlockBegin
  2
*D6
 70
     1
 71
     0
 10
0.0
 20
0.0
 30
0.0
  3
*D6
  1

  0
LINE
  5
9EB9
330
8DE8
100
AcDbEntity
  8
AM_5
 62
     3
100
AcDbLine
 10
150.0000000000002
 20
24.99999999999998
 30
0.0
 11
165.3907370090977
 21
24.99999999999998
 31
0.0
  0
LINE
  5
9EBA
330
8DE8
100
AcDbEntity
  8
AM_5
 62
     3
100
AcDbLine
 10
150.0000000000002
 20
4.999999999999986
 30
0.0
 11
165.3907370090977
 21
4.999999999999982
 31
0.0
  0
LINE
  5
9EBB
330
8DE8
100
AcDbEntity
  8
AM_5
 62
     3
100
AcDbLine
 10
164.9907370090976
 20
22.49999999999998
 30
0.0
 11
164.9907370090976
 21
7.499999999999982
 31
0.0
  0
INSERT
  5
9EBC
330
8DE8
100
AcDbEntity
  8
AM_5
 62
     3
100
AcDbBlockReference
  2
_Open30
 10
164.9907370090976
 20
24.99999999999998
 30
0.0
 41
2.5
 42
2.5
 43
2.5
 50
90.0
  0
INSERT
  5
9EBD
330
8DE8
100
AcDbEntity
  8
AM_5
 62
     3
100
AcDbBlockReference
  2
_Open30
 10
164.9907370090976
 20
4.999999999999982
 30
0.0
 41
2.5
 42
2.5
 43
2.5
 50
270.0
  0
MTEXT
  5
9EBE
330
8DE8
100
AcDbEntity
  8
AM_5
 62
     2
100
AcDbMText
 10
160.5907370090976
 20
15.0
 30
0.0
 40
3.4
 41
0.0
 71
     5
 72
     1
  1
20{\H2x;}{\A2;\H0.71x;\C2;\S^ ;}
 11
6.123031769111886E-17
 21
1.0
 31
0.0
 73
     1
 44
1.0
  0
POINT
  5
9EBF
330
8DE8
100
AcDbEntity
  8
Defpoints
 62
     0
100
AcDbPoint
 10
150.0000000000002
 20
24.99999999999998
 30
0.0
  0
POINT
  5
9EC0
330
8DE8
100
AcDbEntity
  8
Defpoints
 62
     0
100
AcDbPoint
 10
150.0000000000002
 20
4.999999999999986
 30
0.0
  0
POINT
  5
9EC1
330
8DE8
100
AcDbEntity
  8
Defpoints
 62
     0
100
AcDbPoint
 10
164.9907370090976
 20
4.999999999999982
 30
0.0
  0
ENDBLK
  5
8ECD
330
8DE8
100
AcDbEntity
  8
0
100
AcDbBlockEnd
  0
BLOCK
  5
99E5
330
99BD
100
AcDbEntity
  8
0
100
AcDbBlockBegin
  2
*D7
 70
     1
 71
     0
 10
0.0
 20
0.0
 30
0.0
  3
*D7
  1

  0
LINE
  5
9EC2
330
99BD
100
AcDbEntity
  8
AM_5
 62
     3
100
AcDbLine
 10
0.0
 20
-0.1
 30
0.0
 11
-0.0000000000000017
 21
-28.41213083350819
 31
0.0
  0
LINE
  5
9EC3
330
99BD
100
AcDbEntity
  8
AM_5
 62
     3
100
AcDbLine
 10
150.0000000000002
 20
4.899999999999986
 30
0.0
 11
150.0000000000002
 21
-28.41213083350819
 31
0.0
  0
LINE
  5
9EC4
330
99BD
100
AcDbEntity
  8
AM_5
 62
     3
100
AcDbLine
 10
2.499999999999998
 20
-27.91213083350819
 30
0.0
 11
147.5000000000002
 21
-27.91213083350819
 31
0.0
  0
INSERT
  5
9EC5
330
99BD
100
AcDbEntity
  8
AM_5
 62
     3
100
AcDbBlockReference
  2
_Open30
 10
-0.0000000000000017
 20
-27.91213083350819
 30
0.0
 41
2.5
 42
2.5
 43
2.5
 50
180.0
  0
INSERT
  5
9EC6
330
99BD
100
AcDbEntity
  8
AM_5
 62
     3
100
AcDbBlockReference
  2
_Open30
 10
150.0000000000002
 20
-27.91213083350819
 30
0.0
 41
2.5
 42
2.5
 43
2.5
  0
MTEXT
  5
9EC7
330
99BD
100
AcDbEntity
  8
AM_5
 62
     2
100
AcDbMText
 10
75.00000000000011
 20
-25.21213083350819
 30
0.0
 40
3.4
 41
0.0
 71
     5
 72
     1
  1
150
 73
     1
 44
1.0
  0
POINT
  5
9EC8
330
99BD
100
AcDbEntity
  8
Defpoints
 62
     0
100
AcDbPoint
 10
0.0
 20
0.0
 30
0.0
  0
POINT
  5
9EC9
330
99BD
100
AcDbEntity
  8
Defpoints
 62
     0
100
AcDbPoint
 10
150.0000000000002
 20
4.999999999999986
 30
0.0
  0
POINT
  5
9ECA
330
99BD
100
AcDbEntity
  8
Defpoints
 62
     0
100
AcDbPoint
 10
150.0000000000002
 20
-27.91213083350819
 30
0.0
  0
ENDBLK
  5
99E6
330
99BD
100
AcDbEntity
  8
0
100
AcDbBlockEnd
  0
BLOCK
  5
9AC7
330
9A9F
100
AcDbEntity
  8
0
100
AcDbBlockBegin
  2
*D8
 70
     1
 71
     0
 10
0.0
 20
0.0
 30
0.0
  3
*D8
  1

  0
LINE
  5
9ECB
330
9A9F
100
AcDbEntity
  8
AM_5
 62
     3
100
AcDbLine
 10
-0.1
 20
-61.34971969508528
 30
0.0
 11
-12.5
 21
-61.34971969508528
 31
0.0
  0
LINE
  5
9ECC
330
9A9F
100
AcDbEntity
  8
AM_5
 62
     3
100
AcDbLine
 10
30.40000000000011
 20
-81.34971969508636
 30
0.0
 11
-12.5
 21
-81.34971969508636
 31
0.0
  0
LINE
  5
9ECD
330
9A9F
100
AcDbEntity
  8
AM_5
 62
     3
100
AcDbLine
 10
-12.0
 20
-63.84971969508528
 30
0.0
 11
-12.0
 21
-78.84971969508636
 31
0.0
  0
INSERT
  5
9ECE
330
9A9F
100
AcDbEntity
  8
AM_5
 62
     3
100
AcDbBlockReference
  2
_Open30
 10
-12.0
 20
-61.34971969508528
 30
0.0
 41
2.5
 42
2.5
 43
2.5
 50
90.0
  0
INSERT
  5
9ECF
330
9A9F
100
AcDbEntity
  8
AM_5
 62
     3
100
AcDbBlockReference
  2
_Open30
 10
-12.0
 20
-81.34971969508636
 30
0.0
 41
2.5
 42
2.5
 43
2.5
 50
270.0
  0
MTEXT
  5
9ED0
330
9A9F
100
AcDbEntity
  8
AM_5
 62
     2
100
AcDbMText
 10
-14.70033464566928
 20
-71.34971969508582
 30
0.0
 40
3.4
 41
0.0
 71
     5
 72
     1
  1
20
 11
6.123031769111886E-17
 21
1.0
 31
0.0
 73
     1
 44
1.0
  0
POINT
  5
9ED1
330
9A9F
100
AcDbEntity
  8
Defpoints
 62
     0
100
AcDbPoint
 10
0.0
 20
-61.34971969508528
 30
0.0
  0
POINT
  5
9ED2
330
9A9F
100
AcDbEntity
  8
Defpoints
 62
     0
100
AcDbPoint
 10
30.50000000000011
 20
-81.34971969508636
 30
0.0
  0
POINT
  5
9ED3
330
9A9F
100
AcDbEntity
  8
Defpoints
 62
     0
100
AcDbPoint
 10
-12.0
 20
-81.34971969508636
 30
0.0
  0
ENDBLK
  5
9AC8
330
9A9F
100
AcDbEntity
  8
0
100
AcDbBlockEnd
  0
BLOCK
  5
9B1C
330
9AF7
100
AcDbEntity
  8
0
100
AcDbBlockBegin
  2
*D9
 70
     1
 71
     0
 10
0.0
 20
0.0
 30
0.0
  3
*D9
  1

  0
LINE
  5
9ED4
330
9AF7
100
AcDbEntity
  8
AM_5
 62
     3
100
AcDbLine
 10
30.40000000000011
 20
-81.34971969508636
 30
0.0
 11
-12.5
 21
-81.34971969508636
 31
0.0
  0
LINE
  5
9ED5
330
9AF7
100
AcDbEntity
  8
AM_5
 62
     3
100
AcDbLine
 10
4.900000000000114
 20
-86.34971969508639
 30
0.0
 11
-12.5
 21
-86.34971969508639
 31
0.0
  0
LINE
  5
9ED6
330
9AF7
100
AcDbEntity
  8
AM_5
 62
     3
100
AcDbLine
 10
-12.0
 20
-78.84971969508636
 30
0.0
 11
-12.0
 21
-76.34971969508636
 31
0.0
  0
LINE
  5
9ED7
330
9AF7
100
AcDbEntity
  8
AM_5
 62
     3
100
AcDbLine
 10
-12.0
 20
-88.84971969508639
 30
0.0
 11
-12.0
 21
-91.34971969508639
 31
0.0
  0
LINE
  5
9ED8
330
9AF7
100
AcDbEntity
  8
AM_5
 62
     3
100
AcDbLine
 10
-12.0
 20
-81.34971969508636
 30
0.0
 11
-12.0
 21
-86.34971969508639
 31
0.0
  0
INSERT
  5
9ED9
330
9AF7
100
AcDbEntity
  8
AM_5
 62
     3
100
AcDbBlockReference
  2
_Open30
 10
-12.0
 20
-81.34971969508636
 30
0.0
 41
2.5
 42
2.5
 43
2.5
 50
270.0
  0
INSERT
  5
9EDA
330
9AF7
100
AcDbEntity
  8
AM_5
 62
     3
100
AcDbBlockReference
  2
_Open30
 10
-12.0
 20
-86.34971969508639
 30
0.0
 41
2.5
 42
2.5
 43
2.5
 50
90.0
  0
MTEXT
  5
9EDB
330
9AF7
100
AcDbEntity
  8
AM_5
 62
     2
100
AcDbMText
 10
-14.69999999999999
 20
-83.84971969508638
 30
0.0
 40
3.4
 41
0.0
 71
     5
 72
     1
  1
5
 11
6.123031769111886E-17
 21
1.0
 31
0.0
 73
     1
 44
1.0
  0
POINT
  5
9EDC
330
9AF7
100
AcDbEntity
  8
Defpoints
 62
     0
100
AcDbPoint
 10
30.50000000000011
 20
-81.34971969508636
 30
0.0
  0
POINT
  5
9EDD
330
9AF7
100
AcDbEntity
  8
Defpoints
 62
     0
100
AcDbPoint
 10
5.000000000000114
 20
-86.34971969508639
 30
0.0
  0
POINT
  5
9EDE
330
9AF7
100
AcDbEntity
  8
Defpoints
 62
     0
100
AcDbPoint
 10
-12.0
 20
-86.34971969508639
 30
0.0
  0
ENDBLK
  5
9B1D
330
9AF7
100
AcDbEntity
  8
0
100
AcDbBlockEnd
  0
BLOCK
  5
9DA9
330
9D84
100
AcDbEntity
  8
0
100
AcDbBlockBegin
  2
*D10
 70
     1
 71
     0
 10
0.0
 20
0.0
 30
0.0
  3
*D10
  1

  0
LINE
  5
9EDF
330
9D84
100
AcDbEntity
  8
AM_5
 62
     3
100
AcDbLine
 10
5.000000000000114
 20
14.09999999999996
 30
0.0
 11
5.000000000000116
 21
39.67760176273467
 31
0.0
  0
LINE
  5
9EE0
330
9D84
100
AcDbEntity
  8
AM_5
 62
     3
100
AcDbLine
 10
0.0000000000001137
 20
1.351436846259878
 30
0.0
 11
0.000000000000116
 21
39.67760176273467
 31
0.0
  0
LINE
  5
9EE1
330
9D84
100
AcDbEntity
  8
AM_5
 62
     3
100
AcDbLine
 10
7.500000000000116
 20
39.17760176273467
 30
0.0
 11
10.00000000000012
 21
39.17760176273467
 31
0.0
  0
LINE
  5
9EE2
330
9D84
100
AcDbEntity
  8
AM_5
 62
     3
100
AcDbLine
 10
-2.499999999999884
 20
39.17760176273467
 30
0.0
 11
-4.999999999999884
 21
39.17760176273467
 31
0.0
  0
LINE
  5
9EE3
330
9D84
100
AcDbEntity
  8
AM_5
 62
     3
100
AcDbLine
 10
5.000000000000116
 20
39.17760176273467
 30
0.0
 11
0.000000000000116
 21
39.17760176273467
 31
0.0
  0
INSERT
  5
9EE4
330
9D84
100
AcDbEntity
  8
AM_5
 62
     3
100
AcDbBlockReference
  2
_Open30
 10
5.000000000000116
 20
39.17760176273467
 30
0.0
 41
2.5
 42
2.5
 43
2.5
 50
180.0
  0
INSERT
  5
9EE5
330
9D84
100
AcDbEntity
  8
AM_5
 62
     3
100
AcDbBlockReference
  2
_Open30
 10
0.000000000000116
 20
39.17760176273467
 30
0.0
 41
2.5
 42
2.5
 43
2.5
  0
MTEXT
  5
9EE6
330
9D84
100
AcDbEntity
  8
AM_5
 62
     2
100
AcDbMText
 10
2.500000000000116
 20
41.87760176273467
 30
0.0
 40
3.4
 41
0.0
 71
     5
 72
     1
  1
5
 73
     1
 44
1.0
  0
POINT
  5
9EE7
330
9D84
100
AcDbEntity
  8
Defpoints
 62
     0
100
AcDbPoint
 10
5.000000000000114
 20
13.99999999999996
 30
0.0
  0
POINT
  5
9EE8
330
9D84
100
AcDbEntity
  8
Defpoints
 62
     0
100
AcDbPoint
 10
0.0000000000001137
 20
1.251436846259878
 30
0.0
  0
POINT
  5
9EE9
330
9D84
100
AcDbEntity
  8
Defpoints
 62
     0
100
AcDbPoint
 10
0.000000000000116
 20
39.17760176273467
 30
0.0
  0
ENDBLK
  5
9DAA
330
9D84
100
AcDbEntity
  8
0
100
AcDbBlockEnd
  0
ENDSEC
  0
SECTION
  2
ENTITIES
  0
LINE
  5
8B68
330
1F
100
AcDbEntity
  8
AM_5
100
AcDbLine
 10
0.0
 20
0.203000000000003
 30
0.0
 11
0.0
 21
-61.34971969508636
 31
0.0
  0
LINE
  5
8B69
330
1F
100
AcDbEntity
  8
AM_5
100
AcDbLine
 10
150.0000000000002
 20
4.999999999999986
 30
0.0
 11
150.0000000000002
 21
-61.34971969508639
 31
0.0
  0
LINE
  5
8B6A
330
1F
100
AcDbEntity
  8
AM_0
100
AcDbLine
 10
28.21194314464219
 20
-54.19037814512446
 30
0.0
 11
28.21194314464219
 21
-61.34971969508639
 31
0.0
  0
LINE
  5
8B6B
330
1F
100
AcDbEntity
  8
AM_0
100
AcDbLine
 10
5.499788935660604
 20
-60.42576105237241
 30
0.0
 11
7.805366350470308
 21
-54.19037814512443
 31
0.0
  0
LINE
  5
8B6C
330
1F
100
AcDbEntity
  8
AM_0
100
AcDbLine
 10
12.75555489965416
 20
-54.24169878135852
 30
0.0
 11
12.75555489965416
 21
-60.62372467140914
 31
0.0
  0
LINE
  5
8B6D
330
1F
100
AcDbEntity
  8
AM_0
100
AcDbLine
 10
12.75555489965416
 20
-54.24169878135852
 30
0.0
 11
8.399593062305371
 21
-60.42576105237241
 31
0.0
  0
LINE
  5
8B6E
330
1F
100
AcDbEntity
  8
AM_0
100
AcDbLine
 10
29.00000000000011
 20
-61.34971969508639
 30
0.0
 11
150.0000000000002
 21
-61.34971969508639
 31
0.0
  0
LINE
  5
8B76
330
1F
100
AcDbEntity
  8
AM_0
100
AcDbLine
 10
12.78040469444636
 20
-60.49037814512444
 30
0.0
 11
25.36046321362767
 21
-60.49037814512447
 31
0.0
  0
LINE
  5
8B77
330
1F
100
AcDbEntity
  8
AM_0
100
AcDbLine
 10
15.99482026033002
 20
-61.34971969508636
 30
0.0
 11
25.3158290138955
 21
-61.34971969508639
 31
0.0
  0
ELLIPSE
  5
8B78
330
1F
100
AcDbEntity
  8
AM_0
100
AcDbEllipse
 10
17.10718675251144
 20
-75.81058695377577
 30
0.0
 11
7.736762923651783E-16
 21
2.5
 31
0.0
210
0.0
220
0.0
230
1.0
 40
0.9986295347545736
 41
2.019802184293145
 42
5.856493219146752
  0
LINE
  5
8B79
330
1F
100
AcDbEntity
  8
AM_0
100
AcDbLine
 10
18.12091391659249
 20
-77.22471969508636
 30
0.0
 11
15.04840386170179
 21
-77.22471969508636
 31
0.0
  0
ELLIPSE
  5
8B7A
330
1F
100
AcDbEntity
  8
AM_0
100
AcDbEllipse
 10
16.85597416254529
 20
-75.81058695377577
 30
0.0
 11
7.736762923651783E-16
 21
2.5
 31
0.0
210
0.0
220
0.0
230
1.0
 40
0.9986295347545739
 41
3.191925371013491
 42
4.712388980384704
  0
LINE
  5
8B7B
330
1F
100
AcDbEntity
  8
AM_0
100
AcDbLine
 10
4.40487245339375
 20
-76.89576232022891
 30
0.0
 11
18.7082866448601
 21
-76.89576232022897
 31
0.0
  0
LINE
  5
8B7C
330
1F
100
AcDbEntity
  8
AM_0
100
AcDbLine
 10
15.99482026033002
 20
-61.34971969508636
 30
0.0
 11
18.14042316584187
 21
-73.53473758877304
 31
0.0
  0
LINE
  5
8B7D
330
1F
100
AcDbEntity
  8
AM_0
100
AcDbLine
 10
15.99482026033013
 20
-61.34971969508636
 30
0.0
 11
18.70812998102656
 21
-76.75878136855265
 31
0.0
  0
LINE
  5
8B7E
330
1F
100
AcDbEntity
  8
AM_0
100
AcDbLine
 10
5.000000000000114
 20
-86.34971969508636
 30
0.0
 11
25.3158290138955
 21
-86.34971969508636
 31
0.0
  0
LINE
  5
8B7F
330
1F
100
AcDbEntity
  8
AM_0
100
AcDbLine
 10
4.788684250380925
 20
-77.06407563856259
 30
0.0
 11
4.885311294549524
 21
-77.22471969508636
 31
0.0
  0
LINE
  5
8B80
330
1F
100
AcDbEntity
  8
AM_0
100
AcDbLine
 10
5.000000000000114
 20
-76.89576232022894
 30
0.0
 11
5.000000000000114
 21
-86.34971969508639
 31
0.0
  0
LINE
  5
8B81
330
1F
100
AcDbEntity
  8
AM_0
100
AcDbLine
 10
5.000000000000114
 20
-77.22471969508636
 30
0.0
 11
4.885311294549524
 21
-77.22471969508636
 31
0.0
  0
LINE
  5
8B82
330
1F
100
AcDbEntity
  8
AM_0
100
AcDbLine
 10
0.168166776425096
 20
-62.94971969508639
 30
0.0
 11
2.504552061466029
 21
-62.94971969508639
 31
0.0
  0
LINE
  5
8B83
330
1F
100
AcDbEntity
  8
AM_0
100
AcDbLine
 10
2.506196912143764
 20
-62.04971969508641
 30
0.0
 11
0.1159011036544371
 21
-62.04971969508641
 31
0.0
  0
LINE
  5
8B84
330
1F
100
AcDbEntity
  8
AM_0
100
AcDbLine
 10
2.507476240448682
 20
-61.34971969508636
 30
0.0
 11
0.213624199117362
 21
-61.34971969508636
 31
0.0
  0
LINE
  5
8B85
330
1F
100
AcDbEntity
  8
AM_0
100
AcDbLine
 10
2.506196912143764
 20
-62.04971969508641
 30
0.0
 11
0.1159011036544371
 21
-62.04971969508641
 31
0.0
  0
LINE
  5
8B86
330
1F
100
AcDbEntity
  8
AM_0
100
AcDbLine
 10
2.504552060942729
 20
-62.94971969508639
 30
0.0
 11
0.1758269055070514
 21
-62.94971969508639
 31
0.0
  0
LINE
  5
8B88
330
1F
100
AcDbEntity
  8
AM_0
100
AcDbLine
 10
0.336486883080056
 20
-64.55117853477371
 30
0.0
 11
2.571515167544817
 21
-77.04484275904621
 31
0.0
  0
LINE
  5
8B89
330
1F
100
AcDbEntity
  8
AM_0
100
AcDbLine
 10
2.614334355087181
 20
-76.94340370698227
 30
0.0
 11
0.1758269054481616
 21
-62.94971969474811
 31
0.0
  0
LINE
  5
8B8A
330
1F
100
AcDbEntity
  8
AM_0
100
AcDbLine
 10
0.0735729646860364
 20
-62.0497196950863
 30
0.0
 11
0.1004912797039879
 21
-62.30583035466036
 31
0.0
  0
LINE
  5
8B8B
330
1F
100
AcDbEntity
  8
AM_0
100
AcDbLine
 10
0.1004912797039879
 20
-62.30583035466036
 30
0.0
 11
0.1681667764252097
 21
-62.94971969508639
 31
0.0
  0
LINE
  5
8B8C
330
1F
100
AcDbEntity
  8
AM_0
100
AcDbLine
 10
0.0735729646860364
 20
-62.04971969508641
 30
0.0
 11
0.1159011036544371
 21
-62.04971969508641
 31
0.0
  0
LINE
  5
8B8D
330
1F
100
AcDbEntity
  8
AM_0
100
AcDbLine
 10
0.0000000000001137
 20
-61.34971969508636
 30
0.0
 11
0.213624199117362
 21
-61.34971969508636
 31
0.0
  0
LINE
  5
8B8E
330
1F
100
AcDbEntity
  8
AM_0
100
AcDbLine
 10
0.0000000000001137
 20
-61.34971969508636
 30
0.0
 11
0.0735729646860364
 21
-62.0497196950863
 31
0.0
  0
LINE
  5
8B8F
330
1F
100
AcDbEntity
  8
AM_0
100
AcDbLine
 10
0.0735729646860364
 20
-62.04971969508641
 30
0.0
 11
0.1159011036544371
 21
-62.04971969508641
 31
0.0
  0
LINE
  5
8B90
330
1F
100
AcDbEntity
  8
AM_0
100
AcDbLine
 10
0.1681667764252097
 20
-62.94971969508639
 30
0.0
 11
0.336486883080056
 21
-64.55117853477371
 31
0.0
  0
ELLIPSE
  5
8B91
330
1F
100
AcDbEntity
  8
AM_0
100
AcDbEllipse
 10
8.203458414502848
 20
-67.414573542958
 30
0.0
 11
2.475764135568571E-16
 21
0.8000000000000003
 31
0.0
210
0.0
220
0.0
230
1.0
 40
0.9986295347545741
 41
2.803275939473451
 42
4.527106918903135
  0
ELLIPSE
  5
8B92
330
1F
100
AcDbEntity
  8
AM_0
100
AcDbEllipse
 10
10.36284051517578
 20
-67.41457354295766
 30
0.0
 11
2.475764135568571E-16
 21
0.8000000000000003
 31
0.0
210
0.0
220
0.0
230
1.0
 40
0.9986295347545741
 41
1.756078388276823
 42
3.479909367706551
  0
ELLIPSE
  5
8B93
330
1F
100
AcDbEntity
  8
AM_0
100
AcDbEllipse
 10
10.30003736768424
 20
-67.41457354295766
 30
0.0
 11
2.475764135568571E-16
 21
0.8000000000000003
 31
0.0
210
0.0
220
0.0
230
1.0
 40
0.9986295347545741
 41
1.756078388276823
 42
3.141592653589828
  0
ELLIPSE
  5
8B94
330
1F
100
AcDbEntity
  8
AM_0
100
AcDbEllipse
 10
9.252006932763948
 20
-69.28721969508636
 30
0.0
 11
1.268828445821612E-15
 21
4.099997823193994
 31
0.0
210
0.0
220
0.0
230
1.0
 40
0.9986295347545741
 41
4.71238898038469
 42
6.27200049755411
  0
ELLIPSE
  5
8B95
330
1F
100
AcDbEntity
  8
AM_0
100
AcDbEllipse
 10
9.343594720611122
 20
-69.28721969508636
 30
0.0
 11
1.268828445821612E-15
 21
4.099997823193994
 31
0.0
210
0.0
220
0.0
230
1.0
 40
0.9986295347545741
 41
1.570796326794897
 42
7.853981633974483
  0
ELLIPSE
  5
8B96
330
1F
100
AcDbEntity
  8
AM_0
100
AcDbEllipse
 10
9.268041375626922
 20
-69.28721969508648
 30
0.0
 11
1.083146809311250E-15
 21
3.5
 31
0.0
210
0.0
220
0.0
230
1.0
 40
0.9986295347545741
 41
1.570796326794897
 42
7.853981633974483
  0
ELLIPSE
  5
8B97
330
1F
100
AcDbEntity
  8
AM_0
100
AcDbEllipse
 10
9.283149464839539
 20
-69.28721969508648
 30
0.0
 11
9.284115508382321E-16
 21
3.00000000000006
 31
0.0
210
0.0
220
0.0
230
1.0
 40
0.9986295347545741
 41
4.71238898038469
 42
10.99557428756428
  0
ELLIPSE
  5
8B98
330
1F
100
AcDbEntity
  8
AM_0
100
AcDbEllipse
 10
9.215112721723699
 20
-69.28721969508648
 30
0.0
 11
1.083146809311250E-15
 21
3.5
 31
0.0
210
0.0
220
0.0
230
1.0
 40
0.9986295347545741
 41
0.0
 42
3.141592653589817
  0
LINE
  5
8B99
330
1F
100
AcDbEntity
  8
AM_0
100
AcDbLine
 10
4.404872356482315
 20
-61.34971969508636
 30
0.0
 11
4.40487245339375
 21
-76.89576232022891
 31
0.0
  0
LINE
  5
8B9A
330
1F
100
AcDbEntity
  8
AM_0
100
AcDbLine
 10
4.376373246685034
 20
-76.94340370698227
 30
0.0
 11
4.404872356482315
 21
-61.34971969508636
 31
0.0
  0
ELLIPSE
  5
8B9B
330
1F
100
AcDbEntity
  8
AM_0
100
AcDbEllipse
 10
9.28314946483988
 20
-70.95721969508638
 30
0.0
 11
9.284115508382141E-17
 21
0.3
 31
0.0
210
0.0
220
0.0
230
1.0
 40
0.9986295347545742
 41
1.756078388276901
 42
4.527106918903004
  0
ELLIPSE
  5
8B9C
330
1F
100
AcDbEntity
  8
AM_0
100
AcDbEllipse
 10
9.220346317348344
 20
-70.95721969508638
 30
0.0
 11
9.284115508382141E-17
 21
0.3
 31
0.0
210
0.0
220
0.0
230
1.0
 40
0.9986295347545742
 41
3.246601089792585
 42
4.527106918903006
  0
LINE
  5
8B9D
330
1F
100
AcDbEntity
  8
AM_0
100
AcDbLine
 10
14.85807562356547
 20
-76.89576232022897
 30
0.0
 11
4.500000000000114
 21
-76.89576232022891
 31
0.0
  0
ELLIPSE
  5
8B9E
330
1F
100
AcDbEntity
  8
AM_0
100
AcDbEllipse
 10
9.252006932763948
 20
-69.28721969508636
 30
0.0
 11
1.268828445821612E-15
 21
4.099997823193994
 31
0.0
210
0.0
220
0.0
230
1.0
 40
0.9986295347545741
 41
3.152777463215283
 42
4.712388980384704
  0
ELLIPSE
  5
8B9F
330
1F
100
AcDbEntity
  8
AM_0
100
AcDbEllipse
 10
7.838869092908112
 20
-70.12221969508663
 30
0.0
 11
9.284115508382141E-17
 21
0.3
 31
0.0
210
0.0
220
0.0
230
1.0
 40
0.9986295347545742
 41
0.7088808370802502
 42
3.479909367706472
  0
ELLIPSE
  5
8BA0
330
1F
100
AcDbEntity
  8
AM_0
100
AcDbEllipse
 10
7.123767364166611
 20
-69.28721969508682
 30
0.0
 11
2.475764135568571E-16
 21
0.8000000000000003
 31
0.0
210
0.0
220
0.0
230
1.0
 40
0.9986295347545741
 41
3.850473490670055
 42
5.574304470099653
  0
ELLIPSE
  5
8BA1
330
1F
100
AcDbEntity
  8
AM_0
100
AcDbEllipse
 10
7.838869092907885
 20
-68.45221969508667
 30
0.0
 11
9.284115508382141E-17
 21
0.3
 31
0.0
210
0.0
220
0.0
230
1.0
 40
0.9986295347545742
 41
5.944868593063207
 42
8.715897123689468
  0
LINE
  5
8BA2
330
1F
100
AcDbEntity
  8
AM_0
100
AcDbLine
 10
8.203458414503416
 20
-70.35986584721529
 30
0.0
 11
8.14065526701188
 21
-70.35986584721529
 31
0.0
  0
LINE
  5
8BA3
330
1F
100
AcDbEntity
  8
AM_0
100
AcDbLine
 10
8.203458414502848
 20
-68.21457354295801
 30
0.0
 11
8.140655267011312
 21
-68.21457354295801
 31
0.0
  0
ELLIPSE
  5
8BA4
330
1F
100
AcDbEntity
  8
AM_0
100
AcDbEllipse
 10
8.203458414503416
 20
-71.1598658472153
 30
0.0
 11
2.475764135568571E-16
 21
0.8000000000000003
 31
0.0
210
0.0
220
0.0
230
1.0
 40
0.9986295347545741
 41
4.897671041866643
 42
6.621502021296229
  0
ELLIPSE
  5
8BA5
330
1F
100
AcDbEntity
  8
AM_0
100
AcDbEllipse
 10
8.14065526701188
 20
-71.1598658472153
 30
0.0
 11
2.475764135568571E-16
 21
0.8000000000000003
 31
0.0
210
0.0
220
0.0
230
1.0
 40
0.9986295347545741
 41
-0.0000000000000355
 42
0.3383167141166824
  0
ELLIPSE
  5
8BA6
330
1F
100
AcDbEntity
  8
AM_0
100
AcDbEllipse
 10
7.776065945416463
 20
-70.12221969508663
 30
0.0
 11
9.284115508382141E-17
 21
0.3
 31
0.0
210
0.0
220
0.0
230
1.0
 40
0.9986295347545742
 41
3.24660108979268
 42
3.479909367706374
  0
ELLIPSE
  5
8BA7
330
1F
100
AcDbEntity
  8
AM_0
100
AcDbEllipse
 10
7.776065945416235
 20
-68.45221969508667
 30
0.0
 11
9.284115508382141E-17
 21
0.3
 31
0.0
210
0.0
220
0.0
230
1.0
 40
0.9986295347545742
 41
5.944868593063305
 42
6.178176870976794
  0
ELLIPSE
  5
8BA8
330
1F
100
AcDbEntity
  8
AM_0
100
AcDbEllipse
 10
8.140655267011312
 20
-67.414573542958
 30
0.0
 11
2.475764135568571E-16
 21
0.8000000000000003
 31
0.0
210
0.0
220
0.0
230
1.0
 40
0.9986295347545741
 41
2.803275939473414
 42
3.141592653589828
  0
LINE
  5
8BA9
330
1F
100
AcDbEntity
  8
AM_0
100
AcDbLine
 10
4.40487245339375
 20
-76.89576232022891
 30
0.0
 11
4.376373246685034
 21
-76.94340370698227
 31
0.0
  0
ELLIPSE
  5
8BAA
330
1F
100
AcDbEntity
  8
AM_0
100
AcDbEllipse
 10
4.389225771286078
 20
-77.06772257978979
 30
0.0
 11
-0.4000039739635486
 21
-0.001843310166666132
 31
0.0
210
0.0
220
0.0
230
1.0
 40
0.0871536144684788
 41
3.193423476947002
 42
4.76421980374178
  0
LINE
  5
8BAB
330
1F
100
AcDbEntity
  8
AM_0
100
AcDbLine
 10
9.268041375626922
 20
-72.78721969508648
 30
0.0
 11
9.215112721723813
 21
-72.78721969508648
 31
0.0
  0
LINE
  5
8BAC
330
1F
100
AcDbEntity
  8
AM_0
100
AcDbLine
 10
2.571515167544817
 20
-77.04484275904621
 30
0.0
 11
2.614334355087181
 21
-76.94340370698227
 31
0.0
  0
LINE
  5
8BAD
330
1F
100
AcDbEntity
  8
AM_0
100
AcDbLine
 10
2.571515167544817
 20
-77.04484275904621
 30
0.0
 11
4.368342082085519
 21
-77.03300310164339
 31
0.0
  0
LINE
  5
8BAE
330
1F
100
AcDbEntity
  8
AM_0
100
AcDbLine
 10
4.376373246685034
 20
-76.94340370698227
 30
0.0
 11
2.614334355087181
 21
-76.94340370698227
 31
0.0
  0
LINE
  5
8BAF
330
1F
100
AcDbEntity
  8
AM_0
100
AcDbLine
 10
10.36284051517578
 20
-68.21457354295767
 30
0.0
 11
10.30003736768424
 21
-68.21457354295767
 31
0.0
  0
LINE
  5
8BB0
330
1F
100
AcDbEntity
  8
AM_0
100
AcDbLine
 10
10.36284051517635
 20
-70.35986584721495
 30
0.0
 11
10.30003736768481
 21
-70.35986584721495
 31
0.0
  0
ELLIPSE
  5
8BB1
330
1F
100
AcDbEntity
  8
AM_0
100
AcDbEllipse
 10
10.72742983677131
 20
-68.45221969508621
 30
0.0
 11
9.284115508382141E-17
 21
0.3
 31
0.0
210
0.0
220
0.0
230
1.0
 40
0.9986295347545742
 41
3.850473490669808
 42
6.621502021296474
  0
ELLIPSE
  5
8BB2
330
1F
100
AcDbEntity
  8
AM_0
100
AcDbEllipse
 10
10.66462668927977
 20
-68.45221969508621
 30
0.0
 11
9.284115508382141E-17
 21
0.3
 31
0.0
210
0.0
220
0.0
230
1.0
 40
0.9986295347545742
 41
3.850473490669838
 42
6.1781768709767
  0
ELLIPSE
  5
8BB3
330
1F
100
AcDbEntity
  8
AM_0
100
AcDbEllipse
 10
11.44253156551247
 20
-69.28721969508614
 30
0.0
 11
2.475764135568571E-16
 21
0.8000000000000003
 31
0.0
210
0.0
220
0.0
230
1.0
 40
0.9986295347545741
 41
0.7088808370801175
 42
2.432711816509764
  0
ELLIPSE
  5
8BB4
330
1F
100
AcDbEntity
  8
AM_0
100
AcDbEllipse
 10
11.37972841802105
 20
-69.28721969508614
 30
0.0
 11
2.475764135568571E-16
 21
0.8000000000000003
 31
0.0
210
0.0
220
0.0
230
1.0
 40
0.9986295347545741
 41
0.7088808370800729
 42
2.43271181650977
  0
ELLIPSE
  5
8BB5
330
1F
100
AcDbEntity
  8
AM_0
100
AcDbEllipse
 10
10.72742983677142
 20
-70.12221969508617
 30
0.0
 11
9.284115508382141E-17
 21
0.3
 31
0.0
210
0.0
220
0.0
230
1.0
 40
0.9986295347545742
 41
2.803275939473512
 42
5.574304470099675
  0
ELLIPSE
  5
8BB6
330
1F
100
AcDbEntity
  8
AM_0
100
AcDbEllipse
 10
10.66462668927977
 20
-70.12221969508617
 30
0.0
 11
9.284115508382141E-17
 21
0.3
 31
0.0
210
0.0
220
0.0
230
1.0
 40
0.9986295347545742
 41
3.246601089792585
 42
5.574304470099572
  0
ELLIPSE
  5
8BB7
330
1F
100
AcDbEntity
  8
AM_0
100
AcDbEllipse
 10
10.36284051517635
 20
-71.15986584721496
 30
0.0
 11
2.475764135568571E-16
 21
0.8000000000000003
 31
0.0
210
0.0
220
0.0
230
1.0
 40
0.9986295347545741
 41
5.944868593063316
 42
7.6686995724928
  0
ELLIPSE
  5
8BB8
330
1F
100
AcDbEntity
  8
AM_0
100
AcDbEllipse
 10
10.30003736768481
 20
-71.15986584721496
 30
0.0
 11
2.475764135568571E-16
 21
0.8000000000000003
 31
0.0
210
0.0
220
0.0
230
1.0
 40
0.9986295347545741
 41
-0.0000000000000355
 42
1.385514265313213
  0
LINE
  5
8BB9
330
1F
100
AcDbEntity
  8
AM_0
100
AcDbLine
 10
9.807724740334038
 20
-62.04975689647903
 30
0.0
 11
8.409569090858781
 21
-61.34971969508636
 31
0.0
  0
ELLIPSE
  5
8BBA
330
1F
100
AcDbEntity
  8
AM_0
100
AcDbEllipse
 10
10.5956487288646
 20
-60.16037814512445
 30
0.0
 11
2.232656594335175
 21
-6.909413904119615E-16
 31
0.0
210
0.0
220
0.0
230
1.0
 40
0.8196513537474525
 41
3.322912427991252
 42
6.02720404017252
  0
ELLIPSE
  5
8BBB
330
1F
100
AcDbEntity
  8
AM_0
100
AcDbEllipse
 10
9.283149464839312
 20
-67.61721969508652
 30
0.0
 11
9.284115508382141E-17
 21
0.3
 31
0.0
210
0.0
220
0.0
230
1.0
 40
0.9986295347545742
 41
4.89767104186656
 42
7.668699572492729
  0
ELLIPSE
  5
8BBC
330
1F
100
AcDbEntity
  8
AM_0
100
AcDbEllipse
 10
9.220346317347776
 20
-67.61721969508652
 30
0.0
 11
9.284115508382141E-17
 21
0.3
 31
0.0
210
0.0
220
0.0
230
1.0
 40
0.9986295347545742
 41
4.897671041866584
 42
6.178176870976794
  0
LINE
  5
8BBD
330
1F
100
AcDbEntity
  8
AM_0
100
AcDbLine
 10
5.948717404737749
 20
-60.49037814512444
 30
0.0
 11
8.399593062305371
 21
-60.49037814512444
 31
0.0
  0
LINE
  5
8BBE
330
1F
100
AcDbEntity
  8
AM_0
100
AcDbLine
 10
8.399593062305371
 20
-60.42576105237241
 30
0.0
 11
5.499788935660604
 21
-60.42576105237241
 31
0.0
  0
LINE
  5
8BBF
330
1F
100
AcDbEntity
  8
AM_0
100
AcDbLine
 10
4.404872356482315
 20
-61.34971969508636
 30
0.0
 11
8.409569090858781
 21
-61.34971969508636
 31
0.0
  0
LINE
  5
8BC0
330
1F
100
AcDbEntity
  8
AM_0
100
AcDbLine
 10
5.499788935660604
 20
-60.49037814512444
 30
0.0
 11
5.948717404737749
 21
-60.49037814512444
 31
0.0
  0
LINE
  5
8BC1
330
1F
100
AcDbEntity
  8
AM_0
100
AcDbLine
 10
5.499788935660604
 20
-60.42576105237241
 30
0.0
 11
5.499788935660604
 21
-60.49037814512444
 31
0.0
  0
ELLIPSE
  5
8BC2
330
1F
100
AcDbEntity
  8
AM_0
100
AcDbEllipse
 10
7.302557663025141
 20
-60.16037814512445
 30
0.0
 11
1.489256283781933
 21
-1.610270116205958
 31
0.0
210
0.0
220
0.0
230
1.0
 40
0.5838098166091321
 41
4.398625220316874
 42
4.92477595106489
  0
LINE
  5
8BC3
330
1F
100
AcDbEntity
  8
AM_0
100
AcDbLine
 10
8.399593062305371
 20
-60.42576105237241
 30
0.0
 11
8.399593062305371
 21
-60.49037814512444
 31
0.0
  0
LINE
  5
8BC4
330
1F
100
AcDbEntity
  8
AM_0
100
AcDbLine
 10
9.268041375626922
 20
-65.78721969508648
 30
0.0
 11
9.215112721723813
 21
-65.78721969508648
 31
0.0
  0
LINE
  5
8BC5
330
1F
100
AcDbEntity
  8
AM_0
100
AcDbLine
 10
2.504552061466143
 20
-62.94971969508639
 30
0.0
 11
2.506196912143764
 21
-62.04971969508641
 31
0.0
  0
LINE
  5
8BC6
330
1F
100
AcDbEntity
  8
AM_0
100
AcDbLine
 10
2.506196912143764
 20
-62.04971969508641
 30
0.0
 11
2.507476240448682
 21
-61.34971969508636
 31
0.0
  0
LINE
  5
8BC7
330
1F
100
AcDbEntity
  8
AM_0
100
AcDbLine
 10
2.507476240448682
 20
-61.34971969508636
 30
0.0
 11
2.504552060943411
 21
-62.9497196947376
 31
0.0
  0
LINE
  5
8BC8
330
1F
100
AcDbEntity
  8
AM_0
100
AcDbLine
 10
2.507476240448682
 20
-61.34971969508636
 30
0.0
 11
4.404872356482315
 21
-61.34971969508636
 31
0.0
  0
LINE
  5
8BC9
330
1F
100
AcDbEntity
  8
AM_0
100
AcDbLine
 10
12.78035342344856
 20
-60.49071142746793
 30
0.0
 11
12.78035342344856
 21
-61.34971969508636
 31
0.0
  0
ELLIPSE
  5
8BCA
330
1F
100
AcDbEntity
  8
AM_0
100
AcDbEllipse
 10
11.27079767214468
 20
-60.16037814512445
 30
0.0
 11
5.663310460113113E-16
 21
1.830000000000003
 31
0.0
210
0.0
220
0.0
230
1.0
 40
0.8386705679454227
 41
4.456407713377624
 42
4.531069205983211
  0
LINE
  5
8BCB
330
1F
100
AcDbEntity
  8
AM_0
100
AcDbLine
 10
12.29248617844144
 20
-61.34971969508636
 30
0.0
 11
13.02204133654948
 21
-61.34971969508636
 31
0.0
  0
LINE
  5
8BCC
330
1F
100
AcDbEntity
  8
AM_0
100
AcDbLine
 10
13.02204133654948
 20
-61.34971969508636
 30
0.0
 11
15.99482026033013
 21
-61.34971969508636
 31
0.0
  0
LINE
  5
8BCD
330
1F
100
AcDbEntity
  8
AM_0
100
AcDbLine
 10
10.5956487288646
 20
-61.9903781451245
 30
0.0
 11
9.689129990655147
 21
-61.9903781451245
 31
0.0
  0
ELLIPSE
  5
8BCE
330
1F
100
AcDbEntity
  8
AM_0
100
AcDbEllipse
 10
10.71580521370424
 20
-60.68576688551853
 30
0.0
 11
1.816160946740448
 21
-5.620482670450328E-16
 31
0.0
210
0.0
220
0.0
230
1.0
 40
0.8672138902814365
 41
4.188790204786393
 42
5.235987755982909
  0
LINE
  5
8BCF
330
1F
100
AcDbEntity
  8
AM_0
100
AcDbLine
 10
13.02204133654948
 20
-61.34971969508636
 30
0.0
 11
11.62388568707434
 21
-62.04975689647897
 31
0.0
  0
ELLIPSE
  5
8BD0
330
1F
100
AcDbEntity
  8
AM_0
100
AcDbEllipse
 10
18.35840039530956
 20
-76.82771969508637
 30
0.0
 11
-0.4270443629110312
 21
-0.318706234019683
 31
0.0
210
0.0
220
0.0
230
1.0
 40
0.5543167452245469
 41
0.6388424839839558
 42
2.037396404956287
  0
LINE
  5
8BD1
330
1F
100
AcDbEntity
  8
AM_0
100
AcDbLine
 10
29.50000000000011
 20
-61.34971969508639
 30
0.0
 11
29.50000000000011
 21
-86.34971969508636
 31
0.0
  0
LINE
  5
8BD2
330
1F
100
AcDbEntity
  8
AM_0
100
AcDbLine
 10
25.84348214260274
 20
-61.34971969508639
 30
0.0
 11
25.84348214260274
 21
-86.34971969508636
 31
0.0
  0
LINE
  5
8BD3
330
1F
100
AcDbEntity
  8
AM_0
100
AcDbLine
 10
25.3158290138955
 20
-86.34971969508636
 30
0.0
 11
29.50000000000011
 21
-86.34971969508636
 31
0.0
  0
ELLIPSE
  5
8BD4
330
1F
100
AcDbEntity
  8
AM_0
100
AcDbEllipse
 10
16.85597416254529
 20
-75.81058695377577
 30
0.0
 11
7.736762923651783E-16
 21
2.5
 31
0.0
210
0.0
220
0.0
230
1.0
 40
0.9986295347545739
 41
4.71238898038469
 42
5.730562661632402
  0
ELLIPSE
  5
8BD5
330
1F
100
AcDbEntity
  8
AM_0
100
AcDbEllipse
 10
18.31769711206584
 20
-76.82771969508637
 30
0.0
 11
1.228597952275903E-16
 21
0.397
 31
0.0
210
0.0
220
0.0
230
1.0
 40
0.9986295347545741
 41
4.540146574562192
 42
4.886921905584091
  0
LINE
  5
8BD6
330
1F
100
AcDbEntity
  8
AM_0
100
AcDbLine
 10
17.78035342344856
 20
-60.49037814512444
 30
0.0
 11
17.78035342344856
 21
-61.34971969508636
 31
0.0
  0
LINE
  5
8BD7
330
1F
100
AcDbEntity
  8
AM_0
100
AcDbLine
 10
19.31496992496091
 20
-61.34971969508636
 30
0.0
 11
19.31496992496091
 21
-60.49037814512444
 31
0.0
  0
LINE
  5
8BD8
330
1F
100
AcDbEntity
  8
AM_0
100
AcDbLine
 10
25.36046321362767
 20
-60.49037814512447
 30
0.0
 11
25.36046321362767
 21
-61.34971969508639
 31
0.0
  0
LINE
  5
8BD9
330
1F
100
AcDbEntity
  8
AM_0
100
AcDbLine
 10
25.3158290138955
 20
-61.34971969508639
 30
0.0
 11
29.00000000000011
 21
-61.34971969508639
 31
0.0
  0
DIMENSION
  5
8BDB
330
1F
100
AcDbEntity
  8
AM_5
100
AcDbDimension
  2
*D4
 10
164.9907370090976
 20
-81.34971969508644
 30
0.0
 11
162.2904023634283
 21
-71.34971969508639
 31
0.0
 70
    32
  1
<>
 71
     5
 42
20.00000000000004
  3
AM_JIS
100
AcDbAlignedDimension
 13
150.0000000000002
 23
-61.34971969508639
 33
0.0
 14
150.0000000000002
 24
-81.34971969508642
 34
0.0
 50
90.0
100
AcDbRotatedDimension
1001
GENIUS_GENDTOL_13
1000

1000
h7
1000

1040
0.0
1001
ACAD
1000
DSTYLE
1002
{
1070
   271
1070
     0
1002
}
  0
LINE
  5
8BDC
330
1F
100
AcDbEntity
  8
AM_0
100
AcDbLine
 10
150.0000000000002
 20
-61.34971969508639
 30
0.0
 11
150.0000000000002
 21
-81.34971969508642
 31
0.0
  0
LINE
  5
8BDE
330
1F
100
AcDbEntity
  8
AM_0
100
AcDbLine
 10
29.50000000000011
 20
4.999999999999986
 30
0.0
 11
150.0000000000002
 21
4.999999999999986
 31
0.0
  0
DIMENSION
  5
8BE3
330
1F
100
AcDbEntity
  8
AM_5
100
AcDbDimension
  2
*D5
 10
-11.07919030656524
 20
0.0000000000000021
 30
0.0
 11
-11.07919030656524
 21
12.50000000000003
 31
0.0
 70
   160
  1
<>
 71
     5
 42
25.00000000000003
  3
AM_JIS
100
AcDbAlignedDimension
 13
16.00000000000011
 23
25.00000000000002
 33
0.0
 14
-3.602170014913895
 24
0.0
 34
0.0
 50
270.0
100
AcDbRotatedDimension
1001
GENIUS_GENDTOL_13
1000

1000
h7
1000

1040
0.0
1001
ACAD
1000
DSTYLE
1002
{
1070
   271
1070
     0
1002
}
  0
LINE
  5
8CD4
330
1F
100
AcDbEntity
  8
AM_0
100
AcDbLine
 10
22.16644985597543
 20
20.74144393934476
 30
0.0
 11
11.26373247268487
 21
13.6611364841494
 31
0.0
  0
LINE
  5
8CD5
330
1F
100
AcDbEntity
  8
AM_0
100
AcDbLine
 10
28.21194314464219
 20
11.43220063515058
 30
0.0
 11
22.16644985597543
 21
20.74144393934476
 31
0.0
  0
LINE
  5
8CD6
330
1F
100
AcDbEntity
  8
AM_0
100
AcDbLine
 10
22.30912321935614
 20
21.07256976343841
 30
0.0
 11
28.57247212202879
 21
11.4278582320661
 31
0.0
  0
LINE
  5
8CD9
330
1F
100
AcDbEntity
  8
AM_0
100
AcDbLine
 10
16.00000000000011
 20
24.99999999999999
 30
0.0
 11
5.07570087659758
 21
14.07570087659742
 31
0.0
  0
LINE
  5
8CDB
330
1F
100
AcDbEntity
  8
AM_0
100
AcDbLine
 10
11.78195459383221
 20
-49.19037814512443
 30
0.0
 11
19.28195459383221
 21
-49.19037814512443
 31
0.0
  0
LINE
  5
8CDC
330
1F
100
AcDbEntity
  8
AM_0
100
AcDbLine
 10
19.78195459383221
 20
-49.69037814512443
 30
0.0
 11
11.28195459383221
 21
-49.69037814512443
 31
0.0
  0
LINE
  5
8CDD
330
1F
100
AcDbEntity
  8
AM_0
100
AcDbLine
 10
12.78040469444636
 20
-54.19037814512443
 30
0.0
 11
28.21194314464231
 21
-54.19037814512446
 31
0.0
  0
LINE
  5
8CDE
330
1F
100
AcDbEntity
  8
AM_0
100
AcDbLine
 10
11.78195459383221
 20
-49.19037814512443
 30
0.0
 11
11.28195459383221
 21
-49.69037814512443
 31
0.0
  0
LINE
  5
8CDF
330
1F
100
AcDbEntity
  8
AM_0
100
AcDbLine
 10
7.805366350470308
 20
-54.19037814512443
 30
0.0
 11
12.78040469444647
 21
-54.19037814512443
 31
0.0
  0
LINE
  5
8CE0
330
1F
100
AcDbEntity
  8
AM_0
100
AcDbLine
 10
12.78040469444636
 20
-54.19037814512443
 30
0.0
 11
12.75555489965416
 21
-54.24169878135852
 31
0.0
  0
LINE
  5
8CE1
330
1F
100
AcDbEntity
  8
AM_0
100
AcDbLine
 10
11.28195459383221
 20
-54.19037814512443
 30
0.0
 11
11.28195459383221
 21
-49.69037814512443
 31
0.0
  0
LINE
  5
8CE2
330
1F
100
AcDbEntity
  8
AM_0
100
AcDbLine
 10
19.28195459383221
 20
-49.19037814512443
 30
0.0
 11
19.78195459383221
 21
-49.69037814512443
 31
0.0
  0
LINE
  5
8CE3
330
1F
100
AcDbEntity
  8
AM_0
100
AcDbLine
 10
19.78195459383221
 20
-54.19037814512443
 30
0.0
 11
19.78195459383221
 21
-49.69037814512443
 31
0.0
  0
LINE
  5
8CE6
330
1F
100
AcDbEntity
  8
AM_7
  6
AM_ISO08W050x2
100
AcDbLine
 10
19.76663923885042
 20
12.68460875639188
 30
0.0
 11
10.70582830238357
 21
6.800449333723364
 31
0.0
1001
GENIUS_GENODEF_13
1002
{
1000
HIER
1070
     0
1002
}
1002
{
1000
MANEDIT
1070
     0
1002
}
1002
{
1000
NOSEL
1070
     0
1002
}
1002
{
1000
BEHIND
1070
     0
1002
}
1002
{
1000
REACTOR
1002
}
1001
GENIUS_GENOBJ-N-CEN_13
1002
{
1000
OWNER
1000
GEN
1002
}
  0
LINE
  5
8CE7
330
1F
100
AcDbEntity
  8
AM_0
100
AcDbLine
 10
12.78040469444636
 20
1.410842390874009
 30
0.0
 11
28.21194314464231
 21
11.43220063515058
 31
0.0
  0
LINE
  5
8CE8
330
1F
100
AcDbEntity
  8
AM_0
100
AcDbLine
 10
15.99482026033002
 20
0.827335644443238
 30
0.0
 11
25.84348214260274
 21
1.343482142602667
 31
0.0
  0
CIRCLE
  5
8CE9
330
1F
100
AcDbEntity
  8
AM_0
100
AcDbCircle
 10
15.53195459383221
 20
9.934572393120163
 30
0.0
 40
4.25
  0
CIRCLE
  5
8CEA
330
1F
100
AcDbEntity
  8
AM_0
100
AcDbCircle
 10
15.53195459383221
 20
9.934572393120163
 30
0.0
 40
3.75
  0
LINE
  5
8CEB
330
1F
100
AcDbEntity
  8
AM_7
  6
AM_ISO08W050x2
100
AcDbLine
 10
12.97308689459601
 20
13.87488311020987
 30
0.0
 11
18.21576133291387
 21
5.801872425959644
 31
0.0
1001
GENIUS_GENODEF_13
1002
{
1000
HIER
1070
     0
1002
}
1002
{
1000
MANEDIT
1070
     0
1002
}
1002
{
1000
NOSEL
1070
     0
1002
}
1002
{
1000
BEHIND
1070
     0
1002
}
1002
{
1000
REACTOR
1002
}
1001
GENIUS_GENOBJ-N-CEN_13
1002
{
1000
OWNER
1000
GEN
1002
}
  0
LINE
  5
8CED
330
1F
100
AcDbEntity
  8
AM_0
100
AcDbLine
 10
2.507476240448682
 20
0.1204938959348425
 30
0.0
 11
0.213624199117362
 21
0.0002782044448679
 31
0.0
  0
LINE
  5
8CEE
330
1F
100
AcDbEntity
  8
AM_0
100
AcDbLine
 10
0.213624199117362
 20
2.502595488074832
 30
0.0
 11
2.388609346525641
 21
2.388609346525612
 31
0.0
  0
LINE
  5
8CF0
330
1F
100
AcDbEntity
  8
AM_5
100
AcDbLine
 10
0.2030000000000882
 20
0.0
 30
0.0
 11
-3.602170014913895
 21
0.0
 31
0.0
  0
ARC
  5
8CF1
330
1F
100
AcDbEntity
  8
AM_0
100
AcDbCircle
 10
0.2030000000000882
 20
0.203000000000003
 30
0.0
 40
0.203
100
AcDbArc
 50
179.9999999999903
 51
272.9999999999957
  0
LINE
  5
8CF2
330
1F
100
AcDbEntity
  8
AM_0
100
AcDbLine
 10
0.0000000000001137
 20
0.2030000000000598
 30
0.0
 11
0.0000000000001137
 21
2.299873692519697
 31
0.0
  0
ARC
  5
8CF3
330
1F
100
AcDbEntity
  8
AM_0
100
AcDbCircle
 10
0.2030000000000882
 20
2.299873692519697
 30
0.0
 40
0.2030000000000001
100
AcDbArc
 50
87.00000000000416
 51
180.0
  0
LINE
  5
8CF4
330
1F
100
AcDbEntity
  8
AM_0
100
AcDbLine
 10
8.399593062305371
 20
1.546818284683482
 30
0.0
 11
5.499788935660604
 21
6.012125061228758
 31
0.0
  0
LINE
  5
8CF6
330
1F
100
AcDbEntity
  8
AM_0
100
AcDbLine
 10
5.60506192720311
 20
5.04936384986668
 30
0.0
 11
5.000000000000114
 21
5.981077512504655
 31
0.0
  0
LINE
  5
8CF7
330
1F
100
AcDbEntity
  8
AM_0
100
AcDbLine
 10
7.805366350470308
 20
9.071729630397002
 30
0.0
 11
12.78040469444647
 21
1.410842390874066
 31
0.0
  0
LINE
  5
8CF8
330
1F
100
AcDbEntity
  8
AM_0
100
AcDbLine
 10
9.807724740334038
 20
0.5030837080281714
 30
0.0
 11
8.409569090858781
 21
0.4298094753471702
 31
0.0
  0
LINE
  5
8CF9
330
1F
100
AcDbEntity
  8
AM_0
100
AcDbLine
 10
12.75555489965416
 20
1.394704745446589
 30
0.0
 11
8.399593062305371
 21
1.546818284683482
 31
0.0
  0
LINE
  5
8CFA
330
1F
100
AcDbEntity
  8
AM_0
100
AcDbLine
 10
8.409569090858781
 20
0.4298094753471702
 30
0.0
 11
5.416028952956935
 21
5.039457051475168
 31
0.0
  0
LINE
  5
8CFB
330
1F
100
AcDbEntity
  8
AM_0
100
AcDbLine
 10
4.404872356482315
 20
0.2199322127963939
 30
0.0
 11
8.409569090858781
 21
0.4298094753471702
 31
0.0
  0
LINE
  5
8CFC
330
1F
100
AcDbEntity
  8
AM_0
100
AcDbLine
 10
4.437935531870721
 20
4.988197347344695
 30
0.0
 11
4.317403993739845
 21
2.688318593092916
 31
0.0
  0
ELLIPSE
  5
8CFD
330
1F
100
AcDbEntity
  8
AM_0
100
AcDbEllipse
 10
3.917952179838039
 20
2.709252975590189
 30
0.0
 11
-0.02094714293075625
 21
-0.3996952974776434
 31
0.0
210
0.0
220
0.0
230
1.0
 40
0.9993908270190959
 41
0.0000000000002118
 42
1.570796326794913
  0
LINE
  5
8CFE
330
1F
100
AcDbEntity
  8
AM_0
100
AcDbLine
 10
4.500000000000114
 20
4.99145000829175
 30
0.0
 11
5.60506192720311
 21
5.04936384986668
 31
0.0
  0
LINE
  5
8CFF
330
1F
100
AcDbEntity
  8
AM_0
100
AcDbLine
 10
5.60506192720311
 20
5.04936384986668
 30
0.0
 11
5.858997720705702
 21
5.062672060884623
 31
0.0
  0
LINE
  5
8D00
330
1F
100
AcDbEntity
  8
AM_0
100
AcDbLine
 10
5.858997720705588
 20
5.062672060884623
 30
0.0
 11
6.10789978806622
 21
5.075716465493898
 31
0.0
  0
LINE
  5
8D01
330
1F
100
AcDbEntity
  8
AM_0
100
AcDbLine
 10
5.416028952956935
 20
5.039457051475225
 30
0.0
 11
4.437935531870721
 21
4.988197347344695
 31
0.0
  0
LINE
  5
8D02
330
1F
100
AcDbEntity
  8
AM_0
100
AcDbLine
 10
2.388609346525641
 20
2.388609346525669
 30
0.0
 11
2.507476240448682
 21
0.1204938959348993
 31
0.0
  0
LINE
  5
8D03
330
1F
100
AcDbEntity
  8
AM_0
100
AcDbLine
 10
2.388609346525641
 20
2.388609346525612
 30
0.0
 11
2.507476240448682
 21
0.1204938959348425
 31
0.0
  0
LINE
  5
8D04
330
1F
100
AcDbEntity
  8
AM_0
100
AcDbLine
 10
3.897005036907444
 20
2.309557678112483
 30
0.0
 11
2.388609346525641
 21
2.388609346525556
 31
0.0
  0
LINE
  5
8D05
330
1F
100
AcDbEntity
  8
AM_0
100
AcDbLine
 10
2.507476240448682
 20
0.1204938959348425
 30
0.0
 11
4.404872356482315
 21
0.2199322127963939
 31
0.0
  0
LINE
  5
8D06
330
1F
100
AcDbEntity
  8
AM_0
100
AcDbLine
 10
12.78040469444636
 20
1.410842390874009
 30
0.0
 11
12.75555489965416
 21
1.394704745446589
 31
0.0
  0
LINE
  5
8D07
330
1F
100
AcDbEntity
  8
AM_0
100
AcDbLine
 10
15.85944778481292
 20
3.410396353540435
 30
0.0
 11
15.99482026033002
 21
0.827335644443238
 31
0.0
  0
LINE
  5
8D08
330
1F
100
AcDbEntity
  8
AM_0
100
AcDbLine
 10
15.99482026033002
 20
0.827335644443238
 30
0.0
 11
15.85944778481292
 21
3.410396353540492
 31
0.0
  0
LINE
  5
8D09
330
1F
100
AcDbEntity
  8
AM_0
100
AcDbLine
 10
12.54769821209641
 20
1.401963260920141
 30
0.0
 11
13.02204133654948
 21
0.6715389027484804
 31
0.0
  0
LINE
  5
8D0A
330
1F
100
AcDbEntity
  8
AM_0
100
AcDbLine
 10
13.02204133654948
 20
0.6715389027484804
 30
0.0
 11
15.99482026033013
 21
0.827335644443238
 31
0.0
  0
LINE
  5
8D0B
330
1F
100
AcDbEntity
  8
AM_0
100
AcDbLine
 10
11.62388568707434
 20
0.5982646700674223
 30
0.0
 11
9.807724740334038
 21
0.5030837080281714
 31
0.0
  0
LINE
  5
8D0C
330
1F
100
AcDbEntity
  8
AM_0
100
AcDbLine
 10
13.02204133654948
 20
0.6715389027484804
 30
0.0
 11
11.62388568707434
 21
0.5982646700674223
 31
0.0
  0
LINE
  5
8D0D
330
1F
100
AcDbEntity
  8
AM_0
100
AcDbLine
 10
11.26373247268487
 20
13.66113648414934
 30
0.0
 11
7.805366350470308
 21
9.071729630396945
 31
0.0
  0
LINE
  5
8D0E
330
1F
100
AcDbEntity
  8
AM_0
100
AcDbLine
 10
5.000000000000114
 20
13.99999999999996
 30
0.0
 11
5.07570087659758
 21
14.07570087659742
 31
0.0
  0
LINE
  5
8D0F
330
1F
100
AcDbEntity
  8
AM_0
100
AcDbLine
 10
5.499788935660604
 20
6.012125061228758
 30
0.0
 11
7.805366350470308
 21
9.071729630397002
 31
0.0
  0
LINE
  5
8D10
330
1F
100
AcDbEntity
  8
AM_0
100
AcDbLine
 10
5.000000000000114
 20
5.017653897933272
 30
0.0
 11
5.000000000000114
 21
13.99999999999996
 31
0.0
  0
LINE
  5
8D11
330
1F
100
AcDbEntity
  8
AM_0
100
AcDbLine
 10
5.07570087659758
 20
14.07570087659742
 30
0.0
 11
8.084640928316162
 21
9.442339512737604
 31
0.0
  0
LINE
  5
8D16
330
1F
100
AcDbEntity
  8
AM_0
100
AcDbLine
 10
25.84348214260274
 20
1.343482142602667
 30
0.0
 11
29.50000000000011
 21
4.999999999999986
 31
0.0
  0
ARC
  5
8D17
330
1F
100
AcDbEntity
  8
AM_0
100
AcDbCircle
 10
26.89513098613782
 20
10.33858016203601
 30
0.0
 40
1.999999999999968
100
AcDbArc
 50
212.9999999999984
 51
32.99999999999836
  0
LINE
  5
8D1A
330
1F
100
AcDbEntity
  8
AM_0
100
AcDbLine
 10
25.21778985024696
 20
9.249302092005948
 30
0.0
 11
25.10886204324413
 21
9.417036205594954
 31
0.0
  0
LINE
  5
8D1B
330
1F
100
AcDbEntity
  8
AM_0
100
AcDbLine
 10
19.06336875457726
 20
18.72627950978917
 30
0.0
 11
18.95444094757431
 21
18.89401362337834
 31
0.0
  0
ARC
  5
8D1C
330
1F
100
AcDbEntity
  8
AM_0
100
AcDbCircle
 10
20.63178208346517
 20
19.98329169340835
 30
0.0
 40
2.0
100
AcDbArc
 50
32.99999999999836
 51
212.9999999999984
  0
DIMENSION
  5
8D1E
330
1F
100
AcDbEntity
  8
AM_5
100
AcDbDimension
  2
*D6
 10
164.9907370090976
 20
4.999999999999982
 30
0.0
 11
160.5907370090976
 21
15.0
 31
0.0
 70
    32
  1
<>{\H2x;}{\A2;\H0.71x;\C2;\S^ ;}
 71
     5
 42
19.99999999999999
  3
AM_JIS
100
AcDbAlignedDimension
 13
150.0000000000002
 23
24.99999999999998
 33
0.0
 14
150.0000000000002
 24
4.999999999999986
 34
0.0
 50
90.0
100
AcDbRotatedDimension
1001
GENIUS_GENDTOL_13
1000

1000
h7
1000

1040
0.0
1001
ACAD
1000
DSTYLE
1002
{
1070
   271
1070
     0
1002
}
  0
LINE
  5
8D1F
330
1F
100
AcDbEntity
  8
AM_0
100
AcDbLine
 10
150.0000000000002
 20
4.999999999999986
 30
0.0
 11
150.0000000000002
 21
24.99999999999998
 31
0.0
  0
ELLIPSE
  5
8D22
330
1F
100
AcDbEntity
  8
AM_0
100
AcDbEllipse
 10
14.45226354349541
 20
11.8072185452486
 30
0.0
 11
2.475764135568571E-16
 21
0.8000000000000003
 31
0.0
210
0.0
220
0.0
230
1.0
 40
0.9986295347545741
 41
2.803275939473451
 42
4.527106918903135
  0
ELLIPSE
  5
8D23
330
1F
100
AcDbEntity
  8
AM_0
100
AcDbEllipse
 10
16.61164564416833
 20
11.80721854524894
 30
0.0
 11
2.475764135568571E-16
 21
0.8000000000000003
 31
0.0
210
0.0
220
0.0
230
1.0
 40
0.9986295347545741
 41
1.756078388276823
 42
3.479909367706551
  0
ELLIPSE
  5
8D24
330
1F
100
AcDbEntity
  8
AM_0
100
AcDbEllipse
 10
15.53195459383244
 20
8.264572393120218
 30
0.0
 11
9.284115508382141E-17
 21
0.3
 31
0.0
210
0.0
220
0.0
230
1.0
 40
0.9986295347545742
 41
1.756078388276901
 42
4.527106918903004
  0
ELLIPSE
  5
8D25
330
1F
100
AcDbEntity
  8
AM_0
100
AcDbEllipse
 10
14.08767422190067
 20
9.099572393119971
 30
0.0
 11
9.284115508382141E-17
 21
0.3
 31
0.0
210
0.0
220
0.0
230
1.0
 40
0.9986295347545742
 41
0.7088808370802502
 42
3.479909367706472
  0
ELLIPSE
  5
8D26
330
1F
100
AcDbEntity
  8
AM_0
100
AcDbEllipse
 10
13.37257249315928
 20
9.93457239311978
 30
0.0
 11
2.475764135568571E-16
 21
0.8000000000000003
 31
0.0
210
0.0
220
0.0
230
1.0
 40
0.9986295347545741
 41
3.850473490670055
 42
5.574304470099653
  0
ELLIPSE
  5
8D27
330
1F
100
AcDbEntity
  8
AM_0
100
AcDbEllipse
 10
14.08767422190044
 20
10.76957239311993
 30
0.0
 11
9.284115508382141E-17
 21
0.3
 31
0.0
210
0.0
220
0.0
230
1.0
 40
0.9986295347545742
 41
5.944868593063207
 42
8.715897123689468
  0
ELLIPSE
  5
8D28
330
1F
100
AcDbEntity
  8
AM_0
100
AcDbEllipse
 10
14.45226354349597
 20
8.061926240991298
 30
0.0
 11
2.475764135568571E-16
 21
0.8000000000000003
 31
0.0
210
0.0
220
0.0
230
1.0
 40
0.9986295347545741
 41
4.897671041866643
 42
6.621502021296229
  0
ELLIPSE
  5
8D29
330
1F
100
AcDbEntity
  8
AM_0
100
AcDbEllipse
 10
16.97623496576387
 20
10.76957239312038
 30
0.0
 11
9.284115508382141E-17
 21
0.3
 31
0.0
210
0.0
220
0.0
230
1.0
 40
0.9986295347545742
 41
3.850473490669808
 42
6.621502021296474
  0
ELLIPSE
  5
8D2A
330
1F
100
AcDbEntity
  8
AM_0
100
AcDbEllipse
 10
17.69133669450514
 20
9.934572393120462
 30
0.0
 11
2.475764135568571E-16
 21
0.8000000000000003
 31
0.0
210
0.0
220
0.0
230
1.0
 40
0.9986295347545741
 41
0.7088808370801175
 42
2.432711816509764
  0
ELLIPSE
  5
8D2B
330
1F
100
AcDbEntity
  8
AM_0
100
AcDbEllipse
 10
16.97623496576398
 20
9.099572393120425
 30
0.0
 11
9.284115508382141E-17
 21
0.3
 31
0.0
210
0.0
220
0.0
230
1.0
 40
0.9986295347545742
 41
2.803275939473512
 42
5.574304470099675
  0
ELLIPSE
  5
8D2C
330
1F
100
AcDbEntity
  8
AM_0
100
AcDbEllipse
 10
16.6116456441689
 20
8.061926240991639
 30
0.0
 11
2.475764135568571E-16
 21
0.8000000000000003
 31
0.0
210
0.0
220
0.0
230
1.0
 40
0.9986295347545741
 41
5.944868593063316
 42
7.6686995724928
  0
ELLIPSE
  5
8D2D
330
1F
100
AcDbEntity
  8
AM_0
100
AcDbEllipse
 10
15.53195459383187
 20
11.60457239312008
 30
0.0
 11
9.284115508382141E-17
 21
0.3
 31
0.0
210
0.0
220
0.0
230
1.0
 40
0.9986295347545742
 41
4.89767104186656
 42
7.668699572492729
  0
LINE
  5
8D6D
330
1F
100
AcDbEntity
  8
AM_0
100
AcDbLine
 10
16.00000000000011
 20
25.00000000000002
 30
0.0
 11
150.0000000000002
 21
24.99999999999998
 31
0.0
  0
LINE
  5
8D6E
330
1F
100
AcDbEntity
  8
AM_0
100
AcDbLine
 10
30.00000000000011
 20
-81.34971969508636
 30
0.0
 11
150.0000000000002
 21
-81.34971969508642
 31
0.0
  0
ARC
  5
8D6F
330
1F
100
AcDbEntity
  8
AM_0
100
AcDbCircle
 10
30.50000000000011
 20
-82.34971969508636
 30
0.0
 40
1.0
100
AcDbArc
 50
90.0
 51
180.0
  0
TEXT
  5
8FD2
330
1F
100
AcDbEntity
  8
AM_0
370
    -3
100
AcDbText
 10
15.92722222486577
 20
-112.8456551971459
 30
0.0
 40
5.0
  1
GWBR2020-45
100
AcDbText
  0
DIMENSION
  5
99BC
330
1F
100
AcDbEntity
  8
AM_5
100
AcDbDimension
  2
*D7
 10
150.0000000000002
 20
-27.91213083350819
 30
0.0
 11
75.00000000000011
 21
-25.21213083350819
 31
0.0
 70
    32
 71
     5
 42
150.0000000000002
  3
AM_JIS$0
100
AcDbAlignedDimension
 13
0.0
 23
0.0
 33
0.0
 14
150.0000000000002
 24
4.999999999999986
 34
0.0
100
AcDbRotatedDimension
1001
ACAD
1000
DSTYLE
1002
{
1070
    47
1040
0.25
1070
    48
1040
0.25
1070
   179
1070
     2
1070
   271
1070
     0
1002
}
  0
DIMENSION
  5
9A9E
330
1F
100
AcDbEntity
  8
AM_5
100
AcDbDimension
  2
*D8
 10
-12.0
 20
-81.34971969508636
 30
0.0
 11
-14.70033464566928
 21
-71.34971969508582
 31
0.0
 70
    32
 71
     5
 42
20.00000000000108
  3
AM_JIS$0
100
AcDbAlignedDimension
 13
0.0
 23
-61.34971969508528
 33
0.0
 14
30.50000000000011
 24
-81.34971969508636
 34
0.0
 50
90.0
100
AcDbRotatedDimension
1001
ACAD
1000
DSTYLE
1002
{
1070
    47
1040
0.25
1070
    48
1040
0.25
1070
   179
1070
     2
1070
   271
1070
     0
1002
}
  0
DIMENSION
  5
9AF6
330
1F
100
AcDbEntity
  8
AM_5
100
AcDbDimension
  2
*D9
 10
-12.0
 20
-86.34971969508639
 30
0.0
 11
-14.69999999999999
 21
-83.84971969508638
 31
0.0
 70
    32
 71
     5
 42
5.000000000000028
  3
AM_JIS$0
100
AcDbAlignedDimension
 13
30.50000000000011
 23
-81.34971969508636
 33
0.0
 14
5.000000000000114
 24
-86.34971969508639
 34
0.0
 50
90.0
100
AcDbRotatedDimension
1001
ACAD
1000
DSTYLE
1002
{
1070
    47
1040
0.25
1070
    48
1040
0.25
1070
   179
1070
     2
1070
   271
1070
     0
1002
}
  0
DIMENSION
  5
9D83
330
1F
100
AcDbEntity
  8
AM_5
100
AcDbDimension
  2
*D10
 10
0.000000000000116
 20
39.17760176273467
 30
0.0
 11
2.500000000000116
 21
41.87760176273467
 31
0.0
 70
    32
 71
     5
 42
5.0
  3
AM_JIS$0
100
AcDbAlignedDimension
 13
5.000000000000114
 23
13.99999999999996
 33
0.0
 14
0.0000000000001137
 24
1.251436846259878
 34
0.0
 50
180.0
100
AcDbRotatedDimension
1001
ACAD
1000
DSTYLE
1002
{
1070
    47
1040
0.25
1070
    48
1040
0.25
1070
   179
1070
     2
1070
   271
1070
     0
1002
}
  0
VIEWPORT
  5
7D
330
1B
100
AcDbEntity
 67
     1
  8
0
100
AcDbViewport
 10
5.249999639556163
 20
3.999999883606678
 30
0.0
 40
15.37157224495366
 41
8.992999745766948
 68
     1
 69
     1
 12
5.249999639556163
 22
3.999999883606678
 13
0.0
 23
0.0
 14
10.0
 24
10.0
 15
10.0
 25
10.0
 16
0.0
 26
0.0
 36
1.0
 17
0.0
 27
0.0
 37
0.0
 42
50.0
 43
0.0
 44
0.0
 45
8.992999745766948
 50
0.0
 51
0.0
 72
   100
 90
    32800
  1

281
     0
 71
     1
 74
     0
110
0.0
120
0.0
130
0.0
111
1.0
121
0.0
131
0.0
112
0.0
122
1.0
132
0.0
 79
     0
146
0.0
  0
ENDSEC
  0
SECTION
  2
OBJECTS
  0
DICTIONARY
  5
C
330
0
100
AcDbDictionary
281
     1
  3
ACAD_COLOR
350
77E1
  3
ACAD_GROUP
350
D
  3
ACAD_LAYOUT
350
1A
  3
ACAD_MATERIAL
350
77E0
  3
ACAD_MLINESTYLE
350
17
  3
ACAD_PLOTSETTINGS
350
19
  3
ACAD_PLOTSTYLENAME
350
E
  3
ACAD_TABLESTYLE
350
77E2
  3
AcAmCatalogState
350
784A
  3
ACDBHEADERROUNDTRIPXREC
350
9F2C
  3
AcDbVariableDictionary
350
4A
  3
ACDMSYSVARMGR
350
77FB
  3
ACGREF_MASTER
350
77F3
  3
ACGREFACAD_MASTER
350
781D
  3
AcmDictionary
350
59
  3
ACME_BOM_MANAGER_NAME
350
50
  3
ACME_COMMAND_HISTORY
350
49
  3
ACME_SCOPE_NAME
350
48
  3
ACMESTATEMGR
350
55
  3
AcmeSysVarManager
350
4C
  3
AcmSystemVariableManager
350
2C2
  3
AD_APPL
350
7828
  3
ADSYSVARMGR
350
7827
  3
AmdtNamedDwgMgr
350
7818
  3
AMG
350
41
  3
AMGSNAPSETTINGS
350
D4
  3
AMI_MASTER
350
7820
  3
AUTOCAD_ASSEMBLIES_PROJECT
350
7830
  3
Designer_Assemblies_SysVars
350
782B
  3
DWGPROPS
350
9F2F
  3
GREFAM_MODULE
350
7821
  3
table_dic_data
350
FD1
  0
DICTIONARY
  5
7879
330
2
100
AcDbDictionary
280
     1
281
     1
  3
ACAD_LAYERSTATES
360
98F7
  3
AMLAYER_GROUPCOLORS
360
787A
  0
DICTIONARY
  5
68
330
1F
100
AcDbDictionary
280
     1
281
     1
  0
DICTIONARY
  5
77E1
102
{ACAD_REACTORS
330
C
102
}
330
C
100
AcDbDictionary
281
     1
  0
DICTIONARY
  5
D
102
{ACAD_REACTORS
330
C
102
}
330
C
100
AcDbDictionary
281
     1
  0
DICTIONARY
  5
1A
102
{ACAD_REACTORS
330
C
102
}
330
C
100
AcDbDictionary
281
     1
  3
Model
350
22
  3
ﾚｲｱｳﾄ1
350
1E
  3
ﾚｲｱｳﾄ2
350
26
  0
DICTIONARY
  5
77E0
102
{ACAD_REACTORS
330
C
102
}
330
C
100
AcDbDictionary
281
     1
  0
DICTIONARY
  5
17
102
{ACAD_REACTORS
330
C
102
}
330
C
100
AcDbDictionary
281
     1
  3
Standard
350
18
  0
DICTIONARY
  5
19
102
{ACAD_REACTORS
330
C
102
}
330
C
100
AcDbDictionary
281
     1
  0
ACDBDICTIONARYWDFLT
  5
E
102
{ACAD_REACTORS
330
C
102
}
330
C
100
AcDbDictionary
281
     1
  3
Normal
350
F
100
AcDbDictionaryWithDefault
340
F
  0
DICTIONARY
  5
77E2
102
{ACAD_REACTORS
330
C
102
}
330
C
100
AcDbDictionary
281
     1
  3
Standard
350
77E3
  0
ACAD_PROXY_OBJECT
  5
784A
102
{ACAD_REACTORS
330
C
102
}
330
C
100
AcDbProxyObject
 90
      499
 91
      571
 95
       25
 70
     0
 93
      232
310
3FFFFFFFE00A028140288221D2E4961C9B1C5D24BA62E483ECB65400AA
  0
DICTIONARY
  5
9F2C
102
{ACAD_REACTORS
330
C
102
}
330
C
100
AcDbDictionary
281
     1
  3
COLORDICT
350
9F2D
  3
MATERIALDICT
350
9F2E
  0
DICTIONARY
  5
4A
102
{ACAD_REACTORS
330
C
102
}
330
C
100
AcDbDictionary
281
     1
  3
CTABLESTYLE
350
7856
  3
DIMASSOC
350
9F2A
  3
HIDETEXT
350
9F2B
  3
INDEXCTL
350
4B
  0
ACAD_PROXY_OBJECT
  5
77FB
102
{ACAD_REACTORS
330
C
102
}
330
C
100
AcDbProxyObject
 90
      499
 91
      508
 95
       25
 70
     0
 93
      240
310
4C51A47A0000000000000000000000000000000000000000000000000000
330
77FC
330
77FD
330
77FE
330
77FF
330
7800
330
7801
330
7802
330
7803
330
7804
330
7805
330
7806
330
7807
330
7808
330
7809
330
780A
330
780B
330
780C
330
780D
330
780E
330
780F
330
7810
330
7811
330
7812
330
7813
330
7814
330
7815
 94
        0
  0
ACAD_PROXY_OBJECT
  5
77F3
102
{ACAD_REACTORS
330
C
102
}
330
C
100
AcDbProxyObject
 90
      499
 91
      535
 95
       25
 70
     0
 93
       34
310
0400004280
  0
ACAD_PROXY_OBJECT
  5
781D
102
{ACAD_REACTORS
330
C
102
}
330
C
100
AcDbProxyObject
 90
      499
 91
      541
 95
       25
 70
     0
 93
      114
310
04000041C080000000000000000000
  0
DICTIONARY
  5
59
102
{ACAD_REACTORS
330
C
102
}
330
C
100
AcDbDictionary
281
     1
  3
AcmBOMDATA
350
5A
  3
AcmStdDictionary
350
2C5
  3
AMDTSECTSYM_ARROWCOLOR
350
783E
  0
ACAD_PROXY_OBJECT
  5
50
102
{ACAD_REACTORS
330
C
102
}
330
C
100
AcDbProxyObject
 90
      499
 91
      511
 95
       25
 70
     0
 93
       50
310
00010040400000
330
0
330
0
330
51
 94
        0
  0
ACAD_PROXY_OBJECT
  5
49
102
{ACAD_REACTORS
330
C
102
}
330
C
100
AcDbProxyObject
 90
      499
 91
      506
 95
       25
 70
     0
 93
     5934
310
478050653454C454354404052D4D5347202D205050413A2020206465736B746F702E6172782046696C6556657273696F6E3A20392E322E302E34014390535115149154D15511109353D1102014213880B4815539113C05084E202D20554E444F014115539113E014115539113E0142941493D4115495125154E01415415549
310
1D1601415454D05591501014B5354D1C80B481414104E88080819195CDADD1BDC0B985C9E08119A5B1955995C9CDA5BDB8E880E4B8C8B8C0B8D0050E414D4454524553455444424D4F4440805084E202D20554E444F014213880B4815539113C0504554E444F80504554E444F805055153415645404052D4D5347202D20505
310
0413A2020206465736B746F702E6172782046696C6556657273696F6E3A20392E322E302E34014390535115149154D15511109353D1102014213880B4815539113C05084E202D20554E444F014115539113E014115539113E01419493D510551160142111493D411D153D3501014B5354D1C80B481414104E88080819195CD
310
ADD1BDC0B985C9E08119A5B1955995C9CDA5BDB8E880E4B8C8B8C0B8D005044D4F564540405184D5347202D20436F6D6D616E642043414E43454C4C45442E01411693D3D3601415454D05591501014B5354D1C80B481414104E88080819195CDADD1BDC0B985C9E08119A5B1955995C9CDA5BDB8E880E4B8C8B8C0B8D0050E
310
414D4454524553455444424D4F4440805084E202D20554E444F014213880B4815539113C0504554E444F80504554E444F805054552415345805054552415345805055153415645404052D4D5347202D205050413A2020206465736B746F702E6172782046696C6556657273696F6E3A20392E322E302E34014390535115149
310
154D15511109353D1102014213880B4815539113C05084E202D20554E444F014115539113E014115539113E014154155491D16014154155491D1501014B5354D1C80B481414104E88080819195CDADD1BDC0B985C9E08119A5B1955995C9CDA5BDB8E880E4B8C8B8C0B8D0
  0
ACAD_PROXY_OBJECT
  5
48
102
{ACAD_REACTORS
330
C
102
}
330
C
100
AcDbProxyObject
 90
      499
 91
      505
 95
       25
 70
     0
 93
      586
310
09000046408000000000000000001344E200000000000000000000000000000000000000000000000000000000000000000000000000000000000000000000000000000000AAA406AA80
360
4D
360
4E
360
4F
360
51
360
2C3
360
2C4
360
77F4
360
77F5
360
77F6
360
77F7
360
77F8
360
77F9
360
77FC
360
77FD
360
77FE
360
77FF
360
7800
360
7801
360
7802
360
7803
360
7804
360
7805
360
7806
360
7807
360
7808
360
7809
360
780A
360
780B
360
780C
360
780D
360
780E
360
780F
360
7810
360
7811
360
7812
360
7813
360
7814
360
7815
360
7823
360
7824
360
7825
360
7826
360
782C
360
782D
360
782E
360
782F
360
7834
360
7835
360
7836
360
7837
360
7838
360
7839
 94
        0
  0
ACAD_PROXY_OBJECT
  5
55
102
{ACAD_REACTORS
330
C
102
}
330
C
100
AcDbProxyObject
 90
      499
 91
      516
 95
       25
 70
     0
 93
       50
310
09000042641280
  0
ACAD_PROXY_OBJECT
  5
4C
102
{ACAD_REACTORS
330
C
102
}
330
C
100
AcDbProxyObject
 90
      499
 91
      508
 95
       25
 70
     0
 93
       48
310
903412000000
330
4D
330
4E
330
4F
 94
        0
  0
ACAD_PROXY_OBJECT
  5
2C2
102
{ACAD_REACTORS
330
C
102
}
330
C
100
AcDbProxyObject
 90
      499
 91
      508
 95
       25
 70
     0
 93
       40
310
90240E0000
330
2C3
330
2C4
 94
        0
  0
ACAD_PROXY_OBJECT
  5
7828
102
{ACAD_REACTORS
330
C
102
}
330
C
100
AcDbProxyObject
 90
      499
 91
      551
 95
       25
 70
     0
 93
       42
310
000900004040
330
7823
 94
        0
  0
ACAD_PROXY_OBJECT
  5
7827
102
{ACAD_REACTORS
330
C
102
}
330
C
100
AcDbProxyObject
 90
      499
 91
      508
 95
       25
 70
     0
 93
        8
310
AA
  0
ACAD_PROXY_OBJECT
  5
7818
102
{ACAD_REACTORS
330
C
102
}
330
C
100
AcDbProxyObject
 90
      499
 91
      540
 95
       25
 70
     0
 93
       42
310
000100005E80
330
77F4
 94
        0
  0
DICTIONARY
  5
41
102
{ACAD_REACTORS
330
C
102
}
330
C
100
AcDbDictionary
281
     1
  3
AcMgSettings
350
42
  3
AMGLAYCFG
350
5D
  0
DICTIONARY
  5
D4
102
{ACAD_REACTORS
330
C
102
}
330
C
100
AcDbDictionary
281
     1
  3
DIMENSION
350
409
  3
FEA
350
40A
  3
HATCH (1)
350
40B
  3
HATCH (2)
350
40C
  3
SYMBOLS
350
40D
  0
ACAD_PROXY_OBJECT
  5
7820
102
{ACAD_REACTORS
330
C
102
}
330
C
100
AcDbProxyObject
 90
      499
 91
      544
 95
       25
 70
     0
 93
       34
310
0500004280
  0
ACAD_PROXY_OBJECT
  5
7830
102
{ACAD_REACTORS
330
C
102
}
330
C
100
AcDbProxyObject
 90
      499
 91
      554
 95
       25
 70
     0
 93
       98
310
0900004E400000000000000000
330
7837
330
0
330
7838
330
0
330
0
330
0
330
0
330
0
 94
        0
  0
ACAD_PROXY_OBJECT
  5
782B
102
{ACAD_REACTORS
330
C
102
}
330
C
100
AcDbProxyObject
 90
      499
 91
      508
 95
       25
 70
     0
 93
       56
310
90441600000000
330
782C
330
782D
330
782E
330
782F
 94
        0
  0
XRECORD
  5
9F2F
102
{ACAD_REACTORS
330
C
102
}
330
C
100
AcDbXrecord
280
     1
  1
DWGPROPS COOKIE
  2

  3

  4

  6

  7

  8

  9

300
AmdtFileType=82
301
=
302
=
303
=
304
=
305
=
306
=
307
=
308
=
309
=
 40
0.0
 41
2454515.050223704
 42
2455482.183468415
  1

 90
        1
  0
ACAD_PROXY_OBJECT
  5
7821
102
{ACAD_REACTORS
330
C
102
}
330
C
100
AcDbProxyObject
 90
      499
 91
      545
 95
       25
 70
     0
 93
        8
310
05
  0
DICTIONARY
  5
FD1
102
{ACAD_REACTORS
330
C
102
}
330
C
100
AcDbDictionary
281
     1
  3
input_data
350
FD3
  3
table_data
350
FD2
  0
DICTIONARY
  5
98F7
102
{ACAD_REACTORS
330
7879
102
}
330
7879
100
AcDbDictionary
281
     1
  0
DICTIONARY
  5
787A
102
{ACAD_REACTORS
330
7879
102
}
330
7879
100
AcDbDictionary
280
     1
281
     1
  0
LAYOUT
  5
22
102
{ACAD_REACTORS
330
1A
102
}
330
1A
100
AcDbPlotSettings
  1

  2
Canon LBP9100C
  4
A4
  6
AM_VIEW1
 40
5.789083480834961
 41
5.789072036743164
 42
5.789093017578125
 43
5.789093017578125
 44
209.9733276367188
 45
296.9259948730469
 46
0.0
 47
0.0
 48
375.4416545082681
 49
-89.24316684834651
140
628.8950213130981
141
70.06373206884632
142
1.0
143
0.8882260186308151
 70
 11952
 72
     1
 73
     1
 74
     4
  7
monochrome.ctb
 75
     0
147
1.125839571263047
148
-375.4416545082681
149
89.24316684834651
100
AcDbLayout
  1
Model
 70
     1
 71
     0
 10
0.0
 20
0.0
 11
12.0
 21
9.0
 12
0.0
 22
0.0
 32
0.0
 14
0.0
 24
0.0
 34
0.0
 15
0.0
 25
0.0
 35
0.0
146
0.0
 13
0.0
 23
0.0
 33
0.0
 16
1.0
 26
0.0
 36
0.0
 17
0.0
 27
1.0
 37
0.0
 76
     0
330
1F
1001
ACAD_PSEXT
1000
Canon LBP9100C
1000
Canon LBP9100C
1000
IP_10.254.89.242
1000

1070
     0
  0
LAYOUT
  5
1E
102
{ACAD_REACTORS
330
1A
102
}
330
1A
100
AcDbPlotSettings
  1

  2
none_device
  4
Letter_(8.50_x_11.00_Inches)
  6

 40
6.349999904632568
 41
6.349999904632568
 42
6.350006103515625
 43
6.350006103515625
 44
215.8999938964844
 45
279.3999938964844
 46
0.0
 47
0.0
 48
0.0
 49
0.0
140
0.0
141
0.0
142
1.0
143
1.0
 70
   688
 72
     0
 73
     1
 74
     5
  7
monochrome.ctb
 75
    16
147
1.0
148
0.0
149
0.0
100
AcDbLayout
  1
ﾚｲｱｳﾄ1
 70
     0
 71
     1
 10
-0.2500002402958907
 20
-0.2499999962453767
 11
10.74999951940822
 21
8.249999763458732
 12
0.0
 22
0.0
 32
0.0
 14
1.000000000000000E+20
 24
1.000000000000000E+20
 34
1.000000000000000E+20
 15
-1.000000000000000E+20
 25
-1.000000000000000E+20
 35
-1.000000000000000E+20
146
0.0
 13
0.0
 23
0.0
 33
0.0
 16
1.0
 26
0.0
 36
0.0
 17
0.0
 27
1.0
 37
0.0
 76
     0
330
1B
331
7D
  0
LAYOUT
  5
26
102
{ACAD_REACTORS
330
1A
102
}
330
1A
100
AcDbPlotSettings
  1

  2
none_device
  4
Letter_(8.50_x_11.00_Inches)
  6

 40
6.349999904632568
 41
6.349999904632568
 42
6.350006103515625
 43
6.350006103515625
 44
215.8999938964844
 45
279.3999938964844
 46
0.0
 47
0.0
 48
0.0
 49
0.0
140
0.0
141
0.0
142
1.0
143
1.0
 70
   688
 72
     0
 73
     1
 74
     5
  7
monochrome.ctb
 75
    16
147
1.0
148
0.0
149
0.0
100
AcDbLayout
  1
ﾚｲｱｳﾄ2
 70
     1
 71
     2
 10
-0.2500002402958907
 20
-0.2499999962453767
 11
10.74999951940822
 21
8.249999763458732
 12
0.0
 22
0.0
 32
0.0
 14
1.000000000000000E+20
 24
1.000000000000000E+20
 34
1.000000000000000E+20
 15
-1.000000000000000E+20
 25
-1.000000000000000E+20
 35
-1.000000000000000E+20
146
0.0
 13
0.0
 23
0.0
 33
0.0
 16
1.0
 26
0.0
 36
0.0
 17
0.0
 27
1.0
 37
0.0
 76
     0
330
23
331
82
  0
MLINESTYLE
  5
18
102
{ACAD_REACTORS
330
17
102
}
330
17
100
AcDbMlineStyle
  2
STANDARD
 70
     0
  3

 62
   256
 51
90.0
 52
90.0
 71
     2
 49
0.5
 62
   256
  6
BYLAYER
 49
-0.5
 62
   256
  6
BYLAYER
  0
ACDBPLACEHOLDER
  5
F
102
{ACAD_REACTORS
330
E
102
}
330
E
  0
TABLESTYLE
  5
77E3
102
{ACAD_REACTORS
330
77E2
102
}
330
77E2
100
AcDbTableStyle
  3
Standard
 70
     0
 71
     8
 40
1.5
 41
1.5
280
     0
281
     0
  7
STANDARD
140
4.5
170
     2
 62
     0
 63
     7
283
     0
274
    -2
284
     1
 64
     0
275
    -2
285
     1
 65
     0
276
    -2
286
     1
 66
     0
277
    -2
287
     1
 67
     0
278
    -2
288
     1
 68
     0
279
    -2
289
     1
 69
     0
  7
STANDARD
140
6.0
170
     5
 62
     0
 63
     7
283
     0
274
    -2
284
     1
 64
     0
275
    -2
285
     1
 65
     0
276
    -2
286
     1
 66
     0
277
    -2
287
     1
 67
     0
278
    -2
288
     1
 68
     0
279
    -2
289
     1
 69
     0
  7
STANDARD
140
4.5
170
     5
 62
     0
 63
     7
283
     0
274
    -2
284
     1
 64
     0
275
    -2
285
     1
 65
     0
276
    -2
286
     1
 66
     0
277
    -2
287
     1
 67
     0
278
    -2
288
     1
 68
     0
279
    -2
289
     1
 69
     0
  0
XRECORD
  5
9F2D
102
{ACAD_REACTORS
330
9F2C
102
}
330
9F2C
100
AcDbXrecord
280
     1
340
77E1
  0
XRECORD
  5
9F2E
102
{ACAD_REACTORS
330
9F2C
102
}
330
9F2C
100
AcDbXrecord
280
     1
340
77E0
  0
DICTIONARYVAR
  5
7856
102
{ACAD_REACTORS
330
4A
102
}
330
4A
100
DictionaryVariables
280
     0
  1
STANDARD
  0
DICTIONARYVAR
  5
9F2A
102
{ACAD_REACTORS
330
4A
102
}
330
4A
100
DictionaryVariables
280
     0
  1
1
  0
DICTIONARYVAR
  5
9F2B
102
{ACAD_REACTORS
330
4A
102
}
330
4A
100
DictionaryVariables
280
     0
  1
0
  0
DICTIONARYVAR
  5
4B
102
{ACAD_REACTORS
330
4A
102
}
330
4A
100
DictionaryVariables
280
     0
  1
1
  0
ACAD_PROXY_OBJECT
  5
5A
102
{ACAD_REACTORS
330
59
102
}
330
59
100
AcDbProxyObject
 90
      499
 91
      519
 95
       25
 70
     0
 93
      118
310
405010040CA904C415CD5B075DD088
350
5B
 94
        0
  0
DICTIONARY
  5
2C5
102
{ACAD_REACTORS
330
59
102
}
330
59
100
AcDbDictionary
281
     1
  3
JIS
350
2C6
  0
XRECORD
  5
783E
102
{ACAD_REACTORS
330
59
102
}
330
59
100
AcDbXrecord
280
     1
 90
-1023410169
  0
ACAD_PROXY_OBJECT
  5
4D
330
48
100
AcDbProxyObject
 90
      499
 91
      509
 95
       25
 70
     0
 93
      156
310
00010143D050D351505391D5531054925390D490
330
48
 94
        0
  0
ACAD_PROXY_OBJECT
  5
4E
330
48
100
AcDbProxyObject
 90
      499
 91
      509
 95
       25
 70
     0
 93
      148
310
000101439050D351531253915054925390D490
330
48
 94
        0
  0
ACAD_PROXY_OBJECT
  5
4F
330
48
100
AcDbProxyObject
 90
      499
 91
      510
 95
       25
 70
     0
 93
      156
310
000101439050D35154D6535093D314D256915080
330
48
 94
        0
  0
ACAD_PROXY_OBJECT
  5
51
330
48
100
AcDbProxyObject
 90
      499
 91
      512
 95
       25
 70
     0
 93
       88
310
000101411093D34C402B00
330
48
330
0
330
0
 94
        0
  0
ACAD_PROXY_OBJECT
  5
2C3
330
48
100
AcDbProxyObject
 90
      499
 91
      510
 95
       25
 70
     0
 93
      108
310
00010142505351D153D35054D4E0
330
48
 94
        0
  0
ACAD_PROXY_OBJECT
  5
2C4
330
48
100
AcDbProxyObject
 90
      499
 91
      524
 95
       25
 70
     0
 93
      140
310
00010142105350D55494D511005034A49530
330
48
 94
        0
  0
ACAD_PROXY_OBJECT
  5
77F4
330
48
100
AcDbProxyObject
 90
      499
 91
      536
 95
       25
 70
     0
 93
      358
310
0001014124FEA55D00507392E312E302E34014124FEA55D00507392E322E302E3240501000041505391D311658
330
48
330
77F5
330
77FB
 94
        0
  0
ACAD_PROXY_OBJECT
  5
77F5
330
48
100
AcDbProxyObject
 90
      499
 91
      537
 95
       25
 70
     0
 93
       56
310
000190240E0000
330
48
330
77F6
330
77F8
 94
        0
  0
ACAD_PROXY_OBJECT
  5
77F6
330
48
100
AcDbProxyObject
 90
      499
 91
      538
 95
       25
 70
     0
 93
       48
310
0001AA000000
330
48
330
1E
330
77F7
330
0
 94
        0
  0
ACAD_PROXY_OBJECT
  5
77F7
330
48
100
AcDbProxyObject
 90
      499
 91
      539
 95
       25
 70
     0
 93
       28
310
0001AAA0
330
48
 94
        0
  0
ACAD_PROXY_OBJECT
  5
77F8
330
48
100
AcDbProxyObject
 90
      499
 91
      538
 95
       25
 70
     0
 93
       48
310
0001AA000000
330
48
330
26
330
77F9
330
0
 94
        0
  0
ACAD_PROXY_OBJECT
  5
77F9
330
48
100
AcDbProxyObject
 90
      499
 91
      539
 95
       25
 70
     0
 93
       28
310
0001AAA0
330
48
 94
        0
  0
ACAD_PROXY_OBJECT
  5
77FC
330
48
100
AcDbProxyObject
 90
      499
 91
      510
 95
       25
 70
     0
 93
      108
310
000101421053521310D05310D010
330
48
 94
        0
  0
ACAD_PROXY_OBJECT
  5
77FD
330
48
100
AcDbProxyObject
 90
      499
 91
      510
 95
       25
 70
     0
 93
      124
310
00010142905354915554D15112535010
330
48
 94
        0
  0
ACAD_PROXY_OBJECT
  5
77FE
330
48
100
AcDbProxyObject
 90
      499
 91
      510
 95
       25
 70
     0
 93
      132
310
00010143105354D150D51253D391125360
330
48
 94
        0
  0
ACAD_PROXY_OBJECT
  5
77FF
330
48
100
AcDbProxyObject
 90
      499
 91
      510
 95
       25
 70
     0
 93
      124
310
00010142905355941093D49111549010
330
48
 94
        0
  0
ACAD_PROXY_OBJECT
  5
7800
330
48
100
AcDbProxyObject
 90
      499
 91
      510
 95
       25
 70
     0
 93
      116
310
0001014290535115D1D0D3D313D4A0
330
48
 94
        0
  0
ACAD_PROXY_OBJECT
  5
7801
330
48
100
AcDbProxyObject
 90
      499
 91
      510
 95
       25
 70
     0
 93
      148
310
00010143505355925155D49151949154D21010
330
48
 94
        0
  0
ACAD_PROXY_OBJECT
  5
7802
330
48
100
AcDbProxyObject
 90
      499
 91
      510
 95
       25
 70
     0
 93
      172
310
00010144105350539393D51154149154D15495915010
330
48
 94
        0
  0
ACAD_PROXY_OBJECT
  5
7803
330
48
100
AcDbProxyObject
 90
      499
 91
      510
 95
       25
 70
     0
 93
      172
310
00010144105350555513D11253505494905391D15010
330
48
 94
        0
  0
ACAD_PROXY_OBJECT
  5
7804
330
48
100
AcDbProxyObject
 90
      499
 91
      510
 95
       25
 70
     0
 93
      124
310
00010142D05351561514915191125360
330
48
 94
        0
  0
ACAD_PROXY_OBJECT
  5
7805
330
48
100
AcDbProxyObject
 90
      499
 91
      510
 95
       25
 70
     0
 93
      132
310
00010142D05355105410539393D5115010
330
48
 94
        0
  0
ACAD_PROXY_OBJECT
  5
7806
330
48
100
AcDbProxyObject
 90
      499
 91
      510
 95
       25
 70
     0
 93
      108
310
00010142105350555513D0D31010
330
48
 94
        0
  0
ACAD_PROXY_OBJECT
  5
7807
330
48
100
AcDbProxyObject
 90
      499
 91
      510
 95
       25
 70
     0
 93
      108
310
00010142105350D3119150551050
330
48
 94
        0
  0
ACAD_PROXY_OBJECT
  5
7808
330
48
100
AcDbProxyObject
 90
      499
 91
      510
 95
       25
 70
     0
 93
      108
310
00010142105350D315925155D3F0
330
48
 94
        0
  0
ACAD_PROXY_OBJECT
  5
7809
330
48
100
AcDbProxyObject
 90
      499
 91
      510
 95
       25
 70
     0
 93
      148
310
0001014350535212511156915493D112535010
330
48
 94
        0
  0
ACAD_PROXY_OBJECT
  5
780A
330
48
100
AcDbProxyObject
 90
      499
 91
      510
 95
       25
 70
     0
 93
      124
310
00010142905352105510D21254D3D010
330
48
 94
        0
  0
ACAD_PROXY_OBJECT
  5
780B
330
48
100
AcDbProxyObject
 90
      499
 91
      510
 95
       25
 70
     0
 93
      148
310
00010143905354D25391D31152105513105660
330
48
 94
        0
  0
ACAD_PROXY_OBJECT
  5
780C
330
48
100
AcDbProxyObject
 90
      499
 91
      510
 95
       25
 70
     0
 93
      124
310
00010142D0535115D1D193111254D420
330
48
 94
        0
  0
ACAD_PROXY_OBJECT
  5
780D
330
48
100
AcDbProxyObject
 90
      499
 91
      510
 95
       25
 70
     0
 93
      100
310
00010142105350555513D213A0
330
48
 94
        0
  0
ACAD_PROXY_OBJECT
  5
780E
330
48
100
AcDbProxyObject
 90
      499
 91
      510
 95
       25
 70
     0
 93
      116
310
000101425053521390D3D553951010
330
48
 94
        0
  0
ACAD_PROXY_OBJECT
  5
780F
330
48
100
AcDbProxyObject
 90
      499
 91
      510
 95
       25
 70
     0
 93
      108
310
0001014210535213941493D29010
330
48
 94
        0
  0
ACAD_PROXY_OBJECT
  5
7810
330
48
100
AcDbProxyObject
 90
      499
 91
      510
 95
       25
 70
     0
 93
      108
310
0001014210535213951654115070
330
48
 94
        0
  0
ACAD_PROXY_OBJECT
  5
7811
330
48
100
AcDbProxyObject
 90
      499
 91
      510
 95
       25
 70
     0
 93
      108
310
000101421053521395925155D0F0
330
48
 94
        0
  0
ACAD_PROXY_OBJECT
  5
7812
330
48
100
AcDbProxyObject
 90
      499
 91
      510
 95
       25
 70
     0
 93
      140
310
00010143505354D150D51253D390D3D41660
330
48
 94
        0
  0
ACAD_PROXY_OBJECT
  5
7813
330
48
100
AcDbProxyObject
 90
      499
 91
      510
 95
       25
 70
     0
 93
      108
310
00010142105350D3141493D29030
330
48
 94
        0
  0
ACAD_PROXY_OBJECT
  5
7814
330
48
100
AcDbProxyObject
 90
      499
 91
      509
 95
       25
 70
     0
 93
      212
310
00010143905350555513D2105510D21493D500000000000002E400
330
48
 94
        0
  0
ACAD_PROXY_OBJECT
  5
7815
330
48
100
AcDbProxyObject
 90
      499
 91
      510
 95
       25
 70
     0
 93
      156
310
00010143905350555513D2105510D21111551010
330
48
 94
        0
  0
ACAD_PROXY_OBJECT
  5
7823
330
48
100
AcDbProxyObject
 90
      499
 91
      547
 95
       25
 70
     0
 93
      698
310
0001000000009AA6A9AA4051E576564204D61792031382030363A33333A323320323030352028555443290141CE4B8C4B8C0B8D00518547565204F63742031322031333A32343A313120323031300141CE4B8C8B8C0B8C80
330
48
330
7824
330
7825
330
7827
330
0
 94
        0
  0
ACAD_PROXY_OBJECT
  5
7824
330
48
100
AcDbProxyObject
 90
      499
 91
      548
 95
       25
 70
     0
 93
       70
310
0001AAA80820000000
330
48
330
7824
330
7824
 94
        0
  0
ACAD_PROXY_OBJECT
  5
7825
330
48
100
AcDbProxyObject
 90
      499
 91
      549
 95
       25
 70
     0
 93
       48
310
000100000000
330
48
330
0
330
7826
330
0
330
0
 94
        0
  0
ACAD_PROXY_OBJECT
  5
7826
330
48
100
AcDbProxyObject
 90
      499
 91
      550
 95
       25
 70
     0
 93
       40
310
000100AAAA
330
48
330
0
 94
        0
  0
ACAD_PROXY_OBJECT
  5
782C
330
48
100
AcDbProxyObject
 90
      499
 91
      524
 95
       25
 70
     0
 93
      180
310
00010143105050D3D35411119390535140504434F4D500
330
48
 94
        0
  0
ACAD_PROXY_OBJECT
  5
782D
330
48
100
AcDbProxyObject
 90
      499
 91
      524
 95
       25
 70
     0
 93
      212
310
0001014390505193D311115491119390535140506466F6C6465720
330
48
 94
        0
  0
ACAD_PROXY_OBJECT
  5
782E
330
48
100
AcDbProxyObject
 90
      499
 91
      524
 95
       25
 70
     0
 93
      180
310
00010143105050539393D1119390535140504284156290
330
48
 94
        0
  0
ACAD_PROXY_OBJECT
  5
782F
330
48
100
AcDbProxyObject
 90
      499
 91
      524
 95
       25
 70
     0
 93
      436
310
00010143905050D3D35415925155D31254D50052295BD96CA0A90B396CA0A894591A496CA0A8DB691A496CA0A89BA96CA0A95E28F95310
330
48
 94
        0
  0
ACAD_PROXY_OBJECT
  5
7834
330
48
100
AcDbProxyObject
 90
      499
 91
      555
 95
       25
 70
     0
 93
       32
310
00010000
330
48
340
7831
330
7836
330
7831
 94
        0
  0
ACAD_PROXY_OBJECT
  5
7835
330
48
100
AcDbProxyObject
 90
      499
 91
      556
 95
       25
 70
     0
 93
       18
310
000180
330
48
 94
        0
  0
ACAD_PROXY_OBJECT
  5
7836
330
48
100
AcDbProxyObject
 90
      499
 91
      557
 95
       25
 70
     0
 93
      178
310
00010142D1D5D0948C8C0C8C0B4D0D5050055401550000
330
48
330
7834
330
7835
 94
        0
  0
ACAD_PROXY_OBJECT
  5
7837
330
48
100
AcDbProxyObject
 90
      499
 91
      558
 95
       25
 70
     0
 93
      178
310
000100AAAAAAB90DDAF17864501262AEEE3DF30430A180
330
48
330
7836
 94
        0
  0
ACAD_PROXY_OBJECT
  5
7838
330
48
100
AcDbProxyObject
 90
      499
 91
      559
 95
       25
 70
     0
 93
      108
310
000190140A000000000000AAAAA0
330
48
330
7839
330
7839
330
7839
330
7839
330
7839
330
0
 94
        0
  0
ACAD_PROXY_OBJECT
  5
7839
330
48
100
AcDbProxyObject
 90
      499
 91
      560
 95
       25
 70
     0
 93
       51
310
00010000AAAA80
330
48
330
7838
330
7836
 94
        0
  0
DICTIONARY
  5
42
102
{ACAD_REACTORS
330
41
102
}
330
41
100
AcDbDictionary
281
     1
  3
AMG_PM_SETTINGS
350
7E
  3
DWGSETTINGS
350
43
  3
FEM
350
D0
  3
Shaft
350
AD
  3
TRANSSETTINGS
350
44
  0
ACAD_PROXY_OBJECT
  5
5D
102
{ACAD_REACTORS
330
41
102
}
330
41
100
AcDbProxyObject
 90
      499
 91
      521
 95
       25
 70
     0
 93
    23216
310
41502491013041105357CC201C00030C011E441013141105357CC603800030C011E441013241105357CCA01400030C011E441013341105357CCE01800030C010D9013441105357CD200C00030C010D9013541105357CD600C00030C010D9013641105357CDA00800030C011E9013741105357CDE01000030C010D901384110
310
5357CE200400030C010D9013941105357CE63F400030C0241102324141505357CC4C201C00030C011E902344141505357CC4C600C00030C010D902495041505357CC4CA01C00030C011E40902304E41505357CC13A01C00030C011E902314E41505357CC53A03800030C011E902324E41505357CC93A01400030C011E90233
310
4E41505357CCD3A01800030C010D902344E41505357CD13A00C00030C010D902354E41505357CD53A00C00030C010D902364E41505357CD93A00800030C011E902374E41505357CDD3A01000030C010D902384E41505357CE13A00400030C011E902394E41505357CE53A3F400030C024110332414E41905357CC4C13A01C0
310
0030C011E90334414E41905357CC4C53A00C00030C010D90349504E41905357CC4C93A01C00030C011E409044B4C494E41505357D0D3200400030C011E42504494E464F42105357D410549151A01000030C010D42D055241484D3541905357D093D4A01C00030C011E425045649455742105357D5925155D4E00400030C011
310
E42D06424548494E4441905357D25395A3F400030C0243505545241494C41505357D514A00C00030C010D4250348494441905357D21251201C00030C011E4250356495341905357D59254E01C00030C011E4250650415244494D42505357D41054911253600C00030C010D4250652454644494D42505357D49151911253601
310
000030C010D425774110531514901348070000C300479034110915312501348000000C0003FFFFFFFD034110921395901398000000C0003FFFFFFFE415092139594D06424548494E448000000C0003FFFFFFFE411093125110234418000000C0003FFFFFFFD03411093D05410234418000000C0003FFFFFFFD03411093D48C
310
9055241484D358010000C30047A411093D48CD055241484D358020000C30047A411093D48D5055241484D358000000C0003FFFFFFFE411093D48DD055241484D3581E0000C30047903411094105410234418000000C0003FFFFFFFD03411094115610234418000000C0003FFFFFFFD034110951112501358000000C0003FFF
310
FFFFD034110D0530C901348000000C0003FFFFFFFE4110D0530CD01348020000C30047A4110D0530D501348070000C30047A4110D0530DD013481E0000C30047A4110D15393901378000000C0003FFFFFFFE4110D15395D01378000000C0003FFFFFFFE4110D312539044B4C494E8000000C0003FFFFFFFE4110D3D38C5013
310
08000000C0003FFFFFFFD034110D3D38C901318000000C0003FFFFFFFD034110D3D38CD01328000000C0003FFFFFFFD034110D3D38D101328000000C0003FFFFFFFD034111115494101348000000C0003FFFFFFFD034111115510501348000000C0003FFFFFFFE4111125051D01358000000C0003FFFFFFFE4111125312501
310
358000000C0003FFFFFFFE411112535410650415244494D8000000C0003FFFFFFFE411112535490652454644494D8000000C0003FFFFFFFE411156135410234418000000C0003FFFFFFFD034111915353901388000000C0003FFFFFFFE415191535413901388030000C3004364151915354D410234418000000C0003FFFFFF
310
FE4151915354D510234418030000C300436415191535593901328000000C0003FFFFFFFE415191535595101328030000C3004364111931055101308000000C0003FFFFFFFD03411194905490234418000000C0003FFFFFFFD034111D49312501358000000C0003FFFFFFFD034111D5931250234418000000C0003FFFFFFFD0
310
34112105510D01388000000C0003FFFFFFFD014112125113901338000000C0003FFFFFFFD034112125115D01338000000C0003FFFFFFFD034112131253901348000000C0003FFFFFFFD01411213D0D3901378000000C0003FFFFFFFE411213D0D5D01378000000C0003FFFFFFFE4112539193D04494E464F8000000C0003FF
310
FFFFFE4113105112501348000000C0003FFFFFFFD034113115051101358000000C0003FFFFFFFE419397D0921395902394E8000000C0003FFFFFFFE419397D0D3D38C502304E8000000C0003FFFFFFFD03419397D0D3D38C902314E8000000C0003FFFFFFFD03419397D0D3D38CD02324E8000000C0003FFFFFFFD03419397
310
D0D3D38D102324E8000000C0003FFFFFFFD03419397D0D15393902374E8000000C0003FFFFFFFE419397D0D15395D02374E8000000C0003FFFFFFFE419397D1125312502354E8000000C0003FFFFFFFE419397D2105510D02384E8000000C0003FFFFFFFD01419397D2125113902334E8000000C0003FFFFFFFD03419397D2
310
125115D02334E8000000C0003FFFFFFFD03419397D3115051102354E8000000C0003FFFFFFFE419397D391D25410349504E8000000C0003FFFFFFFE419397D412105390334414E8000000C0003FFFFFFFE419397D510D3D3902304E8000000C0003FFFFFFFD03419397D5121312502344E8000000C0003FFFFFFFD01419397
310
D5131153902304E8000000C0003FFFFFFFD03419397D516150CD02364E8000000C0003FFFFFFFD03419397D594131250332414E8000000C0003FFFFFFFE411391D25410249508000000C0003FFFFFFFE411410530C9055241484D358010000C30047A411410530CD055241484D358020000C30047A411410530D5055241484
310
D358000000C0003FFFFFFFE411410530DD055241484D3581E0000C30047903411412105390234418000000C0003FFFFFFFE411413D4D3901368070000C30047A419413D4D49151901368050000C30047903411413D4D6101368000000C0003FFFFFFFD03411414D150D0234418000000C0003FFFFFFFD03411490D1D390137
310
8000000C0003FFFFFFFE411490D1D5D01378000000C0003FFFFFFFE4114919112501348000000C0003FFFFFFFD034114945514901348070000C30047903411494D093D01348000000C0003FFFFFFFD034114D09492D01348000000C0003FFFFFFFD014114D0D153901378000000C0003FFFFFFFD034114D150D51013480000
310
00C0003FFFFFFFD014114D15313901378000000C0003FFFFFFFD034114D15315D01378000000C0003FFFFFFFD034114D4D654D01308000000C0003FFFFFFFD034114D51312501348070000C300479034114D6508C501358000000C0003FFFFFFFD034114D6508C901358000000C0003FFFFFFFD034114D6508CD0135802000
310
0C30047A4114D6508D501358070000C300479034114D65353901378000000C0003FFFFFFFD034114D65355D01378000000C0003FFFFFFFD03411510D3D3901308000000C0003FFFFFFFD034115121312501348000000C0003FFFFFFFD01411512550C9055241484D358010000C30047A411512550CD055241484D358020000
310
C30047A411512550D5055241484D358000000C0003FFFFFFFE411512550DD055241484D3581E0000C300479034115131153901308000000C0003FFFFFFFD03415514905253105545241494C8000000C0003FFFFFFFE41151492D3901378000000C0003FFFFFFFD0341151492D5D01378000000C0003FFFFFFFD03411514931
310
2501348000000C0003FFFFFFFD01411516150C501368030000C300436411516150C901368030000C300436411516150CD01368000000C0003FFFFFFFE411516150D501368070000C30047A411516150DD013681E0000C30047A4115925155D04564945578000000C0003FFFFFFFE41159151121034849448000000C0003FFF
310
FFFFD0241159151159035649538000000C0003FFFFFFFD02411594131250232418000000C0003FFFFFFFE4116925690501348000000C0003FFFFFFFD01411354D653501358020000C30047AAAA3F400030C0290A4051E4091E40D0D4110D4151E4190D41D1E4391E4791E7F6
340
16
340
16
340
16
340
5E
340
16
340
16
340
16
340
5F
340
16
340
16
340
5F
340
60
340
16
340
16
340
16
340
16
340
5E
340
16
340
16
340
16
340
5F
340
16
340
16
340
5F
340
60
340
16
340
61
340
16
340
16
340
16
340
16
340
16
340
5E
340
16
340
16
340
16
340
62
340
15
340
15
340
15
340
15
340
15
340
15
340
15
340
15
340
15
340
15
340
15
340
15
340
15
340
15
340
15
340
15
340
63
340
15
340
15
340
15
340
15
340
15
340
15
340
15
340
15
340
15
340
15
340
15
340
15
340
15
340
15
340
15
340
16
340
15
340
15
340
15
340
15
340
15
340
15
340
15
340
15
340
62
340
15
340
15
340
63
340
15
340
15
340
15
340
15
340
15
340
15
340
15
340
15
340
15
340
63
340
15
340
15
340
15
340
62
340
15
340
15
340
15
340
15
340
15
340
15
340
15
340
15
340
15
340
15
340
15
340
15
340
15
340
15
340
15
340
15
340
15
340
15
340
15
340
63
340
15
340
15
340
63
340
15
340
15
340
16
340
15
340
63
340
15
340
15
340
62
340
15
340
15
340
16
340
15
340
63
340
15
340
15
340
15
340
15
340
15
340
15
340
15
340
15
340
15
340
63
340
15
340
15
340
15
340
15
340
15
340
15
340
15
340
15
340
15
340
15
340
15
340
66
340
16
 94
        0
  0
ACAD_PROXY_OBJECT
  5
409
102
{ACAD_REACTORS
330
D4
102
}
330
D4
100
AcDbProxyObject
 90
      499
 91
      532
 95
       25
 70
     0
 93
      253
310
43D1444494D454E53494F4E2C414D44545F2A5F44494D404A9012A404A9012A0
  0
ACAD_PROXY_OBJECT
  5
40A
102
{ACAD_REACTORS
330
D4
102
}
330
D4
100
AcDbProxyObject
 90
      499
 91
      532
 95
       25
 70
     0
 93
      181
310
43D012A42D05357D191504B505357CA9012A404A9012A8
  0
ACAD_PROXY_OBJECT
  5
40B
102
{ACAD_REACTORS
330
D4
102
}
330
D4
100
AcDbProxyObject
 90
      499
 91
      532
 95
       25
 70
     0
 93
      133
310
43D054841544348404A9012A404A9012A8
  0
ACAD_PROXY_OBJECT
  5
40C
102
{ACAD_REACTORS
330
D4
102
}
330
D4
100
AcDbProxyObject
 90
      499
 91
      532
 95
       25
 70
     0
 93
      549
310
43D044C494E4549CE0B0E138B0A8B4E0B0A8B4E138B105357CE0B105357CE138B0A8B505357CE0B0A8B505357CE139012A404A910494E534552542C5354445041525432448
  0
ACAD_PROXY_OBJECT
  5
40D
102
{ACAD_REACTORS
330
D4
102
}
330
D4
100
AcDbProxyObject
 90
      499
 91
      532
 95
       25
 70
     0
 93
      909
310
43D6641434D46434652414D452C41434D444154554D5441524745542C41434D444154554D49442C41434D57454C4453594D2C41434D5355524653594D2C41434D4645415449442C41434D504152545245462C41434D42414C4C4F4F4E2C414D44544544474553594D404A9012A404A9012A8
  0
XRECORD
  5
FD3
102
{ACAD_REACTORS
330
FD1
102
}
330
FD1
100
AcDbXrecord
280
     1
  1
1,,,,,,,,,^M^J2,,,,,,,,,^M^J3,,,,,,,,,^M^J4,,,,,,,,,^M^J5,,,,,,,,,^M^J6,,,,,,,,,^M^J7,,,,,,,,,^M^J8,,,,,,,,,^M^J9,,,,,,,,,^M^J10,,,,,,,,,
  0

  0
XRECORD
  5
FD2
102
{ACAD_REACTORS
330
FD1
102
}
330
FD1
100
AcDbXrecord
280
     1
  1
10,10
  0

  0
ACAD_PROXY_OBJECT
  5
5B
102
{ACAD_REACTORS
330
5A
102
}
330
5A
100
AcDbProxyObject
 90
      499
 91
      520
 95
       25
 70
     0
 93
      157
310
057356C1D77406406AA8FFFFFFFF05DD01009010
330
1F
330
0
330
7836
 94
        0
  0
ACAD_PROXY_OBJECT
  5
2C6
102
{ACAD_REACTORS
330
2C5
102
}
330
2C5
100
AcDbProxyObject
 90
      499
 91
      525
 95
       25
 70
     0
 93
     2379
310
5DC33333333333309408000000C00040D29254D01640600800030C0200800030C003333333333330940C8121E8720B1B6A9BAB9332A32BC3A29BA3220480A1282C6DA8C868CA6E8C88120286A0B1B6ABB2B63234B733A9BA3220480A1082C6DA92C8A6E8C88120285A0B1B6A230BA3AB6A9BA3220480A1282C6DA849E9AA6E
310
8C88120286A0B1A0B6B3AA34BA3632A9BA3220480A2082DAC8E888CAE8C2D2D8A6F2DAA6E8C88120288A0B6B23A29B2B1BA34B7B729BCB6A9BA3220480A2282DAC8E886CADCE8CAE498D2DCCAA6E8C88120288A0B6B23A2A343932B0B22634B732A9BA3220480A1682DAC8E89CDEE8CAA6E8C88120285A0B1A0B6B3A630BCA
310
9BA3220480A1682C682DACE88D2DAA6E8C88120288A0B1A0B6B3A437B632A1B430B93A29BA3220480C812020
340
2C7
360
2C8
360
2C9
360
2CA
360
2CB
360
2CC
360
2CD
360
783B
360
783C
360
783D
360
783F
360
7840
360
7841
360
7847
360
7848
360
7849
340
0
340
0
 94
        0
  0
ACAD_PROXY_OBJECT
  5
7E
102
{ACAD_REACTORS
330
42
102
}
330
42
100
AcDbProxyObject
 90
      499
 91
      504
 95
       25
 70
     0
 93
      381
310
4050F414D475F504D5F53455454494E4753214829A8E98A8A68682988A942883DA22BA3A9A2AA2A24A723A9A2A7223E8
  0
ACAD_PROXY_OBJECT
  5
43
102
{ACAD_REACTORS
330
42
102
}
330
42
100
AcDbProxyObject
 90
      499
 91
      504
 95
       25
 70
     0
 93
     2954
310
4050B44574753455454494E4753A0E8482A68AA6A88882A069492A684A1A0A723A0A92920ACA0A809820C868A9C829C8E82A12686AF87260F862666A8321A2A72224A0A50000000000000142020E868A9C889282A682A106260F86460F8666083A1A2A72224A9AA250000000000000042020C868A9C988A9C9400000000000
310
0048808321A2A727A323250000000000000122020E868A9C9E8C8C62940000000000000488083A1A2A727A32319250000000000000122021CC6D0C2DACCCAE4C8D2DADADEC8CA9FA0884A1A624A720A92920ACA0A8198171AA108698929C8AA8B2A082A0AB098929C8A84A22BA3AAA9A1A0A622A50A0E9882A6A89E849482A
310
02608426A0A5A2AB24A2ABA7E8120CA0A68682988A0C00800010652455649534941501304154D0D0531150540CC4E8C5085354414E44415244415034A4953425512535154D51053541280FBAC7509E4ADCD050756455253494F4E4150531352E3030441ED115D1D4D15515125391D4D153911F40
  0
ACAD_PROXY_OBJECT
  5
D0
102
{ACAD_REACTORS
330
42
102
}
330
42
100
AcDbProxyObject
 90
      499
 91
      504
 95
       25
 70
     0
 93
      411
310
4050346454D21092DCC6E486DECACC942842630BCA3B937BAB820A8320A6AFA322A0A20F688AE8EA68AA8A8929C8EA68A9C88FA0
  0
ACAD_PROXY_OBJECT
  5
AD
102
{ACAD_REACTORS
330
42
102
}
330
42
100
AcDbProxyObject
 90
      499
 91
      504
 95
       25
 70
     0
 93
      591
310
40505536861667421292DCE8CAE4E4EAE0E89FC84A634B3B43A2634B732A7E80A1A98D2CED0E898D2DCCAACD2CAEE9FA028229B4B232A7E80A20F688AE8EA68AA8A8929C8EA68A9C88FA
  0
ACAD_PROXY_OBJECT
  5
44
102
{ACAD_REACTORS
330
42
102
}
330
42
100
AcDbProxyObject
 90
      499
 91
      504
 95
       25
 70
     0
 93
      852
310
4050D5452414E5353455454494E4753A2488A482AE929C8EA8A4829CA69882A8929E9C0C00800050D4F524947494E414C4C595F4F4E0600400028529A7AAA921A2A620A723A0A81A52827212AAA0A48AA68AA4AC8A0C0080001107B44574753455454494E4753454E447D0
  0
ACAD_PROXY_OBJECT
  5
2C8
330
2C6
100
AcDbProxyObject
 90
      499
 91
      526
 95
       25
 70
     0
 93
       86
310
5DEA0C80A0280A0280A034
  0
ACAD_PROXY_OBJECT
  5
2C9
330
2C6
100
AcDbProxyObject
 90
      499
 91
      527
 95
       25
 70
     0
 93
      282
310
5DD0E4050140501405014050140501405014050141101405014041000000000000001000
340
2CE
 94
        0
  0
ACAD_PROXY_OBJECT
  5
2CA
330
2C6
100
AcDbProxyObject
 90
      499
 91
      528
 95
       25
 70
     0
 93
      323
310
5DCC199999999999E99F91740501405014050140501405014050140501405014050140501405014040
340
0
 94
        0
  0
ACAD_PROXY_OBJECT
  5
2CB
330
2C6
100
AcDbProxyObject
 90
      499
 91
      529
 95
       25
 70
     0
 93
       10
310
5DC0
  0
ACAD_PROXY_OBJECT
  5
2CC
330
2C6
100
AcDbProxyObject
 90
      499
 91
      530
 95
       25
 70
     0
 93
      257
310
5DE0C16A22A7D90F49F80000000000001081400000000000004204010000618000
340
2CF
340
2D0
 94
        0
  0
ACAD_PROXY_OBJECT
  5
2CD
330
2C6
100
AcDbProxyObject
 90
      499
 91
      531
 95
       25
 70
     0
 93
     5277
310
5DD06411255115350141236025B6901405014069010000000000000910240690120281A8AA2CA0282484A4BE52028120280A032020000000000001220480D202405044E414D454050496BC914F4051C40640A80000000000004E4090193C3D3C4946284953424C414E4B28504152543A4E414D45292C424C4F434B3A4E414D
310
452C504152543A4E414D45293E3C41435F44455343524950544E3E40480A109A82A88AA492829880A091BBD2F7E80A3A80C81D0E27A15AF46E08A81203480901411393D5115014124A363B7D0147501904A0000000000000F902406428F4F1050D7D393D5114F901202832B22A72227A92028366EF6EE06F582028EA0320B4
310
0000000000001F20480C879E9E20A1AFAB27222FA620A122A61F20240506445020000000000000490201C00030C00010180000000000003E400000000000000F901073D3C4954454D3E4050180000000000003E400000000000000F901073D3C4954454D3E40501800000000000034400000000000000D101073D3C4954454
310
D3E40501800000000000034400000000000000D101073D3C4954454D3E405029010000000000000F9000000000000003E4041CF4F125511534F901418F4F1455164F9014060000000000000F9000000000000003E4041CF4F125511534F901800000000000034400000000000000D101073D3C4954454D3E40640400000000
310
0000003E400000000000000F90288800000000000020810000001800120881A068120480A032208521122080D21480D211480A1485214852050000000000003C2FC000000000000F0BF40600800030C0200400030C00CDCCCCCCCCCCEC3F3373333333333B0FC3333333333330940C80D069014090341504901A1999999999
310
9984A040100006180400800061804010000618008098A02808
340
0
340
0
 94
        0
  0
ACAD_PROXY_OBJECT
  5
783B
330
2C6
100
AcDbProxyObject
 90
      499
 91
      561
 95
       25
 70
     0
 93
     3042
310
5DD9740D29254D064A49535F413342929254D7D512551311505134A49535F42525F5265766973696F6E6C6973744190F4134522028323937783231306D6D2941D29254D7D04D1490E41312028353934783834316D6D2941929254D7D04C50E41332028323937783432306D6D2941929254D7D04CD0F41344C2028323130783
310
239376D6D2941D29254D7D04D1310E41322028343230783539346D6D2941929254D7D04C90F4130202838343178313138396D6D2941929254D7D04C10243129254C82557247A25E4C81050A4A49535F5449544C454143129254C82557247A25E4C81090A4A49535F5449544C45424110E979A97F0838A835883675F42525F4
310
4D29254D7D09497D4995D9A5CDA5BDB9B1A5CDD10E979A97F0838A835883675F54525F44D29254D7D51497D4995D9A5CDA5BDB9B1A5CDD10E979A97F0838A835883675F424C5F44D29254D7D09317D4995D9A5CDA5BDB9B1A5CDD10E979A97F0838A835883675F544C5F44D29254D7D51317D4995D9A5CDA5BDB9B1A5CDD00
  0
ACAD_PROXY_OBJECT
  5
783C
330
2C6
100
AcDbProxyObject
 90
      499
 91
      562
 95
       25
 70
     0
 93
      898
310
5DC4000000000000124048CF4F11115510525317D3105091530F880A0F11115510525317D05094D4D0D053114F8A50241C9A9999999999B93F26A666666666724FC000000000000E03F400000000000000400000000000000510000000000000024408070000C300000000000000049000
340
16
340
2C7
 94
        0
  0
ACAD_PROXY_OBJECT
  5
783D
330
2C6
100
AcDbProxyObject
 90
      499
 91
      563
 95
       25
 70
     0
 93
      823
310
5DC0B00000000000002480959E9E29A2A1AA24A7A72FA620A122A62FA324A929AA1F169E29A2A1AA24A7A72FA620A122A62FA620A9AA1F000000000000048803FFFE01C00030C008140380006180000000000000048800000000000000A2000000000000002480
340
7C5
340
2C7
 94
        0
  0
ACAD_PROXY_OBJECT
  5
783F
330
2C6
100
AcDbProxyObject
 90
      499
 91
      564
 95
       25
 70
     0
 93
      152
310
5DE8273108AC1C5A0640A3D0A5723F0BD1F200
  0
ACAD_PROXY_OBJECT
  5
7840
330
2C6
100
AcDbProxyObject
 90
      499
 91
      565
 95
       25
 70
     0
 93
       14
310
5DE0
340
0
 94
        0
  0
ACAD_PROXY_OBJECT
  5
7841
330
2C6
100
AcDbProxyObject
 90
      499
 91
      566
 95
       25
 70
     0
 93
     6059
310
5DD084050BA4050AA405024050E836583938376838C815B83672031405983D3C486F6C653A6469613E3C696628657175616C28486F6C653A7465726D696E6174696F6E2C223022292C2220905B82B320222C22208368838A838B22293E3C696628657175616C28486F6C653A7465726D696E6174696F6E2C223022292C486F
310
6C653A64657074682C2222293E2C203C486F6C653A63746469613E2082B482AE82E882CC905B82B3203C486F6C653A637464657074683E406901405034050E836583938376838C815B83672031405EF3D3C486F6C653A6374616E676C653E252564202525633C486F6C653A63746469613E208E4D8C8A2C203C69662865717
310
5616C28486F6C653A7461707065642C223022292C22252563222C486F6C653A6E6F6D696E616C202220782022293E3C696628657175616C28486F6C653A7461707065642C223022292C486F6C653A6469612C486F6C653A706974636864657363293E203C696628657175616C28486F6C653A7465726D696E6174696F6E2C2
310
23022292C22905B82B320222C222022293E3C696628657175616C28486F6C653A7465726D696E6174696F6E2C223022292C486F6C653A64657074682C2222293E406901405014050E836583938376838C815B83672031405C73D3C696628657175616C28486F6C653A7461707065642C223022292C22252563222C486F6C65
310
3A6E6F6D696E616C202220782022293E3C696628657175616C28486F6C653A7461707065642C223022292C486F6C653A6469612C486F6C653A706974636864657363293E203C696628657175616C28486F6C653A7465726D696E6174696F6E2C223022292C22905B82B320222C222022293E3C696628657175616C28486F6C
310
653A7465726D696E6174696F6E2C223022292C486F6C653A64657074682C2222293E4069014051E4090E836583938376838C815B83672032405173D3C535444503A444553433E203C535444503A5354443E40690E836583938376838C815B836720314050C3D3C535444503A444553433E40690240515AAABBA120
360
7845
330
7845
360
7846
330
7846
360
7844
330
7844
360
7843
360
7842
330
7843
330
7842
 94
        0
  0
ACAD_PROXY_OBJECT
  5
7847
330
2C6
100
AcDbProxyObject
 90
      499
 91
      568
 95
       25
 70
     0
 93
       26
310
5DD02A80
340
5D
 94
        0
  0
ACAD_PROXY_OBJECT
  5
7848
330
2C6
100
AcDbProxyObject
 90
      499
 91
      569
 95
       25
 70
     0
 93
      250
310
5DD020000000000000A1000000000000002440408F0F9023C3E409A0DCFFFF80
340
BF
340
3CAD
340
3CAC
340
C6
340
C7
340
C8
340
C9
340
CA
340
CF
340
0
 94
        0
  0
ACAD_PROXY_OBJECT
  5
7849
330
2C6
100
AcDbProxyObject
 90
      499
 91
      570
 95
       25
 70
     0
 93
    13889
310
5DD1D003FFFFFFFD030300030CCCCCCCCCCCC250200800030C01030300030CCCCCCCCCCCC250200800030C00050C8DC0955782CC838A83588367014ED1D15395149050D3CB1294138B0C0B23702555E0B320E2A0D620D9CB11D15395149055160B095CCB0A11D1539354D1C819D95B991A5B5E880CCC0A78000C0000000000
310
00000000000000000000010CCCCCCCCCCCC250200800030C010CCCCCCCCCCCC250200800030C020143CF4F111959985D5B1D151A5D1B194F8050A8C8A8365815B8375838B014E51D15395149050D3CB1294138B0C0B2322A0D96056E0DD60E2CB11D15395149055160B095CCB0A11D1539354D1C819D95B991A5B5E880CCC4
310
A78000C000000000000000000000000000000010CCCCCCCCCCCC250200800030C010CCCCCCCCCCCC250200800030C020143CF4F111959985D5B1D151A5D1B194F90D44111409034110541D0C4350F4050E44D03449074510F000141232D24D7C053247454E545241434F2C4A504E2C302C8CB4935F2C47454E54524154582C
310
25732C2847454E4D53472067656E64696D7A20312900010104002214000281464500A608E8A9CA8A482869E5894A09C5860591914588E8A9CA8A482A8B0584AE658508E8A9C9AA68E40CECADCC8D2DAF4406452029E9E9E27B934B3B4B71F1E24A31427A91424A9A12620A7259427B934B3B4B7149624A9A12620A7259424B
310
A32B6949496111116111711149F1E24BA32B69F00808200111A000140560052F47454E545241434F2C4A504E2C302C582C47454E54524154582C25732C2847454E4D53472067656E64696D7A20332900010100002054000280AC80A5E8E8A9CA8A482869E5894A09C586058B2588E8A9CA8A482A8B0584AE658508E8A9C9AA
310
68E40CECADCC8D2DAF4406852000202000040E800050152014BD1D15395149050D3CB1294138B0C0B148B11D15395149055160B095CCB0A11D1539354D1C819D95B991A5B5E880D8A400040400008250000A0507A6029823A2A72A2920A1A79625282716181641E99623A2A72A2920AA2C1612B9961423A2A726A9A39033B2
310
B73234B6BD101B948000808180105A000140A0F4C053047454E545241434F2C4A504E2C302C83D32C47454E54524154582C25732C2847454E4D53472067656E64696D7A203829000101010020F400028248704B5F00A668E8A9CA8A482869E5894A09C58605921C12D7C588E8A9CA8A482A8B0584AE658508E8A9C9AA68E40
310
CECADCC8D2DAF440646052000200080043280005048B4B8A69014CD1D15395149050D3CB1294138B0C0B22D2E29A4B11D15395149055160B095CCB0A11D1539354D1C819D95B991A5B5E880C8C4A4000400100086D0000A09196926BE029923A2A72A2920A1A796252827161816465A49AF9623A2A72A2920AA2C1612B9961
310
423A2A726A9A39033B2B73234B6BD10189480A02620202080043E80005048D8096DA014CD1D15395149050D3CB1294138B0C0B236025B68B11D15395149055160B095CCB0A11D1539354D1C819D95B991A5B5E880C4D0A4000404140280D0000A190687072706CD06C5069D06B0029DA3A2A72A2920A1A7962528271618164
310
1A1C1C9C1B341B141A741AC1623A2A72A2920AA2C1612B9961423A2A726A9A39033B2B73234B6BD10189A94800080820050EA000143A322A0D0E0E4E0D9A0D8A0D3A0D60053D47454E545241434F2C4A504E2C302C8C8A8343839383668362834E83582C47454E54524154582C25732C2847454E4D53472067656E64696D7A
310
2031372900010105002274000281464500A628E8A9CA8A482869E5894A09C5860591914588E8A9CA8A482A8B0584AE658508E8A9C9AA68E40CECADCC8D2DAF440626C52000202080044A8000504909497CA014CD1D15395149050D3CB1294138B0C0B242525F28B11D15395149055160B095CCB0A11D1539354D1C819D95B9
310
91A5B5E880C4E4A400040418008A521E000000000000001CA040C00000000000034408080000000000006881010000000000000D102040000000000001A204080000000000003440818000000000000728103000000000000125020600000000004028A040000000000000034408000000000000004881000000000000000D
310
102000000000000001A204000000000000003440818000000000000508143C0000000000000039408180000000000006881030000000000000D102060000000000001A2040C00000000000034408180000000000006881030000000000000E5020600000000000024A040C0000000000805140800000000000000688100000
310
00000000009102000000000000001A2040000000000000034408180000000000006881030000000000000A10284220000000878000002020000008380000020400000081800000208000000828000002028900000000
340
0
340
0
340
0
340
0
340
2C7
340
2C7
 94
        0
  0
ACAD_PROXY_OBJECT
  5
7845
330
7841
100
AcDbProxyObject
 90
      499
 91
      567
 95
       25
 70
     0
 93
     1376
310
5DE0143A0D960E4E0DDA0E32056E0D9C80C405983D3C486F6C653A6469613E3C696628657175616C28486F6C653A7465726D696E6174696F6E2C223022292C2220905B82B320222C22208368838A838B22293E3C696628657175616C28486F6C653A7465726D696E6174696F6E2C223022292C486F6C653A64657074682C22
310
22293E2C203C486F6C653A63746469613E2082B482AE82E882CC905B82B3203C486F6C653A637464657074683E
  0
ACAD_PROXY_OBJECT
  5
7846
330
7841
100
AcDbProxyObject
 90
      499
 91
      567
 95
       25
 70
     0
 93
     2072
310
5DE0143A0D960E4E0DDA0E32056E0D9C80C405EF3D3C486F6C653A6374616E676C653E252564202525633C486F6C653A63746469613E208E4D8C8A2C203C696628657175616C28486F6C653A7461707065642C223022292C22252563222C486F6C653A6E6F6D696E616C202220782022293E3C696628657175616C28486F6C
310
653A7461707065642C223022292C486F6C653A6469612C486F6C653A706974636864657363293E203C696628657175616C28486F6C653A7465726D696E6174696F6E2C223022292C22905B82B320222C222022293E3C696628657175616C28486F6C653A7465726D696E6174696F6E2C223022292C486F6C653A6465707468
310
2C2222293E
  0
ACAD_PROXY_OBJECT
  5
7844
330
7841
100
AcDbProxyObject
 90
      499
 91
      567
 95
       25
 70
     0
 93
     1752
310
5DE0143A0D960E4E0DDA0E32056E0D9C80C405C73D3C696628657175616C28486F6C653A7461707065642C223022292C22252563222C486F6C653A6E6F6D696E616C202220782022293E3C696628657175616C28486F6C653A7461707065642C223022292C486F6C653A6469612C486F6C653A706974636864657363293E20
310
3C696628657175616C28486F6C653A7465726D696E6174696F6E2C223022292C22905B82B320222C222022293E3C696628657175616C28486F6C653A7465726D696E6174696F6E2C223022292C486F6C653A64657074682C2222293E
  0
ACAD_PROXY_OBJECT
  5
7843
330
7841
100
AcDbProxyObject
 90
      499
 91
      567
 95
       25
 70
     0
 93
      344
310
5DE0143A0D960E4E0DDA0E32056E0D9C80C805173D3C535444503A444553433E203C535444503A5354443E
  0
ACAD_PROXY_OBJECT
  5
7842
330
7841
100
AcDbProxyObject
 90
      499
 91
      567
 95
       25
 70
     0
 93
      256
310
5DE0143A0D960E4E0DDA0E32056E0D9C80C4050C3D3C535444503A444553433E
  0
ENDSEC
  0
EOF
