  0
SECTION
  2
HEADER
  9
$ACADVER
  1
AC1015
  9
$ACADMAINTVER
 70
    20
  9
$DWGCODEPAGE
  3
ANSI_932
  9
$INSBASE
 10
0.0
 20
0.0
 30
0.0
  9
$EXTMIN
 10
-84.8826627399335
 20
-107.0623709293679
 30
-0.0000000000022887
  9
$EXTMAX
 10
208.3265687245796
 20
52.21362038883649
 30
0.0000000000000001
  9
$LIMMIN
 10
-252.3777291382473
 20
-105.390212754472
  9
$LIMMAX
 10
160.2432758514182
 20
145.3800304649948
  9
$ORTHOMODE
 70
     0
  9
$REGENMODE
 70
     1
  9
$FILLMODE
 70
     1
  9
$QTEXTMODE
 70
     0
  9
$MIRRTEXT
 70
     1
  9
$LTSCALE
 40
1.0
  9
$ATTMODE
 70
     1
  9
$TEXTSIZE
 40
2.5
  9
$TRACEWID
 40
1.0
  9
$TEXTSTYLE
  7
STANDARD
  9
$CLAYER
  8
AM_5
  9
$CELTYPE
  6
BYLAYER
  9
$CECOLOR
 62
   256
  9
$CELTSCALE
 40
1.0
  9
$DISPSILH
 70
     0
  9
$DIMSCALE
 40
1.0
  9
$DIMASZ
 40
2.5
  9
$DIMEXO
 40
0.0
  9
$DIMDLI
 40
10.0
  9
$DIMRND
 40
0.0
  9
$DIMDLE
 40
0.0
  9
$DIMEXE
 40
1.0
  9
$DIMTP
 40
0.1
  9
$DIMTM
 40
0.1000000001
  9
$DIMTXT
 40
3.799999999999998
  9
$DIMCEN
 40
0.0
  9
$DIMTSZ
 40
0.0
  9
$DIMTOL
 70
     0
  9
$DIMLIM
 70
     0
  9
$DIMTIH
 70
     0
  9
$DIMTOH
 70
     0
  9
$DIMSE1
 70
     0
  9
$DIMSE2
 70
     0
  9
$DIMTAD
 70
     3
  9
$DIMZIN
 70
     9
  9
$DIMBLK
  1
OPEN30
  9
$DIMASO
 70
     1
  9
$DIMSHO
 70
     1
  9
$DIMPOST
  1

  9
$DIMAPOST
  1
"
  9
$DIMALT
 70
     0
  9
$DIMALTD
 70
     2
  9
$DIMALTF
 40
0.0393701
  9
$DIMLFAC
 40
1.0
  9
$DIMTOFL
 70
     1
  9
$DIMTVP
 40
0.0
  9
$DIMTIX
 70
     0
  9
$DIMSOXD
 70
     0
  9
$DIMSAH
 70
     0
  9
$DIMBLK1
  1

  9
$DIMBLK2
  1

  9
$DIMSTYLE
  2
AM_JIS
  9
$DIMCLRD
 70
   256
  9
$DIMCLRE
 70
   256
  9
$DIMCLRT
 70
     2
  9
$DIMTFAC
 40
0.71
  9
$DIMGAP
 40
1.5
  9
$DIMJUST
 70
     0
  9
$DIMSD1
 70
     0
  9
$DIMSD2
 70
     0
  9
$DIMTOLJ
 70
     0
  9
$DIMTZIN
 70
     8
  9
$DIMALTZ
 70
     0
  9
$DIMALTTZ
 70
     0
  9
$DIMUPT
 70
     0
  9
$DIMDEC
 70
     2
  9
$DIMTDEC
 70
     2
  9
$DIMALTU
 70
     2
  9
$DIMALTTD
 70
     2
  9
$DIMTXSTY
  7
STANDARD
  9
$DIMAUNIT
 70
     1
  9
$DIMADEC
 70
     1
  9
$DIMALTRND
 40
0.0
  9
$DIMAZIN
 70
     2
  9
$DIMDSEP
 70
    46
  9
$DIMATFIT
 70
     3
  9
$DIMFRAC
 70
     0
  9
$DIMLDRBLK
  1
OPEN30
  9
$DIMLUNIT
 70
     2
  9
$DIMLWD
 70
    -1
  9
$DIMLWE
 70
    -1
  9
$DIMTMOVE
 70
     0
  9
$LUNITS
 70
     2
  9
$LUPREC
 70
     2
  9
$SKETCHINC
 40
1.0
  9
$FILLETRAD
 40
0.1
  9
$AUNITS
 70
     1
  9
$AUPREC
 70
     5
  9
$MENU
  1
.
  9
$ELEVATION
 40
0.0
  9
$PELEVATION
 40
0.0
  9
$THICKNESS
 40
0.0
  9
$LIMCHECK
 70
     0
  9
$CHAMFERA
 40
0.0
  9
$CHAMFERB
 40
0.0
  9
$CHAMFERC
 40
20.0
  9
$CHAMFERD
 40
0.0
  9
$SKPOLY
 70
     0
  9
$TDCREATE
 40
2451943.610431666
  9
$TDUCREATE
 40
2451943.235431667
  9
$TDUPDATE
 40
2455603.397769271
  9
$TDUUPDATE
 40
2455603.022769271
  9
$TDINDWG
 40
0.7097030093
  9
$TDUSRTIMER
 40
0.7097028356
  9
$USRTIMER
 70
     1
  9
$ANGBASE
 50
0.0
  9
$ANGDIR
 70
     0
  9
$PDMODE
 70
     0
  9
$PDSIZE
 40
0.0
  9
$PLINEWID
 40
0.0
  9
$SPLFRAME
 70
     0
  9
$SPLINETYPE
 70
     6
  9
$SPLINESEGS
 70
     8
  9
$HANDSEED
  5
A703
  9
$SURFTAB1
 70
     6
  9
$SURFTAB2
 70
     6
  9
$SURFTYPE
 70
     6
  9
$SURFU
 70
     6
  9
$SURFV
 70
     6
  9
$UCSBASE
  2

  9
$UCSNAME
  2

  9
$UCSORG
 10
0.0
 20
0.0
 30
0.0
  9
$UCSXDIR
 10
1.0
 20
0.0
 30
0.0
  9
$UCSYDIR
 10
0.0
 20
1.0
 30
0.0
  9
$UCSORTHOREF
  2

  9
$UCSORTHOVIEW
 70
     0
  9
$UCSORGTOP
 10
0.0
 20
0.0
 30
0.0
  9
$UCSORGBOTTOM
 10
0.0
 20
0.0
 30
0.0
  9
$UCSORGLEFT
 10
0.0
 20
0.0
 30
0.0
  9
$UCSORGRIGHT
 10
0.0
 20
0.0
 30
0.0
  9
$UCSORGFRONT
 10
0.0
 20
0.0
 30
0.0
  9
$UCSORGBACK
 10
0.0
 20
0.0
 30
0.0
  9
$PUCSBASE
  2

  9
$PUCSNAME
  2

  9
$PUCSORG
 10
0.0
 20
0.0
 30
0.0
  9
$PUCSXDIR
 10
1.0
 20
0.0
 30
0.0
  9
$PUCSYDIR
 10
0.0
 20
1.0
 30
0.0
  9
$PUCSORTHOREF
  2

  9
$PUCSORTHOVIEW
 70
     0
  9
$PUCSORGTOP
 10
0.0
 20
0.0
 30
0.0
  9
$PUCSORGBOTTOM
 10
0.0
 20
0.0
 30
0.0
  9
$PUCSORGLEFT
 10
0.0
 20
0.0
 30
0.0
  9
$PUCSORGRIGHT
 10
0.0
 20
0.0
 30
0.0
  9
$PUCSORGFRONT
 10
0.0
 20
0.0
 30
0.0
  9
$PUCSORGBACK
 10
0.0
 20
0.0
 30
0.0
  9
$USERI1
 70
     0
  9
$USERI2
 70
     0
  9
$USERI3
 70
     0
  9
$USERI4
 70
     0
  9
$USERI5
 70
     0
  9
$USERR1
 40
0.0
  9
$USERR2
 40
0.0
  9
$USERR3
 40
0.0
  9
$USERR4
 40
0.0
  9
$USERR5
 40
0.0
  9
$WORLDVIEW
 70
     1
  9
$SHADEDGE
 70
     3
  9
$SHADEDIF
 70
    70
  9
$TILEMODE
 70
     1
  9
$MAXACTVP
 70
    64
  9
$PINSBASE
 10
0.0
 20
0.0
 30
0.0
  9
$PLIMCHECK
 70
     0
  9
$PEXTMIN
 10
1.000000000000000E+20
 20
1.000000000000000E+20
 30
1.000000000000000E+20
  9
$PEXTMAX
 10
-1.000000000000000E+20
 20
-1.000000000000000E+20
 30
-1.000000000000000E+20
  9
$PLIMMIN
 10
0.0
 20
0.0
  9
$PLIMMAX
 10
420.0
 20
297.0
  9
$UNITMODE
 70
     0
  9
$VISRETAIN
 70
     1
  9
$PLINEGEN
 70
     0
  9
$PSLTSCALE
 70
     1
  9
$TREEDEPTH
 70
  3020
  9
$CMLSTYLE
  2
STANDARD
  9
$CMLJUST
 70
     0
  9
$CMLSCALE
 40
20.0
  9
$PROXYGRAPHICS
 70
     1
  9
$MEASUREMENT
 70
     1
  9
$CELWEIGHT
370
    -1
  9
$ENDCAPS
280
     0
  9
$JOINSTYLE
280
     0
  9
$LWDISPLAY
290
     0
  9
$INSUNITS
 70
     4
  9
$HYPERLINKBASE
  1

  9
$STYLESHEET
  1
ASAMI.ctb
  9
$XEDIT
290
     1
  9
$CEPSNTYPE
380
     0
  9
$PSTYLEMODE
290
     1
  9
$FINGERPRINTGUID
  2
{C77AB3BE-9CA2-11D3-BAF3-006094EB760E}
  9
$VERSIONGUID
  2
{90926EBB-4CF5-4C39-96C7-EEFF76175DEE}
  9
$EXTNAMES
290
     1
  9
$PSVPSCALE
 40
0.0
  9
$OLESTARTUP
290
     0
  0
ENDSEC
  0
SECTION
  2
CLASSES
  0
CLASS
  1
ACDBDICTIONARYWDFLT
  2
AcDbDictionaryWithDefault
  3
ObjectDBX Classes
 90
        0
280
     0
281
     0
  0
CLASS
  1
ACDBPLACEHOLDER
  2
AcDbPlaceHolder
  3
ObjectDBX Classes
 90
        0
280
     0
281
     0
  0
CLASS
  1
LAYOUT
  2
AcDbLayout
  3
ObjectDBX Classes
 90
        0
280
     0
281
     0
  0
CLASS
  1
ACME_DOCUMENT
  2
AcMeDbDoc
  3
AcMeServices
 90
        0
280
     0
281
     0
  0
CLASS
  1
ACMESCOPE
  2
AcMeScope
  3
AcMeServices
 90
        0
280
     0
281
     0
  0
CLASS
  1
ACMECOMMANDHISTORY
  2
AcMeCommandHistory
  3
AcMeServices
 90
        0
280
     0
281
     0
  0
CLASS
  1
DICTIONARYVAR
  2
AcDbDictionaryVar
  3
ObjectDBX Classes
 90
        0
280
     0
281
     0
  0
CLASS
  1
ACIMSYSVARMAN
  2
AcImSysVarManager
  3
AcMeServices
 90
        0
280
     0
281
     0
  0
CLASS
  1
ACIMREALSYSVAR
  2
AcImRealSysVar
  3
AcMeServices
 90
        0
280
     0
281
     0
  0
CLASS
  1
ACIMINTSYSVAR
  2
AcImIntSysVar
  3
AcMeServices
 90
        0
280
     0
281
     0
  0
CLASS
  1
ACMEDRAWINGMAN
  2
AcMeDrawingMan
  3
AcMeServices
 90
        0
280
     0
281
     0
  0
CLASS
  1
ACMEVIEW
  2
AcMeView
  3
AcMeServices
 90
        0
280
     0
281
     0
  0
CLASS
  1
ACDBENTITYCACHE
  2
AcMeEntityCache
  3
AcMeServices
 90
        0
280
     0
281
     0
  0
CLASS
  1
GSMANAGER
  2
AcMeGSManager
  3
AcMeServices
 90
        0
280
     0
281
     0
  0
CLASS
  1
AMDTINTERNALREACTOR
  2
AmdtInternalReactor
  3
AcMeServices
 90
        0
280
     0
281
     0
  0
CLASS
  1
ACMESTATEMGR
  2
AcMeStateMgr
  3
AcMeServices
 90
        0
280
     0
281
     0
  0
CLASS
  1
ACME_DATABASE
  2
AcMeDbDatabase
  3
AcMeServices
 90
        0
280
     0
281
     0
  0
CLASS
  1
ACRFINSADJUSTERMGR
  2
AcRfInsAdjusterMgr
  3
AcMeServices
 90
        0
280
     0
281
     0
  0
CLASS
  1
AMGSETTINGSOBJ
  2
AmgSettingsObj
  3
"AcadM|Product Description: AutoCAD Mechanical 2000|Company: Autodesk"
 90
        0
280
     0
281
     0
  0
CLASS
  1
AMGOBJPROPCFG
  2
AmgObjPropCfg
  3
"AmgLay|Product Description: AutoCAD Mechanical 2000|Company: Autodesk"
 90
        1
280
     0
281
     0
  0
CLASS
  1
ACMDATADICTIONARY
  2
AcmDataDictionary
  3
"AcmSymBB|Product Description: AutoCAD Mechanical 2004 DX|Company: Autodesk"
 90
        0
280
     0
281
     0
  0
CLASS
  1
ACMDATAENTRYBLOCK
  2
AcmDataEntryBlock
  3
"AcmSymBB|Product Description: AutoCAD Mechanical 2004 DX|Company: Autodesk"
 90
    32768
280
     0
281
     0
  0
CLASS
  1
ACIMSTRSYSVAR
  2
AcImStrSysVar
  3
AcMeServices
 90
        0
280
     0
281
     0
  0
CLASS
  1
ACAMGFILTERDAT
  2
AcAmgFilterDat
  3
"AcadM|Product Description: AutoCAD Mechanical 2000|Company: Autodesk"
 90
    32768
280
     0
281
     0
  0
CLASS
  1
LAYER_INDEX
  2
AcDbLayerIndex
  3
ObjectDBX Classes
 90
        0
280
     0
281
     0
  0
CLASS
  1
IDBUFFER
  2
AcDbIdBuffer
  3
ObjectDBX Classes
 90
        0
280
     0
281
     0
  0
CLASS
  1
ACMSTANDARDJIS
  2
AcmStandardJIS
  3
"Amdt_StdImp|Product Description: AutoCAD Mechanical 2004 DX|Company: Autodesk"
 90
    32768
280
     0
281
     0
  0
CLASS
  1
ACMSURFSTANDARDJIS
  2
AcmSurfTextStdJIS
  3
"Amdt_StdImp|Product Description: AutoCAD Mechanical 2004 DX|Company: Autodesk"
 90
    32768
280
     0
281
     0
  0
CLASS
  1
ACMFCFSTANDARDJIS
  2
AcmFCFStdJIS
  3
"Amdt_StdImp|Product Description: AutoCAD Mechanical 2004 DX|Company: Autodesk"
 90
    32768
280
     0
281
     0
  0
CLASS
  1
ACMWELDSTANDARDJIS
  2
AcmWeldingStdJIS
  3
"Amdt_StdImp|Product Description: AutoCAD Mechanical 2004 DX|Company: Autodesk"
 90
    32768
280
     0
281
     0
  0
CLASS
  1
ACMIDSTANDARDJIS
  2
AcmIdStdJIS
  3
"Amdt_StdImp|Product Description: AutoCAD Mechanical 2004 DX|Company: Autodesk"
 90
    32768
280
     0
281
     0
  0
CLASS
  1
ACMDATUMSTANDARDJIS
  2
AcmDatumStdJIS
  3
"Amdt_StdImp|Product Description: AutoCAD Mechanical 2004 DX|Company: Autodesk"
 90
    32768
280
     0
281
     0
  0
CLASS
  1
ACMBOMSTANDARDJIS
  2
AcmBOMStdJIS
  3
"Amdt_StdImp|Product Description: AutoCAD Mechanical 2004 DX|Company: Autodesk"
 90
    32768
280
     0
281
     0
  0
CLASS
  1
AMDTNOTE
  2
AmdtNote
  3
"AcmSymBB|Product Description: AutoCAD Mechanical 2004 DX|Company: Autodesk"
 90
    33791
280
     0
281
     1
  0
CLASS
  1
ACMDATAENTRYPART
  2
AcmDataEntryPart
  3
"AcmSymBB|Product Description: AutoCAD Mechanical 2004 DX|Company: Autodesk"
 90
    32768
280
     0
281
     0
  0
CLASS
  1
ACMPARTREF
  2
AcmPartRef
  3
"AcmSymBB|Product Description: AutoCAD Mechanical 2004 DX|Company: Autodesk"
 90
    33791
280
     0
281
     1
  0
CLASS
  1
ACDB_PROXY_ENTITY_DATA
  2
AcDbProxyEntityData
  3
ObjectDBX Classes
 90
    32768
280
     0
281
     0
  0
CLASS
  1
TABLESTYLE
  2
AcDbTableStyle
  3
ObjectDBX Classes
 90
     2047
280
     0
281
     0
  0
CLASS
  1
ACGREFMASTER
  2
AcGrefMaster
  3
AcAttribServices
 90
        0
280
     0
281
     0
  0
CLASS
  1
AM_DRAWING_MGR
  2
AcDmDwgMgr
  3
AcMechDwgViewMgmt
 90
        0
280
     0
281
     0
  0
CLASS
  1
AM_DWG_DOCUMENT
  2
AcDmDwgDocument
  3
AcMechDwgViewMgmt
 90
        0
280
     0
281
     0
  0
CLASS
  1
AM_DWG_SHEET
  2
AcDmSheet
  3
AcMechDwgViewMgmt
 90
        0
280
     0
281
     0
  0
CLASS
  1
AM_VIEWDIMPARMAP
  2
AcDmViewDimParMap
  3
AcMechDwgViewMgmt
 90
        0
280
     0
281
     0
  0
CLASS
  1
AM_DWGMGR_NAME
  2
AcDmDwgMgrName
  3
AcMechDwgViewMgmt
 90
        0
280
     0
281
     0
  0
CLASS
  1
ACGREFACADMASTER
  2
AcGrefacadMaster
  3
AcGrefServices
 90
        0
280
     0
281
     0
  0
CLASS
  1
AMDTMENUSTATEMGR
  2
AmdtMenuStateMgr
  3
McadcomServices
 90
        0
280
     0
281
     0
  0
CLASS
  1
AMDTMCOMMENUSTATE
  2
AmdtMcomMenuState
  3
McadcomServices
 90
        0
280
     0
281
     0
  0
CLASS
  1
AMIMASTER
  2
AmiMaster
  3
AmiServices
 90
        0
280
     0
281
     0
  0
CLASS
  1
MAPIAMMOUDLE
  2
MApiAmModule
  3
MApiAmServices
 90
        0
280
     0
281
     0
  0
CLASS
  1
AMDTADMENUSTATE
  2
AmdtAdMenuState
  3
DesignerServices
 90
        0
280
     0
281
     0
  0
CLASS
  1
ADAPPL
  2
AcAdAppl
  3
DesignerServices
 90
        0
280
     0
281
     0
  0
CLASS
  1
DEPMGR
  2
AcAdDepMgr
  3
DesignerServices
 90
        0
280
     0
281
     0
  0
CLASS
  1
PARAMMGR
  2
AcAdParamMgr
  3
DesignerServices
 90
        0
280
     0
281
     0
  0
CLASS
  1
PARAMSCOPE
  2
AcAdParamScope
  3
DesignerServices
 90
        0
280
     0
281
     0
  0
CLASS
  1
NAMEDAPPL
  2
AcAdNamedAppl
  3
DesignerServices
 90
        0
280
     0
281
     0
  0
CLASS
  1
AMDTDMMENUSTATE
  2
AmdtDmMenuState
  3
AcMechDwgViewMgmt
 90
        0
280
     0
281
     0
  0
CLASS
  1
AMDTAMMENUSTATE
  2
AmdtAmMenuState
  3
DesignerAssemblies
 90
        0
280
     0
281
     0
  0
CLASS
  1
ACAMPROJECT
  2
AcAmProject
  3
DesignerAssemblies
 90
        0
280
     0
281
     0
  0
CLASS
  1
ACAMGRCOMPDEF
  2
AcAmGrCompDef
  3
DesignerAssemblies
 90
        0
280
     0
281
     0
  0
CLASS
  1
ACCMCONTEXT
  2
AcCmContext
  3
DesignerAssemblies
 90
        0
280
     0
281
     0
  0
CLASS
  1
ACAMCOMPDEF
  2
AcAmCompDef
  3
DesignerAssemblies
 90
        0
280
     0
281
     0
  0
CLASS
  1
ACAMCOMPDEFMGR
  2
AcAmCompDefMgr
  3
DesignerAssemblies
 90
        0
280
     0
281
     0
  0
CLASS
  1
AMCONTEXTMGR
  2
AcAmContextMgr
  3
DesignerAssemblies
 90
        0
280
     0
281
     0
  0
CLASS
  1
ACAMCONTEXTMODELER
  2
AcAmContextModeler
  3
DesignerAssemblies
 90
        0
280
     0
281
     0
  0
CLASS
  1
CATALOGSTATE
  2
AcAmCatalogState
  3
DesignerAssemblies
 90
        0
280
     0
281
     0
  0
CLASS
  1
ACAMGRCOMPDEFSET
  2
AcAmGrCompDefSet
  3
DesignerAssemblies
 90
        0
280
     0
281
     0
  0
CLASS
  1
AMDTBROWSERDBTAB
  2
AmdtBrowserDbTab
  3
McadcomServices
 90
        0
280
     0
281
     0
  0
CLASS
  1
CBROWSERAPPOBJECT
  2
CBrowserAppObject
  3
McadcomServices
 90
        0
280
     0
281
     0
  0
CLASS
  1
DM_PLACEHOLDER
  2
AcDmSelsetPlaceholder
  3
AcMechDwgViewMgmt
 90
        0
280
     0
281
     0
  0
CLASS
  1
ACMSTANDARDISO
  2
AcmStandardISO
  3
"Amdt_StdImp|Product Description: AutoCAD Mechanical 2004 DX|Company: Autodesk"
 90
        0
280
     0
281
     0
  0
CLASS
  1
AMDTEDGESTANDARDISO13715
  2
AmdtEdgeStdISO13715
  3
"Amdt_StdImp|Product Description: AutoCAD Mechanical 2004 DX|Company: Autodesk"
 90
        0
280
     0
281
     0
  0
CLASS
  1
ACMSURFSTANDARDISO
  2
AcmSurfTextStdISO
  3
"Amdt_StdImp|Product Description: AutoCAD Mechanical 2004 DX|Company: Autodesk"
 90
        0
280
     0
281
     0
  0
CLASS
  1
ACMFCFSTANDARDISO
  2
AcmFCFStdISO
  3
"Amdt_StdImp|Product Description: AutoCAD Mechanical 2004 DX|Company: Autodesk"
 90
        0
280
     0
281
     0
  0
CLASS
  1
ACMWELDSTANDARDISO
  2
AcmWeldingStdISO
  3
"Amdt_StdImp|Product Description: AutoCAD Mechanical 2004 DX|Company: Autodesk"
 90
        0
280
     0
281
     0
  0
CLASS
  1
ACMIDSTANDARDISO
  2
AcmIdStdISO
  3
"Amdt_StdImp|Product Description: AutoCAD Mechanical 2004 DX|Company: Autodesk"
 90
        0
280
     0
281
     0
  0
CLASS
  1
ACMDATUMSTANDARDISO
  2
AcmDatumStdISO
  3
"Amdt_StdImp|Product Description: AutoCAD Mechanical 2004 DX|Company: Autodesk"
 90
        0
280
     0
281
     0
  0
CLASS
  1
ACMBOMSTANDARDISO
  2
AcmBOMStdISO
  3
"Amdt_StdImp|Product Description: AutoCAD Mechanical 2004 DX|Company: Autodesk"
 90
        0
280
     0
281
     0
  0
CLASS
  1
ACMDETAILSTANDARDISO
  2
AmdtDetailSymStdISO
  3
"Amdt_StdImp|Product Description: AutoCAD Mechanical 2004 DX|Company: Autodesk"
 90
        0
280
     0
281
     0
  0
CLASS
  1
ACMSECTIONSTANDARDISO
  2
AmdtSectionSymStdISO
  3
"Amdt_StdImp|Product Description: AutoCAD Mechanical 2004 DX|Company: Autodesk"
 90
        0
280
     0
281
     0
  0
CLASS
  1
ACMCENTERLINESTANDARDISO
  2
AmdtCenterLineStdISO
  3
"Amdt_StdImp|Product Description: AutoCAD Mechanical 2004 DX|Company: Autodesk"
 90
        0
280
     0
281
     0
  0
CLASS
  1
ACMTHREADLINESTANDARDISO
  2
AmdtThreadLineStdISO
  3
"Amdt_StdImp|Product Description: AutoCAD Mechanical 2004 DX|Company: Autodesk"
 90
        0
280
     0
281
     0
  0
CLASS
  1
ACMNOTESTANDARDISO
  2
AmdtNoteStdISO
  3
"Amdt_StdImp|Product Description: AutoCAD Mechanical 2004 DX|Company: Autodesk"
 90
        0
280
     0
281
     0
  0
CLASS
  1
AMDTNOTETEMPLATEDB
  2
AmdtNoteTemplateDB
  3
AMDT_STDIMP_MODULE_NAME
 90
        0
280
     0
281
     0
  0
CLASS
  1
ACAMGLAYSTD
  2
AcAmgLayStd
  3
"AcAmgLayStd|Product Description: AutoCAD Mechanical 2000|Company: Autodesk"
 90
        0
280
     0
281
     0
  0
CLASS
  1
ACAMGDIMSTD
  2
AcAmgDimStd
  3
"AcAmgDimStd|Product Description: AutoCAD Mechanical 2000|Company: Autodesk"
 90
        0
280
     0
281
     0
  0
CLASS
  1
ACAMGHOLECHARTSTDISO
  2
AcAmgHoleChartStdISO
  3
ACMSYMBB_MODULE_NAME
 90
        0
280
     0
281
     0
  0
CLASS
  1
ACAMGTITLESTD
  2
AcAmgTitleStd
  3
"TITLEAPP"
 90
        0
280
     0
281
     0
  0
ENDSEC
  0
SECTION
  2
TABLES
  0
TABLE
  2
VPORT
  5
8
330
0
100
AcDbSymbolTable
 70
     3
  0
VPORT
  5
A6FC
330
8
100
AcDbSymbolTableRecord
100
AcDbViewportTableRecord
  2
*Active
 70
     0
 10
0.0
 20
0.0
 11
1.0
 21
1.0
 12
61.72195299232305
 22
-27.42437527026573
 13
0.0
 23
0.0
 14
2.5
 24
2.5
 15
10.0
 25
10.0
 16
0.0
 26
0.0
 36
1.0
 17
0.0
 27
0.0
 37
0.0
 40
160.4136769704773
 41
2.176400476758045
 42
50.0
 43
0.0
 44
0.0
 50
0.0
 51
0.0
 71
     0
 72
  2000
 73
     1
 74
     3
 75
     0
 76
     0
 77
     0
 78
     0
281
     0
 65
     0
110
0.0
120
0.0
130
0.0
111
1.0
121
0.0
131
0.0
112
0.0
122
1.0
132
0.0
 79
     0
146
0.0
  0
ENDTAB
  0
TABLE
  2
LTYPE
  5
5
330
0
100
AcDbSymbolTable
 70
    17
  0
LTYPE
  5
14
330
5
100
AcDbSymbolTableRecord
100
AcDbLinetypeTableRecord
  2
BYBLOCK
 70
     0
  3

 72
    65
 73
     0
 40
0.0
  0
LTYPE
  5
15
330
5
100
AcDbSymbolTableRecord
100
AcDbLinetypeTableRecord
  2
BYLAYER
 70
     0
  3

 72
    65
 73
     0
 40
0.0
  0
LTYPE
  5
16
330
5
100
AcDbSymbolTableRecord
100
AcDbLinetypeTableRecord
  2
CONTINUOUS
 70
     0
  3
Solid line
 72
    65
 73
     0
 40
0.0
  0
LTYPE
  5
43
330
5
100
AcDbSymbolTableRecord
100
AcDbLinetypeTableRecord
  2
AM_ISO02W050
 70
     0
  3
__ __ __ __ __ __ __ __ __ __ __ __ __ __ __
 72
    65
 73
     2
 40
7.5
 49
6.0
 74
     0
 49
-1.5
 74
     0
  0
LTYPE
  5
44
330
5
100
AcDbSymbolTableRecord
100
AcDbLinetypeTableRecord
  2
AM_ISO08W050
 70
     0
  3
____ . ____ . ____ . ____ . ____ . ____ . ____
 72
    65
 73
     4
 40
18.0
 49
12.0
 74
     0
 49
-1.5
 74
     0
 49
3.0
 74
     0
 49
-1.5
 74
     0
  0
LTYPE
  5
45
330
5
100
AcDbSymbolTableRecord
100
AcDbLinetypeTableRecord
  2
AM_ISO09W050
 70
     0
  3
_____ . . _____ . . _____ . . ____ .. ____
 72
    65
 73
     6
 40
22.5
 49
12.0
 74
     0
 49
-1.5
 74
     0
 49
3.0
 74
     0
 49
-1.5
 74
     0
 49
3.0
 74
     0
 49
-1.5
 74
     0
  0
LTYPE
  5
46
330
5
100
AcDbSymbolTableRecord
100
AcDbLinetypeTableRecord
  2
AMCONSTR
 70
     0
  3
_______________________
 72
    65
 73
     2
 40
9999.0
 49
9999.0
 74
     0
 49
0.0
 74
     0
  0
LTYPE
  5
47
330
5
100
AcDbSymbolTableRecord
100
AcDbLinetypeTableRecord
  2
AM_ISO02W050X2
 70
     0
  3
 _ _ _ _ _ _ _ _ _ _ _ _
 72
    65
 73
     2
 40
3.75
 49
3.0
 74
     0
 49
-0.75
 74
     0
  0
LTYPE
  5
48
330
5
100
AcDbSymbolTableRecord
100
AcDbLinetypeTableRecord
  2
AM_ISO08W050X2
 70
     0
  3
__ . __ . __ . __ . __ . __
 72
    65
 73
     4
 40
9.0
 49
6.0
 74
     0
 49
-0.75
 74
     0
 49
1.5
 74
     0
 49
-0.75
 74
     0
  0
LTYPE
  5
4B
330
5
100
AcDbSymbolTableRecord
100
AcDbLinetypeTableRecord
  2
AMZIGZAG
 70
     0
  3
/\/-/\/-/\/-/\/-/\/-/\/
 72
    65
 73
     2
 40
11.00009999999999
 49
0.0001
 74
     4
 75
   135
340
4A
 46
0.04
 50
0.0
 44
0.0
 45
0.0
 49
-11.0
 74
     0
  0
LTYPE
  5
A2E3
330
5
100
AcDbSymbolTableRecord
100
AcDbLinetypeTableRecord
  2
PHANTOM
 70
     0
  3
Phantom ______  __  __  ______  __  __  ______
 72
    65
 73
     6
 40
63.5
 49
31.75
 74
     0
 49
-6.349999999999998
 74
     0
 49
6.349999999999998
 74
     0
 49
-6.349999999999998
 74
     0
 49
6.349999999999998
 74
     0
 49
-6.349999999999998
 74
     0
  0
LTYPE
  5
A638
330
5
100
AcDbSymbolTableRecord
100
AcDbLinetypeTableRecord
  2
HIDDEN
 70
     0
  3
Hidden __ __ __ __ __ __ __ __ __ __ __ __ __ _
 72
    65
 73
     2
 40
9.524999999999998
 49
6.349999999999999
 74
     0
 49
-3.174999999999999
 74
     0
  0
LTYPE
  5
A639
330
5
100
AcDbSymbolTableRecord
100
AcDbLinetypeTableRecord
  2
PHANTOM2
 70
     0
  3
Phantom (.5x) ___ _ _ ___ _ _ ___ _ _ ___ _ _
 72
    65
 73
     6
 40
31.75
 49
15.875
 74
     0
 49
-3.174999999999999
 74
     0
 49
3.174999999999999
 74
     0
 49
-3.174999999999999
 74
     0
 49
3.174999999999999
 74
     0
 49
-3.174999999999999
 74
     0
  0
LTYPE
  5
A63A
330
5
100
AcDbSymbolTableRecord
100
AcDbLinetypeTableRecord
  2
CENTER
 70
     0
  3
Center ____ _ ____ _ ____ _ ____ _ ____ _ ____
 72
    65
 73
     4
 40
50.8
 49
31.75
 74
     0
 49
-6.349999999999999
 74
     0
 49
6.349999999999999
 74
     0
 49
-6.349999999999999
 74
     0
  0
LTYPE
  5
A67A
330
5
100
AcDbSymbolTableRecord
100
AcDbLinetypeTableRecord
  2
ACISOWELD
 70
     0
  3
_ _ _ _ _
 72
    65
 73
     2
 40
2.0
 49
2.0
 74
     0
 49
-1.0
 74
     0
  0
LTYPE
  5
A67B
330
5
100
AcDbSymbolTableRecord
100
AcDbLinetypeTableRecord
  2
ACISOTGB
 70
     0
  3
__ . . __ . .
 72
    65
 73
     6
 40
9.0
 49
4.0
 74
     0
 49
-1.0
 74
     0
 49
1.0
 74
     0
 49
-1.0
 74
     0
 49
1.0
 74
     0
 49
-1.0
 74
     0
  0
LTYPE
  5
A67C
330
5
100
AcDbSymbolTableRecord
100
AcDbLinetypeTableRecord
  2
ACISOTGL
 70
     0
  3
_ _ _ _ _
 72
    65
 73
     2
 40
3.0
 49
2.0
 74
     0
 49
-1.0
 74
     0
  0
ENDTAB
  0
TABLE
  2
LAYER
  5
2
330
0
100
AcDbSymbolTable
 70
    12
  0
LAYER
  5
10
330
2
100
AcDbSymbolTableRecord
100
AcDbLayerTableRecord
  2
0
 70
     0
 62
     7
  6
CONTINUOUS
370
    -3
390
F
  0
LAYER
  5
7D
330
2
100
AcDbSymbolTableRecord
100
AcDbLayerTableRecord
  2
AM_5
 70
     0
 62
     3
  6
CONTINUOUS
370
    -3
390
F
  0
LAYER
  5
7F
330
2
100
AcDbSymbolTableRecord
100
AcDbLayerTableRecord
  2
DEFPOINTS
 70
     0
 62
     7
  6
CONTINUOUS
290
     0
370
    -3
390
F
  0
LAYER
  5
12B1
330
2
100
AcDbSymbolTableRecord
100
AcDbLayerTableRecord
  2
AM_0
 70
     0
 62
     7
  6
CONTINUOUS
370
    -3
390
F
  0
LAYER
  5
2222
330
2
100
AcDbSymbolTableRecord
100
AcDbLayerTableRecord
  2
AM_6
 70
     0
 62
     2
  6
CONTINUOUS
370
    -3
390
F
  0
LAYER
  5
4379
330
2
100
AcDbSymbolTableRecord
100
AcDbLayerTableRecord
  2
AM_1
 70
     0
 62
     3
  6
CONTINUOUS
370
    -3
390
F
  0
LAYER
  5
7DB2
330
2
100
AcDbSymbolTableRecord
100
AcDbLayerTableRecord
  2
AM_7
 70
     0
 62
     4
  6
AM_ISO08W050
370
    -3
390
F
  0
LAYER
  5
8B83
330
2
100
AcDbSymbolTableRecord
100
AcDbLayerTableRecord
  2
PV0001_1
 70
     0
 62
     7
  6
CONTINUOUS
370
    -3
390
F
  0
LAYER
  5
A2E4
330
2
100
AcDbSymbolTableRecord
100
AcDbLayerTableRecord
  2
AM_11
 70
     0
 62
     3
  6
PHANTOM
370
    -3
390
F
  0
ENDTAB
  0
TABLE
  2
STYLE
  5
3
330
0
100
AcDbSymbolTable
 70
     6
  0
STYLE
  5
11
330
3
100
AcDbSymbolTableRecord
100
AcDbTextStyleTableRecord
  2
STANDARD
 70
     0
 40
0.0
 41
1.0
 50
0.0
 71
     0
 42
2.5
  3
ISOCP.SHX
  4
EXTFONT.SHX
  0
STYLE
  5
4A
330
3
100
AcDbSymbolTableRecord
100
AcDbTextStyleTableRecord
  2

 70
     1
 40
0.0
 41
1.0
 50
0.0
 71
     0
 42
2.5
  3
ltypeshp.shx
  4

  0
STYLE
  5
A66C
330
3
100
AcDbSymbolTableRecord
100
AcDbTextStyleTableRecord
  2
ACISOTS
 70
     0
 40
1.0
 41
1.0
 50
0.0
 71
     0
 42
2.5
  3
isocp.shx
  4
extfont.shx
  0
STYLE
  5
A679
330
3
100
AcDbSymbolTableRecord
100
AcDbTextStyleTableRecord
  2
ACISOGDT
 70
     0
 40
0.0
 41
1.0
 50
0.0
 71
     0
 42
2.5
  3
amgdt.shx
  4

  0
ENDTAB
  0
TABLE
  2
VIEW
  5
6
330
0
100
AcDbSymbolTable
 70
     6
  0
VIEW
  5
A30
330
6
100
AcDbSymbolTableRecord
100
AcDbViewTableRecord
  2
AM_VIEW1
 70
     0
 40
148.5
 10
112.0719649561952
 20
222.75
 41
224.1439299123904
 11
0.0
 21
0.0
 31
1.0
 12
0.0
 22
0.0
 32
0.0
 42
50.0
 43
0.0
 44
0.0
 50
0.0
 71
     0
281
     0
 72
     0
  0
VIEW
  5
A31
330
6
100
AcDbSymbolTableRecord
100
AcDbViewTableRecord
  2
AM_VIEW2
 70
     0
 40
148.5
 10
307.9280350438047
 20
222.75
 41
224.1439299123904
 11
0.0
 21
0.0
 31
1.0
 12
0.0
 22
0.0
 32
0.0
 42
50.0
 43
0.0
 44
0.0
 50
0.0
 71
     0
281
     0
 72
     0
  0
VIEW
  5
A32
330
6
100
AcDbSymbolTableRecord
100
AcDbViewTableRecord
  2
AM_VIEW3
 70
     0
 40
148.5
 10
112.0719649561952
 20
74.25
 41
224.1439299123904
 11
0.0
 21
0.0
 31
1.0
 12
0.0
 22
0.0
 32
0.0
 42
50.0
 43
0.0
 44
0.0
 50
0.0
 71
     0
281
     0
 72
     0
  0
VIEW
  5
A33
330
6
100
AcDbSymbolTableRecord
100
AcDbViewTableRecord
  2
AM_VIEW4
 70
     0
 40
148.5
 10
307.9280350438047
 20
74.25
 41
224.1439299123904
 11
0.0
 21
0.0
 31
1.0
 12
0.0
 22
0.0
 32
0.0
 42
50.0
 43
0.0
 44
0.0
 50
0.0
 71
     0
281
     0
 72
     0
  0
VIEW
  5
A34
330
6
100
AcDbSymbolTableRecord
100
AcDbViewTableRecord
  2
AM_VIEW5
 70
     0
 40
148.5
 10
210.0
 20
148.5
 41
224.1439299123904
 11
0.0
 21
0.0
 31
1.0
 12
0.0
 22
0.0
 32
0.0
 42
50.0
 43
0.0
 44
0.0
 50
0.0
 71
     0
281
     0
 72
     0
  0
VIEW
  5
A35
330
6
100
AcDbSymbolTableRecord
100
AcDbViewTableRecord
  2
AM_VIEW6
 70
     0
 40
296.9970299999999
 10
210.0
 20
148.5
 41
448.2833769461826
 11
0.0
 21
0.0
 31
1.0
 12
0.0
 22
0.0
 32
0.0
 42
50.0
 43
0.0
 44
0.0
 50
0.0
 71
     0
281
     0
 72
     0
  0
ENDTAB
  0
TABLE
  2
UCS
  5
7
330
0
100
AcDbSymbolTable
 70
     0
  0
ENDTAB
  0
TABLE
  2
APPID
  5
9
330
0
100
AcDbSymbolTable
 70
    42
  0
APPID
  5
12
330
9
100
AcDbSymbolTableRecord
100
AcDbRegAppTableRecord
  2
ACAD
 70
     0
  0
APPID
  5
2C
330
9
100
AcDbSymbolTableRecord
100
AcDbRegAppTableRecord
  2
MCAD_NO_VIS
 70
     0
  0
APPID
  5
2D
330
9
100
AcDbSymbolTableRecord
100
AcDbRegAppTableRecord
  2
ACAD_TEMP_GRAPHIC
 70
     0
  0
APPID
  5
B9
330
9
100
AcDbSymbolTableRecord
100
AcDbRegAppTableRecord
  2
GENIUS_GENDTOL_13
 70
     0
  0
APPID
  5
359
330
9
100
AcDbSymbolTableRecord
100
AcDbRegAppTableRecord
  2
GENIUS_GENREC_14
 70
     0
  0
APPID
  5
35A
330
9
100
AcDbSymbolTableRecord
100
AcDbRegAppTableRecord
  2
GENIUS_GENODEF_13
 70
     0
  0
APPID
  5
35B
330
9
100
AcDbSymbolTableRecord
100
AcDbRegAppTableRecord
  2
GENIUS_GENOBJ-N-REC_13
 70
     0
  0
APPID
  5
667
330
9
100
AcDbSymbolTableRecord
100
AcDbRegAppTableRecord
  2
GENIUS_GENCFG_13
 70
     0
  0
APPID
  5
668
330
9
100
AcDbSymbolTableRecord
100
AcDbRegAppTableRecord
  2
GENIUS_GENCFG0_13
 70
     0
  0
APPID
  5
669
330
9
100
AcDbSymbolTableRecord
100
AcDbRegAppTableRecord
  2
GENIUS_GENCFG1_13
 70
     0
  0
APPID
  5
66A
330
9
100
AcDbSymbolTableRecord
100
AcDbRegAppTableRecord
  2
GENIUS_GENCFG2_13
 70
     0
  0
APPID
  5
66B
330
9
100
AcDbSymbolTableRecord
100
AcDbRegAppTableRecord
  2
GENIUS_GENCFG3_13
 70
     0
  0
APPID
  5
66C
330
9
100
AcDbSymbolTableRecord
100
AcDbRegAppTableRecord
  2
GENIUS_GENCFG4_13
 70
     0
  0
APPID
  5
A76
330
9
100
AcDbSymbolTableRecord
100
AcDbRegAppTableRecord
  2
GENIUS_GENBLLY_14
 70
     0
  0
APPID
  5
A77
330
9
100
AcDbSymbolTableRecord
100
AcDbRegAppTableRecord
  2
GENIUS_GENOBJ-N-CEN_13
 70
     0
  0
APPID
  5
A83
330
9
100
AcDbSymbolTableRecord
100
AcDbRegAppTableRecord
  2
GENIUS_GENTRA_14
 70
     0
  0
APPID
  5
A8D
330
9
100
AcDbSymbolTableRecord
100
AcDbRegAppTableRecord
  2
GENIUS_GENOBJ-N-TIT_13
 70
     0
  0
APPID
  5
A8E
330
9
100
AcDbSymbolTableRecord
100
AcDbRegAppTableRecord
  2
GENIUS_GENTITLE_13
 70
     0
  0
APPID
  5
A8F
330
9
100
AcDbSymbolTableRecord
100
AcDbRegAppTableRecord
  2
GENIUS_GENOENT_13
 70
     0
  0
APPID
  5
A90
330
9
100
AcDbSymbolTableRecord
100
AcDbRegAppTableRecord
  2
GENIUS_GENOREF_13
 70
     0
  0
APPID
  5
A91
330
9
100
AcDbSymbolTableRecord
100
AcDbRegAppTableRecord
  2
GENIUS_GENOLIS_13
 70
     0
  0
APPID
  5
A92
330
9
100
AcDbSymbolTableRecord
100
AcDbRegAppTableRecord
  2
GENIUS_GENZVEED_13
 70
     0
  0
APPID
  5
A93
330
9
100
AcDbSymbolTableRecord
100
AcDbRegAppTableRecord
  2
GENIUS_GENSCREG_15
 70
     0
  0
APPID
  5
A94
330
9
100
AcDbSymbolTableRecord
100
AcDbRegAppTableRecord
  2
GENIUS_GENOBJ-N-SDF_13
 70
     0
  0
APPID
  5
12B5
330
9
100
AcDbSymbolTableRecord
100
AcDbRegAppTableRecord
  2
GENIUS_GENOBJ-N-RSBK_13
 70
     0
  0
APPID
  5
12B6
330
9
100
AcDbSymbolTableRecord
100
AcDbRegAppTableRecord
  2
GENIUS_GENOBJ-N-LIB_13
 70
     0
  0
APPID
  5
12B7
330
9
100
AcDbSymbolTableRecord
100
AcDbRegAppTableRecord
  2
GENIUS_GENSCALE_13
 70
     0
  0
APPID
  5
12B8
330
9
100
AcDbSymbolTableRecord
100
AcDbRegAppTableRecord
  2
GENIUS_GENOBJ-N-HTC_13
 70
     0
  0
APPID
  5
12B9
330
9
100
AcDbSymbolTableRecord
100
AcDbRegAppTableRecord
  2
GENIUS_GENHATCH_13
 70
     0
  0
APPID
  5
1C0A
330
9
100
AcDbSymbolTableRecord
100
AcDbRegAppTableRecord
  2
BASE_TYPE
 70
     0
  0
APPID
  5
276B
330
9
100
AcDbSymbolTableRecord
100
AcDbRegAppTableRecord
  2
GENIUS_GENOBJ-N-FIL_13
 70
     0
  0
APPID
  5
3640
330
9
100
AcDbSymbolTableRecord
100
AcDbRegAppTableRecord
  2
GENIUS_GENBH_13
 70
     0
  0
APPID
  5
36D1
330
9
100
AcDbSymbolTableRecord
100
AcDbRegAppTableRecord
  2
GENIUS_GENOBJ-F-SPR_13
 70
     0
  0
APPID
  5
36DA
330
9
100
AcDbSymbolTableRecord
100
AcDbRegAppTableRecord
  2
GENIUS_GEFSPRING_13
 70
     0
  0
APPID
  5
36DB
330
9
100
AcDbSymbolTableRecord
100
AcDbRegAppTableRecord
  2
GENIUS_GEFSPRINGP_13
 70
     0
  0
APPID
  5
4D67
330
9
100
AcDbSymbolTableRecord
100
AcDbRegAppTableRecord
  2
GENIUS_GENFIL_13
 70
     0
  0
APPID
  5
4D68
330
9
100
AcDbSymbolTableRecord
100
AcDbRegAppTableRecord
  2
GENIUS_GENOBJ-N-CHA_13
 70
     0
  0
APPID
  5
A63C
330
9
100
AcDbSymbolTableRecord
100
AcDbRegAppTableRecord
  2
AD_DRAW
 70
     0
  0
APPID
  5
A63F
330
9
100
AcDbSymbolTableRecord
100
AcDbRegAppTableRecord
  2
ACATTRIBSERVICES
 70
     0
  0
APPID
  5
A65D
330
9
100
AcDbSymbolTableRecord
100
AcDbRegAppTableRecord
  2
DESIGNERASSEMBLIES
 70
     0
  0
APPID
  5
A662
330
9
100
AcDbSymbolTableRecord
100
AcDbRegAppTableRecord
  2
ACADM_DIM_EDIT
 70
     0
  0
APPID
  5
A663
330
9
100
AcDbSymbolTableRecord
100
AcDbRegAppTableRecord
  2
AMDT_DM_ADJ
 70
     0
  0
ENDTAB
  0
TABLE
  2
DIMSTYLE
  5
A
330
0
100
AcDbSymbolTable
 70
    19
100
AcDbDimStyleTable
 71
     0
  0
DIMSTYLE
105
58
330
A
100
AcDbSymbolTableRecord
100
AcDbDimStyleTableRecord
  2
AM_JIS
 70
     0
  4
"
 41
2.5
 42
0.0
 43
10.0
 44
1.0
 47
0.1
 48
0.1000000001
 73
     0
 74
     0
 77
     3
 78
     9
140
3.799999999999998
141
0.0
143
0.0393701
146
0.71
147
1.5
172
     1
176
   256
177
   256
178
     2
271
     2
272
     2
275
     1
283
     0
284
     8
340
11
341
59
342
59
  0
DIMSTYLE
105
5F
102
{ACAD_REACTORS
330
A2E8
330
A40C
102
}
330
A
100
AcDbSymbolTableRecord
100
AcDbDimStyleTableRecord
  2
AM_JIS$3
 70
     0
  4
"
 41
2.5
 42
0.0
 43
10.0
 44
1.0
 47
0.1
 48
0.1000000001
 73
     0
 77
     3
 78
     9
140
3.799999999999998
141
0.0
143
0.0393701
146
0.71
147
1.5
172
     1
176
   256
177
   256
178
     2
271
     2
272
     2
275
     1
283
     0
284
     8
288
     1
340
11
341
59
342
59
  0
DIMSTYLE
105
65F
330
A
100
AcDbSymbolTableRecord
100
AcDbDimStyleTableRecord
  2
STANDARD
 70
     0
340
11
  0
DIMSTYLE
105
1761
102
{ACAD_REACTORS
330
A12B
330
A12C
330
A15A
330
A374
330
A38F
330
A39C
102
}
330
A
100
AcDbSymbolTableRecord
100
AcDbDimStyleTableRecord
  2
AM_JIS$0
 70
     0
  4
"
 41
2.5
 42
0.0
 43
10.0
 44
1.0
 47
0.1
 48
0.1000000001
 73
     0
 74
     0
 77
     3
 78
     9
140
3.799999999999998
141
0.0
143
0.0393701
146
0.71
147
1.5
172
     1
176
     3
177
     3
178
     2
271
     2
272
     2
275
     1
283
     0
284
     8
340
11
341
59
342
59
  0
DIMSTYLE
105
1762
102
{ACAD_REACTORS
330
A126
330
A3DF
330
A4C3
102
}
330
A
100
AcDbSymbolTableRecord
100
AcDbDimStyleTableRecord
  2
AM_JIS$2
 70
     0
  4
"
 41
2.5
 42
0.0
 43
10.0
 44
1.0
 47
0.1
 48
0.1000000001
 73
     0
 74
     0
 77
     3
 78
     9
140
3.799999999999998
141
0.0
143
0.0393701
146
0.71
147
1.5
172
     1
176
     3
177
     3
178
     2
271
     2
272
     2
275
     1
283
     0
284
     8
340
11
341
59
342
59
  0
DIMSTYLE
105
A685
330
A
100
AcDbSymbolTableRecord
100
AcDbDimStyleTableRecord
  2
AM_ISO
 70
     0
  4
"
 41
2.5
 42
1.0
 43
10.0
 44
1.0
 47
0.1
 48
0.1
 73
     0
 74
     0
 77
     1
 78
     8
 79
     2
140
3.5
141
0.0
143
0.0393701
146
0.71
147
1.5
172
     1
176
   256
177
   256
178
     2
271
     2
272
     3
274
     4
283
     0
284
     8
340
11
371
    -1
372
    -1
  0
DIMSTYLE
105
A686
330
A
100
AcDbSymbolTableRecord
100
AcDbDimStyleTableRecord
  2
AM_ISO$3
 70
     0
  4
"
 41
2.5
 42
1.0
 43
10.0
 44
1.0
 47
0.1
 48
0.1
 73
     0
 77
     1
 78
     8
 79
     2
140
3.5
141
0.0
143
0.0393701
146
0.71
147
1.5
176
   256
177
   256
178
     2
271
     2
272
     3
274
     4
283
     0
284
     8
288
     1
289
     0
340
11
371
    -1
372
    -1
  0
DIMSTYLE
105
A687
330
A
100
AcDbSymbolTableRecord
100
AcDbDimStyleTableRecord
  2
AM_ISO$4
 70
     0
  4
"
 41
2.5
 42
1.0
 43
10.0
 44
1.0
 47
0.1
 48
0.1
 73
     0
 77
     1
 78
     8
 79
     2
140
3.5
141
0.0
143
0.0393701
146
0.71
147
1.5
176
   256
177
   256
178
     2
271
     2
272
     3
274
     4
283
     0
284
     8
288
     1
289
     0
340
11
371
    -1
372
    -1
  0
DIMSTYLE
105
A688
330
A
100
AcDbSymbolTableRecord
100
AcDbDimStyleTableRecord
  2
AM_ISO$6
 70
     0
  4
"
 41
2.5
 42
1.0
 43
10.0
 44
1.0
 47
0.1
 48
0.1
 73
     0
 74
     0
 78
     8
 79
     2
140
3.5
141
0.0
143
0.0393701
146
0.71
147
1.5
172
     1
176
   256
177
   256
178
     2
271
     2
272
     3
274
     4
283
     0
284
     8
340
11
371
    -1
372
    -1
  0
DIMSTYLE
105
A689
330
A
100
AcDbSymbolTableRecord
100
AcDbDimStyleTableRecord
  2
AM_ISO$7
 70
     0
  4
"
 41
2.5
 42
1.0
 43
10.0
 44
1.0
 47
0.1
 48
0.1
 73
     0
 74
     0
 77
     1
 78
     8
 79
     2
140
5.0
141
0.0
143
0.0393701
146
0.71
147
1.5
172
     1
176
   256
177
   256
178
     2
271
     2
272
     3
274
     4
283
     0
284
     8
340
11
371
    -1
372
    -1
  0
DIMSTYLE
105
A68A
330
A
100
AcDbSymbolTableRecord
100
AcDbDimStyleTableRecord
  2
AM_ISO$SF
 70
     0
  4
"
 41
2.5
 42
1.0
 43
10.0
 44
1.0
 47
0.1
 48
0.1
 73
     0
 74
     0
 75
     1
 76
     1
 77
     1
 78
     8
 79
     2
140
3.5
141
0.0
143
0.0393701
146
0.71
147
1.5
172
     1
176
   256
177
   256
178
     2
271
     2
272
     3
274
     4
283
     0
284
     8
340
11
371
    -1
372
    -1
  0
DIMSTYLE
105
A68B
330
A
100
AcDbSymbolTableRecord
100
AcDbDimStyleTableRecord
  2
AM_ISO$SH
 70
     0
  4
"
 41
2.5
 42
1.0
 43
10.0
 44
1.0
 47
0.1
 48
0.1
 73
     0
 74
     0
 75
     1
 76
     1
 77
     1
 78
     8
 79
     2
140
3.5
141
0.0
143
0.0393701
144
2.0
146
0.71
147
1.5
172
     1
173
     1
176
   256
177
   256
178
     2
271
     2
272
     3
274
     4
283
     0
284
     8
340
11
343
64
371
    -1
372
    -1
  0
ENDTAB
  0
TABLE
  2
BLOCK_RECORD
  5
1
330
0
100
AcDbSymbolTable
 70
    19
  0
BLOCK_RECORD
  5
1F
102
{ACAD_XDICTIONARY
360
165
102
}
330
1
100
AcDbSymbolTableRecord
100
AcDbBlockTableRecord
  2
*MODEL_SPACE
340
A604
  0
BLOCK_RECORD
  5
1B
102
{ACAD_XDICTIONARY
360
A5AF
102
}
330
1
100
AcDbSymbolTableRecord
100
AcDbBlockTableRecord
  2
*PAPER_SPACE
340
A605
  0
BLOCK_RECORD
  5
59
330
1
100
AcDbSymbolTableRecord
100
AcDbBlockTableRecord
  2
_OPEN30
340
0
102
{BLKREFS
331
A694
331
A695
331
A69E
331
A69F
331
A6A9
331
A6AA
331
A6B1
331
A6B2
331
A6BA
331
A6C0
331
A6C1
331
A6C9
331
A6CA
331
A6D2
331
A6D3
331
A6DB
331
A6DC
331
A6E8
331
A6E9
331
A6F1
331
A6F2
102
}
  0
BLOCK_RECORD
  5
64
330
1
100
AcDbSymbolTableRecord
100
AcDbBlockTableRecord
  2
GENAXEH
340
0
  0
BLOCK_RECORD
  5
A1B7
330
1
100
AcDbSymbolTableRecord
100
AcDbBlockTableRecord
  2
*D7
340
0
  0
BLOCK_RECORD
  5
A1C7
330
1
100
AcDbSymbolTableRecord
100
AcDbBlockTableRecord
  2
*D8
340
0
  0
BLOCK_RECORD
  5
A1D2
330
1
100
AcDbSymbolTableRecord
100
AcDbBlockTableRecord
  2
*D9
340
0
  0
BLOCK_RECORD
  5
A219
330
1
100
AcDbSymbolTableRecord
100
AcDbBlockTableRecord
  2
*D10
340
0
  0
BLOCK_RECORD
  5
A2E9
330
1
100
AcDbSymbolTableRecord
100
AcDbBlockTableRecord
  2
*D11
340
0
  0
BLOCK_RECORD
  5
A375
330
1
100
AcDbSymbolTableRecord
100
AcDbBlockTableRecord
  2
*D12
340
0
  0
BLOCK_RECORD
  5
A390
330
1
100
AcDbSymbolTableRecord
100
AcDbBlockTableRecord
  2
*D13
340
0
  0
BLOCK_RECORD
  5
A39D
330
1
100
AcDbSymbolTableRecord
100
AcDbBlockTableRecord
  2
*D14
340
0
  0
BLOCK_RECORD
  5
A3E0
330
1
100
AcDbSymbolTableRecord
100
AcDbBlockTableRecord
  2
*D15
340
0
  0
BLOCK_RECORD
  5
A40D
330
1
100
AcDbSymbolTableRecord
100
AcDbBlockTableRecord
  2
*D16
340
0
  0
BLOCK_RECORD
  5
A4C4
330
1
100
AcDbSymbolTableRecord
100
AcDbBlockTableRecord
  2
*D17
340
0
  0
ENDTAB
  0
ENDSEC
  0
SECTION
  2
BLOCKS
  0
BLOCK
  5
20
330
1F
100
AcDbEntity
  8
0
100
AcDbBlockBegin
  2
*MODEL_SPACE
 70
     0
 10
0.0
 20
0.0
 30
0.0
  3
*MODEL_SPACE
  1

  0
ENDBLK
  5
21
330
1F
100
AcDbEntity
  8
0
100
AcDbBlockEnd
  0
BLOCK
  5
1C
330
1B
100
AcDbEntity
 67
     1
  8
0
100
AcDbBlockBegin
  2
*PAPER_SPACE
 70
     0
 10
0.0
 20
0.0
 30
0.0
  3
*PAPER_SPACE
  1

  0
ENDBLK
  5
1D
330
1B
100
AcDbEntity
 67
     1
  8
0
100
AcDbBlockEnd
  0
BLOCK
  5
5D
330
59
100
AcDbEntity
  8
0
100
AcDbBlockBegin
  2
_OPEN30
 70
     0
 10
0.0
 20
0.0
 30
0.0
  3
_OPEN30
  1

  0
LINE
  5
5A
330
59
100
AcDbEntity
  8
0
 62
     0
100
AcDbLine
 10
-1.0
 20
0.26794919
 30
0.0
 11
0.0
 21
0.0
 31
0.0
  0
LINE
  5
5B
330
59
100
AcDbEntity
  8
0
 62
     0
100
AcDbLine
 10
0.0
 20
0.0
 30
0.0
 11
-1.0
 21
-0.26794919
 31
0.0
  0
LINE
  5
5C
330
59
100
AcDbEntity
  8
0
 62
     0
100
AcDbLine
 10
0.0
 20
0.0
 30
0.0
 11
-1.0
 21
0.0
 31
0.0
  0
ENDBLK
  5
5E
330
59
100
AcDbEntity
  8
0
100
AcDbBlockEnd
  0
BLOCK
  5
66
330
64
100
AcDbEntity
  8
0
100
AcDbBlockBegin
  2
GENAXEH
 70
     0
 10
0.0
 20
0.0
 30
0.0
  3
GENAXEH
  1

  0
LINE
  5
65
330
64
100
AcDbEntity
  8
0
100
AcDbLine
 10
-1.0
 20
0.0
 30
0.0
 11
1.0
 21
0.0
 31
0.0
  0
ENDBLK
  5
67
330
64
100
AcDbEntity
  8
0
100
AcDbBlockEnd
  0
BLOCK
  5
A1C5
330
A1B7
100
AcDbEntity
  8
0
100
AcDbBlockBegin
  2
*D7
 70
     1
 10
0.0
 20
0.0
 30
0.0
  3
*D7
  1

  0
LINE
  5
A68F
330
A1B7
100
AcDbEntity
  8
PV0001_1
 62
     3
370
    -2
100
AcDbLine
 10
0.4829204261882315
 20
13.93067932129
 30
0.0
 11
1.497828358457691
 21
42.99390612221926
 31
0.0
  0
LINE
  5
A690
330
A1B7
100
AcDbEntity
  8
PV0001_1
 62
     3
370
    -2
100
AcDbLine
 10
-0.0035526573077473
 20
25.219596862793
 30
0.0
 11
-0.0035526573077478
 21
43.02011276568012
 31
0.0
  0
ARC
  5
A691
330
A1B7
100
AcDbEntity
  8
PV0001_1
 62
     3
370
    -2
100
AcDbCircle
 10
-0.0035526573077505
 20
-0.0001188414321939
 30
0.0
 40
42.02023160711231
100
AcDbArc
 50
81.18135660082053
 51
84.59068057613363
  0
ARC
  5
A692
330
A1B7
100
AcDbEntity
  8
PV0001_1
 62
     3
370
    -2
100
AcDbCircle
 10
-0.0035526573077505
 20
-0.0001188414321939
 30
0.0
 40
42.02023160711231
100
AcDbArc
 50
93.40932397531311
 51
96.81864795062622
  0
ARC
  5
A693
330
A1B7
100
AcDbEntity
  8
PV0001_1
 62
     3
370
    -2
100
AcDbCircle
 10
-0.0035526573077505
 20
-0.0001188414321939
 30
0.0
 40
42.02023160711231
100
AcDbArc
 50
88.00000455144674
 51
90.0
  0
INSERT
  5
A694
330
A1B7
100
AcDbEntity
  8
PV0001_1
 62
     3
370
    -2
100
AcDbBlockReference
  2
_OPEN30
 10
1.46292894114453
 20
41.99451529242783
 30
0.0
 41
2.5
 42
2.5
 43
2.5
 50
176.2953425637902
  0
INSERT
  5
A695
330
A1B7
100
AcDbEntity
  8
PV0001_1
 62
     3
370
    -2
100
AcDbBlockReference
  2
_OPEN30
 10
-0.0035526573077482
 20
42.02011276568012
 30
0.0
 41
2.5
 42
2.5
 43
2.5
 50
1.704661987656555
  0
MTEXT
  5
A696
330
A1B7
100
AcDbEntity
  8
PV0001_1
 62
     2
100
AcDbMText
 10
2.930631843035176
 20
45.32561310484044
 30
0.0
 40
3.799999999999998
 41
0.0
 71
     5
 72
     1
  1
2°
 11
0.9979112194721604
 21
-0.0646002945162435
 31
0.0
 73
     1
 44
1.0
1001
ACAD
1000
MTEXTBEGIN
1070
    73
1070
     1
1070
    44
1040
1.0
1070
    74
1070
     0
1000
MTEXTEND
  0
POINT
  5
A697
330
A1B7
100
AcDbEntity
  8
DEFPOINTS
 62
     0
100
AcDbPoint
 10
0.4853627938886276
 20
42.01726834526637
 30
0.0
  0
POINT
  5
A698
330
A1B7
100
AcDbEntity
  8
DEFPOINTS
 62
     0
100
AcDbPoint
 10
-0.4237797080897977
 20
-12.03387451171701
 30
0.0
  0
POINT
  5
A699
330
A1B7
100
AcDbEntity
  8
DEFPOINTS
 62
     0
100
AcDbPoint
 10
-0.0035526573077492
 20
10.51963806152298
 30
0.0
  0
POINT
  5
A69A
330
A1B7
100
AcDbEntity
  8
DEFPOINTS
 62
     0
100
AcDbPoint
 10
-0.0035526573077473
 20
25.219596862793
 30
0.0
  0
POINT
  5
A69B
330
A1B7
100
AcDbEntity
  8
DEFPOINTS
 62
     0
100
AcDbPoint
 10
0.4829204261882315
 20
13.93067932129
 30
0.0
  0
ENDBLK
  5
A1C6
330
A1B7
100
AcDbEntity
  8
0
100
AcDbBlockEnd
  0
BLOCK
  5
A1D0
330
A1C7
100
AcDbEntity
  8
0
100
AcDbBlockBegin
  2
*D8
 70
     1
 10
0.0
 20
0.0
 30
0.0
  3
*D8
  1

  0
LINE
  5
A69C
330
A1C7
100
AcDbEntity
  8
PV0001_1
 62
     3
370
    -2
100
AcDbLine
 10
29.99644352799521
 20
4.996353149414996
 30
0.0
 11
29.99644352799521
 21
-25.30921609180902
 31
0.0
  0
LINE
  5
A69D
330
A1C7
100
AcDbEntity
  8
PV0001_1
 62
     3
370
    -2
100
AcDbLine
 10
2.496447342692249
 20
-24.30921609180903
 30
0.0
 11
27.49644352799521
 21
-24.30921609180903
 31
0.0
  0
INSERT
  5
A69E
330
A1C7
100
AcDbEntity
  8
PV0001_1
 62
     3
370
    -2
100
AcDbBlockReference
  2
_OPEN30
 10
-0.0035526573077504
 20
-24.30921609180903
 30
0.0
 41
2.5
 42
2.5
 43
2.5
 50
180.0
  0
INSERT
  5
A69F
330
A1C7
100
AcDbEntity
  8
PV0001_1
 62
     3
370
    -2
100
AcDbBlockReference
  2
_OPEN30
 10
29.99644352799521
 20
-24.30921609180903
 30
0.0
 41
2.5
 42
2.5
 43
2.5
  0
MTEXT
  5
A6A0
330
A1C7
100
AcDbEntity
  8
PV0001_1
 62
     2
100
AcDbMText
 10
14.99644734269223
 20
-20.90921609180902
 30
0.0
 40
3.799999999999998
 41
0.0
 71
     5
 72
     1
  1
30
 73
     1
 44
1.0
1001
ACAD
1000
MTEXTBEGIN
1070
    73
1070
     1
1070
    44
1040
1.0
1070
    74
1070
     0
1000
MTEXTEND
  0
POINT
  5
A6A1
330
A1C7
100
AcDbEntity
  8
DEFPOINTS
 62
     0
100
AcDbPoint
 10
-0.0035526573077474
 20
25.219596862793
 30
0.0
  0
POINT
  5
A6A2
330
A1C7
100
AcDbEntity
  8
DEFPOINTS
 62
     0
100
AcDbPoint
 10
29.99644352799521
 20
4.996353149414996
 30
0.0
  0
POINT
  5
A6A3
330
A1C7
100
AcDbEntity
  8
DEFPOINTS
 62
     0
100
AcDbPoint
 10
29.99644352799521
 20
-24.30921609180903
 30
0.0
  0
ENDBLK
  5
A1D1
330
A1C7
100
AcDbEntity
  8
0
100
AcDbBlockEnd
  0
BLOCK
  5
A1DD
330
A1D2
100
AcDbEntity
  8
0
100
AcDbBlockBegin
  2
*D9
 70
     1
 10
0.0
 20
0.0
 30
0.0
  3
*D9
  1

  0
LINE
  5
A6A4
330
A1D2
100
AcDbEntity
  8
PV0001_1
 62
     3
370
    -2
100
AcDbLine
 10
1.996952835038313
 20
0.0999999999999941
 30
0.0
 11
1.996952835038312
 21
-15.3779888714109
 31
0.0
  0
LINE
  5
A6A5
330
A1D2
100
AcDbEntity
  8
PV0001_1
 62
     3
370
    -2
100
AcDbLine
 10
-2.499479661339932
 20
-14.3779888714109
 30
0.0
 11
-4.999479661339932
 21
-14.3779888714109
 31
0.0
  0
LINE
  5
A6A6
330
A1D2
100
AcDbEntity
  8
PV0001_1
 62
     3
370
    -2
100
AcDbLine
 10
4.496952835038312
 20
-14.3779888714109
 30
0.0
 11
6.996952835038312
 21
-14.3779888714109
 31
0.0
  0
MTEXT
  5
A6A7
330
A1D2
100
AcDbEntity
  8
PV0001_1
 62
     2
100
AcDbMText
 10
-4.991499314659904
 20
-10.97761485566287
 30
0.0
 40
3.799999999999998
 41
0.0
 71
     5
 72
     1
  1
2
 73
     1
 44
1.0
1001
ACAD
1000
MTEXTBEGIN
1070
    73
1070
     1
1070
    44
1040
1.0
1070
    74
1070
     0
1000
MTEXTEND
  0
LINE
  5
A6A8
330
A1D2
100
AcDbEntity
  8
PV0001_1
 62
     3
370
    -2
100
AcDbLine
 10
0.0005203386600677
 20
-14.3779888714109
 30
0.0
 11
1.996952835038312
 21
-14.3779888714109
 31
0.0
  0
INSERT
  5
A6A9
330
A1D2
100
AcDbEntity
  8
PV0001_1
 62
     3
370
    -2
100
AcDbBlockReference
  2
_OPEN30
 10
0.0005203386600677
 20
-14.3779888714109
 30
0.0
 41
2.5
 42
2.5
 43
2.5
  0
INSERT
  5
A6AA
330
A1D2
100
AcDbEntity
  8
PV0001_1
 62
     3
370
    -2
100
AcDbBlockReference
  2
_OPEN30
 10
1.996952835038312
 20
-14.3779888714109
 30
0.0
 41
2.5
 42
2.5
 43
2.5
 50
180.0
  0
POINT
  5
A6AB
330
A1D2
100
AcDbEntity
  8
DEFPOINTS
 62
     0
100
AcDbPoint
 10
0.0005203386600701
 20
25.219596862793
 30
0.0
  0
POINT
  5
A6AC
330
A1D2
100
AcDbEntity
  8
DEFPOINTS
 62
     0
100
AcDbPoint
 10
1.996952835038313
 20
0.0999999999999941
 30
0.0
  0
POINT
  5
A6AD
330
A1D2
100
AcDbEntity
  8
DEFPOINTS
 62
     0
100
AcDbPoint
 10
1.996952835038312
 20
-14.3779888714109
 30
0.0
  0
ENDBLK
  5
A1DE
330
A1D2
100
AcDbEntity
  8
0
100
AcDbBlockEnd
  0
BLOCK
  5
A223
330
A219
100
AcDbEntity
  8
0
100
AcDbBlockBegin
  2
*D10
 70
     1
 10
0.0
 20
0.0
 30
0.0
  3
*D10
  1

  0
LINE
  5
A6AE
330
A219
100
AcDbEntity
  8
PV0001_1
 62
     3
370
    -2
100
AcDbLine
 10
117.1158588111971
 20
12.59737396240296
 30
0.0
 11
117.1158588111971
 21
-13.51234060640559
 31
0.0
  0
LINE
  5
A6AF
330
A219
100
AcDbEntity
  8
PV0001_1
 62
     3
370
    -2
100
AcDbLine
 10
140.1158588111971
 20
12.59737396240296
 30
0.0
 11
140.1158588111971
 21
-13.51234060640559
 31
0.0
  0
LINE
  5
A6B0
330
A219
100
AcDbEntity
  8
PV0001_1
 62
     3
370
    -2
100
AcDbLine
 10
119.6158588111971
 20
-12.51234060640558
 30
0.0
 11
137.6158588111971
 21
-12.51234060640558
 31
0.0
  0
INSERT
  5
A6B1
330
A219
100
AcDbEntity
  8
PV0001_1
 62
     3
370
    -2
100
AcDbBlockReference
  2
_OPEN30
 10
117.1158588111971
 20
-12.51234060640558
 30
0.0
 41
2.5
 42
2.5
 43
2.5
 50
180.0
  0
INSERT
  5
A6B2
330
A219
100
AcDbEntity
  8
PV0001_1
 62
     3
370
    -2
100
AcDbBlockReference
  2
_OPEN30
 10
140.1158588111971
 20
-12.51234060640558
 30
0.0
 41
2.5
 42
2.5
 43
2.5
  0
MTEXT
  5
A6B3
330
A219
100
AcDbEntity
  8
PV0001_1
 62
     2
100
AcDbMText
 10
128.0884502113442
 20
-9.111966590657555
 30
0.0
 40
3.799999999999998
 41
0.0
 71
     5
 72
     1
  1
23
 73
     1
 44
1.0
1001
ACAD
1000
MTEXTBEGIN
1070
    73
1070
     1
1070
    44
1040
1.0
1070
    74
1070
     0
1000
MTEXTEND
  0
POINT
  5
A6B4
330
A219
100
AcDbEntity
  8
DEFPOINTS
 62
     0
100
AcDbPoint
 10
117.1158588111971
 20
12.59737396240296
 30
0.0
  0
POINT
  5
A6B5
330
A219
100
AcDbEntity
  8
DEFPOINTS
 62
     0
100
AcDbPoint
 10
140.1158588111971
 20
12.59737396240296
 30
0.0
  0
POINT
  5
A6B6
330
A219
100
AcDbEntity
  8
DEFPOINTS
 62
     0
100
AcDbPoint
 10
140.1158588111971
 20
-12.51234060640558
 30
0.0
  0
ENDBLK
  5
A224
330
A219
100
AcDbEntity
  8
0
100
AcDbBlockEnd
  0
BLOCK
  5
A2F0
330
A2E9
100
AcDbEntity
  8
0
100
AcDbBlockBegin
  2
*D11
 70
     1
 10
0.0
 20
0.0
 30
0.0
  3
*D11
  1

  0
LINE
  5
A6B7
330
A2E9
100
AcDbEntity
  8
AM_5
370
    -2
100
AcDbLine
 10
153.5272764837781
 20
44.11068241145737
 30
0.0
 11
144.2698753300763
 21
44.11068241145738
 31
0.0
  0
LINE
  5
A6B8
330
A2E9
100
AcDbEntity
  8
AM_5
370
    -2
100
AcDbLine
 10
144.2698753300763
 20
44.11068241145738
 30
0.0
 11
123.5460110745606
 21
8.876801942954088
 31
0.0
  0
MTEXT
  5
A6B9
330
A2E9
100
AcDbEntity
  8
AM_5
 62
     2
100
AcDbMText
 10
149.6485759069272
 20
47.51105642720541
 30
0.0
 40
3.799999999999998
 41
0.0
 71
     5
 72
     1
  1
\U+220525
 73
     1
 44
1.0
1001
ACAD
1000
MTEXTBEGIN
1070
    73
1070
     1
1070
    44
1040
1.0
1070
    74
1070
     0
1000
MTEXTEND
  0
INSERT
  5
A6BA
330
A2E9
100
AcDbEntity
  8
AM_5
370
    -2
100
AcDbBlockReference
  2
_OPEN30
 10
122.278549261276
 20
6.721914346844876
 30
0.0
 41
2.5
 42
2.5
 43
2.5
 50
239.5368082968904
  0
POINT
  5
A6BB
330
A2E9
100
AcDbEntity
  8
DEFPOINTS
 62
     0
100
AcDbPoint
 10
122.278549261276
 20
6.721914346844876
 30
0.0
  0
POINT
  5
A6BC
330
A2E9
100
AcDbEntity
  8
DEFPOINTS
 62
     0
100
AcDbPoint
 10
134.9531683611181
 20
28.2707919519851
 30
0.0
  0
ENDBLK
  5
A2F1
330
A2E9
100
AcDbEntity
  8
0
100
AcDbBlockEnd
  0
BLOCK
  5
A37F
330
A375
100
AcDbEntity
  8
0
100
AcDbBlockBegin
  2
*D12
 70
     1
 10
0.0
 20
0.0
 30
0.0
  3
*D12
  1

  0
LINE
  5
A6BD
330
A375
100
AcDbEntity
  8
AM_5
 62
     3
370
    -2
100
AcDbLine
 10
-0.0000000000000031
 20
-25.51440947093463
 30
0.0
 11
-0.0000000000000038
 21
-37.35369894622752
 31
0.0
  0
LINE
  5
A6BE
330
A375
100
AcDbEntity
  8
AM_5
 62
     3
370
    -2
100
AcDbLine
 10
199.9964473426901
 20
5.996353149414953
 30
0.0
 11
199.9964473426901
 21
-37.35369894622752
 31
0.0
  0
LINE
  5
A6BF
330
A375
100
AcDbEntity
  8
AM_5
 62
     3
370
    -2
100
AcDbLine
 10
2.499999999999996
 20
-36.35369894622752
 30
0.0
 11
197.4964473426901
 21
-36.35369894622752
 31
0.0
  0
INSERT
  5
A6C0
330
A375
100
AcDbEntity
  8
AM_5
 62
     3
370
    -2
100
AcDbBlockReference
  2
_OPEN30
 10
-0.0000000000000038
 20
-36.35369894622752
 30
0.0
 41
2.5
 42
2.5
 43
2.5
 50
180.0
  0
INSERT
  5
A6C1
330
A375
100
AcDbEntity
  8
AM_5
 62
     3
370
    -2
100
AcDbBlockReference
  2
_OPEN30
 10
199.9964473426901
 20
-36.35369894622752
 30
0.0
 41
2.5
 42
2.5
 43
2.5
  0
MTEXT
  5
A6C2
330
A375
100
AcDbEntity
  8
AM_5
 62
     2
100
AcDbMText
 10
99.99822367134505
 20
-32.95332493047949
 30
0.0
 40
3.799999999999998
 41
0.0
 71
     5
 72
     1
  1
200
 73
     1
 44
1.0
1001
ACAD
1000
MTEXTBEGIN
1070
    73
1070
     1
1070
    44
1040
1.0
1070
    74
1070
     0
1000
MTEXTEND
  0
POINT
  5
A6C3
330
A375
100
AcDbEntity
  8
DEFPOINTS
 62
     0
100
AcDbPoint
 10
-0.0000000000000031
 20
-25.51440947093463
 30
0.0
  0
POINT
  5
A6C4
330
A375
100
AcDbEntity
  8
DEFPOINTS
 62
     0
100
AcDbPoint
 10
199.9964473426901
 20
5.996353149414953
 30
0.0
  0
POINT
  5
A6C5
330
A375
100
AcDbEntity
  8
DEFPOINTS
 62
     0
100
AcDbPoint
 10
199.9964473426901
 20
-36.35369894622752
 30
0.0
  0
ENDBLK
  5
A380
330
A375
100
AcDbEntity
  8
0
100
AcDbBlockEnd
  0
BLOCK
  5
A39A
330
A390
100
AcDbEntity
  8
0
100
AcDbBlockBegin
  2
*D13
 70
     1
 10
0.0
 20
0.0
 30
0.0
  3
*D13
  1

  0
LINE
  5
A6C6
330
A390
100
AcDbEntity
  8
AM_5
 62
     3
370
    -2
100
AcDbLine
 10
29.9964435279952
 20
-87.75206375121902
 30
0.0
 11
-13.08400959516894
 21
-87.75206375121902
 31
0.0
  0
LINE
  5
A6C7
330
A390
100
AcDbEntity
  8
AM_5
 62
     3
370
    -2
100
AcDbLine
 10
-5.999837142170813
 20
-76.252063751219
 30
0.0
 11
-13.08400959516894
 21
-76.252063751219
 31
0.0
  0
LINE
  5
A6C8
330
A390
100
AcDbEntity
  8
AM_5
 62
     3
370
    -2
100
AcDbLine
 10
-12.08400959516894
 20
-85.25206375121902
 30
0.0
 11
-12.08400959516894
 21
-78.752063751219
 31
0.0
  0
INSERT
  5
A6C9
330
A390
100
AcDbEntity
  8
AM_5
 62
     3
370
    -2
100
AcDbBlockReference
  2
_OPEN30
 10
-12.08400959516894
 20
-87.75206375121902
 30
0.0
 41
2.5
 42
2.5
 43
2.5
 50
270.0
  0
INSERT
  5
A6CA
330
A390
100
AcDbEntity
  8
AM_5
 62
     3
370
    -2
100
AcDbBlockReference
  2
_OPEN30
 10
-12.08400959516894
 20
-76.252063751219
 30
0.0
 41
2.5
 42
2.5
 43
2.5
 50
90.0
  0
MTEXT
  5
A6CB
330
A390
100
AcDbEntity
  8
AM_5
 62
     2
100
AcDbMText
 10
-15.48400959516892
 20
-82.00206375121899
 30
0.0
 40
3.799999999999998
 41
0.0
 71
     5
 72
     1
  1
11.5
 11
0.0000000000000001
 21
1.0
 31
0.0
 73
     1
 44
1.0
1001
ACAD
1000
MTEXTBEGIN
1070
    73
1070
     1
1070
    44
1040
1.0
1070
    74
1070
     0
1000
MTEXTEND
  0
POINT
  5
A6CC
330
A390
100
AcDbEntity
  8
DEFPOINTS
 62
     0
100
AcDbPoint
 10
29.9964435279952
 20
-87.75206375121902
 30
0.0
  0
POINT
  5
A6CD
330
A390
100
AcDbEntity
  8
DEFPOINTS
 62
     0
100
AcDbPoint
 10
-5.999837142170813
 20
-76.252063751219
 30
0.0
  0
POINT
  5
A6CE
330
A390
100
AcDbEntity
  8
DEFPOINTS
 62
     0
100
AcDbPoint
 10
-12.08400959516894
 20
-76.252063751219
 30
0.0
  0
ENDBLK
  5
A39B
330
A390
100
AcDbEntity
  8
0
100
AcDbBlockEnd
  0
BLOCK
  5
A3A7
330
A39D
100
AcDbEntity
  8
0
100
AcDbBlockBegin
  2
*D14
 70
     1
 10
0.0
 20
0.0
 30
0.0
  3
*D14
  1

  0
LINE
  5
A6CF
330
A39D
100
AcDbEntity
  8
AM_5
 62
     3
370
    -2
100
AcDbLine
 10
-3.372288924397704
 20
17.496353149415
 30
0.0
 11
-15.16921634135042
 21
17.496353149415
 31
0.0
  0
LINE
  5
A6D0
330
A39D
100
AcDbEntity
  8
AM_5
 62
     3
370
    -2
100
AcDbLine
 10
0.1000000000000227
 20
0.0
 30
0.0
 11
-15.16921634135042
 21
0.0000000000000043
 31
0.0
  0
LINE
  5
A6D1
330
A39D
100
AcDbEntity
  8
AM_5
 62
     3
370
    -2
100
AcDbLine
 10
-14.16921634135041
 20
14.996353149415
 30
0.0
 11
-14.16921634135042
 21
2.500000000000003
 31
0.0
  0
INSERT
  5
A6D2
330
A39D
100
AcDbEntity
  8
AM_5
 62
     3
370
    -2
100
AcDbBlockReference
  2
_OPEN30
 10
-14.16921634135041
 20
17.496353149415
 30
0.0
 41
2.5
 42
2.5
 43
2.5
 50
90.0
  0
INSERT
  5
A6D3
330
A39D
100
AcDbEntity
  8
AM_5
 62
     3
370
    -2
100
AcDbBlockReference
  2
_OPEN30
 10
-14.16921634135042
 20
0.000000000000004
 30
0.0
 41
2.5
 42
2.5
 43
2.5
 50
270.0
  0
MTEXT
  5
A6D4
330
A39D
100
AcDbEntity
  8
AM_5
 62
     2
100
AcDbMText
 10
-17.56921634135042
 20
8.748176574707501
 30
0.0
 40
3.799999999999998
 41
0.0
 71
     5
 72
     1
  1
17.5
 11
0.0000000000000001
 21
1.0
 31
0.0
 73
     1
 44
1.0
1001
ACAD
1000
MTEXTBEGIN
1070
    73
1070
     1
1070
    44
1040
1.0
1070
    74
1070
     0
1000
MTEXTEND
  0
POINT
  5
A6D5
330
A39D
100
AcDbEntity
  8
DEFPOINTS
 62
     0
100
AcDbPoint
 10
-3.372288924397704
 20
17.496353149415
 30
0.0
  0
POINT
  5
A6D6
330
A39D
100
AcDbEntity
  8
DEFPOINTS
 62
     0
100
AcDbPoint
 10
0.1000000000000227
 20
0.0
 30
0.0
  0
POINT
  5
A6D7
330
A39D
100
AcDbEntity
  8
DEFPOINTS
 62
     0
100
AcDbPoint
 10
-14.16921634135042
 20
0.000000000000004
 30
0.0
  0
ENDBLK
  5
A3A8
330
A39D
100
AcDbEntity
  8
0
100
AcDbBlockEnd
  0
BLOCK
  5
A3F0
330
A3E0
100
AcDbEntity
  8
0
100
AcDbBlockBegin
  2
*D15
 70
     1
 10
0.0
 20
0.0
 30
0.0
  3
*D15
  1

  0
LINE
  5
A6D8
330
A3E0
100
AcDbEntity
  8
AM_5
 62
     3
370
    -2
100
AcDbLine
 10
-54.80788157575978
 20
28.26778411865301
 30
0.0
 11
-50.26311770885833
 21
46.49585450674059
 31
0.0
  0
LINE
  5
A6D9
330
A3E0
100
AcDbEntity
  8
AM_5
 62
     3
370
    -2
100
AcDbLine
 10
-62.21352122419977
 20
36.663810729981
 30
0.0
 11
-62.21352122419972
 21
47.96317813942859
 31
0.0
  0
ARC
  5
A6DA
330
A3E0
100
AcDbEntity
  8
AM_5
 62
     3
370
    -2
100
AcDbCircle
 10
-62.21352122419979
 20
-1.434643715647469
 30
0.0
 40
48.39782185507606
100
AcDbArc
 50
78.95996845034215
 51
87.04004492172204
  0
INSERT
  5
A6DB
330
A3E0
100
AcDbEntity
  8
AM_5
 62
     3
370
    -2
100
AcDbBlockReference
  2
_OPEN30
 10
-50.50503937800402
 20
45.5255587240033
 30
0.0
 41
2.5
 42
2.5
 43
2.5
 50
347.4799909112032
  0
INSERT
  5
A6DC
330
A3E0
100
AcDbEntity
  8
AM_5
 62
     3
370
    -2
100
AcDbBlockReference
  2
_OPEN30
 10
-62.21352122419974
 20
46.9631781394286
 30
0.0
 41
2.5
 42
2.5
 43
2.5
 50
178.520022460861
  0
MTEXT
  5
A6DD
330
A3E0
100
AcDbEntity
  8
AM_5
 62
     2
100
AcDbMText
 10
-57.99932310366861
 20
50.19146288877417
 30
0.0
 40
3.799999999999998
 41
0.0
 71
     5
 72
     1
  1
14°
 11
0.9966848943738431
 21
-0.081358597130242
 31
0.0
 73
     1
 44
1.0
1001
ACAD
1000
MTEXTBEGIN
1070
    73
1070
     1
1070
    44
1040
1.0
1070
    74
1070
     0
1000
MTEXTEND
  0
POINT
  5
A6DE
330
A3E0
100
AcDbEntity
  8
DEFPOINTS
 62
     0
100
AcDbPoint
 10
-54.36447042348826
 20
46.32246635022155
 30
0.0
  0
POINT
  5
A6DF
330
A3E0
100
AcDbEntity
  8
DEFPOINTS
 62
     0
100
AcDbPoint
 10
-58.89531443708985
 20
11.87397003173902
 30
0.0
  0
POINT
  5
A6E0
330
A3E0
100
AcDbEntity
  8
DEFPOINTS
 62
     0
100
AcDbPoint
 10
-62.21352122419977
 20
36.663810729981
 30
0.0
  0
POINT
  5
A6E1
330
A3E0
100
AcDbEntity
  8
DEFPOINTS
 62
     0
100
AcDbPoint
 10
-62.21352122419979
 20
-2.495132446288976
 30
0.0
  0
POINT
  5
A6E2
330
A3E0
100
AcDbEntity
  8
DEFPOINTS
 62
     0
100
AcDbPoint
 10
-54.80788157575978
 20
28.26778411865301
 30
0.0
  0
ENDBLK
  5
A3F1
330
A3E0
100
AcDbEntity
  8
0
100
AcDbBlockEnd
  0
BLOCK
  5
A417
330
A40D
100
AcDbEntity
  8
0
100
AcDbBlockBegin
  2
*D16
 70
     1
 10
0.0
 20
0.0
 30
0.0
  3
*D16
  1

  0
LINE
  5
A6E3
330
A40D
100
AcDbEntity
  8
AM_5
370
    -2
100
AcDbLine
 10
-30.34670073385481
 20
26.55635834336466
 30
0.0
 11
-39.60410188755662
 21
26.55635834336466
 31
0.0
  0
LINE
  5
A6E4
330
A40D
100
AcDbEntity
  8
AM_5
370
    -2
100
AcDbLine
 10
-39.60410188755662
 20
26.55635834336466
 30
0.0
 11
-43.6485884880656
 21
24.9356590648085
 31
0.0
  0
LINE
  5
A6E5
330
A40D
100
AcDbEntity
  8
AM_5
370
    -2
100
AcDbLine
 10
-80.77845396033394
 20
10.05704723402149
 30
0.0
 11
-83.09907055235072
 21
9.127133994597304
 31
0.0
  0
MTEXT
  5
A6E6
330
A40D
100
AcDbEntity
  8
AM_5
 62
     2
100
AcDbMText
 10
-34.2254013107057
 20
29.95635834336466
 30
0.0
 40
3.799999999999998
 41
0.0
 71
     5
 72
     1
  1
\U+220535
 73
     1
 44
1.0
1001
ACAD
1000
MTEXTBEGIN
1070
    73
1070
     1
1070
    44
1040
1.0
1070
    74
1070
     0
1000
MTEXTEND
  0
LINE
  5
A6E7
330
A40D
100
AcDbEntity
  8
AM_5
370
    -2
100
AcDbLine
 10
-78.45783736831714
 20
10.98696047344569
 30
0.0
 11
-45.96920508008238
 21
24.00574582538431
 31
0.0
  0
INSERT
  5
A6E8
330
A40D
100
AcDbEntity
  8
AM_5
370
    -2
100
AcDbBlockReference
  2
_OPEN30
 10
-78.45783736831714
 20
10.98696047344569
 30
0.0
 41
2.5
 42
2.5
 43
2.5
 50
21.83687332288198
  0
INSERT
  5
A6E9
330
A40D
100
AcDbEntity
  8
AM_5
370
    -2
100
AcDbBlockReference
  2
_OPEN30
 10
-45.96920508008238
 20
24.00574582538431
 30
0.0
 41
2.5
 42
2.5
 43
2.5
 50
201.836873322882
  0
POINT
  5
A6EA
330
A40D
100
AcDbEntity
  8
DEFPOINTS
 62
     0
100
AcDbPoint
 10
-45.96920508008238
 20
24.00574582538431
 30
0.0
  0
POINT
  5
A6EB
330
A40D
100
AcDbEntity
  8
DEFPOINTS
 62
     0
100
AcDbPoint
 10
-78.45783736831714
 20
10.98696047344569
 30
0.0
  0
ENDBLK
  5
A418
330
A40D
100
AcDbEntity
  8
0
100
AcDbBlockEnd
  0
BLOCK
  5
A4D4
330
A4C4
100
AcDbEntity
  8
0
100
AcDbBlockBegin
  2
*D17
 70
     1
 10
0.0
 20
0.0
 30
0.0
  3
*D17
  1

  0
LINE
  5
A6EC
330
A4C4
100
AcDbEntity
  8
AM_5
 62
     3
370
    -2
100
AcDbLine
 10
-62.21352122419977
 20
-2.495132446288975
 30
0.0
 11
-62.21352122419977
 21
-9.799251566374371
 31
0.0
  0
LINE
  5
A6ED
330
A4C4
100
AcDbEntity
  8
AM_5
 62
     3
370
    -2
100
AcDbLine
 10
-62.21350596540982
 20
-0.0036315917959797
 30
0.0
 11
-62.04256439458113
 21
-9.797759784604242
 31
0.0
  0
ARC
  5
A6EE
330
A4C4
100
AcDbEntity
  8
AM_5
 62
     3
370
    -2
100
AcDbCircle
 10
-62.21352122419976
 20
-0.0027573366678357
 30
0.0
 40
8.796494229706535
100
AcDbArc
 50
237.3219918688945
 51
253.6609959344473
  0
ARC
  5
A6EF
330
A4C4
100
AcDbEntity
  8
AM_5
 62
     3
370
    -2
100
AcDbCircle
 10
-62.21352122419976
 20
-0.0027573366678357
 30
0.0
 40
8.796494229706535
100
AcDbArc
 50
287.3389129928435
 51
303.6779170583962
  0
ARC
  5
A6F0
330
A4C4
100
AcDbEntity
  8
AM_5
 62
     3
370
    -2
100
AcDbCircle
 10
-62.21352122419976
 20
-0.0027573366678357
 30
0.0
 40
8.796494229706535
100
AcDbArc
 50
270.0
 51
270.9999089272908
  0
INSERT
  5
A6F1
330
A4C4
100
AcDbEntity
  8
AM_5
 62
     3
370
    -2
100
AcDbBlockReference
  2
_OPEN30
 10
-62.21352122419977
 20
-8.799251566374371
 30
0.0
 41
2.5
 42
2.5
 43
2.5
 50
351.8304979672236
  0
INSERT
  5
A6F2
330
A4C4
100
AcDbEntity
  8
AM_5
 62
     3
370
    -2
100
AcDbBlockReference
  2
_OPEN30
 10
-62.06001521174185
 20
-8.797912061708185
 30
0.0
 41
2.5
 42
2.5
 43
2.5
 50
189.1694109600671
  0
MTEXT
  5
A6F3
330
A4C4
100
AcDbEntity
  8
AM_5
 62
     2
100
AcDbMText
 10
-62.99523646617622
 20
-5.342333279729013
 30
0.0
 40
3.799999999999998
 41
0.0
 71
     5
 72
     1
  1
1°
 11
0.9894527290825168
 21
-0.1448561248658813
 31
0.0
 73
     1
 44
1.0
1001
ACAD
1000
MTEXTBEGIN
1070
    73
1070
     1
1070
    44
1040
1.0
1070
    74
1070
     0
1000
MTEXTEND
  0
POINT
  5
A6F4
330
A4C4
100
AcDbEntity
  8
DEFPOINTS
 62
     0
100
AcDbPoint
 10
-62.11118099654675
 20
-8.798656222572807
 30
0.0
  0
POINT
  5
A6F5
330
A4C4
100
AcDbEntity
  8
DEFPOINTS
 62
     0
100
AcDbPoint
 10
-62.21350596540982
 20
-0.0036315917959797
 30
0.0
  0
POINT
  5
A6F6
330
A4C4
100
AcDbEntity
  8
DEFPOINTS
 62
     0
100
AcDbPoint
 10
-62.21352122419975
 20
36.66381072998099
 30
0.0
  0
POINT
  5
A6F7
330
A4C4
100
AcDbEntity
  8
DEFPOINTS
 62
     0
100
AcDbPoint
 10
-62.21352122419977
 20
-2.495132446288975
 30
0.0
  0
POINT
  5
A6F8
330
A4C4
100
AcDbEntity
  8
DEFPOINTS
 62
     0
100
AcDbPoint
 10
-62.22997019880971
 20
0.939689636231022
 30
0.0
  0
ENDBLK
  5
A4D5
330
A4C4
100
AcDbEntity
  8
0
100
AcDbBlockEnd
  0
ENDSEC
  0
SECTION
  2
ENTITIES
  0
TEXT
  5
83BD
330
1F
100
AcDbEntity
  8
AM_6
100
AcDbText
 10
91.52340534447546
 20
-107.0494048678551
 30
0.0
 40
5.0
  1
GWCIR325
 72
     4
 11
105.9975169968271
 21
-104.5494048678551
 31
0.0
100
AcDbText
  0
LINE
  5
A0C5
330
1F
100
AcDbEntity
  8
AM_7
 48
0.5
100
AcDbLine
 10
-3.372288924397704
 20
17.496353149415
 30
0.0
 11
206.4095401695827
 21
17.49635314941495
 31
0.0
  0
LINE
  5
A0C6
330
1F
100
AcDbEntity
  8
AM_0
100
AcDbLine
 10
29.99644352799522
 20
29.99635314941498
 30
0.0
 11
108.6158588111971
 21
29.99635314941497
 31
0.0
  0
LINE
  5
A0C7
330
1F
100
AcDbEntity
  8
AM_0
100
AcDbLine
 10
29.99644352799521
 20
4.996353149414996
 30
0.0
 11
108.6158588111971
 21
4.996353149414979
 31
0.0
  0
LINE
  5
A0C8
330
1F
100
AcDbEntity
  8
AM_7
 48
0.5
100
AcDbLine
 10
-5.999837142170813
 20
-76.252063751219
 30
0.0
 11
208.3077197015699
 21
-76.25206375121904
 31
0.0
  0
LINE
  5
A0C9
330
1F
100
AcDbEntity
  8
AM_0
100
AcDbLine
 10
24.51056172257517
 20
-64.752067565917
 30
0.0
 11
199.9964473426901
 21
-64.75206756591706
 31
0.0
  0
LINE
  5
A0CA
330
1F
100
AcDbEntity
  8
AM_0
100
AcDbLine
 10
29.99645115738918
 20
12.59737396240298
 30
0.0
 11
108.6158588111971
 21
12.59737396240298
 31
0.0
  0
LINE
  5
A0CB
330
1F
100
AcDbEntity
  8
AM_0
100
AcDbLine
 10
29.99644352799522
 20
22.39533233642598
 30
0.0
 11
108.6158588111971
 21
22.39533233642597
 31
0.0
  0
LINE
  5
A0CC
330
1F
100
AcDbEntity
  8
AM_0
100
AcDbLine
 10
29.9964435279952
 20
-87.75206375121902
 30
0.0
 11
199.9964473426901
 21
-87.75206375121905
 31
0.0
  0
LINE
  5
A0CE
330
1F
100
AcDbEntity
  8
AM_1
100
AcDbLine
 10
0.0000000000000031
 20
25.22142083607136
 30
0.0
 11
-0.0000000000000093
 21
-76.25023977794064
 31
0.0
  0
SPLINE
  5
A0D1
330
1F
100
AcDbEntity
  8
AM_0
 48
0.5
100
AcDbSpline
210
0.0
220
0.0
230
1.0
 70
     8
 71
     3
 72
     9
 73
     5
 74
     0
 42
0.0000000001
 43
0.0000000001
 40
0.0
 40
0.0
 40
0.0
 40
0.0
 40
6.884912974810628
 40
9.791821751912355
 40
9.791821751912355
 40
9.791821751912355
 40
9.791821751912355
 10
29.51413609391317
 20
-76.252063751219
 30
0.0
 10
29.45369304695588
 20
-73.9578850431467
 30
0.0
 10
29.36773008066801
 20
-70.69507125615119
 30
0.0
 10
29.26915418609291
 20
-67.43261857429437
 30
0.0
 10
29.23995964865365
 20
-66.46408848109325
 30
0.0
  0
SPLINE
  5
A0D2
330
1F
100
AcDbEntity
  8
AM_0
 48
0.5
100
AcDbSpline
210
0.0
220
0.0
230
1.0
 70
     8
 71
     3
 72
    10
 73
     6
 74
     4
 42
0.0000000001
 43
0.0000000001
 44
0.0000000001
 40
0.0
 40
0.0
 40
0.0
 40
0.0
 40
6.884912021490578
 40
11.37220494580884
 40
16.00649287655581
 40
16.00649287655581
 40
16.00649287655581
 40
16.00649287655581
 10
29.51413609391317
 20
-76.252063751219
 30
0.0
 10
29.45369304033917
 20
-78.54624214121059
 30
0.0
 10
29.35385577435109
 20
-82.33566846238847
 30
0.0
 10
29.1893880632966
 20
-87.66863857345681
 30
0.0
 10
29.10267467133709
 20
-90.70792922118533
 30
0.0
 10
29.05861927872728
 20
-92.25206375121901
 30
0.0
 11
29.51413609391317
 21
-76.252063751219
 31
0.0
 11
29.32657124405919
 21
-83.13442039489599
 31
0.0
 11
29.19259526139318
 21
-87.619712829588
 31
0.0
 11
29.05861927872728
 21
-92.25206375121901
 31
0.0
  0
ARC
  5
A0D3
330
1F
100
AcDbEntity
  8
AM_0
 48
0.5
100
AcDbCircle
 10
15.92479969864915
 20
-59.55698740482239
 30
0.0
 40
15.0
100
AcDbArc
 50
271.9999998279058
 51
339.7364645628797
  0
LINE
  5
A0D4
330
1F
100
AcDbEntity
  8
AM_0
 48
0.5
100
AcDbLine
 10
0.6512096107592131
 20
-92.25206375121901
 30
0.0
 11
29.05861927872728
 21
-92.25206375121901
 31
0.0
  0
LINE
  5
A0D6
330
1F
100
AcDbEntity
  8
AM_0
 48
0.5
100
AcDbLine
 10
1.058184403239228
 20
-81.85939025878798
 30
0.0
 11
1.924654740153177
 21
-78.771738052367
 31
0.0
  0
LINE
  5
A0D7
330
1F
100
AcDbEntity
  8
AM_0
 48
0.5
100
AcDbLine
 10
0.6512096107592131
 20
-92.25206375121901
 30
0.0
 11
0.1964290321452511
 21
-79.228883743285
 31
0.0
  0
LINE
  5
A0D8
330
1F
100
AcDbEntity
  8
AM_0
 48
0.5
100
AcDbLine
 10
3.488985794841244
 20
-81.85938644409
 30
0.0
 11
3.283106583415236
 21
-75.96371269225902
 31
0.0
  0
LINE
  5
A0D9
330
1F
100
AcDbEntity
  8
AM_0
 48
0.5
100
AcDbLine
 10
0.288286942302183
 20
-81.85939025878798
 30
0.0
 11
3.488985794841244
 21
-81.85939025878798
 31
0.0
  0
LINE
  5
A0DA
330
1F
100
AcDbEntity
  8
AM_0
 48
0.5
100
AcDbLine
 10
6.509234207927184
 20
-67.79022502899
 30
0.0
 11
16.44829060441121
 21
-67.4431457519522
 31
0.0
  0
LINE
  5
A0DB
330
1F
100
AcDbEntity
  8
AM_0
 48
0.5
100
AcDbLine
 10
3.333300370036216
 20
-75.00583457946598
 30
0.0
 11
16.44829060441121
 21
-74.54784965515
 31
0.0
  0
LINE
  5
A0DC
330
1F
100
AcDbEntity
  8
AM_0
 48
0.5
100
AcDbLine
 10
1.058954972087226
 20
-69.58352661132699
 30
0.0
 11
6.509234207927184
 21
-67.790227890013
 31
0.0
  0
LINE
  5
A0DD
330
1F
100
AcDbEntity
  8
AM_0
 48
0.5
100
AcDbLine
 10
1.924692887126174
 20
-78.77174377441298
 30
0.0
 11
0.0681483924972685
 21
-78.77174377441298
 31
0.0
  0
LINE
  5
A0DE
330
1F
100
AcDbEntity
  8
AM_0
 48
0.5
100
AcDbLine
 10
1.996416825114228
 20
-76.71774291992
 30
0.0
 11
-0.0035831748857712
 21
-76.71774291992
 31
0.0
  0
LINE
  5
A0DF
330
1F
100
AcDbEntity
  8
AM_0
 48
0.5
100
AcDbLine
 10
-0.0035526573077598
 20
-76.252065658568
 30
0.0
 11
3.283106583415236
 21
-75.96371650695698
 31
0.0
  0
LINE
  5
A0E0
330
1F
100
AcDbEntity
  8
AM_0
 48
0.5
100
AcDbLine
 10
0.0553615272622121
 20
-72.87664413451999
 30
0.0
 11
3.444887894450165
 21
-72.87664413451999
 31
0.0
  0
LINE
  5
A0E1
330
1F
100
AcDbEntity
  8
AM_0
 48
0.5
100
AcDbLine
 10
0.0168941200362177
 20
-75.08030319213698
 30
0.0
 11
3.329401749430179
 21
-75.08030319213698
 31
0.0
  0
LINE
  5
A0E2
330
1F
100
AcDbEntity
  8
AM_0
 48
0.5
100
AcDbLine
 10
-0.0035526573077598
 20
-76.25201797485198
 30
0.0
 11
0.0553691566571981
 21
-72.87664413451999
 31
0.0
  0
LINE
  5
A0E3
330
1F
100
AcDbEntity
  8
AM_0
 48
0.5
100
AcDbLine
 10
0.0681636512862173
 20
-78.77173614501798
 30
0.0
 11
-0.0197803794758423
 21
-76.25340461730799
 31
0.0
  0
LINE
  5
A0E4
330
1F
100
AcDbEntity
  8
AM_0
 48
0.5
100
AcDbLine
 10
0.0681407631022825
 20
-78.77172660827501
 30
0.0
 11
0.1964290321452511
 21
-79.228885650633
 31
0.0
  0
LINE
  5
A0E5
330
1F
100
AcDbEntity
  8
AM_0
 48
0.5
100
AcDbLine
 10
0.5986659706222693
 20
-72.876643180846
 30
0.0
 11
1.05894734269224
 21
-69.58352661132699
 31
0.0
  0
LINE
  5
A0E6
330
1F
100
AcDbEntity
  8
AM_0
 48
0.5
100
AcDbLine
 10
3.28309895402025
 20
-75.963708877562
 30
0.0
 11
3.444887894450165
 21
-72.87664413451999
 31
0.0
  0
LINE
  5
A0E7
330
1F
100
AcDbEntity
  8
AM_0
 48
0.5
100
AcDbLine
 10
1.924723404704185
 20
-78.77175903320197
 30
0.0
 11
1.996447342692239
 21
-76.717760086058
 31
0.0
  0
ARC
  5
A0E8
330
1F
100
AcDbEntity
  8
AM_0
 48
0.5
100
AcDbCircle
 10
15.92479969864915
 20
-52.45228385925201
 30
0.0
 40
15.0
100
AcDbArc
 50
271.9999998279058
 51
304.9166519477708
  0
LINE
  5
A0E9
330
1F
100
AcDbEntity
  8
AM_0
 48
0.5
100
AcDbLine
 10
29.99644352799521
 20
-64.752067565917
 30
0.0
 11
29.9964435279952
 21
-88.75206184387097
 31
0.0
  0
LINE
  5
A0EA
330
1F
100
AcDbEntity
  8
AM_0
 48
0.5
100
AcDbLine
 10
29.99643971329827
 20
-88.75206375121901
 30
0.0
 11
29.05861927872728
 21
-92.25206375121901
 31
0.0
  0
SPLINE
  5
A0EB
330
1F
100
AcDbEntity
  8
AM_0
 48
0.5
100
AcDbSpline
210
0.0
220
0.0
230
1.0
 70
     8
 71
     3
 72
     9
 73
     5
 74
     3
 42
0.0000000001
 43
0.0000000001
 44
0.0000000001
 40
0.0
 40
0.0
 40
0.0
 40
0.0
 40
9.945686340050771
 40
19.03546322146166
 40
19.03546322146166
 40
19.03546322146166
 40
19.03546322146166
 10
6.509234207927195
 20
27.55751800537201
 30
0.0
 10
9.919576383413996
 20
27.80486217334714
 30
0.0
 10
16.44677227864943
 20
28.27826447576775
 30
0.0
 10
21.9044311937028
 20
24.70341041500043
 30
0.0
 10
24.51056172257518
 20
22.996353149415
 30
0.0
 11
6.509234207927195
 21
27.55751800537201
 31
0.0
 11
16.44829060441122
 21
27.194427490235
 31
0.0
 11
24.51056172257518
 21
22.996353149415
 31
0.0
  0
SPLINE
  5
A0EC
330
1F
100
AcDbEntity
  8
AM_0
 48
0.5
100
AcDbSpline
210
0.0
220
0.0
230
1.0
 70
     8
 71
     3
 72
    10
 73
     6
 74
     4
 42
0.0000000001
 43
0.0000000001
 44
0.0000000001
 40
0.0
 40
0.0
 40
0.0
 40
0.0
 40
3.337292931112453
 40
6.802926615755673
 40
8.87230930720216
 40
8.87230930720216
 40
8.87230930720216
 40
8.87230930720216
 10
29.2399013221842
 20
22.99635314941498
 30
0.0
 10
29.50817100329562
 20
24.08384303407799
 30
0.0
 10
30.05502709040117
 20
26.30064390635653
 30
0.0
 10
29.78060146445887
 20
29.27978182280173
 30
0.0
 10
29.58664923016233
 20
31.11152161870387
 30
0.0
 10
29.51413609391318
 20
31.79635620117199
 30
0.0
 11
29.2399013221842
 21
22.99635314941498
 31
0.0
 11
29.86246754532919
 21
26.27506256103599
 31
0.0
 11
29.72849537736022
 21
29.73810577392598
 31
0.0
 11
29.51413609391318
 21
31.79635620117199
 31
0.0
  0
SPLINE
  5
A0ED
330
1F
100
AcDbEntity
  8
AM_0
 48
0.5
100
AcDbSpline
210
0.0
220
0.0
230
1.0
 70
     8
 71
     3
 72
    11
 73
     7
 74
     5
 42
0.0000000001
 43
0.0000000001
 44
0.0000000001
 40
0.0
 40
0.0
 40
0.0
 40
0.0
 40
5.65184730126631
 40
9.039669308898437
 40
11.46122146509479
 40
17.60168619356848
 40
17.60168619356848
 40
17.60168619356848
 40
17.60168619356848
 10
16.44829060441122
 20
3.196353912353995
 30
0.0
 10
18.32056538528573
 20
3.428180650970335
 30
0.0
 10
21.31511636522885
 20
3.798968632730317
 30
0.0
 10
25.04344359083104
 20
4.590067579026142
 30
0.0
 10
28.68792409058272
 20
6.662708462261361
 30
0.0
 10
29.00936903445535
 20
9.768766138090379
 30
0.0
 10
29.2399013221842
 20
11.99635314941499
 30
0.0
 11
16.44829060441122
 21
3.196353912353995
 31
0.0
 11
22.04402424698924
 21
3.990798950195999
 31
0.0
 11
25.31762959366926
 21
4.863063812255998
 31
0.0
 11
27.37056233292719
 21
6.147346496582993
 31
0.0
 11
29.2399013221842
 21
11.99635314941499
 31
0.0
  0
SPLINE
  5
A0EE
330
1F
100
AcDbEntity
  8
AM_0
 48
0.5
100
AcDbSpline
210
0.0
220
0.0
230
1.0
 70
     8
 71
     3
 72
    10
 73
     6
 74
     4
 42
0.0000000001
 43
0.0000000001
 44
0.0000000001
 40
0.0
 40
0.0
 40
0.0
 40
0.0
 40
3.337292931113435
 40
6.802926615756663
 40
8.872305513027377
 40
8.872305513027377
 40
8.872305513027377
 40
8.872305513027377
 10
29.2399013221842
 20
11.99635314941499
 30
0.0
 10
29.50817098514282
 20
10.908863267204
 30
0.0
 10
30.05502703524459
 20
8.692062399924141
 30
0.0
 10
29.78060177352535
 20
5.712925724133853
 30
0.0
 10
29.58664925367695
 20
3.881187224134247
 30
0.0
 10
29.51413609391318
 20
3.196353912353994
 30
0.0
 11
29.2399013221842
 21
11.99635314941499
 31
0.0
 11
29.86246754532919
 21
8.717643737792993
 31
0.0
 11
29.72849537736022
 21
5.254600524902993
 31
0.0
 11
29.51413609391318
 21
3.196353912353994
 31
0.0
  0
LINE
  5
A0F3
330
1F
100
AcDbEntity
  8
AM_7
 48
0.5
100
AcDbLine
 10
-62.21352122419977
 20
36.663810729981
 30
0.0
 11
-62.21352122419978
 21
-2.495132446288976
 31
0.0
  0
ARC
  5
A0F7
330
1F
100
AcDbEntity
  8
AM_0
100
AcDbCircle
 10
-63.91351817243982
 20
17.49635314941501
 30
0.0
 40
14.5
100
AcDbArc
 50
24.44697849242697
 51
256.9281660836196
  0
ARC
  5
A0F8
330
1F
100
AcDbEntity
  8
AM_0
 48
0.5
100
AcDbCircle
 10
-71.64011119001975
 20
10.72421264648502
 30
0.0
 40
2.0
100
AcDbArc
 50
46.00007072032368
 51
143.1807774577369
  0
CIRCLE
  5
A0FA
330
1F
100
AcDbEntity
  8
AM_11
 48
0.3
100
AcDbCircle
 10
-62.21352122419978
 20
17.49635314941501
 30
0.0
 40
17.5
  0
LINE
  5
A0FB
330
1F
100
AcDbEntity
  8
AM_0
 48
0.5
100
AcDbLine
 10
-64.21378062360975
 20
0.495075225831024
 30
0.0
 11
-72.40950511091978
 21
8.409584045411016
 31
0.0
  0
LINE
  5
A0FC
330
1F
100
AcDbEntity
  8
AM_7
 48
0.5
100
AcDbLine
 10
-84.86697886579975
 20
17.49635314941501
 30
0.0
 11
-39.47752879255972
 21
17.496353149415
 31
0.0
  0
LINE
  5
A0FD
330
1F
100
AcDbEntity
  8
AM_0
 48
0.5
100
AcDbLine
 10
-72.63960764997978
 20
9.257331848145023
 30
0.0
 11
-71.81441233747978
 21
8.79992675781302
 31
0.0
  0
LINE
  5
A0FE
330
1F
100
AcDbEntity
  8
AM_0
 48
0.5
100
AcDbLine
 10
-76.99411509626975
 20
23.27458953857502
 30
0.0
 11
-56.41167185895985
 21
21.83531951904301
 31
0.0
  0
LINE
  5
A0FF
330
1F
100
AcDbEntity
  8
AM_0
 48
0.5
100
AcDbLine
 10
-72.63959239118981
 20
9.257385253907024
 30
0.0
 11
-71.20757029645982
 21
10.74028778076202
 31
0.0
  0
ARC
  5
A100
330
1F
100
AcDbEntity
  8
AM_0
 48
0.5
100
AcDbCircle
 10
-71.98743174665981
 20
10.36454772949302
 30
0.0
 40
2.0
100
AcDbArc
 50
128.8192665390277
 51
257.8170195814486
  0
LINE
  5
A103
330
1F
100
AcDbEntity
  8
AM_0
 48
0.5
100
AcDbLine
 10
-70.25081370466978
 20
12.16281127929702
 30
0.0
 11
-69.33401988141975
 21
11.27746582031302
 31
0.0
  0
LINE
  5
A104
330
1F
100
AcDbEntity
  8
AM_0
 48
0.5
100
AcDbLine
 10
-71.20753977888978
 20
10.74025726318403
 30
0.0
 11
-58.25172923200978
 21
14.45527648925801
 31
0.0
  0
LINE
  5
A105
330
1F
100
AcDbEntity
  8
AM_0
 48
0.5
100
AcDbLine
 10
-58.89531443708984
 20
11.87397003173902
 30
0.0
 11
-54.80788157575978
 21
28.26778411865301
 31
0.0
  0
LINE
  5
A107
330
1F
100
AcDbEntity
  8
AM_0
 48
0.5
100
AcDbLine
 10
-50.71352122419978
 20
23.49719238281301
 30
0.0
 11
-50.71352122419978
 21
11.495513916016
 31
0.0
  0
LINE
  5
A108
330
1F
100
AcDbEntity
  8
AM_0
 48
0.5
100
AcDbLine
 10
-59.40633128278978
 20
13.65606689453201
 30
0.0
 11
-58.83810923688975
 21
11.674446105958
 31
0.0
  0
ARC
  5
A109
330
1F
100
AcDbEntity
  8
AM_0
 48
0.5
100
AcDbCircle
 10
-63.91351817243982
 20
17.49635314941501
 30
0.0
 40
14.5
100
AcDbArc
 50
281.8977157466327
 51
335.5530317528546
  0
LINE
  5
A10A
330
1F
100
AcDbEntity
  8
AM_0
 48
0.5
100
AcDbLine
 10
-62.21350596540982
 20
-0.0036315917959792
 30
0.0
 11
-62.22997019880971
 21
0.9396896362310233
 31
0.0
  0
LINE
  5
A10B
330
1F
100
AcDbEntity
  8
AM_0
 48
0.5
100
AcDbLine
 10
-62.21353648298975
 20
-0.0036354064939767
 30
0.0
 11
-64.21378062360975
 21
0.4950790405280196
 31
0.0
  0
ARC
  5
A10C
330
1F
100
AcDbEntity
  8
AM_0
 48
0.5
100
AcDbCircle
 10
-63.91351817243982
 20
17.49635314941501
 30
0.0
 40
14.5
100
AcDbArc
 50
256.9281697260889
 51
281.8977157466327
  0
CIRCLE
  5
A10D
330
1F
100
AcDbEntity
  8
AM_0
 48
0.5
100
AcDbCircle
 10
-64.75314829938975
 20
7.636589050293019
 30
0.0
 40
3.349999666213998
  0
CIRCLE
  5
A10E
330
1F
100
AcDbEntity
  8
AM_0
 48
0.5
100
AcDbCircle
 10
-64.75314829938975
 20
7.636589050293019
 30
0.0
 40
1.649999976158099
  0
CIRCLE
  5
A113
330
1F
100
AcDbEntity
  8
AM_0
 48
0.5
100
AcDbCircle
 10
-64.75314829938975
 20
7.636589050293019
 30
0.0
 40
2.799999952316299
  0
LINE
  5
A114
330
1F
100
AcDbEntity
  8
AM_7
 48
0.5
100
AcDbLine
 10
-60.80240367048975
 20
7.01085662841801
 30
0.0
 11
-68.70390818708982
 21
8.26232910156302
 31
0.0
  0
LINE
  5
A117
330
1F
100
AcDbEntity
  8
AM_7
 48
0.5
100
AcDbLine
 10
-65.37889598005972
 20
3.685832977295021
 30
0.0
 11
-64.12741587751975
 21
11.58734130859403
 31
0.0
  0
ARC
  5
A119
330
1F
100
AcDbEntity
  8
AM_0
 48
0.5
100
AcDbCircle
 10
-72.78403208845976
 20
7.050674438477027
 30
0.0
 40
2.0
100
AcDbArc
 50
354.2315876421276
 51
61.00000283584622
  0
LINE
  5
A121
330
1F
100
AcDbEntity
  8
AM_0
 48
0.5
100
AcDbLine
 10
-61.05113719098972
 20
2.798389434815014
 30
0.0
 11
-58.83809397809979
 21
11.67445373535201
 31
0.0
  0
ARC
  5
A122
330
1F
100
AcDbEntity
  8
AM_0
 48
0.5
100
AcDbCircle
 10
-60.23029063337981
 20
0.9745941162110229
 30
0.0
 40
2.0
100
AcDbArc
 50
114.2315943965265
 51
180.9999993449581
  0
LINE
  5
A124
330
1F
100
AcDbEntity
  8
AM_0
 48
0.5
100
AcDbLine
 10
-59.40633128278978
 20
13.65608978271501
 30
0.0
 11
-60.21503184431981
 21
13.17016601562501
 31
0.0
  0
ARC
  5
A125
330
1F
100
AcDbEntity
  8
AM_0
 48
0.5
100
AcDbCircle
 10
-61.24512217634981
 20
14.88448333740301
 30
0.0
 40
2.0
100
AcDbArc
 50
234.231587717918
 51
300.99999949654
  0
DIMENSION
  5
A126
330
1F
100
AcDbEntity
  8
PV0001_1
100
AcDbDimension
  2
*D7
 10
0.4829204261882315
 20
13.93067932129
 30
0.0
 11
2.710966680152472
 21
41.93234172412387
 31
0.0
 70
   162
  1
<>
 71
     5
 42
0.0349065056021551
  3
AM_JIS$2
100
AcDb2LineAngularDimension
 13
-0.0035526573077492
 23
10.51963806152298
 33
0.0
 14
-0.0035526573077474
 24
25.219596862793
 34
0.0
 15
-0.4237797080897979
 25
-12.03387451171701
 35
0.0
 16
0.4853627938886276
 26
42.01726834526637
 36
0.0
1001
ACAD
1000
DSTYLE
1002
{
1070
   271
1070
     0
1070
   284
1070
     8
1070
   179
1070
     0
1070
   173
1070
     1
1070
     6
1000
OPEN30
1070
     7
1000
OPEN30
1002
}
  0
LINE
  5
A127
330
1F
100
AcDbEntity
  8
AM_0
 48
0.5
100
AcDbLine
 10
24.51056172257518
 20
22.99634552002
 30
0.0
 11
29.2399013221842
 21
11.99635314941499
 31
0.0
  0
LINE
  5
A128
330
1F
100
AcDbEntity
  8
AM_0
 48
0.5
100
AcDbLine
 10
24.51056172257518
 20
22.996353149415
 30
0.0
 11
29.2399013221842
 21
22.99635314941498
 31
0.0
  0
LINE
  5
A129
330
1F
100
AcDbEntity
  8
AM_0
 48
0.5
100
AcDbLine
 10
10.74807240372729
 20
31.79635620117201
 30
0.0
 11
29.51413609391318
 21
31.79635620117199
 31
0.0
  0
LINE
  5
A12A
330
1F
100
AcDbEntity
  8
AM_0
 48
0.5
100
AcDbLine
 10
3.289995926677192
 20
3.196353912353997
 30
0.0
 11
29.51413609391318
 21
3.196353912353994
 31
0.0
  0
DIMENSION
  5
A12B
330
1F
100
AcDbEntity
  8
PV0001_1
100
AcDbDimension
  2
*D8
 10
29.99644352799521
 20
-24.30921609180903
 30
0.0
 11
14.99644734269223
 21
-24.30921609180903
 31
0.0
 70
   160
  1
<>
 71
     5
 42
29.99999618530296
  3
AM_JIS$0
100
AcDbAlignedDimension
 13
-0.0035526573077474
 23
25.219596862793
 33
0.0
 14
29.99644352799521
 24
4.996353149414996
 34
0.0
100
AcDbRotatedDimension
1001
ACAD
1000
DSTYLE
1002
{
1070
   284
1070
     8
1070
   271
1070
     0
1070
    45
1040
0.1
1070
   173
1070
     1
1070
     6
1000
OPEN30
1070
     7
1000
OPEN30
1070
    75
1070
     1
1002
}
  0
DIMENSION
  5
A12C
330
1F
100
AcDbEntity
  8
PV0001_1
100
AcDbDimension
  2
*D9
 10
1.996952835038312
 20
-14.3779888714109
 30
0.0
 11
-4.991499314659904
 21
-14.3779888714109
 31
0.0
 70
   160
  1
<>
 71
     5
 42
1.996432496378243
  3
AM_JIS$0
100
AcDbAlignedDimension
 13
0.0005203386600701
 23
25.219596862793
 33
0.0
 14
1.996952835038313
 24
0.0999999999999941
 34
0.0
100
AcDbRotatedDimension
1001
ACAD
1000
DSTYLE
1002
{
1070
   287
1070
     4
1070
    45
1040
0.1
1070
    75
1070
     1
1070
   173
1070
     1
1070
   279
1070
     1
1070
     6
1000
OPEN30
1070
     7
1000
OPEN30
1002
}
  0
LINE
  5
A130
330
1F
100
AcDbEntity
  8
AM_0
 48
0.5
100
AcDbLine
 10
1.789194840251185
 20
7.318962097167997
 30
0.0
 11
2.484118241130206
 21
13.9306640625
 31
0.0
  0
LINE
  5
A131
330
1F
100
AcDbEntity
  8
AM_0
 48
0.5
100
AcDbLine
 10
3.274363297282206
 20
2.748531341552996
 30
0.0
 11
3.664843338786227
 21
13.930496215821
 31
0.0
  0
LINE
  5
A132
330
1F
100
AcDbEntity
  8
AM_0
 48
0.5
100
AcDbLine
 10
0.0000609181593063
 20
0.1034899743309836
 30
0.0
 11
0.4829204261882315
 21
13.93067932129
 31
0.0
  0
LINE
  5
A135
330
1F
100
AcDbEntity
  8
AM_0
 48
0.5
100
AcDbLine
 10
1.992818921343654
 20
0.103489961948085
 30
0.0
 11
1.914339798747278
 21
2.350830078124999
 31
0.0
  0
LINE
  5
A136
330
1F
100
AcDbEntity
  8
AM_0
 48
0.5
100
AcDbLine
 10
1.892879839070474
 20
-0.0000000000000073
 30
0.0
 11
0.1000000000000227
 21
0.0
 31
0.0
  0
LINE
  5
A137
330
1F
100
AcDbEntity
  8
AM_0
 48
0.5
100
AcDbLine
 10
2.287745255290247
 20
12.062339782715
 30
0.0
 11
0.41765095597316
 21
12.062339782715
 31
0.0
  0
LINE
  5
A138
330
1F
100
AcDbEntity
  8
AM_0
 48
0.5
100
AcDbLine
 10
3.300585526286226
 20
2.999999999999999
 30
0.0
 11
0.1186473548991675
 21
3.0
 31
0.0
  0
LINE
  5
A139
330
1F
100
AcDbEntity
  8
AM_0
 48
0.5
100
AcDbLine
 10
2.582720536052192
 20
2.999996185302996
 30
0.0
 11
2.732386368571269
 21
7.286026000977002
 31
0.0
  0
ARC
  5
A13A
330
1F
100
AcDbEntity
  8
AM_0
 48
0.5
100
AcDbCircle
 10
2.264132279216255
 20
2.363044738770006
 30
0.0
 40
0.3499999940395
100
AcDbArc
 50
91.99999800667464
 51
181.9999936809641
  0
LINE
  5
A13B
330
1F
100
AcDbEntity
  8
AM_0
 48
0.5
100
AcDbLine
 10
3.274363297282206
 20
2.748535156249999
 30
0.0
 11
2.251909989177192
 21
2.712829589843997
 31
0.0
  0
LINE
  5
A13C
330
1F
100
AcDbEntity
  8
AM_0
 48
0.5
100
AcDbLine
 10
3.431956070720162
 20
7.261596679687997
 30
0.0
 11
1.78920246964526
 21
7.318962097167997
 31
0.0
  0
LINE
  5
A13D
330
1F
100
AcDbEntity
  8
AM_0
 48
0.5
100
AcDbLine
 10
0.9480693519701642
 20
21.996353149415
 30
0.0
 11
10.74807240372729
 21
31.79635620117201
 31
0.0
  0
LINE
  5
A13E
330
1F
100
AcDbEntity
  8
AM_0
 48
0.5
100
AcDbLine
 10
2.48411061173522
 20
13.9306640625
 30
0.0
 11
0.482897538005206
 21
13.9306640625
 31
0.0
  0
LINE
  5
A13F
330
1F
100
AcDbEntity
  8
AM_0
 48
0.5
100
AcDbLine
 10
3.740549820720163
 20
16.09893035888701
 30
0.0
 11
0.7457759559731605
 21
16.20351409912201
 31
0.0
  0
LINE
  5
A140
330
1F
100
AcDbEntity
  8
AM_0
 48
0.5
100
AcDbLine
 10
0.7108028114422515
 20
15.20209503173901
 30
0.0
 11
2.514010208903188
 21
15.359855651856
 31
0.0
  0
LINE
  5
A141
330
1F
100
AcDbEntity
  8
AM_0
 48
0.5
100
AcDbLine
 10
0.9480693519701642
 20
21.996353149415
 30
0.0
 11
0.6664073646652486
 21
13.9306640625
 31
0.0
  0
LINE
  5
A142
330
1F
100
AcDbEntity
  8
AM_0
 48
0.5
100
AcDbLine
 10
3.634424942790247
 20
13.05934906005901
 30
0.0
 11
2.397059220134225
 21
13.10256195068401
 31
0.0
  0
LINE
  5
A143
330
1F
100
AcDbEntity
  8
AM_0
 48
0.5
100
AcDbLine
 10
2.464113968669267
 20
13.930656433106
 30
0.0
 11
2.54129292374728
 21
16.14080810546901
 31
0.0
  0
LINE
  5
A144
330
1F
100
AcDbEntity
  8
AM_0
 48
0.5
100
AcDbLine
 10
3.661555069743259
 20
13.83637237548901
 30
0.0
 11
3.740565079509225
 21
16.098945617676
 31
0.0
  0
LINE
  5
A145
330
1F
100
AcDbEntity
  8
AM_0
 48
0.5
100
AcDbLine
 10
2.435145157634225
 20
13.10121154785201
 30
0.0
 11
2.45415760880519
 21
13.64553070068401
 31
0.0
  0
LINE
  5
A146
330
1F
100
AcDbEntity
  8
AM_0
 48
0.5
100
AcDbLine
 10
29.99644352799521
 20
12.59737396240298
 30
0.0
 11
29.2399013221842
 21
11.99635314941499
 31
0.0
  0
LINE
  5
A147
330
1F
100
AcDbEntity
  8
AM_0
 48
0.5
100
AcDbLine
 10
29.99644352799521
 20
12.59737396240298
 30
0.0
 11
29.99644352799521
 21
4.996353149414996
 31
0.0
  0
LINE
  5
A148
330
1F
100
AcDbEntity
  8
AM_0
 48
0.5
100
AcDbLine
 10
29.99644352799521
 20
4.996353149414996
 30
0.0
 11
29.51413227921625
 21
3.196350097656999
 31
0.0
  0
LINE
  5
A149
330
1F
100
AcDbEntity
  8
AM_0
 48
0.5
100
AcDbLine
 10
29.99644352799522
 20
29.99635314941498
 30
0.0
 11
29.99644352799522
 21
22.39533233642598
 31
0.0
  0
LINE
  5
A14A
330
1F
100
AcDbEntity
  8
AM_0
 48
0.5
100
AcDbLine
 10
29.2399013221842
 20
22.99635314941498
 30
0.0
 11
29.99644734269224
 21
22.39533233642598
 31
0.0
  0
LINE
  5
A14B
330
1F
100
AcDbEntity
  8
AM_0
 48
0.5
100
AcDbLine
 10
29.99644352799522
 20
29.99635314941498
 30
0.0
 11
29.51413609391318
 21
31.79634857177799
 31
0.0
  0
LINE
  5
A14C
330
1F
100
AcDbEntity
  8
AM_0
 48
0.5
100
AcDbLine
 10
198.9964473426901
 20
-64.75206756591706
 30
0.0
 11
198.9964473426901
 21
-87.75206375121905
 31
0.0
  0
LINE
  5
A14D
330
1F
100
AcDbEntity
  8
AM_0
 48
0.5
100
AcDbLine
 10
199.9964473426901
 20
-64.75206375121985
 30
0.0
 11
199.9964473426901
 21
-87.75206375121905
 31
0.0
  0
SPLINE
  5
A150
330
1F
100
AcDbEntity
  8
AM_0
 48
0.5
100
AcDbSpline
210
0.0
220
0.0
230
1.0
 70
     8
 71
     3
 72
     9
 73
     5
 74
     3
 42
0.0000000001
 43
0.0000000001
 44
0.0000000001
 40
0.0
 40
0.0
 40
0.0
 40
0.0
 40
4.999999707476674
 40
9.999999414954348
 40
9.999999414954348
 40
9.999999414954348
 40
9.999999414954348
 10
198.9964473426901
 20
22.39533233642594
 30
0.0
 10
199.49644734269
 20
20.76233927408895
 30
0.0
 10
200.4964473426901
 20
17.49635314941464
 30
0.0
 10
199.4964473426901
 20
14.23036702474029
 30
0.0
 10
198.9964473426901
 20
12.59737396240294
 30
0.0
 11
198.9964473426901
 21
22.39533233642594
 31
0.0
 11
199.9964473426901
 21
17.49635314941495
 31
0.0
 11
198.9964473426901
 21
12.59737396240294
 31
0.0
  0
LINE
  5
A154
330
1F
100
AcDbEntity
  8
AM_0
100
AcDbLine
 10
148.6158588111972
 20
4.996353149414968
 30
0.0
 11
198.9964473426901
 21
4.996353149414954
 31
0.0
  0
LINE
  5
A155
330
1F
100
AcDbEntity
  8
AM_0
100
AcDbLine
 10
148.6158588111972
 20
12.59737396240296
 30
0.0
 11
198.9964473426901
 21
12.59737396240294
 31
0.0
  0
LINE
  5
A156
330
1F
100
AcDbEntity
  8
AM_0
100
AcDbLine
 10
148.6158588111972
 20
22.39533233642595
 30
0.0
 11
198.9964473426901
 21
22.39533233642594
 31
0.0
  0
LINE
  5
A157
330
1F
100
AcDbEntity
  8
AM_0
100
AcDbLine
 10
148.6158588111972
 20
29.99635314941496
 30
0.0
 11
198.9964473426901
 21
29.99635314941496
 31
0.0
  0
DIMENSION
  5
A15A
330
1F
100
AcDbEntity
  8
PV0001_1
100
AcDbDimension
  2
*D10
 10
140.1158588111971
 20
-12.51234060640558
 30
0.0
 11
128.0884502113442
 21
-12.51234060640558
 31
0.0
 70
   160
  1
<>
 71
     5
 42
23.0
  3
AM_JIS$0
100
AcDbAlignedDimension
 13
117.1158588111971
 23
12.59737396240296
 33
0.0
 14
140.1158588111971
 24
12.59737396240296
 34
0.0
100
AcDbRotatedDimension
1001
ACAD
1000
DSTYLE
1002
{
1070
   284
1070
     8
1070
   271
1070
     0
1070
    45
1040
0.1
1070
   173
1070
     1
1070
     6
1000
OPEN30
1070
     7
1000
OPEN30
1002
}
  0
ARC
  5
A15D
330
1F
100
AcDbEntity
  8
AM_0
 48
0.5
100
AcDbCircle
 10
128.6158588111971
 20
17.49635314941497
 30
0.0
 40
12.500000953674
100
AcDbArc
 50
203.0739312904788
 51
336.9260688232079
  0
ARC
  5
A15E
330
1F
100
AcDbEntity
  8
AM_0
 48
0.5
100
AcDbCircle
 10
128.6158588111971
 20
17.49635314941497
 30
0.0
 40
12.500000953674
100
AcDbArc
 50
23.07393117679215
 51
156.9260687095211
  0
LINE
  5
A15F
330
1F
100
AcDbEntity
  8
AM_0
 48
0.5
100
AcDbLine
 10
117.1158588111971
 20
22.39533233642597
 30
0.0
 11
117.1158588111971
 21
12.59737396240296
 31
0.0
  0
LINE
  5
A160
330
1F
100
AcDbEntity
  8
AM_7
 48
0.5
100
AcDbLine
 10
128.6158588111971
 20
33.10972595214899
 30
0.0
 11
128.6158588111971
 21
1.201446533203968
 31
0.0
  0
LINE
  5
A161
330
1F
100
AcDbEntity
  8
AM_0
 48
0.5
100
AcDbLine
 10
140.1158588111971
 20
22.39533233642596
 30
0.0
 11
140.1158588111971
 21
12.59737396240296
 31
0.0
  0
LINE
  5
A162
330
1F
100
AcDbEntity
  8
AM_0
 48
0.5
100
AcDbLine
 10
198.9964473426901
 20
12.59737396240294
 30
0.0
 11
198.9964473426901
 21
4.996353149414954
 31
0.0
  0
LINE
  5
A163
330
1F
100
AcDbEntity
  8
AM_0
 48
0.5
100
AcDbLine
 10
199.9964473426901
 20
28.99635314941496
 30
0.0
 11
199.9964473426901
 21
5.996353149414953
 31
0.0
  0
LINE
  5
A164
330
1F
100
AcDbEntity
  8
AM_0
 48
0.5
100
AcDbLine
 10
199.9964473426901
 20
5.996353149414953
 30
0.0
 11
198.9964473426901
 21
4.996353149414954
 31
0.0
  0
LINE
  5
A165
330
1F
100
AcDbEntity
  8
AM_0
 48
0.5
100
AcDbLine
 10
198.9964473426901
 20
29.99635314941496
 30
0.0
 11
198.9964473426901
 21
22.39533233642594
 31
0.0
  0
LINE
  5
A168
330
1F
100
AcDbEntity
  8
AM_0
 48
0.5
100
AcDbLine
 10
198.9964473426901
 20
29.99636077880896
 30
0.0
 11
199.9964473426901
 21
28.99636077880895
 31
0.0
  0
DIMENSION
  5
A2E8
330
1F
100
AcDbEntity
  8
AM_5
100
AcDbDimension
  2
*D11
 10
134.9531683611181
 20
28.2707919519851
 30
0.0
 11
144.2698753300763
 21
44.11068241145738
 31
0.0
 70
   163
 71
     5
 42
25.0000019073479
  3
AM_JIS$3
100
AcDbDiametricDimension
 15
122.278549261276
 25
6.721914346844876
 35
0.0
 40
0.0
1001
ACAD
1000
DSTYLE
1002
{
1070
   287
1070
     4
1070
   279
1070
     1
1002
}
  0
ARC
  5
A326
330
1F
100
AcDbEntity
  8
AM_0
 48
0.5
100
AcDbCircle
 10
0.1000000000000227
 20
0.1000000000000085
 30
0.0
 40
0.1
100
AcDbArc
 50
177.9999858618303
 51
270.0
  0
ARC
  5
A327
330
1F
100
AcDbEntity
  8
AM_0
 48
0.5
100
AcDbCircle
 10
1.892879839070474
 20
0.1000000000000011
 30
0.0
 40
0.1
100
AcDbArc
 50
270.0
 51
2.000007038971478
  0
DIMENSION
  5
A374
330
1F
100
AcDbEntity
  8
AM_5
100
AcDbDimension
  2
*D12
 10
199.9964473426901
 20
-36.35369894622752
 30
0.0
 11
99.99822367134505
 21
-32.95332493047949
 31
0.0
 70
    32
 71
     5
 42
199.9964473426901
  3
AM_JIS$0
100
AcDbAlignedDimension
 13
-0.0000000000000031
 23
-25.51440947093463
 33
0.0
 14
199.9964473426901
 24
5.996353149414953
 34
0.0
100
AcDbRotatedDimension
  0
DIMENSION
  5
A38F
330
1F
100
AcDbEntity
  8
AM_5
100
AcDbDimension
  2
*D13
 10
-12.08400959516894
 20
-76.252063751219
 30
0.0
 11
-15.48400959516892
 21
-82.00206375121899
 31
0.0
 70
    32
 71
     5
 42
11.50000000000001
  3
AM_JIS$0
100
AcDbAlignedDimension
 13
29.9964435279952
 23
-87.75206375121902
 33
0.0
 14
-5.999837142170813
 24
-76.252063751219
 34
0.0
 50
89.99999999999998
100
AcDbRotatedDimension
  0
DIMENSION
  5
A39C
330
1F
100
AcDbEntity
  8
AM_5
100
AcDbDimension
  2
*D14
 10
-14.16921634135042
 20
0.000000000000004
 30
0.0
 11
-17.56921634135042
 21
8.748176574707501
 31
0.0
 70
    32
 71
     5
 42
17.496353149415
  3
AM_JIS$0
100
AcDbAlignedDimension
 13
-3.372288924397704
 23
17.496353149415
 33
0.0
 14
0.1000000000000227
 24
0.0
 34
0.0
 50
89.99999999999998
100
AcDbRotatedDimension
  0
DIMENSION
  5
A3DF
330
1F
100
AcDbEntity
  8
AM_5
100
AcDbDimension
  2
*D15
 10
-54.80788157575978
 20
28.26778411865301
 30
0.0
 11
-58.27594233391143
 21
46.8027342479031
 31
0.0
 70
   162
 71
     5
 42
0.2443458618926562
  3
AM_JIS$2
100
AcDb2LineAngularDimension
 13
-62.21352122419977
 23
36.663810729981
 33
0.0
 14
-62.21352122419978
 24
-2.495132446288976
 34
0.0
 15
-58.89531443708984
 25
11.87397003173902
 35
0.0
 16
-54.36447042348826
 26
46.32246635022155
 36
0.0
1001
ACAD
1000
DSTYLE
1002
{
1070
   271
1070
     0
1002
}
  0
DIMENSION
  5
A40C
330
1F
100
AcDbEntity
  8
AM_5
100
AcDbDimension
  2
*D16
 10
-78.45783736831714
 20
10.98696047344569
 30
0.0
 11
-34.2254013107057
 21
26.55635834336467
 31
0.0
 70
   163
 71
     5
 42
34.99999999999974
  3
AM_JIS$3
100
AcDbDiametricDimension
 15
-45.96920508008238
 25
24.00574582538431
 35
0.0
 40
0.0
  0
DIMENSION
  5
A4C3
330
1F
100
AcDbEntity
  8
AM_5
100
AcDbDimension
  2
*D17
 10
-62.22997019880971
 20
0.9396896362310233
 30
0.0
 11
-63.48774729072022
 21
-8.70647255860957
 31
0.0
 70
   162
 71
     5
 42
0.0174517030013082
  3
AM_JIS$2
100
AcDb2LineAngularDimension
 13
-62.21352122419977
 23
36.663810729981
 33
0.0
 14
-62.21352122419978
 24
-2.495132446288976
 34
0.0
 15
-62.21350596540982
 25
-0.0036315917959792
 35
0.0
 16
-62.11118099654675
 26
-8.798656222572807
 36
0.0
1001
ACAD
1000
DSTYLE
1002
{
1070
   271
1070
     0
1002
}
  0
LINE
  5
A55F
330
1F
100
AcDbEntity
  8
AM_1
100
AcDbLine
 10
200.0
 20
25.22142083607133
 30
0.0
 11
200.0
 21
-76.25023977794068
 31
0.0
  0
ENDSEC
  0
SECTION
  2
OBJECTS
  0
DICTIONARY
  5
C
330
0
100
AcDbDictionary
281
     1
  3
ACAD_COLOR
350
A601
  3
ACAD_GROUP
350
D
  3
ACAD_LAYOUT
350
1A
  3
ACAD_MATERIAL
350
A600
  3
ACAD_MLINESTYLE
350
17
  3
ACAD_PLOTSETTINGS
350
19
  3
ACAD_PLOTSTYLENAME
350
E
  3
ACAD_TABLESTYLE
350
A602
  3
ACDBHEADERROUNDTRIPXREC
350
A6FE
  3
ACDBVARIABLEDICTIONARY
350
30
  3
ACMDICTIONARY
350
4D
  3
AMG
350
3F
  3
AMGSNAPSETTINGS
350
73
  3
DWGPROPS
350
A6FD
  3
ENG_DATA
350
21C6
  3
FILENAME
350
21C9
  3
HOLD_DIC_DATA
350
21C4
  3
TABLE_DIC_DATA
350
1C0B
  3
ZWKSIZE
350
21CB
  0
DICTIONARY
  5
165
330
1F
100
AcDbDictionary
280
     1
281
     1
  3
ACAD_INDEX
360
A57F
  3
ACAD_LAYOUTSELFREF
360
A5B1
  0
DICTIONARY
  5
A5AF
330
1B
100
AcDbDictionary
280
     1
281
     1
  3
ACAD_LAYOUTSELFREF
360
A5B0
  0
DICTIONARY
  5
A601
102
{ACAD_REACTORS
330
C
102
}
330
C
100
AcDbDictionary
281
     1
  0
DICTIONARY
  5
D
102
{ACAD_REACTORS
330
C
102
}
330
C
100
AcDbDictionary
281
     1
  3
*A1
350
7C0D
  3
*A2
350
7C0E
  3
*A3
350
7FE3
  3
*A4
350
8E0E
  0
DICTIONARY
  5
1A
102
{ACAD_REACTORS
330
C
102
}
330
C
100
AcDbDictionary
281
     1
  3
Model
350
A604
  3
レイアウト1
350
A605
  0
DICTIONARY
  5
A600
102
{ACAD_REACTORS
330
C
102
}
330
C
100
AcDbDictionary
281
     1
  0
DICTIONARY
  5
17
102
{ACAD_REACTORS
330
C
102
}
330
C
100
AcDbDictionary
281
     1
  3
STANDARD
350
18
  0
DICTIONARY
  5
19
102
{ACAD_REACTORS
330
C
102
}
330
C
100
AcDbDictionary
281
     1
  0
ACDBDICTIONARYWDFLT
  5
E
102
{ACAD_REACTORS
330
C
102
}
330
C
100
AcDbDictionary
281
     1
  3
Normal
350
F
100
AcDbDictionaryWithDefault
340
F
  0
DICTIONARY
  5
A602
102
{ACAD_REACTORS
330
C
102
}
330
C
100
AcDbDictionary
281
     1
  3
Standard
350
A603
  0
DICTIONARY
  5
A6FE
102
{ACAD_REACTORS
330
C
102
}
330
C
100
AcDbDictionary
281
     1
  0
DICTIONARY
  5
30
102
{ACAD_REACTORS
330
C
102
}
330
C
100
AcDbDictionary
281
     1
  3
CTABLESTYLE
350
A6F9
  3
DIMASSOC
350
A6FA
  3
INDEXCTL
350
31
  3
PROJECTNAME
350
A6FB
  3
SORTENTS
350
42BE
  0
DICTIONARY
  5
4D
102
{ACAD_REACTORS
330
C
102
}
330
C
100
AcDbDictionary
281
     1
  3
ACMSTDDICTIONARY
350
17E
  3
AMDTSECTSYM_ARROWCOLOR
350
A67D
  0
DICTIONARY
  5
3F
102
{ACAD_REACTORS
330
C
102
}
330
C
100
AcDbDictionary
281
     1
  0
DICTIONARY
  5
73
102
{ACAD_REACTORS
330
C
102
}
330
C
100
AcDbDictionary
281
     1
  0
XRECORD
  5
A6FD
102
{ACAD_REACTORS
330
C
102
}
330
C
100
AcDbXrecord
280
     1
  1
DWGPROPS COOKIE
  2

  3

  4

  6

  7

  8

  9

300
AmdtFileType=82
301
=
302
=
303
=
304
=
305
=
306
=
307
=
308
=
309
=
 40
0.7097024652777778
 41
2451943.610431666
 42
2455603.397769271
  1

 90
        1
  0
DICTIONARY
  5
21C6
102
{ACAD_REACTORS
330
C
102
}
330
C
100
AcDbDictionary
281
     1
  3
ENG_ID
350
21C7
  0
DICTIONARY
  5
21C9
102
{ACAD_REACTORS
330
C
102
}
330
C
100
AcDbDictionary
281
     1
  3
FILENAME
350
21CA
  0
DICTIONARY
  5
21C4
102
{ACAD_REACTORS
330
C
102
}
330
C
100
AcDbDictionary
281
     1
  3
HOLD_DATA
350
21C5
  0
DICTIONARY
  5
1C0B
102
{ACAD_REACTORS
330
C
102
}
330
C
100
AcDbDictionary
281
     1
  3
INPUT_DATA
350
1C0D
  3
TABLE_DATA
350
1C0C
  0
DICTIONARY
  5
21CB
102
{ACAD_REACTORS
330
C
102
}
330
C
100
AcDbDictionary
281
     1
  3
ZWKSIZE
350
21CC
  0
DICTIONARY
  5
A57F
102
{ACAD_REACTORS
330
165
102
}
330
165
100
AcDbDictionary
281
     1
  3
*A1
350
A580
  0
XRECORD
  5
A5B1
102
{ACAD_REACTORS
330
165
102
}
330
165
100
AcDbXrecord
280
     1
340
1F
  0
XRECORD
  5
A5B0
102
{ACAD_REACTORS
330
A5AF
102
}
330
A5AF
100
AcDbXrecord
280
     1
340
1B
  0
GROUP
  5
7C0D
102
{ACAD_REACTORS
330
D
102
}
330
D
100
AcDbGroup
300

 70
     1
 71
     1
  0
GROUP
  5
7C0E
102
{ACAD_REACTORS
330
D
102
}
330
D
100
AcDbGroup
300

 70
     1
 71
     1
  0
GROUP
  5
7FE3
102
{ACAD_REACTORS
330
D
102
}
330
D
100
AcDbGroup
300

 70
     1
 71
     1
  0
GROUP
  5
8E0E
102
{ACAD_REACTORS
330
D
102
}
330
D
100
AcDbGroup
300

 70
     1
 71
     1
  0
LAYOUT
  5
A604
102
{ACAD_XDICTIONARY
360
A6FF
102
}
102
{ACAD_REACTORS
330
1A
102
}
330
1A
100
AcDbPlotSettings
  1

  2
SII LP-1010 (C2 VR)2R
  4

  6

 40
0.0
 41
0.0
 42
0.0
 43
0.0
 44
0.0
 45
0.0
 46
0.0
 47
0.0
 48
0.0
 49
0.0
140
0.0
141
0.0
142
1.0
143
1.0
 70
  1712
 72
     0
 73
     0
 74
     0
  7
sei_cad.ctb
 75
     0
147
1.0
148
0.0
149
0.0
100
AcDbLayout
  1
Model
 70
     1
 71
     0
 10
0.0
 20
0.0
 11
12.0
 21
9.0
 12
0.0
 22
0.0
 32
0.0
 14
0.0
 24
0.0
 34
0.0
 15
0.0
 25
0.0
 35
0.0
146
0.0
 13
0.0
 23
0.0
 33
0.0
 16
1.0
 26
0.0
 36
0.0
 17
0.0
 27
1.0
 37
0.0
 76
     0
330
1F
  0
LAYOUT
  5
A605
102
{ACAD_XDICTIONARY
360
A701
102
}
102
{ACAD_REACTORS
330
1A
102
}
330
1A
100
AcDbPlotSettings
  1

  2
SII LP-1010 (C2 VR)2R
  4

  6

 40
0.0
 41
0.0
 42
0.0
 43
0.0
 44
0.0
 45
0.0
 46
0.0
 47
0.0
 48
0.0
 49
0.0
140
0.0
141
0.0
142
1.0
143
1.0
 70
   688
 72
     0
 73
     0
 74
     5
  7
sei_cad.ctb
 75
    16
147
1.0
148
0.0
149
0.0
100
AcDbLayout
  1
レイアウト1
 70
     1
 71
     1
 10
0.0
 20
0.0
 11
420.0
 21
297.0
 12
0.0
 22
0.0
 32
0.0
 14
1.000000000000000E+20
 24
1.000000000000000E+20
 34
1.000000000000000E+20
 15
-1.000000000000000E+20
 25
-1.000000000000000E+20
 35
-1.000000000000000E+20
146
0.0
 13
0.0
 23
0.0
 33
0.0
 16
1.0
 26
0.0
 36
0.0
 17
0.0
 27
1.0
 37
0.0
 76
     0
330
1B
  0
MLINESTYLE
  5
18
102
{ACAD_REACTORS
330
17
102
}
330
17
100
AcDbMlineStyle
  2
STANDARD
 70
     0
  3

 62
   256
 51
90.0
 52
90.0
 71
     2
 49
0.5
 62
   256
  6
BYLAYER
 49
-0.5
 62
   256
  6
BYLAYER
  0
ACDBPLACEHOLDER
  5
F
102
{ACAD_REACTORS
330
E
102
}
330
E
  0
TABLESTYLE
  5
A603
102
{ACAD_REACTORS
330
A602
102
}
330
A602
100
AcDbTableStyle
  3
Standard
 70
     0
 71
     0
 40
1.5
 41
1.5
280
     0
281
     0
  7
STANDARD
140
4.5
170
     2
 62
     0
 63
     7
283
     0
274
    -2
284
     1
 64
     0
275
    -2
285
     1
 65
     0
276
    -2
286
     1
 66
     0
277
    -2
287
     1
 67
     0
278
    -2
288
     1
 68
     0
279
    -2
289
     1
 69
     0
  7
STANDARD
140
6.0
170
     5
 62
     0
 63
     7
283
     0
274
    -2
284
     1
 64
     0
275
    -2
285
     1
 65
     0
276
    -2
286
     1
 66
     0
277
    -2
287
     1
 67
     0
278
    -2
288
     1
 68
     0
279
    -2
289
     1
 69
     0
  7
STANDARD
140
4.5
170
     5
 62
     0
 63
     7
283
     0
274
    -2
284
     1
 64
     0
275
    -2
285
     1
 65
     0
276
    -2
286
     1
 66
     0
277
    -2
287
     1
 67
     0
278
    -2
288
     1
 68
     0
279
    -2
289
     1
 69
     0
  0
DICTIONARYVAR
  5
A6F9
102
{ACAD_REACTORS
330
30
102
}
330
30
100
DictionaryVariables
280
     0
  1
STANDARD
  0
DICTIONARYVAR
  5
A6FA
102
{ACAD_REACTORS
330
30
102
}
330
30
100
DictionaryVariables
280
     0
  1
1
  0
DICTIONARYVAR
  5
31
102
{ACAD_REACTORS
330
30
102
}
330
30
100
DictionaryVariables
280
     0
  1
1
  0
DICTIONARYVAR
  5
A6FB
102
{ACAD_REACTORS
330
30
102
}
330
30
100
DictionaryVariables
280
     0
  1

  0
DICTIONARYVAR
  5
42BE
102
{ACAD_REACTORS
330
30
102
}
330
30
100
DictionaryVariables
280
     0
  1
96
  0
DICTIONARY
  5
17E
102
{ACAD_REACTORS
330
4D
102
}
330
4D
100
AcDbDictionary
281
     1
  0
XRECORD
  5
A67D
102
{ACAD_REACTORS
330
4D
102
}
330
4D
100
AcDbXrecord
280
     1
 90
-1023410169
  0
XRECORD
  5
21C7
102
{ACAD_REACTORS
330
21C6
102
}
330
21C6
100
AcDbXrecord
280
     1
  1
HOLD
  0
XRECORD
  5
21CA
102
{ACAD_REACTORS
330
21C9
102
}
330
21C9
100
AcDbXrecord
280
     1
  1
21000065__00___
  0
XRECORD
  5
21C5
102
{ACAD_REACTORS
330
21C4
102
}
330
21C4
100
AcDbXrecord
280
     1
  1
クランクシャフト加工用 ^M^J１コーナー型 ^M^J15.875 ^M^J20 ^M^Jクランプオン ^M^J９０° ^M^J1 ^M^J鋼 ^M^J ^M^J ^M^J ^M^J ^M^J
  0
XRECORD
  5
1C0D
102
{ACAD_REACTORS
330
1C0B
102
}
330
1C0B
100
AcDbXrecord
280
     1
  1
1,,,,,,,,,^M^J2,,,,,,,,,^M^J3,,,,,,,,,^M^J4,,,,,,,,,^M^J5,,,,,,,,,^M^J6,,,,,,,,,^M^J7,,,,,,,,,^M^J8,,,,,,,,,^M^J9,,,,,,,,,^M^J10,,,,,,,,,
  0
XRECORD
  5
1C0C
102
{ACAD_REACTORS
330
1C0B
102
}
330
1C0B
100
AcDbXrecord
280
     1
  1
10,10
  0
XRECORD
  5
21CC
102
{ACAD_REACTORS
330
21CB
102
}
330
21CB
100
AcDbXrecord
280
     1
  1
3
  0
LAYER_INDEX
  5
A580
102
{ACAD_REACTORS
330
A57F
102
}
330
A57F
100
AcDbIndex
 40
2455603.397769271
100
AcDbLayerIndex
  8
0
360
A581
 90
        0
  8
AM_5
360
A582
 90
        7
  8
DEFPOINTS
360
A583
 90
        0
  8
AM_0
360
A584
 90
      107
  8
AM_6
360
A585
 90
        1
  8
AM_1
360
A586
 90
        2
  8
AM_7
360
A587
 90
        7
  8
PV0001_1
360
A588
 90
        4
  8
AM_11
360
A589
 90
        1
  0
DICTIONARY
  5
A6FF
330
A604
100
AcDbDictionary
280
     1
281
     1
  3
ACAD_XREC_ROUNDTRIP
360
A700
  0
DICTIONARY
  5
A701
330
A605
100
AcDbDictionary
280
     1
281
     1
  3
ACAD_XREC_ROUNDTRIP
360
A702
  0
IDBUFFER
  5
A581
330
0
100
AcDbIdBuffer
  0
IDBUFFER
  5
A582
330
0
100
AcDbIdBuffer
330
A2E8
330
A374
330
A38F
330
A39C
330
A3DF
330
A40C
330
A4C3
  0
IDBUFFER
  5
A583
330
0
100
AcDbIdBuffer
  0
IDBUFFER
  5
A584
330
0
100
AcDbIdBuffer
330
A0C6
330
A0C7
330
A0C9
330
A0CA
330
A0CB
330
A0CC
330
A0D1
330
A0D2
330
A0D3
330
A0D4
330
A0D6
330
A0D7
330
A0D8
330
A0D9
330
A0DA
330
A0DB
330
A0DC
330
A0DD
330
A0DE
330
A0DF
330
A0E0
330
A0E1
330
A0E2
330
A0E3
330
A0E4
330
A0E5
330
A0E6
330
A0E7
330
A0E8
330
A0E9
330
A0EA
330
A0EB
330
A0EC
330
A0ED
330
A0EE
330
A0F7
330
A0F8
330
A0FB
330
A0FD
330
A0FE
330
A0FF
330
A100
330
A103
330
A104
330
A105
330
A107
330
A108
330
A109
330
A10A
330
A10B
330
A10C
330
A10D
330
A10E
330
A113
330
A119
330
A121
330
A122
330
A124
330
A125
330
A127
330
A128
330
A129
330
A12A
330
A130
330
A131
330
A132
330
A135
330
A136
330
A137
330
A138
330
A139
330
A13A
330
A13B
330
A13C
330
A13D
330
A13E
330
A13F
330
A140
330
A141
330
A142
330
A143
330
A144
330
A145
330
A146
330
A147
330
A148
330
A149
330
A14A
330
A14B
330
A14C
330
A14D
330
A150
330
A154
330
A155
330
A156
330
A157
330
A15D
330
A15E
330
A15F
330
A161
330
A162
330
A163
330
A164
330
A165
330
A168
330
A326
330
A327
  0
IDBUFFER
  5
A585
330
0
100
AcDbIdBuffer
330
83BD
  0
IDBUFFER
  5
A586
330
0
100
AcDbIdBuffer
330
A0CE
330
A55F
  0
IDBUFFER
  5
A587
330
0
100
AcDbIdBuffer
330
A0C5
330
A0C8
330
A0F3
330
A0FC
330
A114
330
A117
330
A160
  0
IDBUFFER
  5
A588
330
0
100
AcDbIdBuffer
330
A126
330
A12B
330
A12C
330
A15A
  0
IDBUFFER
  5
A589
330
0
100
AcDbIdBuffer
330
A0FA
  0
XRECORD
  5
A700
102
{ACAD_REACTORS
330
A6FF
102
}
330
A6FF
100
AcDbXrecord
280
     1
102
SHADEPLOT
 70
     0
102
SHADEPLOTRESLEVEL
 70
     2
102
SHADEPLOTCUSTOMDPI
 70
   300
  0
XRECORD
  5
A702
102
{ACAD_REACTORS
330
A701
102
}
330
A701
100
AcDbXrecord
280
     1
102
SHADEPLOT
 70
     0
102
SHADEPLOTRESLEVEL
 70
     2
102
SHADEPLOTCUSTOMDPI
 70
   300
  0
ENDSEC
  0
EOF
