  0
SECTION
  2
HEADER
  9
$ACADVER
  1
AC1015
  9
$ACADMAINTVER
 70
    20
  9
$DWGCODEPAGE
  3
ANSI_932
  9
$INSBASE
 10
0.0
 20
0.0
 30
0.0
  9
$EXTMIN
 10
-97.99300641087803
 20
-101.1694324791392
 30
-0.0000000000022887
  9
$EXTMAX
 10
255.7277218386616
 20
59.34141925229869
 30
0.0000000000000001
  9
$LIMMIN
 10
-300.9283048332648
 20
-122.4598495585641
  9
$LIMMAX
 10
145.7706382952737
 20
134.3575133911215
  9
$ORTHOMODE
 70
     0
  9
$REGENMODE
 70
     1
  9
$FILLMODE
 70
     1
  9
$QTEXTMODE
 70
     0
  9
$MIRRTEXT
 70
     1
  9
$LTSCALE
 40
1.0
  9
$ATTMODE
 70
     1
  9
$TEXTSIZE
 40
2.5
  9
$TRACEWID
 40
1.0
  9
$TEXTSTYLE
  7
STANDARD
  9
$CLAYER
  8
AM_5
  9
$CELTYPE
  6
BYLAYER
  9
$CECOLOR
 62
   256
  9
$CELTSCALE
 40
1.0
  9
$DISPSILH
 70
     0
  9
$DIMSCALE
 40
1.0
  9
$DIMASZ
 40
2.5
  9
$DIMEXO
 40
0.0
  9
$DIMDLI
 40
10.0
  9
$DIMRND
 40
0.0
  9
$DIMDLE
 40
0.0
  9
$DIMEXE
 40
1.0
  9
$DIMTP
 40
0.1
  9
$DIMTM
 40
0.1000000001
  9
$DIMTXT
 40
3.799999999999998
  9
$DIMCEN
 40
0.0
  9
$DIMTSZ
 40
0.0
  9
$DIMTOL
 70
     0
  9
$DIMLIM
 70
     0
  9
$DIMTIH
 70
     0
  9
$DIMTOH
 70
     0
  9
$DIMSE1
 70
     0
  9
$DIMSE2
 70
     0
  9
$DIMTAD
 70
     3
  9
$DIMZIN
 70
     9
  9
$DIMBLK
  1
OPEN30
  9
$DIMASO
 70
     1
  9
$DIMSHO
 70
     1
  9
$DIMPOST
  1

  9
$DIMAPOST
  1
"
  9
$DIMALT
 70
     0
  9
$DIMALTD
 70
     2
  9
$DIMALTF
 40
0.0393701
  9
$DIMLFAC
 40
1.0
  9
$DIMTOFL
 70
     1
  9
$DIMTVP
 40
0.0
  9
$DIMTIX
 70
     0
  9
$DIMSOXD
 70
     0
  9
$DIMSAH
 70
     0
  9
$DIMBLK1
  1

  9
$DIMBLK2
  1

  9
$DIMSTYLE
  2
AM_JIS
  9
$DIMCLRD
 70
   256
  9
$DIMCLRE
 70
   256
  9
$DIMCLRT
 70
     2
  9
$DIMTFAC
 40
0.71
  9
$DIMGAP
 40
1.5
  9
$DIMJUST
 70
     0
  9
$DIMSD1
 70
     0
  9
$DIMSD2
 70
     0
  9
$DIMTOLJ
 70
     0
  9
$DIMTZIN
 70
     8
  9
$DIMALTZ
 70
     0
  9
$DIMALTTZ
 70
     0
  9
$DIMUPT
 70
     0
  9
$DIMDEC
 70
     2
  9
$DIMTDEC
 70
     2
  9
$DIMALTU
 70
     2
  9
$DIMALTTD
 70
     2
  9
$DIMTXSTY
  7
STANDARD
  9
$DIMAUNIT
 70
     1
  9
$DIMADEC
 70
     1
  9
$DIMALTRND
 40
0.0
  9
$DIMAZIN
 70
     2
  9
$DIMDSEP
 70
    46
  9
$DIMATFIT
 70
     3
  9
$DIMFRAC
 70
     0
  9
$DIMLDRBLK
  1
OPEN30
  9
$DIMLUNIT
 70
     2
  9
$DIMLWD
 70
    -1
  9
$DIMLWE
 70
    -1
  9
$DIMTMOVE
 70
     0
  9
$LUNITS
 70
     2
  9
$LUPREC
 70
     2
  9
$SKETCHINC
 40
1.0
  9
$FILLETRAD
 40
0.0
  9
$AUNITS
 70
     1
  9
$AUPREC
 70
     5
  9
$MENU
  1
.
  9
$ELEVATION
 40
0.0
  9
$PELEVATION
 40
0.0
  9
$THICKNESS
 40
0.0
  9
$LIMCHECK
 70
     0
  9
$CHAMFERA
 40
0.0
  9
$CHAMFERB
 40
0.0
  9
$CHAMFERC
 40
20.0
  9
$CHAMFERD
 40
0.0
  9
$SKPOLY
 70
     0
  9
$TDCREATE
 40
2451943.610431666
  9
$TDUCREATE
 40
2451943.235431667
  9
$TDUPDATE
 40
2455603.398330799
  9
$TDUUPDATE
 40
2455603.023330799
  9
$TDINDWG
 40
0.7410418750
  9
$TDUSRTIMER
 40
0.7410415162
  9
$USRTIMER
 70
     1
  9
$ANGBASE
 50
0.0
  9
$ANGDIR
 70
     0
  9
$PDMODE
 70
     0
  9
$PDSIZE
 40
0.0
  9
$PLINEWID
 40
0.0
  9
$SPLFRAME
 70
     0
  9
$SPLINETYPE
 70
     6
  9
$SPLINESEGS
 70
     8
  9
$HANDSEED
  5
AE86
  9
$SURFTAB1
 70
     6
  9
$SURFTAB2
 70
     6
  9
$SURFTYPE
 70
     6
  9
$SURFU
 70
     6
  9
$SURFV
 70
     6
  9
$UCSBASE
  2

  9
$UCSNAME
  2

  9
$UCSORG
 10
0.0
 20
0.0
 30
0.0
  9
$UCSXDIR
 10
1.0
 20
0.0
 30
0.0
  9
$UCSYDIR
 10
0.0
 20
1.0
 30
0.0
  9
$UCSORTHOREF
  2

  9
$UCSORTHOVIEW
 70
     0
  9
$UCSORGTOP
 10
0.0
 20
0.0
 30
0.0
  9
$UCSORGBOTTOM
 10
0.0
 20
0.0
 30
0.0
  9
$UCSORGLEFT
 10
0.0
 20
0.0
 30
0.0
  9
$UCSORGRIGHT
 10
0.0
 20
0.0
 30
0.0
  9
$UCSORGFRONT
 10
0.0
 20
0.0
 30
0.0
  9
$UCSORGBACK
 10
0.0
 20
0.0
 30
0.0
  9
$PUCSBASE
  2

  9
$PUCSNAME
  2

  9
$PUCSORG
 10
0.0
 20
0.0
 30
0.0
  9
$PUCSXDIR
 10
1.0
 20
0.0
 30
0.0
  9
$PUCSYDIR
 10
0.0
 20
1.0
 30
0.0
  9
$PUCSORTHOREF
  2

  9
$PUCSORTHOVIEW
 70
     0
  9
$PUCSORGTOP
 10
0.0
 20
0.0
 30
0.0
  9
$PUCSORGBOTTOM
 10
0.0
 20
0.0
 30
0.0
  9
$PUCSORGLEFT
 10
0.0
 20
0.0
 30
0.0
  9
$PUCSORGRIGHT
 10
0.0
 20
0.0
 30
0.0
  9
$PUCSORGFRONT
 10
0.0
 20
0.0
 30
0.0
  9
$PUCSORGBACK
 10
0.0
 20
0.0
 30
0.0
  9
$USERI1
 70
     0
  9
$USERI2
 70
     0
  9
$USERI3
 70
     0
  9
$USERI4
 70
     0
  9
$USERI5
 70
     0
  9
$USERR1
 40
0.0
  9
$USERR2
 40
0.0
  9
$USERR3
 40
0.0
  9
$USERR4
 40
0.0
  9
$USERR5
 40
0.0
  9
$WORLDVIEW
 70
     1
  9
$SHADEDGE
 70
     3
  9
$SHADEDIF
 70
    70
  9
$TILEMODE
 70
     1
  9
$MAXACTVP
 70
    64
  9
$PINSBASE
 10
0.0
 20
0.0
 30
0.0
  9
$PLIMCHECK
 70
     0
  9
$PEXTMIN
 10
1.000000000000000E+20
 20
1.000000000000000E+20
 30
1.000000000000000E+20
  9
$PEXTMAX
 10
-1.000000000000000E+20
 20
-1.000000000000000E+20
 30
-1.000000000000000E+20
  9
$PLIMMIN
 10
0.0
 20
0.0
  9
$PLIMMAX
 10
420.0
 20
297.0
  9
$UNITMODE
 70
     0
  9
$VISRETAIN
 70
     1
  9
$PLINEGEN
 70
     0
  9
$PSLTSCALE
 70
     1
  9
$TREEDEPTH
 70
  3020
  9
$CMLSTYLE
  2
STANDARD
  9
$CMLJUST
 70
     0
  9
$CMLSCALE
 40
20.0
  9
$PROXYGRAPHICS
 70
     1
  9
$MEASUREMENT
 70
     1
  9
$CELWEIGHT
370
    -1
  9
$ENDCAPS
280
     0
  9
$JOINSTYLE
280
     0
  9
$LWDISPLAY
290
     0
  9
$INSUNITS
 70
     4
  9
$HYPERLINKBASE
  1

  9
$STYLESHEET
  1
sei_cad.ctb
  9
$XEDIT
290
     1
  9
$CEPSNTYPE
380
     0
  9
$PSTYLEMODE
290
     1
  9
$FINGERPRINTGUID
  2
{C77AB3BE-9CA2-11D3-BAF3-006094EB760E}
  9
$VERSIONGUID
  2
{8620E802-8F00-4CED-90D7-AF67B5B57D50}
  9
$EXTNAMES
290
     1
  9
$PSVPSCALE
 40
0.0
  9
$OLESTARTUP
290
     0
  0
ENDSEC
  0
SECTION
  2
CLASSES
  0
CLASS
  1
ACDBDICTIONARYWDFLT
  2
AcDbDictionaryWithDefault
  3
ObjectDBX Classes
 90
        0
280
     0
281
     0
  0
CLASS
  1
ACDBPLACEHOLDER
  2
AcDbPlaceHolder
  3
ObjectDBX Classes
 90
        0
280
     0
281
     0
  0
CLASS
  1
LAYOUT
  2
AcDbLayout
  3
ObjectDBX Classes
 90
        0
280
     0
281
     0
  0
CLASS
  1
ACME_DOCUMENT
  2
AcMeDbDoc
  3
AcMeServices
 90
        0
280
     0
281
     0
  0
CLASS
  1
ACMESCOPE
  2
AcMeScope
  3
AcMeServices
 90
        0
280
     0
281
     0
  0
CLASS
  1
ACMECOMMANDHISTORY
  2
AcMeCommandHistory
  3
AcMeServices
 90
        0
280
     0
281
     0
  0
CLASS
  1
DICTIONARYVAR
  2
AcDbDictionaryVar
  3
ObjectDBX Classes
 90
        0
280
     0
281
     0
  0
CLASS
  1
ACIMSYSVARMAN
  2
AcImSysVarManager
  3
AcMeServices
 90
        0
280
     0
281
     0
  0
CLASS
  1
ACIMREALSYSVAR
  2
AcImRealSysVar
  3
AcMeServices
 90
        0
280
     0
281
     0
  0
CLASS
  1
ACIMINTSYSVAR
  2
AcImIntSysVar
  3
AcMeServices
 90
        0
280
     0
281
     0
  0
CLASS
  1
ACMEDRAWINGMAN
  2
AcMeDrawingMan
  3
AcMeServices
 90
        0
280
     0
281
     0
  0
CLASS
  1
ACMEVIEW
  2
AcMeView
  3
AcMeServices
 90
        0
280
     0
281
     0
  0
CLASS
  1
ACDBENTITYCACHE
  2
AcMeEntityCache
  3
AcMeServices
 90
        0
280
     0
281
     0
  0
CLASS
  1
GSMANAGER
  2
AcMeGSManager
  3
AcMeServices
 90
        0
280
     0
281
     0
  0
CLASS
  1
AMDTINTERNALREACTOR
  2
AmdtInternalReactor
  3
AcMeServices
 90
        0
280
     0
281
     0
  0
CLASS
  1
ACMESTATEMGR
  2
AcMeStateMgr
  3
AcMeServices
 90
        0
280
     0
281
     0
  0
CLASS
  1
ACME_DATABASE
  2
AcMeDbDatabase
  3
AcMeServices
 90
        0
280
     0
281
     0
  0
CLASS
  1
ACRFINSADJUSTERMGR
  2
AcRfInsAdjusterMgr
  3
AcMeServices
 90
        0
280
     0
281
     0
  0
CLASS
  1
AMGSETTINGSOBJ
  2
AmgSettingsObj
  3
"AcadM|Product Description: AutoCAD Mechanical 2000|Company: Autodesk"
 90
        0
280
     0
281
     0
  0
CLASS
  1
AMGOBJPROPCFG
  2
AmgObjPropCfg
  3
"AmgLay|Product Description: AutoCAD Mechanical 2000|Company: Autodesk"
 90
        1
280
     0
281
     0
  0
CLASS
  1
ACMDATADICTIONARY
  2
AcmDataDictionary
  3
"AcmSymBB|Product Description: AutoCAD Mechanical 2004 DX|Company: Autodesk"
 90
        0
280
     0
281
     0
  0
CLASS
  1
ACMDATAENTRYBLOCK
  2
AcmDataEntryBlock
  3
"AcmSymBB|Product Description: AutoCAD Mechanical 2004 DX|Company: Autodesk"
 90
    32768
280
     0
281
     0
  0
CLASS
  1
ACIMSTRSYSVAR
  2
AcImStrSysVar
  3
AcMeServices
 90
        0
280
     0
281
     0
  0
CLASS
  1
ACAMGFILTERDAT
  2
AcAmgFilterDat
  3
"AcadM|Product Description: AutoCAD Mechanical 2000|Company: Autodesk"
 90
    32768
280
     0
281
     0
  0
CLASS
  1
LAYER_INDEX
  2
AcDbLayerIndex
  3
ObjectDBX Classes
 90
        0
280
     0
281
     0
  0
CLASS
  1
IDBUFFER
  2
AcDbIdBuffer
  3
ObjectDBX Classes
 90
        0
280
     0
281
     0
  0
CLASS
  1
ACMSTANDARDJIS
  2
AcmStandardJIS
  3
"Amdt_StdImp|Product Description: AutoCAD Mechanical 2004 DX|Company: Autodesk"
 90
    32768
280
     0
281
     0
  0
CLASS
  1
ACMSURFSTANDARDJIS
  2
AcmSurfTextStdJIS
  3
"Amdt_StdImp|Product Description: AutoCAD Mechanical 2004 DX|Company: Autodesk"
 90
    32768
280
     0
281
     0
  0
CLASS
  1
ACMFCFSTANDARDJIS
  2
AcmFCFStdJIS
  3
"Amdt_StdImp|Product Description: AutoCAD Mechanical 2004 DX|Company: Autodesk"
 90
    32768
280
     0
281
     0
  0
CLASS
  1
ACMWELDSTANDARDJIS
  2
AcmWeldingStdJIS
  3
"Amdt_StdImp|Product Description: AutoCAD Mechanical 2004 DX|Company: Autodesk"
 90
    32768
280
     0
281
     0
  0
CLASS
  1
ACMIDSTANDARDJIS
  2
AcmIdStdJIS
  3
"Amdt_StdImp|Product Description: AutoCAD Mechanical 2004 DX|Company: Autodesk"
 90
    32768
280
     0
281
     0
  0
CLASS
  1
ACMDATUMSTANDARDJIS
  2
AcmDatumStdJIS
  3
"Amdt_StdImp|Product Description: AutoCAD Mechanical 2004 DX|Company: Autodesk"
 90
    32768
280
     0
281
     0
  0
CLASS
  1
ACMBOMSTANDARDJIS
  2
AcmBOMStdJIS
  3
"Amdt_StdImp|Product Description: AutoCAD Mechanical 2004 DX|Company: Autodesk"
 90
    32768
280
     0
281
     0
  0
CLASS
  1
AMDTNOTE
  2
AmdtNote
  3
"AcmSymBB|Product Description: AutoCAD Mechanical 2004 DX|Company: Autodesk"
 90
    33791
280
     0
281
     1
  0
CLASS
  1
ACMDATAENTRYPART
  2
AcmDataEntryPart
  3
"AcmSymBB|Product Description: AutoCAD Mechanical 2004 DX|Company: Autodesk"
 90
    32768
280
     0
281
     0
  0
CLASS
  1
ACMPARTREF
  2
AcmPartRef
  3
"AcmSymBB|Product Description: AutoCAD Mechanical 2004 DX|Company: Autodesk"
 90
    33791
280
     0
281
     1
  0
CLASS
  1
ACDB_PROXY_ENTITY_DATA
  2
AcDbProxyEntityData
  3
ObjectDBX Classes
 90
    32768
280
     0
281
     0
  0
CLASS
  1
TABLESTYLE
  2
AcDbTableStyle
  3
ObjectDBX Classes
 90
     2047
280
     0
281
     0
  0
CLASS
  1
ACGREFMASTER
  2
AcGrefMaster
  3
AcAttribServices
 90
        0
280
     0
281
     0
  0
CLASS
  1
AM_DRAWING_MGR
  2
AcDmDwgMgr
  3
AcMechDwgViewMgmt
 90
        0
280
     0
281
     0
  0
CLASS
  1
AM_DWG_DOCUMENT
  2
AcDmDwgDocument
  3
AcMechDwgViewMgmt
 90
        0
280
     0
281
     0
  0
CLASS
  1
AM_DWG_SHEET
  2
AcDmSheet
  3
AcMechDwgViewMgmt
 90
        0
280
     0
281
     0
  0
CLASS
  1
AM_VIEWDIMPARMAP
  2
AcDmViewDimParMap
  3
AcMechDwgViewMgmt
 90
        0
280
     0
281
     0
  0
CLASS
  1
AM_DWGMGR_NAME
  2
AcDmDwgMgrName
  3
AcMechDwgViewMgmt
 90
        0
280
     0
281
     0
  0
CLASS
  1
ACGREFACADMASTER
  2
AcGrefacadMaster
  3
AcGrefServices
 90
        0
280
     0
281
     0
  0
CLASS
  1
AMDTMENUSTATEMGR
  2
AmdtMenuStateMgr
  3
McadcomServices
 90
        0
280
     0
281
     0
  0
CLASS
  1
AMDTMCOMMENUSTATE
  2
AmdtMcomMenuState
  3
McadcomServices
 90
        0
280
     0
281
     0
  0
CLASS
  1
AMIMASTER
  2
AmiMaster
  3
AmiServices
 90
        0
280
     0
281
     0
  0
CLASS
  1
MAPIAMMOUDLE
  2
MApiAmModule
  3
MApiAmServices
 90
        0
280
     0
281
     0
  0
CLASS
  1
AMDTADMENUSTATE
  2
AmdtAdMenuState
  3
DesignerServices
 90
        0
280
     0
281
     0
  0
CLASS
  1
ADAPPL
  2
AcAdAppl
  3
DesignerServices
 90
        0
280
     0
281
     0
  0
CLASS
  1
DEPMGR
  2
AcAdDepMgr
  3
DesignerServices
 90
        0
280
     0
281
     0
  0
CLASS
  1
PARAMMGR
  2
AcAdParamMgr
  3
DesignerServices
 90
        0
280
     0
281
     0
  0
CLASS
  1
PARAMSCOPE
  2
AcAdParamScope
  3
DesignerServices
 90
        0
280
     0
281
     0
  0
CLASS
  1
NAMEDAPPL
  2
AcAdNamedAppl
  3
DesignerServices
 90
        0
280
     0
281
     0
  0
CLASS
  1
AMDTDMMENUSTATE
  2
AmdtDmMenuState
  3
AcMechDwgViewMgmt
 90
        0
280
     0
281
     0
  0
CLASS
  1
AMDTAMMENUSTATE
  2
AmdtAmMenuState
  3
DesignerAssemblies
 90
        0
280
     0
281
     0
  0
CLASS
  1
ACAMPROJECT
  2
AcAmProject
  3
DesignerAssemblies
 90
        0
280
     0
281
     0
  0
CLASS
  1
ACAMGRCOMPDEF
  2
AcAmGrCompDef
  3
DesignerAssemblies
 90
        0
280
     0
281
     0
  0
CLASS
  1
ACCMCONTEXT
  2
AcCmContext
  3
DesignerAssemblies
 90
        0
280
     0
281
     0
  0
CLASS
  1
ACAMCOMPDEF
  2
AcAmCompDef
  3
DesignerAssemblies
 90
        0
280
     0
281
     0
  0
CLASS
  1
ACAMCOMPDEFMGR
  2
AcAmCompDefMgr
  3
DesignerAssemblies
 90
        0
280
     0
281
     0
  0
CLASS
  1
AMCONTEXTMGR
  2
AcAmContextMgr
  3
DesignerAssemblies
 90
        0
280
     0
281
     0
  0
CLASS
  1
ACAMCONTEXTMODELER
  2
AcAmContextModeler
  3
DesignerAssemblies
 90
        0
280
     0
281
     0
  0
CLASS
  1
CATALOGSTATE
  2
AcAmCatalogState
  3
DesignerAssemblies
 90
        0
280
     0
281
     0
  0
CLASS
  1
ACAMGRCOMPDEFSET
  2
AcAmGrCompDefSet
  3
DesignerAssemblies
 90
        0
280
     0
281
     0
  0
CLASS
  1
AMDTBROWSERDBTAB
  2
AmdtBrowserDbTab
  3
McadcomServices
 90
        0
280
     0
281
     0
  0
CLASS
  1
CBROWSERAPPOBJECT
  2
CBrowserAppObject
  3
McadcomServices
 90
        0
280
     0
281
     0
  0
CLASS
  1
DM_PLACEHOLDER
  2
AcDmSelsetPlaceholder
  3
AcMechDwgViewMgmt
 90
        0
280
     0
281
     0
  0
ENDSEC
  0
SECTION
  2
TABLES
  0
TABLE
  2
VPORT
  5
8
330
0
100
AcDbSymbolTable
 70
     3
  0
VPORT
  5
AE7F
330
8
100
AcDbSymbolTableRecord
100
AcDbViewportTableRecord
  2
*Active
 70
     0
 10
0.0
 20
0.0
 11
1.0
 21
1.0
 12
78.86735771389179
 22
-20.91400661342027
 13
0.0
 23
0.0
 14
2.5
 24
2.5
 15
10.0
 25
10.0
 16
0.0
 26
0.0
 36
1.0
 17
0.0
 27
0.0
 37
0.0
 40
163.0589723576289
 41
2.176400476758045
 42
50.0
 43
0.0
 44
0.0
 50
0.0
 51
0.0
 71
     0
 72
  2000
 73
     1
 74
     3
 75
     0
 76
     0
 77
     0
 78
     0
281
     0
 65
     0
110
0.0
120
0.0
130
0.0
111
1.0
121
0.0
131
0.0
112
0.0
122
1.0
132
0.0
 79
     0
146
0.0
  0
ENDTAB
  0
TABLE
  2
LTYPE
  5
5
330
0
100
AcDbSymbolTable
 70
    14
  0
LTYPE
  5
14
330
5
100
AcDbSymbolTableRecord
100
AcDbLinetypeTableRecord
  2
BYBLOCK
 70
     0
  3

 72
    65
 73
     0
 40
0.0
  0
LTYPE
  5
15
330
5
100
AcDbSymbolTableRecord
100
AcDbLinetypeTableRecord
  2
BYLAYER
 70
     0
  3

 72
    65
 73
     0
 40
0.0
  0
LTYPE
  5
16
330
5
100
AcDbSymbolTableRecord
100
AcDbLinetypeTableRecord
  2
CONTINUOUS
 70
     0
  3
Solid line
 72
    65
 73
     0
 40
0.0
  0
LTYPE
  5
43
330
5
100
AcDbSymbolTableRecord
100
AcDbLinetypeTableRecord
  2
AM_ISO02W050
 70
     0
  3
__ __ __ __ __ __ __ __ __ __ __ __ __ __ __
 72
    65
 73
     2
 40
7.5
 49
6.0
 74
     0
 49
-1.5
 74
     0
  0
LTYPE
  5
44
330
5
100
AcDbSymbolTableRecord
100
AcDbLinetypeTableRecord
  2
AM_ISO08W050
 70
     0
  3
____ . ____ . ____ . ____ . ____ . ____ . ____
 72
    65
 73
     4
 40
18.0
 49
12.0
 74
     0
 49
-1.5
 74
     0
 49
3.0
 74
     0
 49
-1.5
 74
     0
  0
LTYPE
  5
45
330
5
100
AcDbSymbolTableRecord
100
AcDbLinetypeTableRecord
  2
AM_ISO09W050
 70
     0
  3
_____ . . _____ . . _____ . . ____ .. ____
 72
    65
 73
     6
 40
22.5
 49
12.0
 74
     0
 49
-1.5
 74
     0
 49
3.0
 74
     0
 49
-1.5
 74
     0
 49
3.0
 74
     0
 49
-1.5
 74
     0
  0
LTYPE
  5
46
330
5
100
AcDbSymbolTableRecord
100
AcDbLinetypeTableRecord
  2
AMCONSTR
 70
     0
  3
_______________________
 72
    65
 73
     2
 40
9999.0
 49
9999.0
 74
     0
 49
0.0
 74
     0
  0
LTYPE
  5
47
330
5
100
AcDbSymbolTableRecord
100
AcDbLinetypeTableRecord
  2
AM_ISO02W050X2
 70
     0
  3
 _ _ _ _ _ _ _ _ _ _ _ _
 72
    65
 73
     2
 40
3.75
 49
3.0
 74
     0
 49
-0.75
 74
     0
  0
LTYPE
  5
48
330
5
100
AcDbSymbolTableRecord
100
AcDbLinetypeTableRecord
  2
AM_ISO08W050X2
 70
     0
  3
__ . __ . __ . __ . __ . __
 72
    65
 73
     4
 40
9.0
 49
6.0
 74
     0
 49
-0.75
 74
     0
 49
1.5
 74
     0
 49
-0.75
 74
     0
  0
LTYPE
  5
4B
330
5
100
AcDbSymbolTableRecord
100
AcDbLinetypeTableRecord
  2
AMZIGZAG
 70
     0
  3
/\/-/\/-/\/-/\/-/\/-/\/
 72
    65
 73
     2
 40
11.00009999999999
 49
0.0001
 74
     4
 75
   135
340
4A
 46
0.04
 50
0.0
 44
0.0
 45
0.0
 49
-11.0
 74
     0
  0
LTYPE
  5
A2E3
330
5
100
AcDbSymbolTableRecord
100
AcDbLinetypeTableRecord
  2
PHANTOM
 70
     0
  3
Phantom ______  __  __  ______  __  __  ______
 72
    65
 73
     6
 40
63.5
 49
31.75
 74
     0
 49
-6.349999999999998
 74
     0
 49
6.349999999999998
 74
     0
 49
-6.349999999999998
 74
     0
 49
6.349999999999998
 74
     0
 49
-6.349999999999998
 74
     0
  0
LTYPE
  5
ADDC
330
5
100
AcDbSymbolTableRecord
100
AcDbLinetypeTableRecord
  2
HIDDEN
 70
     0
  3
Hidden __ __ __ __ __ __ __ __ __ __ __ __ __ _
 72
    65
 73
     2
 40
9.524999999999998
 49
6.349999999999999
 74
     0
 49
-3.174999999999999
 74
     0
  0
LTYPE
  5
ADDD
330
5
100
AcDbSymbolTableRecord
100
AcDbLinetypeTableRecord
  2
PHANTOM2
 70
     0
  3
Phantom (.5x) ___ _ _ ___ _ _ ___ _ _ ___ _ _
 72
    65
 73
     6
 40
31.75
 49
15.875
 74
     0
 49
-3.174999999999999
 74
     0
 49
3.174999999999999
 74
     0
 49
-3.174999999999999
 74
     0
 49
3.174999999999999
 74
     0
 49
-3.174999999999999
 74
     0
  0
LTYPE
  5
ADDE
330
5
100
AcDbSymbolTableRecord
100
AcDbLinetypeTableRecord
  2
CENTER
 70
     0
  3
Center ____ _ ____ _ ____ _ ____ _ ____ _ ____
 72
    65
 73
     4
 40
50.8
 49
31.75
 74
     0
 49
-6.349999999999999
 74
     0
 49
6.349999999999999
 74
     0
 49
-6.349999999999999
 74
     0
  0
ENDTAB
  0
TABLE
  2
LAYER
  5
2
330
0
100
AcDbSymbolTable
 70
    12
  0
LAYER
  5
10
330
2
100
AcDbSymbolTableRecord
100
AcDbLayerTableRecord
  2
0
 70
     0
 62
     7
  6
CONTINUOUS
370
    -3
390
F
  0
LAYER
  5
7D
330
2
100
AcDbSymbolTableRecord
100
AcDbLayerTableRecord
  2
AM_5
 70
     0
 62
     3
  6
CONTINUOUS
370
    -3
390
F
  0
LAYER
  5
7F
330
2
100
AcDbSymbolTableRecord
100
AcDbLayerTableRecord
  2
DEFPOINTS
 70
     0
 62
     7
  6
CONTINUOUS
290
     0
370
    -3
390
F
  0
LAYER
  5
12B1
330
2
100
AcDbSymbolTableRecord
100
AcDbLayerTableRecord
  2
AM_0
 70
     0
 62
     7
  6
CONTINUOUS
370
    -3
390
F
  0
LAYER
  5
2222
330
2
100
AcDbSymbolTableRecord
100
AcDbLayerTableRecord
  2
AM_6
 70
     0
 62
     2
  6
CONTINUOUS
370
    -3
390
F
  0
LAYER
  5
4379
330
2
100
AcDbSymbolTableRecord
100
AcDbLayerTableRecord
  2
AM_1
 70
     0
 62
     3
  6
CONTINUOUS
370
    -3
390
F
  0
LAYER
  5
7DB2
330
2
100
AcDbSymbolTableRecord
100
AcDbLayerTableRecord
  2
AM_7
 70
     0
 62
     4
  6
AM_ISO08W050
370
    -3
390
F
  0
LAYER
  5
8B83
330
2
100
AcDbSymbolTableRecord
100
AcDbLayerTableRecord
  2
PV0001_1
 70
     0
 62
     7
  6
CONTINUOUS
370
    -3
390
F
  0
LAYER
  5
A2E4
330
2
100
AcDbSymbolTableRecord
100
AcDbLayerTableRecord
  2
AM_11
 70
     0
 62
     3
  6
PHANTOM
370
    -3
390
F
  0
ENDTAB
  0
TABLE
  2
STYLE
  5
3
330
0
100
AcDbSymbolTable
 70
     4
  0
STYLE
  5
11
330
3
100
AcDbSymbolTableRecord
100
AcDbTextStyleTableRecord
  2
STANDARD
 70
     0
 40
0.0
 41
1.0
 50
0.0
 71
     0
 42
2.5
  3
ISOCP.SHX
  4
EXTFONT.SHX
  0
STYLE
  5
4A
330
3
100
AcDbSymbolTableRecord
100
AcDbTextStyleTableRecord
  2

 70
     1
 40
0.0
 41
1.0
 50
0.0
 71
     0
 42
2.5
  3
ltypeshp.shx
  4

  0
ENDTAB
  0
TABLE
  2
VIEW
  5
6
330
0
100
AcDbSymbolTable
 70
     6
  0
VIEW
  5
A30
330
6
100
AcDbSymbolTableRecord
100
AcDbViewTableRecord
  2
AM_VIEW1
 70
     0
 40
148.5
 10
112.0719649561952
 20
222.75
 41
224.1439299123904
 11
0.0
 21
0.0
 31
1.0
 12
0.0
 22
0.0
 32
0.0
 42
50.0
 43
0.0
 44
0.0
 50
0.0
 71
     0
281
     0
 72
     0
  0
VIEW
  5
A31
330
6
100
AcDbSymbolTableRecord
100
AcDbViewTableRecord
  2
AM_VIEW2
 70
     0
 40
148.5
 10
307.9280350438047
 20
222.75
 41
224.1439299123904
 11
0.0
 21
0.0
 31
1.0
 12
0.0
 22
0.0
 32
0.0
 42
50.0
 43
0.0
 44
0.0
 50
0.0
 71
     0
281
     0
 72
     0
  0
VIEW
  5
A32
330
6
100
AcDbSymbolTableRecord
100
AcDbViewTableRecord
  2
AM_VIEW3
 70
     0
 40
148.5
 10
112.0719649561952
 20
74.25
 41
224.1439299123904
 11
0.0
 21
0.0
 31
1.0
 12
0.0
 22
0.0
 32
0.0
 42
50.0
 43
0.0
 44
0.0
 50
0.0
 71
     0
281
     0
 72
     0
  0
VIEW
  5
A33
330
6
100
AcDbSymbolTableRecord
100
AcDbViewTableRecord
  2
AM_VIEW4
 70
     0
 40
148.5
 10
307.9280350438047
 20
74.25
 41
224.1439299123904
 11
0.0
 21
0.0
 31
1.0
 12
0.0
 22
0.0
 32
0.0
 42
50.0
 43
0.0
 44
0.0
 50
0.0
 71
     0
281
     0
 72
     0
  0
VIEW
  5
A34
330
6
100
AcDbSymbolTableRecord
100
AcDbViewTableRecord
  2
AM_VIEW5
 70
     0
 40
148.5
 10
210.0
 20
148.5
 41
224.1439299123904
 11
0.0
 21
0.0
 31
1.0
 12
0.0
 22
0.0
 32
0.0
 42
50.0
 43
0.0
 44
0.0
 50
0.0
 71
     0
281
     0
 72
     0
  0
VIEW
  5
A35
330
6
100
AcDbSymbolTableRecord
100
AcDbViewTableRecord
  2
AM_VIEW6
 70
     0
 40
296.9970299999999
 10
210.0
 20
148.5
 41
448.2833769461826
 11
0.0
 21
0.0
 31
1.0
 12
0.0
 22
0.0
 32
0.0
 42
50.0
 43
0.0
 44
0.0
 50
0.0
 71
     0
281
     0
 72
     0
  0
ENDTAB
  0
TABLE
  2
UCS
  5
7
330
0
100
AcDbSymbolTable
 70
     0
  0
ENDTAB
  0
TABLE
  2
APPID
  5
9
330
0
100
AcDbSymbolTable
 70
    42
  0
APPID
  5
12
330
9
100
AcDbSymbolTableRecord
100
AcDbRegAppTableRecord
  2
ACAD
 70
     0
  0
APPID
  5
2C
330
9
100
AcDbSymbolTableRecord
100
AcDbRegAppTableRecord
  2
MCAD_NO_VIS
 70
     0
  0
APPID
  5
2D
330
9
100
AcDbSymbolTableRecord
100
AcDbRegAppTableRecord
  2
ACAD_TEMP_GRAPHIC
 70
     0
  0
APPID
  5
B9
330
9
100
AcDbSymbolTableRecord
100
AcDbRegAppTableRecord
  2
GENIUS_GENDTOL_13
 70
     0
  0
APPID
  5
359
330
9
100
AcDbSymbolTableRecord
100
AcDbRegAppTableRecord
  2
GENIUS_GENREC_14
 70
     0
  0
APPID
  5
35A
330
9
100
AcDbSymbolTableRecord
100
AcDbRegAppTableRecord
  2
GENIUS_GENODEF_13
 70
     0
  0
APPID
  5
35B
330
9
100
AcDbSymbolTableRecord
100
AcDbRegAppTableRecord
  2
GENIUS_GENOBJ-N-REC_13
 70
     0
  0
APPID
  5
667
330
9
100
AcDbSymbolTableRecord
100
AcDbRegAppTableRecord
  2
GENIUS_GENCFG_13
 70
     0
  0
APPID
  5
668
330
9
100
AcDbSymbolTableRecord
100
AcDbRegAppTableRecord
  2
GENIUS_GENCFG0_13
 70
     0
  0
APPID
  5
669
330
9
100
AcDbSymbolTableRecord
100
AcDbRegAppTableRecord
  2
GENIUS_GENCFG1_13
 70
     0
  0
APPID
  5
66A
330
9
100
AcDbSymbolTableRecord
100
AcDbRegAppTableRecord
  2
GENIUS_GENCFG2_13
 70
     0
  0
APPID
  5
66B
330
9
100
AcDbSymbolTableRecord
100
AcDbRegAppTableRecord
  2
GENIUS_GENCFG3_13
 70
     0
  0
APPID
  5
66C
330
9
100
AcDbSymbolTableRecord
100
AcDbRegAppTableRecord
  2
GENIUS_GENCFG4_13
 70
     0
  0
APPID
  5
A76
330
9
100
AcDbSymbolTableRecord
100
AcDbRegAppTableRecord
  2
GENIUS_GENBLLY_14
 70
     0
  0
APPID
  5
A77
330
9
100
AcDbSymbolTableRecord
100
AcDbRegAppTableRecord
  2
GENIUS_GENOBJ-N-CEN_13
 70
     0
  0
APPID
  5
A83
330
9
100
AcDbSymbolTableRecord
100
AcDbRegAppTableRecord
  2
GENIUS_GENTRA_14
 70
     0
  0
APPID
  5
A8D
330
9
100
AcDbSymbolTableRecord
100
AcDbRegAppTableRecord
  2
GENIUS_GENOBJ-N-TIT_13
 70
     0
  0
APPID
  5
A8E
330
9
100
AcDbSymbolTableRecord
100
AcDbRegAppTableRecord
  2
GENIUS_GENTITLE_13
 70
     0
  0
APPID
  5
A8F
330
9
100
AcDbSymbolTableRecord
100
AcDbRegAppTableRecord
  2
GENIUS_GENOENT_13
 70
     0
  0
APPID
  5
A90
330
9
100
AcDbSymbolTableRecord
100
AcDbRegAppTableRecord
  2
GENIUS_GENOREF_13
 70
     0
  0
APPID
  5
A91
330
9
100
AcDbSymbolTableRecord
100
AcDbRegAppTableRecord
  2
GENIUS_GENOLIS_13
 70
     0
  0
APPID
  5
A92
330
9
100
AcDbSymbolTableRecord
100
AcDbRegAppTableRecord
  2
GENIUS_GENZVEED_13
 70
     0
  0
APPID
  5
A93
330
9
100
AcDbSymbolTableRecord
100
AcDbRegAppTableRecord
  2
GENIUS_GENSCREG_15
 70
     0
  0
APPID
  5
A94
330
9
100
AcDbSymbolTableRecord
100
AcDbRegAppTableRecord
  2
GENIUS_GENOBJ-N-SDF_13
 70
     0
  0
APPID
  5
12B5
330
9
100
AcDbSymbolTableRecord
100
AcDbRegAppTableRecord
  2
GENIUS_GENOBJ-N-RSBK_13
 70
     0
  0
APPID
  5
12B6
330
9
100
AcDbSymbolTableRecord
100
AcDbRegAppTableRecord
  2
GENIUS_GENOBJ-N-LIB_13
 70
     0
  0
APPID
  5
12B7
330
9
100
AcDbSymbolTableRecord
100
AcDbRegAppTableRecord
  2
GENIUS_GENSCALE_13
 70
     0
  0
APPID
  5
12B8
330
9
100
AcDbSymbolTableRecord
100
AcDbRegAppTableRecord
  2
GENIUS_GENOBJ-N-HTC_13
 70
     0
  0
APPID
  5
12B9
330
9
100
AcDbSymbolTableRecord
100
AcDbRegAppTableRecord
  2
GENIUS_GENHATCH_13
 70
     0
  0
APPID
  5
1C0A
330
9
100
AcDbSymbolTableRecord
100
AcDbRegAppTableRecord
  2
BASE_TYPE
 70
     0
  0
APPID
  5
276B
330
9
100
AcDbSymbolTableRecord
100
AcDbRegAppTableRecord
  2
GENIUS_GENOBJ-N-FIL_13
 70
     0
  0
APPID
  5
3640
330
9
100
AcDbSymbolTableRecord
100
AcDbRegAppTableRecord
  2
GENIUS_GENBH_13
 70
     0
  0
APPID
  5
36D1
330
9
100
AcDbSymbolTableRecord
100
AcDbRegAppTableRecord
  2
GENIUS_GENOBJ-F-SPR_13
 70
     0
  0
APPID
  5
36DA
330
9
100
AcDbSymbolTableRecord
100
AcDbRegAppTableRecord
  2
GENIUS_GEFSPRING_13
 70
     0
  0
APPID
  5
36DB
330
9
100
AcDbSymbolTableRecord
100
AcDbRegAppTableRecord
  2
GENIUS_GEFSPRINGP_13
 70
     0
  0
APPID
  5
4D67
330
9
100
AcDbSymbolTableRecord
100
AcDbRegAppTableRecord
  2
GENIUS_GENFIL_13
 70
     0
  0
APPID
  5
4D68
330
9
100
AcDbSymbolTableRecord
100
AcDbRegAppTableRecord
  2
GENIUS_GENOBJ-N-CHA_13
 70
     0
  0
APPID
  5
ADE0
330
9
100
AcDbSymbolTableRecord
100
AcDbRegAppTableRecord
  2
AD_DRAW
 70
     0
  0
APPID
  5
ADE3
330
9
100
AcDbSymbolTableRecord
100
AcDbRegAppTableRecord
  2
ACATTRIBSERVICES
 70
     0
  0
APPID
  5
AE01
330
9
100
AcDbSymbolTableRecord
100
AcDbRegAppTableRecord
  2
DESIGNERASSEMBLIES
 70
     0
  0
APPID
  5
AE06
330
9
100
AcDbSymbolTableRecord
100
AcDbRegAppTableRecord
  2
ACADM_DIM_EDIT
 70
     0
  0
APPID
  5
AE07
330
9
100
AcDbSymbolTableRecord
100
AcDbRegAppTableRecord
  2
AMDT_DM_ADJ
 70
     0
  0
ENDTAB
  0
TABLE
  2
DIMSTYLE
  5
A
330
0
100
AcDbSymbolTable
 70
    12
100
AcDbDimStyleTable
 71
     0
  0
DIMSTYLE
105
58
330
A
100
AcDbSymbolTableRecord
100
AcDbDimStyleTableRecord
  2
AM_JIS
 70
     0
  4
"
 41
2.5
 42
0.0
 43
10.0
 44
1.0
 47
0.1
 48
0.1000000001
 73
     0
 74
     0
 77
     3
 78
     9
140
3.799999999999998
141
0.0
143
0.0393701
146
0.71
147
1.5
172
     1
176
   256
177
   256
178
     2
271
     2
272
     2
275
     1
283
     0
284
     8
340
11
341
59
342
59
  0
DIMSTYLE
105
5F
102
{ACAD_REACTORS
330
AA55
330
AC54
102
}
330
A
100
AcDbSymbolTableRecord
100
AcDbDimStyleTableRecord
  2
AM_JIS$3
 70
     0
  4
"
 41
2.5
 42
0.0
 43
10.0
 44
1.0
 47
0.1
 48
0.1000000001
 73
     0
 77
     3
 78
     9
140
3.799999999999998
141
0.0
143
0.0393701
146
0.71
147
1.5
172
     1
176
   256
177
   256
178
     2
271
     2
272
     2
275
     1
283
     0
284
     8
288
     1
340
11
341
59
342
59
  0
DIMSTYLE
105
65F
330
A
100
AcDbSymbolTableRecord
100
AcDbDimStyleTableRecord
  2
STANDARD
 70
     0
340
11
  0
DIMSTYLE
105
1761
102
{ACAD_REACTORS
330
AA06
330
AA14
330
AA62
330
AA63
330
AAA9
330
AC46
102
}
330
A
100
AcDbSymbolTableRecord
100
AcDbDimStyleTableRecord
  2
AM_JIS$0
 70
     0
  4
"
 41
2.5
 42
0.0
 43
10.0
 44
1.0
 47
0.1
 48
0.1000000001
 73
     0
 74
     0
 77
     3
 78
     9
140
3.799999999999998
141
0.0
143
0.0393701
146
0.71
147
1.5
172
     1
176
     3
177
     3
178
     2
271
     2
272
     2
275
     1
283
     0
284
     8
340
11
341
59
342
59
  0
DIMSTYLE
105
1762
102
{ACAD_REACTORS
330
AB12
330
AC0A
330
ACD3
102
}
330
A
100
AcDbSymbolTableRecord
100
AcDbDimStyleTableRecord
  2
AM_JIS$2
 70
     0
  4
"
 41
2.5
 42
0.0
 43
10.0
 44
1.0
 47
0.1
 48
0.1000000001
 73
     0
 74
     0
 77
     3
 78
     9
140
3.799999999999998
141
0.0
143
0.0393701
146
0.71
147
1.5
172
     1
176
     3
177
     3
178
     2
271
     2
272
     2
275
     1
283
     0
284
     8
340
11
341
59
342
59
  0
ENDTAB
  0
TABLE
  2
BLOCK_RECORD
  5
1
330
0
100
AcDbSymbolTable
 70
    19
  0
BLOCK_RECORD
  5
1F
102
{ACAD_XDICTIONARY
360
165
102
}
330
1
100
AcDbSymbolTableRecord
100
AcDbBlockTableRecord
  2
*MODEL_SPACE
340
ADA6
  0
BLOCK_RECORD
  5
1B
102
{ACAD_XDICTIONARY
360
AD55
102
}
330
1
100
AcDbSymbolTableRecord
100
AcDbBlockTableRecord
  2
*PAPER_SPACE
340
ADA7
  0
BLOCK_RECORD
  5
59
330
1
100
AcDbSymbolTableRecord
100
AcDbBlockTableRecord
  2
_OPEN30
340
0
102
{BLKREFS
331
AE10
331
AE11
331
AE19
331
AE1A
331
AE24
331
AE25
331
AE2A
331
AE2B
331
AE35
331
AE36
331
AE3D
331
AE3E
331
AE48
331
AE49
331
AE55
331
AE56
331
AE60
331
AE61
331
AE6B
331
AE6C
331
AE74
331
AE75
102
}
  0
BLOCK_RECORD
  5
AA07
330
1
100
AcDbSymbolTableRecord
100
AcDbBlockTableRecord
  2
*D7
340
0
  0
BLOCK_RECORD
  5
AA16
330
1
100
AcDbSymbolTableRecord
100
AcDbBlockTableRecord
  2
*D8
340
0
  0
BLOCK_RECORD
  5
AA56
330
1
100
AcDbSymbolTableRecord
100
AcDbBlockTableRecord
  2
*D9
340
0
  0
BLOCK_RECORD
  5
AA64
330
1
100
AcDbSymbolTableRecord
100
AcDbBlockTableRecord
  2
*D10
340
0
  0
BLOCK_RECORD
  5
AA6F
330
1
100
AcDbSymbolTableRecord
100
AcDbBlockTableRecord
  2
*D11
340
0
  0
BLOCK_RECORD
  5
AAAA
330
1
100
AcDbSymbolTableRecord
100
AcDbBlockTableRecord
  2
*D12
340
0
  0
BLOCK_RECORD
  5
AB13
330
1
100
AcDbSymbolTableRecord
100
AcDbBlockTableRecord
  2
*D13
340
0
  0
BLOCK_RECORD
  5
AC0B
330
1
100
AcDbSymbolTableRecord
100
AcDbBlockTableRecord
  2
*D14
340
0
  0
BLOCK_RECORD
  5
AC47
330
1
100
AcDbSymbolTableRecord
100
AcDbBlockTableRecord
  2
*D15
340
0
  0
BLOCK_RECORD
  5
AC55
330
1
100
AcDbSymbolTableRecord
100
AcDbBlockTableRecord
  2
*D16
340
0
  0
BLOCK_RECORD
  5
ACD4
330
1
100
AcDbSymbolTableRecord
100
AcDbBlockTableRecord
  2
*D17
340
0
  0
ENDTAB
  0
ENDSEC
  0
SECTION
  2
BLOCKS
  0
BLOCK
  5
20
330
1F
100
AcDbEntity
  8
0
100
AcDbBlockBegin
  2
*MODEL_SPACE
 70
     0
 10
0.0
 20
0.0
 30
0.0
  3
*MODEL_SPACE
  1

  0
ENDBLK
  5
21
330
1F
100
AcDbEntity
  8
0
100
AcDbBlockEnd
  0
BLOCK
  5
1C
330
1B
100
AcDbEntity
 67
     1
  8
0
100
AcDbBlockBegin
  2
*PAPER_SPACE
 70
     0
 10
0.0
 20
0.0
 30
0.0
  3
*PAPER_SPACE
  1

  0
ENDBLK
  5
1D
330
1B
100
AcDbEntity
 67
     1
  8
0
100
AcDbBlockEnd
  0
BLOCK
  5
5D
330
59
100
AcDbEntity
  8
0
100
AcDbBlockBegin
  2
_OPEN30
 70
     0
 10
0.0
 20
0.0
 30
0.0
  3
_OPEN30
  1

  0
LINE
  5
5A
330
59
100
AcDbEntity
  8
0
 62
     0
100
AcDbLine
 10
-1.0
 20
0.26794919
 30
0.0
 11
0.0
 21
0.0
 31
0.0
  0
LINE
  5
5B
330
59
100
AcDbEntity
  8
0
 62
     0
100
AcDbLine
 10
0.0
 20
0.0
 30
0.0
 11
-1.0
 21
-0.26794919
 31
0.0
  0
LINE
  5
5C
330
59
100
AcDbEntity
  8
0
 62
     0
100
AcDbLine
 10
0.0
 20
0.0
 30
0.0
 11
-1.0
 21
0.0
 31
0.0
  0
ENDBLK
  5
5E
330
59
100
AcDbEntity
  8
0
100
AcDbBlockEnd
  0
BLOCK
  5
AA11
330
AA07
100
AcDbEntity
  8
0
100
AcDbBlockBegin
  2
*D7
 70
     1
 10
0.0
 20
0.0
 30
0.0
  3
*D7
  1

  0
LINE
  5
AE0D
330
AA07
100
AcDbEntity
  8
AM_5
 62
     3
370
    -2
100
AcDbLine
 10
250.0
 20
-16.60117543796551
 30
0.0
 11
250.0
 21
-33.67188176589162
 31
0.0
  0
LINE
  5
AE0E
330
AA07
100
AcDbEntity
  8
AM_5
 62
     3
370
    -2
100
AcDbLine
 10
-0.000000000000002
 20
-16.60117543796548
 30
0.0
 11
-0.0000000000000031
 21
-33.67188176589162
 31
0.0
  0
LINE
  5
AE0F
330
AA07
100
AcDbEntity
  8
AM_5
 62
     3
370
    -2
100
AcDbLine
 10
247.5
 20
-32.67188176589161
 30
0.0
 11
2.499999999999996
 21
-32.67188176589161
 31
0.0
  0
INSERT
  5
AE10
330
AA07
100
AcDbEntity
  8
AM_5
 62
     3
370
    -2
100
AcDbBlockReference
  2
_OPEN30
 10
250.0
 20
-32.67188176589161
 30
0.0
 41
2.5
 42
2.5
 43
2.5
  0
INSERT
  5
AE11
330
AA07
100
AcDbEntity
  8
AM_5
 62
     3
370
    -2
100
AcDbBlockReference
  2
_OPEN30
 10
-0.000000000000003
 20
-32.67188176589161
 30
0.0
 41
2.5
 42
2.5
 43
2.5
 50
180.0
  0
MTEXT
  5
AE12
330
AA07
100
AcDbEntity
  8
AM_5
 62
     2
100
AcDbMText
 10
125.0
 20
-29.27150775014358
 30
0.0
 40
3.799999999999998
 41
0.0
 71
     5
 72
     1
  1
250
 73
     1
 44
1.0
1001
ACAD
1000
MTEXTBEGIN
1070
    73
1070
     1
1070
    44
1040
1.0
1070
    74
1070
     0
1000
MTEXTEND
  0
POINT
  5
AE13
330
AA07
100
AcDbEntity
  8
DEFPOINTS
 62
     0
100
AcDbPoint
 10
250.0
 20
-16.60117543796551
 30
0.0
  0
POINT
  5
AE14
330
AA07
100
AcDbEntity
  8
DEFPOINTS
 62
     0
100
AcDbPoint
 10
-0.000000000000002
 20
-16.60117543796548
 30
0.0
  0
POINT
  5
AE15
330
AA07
100
AcDbEntity
  8
DEFPOINTS
 62
     0
100
AcDbPoint
 10
-0.000000000000003
 20
-32.67188176589161
 30
0.0
  0
ENDBLK
  5
AA12
330
AA07
100
AcDbEntity
  8
0
100
AcDbBlockEnd
  0
BLOCK
  5
AA20
330
AA16
100
AcDbEntity
  8
0
100
AcDbBlockBegin
  2
*D8
 70
     1
 10
0.0
 20
0.0
 30
0.0
  3
*D8
  1

  0
LINE
  5
AE16
330
AA16
100
AcDbEntity
  8
PV0001_1
 62
     3
370
    -2
100
AcDbLine
 10
107.7104412154756
 20
16.93227312498426
 30
0.0
 11
107.7104412154756
 21
-8.508651794151592
 31
0.0
  0
LINE
  5
AE17
330
AA16
100
AcDbEntity
  8
PV0001_1
 62
     3
370
    -2
100
AcDbLine
 10
137.710441589355
 20
16.93227767944297
 30
0.0
 11
137.710441589355
 21
-8.508651794151592
 31
0.0
  0
LINE
  5
AE18
330
AA16
100
AcDbEntity
  8
PV0001_1
 62
     3
370
    -2
100
AcDbLine
 10
110.2104412154756
 20
-7.508651794151592
 30
0.0
 11
135.210441589355
 21
-7.508651794151592
 31
0.0
  0
INSERT
  5
AE19
330
AA16
100
AcDbEntity
  8
PV0001_1
 62
     3
370
    -2
100
AcDbBlockReference
  2
_OPEN30
 10
107.7104412154756
 20
-7.508651794151592
 30
0.0
 41
2.5
 42
2.5
 43
2.5
 50
180.0
  0
INSERT
  5
AE1A
330
AA16
100
AcDbEntity
  8
PV0001_1
 62
     3
370
    -2
100
AcDbBlockReference
  2
_OPEN30
 10
137.710441589355
 20
-7.508651794151592
 30
0.0
 41
2.5
 42
2.5
 43
2.5
  0
MTEXT
  5
AE1B
330
AA16
100
AcDbEntity
  8
PV0001_1
 62
     2
100
AcDbMText
 10
122.1830329895021
 20
-4.108651794151592
 30
0.0
 40
3.799999999999998
 41
0.0
 71
     5
 72
     1
  1
30
 73
     1
 44
1.0
1001
ACAD
1000
MTEXTBEGIN
1070
    73
1070
     1
1070
    44
1040
1.0
1070
    74
1070
     0
1000
MTEXTEND
  0
POINT
  5
AE1C
330
AA16
100
AcDbEntity
  8
DEFPOINTS
 62
     0
100
AcDbPoint
 10
107.7104412154756
 20
16.93227312498426
 30
0.0
  0
POINT
  5
AE1D
330
AA16
100
AcDbEntity
  8
DEFPOINTS
 62
     0
100
AcDbPoint
 10
137.710441589355
 20
16.93227767944297
 30
0.0
  0
POINT
  5
AE1E
330
AA16
100
AcDbEntity
  8
DEFPOINTS
 62
     0
100
AcDbPoint
 10
137.710441589355
 20
-7.508651794151592
 30
0.0
  0
ENDBLK
  5
AA21
330
AA16
100
AcDbEntity
  8
0
100
AcDbBlockEnd
  0
BLOCK
  5
AA60
330
AA56
100
AcDbEntity
  8
0
100
AcDbBlockBegin
  2
*D9
 70
     1
 10
0.0
 20
0.0
 30
0.0
  3
*D9
  1

  0
LINE
  5
AE1F
330
AA56
100
AcDbEntity
  8
AM_5
370
    -2
100
AcDbLine
 10
148.2002847977957
 20
54.03409542191988
 30
0.0
 11
138.8720603883469
 21
54.03409542191989
 31
0.0
  0
LINE
  5
AE20
330
AA56
100
AcDbEntity
  8
AM_5
370
    -2
100
AcDbLine
 10
138.8720603883469
 20
54.03409542191989
 30
0.0
 11
131.1482942669346
 21
38.96372055314238
 31
0.0
  0
LINE
  5
AE21
330
AA56
100
AcDbEntity
  8
AM_5
370
    -2
100
AcDbLine
 10
114.2725889117754
 20
6.036363370195601
 30
0.0
 11
113.1323386674999
 21
3.811542168294231
 31
0.0
  0
MTEXT
  5
AE22
330
AA56
100
AcDbEntity
  8
AM_5
 62
     2
100
AcDbMText
 10
144.2861725930713
 20
57.43446943766793
 30
0.0
 40
3.799999999999998
 41
0.0
 71
     5
 72
     1
  1
\U+220532
 73
     1
 44
1.0
1001
ACAD
1000
MTEXTBEGIN
1070
    73
1070
     1
1070
    44
1040
1.0
1070
    74
1070
     0
1000
MTEXTEND
  0
LINE
  5
AE23
330
AA56
100
AcDbEntity
  8
AM_5
370
    -2
100
AcDbLine
 10
115.4128391560508
 20
8.261184572096972
 30
0.0
 11
130.0080440226592
 21
36.738899351241
 31
0.0
  0
INSERT
  5
AE24
330
AA56
100
AcDbEntity
  8
AM_5
370
    -2
100
AcDbBlockReference
  2
_OPEN30
 10
115.4128391560508
 20
8.261184572096972
 30
0.0
 41
2.5
 42
2.5
 43
2.5
 50
62.86426118492066
  0
INSERT
  5
AE25
330
AA56
100
AcDbEntity
  8
AM_5
370
    -2
100
AcDbBlockReference
  2
_OPEN30
 10
130.0080440226592
 20
36.738899351241
 30
0.0
 41
2.5
 42
2.5
 43
2.5
 50
242.8642611849207
  0
POINT
  5
AE26
330
AA56
100
AcDbEntity
  8
DEFPOINTS
 62
     0
100
AcDbPoint
 10
130.0080440226592
 20
36.738899351241
 30
0.0
  0
POINT
  5
AE27
330
AA56
100
AcDbEntity
  8
DEFPOINTS
 62
     0
100
AcDbPoint
 10
115.4128391560508
 20
8.261184572096972
 30
0.0
  0
ENDBLK
  5
AA61
330
AA56
100
AcDbEntity
  8
0
100
AcDbBlockEnd
  0
BLOCK
  5
AA6D
330
AA64
100
AcDbEntity
  8
0
100
AcDbBlockBegin
  2
*D10
 70
     1
 10
0.0
 20
0.0
 30
0.0
  3
*D10
  1

  0
LINE
  5
AE28
330
AA64
100
AcDbEntity
  8
PV0001_1
 62
     3
370
    -2
100
AcDbLine
 10
30.0
 20
6.500041961668996
 30
0.0
 11
30.0
 21
-18.83368839959143
 31
0.0
  0
LINE
  5
AE29
330
AA64
100
AcDbEntity
  8
PV0001_1
 62
     3
370
    -2
100
AcDbLine
 10
2.49644734269225
 20
-17.83368839959143
 30
0.0
 11
27.5
 21
-17.83368839959143
 31
0.0
  0
INSERT
  5
AE2A
330
AA64
100
AcDbEntity
  8
PV0001_1
 62
     3
370
    -2
100
AcDbBlockReference
  2
_OPEN30
 10
-0.0035526573077497
 20
-17.83368839959143
 30
0.0
 41
2.5
 42
2.5
 43
2.5
 50
180.0
  0
INSERT
  5
AE2B
330
AA64
100
AcDbEntity
  8
PV0001_1
 62
     3
370
    -2
100
AcDbBlockReference
  2
_OPEN30
 10
30.0
 20
-17.83368839959143
 30
0.0
 41
2.5
 42
2.5
 43
2.5
  0
MTEXT
  5
AE2C
330
AA64
100
AcDbEntity
  8
PV0001_1
 62
     2
100
AcDbMText
 10
14.99644734269224
 20
-14.43368839959143
 30
0.0
 40
3.799999999999998
 41
0.0
 71
     5
 72
     1
  1
30
 73
     1
 44
1.0
1001
ACAD
1000
MTEXTBEGIN
1070
    73
1070
     1
1070
    44
1040
1.0
1070
    74
1070
     0
1000
MTEXTEND
  0
POINT
  5
AE2D
330
AA64
100
AcDbEntity
  8
DEFPOINTS
 62
     0
100
AcDbPoint
 10
-0.0035526573077466
 20
31.69512455501059
 30
0.0
  0
POINT
  5
AE2E
330
AA64
100
AcDbEntity
  8
DEFPOINTS
 62
     0
100
AcDbPoint
 10
30.0
 20
6.500041961668996
 30
0.0
  0
POINT
  5
AE2F
330
AA64
100
AcDbEntity
  8
DEFPOINTS
 62
     0
100
AcDbPoint
 10
30.0
 20
-17.83368839959143
 30
0.0
  0
ENDBLK
  5
AA6E
330
AA64
100
AcDbEntity
  8
0
100
AcDbBlockEnd
  0
BLOCK
  5
AA7A
330
AA6F
100
AcDbEntity
  8
0
100
AcDbBlockBegin
  2
*D11
 70
     1
 10
0.0
 20
0.0
 30
0.0
  3
*D11
  1

  0
LINE
  5
AE30
330
AA6F
100
AcDbEntity
  8
PV0001_1
 62
     3
370
    -2
100
AcDbLine
 10
1.994289695098075
 20
0.1983215313523752
 30
0.0
 11
1.994289695098074
 21
-8.90246117919332
 31
0.0
  0
LINE
  5
AE31
330
AA6F
100
AcDbEntity
  8
PV0001_1
 62
     3
370
    -2
100
AcDbLine
 10
-2.499479661339931
 20
-7.90246117919332
 30
0.0
 11
-4.999479661339931
 21
-7.90246117919332
 31
0.0
  0
LINE
  5
AE32
330
AA6F
100
AcDbEntity
  8
PV0001_1
 62
     3
370
    -2
100
AcDbLine
 10
4.494289695098074
 20
-7.90246117919332
 30
0.0
 11
6.994289695098074
 21
-7.90246117919332
 31
0.0
  0
MTEXT
  5
AE33
330
AA6F
100
AcDbEntity
  8
PV0001_1
 62
     2
100
AcDbMText
 10
-4.991499314659903
 20
-4.50208716344528
 30
0.0
 40
3.799999999999998
 41
0.0
 71
     5
 72
     1
  1
2
 73
     1
 44
1.0
1001
ACAD
1000
MTEXTBEGIN
1070
    73
1070
     1
1070
    44
1040
1.0
1070
    74
1070
     0
1000
MTEXTEND
  0
LINE
  5
AE34
330
AA6F
100
AcDbEntity
  8
PV0001_1
 62
     3
370
    -2
100
AcDbLine
 10
0.0005203386600685
 20
-7.90246117919332
 30
0.0
 11
1.994289695098074
 21
-7.90246117919332
 31
0.0
  0
INSERT
  5
AE35
330
AA6F
100
AcDbEntity
  8
PV0001_1
 62
     3
370
    -2
100
AcDbBlockReference
  2
_OPEN30
 10
0.0005203386600685
 20
-7.90246117919332
 30
0.0
 41
2.5
 42
2.5
 43
2.5
  0
INSERT
  5
AE36
330
AA6F
100
AcDbEntity
  8
PV0001_1
 62
     3
370
    -2
100
AcDbBlockReference
  2
_OPEN30
 10
1.994289695098074
 20
-7.90246117919332
 30
0.0
 41
2.5
 42
2.5
 43
2.5
 50
180.0
  0
POINT
  5
AE37
330
AA6F
100
AcDbEntity
  8
DEFPOINTS
 62
     0
100
AcDbPoint
 10
0.0005203386600709
 20
31.69512455501059
 30
0.0
  0
POINT
  5
AE38
330
AA6F
100
AcDbEntity
  8
DEFPOINTS
 62
     0
100
AcDbPoint
 10
1.994289695098075
 20
0.1983215313523752
 30
0.0
  0
POINT
  5
AE39
330
AA6F
100
AcDbEntity
  8
DEFPOINTS
 62
     0
100
AcDbPoint
 10
1.994289695098074
 20
-7.90246117919332
 30
0.0
  0
ENDBLK
  5
AA7B
330
AA6F
100
AcDbEntity
  8
0
100
AcDbBlockEnd
  0
BLOCK
  5
AAB4
330
AAAA
100
AcDbEntity
  8
0
100
AcDbBlockBegin
  2
*D12
 70
     1
 10
0.0
 20
0.0
 30
0.0
  3
*D12
  1

  0
LINE
  5
AE3A
330
AAAA
100
AcDbEntity
  8
AM_5
 62
     3
370
    -2
100
AcDbLine
 10
0.1980361938479973
 20
0.0
 30
0.0
 11
-19.29371358398589
 21
0.0000000000000055
 31
0.0
  0
LINE
  5
AE3B
330
AAAA
100
AcDbEntity
  8
AM_5
 62
     3
370
    -2
100
AcDbLine
 10
-3.665283203124997
 20
22.50004196166899
 30
0.0
 11
-19.29371358398588
 21
22.50004196166899
 31
0.0
  0
LINE
  5
AE3C
330
AAAA
100
AcDbEntity
  8
AM_5
 62
     3
370
    -2
100
AcDbLine
 10
-18.29371358398589
 20
2.500000000000005
 30
0.0
 11
-18.29371358398589
 21
20.00004196166899
 31
0.0
  0
INSERT
  5
AE3D
330
AAAA
100
AcDbEntity
  8
AM_5
 62
     3
370
    -2
100
AcDbBlockReference
  2
_OPEN30
 10
-18.29371358398589
 20
0.0000000000000052
 30
0.0
 41
2.5
 42
2.5
 43
2.5
 50
270.0
  0
INSERT
  5
AE3E
330
AAAA
100
AcDbEntity
  8
AM_5
 62
     3
370
    -2
100
AcDbBlockReference
  2
_OPEN30
 10
-18.29371358398589
 20
22.50004196166899
 30
0.0
 41
2.5
 42
2.5
 43
2.5
 50
90.0
  0
MTEXT
  5
AE3F
330
AAAA
100
AcDbEntity
  8
AM_5
 62
     2
100
AcDbMText
 10
-21.69408759973392
 20
11.25002098083449
 30
0.0
 40
3.799999999999998
 41
0.0
 71
     5
 72
     1
  1
22.5
 11
0.0000000000000001
 21
1.0
 31
0.0
 73
     1
 44
1.0
1001
ACAD
1000
MTEXTBEGIN
1070
    73
1070
     1
1070
    44
1040
1.0
1070
    74
1070
     0
1000
MTEXTEND
  0
POINT
  5
AE40
330
AAAA
100
AcDbEntity
  8
DEFPOINTS
 62
     0
100
AcDbPoint
 10
0.1980361938479973
 20
0.0
 30
0.0
  0
POINT
  5
AE41
330
AAAA
100
AcDbEntity
  8
DEFPOINTS
 62
     0
100
AcDbPoint
 10
-3.665283203124997
 20
22.50004196166899
 30
0.0
  0
POINT
  5
AE42
330
AAAA
100
AcDbEntity
  8
DEFPOINTS
 62
     0
100
AcDbPoint
 10
-18.29371358398589
 20
22.50004196166899
 30
0.0
  0
ENDBLK
  5
AAB5
330
AAAA
100
AcDbEntity
  8
0
100
AcDbBlockEnd
  0
BLOCK
  5
AB23
330
AB13
100
AcDbEntity
  8
0
100
AcDbBlockBegin
  2
*D13
 70
     1
 10
0.0
 20
0.0
 30
0.0
  3
*D13
  1

  0
LINE
  5
AE43
330
AB13
100
AcDbEntity
  8
AM_5
 62
     3
370
    -2
100
AcDbLine
 10
-67.54277743680802
 20
16.09911866205425
 30
0.0
 11
-58.7964578926872
 21
50.99754727047407
 31
0.0
  0
LINE
  5
AE44
330
AB13
100
AcDbEntity
  8
AM_5
 62
     3
370
    -2
100
AcDbLine
 10
-72.25008392333506
 20
44.39677047729402
 30
0.0
 11
-72.2500839233351
 21
52.6577625391328
 31
0.0
  0
ARC
  5
AE45
330
AB13
100
AcDbEntity
  8
AM_5
 62
     3
370
    -2
100
AcDbCircle
 10
-72.25008392333506
 20
-2.683364476060701
 30
0.0
 40
54.3411270151935
100
AcDbArc
 50
70.65788464924029
 51
73.29404793326779
  0
ARC
  5
AE46
330
AB13
100
AcDbEntity
  8
AM_5
 62
     3
370
    -2
100
AcDbCircle
 10
-72.25008392333506
 20
-2.683364476060701
 30
0.0
 40
54.3411270151935
100
AcDbArc
 50
92.63616328402754
 51
95.27232656805502
  0
ARC
  5
AE47
330
AB13
100
AcDbEntity
  8
AM_5
 62
     3
370
    -2
100
AcDbCircle
 10
-72.25008392333506
 20
-2.683364476060701
 30
0.0
 40
54.3411270151935
100
AcDbArc
 50
75.93021121729528
 51
90.00000000000005
  0
INSERT
  5
AE48
330
AB13
100
AcDbEntity
  8
AM_5
 62
     3
370
    -2
100
AcDbBlockReference
  2
_OPEN30
 10
-59.03956147145881
 20
50.02754693542854
 30
0.0
 41
2.5
 42
2.5
 43
2.5
 50
164.6121295752815
  0
INSERT
  5
AE49
330
AB13
100
AcDbEntity
  8
AM_5
 62
     3
370
    -2
100
AcDbBlockReference
  2
_OPEN30
 10
-72.25008392333508
 20
51.6577625391328
 30
0.0
 41
2.5
 42
2.5
 43
2.5
 50
1.31808164201378
  0
MTEXT
  5
AE4A
330
AB13
100
AcDbEntity
  8
AM_5
 62
     2
100
AcDbMText
 10
-65.17830849508843
 20
54.62307269531784
 30
0.0
 40
3.799999999999998
 41
0.0
 71
     5
 72
     1
  1
14°
 11
0.9924717464607056
 21
-0.1224738032284321
 31
0.0
 73
     1
 44
1.0
1001
ACAD
1000
MTEXTBEGIN
1070
    73
1070
     1
1070
    44
1040
1.0
1070
    74
1070
     0
1000
MTEXTEND
  0
POINT
  5
AE4B
330
AB13
100
AcDbEntity
  8
DEFPOINTS
 62
     0
100
AcDbPoint
 10
-63.39361329305783
 20
50.93119523728983
 30
0.0
  0
POINT
  5
AE4C
330
AB13
100
AcDbEntity
  8
DEFPOINTS
 62
     0
100
AcDbPoint
 10
-72.25008392333506
 20
44.39677047729402
 30
0.0
  0
POINT
  5
AE4D
330
AB13
100
AcDbEntity
  8
DEFPOINTS
 62
     0
100
AcDbPoint
 10
-68.54093170165504
 20
12.11641311645502
 30
0.0
  0
POINT
  5
AE4E
330
AB13
100
AcDbEntity
  8
DEFPOINTS
 62
     0
100
AcDbPoint
 10
-67.54277743680802
 20
16.09911866205425
 30
0.0
  0
POINT
  5
AE4F
330
AB13
100
AcDbEntity
  8
DEFPOINTS
 62
     0
100
AcDbPoint
 10
-72.25008392333506
 20
-4.505622863769977
 30
0.0
  0
ENDBLK
  5
AB24
330
AB13
100
AcDbEntity
  8
0
100
AcDbBlockEnd
  0
BLOCK
  5
AC1B
330
AC0B
100
AcDbEntity
  8
0
100
AcDbBlockBegin
  2
*D14
 70
     1
 10
0.0
 20
0.0
 30
0.0
  3
*D14
  1

  0
LINE
  5
AE50
330
AC0B
100
AcDbEntity
  8
AM_5
 62
     3
370
    -2
100
AcDbLine
 10
-72.25008392333506
 20
-4.505622863769975
 30
0.0
 11
-72.25008392333506
 21
-12.8268947446419
 31
0.0
  0
LINE
  5
AE51
330
AC0B
100
AcDbEntity
  8
AM_5
 62
     3
370
    -2
100
AcDbLine
 10
-72.25008392333506
 20
-0.7002856260890642
 30
0.0
 11
-71.9460741566168
 21
-12.8230834374818
 31
0.0
  0
ARC
  5
AE52
330
AC0B
100
AcDbEntity
  8
AM_5
 62
     3
370
    -2
100
AcDbCircle
 10
-72.25008392333506
 20
-0.7002856260890642
 30
0.0
 40
11.12660911855283
100
AcDbArc
 50
244.1983427185138
 51
257.0991713592569
  0
ARC
  5
AE53
330
AC0B
100
AcDbEntity
  8
AM_5
 62
     3
370
    -2
100
AcDbCircle
 10
-72.25008392333506
 20
-0.7002856260890642
 30
0.0
 40
11.12660911855283
100
AcDbArc
 50
284.3373639044234
 51
297.2381925451665
  0
ARC
  5
AE54
330
AC0B
100
AcDbEntity
  8
AM_5
 62
     3
370
    -2
100
AcDbCircle
 10
-72.25008392333506
 20
-0.7002856260890642
 30
0.0
 40
11.12660911855283
100
AcDbArc
 50
270.0
 51
271.4365352636803
  0
INSERT
  5
AE55
330
AC0B
100
AcDbEntity
  8
AM_5
 62
     3
370
    -2
100
AcDbBlockReference
  2
_OPEN30
 10
-72.25008392333506
 20
-11.8268947446419
 30
0.0
 41
2.5
 42
2.5
 43
2.5
 50
353.5495856796285
  0
INSERT
  5
AE56
330
AC0B
100
AcDbEntity
  8
AM_5
 62
     3
370
    -2
100
AcDbBlockReference
  2
_OPEN30
 10
-71.97114380005513
 20
-11.82339773038288
 30
0.0
 41
2.5
 42
2.5
 43
2.5
 50
187.8869495840518
  0
MTEXT
  5
AE57
330
AC0B
100
AcDbEntity
  8
AM_5
 62
     2
100
AcDbMText
 10
-73.40539646165412
 20
-8.340033096372792
 30
0.0
 40
3.799999999999998
 41
0.0
 71
     5
 72
     1
  1
1°
 11
0.9887581153729462
 21
-0.1495238752980256
 31
0.0
 73
     1
 44
1.0
1001
ACAD
1000
MTEXTBEGIN
1070
    73
1070
     1
1070
    44
1040
1.0
1070
    74
1070
     0
1000
MTEXTEND
  0
POINT
  5
AE58
330
AC0B
100
AcDbEntity
  8
DEFPOINTS
 62
     0
100
AcDbPoint
 10
-72.06411301661773
 20
-11.82534047084906
 30
0.0
  0
POINT
  5
AE59
330
AC0B
100
AcDbEntity
  8
DEFPOINTS
 62
     0
100
AcDbPoint
 10
-72.26052093505494
 20
-0.2840957641609805
 30
0.0
  0
POINT
  5
AE5A
330
AC0B
100
AcDbEntity
  8
DEFPOINTS
 62
     0
100
AcDbPoint
 10
-72.25008392333506
 20
44.39677047729402
 30
0.0
  0
POINT
  5
AE5B
330
AC0B
100
AcDbEntity
  8
DEFPOINTS
 62
     0
100
AcDbPoint
 10
-72.25008392333506
 20
-4.505622863769975
 30
0.0
  0
POINT
  5
AE5C
330
AC0B
100
AcDbEntity
  8
DEFPOINTS
 62
     0
100
AcDbPoint
 10
-72.31021881103505
 20
1.69767379760702
 30
0.0
  0
ENDBLK
  5
AC1C
330
AC0B
100
AcDbEntity
  8
0
100
AcDbBlockEnd
  0
BLOCK
  5
AC51
330
AC47
100
AcDbEntity
  8
0
100
AcDbBlockBegin
  2
*D15
 70
     1
 10
0.0
 20
0.0
 30
0.0
  3
*D15
  1

  0
LINE
  5
AE5D
330
AC47
100
AcDbEntity
  8
AM_5
 62
     3
370
    -2
100
AcDbLine
 10
29.99999999999999
 20
-81.751647949218
 30
0.0
 11
-18.43153817037501
 21
-81.751647949218
 31
0.0
  0
LINE
  5
AE5E
330
AC47
100
AcDbEntity
  8
AM_5
 62
     3
370
    -2
100
AcDbLine
 10
-4.489875793457039
 20
-66.75164890289309
 30
0.0
 11
-18.431538170375
 21
-66.75164890289309
 31
0.0
  0
LINE
  5
AE5F
330
AC47
100
AcDbEntity
  8
AM_5
 62
     3
370
    -2
100
AcDbLine
 10
-17.43153817037501
 20
-79.251647949218
 30
0.0
 11
-17.431538170375
 21
-69.25164890289309
 31
0.0
  0
INSERT
  5
AE60
330
AC47
100
AcDbEntity
  8
AM_5
 62
     3
370
    -2
100
AcDbBlockReference
  2
_OPEN30
 10
-17.43153817037501
 20
-81.751647949218
 30
0.0
 41
2.5
 42
2.5
 43
2.5
 50
270.0
  0
INSERT
  5
AE61
330
AC47
100
AcDbEntity
  8
AM_5
 62
     3
370
    -2
100
AcDbBlockReference
  2
_OPEN30
 10
-17.431538170375
 20
-66.75164890289309
 30
0.0
 41
2.5
 42
2.5
 43
2.5
 50
90.0
  0
MTEXT
  5
AE62
330
AC47
100
AcDbEntity
  8
AM_5
 62
     2
100
AcDbMText
 10
-20.831538170375
 20
-74.25164842605553
 30
0.0
 40
3.799999999999998
 41
0.0
 71
     5
 72
     1
  1
15
 11
0.0000000000000001
 21
1.0
 31
0.0
 73
     1
 44
1.0
1001
ACAD
1000
MTEXTBEGIN
1070
    73
1070
     1
1070
    44
1040
1.0
1070
    74
1070
     0
1000
MTEXTEND
  0
POINT
  5
AE63
330
AC47
100
AcDbEntity
  8
DEFPOINTS
 62
     0
100
AcDbPoint
 10
29.99999999999999
 20
-81.751647949218
 30
0.0
  0
POINT
  5
AE64
330
AC47
100
AcDbEntity
  8
DEFPOINTS
 62
     0
100
AcDbPoint
 10
-4.489875793457039
 20
-66.75164890289309
 30
0.0
  0
POINT
  5
AE65
330
AC47
100
AcDbEntity
  8
DEFPOINTS
 62
     0
100
AcDbPoint
 10
-17.431538170375
 20
-66.75164890289309
 30
0.0
  0
ENDBLK
  5
AC52
330
AC47
100
AcDbEntity
  8
0
100
AcDbBlockEnd
  0
BLOCK
  5
AC5F
330
AC55
100
AcDbEntity
  8
0
100
AcDbBlockBegin
  2
*D16
 70
     1
 10
0.0
 20
0.0
 30
0.0
  3
*D16
  1

  0
LINE
  5
AE66
330
AC55
100
AcDbEntity
  8
AM_5
370
    -2
100
AcDbLine
 10
-38.25566927376663
 20
32.91451243678952
 30
0.0
 11
-47.73866139975088
 21
32.91451243678952
 31
0.0
  0
LINE
  5
AE67
330
AC55
100
AcDbEntity
  8
AM_5
370
    -2
100
AcDbLine
 10
-47.73866139975088
 20
32.91451243678952
 30
0.0
 11
-52.51255160783196
 21
30.30188523466962
 31
0.0
  0
LINE
  5
AE68
330
AC55
100
AcDbEntity
  8
AM_5
370
    -2
100
AcDbLine
 10
-91.98761623883823
 20
8.698198688668448
 30
0.0
 11
-94.18067538500523
 21
7.497993880557267
 31
0.0
  0
MTEXT
  5
AE69
330
AC55
100
AcDbEntity
  8
AM_5
 62
     2
100
AcDbMText
 10
-42.24716533675874
 20
36.31451243678952
 30
0.0
 40
3.799999999999998
 41
0.0
 71
     5
 72
     1
  1
\U+220540
 73
     1
 44
1.0
1001
ACAD
1000
MTEXTBEGIN
1070
    73
1070
     1
1070
    44
1040
1.0
1070
    74
1070
     0
1000
MTEXTEND
  0
LINE
  5
AE6A
330
AC55
100
AcDbEntity
  8
AM_5
370
    -2
100
AcDbLine
 10
-89.79455709267119
 20
9.898403496779629
 30
0.0
 11
-54.70561075399898
 21
29.10168042655844
 31
0.0
  0
INSERT
  5
AE6B
330
AC55
100
AcDbEntity
  8
AM_5
370
    -2
100
AcDbBlockReference
  2
_OPEN30
 10
-89.79455709267119
 20
9.898403496779629
 30
0.0
 41
2.5
 42
2.5
 43
2.5
 50
28.69075268628732
  0
INSERT
  5
AE6C
330
AC55
100
AcDbEntity
  8
AM_5
370
    -2
100
AcDbBlockReference
  2
_OPEN30
 10
-54.70561075399898
 20
29.10168042655844
 30
0.0
 41
2.5
 42
2.5
 43
2.5
 50
208.6907526862873
  0
POINT
  5
AE6D
330
AC55
100
AcDbEntity
  8
DEFPOINTS
 62
     0
100
AcDbPoint
 10
-54.70561075399898
 20
29.10168042655844
 30
0.0
  0
POINT
  5
AE6E
330
AC55
100
AcDbEntity
  8
DEFPOINTS
 62
     0
100
AcDbPoint
 10
-89.79455709267119
 20
9.898403496779629
 30
0.0
  0
ENDBLK
  5
AC60
330
AC55
100
AcDbEntity
  8
0
100
AcDbBlockEnd
  0
BLOCK
  5
ACE4
330
ACD4
100
AcDbEntity
  8
0
100
AcDbBlockBegin
  2
*D17
 70
     1
 10
0.0
 20
0.0
 30
0.0
  3
*D17
  1

  0
LINE
  5
AE6F
330
ACD4
100
AcDbEntity
  8
AM_5
 62
     3
370
    -2
100
AcDbLine
 10
0.6002426147459823
 20
17.076213836669
 30
0.0
 11
1.824699805467128
 21
52.13732676535201
 31
0.0
  0
LINE
  5
AE70
330
ACD4
100
AcDbEntity
  8
AM_5
 62
     3
370
    -2
100
AcDbLine
 10
0.0000000000000038
 20
28.673885345459
 30
0.0
 11
0.0000000000000031
 21
52.16917951858
 31
0.0
  0
ARC
  5
AE71
330
ACD4
100
AcDbEntity
  8
AM_5
 62
     3
370
    -2
100
AcDbCircle
 10
0.0000000000000001
 20
-0.111136002668829
 30
0.0
 40
51.28031552124882
100
AcDbArc
 50
82.41276209509981
 51
85.20630258219643
  0
ARC
  5
AE72
330
ACD4
100
AcDbEntity
  8
AM_5
 62
     3
370
    -2
100
AcDbCircle
 10
0.0000000000000001
 20
-0.111136002668829
 30
0.0
 40
51.28031552124882
100
AcDbArc
 50
92.79354048709659
 51
95.58708097419323
  0
ARC
  5
AE73
330
ACD4
100
AcDbEntity
  8
AM_5
 62
     3
370
    -2
100
AcDbCircle
 10
0.0000000000000001
 20
-0.111136002668829
 30
0.0
 40
51.28031552124882
100
AcDbArc
 50
87.99984306929301
 51
90.0
  0
INSERT
  5
AE74
330
ACD4
100
AcDbEntity
  8
AM_5
 62
     3
370
    -2
100
AcDbBlockReference
  2
_OPEN30
 10
1.789797571475722
 20
51.1379360339249
 30
0.0
 41
2.5
 42
2.5
 43
2.5
 50
176.6030728257447
  0
INSERT
  5
AE75
330
ACD4
100
AcDbEntity
  8
AM_5
 62
     3
370
    -2
100
AcDbBlockReference
  2
_OPEN30
 10
0.0000000000000027
 20
51.16917951858
 30
0.0
 41
2.5
 42
2.5
 43
2.5
 50
1.396770243548306
  0
MTEXT
  5
AE76
330
ACD4
100
AcDbEntity
  8
AM_5
 62
     2
100
AcDbMText
 10
3.239590748591428
 20
54.47350341194192
 30
0.0
 40
3.799999999999998
 41
0.0
 71
     5
 72
     1
  1
2°
 11
0.9982434361527005
 21
-0.0592456089347509
 31
0.0
 73
     1
 44
1.0
1001
ACAD
1000
MTEXTBEGIN
1070
    73
1070
     1
1070
    44
1040
1.0
1070
    74
1070
     0
1000
MTEXTEND
  0
POINT
  5
AE77
330
ACD4
100
AcDbEntity
  8
DEFPOINTS
 62
     0
100
AcDbPoint
 10
0.596706916501959
 20
51.16570770689106
 30
0.0
  0
POINT
  5
AE78
330
ACD4
100
AcDbEntity
  8
DEFPOINTS
 62
     0
100
AcDbPoint
 10
0.0000000000000038
 20
28.673885345459
 30
0.0
  0
POINT
  5
AE79
330
ACD4
100
AcDbEntity
  8
DEFPOINTS
 62
     0
100
AcDbPoint
 10
0.6002426147459823
 20
17.076213836669
 30
0.0
  0
POINT
  5
AE7A
330
ACD4
100
AcDbEntity
  8
DEFPOINTS
 62
     0
100
AcDbPoint
 10
0.1339263916020176
 20
3.723712921141998
 30
0.0
  0
POINT
  5
AE7B
330
ACD4
100
AcDbEntity
  8
DEFPOINTS
 62
     0
100
AcDbPoint
 10
-0.0000000000000084
 20
-66.75164890289311
 30
0.0
  0
ENDBLK
  5
ACE5
330
ACD4
100
AcDbEntity
  8
0
100
AcDbBlockEnd
  0
ENDSEC
  0
SECTION
  2
ENTITIES
  0
TEXT
  5
83BD
330
1F
100
AcDbEntity
  8
AM_6
100
AcDbText
 10
112.7184964478671
 20
-101.1445215787507
 30
0.0
 40
5.0
  1
GWCIR432
 72
     4
 11
127.4892023474208
 21
-98.64452157875076
 31
0.0
100
AcDbText
  0
LINE
  5
A726
330
1F
100
AcDbEntity
  8
AM_0
100
AcDbLine
 10
14.09032058715798
 20
38.50004959106399
 30
0.0
 11
97.71044158935502
 21
38.50004959106396
 31
0.0
  0
LINE
  5
A727
330
1F
100
AcDbEntity
  8
AM_0
100
AcDbLine
 10
30.0
 20
6.500041961668996
 30
0.0
 11
97.71044158935502
 21
6.500041961668975
 31
0.0
  0
LINE
  5
A728
330
1F
100
AcDbEntity
  8
AM_0
100
AcDbLine
 10
25.303955078125
 20
28.06780624389599
 30
0.0
 11
97.71044158935502
 21
28.06780624389597
 31
0.0
  0
LINE
  5
A729
330
1F
100
AcDbEntity
  8
AM_0
100
AcDbLine
 10
30.0
 20
16.93227767944299
 30
0.0
 11
97.71044158935502
 21
16.93227767944298
 31
0.0
  0
LINE
  5
A72A
330
1F
100
AcDbEntity
  8
AM_7
100
AcDbLine
 10
-3.665283203124997
 20
22.50004196166899
 30
0.0
 11
254.5740272533393
 21
22.50004196166894
 31
0.0
  0
LINE
  5
A72B
330
1F
100
AcDbEntity
  8
AM_7
100
AcDbLine
 10
-4.489875793457039
 20
-66.75164890289309
 30
0.0
 11
255.6977679743281
 21
-66.75164890289316
 31
0.0
  0
LINE
  5
A72C
330
1F
100
AcDbEntity
  8
AM_0
100
AcDbLine
 10
29.99999999999999
 20
-81.751647949218
 30
0.0
 11
250.0
 21
-81.75164794921807
 31
0.0
  0
LINE
  5
A72D
330
1F
100
AcDbEntity
  8
AM_0
100
AcDbLine
 10
25.303955078125
 20
-51.75165176391599
 30
0.0
 11
250.0
 21
-51.75165176391605
 31
0.0
  0
SPLINE
  5
A72F
330
1F
100
AcDbEntity
  8
AM_0
100
AcDbSpline
210
0.0
220
0.0
230
1.0
 70
     8
 71
     3
 72
    12
 73
     8
 74
     0
 42
0.0000000001
 43
0.0000000001
 40
0.569703100566839
 40
0.569703100566839
 40
0.569703100566839
 40
0.569703100566839
 40
3.771515236262848
 40
9.308975532486581
 40
22.50353128950659
 40
30.7609935431186
 40
31.51659107854859
 40
31.51659107854859
 40
31.51659107854859
 40
31.51659107854859
 10
29.30914400349705
 20
-54.82205943455539
 30
0.0
 10
29.26989884755767
 20
-55.8885080756789
 30
0.0
 10
29.16428319032842
 20
-58.79952246229394
 30
0.0
 10
28.96737552981573
 20
-66.11317881991201
 30
0.0
 10
29.1548081662446
 20
-75.07617355562806
 30
0.0
 10
28.59512871198875
 20
-82.54940024371649
 30
0.0
 10
29.14966310158001
 20
-85.50395850708747
 30
0.0
 10
29.19615173339797
 20
-85.751649856567
 30
0.0
  0
ARC
  5
A730
330
1F
100
AcDbEntity
  8
AM_0
 48
0.5
100
AcDbCircle
 10
15.101943969727
 20
-50.00582313537599
 30
0.0
 40
15.0
100
AcDbArc
 50
271.9998837146909
 51
353.3162795409803
  0
LINE
  5
A731
330
1F
100
AcDbEntity
  8
AM_0
100
AcDbLine
 10
30.0
 20
-51.751651763916
 30
0.0
 11
29.99999999999999
 21
-82.75164794921797
 31
0.0
  0
LINE
  5
A732
330
1F
100
AcDbEntity
  8
AM_0
 48
0.5
100
AcDbLine
 10
3.463745117187038
 20
-57.78154063224789
 30
0.0
 11
0.133941650390958
 21
-66.239960193634
 31
0.0
  0
LINE
  5
A733
330
1F
100
AcDbEntity
  8
AM_1
  6
Continuous
100
AcDbLine
 10
0.0000000000000035
 20
28.673885345459
 30
0.0
 11
-0.0000000000000082
 21
-66.75164890289309
 31
0.0
  0
ELLIPSE
  5
A736
330
1F
100
AcDbEntity
  8
AM_0
 48
0.5
100
AcDbEllipse
 10
-20.34636688232399
 20
-65.83335208892818
 30
0.0
 11
28.751747150233
 21
0.9086532423417928
 31
0.0
210
0.0
220
0.0
230
1.0
 40
0.0695262575122
 41
5.592148164216066
 42
5.636868970854918
  0
ELLIPSE
  5
A737
330
1F
100
AcDbEntity
  8
AM_0
 48
0.5
100
AcDbEllipse
 10
1.71933746337901
 20
-68.8670520782471
 30
0.0
 11
-0.0197219669460082
 21
0.3235015851633003
 31
0.0
210
0.0
220
0.0
230
1.0
 40
0.6124722013156
 41
4.517733247756045
 42
4.557734235957548
  0
ELLIPSE
  5
A738
330
1F
100
AcDbEntity
  8
AM_0
 48
0.5
100
AcDbEllipse
 10
1.793937683105006
 20
-66.7495431900024
 30
0.0
 11
0.2003250099430005
 21
0.0055847167321001
 31
0.0
210
0.0
220
0.0
230
1.0
 40
0.1885972674007
 41
0.0
 42
1.552885395445653
  0
ELLIPSE
  5
A739
330
1F
100
AcDbEntity
  8
AM_0
 48
0.5
100
AcDbEllipse
 10
0.1999359130859293
 20
-66.7894525527954
 30
0.0
 11
0.1999435450800036
 21
0.0048141480448
 31
0.0
210
0.0
220
0.0
230
1.0
 40
0.1889959955663
 41
1.578533204360201
 42
3.141593116154126
  0
ELLIPSE
  5
A73A
330
1F
100
AcDbEntity
  8
AM_0
 48
0.5
100
AcDbEllipse
 10
0.2623367309570228
 20
-68.57834815979
 30
0.0
 11
-0.0564270135340052
 21
0.3267593508700006
 31
0.0
210
0.0
220
0.0
230
1.0
 40
0.5931950862553002
 41
1.343831916901639
 42
1.380622616392903
  0
ELLIPSE
  5
A73B
330
1F
100
AcDbEntity
  8
AM_0
 48
0.5
100
AcDbEllipse
 10
0.2623367309570228
 20
-68.57834815979
 30
0.0
 11
-0.0564270135340052
 21
0.3267593508700006
 31
0.0
210
0.0
220
0.0
230
1.0
 40
0.5931950862553002
 41
6.058138808679672
 42
7.627017224081224
  0
ELLIPSE
  5
A73C
330
1F
100
AcDbEntity
  8
AM_0
 48
0.5
100
AcDbEllipse
 10
1.71933746337901
 20
-68.8670520782471
 30
0.0
 11
-0.0197219669460082
 21
0.3235015851633003
 31
0.0
210
0.0
220
0.0
230
1.0
 40
0.6124722013156
 41
4.557734235957548
 42
6.12391911416053
  0
ELLIPSE
  5
A73D
330
1F
100
AcDbEntity
  8
AM_0
 48
0.5
100
AcDbEllipse
 10
2.741638183593968
 20
-65.1033492088318
 30
0.0
 11
0.0643311550259971
 21
2.003067549043997
 31
0.0
210
0.0
220
0.0
230
1.0
 40
0.0378715244558
 41
2.113797971310455
 42
2.21845680846524
  0
ELLIPSE
  5
A73E
330
1F
100
AcDbEntity
  8
AM_0
 48
0.5
100
AcDbEllipse
 10
13.71083831787097
 20
-64.75644826889041
 30
0.0
 11
22.76291633511299
 21
2.714546576659794
 31
0.0
210
0.0
220
0.0
230
1.0
 40
0.0072888559858
 41
2.01501530471424
 42
2.206377720833641
  0
ELLIPSE
  5
A73F
330
1F
100
AcDbEntity
  8
AM_0
 48
0.5
100
AcDbEllipse
 10
1.960639953613045
 20
-65.12794637680049
 30
0.0
 11
0.0643273268260035
 21
2.0030674334465
 31
0.0
210
0.0
220
0.0
230
1.0
 40
0.0378734286901
 41
2.258272858410895
 42
2.492629677175162
  0
ELLIPSE
  5
A740
330
1F
100
AcDbEntity
  8
AM_0
 48
0.5
100
AcDbEllipse
 10
0.0366439819340405
 20
-65.18885183334349
 30
0.0
 11
-0.0631828717050094
 21
1.9990010164331
 31
0.0
210
0.0
220
0.0
230
0.9999999999999998
 40
0.0376986064727
 41
3.808794560325198
 42
4.157784148003458
  0
ELLIPSE
  5
A741
330
1F
100
AcDbEntity
  8
AM_0
 48
0.5
100
AcDbEllipse
 10
-21.92326354980503
 20
-65.8832483291626
 30
0.0
 11
28.64210450835599
 21
0.9051894426999924
 31
0.0
210
0.0
220
0.0
230
1.0
 40
0.0697924055436
 41
5.740796058510709
 42
5.921476624353736
  0
LINE
  5
A742
330
1F
100
AcDbEntity
  8
AM_0
 48
0.5
100
AcDbLine
 10
6.76438903808593
 20
-61.0764873623848
 30
0.0
 11
2.07985687255904
 21
-61.29692290723319
 31
0.0
  0
LINE
  5
A743
330
1F
100
AcDbEntity
  8
AM_0
 48
0.5
100
AcDbLine
 10
0.8106613159179582
 20
-85.751649856567
 30
0.0
 11
29.19615173339797
 21
-85.751649856567
 31
0.0
  0
LINE
  5
A744
330
1F
100
AcDbEntity
  8
AM_0
 48
0.5
100
AcDbLine
 10
6.314117431640958
 20
-62.2199611067772
 30
0.0
 11
4.920516967772973
 21
-63.6906793117523
 31
0.0
  0
LINE
  5
A745
330
1F
100
AcDbEntity
  8
AM_0
 48
0.5
100
AcDbLine
 10
15.62541198730501
 20
-64.9966850280762
 30
0.0
 11
5.075683593749992
 21
-65.3650679588318
 31
0.0
  0
LINE
  5
A746
330
1F
100
AcDbEntity
  8
AM_0
 48
0.5
100
AcDbLine
 10
5.090713500977008
 20
-65.3268420696258
 30
0.0
 11
6.76438903808593
 21
-61.07648769021029
 31
0.0
  0
LINE
  5
A747
330
1F
100
AcDbEntity
  8
AM_0
 48
0.5
100
AcDbLine
 10
4.883735656738044
 20
-65.7444624900818
 30
0.0
 11
6.239753723144977
 21
-62.2984356880188
 31
0.0
  0
LINE
  5
A749
330
1F
100
AcDbEntity
  8
AM_0
 48
0.5
100
AcDbLine
 10
0.8106613159179582
 20
-85.751647949218
 30
0.0
 11
0.3619842529300199
 21
-71.56418418884197
 31
0.0
  0
LINE
  5
A74A
330
1F
100
AcDbEntity
  8
AM_0
 48
0.5
100
AcDbLine
 10
0.0614395141599205
 20
-68.5498738288879
 30
0.0
 11
0.5123138427729735
 21
-76.317600250244
 31
0.0
  0
LINE
  5
A74B
330
1F
100
AcDbEntity
  8
AM_0
 48
0.5
100
AcDbLine
 10
5.067131042480005
 20
-71.56418704986498
 30
0.0
 11
4.88632965087901
 21
-65.8460717201233
 31
0.0
  0
LINE
  5
A74C
330
1F
100
AcDbEntity
  8
AM_0
 48
0.5
100
AcDbLine
 10
2.642333984374992
 20
-66.3120293617248
 30
0.0
 11
2.475204467772972
 21
-71.564181327819
 31
0.0
  0
LINE
  5
A74D
330
1F
100
AcDbEntity
  8
AM_0
 48
0.5
100
AcDbLine
 10
0.3619842529300199
 20
-71.56418418884197
 30
0.0
 11
5.067123413085927
 21
-71.56418418884197
 31
0.0
  0
LINE
  5
A74E
330
1F
100
AcDbEntity
  8
AM_0
 48
0.5
100
AcDbLine
 10
1.795944213866951
 20
-66.7116327285766
 30
0.0
 11
0.1980438232419519
 21
-66.751633644104
 31
0.0
  0
LINE
  5
A74F
330
1F
100
AcDbEntity
  8
AM_0
 48
0.5
100
AcDbLine
 10
1.731330871582022
 20
-68.5457768440246
 30
0.0
 11
0.2504348754880455
 21
-68.2523775100708
 31
0.0
  0
LINE
  5
A750
330
1F
100
AcDbEntity
  8
AM_0
 48
0.5
100
AcDbLine
 10
0.250427246093969
 20
-68.25236701965329
 30
0.0
 11
0.1980209350590403
 21
-66.7516641616821
 31
0.0
  0
LINE
  5
A751
330
1F
100
AcDbEntity
  8
AM_0
 48
0.5
100
AcDbLine
 10
0.0608291625979889
 20
-68.53755569458009
 30
0.0
 11
-0.0000686645510168
 21
-66.79424953460689
 31
0.0
  0
LINE
  5
A752
330
1F
100
AcDbEntity
  8
AM_0
 48
0.5
100
AcDbLine
 10
1.795936584472988
 20
-66.7116703987121
 30
0.0
 11
1.731330871582022
 21
-68.545768737793
 31
0.0
  0
LINE
  5
A753
330
1F
100
AcDbEntity
  8
AM_0
 48
0.5
100
AcDbLine
 10
1.994232177734025
 20
-66.74431657791139
 30
0.0
 11
1.918136596680019
 21
-68.90543746948239
 31
0.0
  0
LINE
  5
A754
330
1F
100
AcDbEntity
  8
AM_0
 48
0.5
100
AcDbLine
 10
1.917533874511937
 20
-68.9176368713379
 30
0.0
 11
1.761367797852008
 21
-71.564183235168
 31
0.0
  0
LINE
  5
A755
330
1F
100
AcDbEntity
  8
AM_0
 48
0.5
100
AcDbLine
 10
4.920532226562037
 20
-63.69065880775449
 30
0.0
 11
3.998237609863044
 21
-63.7340583801269
 31
0.0
  0
LINE
  5
A756
330
1F
100
AcDbEntity
  8
AM_0
 48
0.5
100
AcDbLine
 10
4.886825561522973
 20
-65.8447580337524
 30
0.0
 11
5.090728759765958
 21
-65.32685565948479
 31
0.0
  0
LINE
  5
A757
330
1F
100
AcDbEntity
  8
AM_0
 48
0.5
100
AcDbLine
 10
4.886344909667959
 20
-65.8460416793823
 30
0.0
 11
4.886840820312037
 21
-65.8447461128235
 31
0.0
  0
LINE
  5
A758
330
1F
100
AcDbEntity
  8
AM_0
 48
0.5
100
AcDbLine
 10
4.094718933105006
 20
-65.24262905120849
 30
0.0
 11
1.618927001953002
 21
-65.48554897308349
 31
0.0
  0
LINE
  5
A759
330
1F
100
AcDbEntity
  8
AM_0
 48
0.5
100
AcDbLine
 10
4.886825561522973
 20
-65.8447351455688
 30
0.0
 11
4.883728027343968
 21
-65.74442625045769
 31
0.0
  0
LINE
  5
A75A
330
1F
100
AcDbEntity
  8
AM_0
 48
0.5
100
AcDbLine
 10
4.883735656738044
 20
-65.7444548606872
 30
0.0
 11
3.88493347168002
 21
-65.7760519981384
 31
0.0
  0
LINE
  5
A75B
330
1F
100
AcDbEntity
  8
AM_0
 48
0.5
100
AcDbLine
 10
4.700996398925999
 20
-63.70098972320562
 30
0.0
 11
3.884941101073982
 21
-65.77604246139519
 31
0.0
  0
LINE
  5
A75C
330
1F
100
AcDbEntity
  8
AM_0
 48
0.5
100
AcDbLine
 10
5.085243225097989
 20
-65.2707431316376
 30
0.0
 11
5.09074401855502
 21
-65.32684016227718
 31
0.0
  0
LINE
  5
A75D
330
1F
100
AcDbEntity
  8
AM_0
 48
0.5
100
AcDbLine
 10
3.901924133301
 20
-63.73861956596371
 30
0.0
 11
1.618934631347988
 21
-65.4855437278747
 31
0.0
  0
LINE
  5
A75E
330
1F
100
AcDbEntity
  8
AM_0
 48
0.5
100
AcDbLine
 10
29.99999999999999
 20
-82.75164604187002
 30
0.0
 11
29.19615173339797
 21
-85.751649856567
 31
0.0
  0
SPLINE
  5
A75F
330
1F
100
AcDbEntity
  8
AM_0
 48
0.5
100
AcDbSpline
210
0.0
220
0.0
230
1.0
 70
     8
 71
     3
 72
     8
 73
     4
 74
     0
 42
0.0000000001
 43
0.0000000001
 40
4.237992784048781
 40
4.237992784048781
 40
4.237992784048781
 40
4.237992784048781
 40
4.302891637115602
 40
4.302891637115602
 40
4.302891637115602
 40
4.302891637115602
 10
1.406906127930029
 20
8.883563995361003
 30
0.0
 10
3.488101062541829
 20
8.924752996330118
 30
0.0
 10
4.06581878662098
 20
8.933979034423007
 30
0.0
 10
5.066732670252918
 20
8.958028578247311
 30
0.0
  0
SPLINE
  5
A760
330
1F
100
AcDbEntity
  8
AM_0
 48
0.5
100
AcDbSpline
210
0.0
220
0.0
230
1.0
 70
     8
 71
     3
 72
     9
 73
     5
 74
     3
 42
0.0000000001
 43
0.0000000001
 44
0.0000000001
 40
0.0
 40
0.0
 40
0.0
 40
0.0
 40
5.737797630687407
 40
17.14957051406335
 40
17.14957051406335
 40
17.14957051406335
 40
17.14957051406335
 10
9.89064788818405
 20
34.30038070678699
 30
0.0
 10
11.85066147295001
 20
34.39730615819953
 30
0.0
 10
17.70890070409537
 20
34.68700439619885
 30
0.0
 10
22.26932766766895
 20
30.71252728985752
 30
0.0
 10
25.303955078125
 20
28.06780624389599
 30
0.0
 11
9.89064788818405
 21
34.30038070678699
 31
0.0
 11
15.62541198730502
 21
34.113826751709
 31
0.0
 11
25.303955078125
 21
28.06780624389599
 31
0.0
  0
SPLINE
  5
A761
330
1F
100
AcDbEntity
  8
AM_0
 48
0.5
100
AcDbSpline
210
0.0
220
0.0
230
1.0
 70
     8
 71
     3
 72
    10
 73
     6
 74
     4
 42
0.0000000001
 43
0.0000000001
 44
0.0000000001
 40
0.0
 40
0.0
 40
0.0
 40
0.0
 40
5.527719831061712
 40
8.902748135577603
 40
15.50287538480055
 40
15.50287538480055
 40
15.50287538480055
 40
15.50287538480055
 10
15.62541198730502
 20
2.500041961668996
 30
0.0
 10
17.43151581991938
 20
2.764905327963729
 30
0.0
 10
20.34036214713615
 20
3.191484806035855
 30
0.0
 10
25.68836212378063
 20
3.588439107556089
 30
0.0
 10
27.86653382055321
 20
6.390831191958114
 30
0.0
 10
29.30773544311501
 20
8.245052337645997
 30
0.0
 11
15.62541198730502
 21
2.500041961668996
 31
0.0
 11
21.10630035400402
 21
3.218059539793995
 31
0.0
 11
24.43122863769497
 21
3.797428131103
 31
0.0
 11
29.30773544311501
 21
8.245052337645997
 31
0.0
  0
ELLIPSE
  5
A764
330
1F
100
AcDbEntity
  8
AM_0
 48
0.5
100
AcDbEllipse
 10
-84.80918121337504
 20
13.83587265014602
 30
0.0
 11
0.3804931571700081
 21
0.1086769096209963
 31
0.0
210
0.0
220
0.0
230
1.0
 40
0.0202215098591
 41
1.405673812252659
 42
3.14159697684791
  0
ELLIPSE
  5
A766
330
1F
100
AcDbEntity
  8
AM_0
 48
0.5
100
AcDbEllipse
 10
-85.24060821532499
 20
9.125171661377018
 30
0.0
 11
0.0247191159099878
 21
-2.773490901086999
 31
0.0
210
0.0
220
0.0
230
1.0
 40
0.5950039567360001
 41
1.672771882143239
 42
1.683371083548266
  0
ELLIPSE
  5
A767
330
1F
100
AcDbEntity
  8
AM_0
 48
0.5
100
AcDbEllipse
 10
-85.11852264403501
 20
13.68734359741202
 30
0.0
 11
0.3856048549600076
 21
0.1111412000780092
 31
0.0
210
0.0
220
0.0
230
1.0
 40
0.0199136088326
 41
3.141588263486151
 42
4.637709163752346
  0
ELLIPSE
  5
A769
330
1F
100
AcDbEntity
  8
AM_0
 48
0.5
100
AcDbEllipse
 10
0.8836364746090362
 20
18.664409637451
 30
0.0
 11
0.199523925609995
 21
-0.0136718745190052
 31
0.0
210
0.0
220
0.0
230
1.0
 40
0.6725267639564
 41
1.580106750490014
 42
3.147985290129438
  0
ELLIPSE
  5
A76B
330
1F
100
AcDbEntity
  8
AM_0
 48
0.5
100
AcDbEllipse
 10
2.22624206543003
 20
16.653011322021
 30
0.0
 11
-0.0000000173109953
 21
0.3960113525389915
 31
0.0
210
0.0
220
0.0
230
1.0
 40
0.5050283204254002
 41
4.583318381113549
 42
4.585577748165099
  0
ELLIPSE
  5
A76C
330
1F
100
AcDbEntity
  8
AM_0
 48
0.5
100
AcDbEllipse
 10
-19.60167694091795
 20
19.672908782959
 30
0.0
 11
28.69331694353799
 21
-2.084026210656012
 31
0.0
210
0.0
220
0.0
230
1.0
 40
0.0602419645806
 41
5.593675483390195
 42
5.637674701861846
  0
ELLIPSE
  5
A76D
330
1F
100
AcDbEntity
  8
AM_0
 48
0.5
100
AcDbEllipse
 10
14.45553207397495
 20
18.388011932373
 30
0.0
 11
22.92744875690299
 21
0.9496460543719903
 31
0.0
210
0.0
220
0.0
230
1.0
 40
0.0368195237045
 41
4.162464161124043
 42
4.237995726530007
  0
ELLIPSE
  5
A76E
330
1F
100
AcDbEntity
  8
AM_0
 48
0.5
100
AcDbEllipse
 10
14.45543289184593
 20
18.388011932373
 30
0.0
 11
22.927349489933
 21
0.949646049535994
 31
0.0
210
0.0
220
0.0
230
1.0
 40
0.0368196672618
 41
4.237992784048781
 42
4.302891637115602
  0
ELLIPSE
  5
A76F
330
1F
100
AcDbEntity
  8
AM_0
 48
0.5
100
AcDbEllipse
 10
-21.17856597900402
 20
19.73241806030199
 30
0.0
 11
28.58370637564301
 21
-2.078930033381005
 31
0.0
210
0.0
220
0.0
230
1.0
 40
0.060479920741
 41
5.742337026214587
 42
5.906656056532713
  0
ELLIPSE
  5
A770
330
1F
100
AcDbEntity
  8
AM_0
 48
0.5
100
AcDbEllipse
 10
0.0366363525390628
 20
2.025409698486
 30
0.0
 11
0.0753784494979902
 21
1.998575200129991
 31
0.0
210
0.0
220
0.0
230
1.0
 40
0.0316007255747
 41
4.528980219280999
 42
5.725548665997306
  0
ELLIPSE
  5
A771
330
1F
100
AcDbEntity
  8
AM_0
 48
0.5
100
AcDbEllipse
 10
0.7983398437500022
 20
17.037014007568
 30
0.0
 11
0.0074005230620031
 21
-0.4001312203440082
 31
0.0
210
0.0
220
0.0
230
1.0
 40
0.4959771297881
 41
4.571220497222538
 42
4.607305087275014
  0
ELLIPSE
  5
A772
330
1F
100
AcDbEntity
  8
AM_0
 48
0.5
100
AcDbEllipse
 10
2.22624206543003
 20
16.653011322021
 30
0.0
 11
0.0240783487259934
 21
0.3935699346150017
 31
0.0
210
0.0
220
0.0
230
1.0
 40
0.5036643166537002
 41
4.578749682617178
 42
6.180467389451183
  0
ELLIPSE
  5
A773
330
1F
100
AcDbEntity
  8
AM_0
 48
0.5
100
AcDbEllipse
 10
1.793937683105014
 20
0.2008132934569955
 30
0.0
 11
0.0572128214409986
 21
-0.1962280281269955
 31
0.0
210
0.0
220
0.0
230
1.0
 40
0.9785017093084
 41
6.001731234619847
 42
7.608173355289933
  0
ELLIPSE
  5
A775
330
1F
100
AcDbEntity
  8
AM_0
 48
0.5
100
AcDbEllipse
 10
0.7983398437500022
 20
17.037014007568
 30
0.0
 11
0.0074005230620031
 21
-0.4001312203440082
 31
0.0
210
0.0
220
0.0
230
1.0
 40
0.4959771297881
 41
2.999245005001321
 42
4.571220401065768
  0
ELLIPSE
  5
A776
330
1F
100
AcDbEntity
  8
AM_0
 48
0.5
100
AcDbEllipse
 10
-73.99788665771506
 20
0.1419258117670187
 30
0.0
 11
0.2884368854099932
 21
-0.2772808040459936
 31
0.0
210
0.0
220
0.0
230
1.0
 40
0.0499698727716
 41
6.205824316920947
 42
7.800906602960115
  0
ELLIPSE
  5
A777
330
1F
100
AcDbEntity
  8
AM_0
 48
0.5
100
AcDbEllipse
 10
13.74465179443404
 20
0.0142974853509995
 30
0.0
 11
22.76292183792198
 21
-1.036514237150006
 31
0.0
210
0.0
220
0.0
230
1.0
 40
0.0874244393407
 41
1.976903987272671
 42
2.217159830662724
  0
ELLIPSE
  5
A778
330
1F
100
AcDbEntity
  8
AM_0
 48
0.5
100
AcDbEllipse
 10
-67.81063079833507
 20
16.55247116088801
 30
0.0
 11
0.0953979511999991
 21
0.3900070085679915
 31
0.0
210
0.0
220
0.0
230
1.0
 40
0.0605587070287
 41
6.115423699455137
 42
6.206632346446303
  0
ELLIPSE
  5
A779
330
1F
100
AcDbEntity
  8
AM_0
 48
0.5
100
AcDbEllipse
 10
-86.36782073974494
 20
12.39597702026302
 30
0.0
 11
0.182250981409993
 21
-0.0992088333049992
 31
0.0
210
0.0
220
0.0
230
1.0
 40
0.0241043496454
 41
1.603182867757431
 42
3.141596280437558
  0
ELLIPSE
  5
A77B
330
1F
100
AcDbEntity
  8
AM_0
 48
0.5
100
AcDbEllipse
 10
-72.25547027587504
 20
-0.2924919128419799
 30
0.0
 11
0.0053939927400108
 21
-0.2074394151320007
 31
0.0
210
0.0
220
0.0
230
1.0
 40
0.0231335959144
 41
4.669808792672521
 42
6.283185307179585
  0
ELLIPSE
  5
A77C
330
1F
100
AcDbEntity
  8
AM_0
 48
0.5
100
AcDbEllipse
 10
-68.30373382567495
 20
18.278247833252
 30
0.0
 11
0.176986691159982
 21
0.1083145125409999
 31
0.0
210
0.0
220
0.0
230
1.0
 40
0.0471684594963
 41
0.0
 42
1.570792201634474
  0
ELLIPSE
  5
A77D
330
1F
100
AcDbEntity
  8
AM_0
 48
0.5
100
AcDbEllipse
 10
2.475242614745982
 20
18.56681442260699
 30
0.0
 11
0.2002029365080062
 21
-0.008956909216991
 31
0.0
210
0.0
220
0.0
230
1.0
 40
0.6711618281172998
 41
6.221955234190756
 42
7.828152084094242
  0
ELLIPSE
  5
A77F
330
1F
100
AcDbEntity
  8
AM_0
 48
0.5
100
AcDbEllipse
 10
0.1999359130859375
 20
0.2041091918939982
 30
0.0
 11
0.0358123879200037
 21
0.2010345431219989
 31
0.0
210
0.0
220
0.0
230
1.0
 40
0.9784386474409
 41
1.70689115199227
 42
3.316065100302165
  0
ARC
  5
A781
330
1F
100
AcDbEntity
  8
AM_0
 48
0.5
100
AcDbCircle
 10
-73.25008392333507
 20
20.767993927002
 30
0.0
 40
18.0
100
AcDbArc
 50
274.727622212571
 51
315.915472907883
  0
ARC
  5
A783
330
1F
100
AcDbEntity
  8
AM_0
100
AcDbCircle
 10
-73.25008392333507
 20
20.767993927002
 30
0.0
 40
18.0
100
AcDbArc
 50
60.00000166965117
 51
257.9448807227148
  0
ARC
  5
A784
330
1F
100
AcDbEntity
  8
AM_0
 48
0.5
100
AcDbCircle
 10
-72.25008392333506
 20
22.500041961669
 30
0.0
 40
16.0
100
AcDbArc
 50
20.36413558586014
 51
60.00000166965117
  0
CIRCLE
  5
A786
330
1F
100
AcDbEntity
  8
AM_11
 48
0.3
100
AcDbCircle
 10
-72.25008392333506
 20
19.50004196166899
 30
0.0
 40
20.0
  0
LINE
  5
A787
330
1F
100
AcDbEntity
  8
AM_0
 48
0.5
100
AcDbLine
 10
-60.32042694091501
 20
8.245052337646011
 30
0.0
 11
-57.25008392333506
 21
16.93227767944302
 31
0.0
  0
LINE
  5
A788
330
1F
100
AcDbEntity
  8
AM_7
100
AcDbLine
 10
-97.96134185790505
 20
22.50004196166902
 30
0.0
 11
-46.06958770751496
 21
22.50004196166902
 31
0.0
  0
LINE
  5
A789
330
1F
100
AcDbEntity
  8
AM_7
100
AcDbLine
 10
-94.12508392333505
 20
19.50004196166902
 30
0.0
 11
-50.37508392333506
 21
19.50004196166902
 31
0.0
  0
LINE
  5
A78B
330
1F
100
AcDbEntity
  8
AM_7
100
AcDbLine
 10
-72.25008392333506
 20
44.39677047729401
 30
0.0
 11
-72.25008392333506
 21
-4.505622863769976
 31
0.0
  0
LINE
  5
A78C
330
1F
100
AcDbEntity
  8
AM_0
 48
0.5
100
AcDbLine
 10
-67.16024418012144
 20
18.91628716468354
 30
0.0
 11
-62.51206207274503
 21
35.19536209106402
 31
0.0
  0
CIRCLE
  5
A793
330
1F
100
AcDbEntity
  8
AM_0
 48
0.5
100
AcDbCircle
 10
-75.65906524657498
 20
10.12765884399401
 30
0.0
 40
3.5
  0
CIRCLE
  5
A794
330
1F
100
AcDbEntity
  8
AM_0
 48
0.5
100
AcDbCircle
 10
-75.65906524657498
 20
10.12765884399401
 30
0.0
 40
3.0
  0
CIRCLE
  5
A795
330
1F
100
AcDbEntity
  8
AM_0
 48
0.5
100
AcDbCircle
 10
-75.65906524657498
 20
10.12765884399401
 30
0.0
 40
4.0999999046326
  0
LINE
  5
A796
330
1F
100
AcDbEntity
  8
AM_7
100
AcDbLine
 10
-76.44121551513501
 20
5.189212799072022
 30
0.0
 11
-74.87686920165504
 21
15.06609725952103
 31
0.0
  0
LINE
  5
A797
330
1F
100
AcDbEntity
  8
AM_0
 48
0.5
100
AcDbLine
 10
-70.56710029681301
 20
3.732867208258082
 30
0.0
 11
-68.91872406005496
 21
10.78596115112303
 31
0.0
  0
LINE
  5
A799
330
1F
100
AcDbEntity
  8
AM_0
 48
0.5
100
AcDbLine
 10
-73.96903228759504
 20
0.1418991088860244
 30
0.0
 11
-83.60352325439498
 21
9.451381683349026
 31
0.0
  0
LINE
  5
A79A
330
1F
100
AcDbEntity
  8
AM_0
 48
0.5
100
AcDbLine
 10
-77.06259918212504
 20
3.103221893310019
 30
0.0
 11
-83.60123443603503
 21
9.421466827392022
 31
0.0
  0
ARC
  5
A79D
330
1F
100
AcDbEntity
  8
AM_0
 48
0.5
100
AcDbCircle
 10
-70.311454772945
 20
1.749828338623015
 30
0.0
 40
1.9994493722916
100
AcDbArc
 50
97.34582966767646
 51
181.4950241352449
  0
LINE
  5
A79E
330
1F
100
AcDbEntity
  8
AM_0
 48
0.5
100
AcDbLine
 10
-73.71138251749973
 20
-0.1356365725957235
 30
0.0
 11
-73.71176910399505
 21
-0.1355400085449768
 31
0.0
  0
LINE
  5
A79F
330
1F
100
AcDbEntity
  8
AM_0
 48
0.5
100
AcDbLine
 10
-72.24989803972658
 20
-0.5000265748682118
 30
0.0
 11
-72.25003814696504
 21
-0.4999923706059787
 31
0.0
  0
LINE
  5
A7A2
330
1F
100
AcDbEntity
  8
AM_0
 48
0.5
100
AcDbLine
 10
-72.25006866454498
 20
-0.5000152587889756
 30
0.0
 11
-73.71175384521506
 21
-0.1355667114259783
 31
0.0
  0
LINE
  5
A7A3
330
1F
100
AcDbEntity
  8
AM_0
 48
0.5
100
AcDbLine
 10
-72.26052093505495
 20
-0.2840957641609787
 30
0.0
 11
-72.31021881103505
 21
1.697673797607022
 31
0.0
  0
LINE
  5
A7AA
330
1F
100
AcDbEntity
  8
AM_0
 48
0.5
100
AcDbLine
 10
-65.33522796630496
 20
25.30795669555602
 30
0.0
 11
-90.12157440185502
 21
27.04118728637702
 31
0.0
  0
LINE
  5
A7AB
330
1F
100
AcDbEntity
  8
AM_7
100
AcDbLine
 10
-70.72060394286495
 20
9.345485687255019
 30
0.0
 11
-80.59748077392498
 21
10.90982437133702
 31
0.0
  0
LINE
  5
A7AC
330
1F
100
AcDbEntity
  8
AM_0
 48
0.5
100
AcDbLine
 10
-85.14788055419501
 20
13.67066574096602
 30
0.0
 11
-72.25489044189498
 21
17.36340713500901
 31
0.0
  0
LINE
  5
A7AD
330
1F
100
AcDbEntity
  8
AM_0
 48
0.5
100
AcDbLine
 10
-82.91335296630496
 20
14.31895828247002
 30
0.0
 11
-72.26709747314498
 21
17.36825180053702
 31
0.0
  0
ARC
  5
A7AF
330
1F
100
AcDbEntity
  8
AM_0
 48
0.5
100
AcDbCircle
 10
-84.96971893310501
 20
13.83047103881802
 30
0.0
 40
2.0
100
AcDbArc
 50
46.00007072032359
 51
143.180777457737
  0
ARC
  5
A7B1
330
1F
100
AcDbEntity
  8
AM_0
 48
0.5
100
AcDbCircle
 10
-85.58676910399503
 20
9.702335357666022
 30
0.0
 40
1.9993273019791
100
AcDbArc
 50
30.96769520624193
 51
61.43581671621257
  0
LINE
  5
A7B2
330
1F
100
AcDbEntity
  8
AM_0
 48
0.5
100
AcDbLine
 10
-84.75382232665504
 20
13.85992050170902
 30
0.0
 11
-82.71671295165504
 21
14.43499374389603
 31
0.0
  0
LINE
  5
A7B3
330
1F
100
AcDbEntity
  8
AM_0
 48
0.5
100
AcDbLine
 10
-83.60126495360498
 20
9.421474456787022
 30
0.0
 11
-85.77793121337505
 21
11.52463150024402
 31
0.0
  0
ARC
  5
A7B4
330
1F
100
AcDbEntity
  8
AM_0
 48
0.5
100
AcDbCircle
 10
-85.31705474853506
 20
13.47080612182602
 30
0.0
 40
2.0
100
AcDbArc
 50
128.8192665390277
 51
256.6767878014101
  0
LINE
  5
A7B5
330
1F
100
AcDbEntity
  8
AM_0
 48
0.5
100
AcDbLine
 10
-85.18735504149502
 20
13.72890090942303
 30
0.0
 11
-85.501762390135
 21
13.57782363891603
 31
0.0
  0
LINE
  5
A7B8
330
1F
100
AcDbEntity
  8
AM_0
 48
0.5
100
AcDbLine
 10
-84.58449554442495
 20
11.38120651245102
 30
0.0
 11
-84.63080596923498
 21
11.45830154418902
 31
0.0
  0
LINE
  5
A7B9
330
1F
100
AcDbEntity
  8
AM_0
 48
0.5
100
AcDbLine
 10
-86.55016326903501
 20
12.49522018432602
 30
0.0
 11
-85.50403594970498
 21
13.57648086547803
 31
0.0
  0
LINE
  5
A7BA
330
1F
100
AcDbEntity
  8
AM_0
 48
0.5
100
AcDbLine
 10
-86.37296295165503
 20
12.40439987182602
 30
0.0
 11
-84.63082122802507
 21
11.45831680297803
 31
0.0
  0
ARC
  5
A7BC
330
1F
100
AcDbEntity
  8
AM_0
 48
0.5
100
AcDbCircle
 10
-85.58676910399503
 20
9.702335357666022
 30
0.0
 40
1.9999824762344
100
AcDbArc
 50
352.7887485997796
 51
30.96769520624193
  0
LINE
  5
A7C0
330
1F
100
AcDbEntity
  8
AM_0
 48
0.5
100
AcDbLine
 10
-83.58043670653501
 20
15.26907730102502
 30
0.0
 11
-82.662406921385
 21
14.38254165649402
 31
0.0
  0
LINE
  5
A7C1
330
1F
100
AcDbEntity
  8
PV0001_1
  6
Continuous
 48
0.5
100
AcDbLine
 10
-67.01093387022797
 20
18.87365442823923
 30
0.0
 11
-67.61589195069165
 21
16.45971044003407
 31
0.0
  0
LINE
  5
A7C3
330
1F
100
AcDbEntity
  8
AM_0
 48
0.5
100
AcDbLine
 10
-68.12671661376497
 20
18.386402130127
 30
0.0
 11
-67.71326446532497
 21
16.93962478637702
 31
0.0
  0
LINE
  5
A7C5
330
1F
100
AcDbEntity
  8
AM_0
 48
0.5
100
AcDbLine
 10
-68.54093170165504
 20
12.11641311645502
 30
0.0
 11
-67.54277743680802
 21
16.09911866205425
 31
0.0
  0
LINE
  5
A7C6
330
1F
100
AcDbEntity
  8
AM_0
 48
0.5
100
AcDbLine
 10
-72.26706695556504
 20
17.36823654174803
 30
0.0
 11
-67.01093387022797
 21
18.87365442823923
 31
0.0
  0
LINE
  5
A7CC
330
1F
100
AcDbEntity
  8
AM_0
 48
0.5
100
AcDbLine
 10
-68.91873931884504
 20
10.78593826293902
 30
0.0
 11
-68.52470856401089
 21
12.11159102778957
 31
0.0
  0
ARC
  5
A7D0
330
1F
100
AcDbEntity
  8
AM_0
 48
0.5
100
AcDbCircle
 10
-71.04404449462504
 20
18.95476150512699
 30
0.0
 40
1.997533798217799
100
AcDbArc
 50
232.7330032328802
 51
301.4662691904196
  0
LINE
  5
A7D1
330
1F
100
AcDbEntity
  8
AM_0
 48
0.5
100
AcDbLine
 10
-68.30875396728504
 20
18.28664016723602
 30
0.0
 11
-70.00130462646507
 21
17.25097274780202
 31
0.0
  0
LINE
  5
A7D2
330
1F
100
AcDbEntity
  8
AM_0
 48
0.5
100
AcDbLine
 10
-67.54277743680808
 20
16.09911866205425
 30
0.0
 11
-67.71295928954497
 21
16.93843460083002
 31
0.0
  0
LINE
  5
A7DB
330
1F
100
AcDbEntity
  8
AM_0
 48
0.5
100
AcDbLine
 10
1.09031677246094
 20
25.50004196166899
 30
0.0
 11
14.09032058715798
 21
38.50004959106399
 31
0.0
  0
LINE
  5
A7DD
330
1F
100
AcDbEntity
  8
AM_0
 48
0.5
100
AcDbLine
 10
4.837394714355014
 20
2.300041198730002
 30
0.0
 11
17.99975204467796
 21
2.30004119873
 31
0.0
  0
LINE
  5
A7DE
330
1F
100
AcDbEntity
  8
AM_0
 48
0.5
100
AcDbLine
 10
3.463745117187038
 20
-57.78154110908509
 30
0.0
 11
9.890647888184039
 21
-55.94646167755129
 31
0.0
  0
LINE
  5
A7DF
330
1F
100
AcDbEntity
  8
AM_0
 48
0.5
100
AcDbLine
 10
4.84438323974598
 20
2.500041961669
 30
0.0
 11
28.92820358276401
 21
2.500041961668997
 31
0.0
  0
LINE
  5
A7E7
330
1F
100
AcDbEntity
  8
AM_0
 48
0.5
100
AcDbLine
 10
-57.25008392333506
 20
28.06780624389602
 30
0.0
 11
-57.25008392333506
 21
16.93227767944302
 31
0.0
  0
LINE
  5
A7E8
330
1F
100
AcDbEntity
  8
AM_0
 48
0.5
100
AcDbLine
 10
0.6002426147459822
 20
17.076213836669
 30
0.0
 11
0.1339263916020176
 21
3.723712921141998
 31
0.0
  0
LINE
  5
A7E9
330
1F
100
AcDbEntity
  8
AM_0
 48
0.5
100
AcDbLine
 10
4.883720397948992
 20
3.715015411376997
 30
0.0
 11
5.447196960448994
 21
19.857730865478
 31
0.0
  0
LINE
  5
A7EA
330
1F
100
AcDbEntity
  8
AM_0
 48
0.5
100
AcDbLine
 10
4.06581878662098
 20
8.933979034423007
 30
0.0
 11
3.832756042480014
 21
2.257350921629995
 31
0.0
  0
LINE
  5
A7EB
330
1F
100
AcDbEntity
  8
AM_0
 48
0.5
100
AcDbLine
 10
4.833244323730014
 20
2.181179046629995
 30
0.0
 11
4.99013519287098
 21
6.672542572021002
 31
0.0
  0
LINE
  5
A7EC
330
1F
100
AcDbEntity
  8
AM_0
 48
0.5
100
AcDbLine
 10
1.933235072333218
 20
1.591486573164185
 30
0.0
 11
0.0850448608399577
 21
1.661212921141999
 31
0.0
  0
LINE
  5
A7ED
330
1F
100
AcDbEntity
  8
AM_0
 48
0.5
100
AcDbLine
 10
1.79594421386696
 20
-0.0032997131350003
 30
0.0
 11
0.1980361938479973
 21
0.0
 31
0.0
  0
LINE
  5
A7EE
330
1F
100
AcDbEntity
  8
AM_0
 48
0.5
100
AcDbLine
 10
0.0001144409179688
 20
0.2116088867179968
 30
0.0
 11
0.0849858124378218
 21
1.65856306494534
 31
0.0
  0
LINE
  5
A7EF
330
1F
100
AcDbEntity
  8
AM_0
 48
0.5
100
AcDbLine
 10
4.833236694335936
 20
2.181179046629995
 30
0.0
 11
2.428237915039062
 21
2.013313293456991
 31
0.0
  0
LINE
  5
A7F0
330
1F
100
AcDbEntity
  8
AM_0
 48
0.5
100
AcDbLine
 10
2.42826843261696
 20
2.013294219969995
 30
0.0
 11
1.915601690887456
 21
1.997144348504623
 31
0.0
  0
LINE
  5
A7F1
330
1F
100
AcDbEntity
  8
AM_0
 48
0.5
100
AcDbLine
 10
1.994033813477017
 20
0.207527160643998
 30
0.0
 11
1.915601690887456
 21
1.997144348504623
 31
0.0
  0
LINE
  5
A7F2
330
1F
100
AcDbEntity
  8
AM_0
 48
0.5
100
AcDbLine
 10
4.886840820312046
 20
3.715007781981998
 30
0.0
 11
4.883728027343977
 21
3.715007781981998
 31
0.0
  0
LINE
  5
A7F3
330
1F
100
AcDbEntity
  8
AM_0
 48
0.5
100
AcDbLine
 10
4.886329650879019
 20
3.700016021728006
 30
0.0
 11
4.886833190917968
 21
3.715015411376997
 31
0.0
  0
LINE
  5
A7F4
330
1F
100
AcDbEntity
  8
AM_0
 48
0.5
100
AcDbLine
 10
1.09031677246094
 20
25.50004196166899
 30
0.0
 11
0.8878326416020197
 21
19.69762039184499
 31
0.0
  0
LINE
  5
A7F5
330
1F
100
AcDbEntity
  8
AM_0
 48
0.5
100
AcDbLine
 10
3.256151443521505
 20
17.06073687324127
 30
0.0
 11
2.19580078125
 21
8.896625518798007
 31
0.0
  0
LINE
  5
A7F6
330
1F
100
AcDbEntity
  8
AM_0
 48
0.5
100
AcDbLine
 10
2.419326782227019
 20
16.58710861205999
 30
0.0
 11
1.406906127930029
 21
8.883563995361003
 31
0.0
  0
LINE
  5
A7F7
330
1F
100
AcDbEntity
  8
AM_0
 48
0.5
100
AcDbLine
 10
2.270439147948993
 20
17.043308258056
 30
0.0
 11
0.8191452026369482
 21
17.43351364135699
 31
0.0
  0
LINE
  5
A7F8
330
1F
100
AcDbEntity
  8
AM_0
 48
0.5
100
AcDbLine
 10
2.486114501953013
 20
18.70101547241199
 30
0.0
 11
0.8907165527340362
 21
18.79871749877899
 31
0.0
  0
LINE
  5
A7F9
330
1F
100
AcDbEntity
  8
AM_0
 48
0.5
100
AcDbLine
 10
0.8878326416020197
 20
19.697643280029
 30
0.0
 11
3.29853820800804
 21
19.60673904418898
 31
0.0
  0
LINE
  5
A7FA
330
1F
100
AcDbEntity
  8
AM_0
 48
0.5
100
AcDbLine
 10
3.29855346679699
 20
19.60671615600499
 30
0.0
 11
0.8791503906250023
 21
19.35161209106398
 31
0.0
  0
LINE
  5
A7FB
330
1F
100
AcDbEntity
  8
AM_0
 48
0.5
100
AcDbLine
 10
0.6008224487300162
 20
17.09000015258699
 30
0.0
 11
0.6840209960939797
 21
18.67660140991199
 31
0.0
  0
LINE
  5
A7FC
330
1F
100
AcDbEntity
  8
AM_0
 48
0.5
100
AcDbLine
 10
0.8191223144530134
 20
17.433498382568
 30
0.0
 11
0.8907241821290222
 21
18.79870223998999
 31
0.0
  0
LINE
  5
A7FD
330
1F
100
AcDbEntity
  8
AM_0
 48
0.5
100
AcDbLine
 10
0.8958282470699737
 20
18.798412322998
 30
0.0
 11
0.8791351318359398
 21
19.35161209106398
 31
0.0
  0
LINE
  5
A7FE
330
1F
100
AcDbEntity
  8
AM_0
 48
0.5
100
AcDbLine
 10
0.8818283081050164
 20
19.527820587158
 30
0.0
 11
0.8878326416020197
 21
19.69762802123999
 31
0.0
  0
LINE
  5
A7FF
330
1F
100
AcDbEntity
  8
AM_0
 48
0.5
100
AcDbLine
 10
0.8818130493159539
 20
19.527812957763
 30
0.0
 11
0.8791198730469908
 21
19.35161209106398
 31
0.0
  0
LINE
  5
A800
330
1F
100
AcDbEntity
  8
AM_0
 48
0.5
100
AcDbLine
 10
2.674713134765968
 20
18.55032730102499
 30
0.0
 11
2.419418334960939
 21
16.588123321533
 31
0.0
  0
LINE
  5
A801
330
1F
100
AcDbEntity
  8
AM_0
 48
0.5
100
AcDbLine
 10
2.486137390136947
 20
18.701023101806
 30
0.0
 11
2.270439147948993
 21
17.04332351684499
 31
0.0
  0
LINE
  5
A802
330
1F
100
AcDbEntity
  8
AM_0
 48
0.5
100
AcDbLine
 10
4.034034729004019
 20
17.203426361084
 30
0.0
 11
3.952331542968979
 21
19.914119720459
 31
0.0
  0
LINE
  5
A803
330
1F
100
AcDbEntity
  8
AM_0
 48
0.5
100
AcDbLine
 10
4.016738891602019
 20
17.203006744384
 30
0.0
 11
3.94303894043003
 21
19.64710617065399
 31
0.0
  0
LINE
  5
A804
330
1F
100
AcDbEntity
  8
AM_0
 48
0.5
100
AcDbLine
 10
3.952354431152004
 20
19.91410446166899
 30
0.0
 11
5.450561523437047
 21
19.857601165771
 31
0.0
  0
LINE
  5
A805
330
1F
100
AcDbEntity
  8
AM_0
 48
0.5
100
AcDbLine
 10
3.95234680175804
 20
19.914119720459
 30
0.0
 11
3.943046569823993
 21
19.647113800048
 31
0.0
  0
LINE
  5
A806
330
1F
100
AcDbEntity
  8
AM_0
 48
0.5
100
AcDbLine
 10
3.943023681640968
 20
19.647113800048
 30
0.0
 11
3.298522949218979
 21
19.606708526611
 31
0.0
  0
ARC
  5
A807
330
1F
100
AcDbEntity
  8
AM_0
 48
0.5
100
AcDbCircle
 10
15.101943969727
 20
-40.75533676147499
 30
0.0
 40
15.0
100
AcDbArc
 50
271.9998837146909
 51
312.8541274803682
  0
LINE
  5
A808
330
1F
100
AcDbEntity
  8
AM_0
 48
0.5
100
AcDbLine
 10
9.890647888184039
 20
-55.94646120071409
 30
0.0
 11
15.58118057250998
 21
-55.74774360656739
 31
0.0
  0
LINE
  5
A809
330
1F
100
AcDbEntity
  8
AM_0
 48
0.5
100
AcDbLine
 10
29.30773544311501
 20
8.245052337646001
 30
0.0
 11
29.99999618530297
 21
16.93228530883699
 31
0.0
  0
LINE
  5
A80A
330
1F
100
AcDbEntity
  8
AM_0
 48
0.5
100
AcDbLine
 10
30.0
 20
16.93227767944299
 30
0.0
 11
30.0
 21
6.500041961668996
 31
0.0
  0
LINE
  5
A80B
330
1F
100
AcDbEntity
  8
AM_0
 48
0.5
100
AcDbLine
 10
29.30773544311501
 20
8.245052337646001
 30
0.0
 11
28.92820358276401
 21
2.500041961668997
 31
0.0
  0
LINE
  5
A80C
330
1F
100
AcDbEntity
  8
AM_0
 48
0.5
100
AcDbLine
 10
30.00000381469703
 20
6.500041961668996
 30
0.0
 11
28.92820358276401
 21
2.500041961668997
 31
0.0
  0
LINE
  5
A80D
330
1F
100
AcDbEntity
  8
AM_0
 48
0.5
100
AcDbLine
 10
25.303955078125
 20
28.06780624389599
 30
0.0
 11
30.0
 21
16.93227767944299
 31
0.0
  0
LINE
  5
A810
330
1F
100
AcDbEntity
  8
AM_0
 48
0.5
100
AcDbLine
 10
249.0
 20
-51.75165176391605
 30
0.0
 11
249.0
 21
-81.75164794921803
 31
0.0
  0
LINE
  5
A811
330
1F
100
AcDbEntity
  8
AM_0
 48
0.5
100
AcDbLine
 10
250.0
 20
-51.75165176391605
 30
0.0
 11
250.0
 21
-81.75164794921803
 31
0.0
  0
SPLINE
  5
A814
330
1F
100
AcDbEntity
  8
AM_0
 48
0.5
100
AcDbSpline
210
0.0
220
0.0
230
1.0
 70
     8
 71
     3
 72
     9
 73
     5
 74
     3
 42
0.0000000001
 43
0.0000000001
 44
0.0000000001
 40
0.0
 40
0.0
 40
0.0
 40
0.0
 40
5.656855518862154
 40
11.31371103772329
 40
11.31371103772329
 40
11.31371103772329
 40
11.31371103772329
 10
248.9693760404331
 20
28.06780624389596
 30
0.0
 10
249.4693798551281
 20
26.21188481648694
 30
0.0
 10
250.4693874845182
 20
22.50004196166926
 30
0.0
 10
249.4693798551281
 20
18.78819910685162
 30
0.0
 10
248.9693760404331
 20
16.93227767944296
 30
0.0
 11
248.9693760404331
 21
28.06780624389596
 31
0.0
 11
249.9693836698231
 21
22.50004196166894
 31
0.0
 11
248.9693760404331
 21
16.93227767944296
 31
0.0
  0
ARC
  5
A815
330
1F
100
AcDbEntity
  8
AM_0
100
AcDbCircle
 10
122.710441589355
 20
22.50004196166897
 30
0.0
 40
16.000001907348
100
AcDbArc
 50
20.36415266133197
 51
159.6358506400752
  0
LINE
  5
A816
330
1F
100
AcDbEntity
  8
AM_7
100
AcDbLine
 10
122.710441589355
 20
41.48688888549396
 30
0.0
 11
122.710441589355
 21
-0.3815345764160307
 31
0.0
  0
LINE
  5
A817
330
1F
100
AcDbEntity
  8
AM_0
100
AcDbLine
 10
249.9693836698231
 20
37.50004959106394
 30
0.0
 11
249.9693836698231
 21
7.500041961668943
 31
0.0
  0
LINE
  5
A818
330
1F
100
AcDbEntity
  8
AM_0
 48
0.5
100
AcDbLine
 10
248.9693760404331
 20
38.50004959106395
 30
0.0
 11
248.9693760404331
 21
28.06780624389596
 31
0.0
  0
ARC
  5
A81A
330
1F
100
AcDbEntity
  8
AM_0
100
AcDbCircle
 10
122.710441589355
 20
22.50004196166897
 30
0.0
 40
16.000001907348
100
AcDbArc
 50
200.3641493599247
 51
339.6358473386679
  0
LINE
  5
A820
330
1F
100
AcDbEntity
  8
AM_0
 48
0.5
100
AcDbLine
 10
107.710441589355
 20
28.06781387329098
 30
0.0
 11
107.710441589355
 21
16.93227767944297
 31
0.0
  0
LINE
  5
A821
330
1F
100
AcDbEntity
  8
AM_0
100
AcDbLine
 10
147.710441589355
 20
28.06780624389597
 30
0.0
 11
248.9693760404331
 21
28.06780624389596
 31
0.0
  0
LINE
  5
A822
330
1F
100
AcDbEntity
  8
AM_0
100
AcDbLine
 10
147.710441589355
 20
16.93227767944297
 30
0.0
 11
248.9693760404331
 21
16.93227767944296
 31
0.0
  0
LINE
  5
A823
330
1F
100
AcDbEntity
  8
AM_0
100
AcDbLine
 10
147.710441589355
 20
6.500041961668969
 30
0.0
 11
250.0000000000001
 21
6.500041961668933
 31
0.0
  0
LINE
  5
A824
330
1F
100
AcDbEntity
  8
AM_0
 48
0.5
100
AcDbLine
 10
137.710441589355
 20
28.06781387329097
 30
0.0
 11
137.710441589355
 21
16.93227767944297
 31
0.0
  0
LINE
  5
A825
330
1F
100
AcDbEntity
  8
AM_0
 48
0.5
100
AcDbLine
 10
248.9693760404331
 20
16.93227767944296
 30
0.0
 11
248.9693760404331
 21
6.500041961668943
 31
0.0
  0
LINE
  5
A826
330
1F
100
AcDbEntity
  8
AM_0
 48
0.5
100
AcDbLine
 10
249.9693836698231
 20
7.500049591063942
 30
0.0
 11
248.9693836698231
 21
6.500049591063942
 31
0.0
  0
LINE
  5
A82A
330
1F
100
AcDbEntity
  8
AM_0
100
AcDbLine
 10
147.710441589355
 20
38.50004959106396
 30
0.0
 11
248.9693760404331
 21
38.50004959106395
 31
0.0
  0
LINE
  5
A82E
330
1F
100
AcDbEntity
  8
AM_0
 48
0.5
100
AcDbLine
 10
248.9693760404331
 20
38.50004196166895
 30
0.0
 11
249.9693836698231
 21
37.50004196166894
 31
0.0
  0
LINE
  5
AA05
330
1F
100
AcDbEntity
  8
AM_1
  6
Continuous
100
AcDbLine
 10
250.0
 20
28.67388534545897
 30
0.0
 11
250.0
 21
-66.75164890289313
 31
0.0
  0
DIMENSION
  5
AA06
330
1F
100
AcDbEntity
  8
AM_5
100
AcDbDimension
  2
*D7
 10
-0.000000000000003
 20
-32.67188176589161
 30
0.0
 11
125.0
 21
-29.27150775014358
 31
0.0
 70
    32
 71
     5
 42
250.0
  3
AM_JIS$0
100
AcDbAlignedDimension
 13
250.0
 23
-16.60117543796551
 33
0.0
 14
-0.000000000000002
 24
-16.60117543796548
 34
0.0
 50
180.0
100
AcDbRotatedDimension
  0
DIMENSION
  5
AA14
330
1F
100
AcDbEntity
  8
PV0001_1
100
AcDbDimension
  2
*D8
 10
137.710441589355
 20
-7.508651794151592
 30
0.0
 11
122.1830329895021
 21
-7.508651794151592
 31
0.0
 70
   160
  1
<>
 71
     5
 42
30.00000037387939
  3
AM_JIS$0
100
AcDbAlignedDimension
 13
107.7104412154756
 23
16.93227312498426
 33
0.0
 14
137.710441589355
 24
16.93227767944297
 34
0.0
100
AcDbRotatedDimension
1001
ACAD
1000
DSTYLE
1002
{
1070
   284
1070
     8
1070
   271
1070
     0
1070
    45
1040
0.1
1070
   173
1070
     1
1070
     6
1000
OPEN30
1070
     7
1000
OPEN30
1002
}
  0
DIMENSION
  5
AA55
330
1F
100
AcDbEntity
  8
AM_5
100
AcDbDimension
  2
*D9
 10
115.4128391560508
 20
8.261184572096972
 30
0.0
 11
144.2861725930713
 21
54.0340954219199
 31
0.0
 70
   163
 71
     5
 42
32.00000381469584
  3
AM_JIS$3
100
AcDbDiametricDimension
 15
130.0080440226592
 25
36.738899351241
 35
0.0
 40
0.0
  0
DIMENSION
  5
AA62
330
1F
100
AcDbEntity
  8
PV0001_1
100
AcDbDimension
  2
*D10
 10
30.0
 20
-17.83368839959143
 30
0.0
 11
14.99644734269224
 21
-17.83368839959143
 31
0.0
 70
   160
  1
<>
 71
     5
 42
30.00355265730775
  3
AM_JIS$0
100
AcDbAlignedDimension
 13
-0.0035526573077466
 23
31.69512455501059
 33
0.0
 14
30.0
 24
6.500041961668996
 34
0.0
100
AcDbRotatedDimension
1001
ACAD
1000
DSTYLE
1002
{
1070
   284
1070
     8
1070
   271
1070
     0
1070
    45
1040
0.1
1070
   173
1070
     1
1070
     6
1000
OPEN30
1070
     7
1000
OPEN30
1070
    75
1070
     1
1002
}
  0
DIMENSION
  5
AA63
330
1F
100
AcDbEntity
  8
PV0001_1
100
AcDbDimension
  2
*D11
 10
1.994289695098074
 20
-7.90246117919332
 30
0.0
 11
-4.991499314659903
 21
-7.902461179193311
 31
0.0
 70
   160
  1
<>
 71
     5
 42
1.993769356438004
  3
AM_JIS$0
100
AcDbAlignedDimension
 13
0.0005203386600709
 23
31.69512455501059
 33
0.0
 14
1.994289695098075
 24
0.1983215313523752
 34
0.0
100
AcDbRotatedDimension
1001
ACAD
1000
DSTYLE
1002
{
1070
   287
1070
     4
1070
    45
1040
0.1
1070
    75
1070
     1
1070
   173
1070
     1
1070
   279
1070
     1
1070
     6
1000
OPEN30
1070
     7
1000
OPEN30
1002
}
  0
DIMENSION
  5
AAA9
330
1F
100
AcDbEntity
  8
AM_5
100
AcDbDimension
  2
*D12
 10
-18.29371358398589
 20
22.50004196166899
 30
0.0
 11
-21.69408759973392
 21
11.25002098083449
 31
0.0
 70
    32
 71
     5
 42
22.50004196166899
  3
AM_JIS$0
100
AcDbAlignedDimension
 13
0.1980361938479973
 23
0.0
 33
0.0
 14
-3.665283203124997
 24
22.50004196166899
 34
0.0
 50
270.0
100
AcDbRotatedDimension
  0
DIMENSION
  5
AB12
330
1F
100
AcDbEntity
  8
AM_5
100
AcDbDimension
  2
*D13
 10
-72.25008392333506
 20
-4.505622863769976
 30
0.0
 11
-65.17830849508843
 21
54.62307269531783
 31
0.0
 70
    34
 71
     5
 42
0.245564139318363
  3
AM_JIS$2
100
AcDb2LineAngularDimension
 13
-68.54093170165504
 23
12.11641311645502
 33
0.0
 14
-67.54277743680802
 24
16.09911866205425
 34
0.0
 15
-72.25008392333506
 25
44.39677047729401
 35
0.0
 16
-63.39361329305783
 26
50.93119523728983
 36
0.0
1001
ACAD
1000
DSTYLE
1002
{
1070
   271
1070
     0
1002
}
  0
DIMENSION
  5
AC0A
330
1F
100
AcDbEntity
  8
AM_5
100
AcDbDimension
  2
*D14
 10
-72.31021881103505
 20
1.697673797607022
 30
0.0
 11
-73.9137776376674
 21
-11.70181068864081
 31
0.0
 70
   162
 71
     5
 42
0.0250722701722266
  3
AM_JIS$2
100
AcDb2LineAngularDimension
 13
-72.25008392333506
 23
44.39677047729401
 33
0.0
 14
-72.25008392333506
 24
-4.505622863769976
 34
0.0
 15
-72.26052093505495
 25
-0.2840957641609787
 35
0.0
 16
-72.06411301661773
 26
-11.82534047084906
 36
0.0
1001
ACAD
1000
DSTYLE
1002
{
1070
   271
1070
     0
1002
}
  0
DIMENSION
  5
AC46
330
1F
100
AcDbEntity
  8
AM_5
100
AcDbDimension
  2
*D15
 10
-17.431538170375
 20
-66.75164890289309
 30
0.0
 11
-20.831538170375
 21
-74.25164842605553
 31
0.0
 70
    32
 71
     5
 42
14.9999990463249
  3
AM_JIS$0
100
AcDbAlignedDimension
 13
29.99999999999999
 23
-81.751647949218
 33
0.0
 14
-4.489875793457039
 24
-66.75164890289309
 34
0.0
 50
270.0
100
AcDbRotatedDimension
  0
DIMENSION
  5
AC54
330
1F
100
AcDbEntity
  8
AM_5
100
AcDbDimension
  2
*D16
 10
-89.79455709267119
 20
9.898403496779629
 30
0.0
 11
-42.24716533675874
 21
32.91451243678952
 31
0.0
 70
   163
 71
     5
 42
39.99999999999991
  3
AM_JIS$3
100
AcDbDiametricDimension
 15
-54.70561075399898
 25
29.10168042655844
 35
0.0
 40
0.0
  0
DIMENSION
  5
ACD3
330
1F
100
AcDbEntity
  8
AM_5
100
AcDbDimension
  2
*D17
 10
-0.0000000000000082
 20
-66.75164890289309
 30
0.0
 11
3.038133519422531
 21
51.07910237025725
 31
0.0
 70
   162
 71
     5
 42
0.0349093239974208
  3
AM_JIS$2
100
AcDb2LineAngularDimension
 13
0.6002426147459822
 23
17.076213836669
 33
0.0
 14
0.1339263916020176
 24
3.723712921141998
 34
0.0
 15
0.0000000000000035
 25
28.673885345459
 35
0.0
 16
0.596706916501959
 26
51.16570770689106
 36
0.0
1001
ACAD
1000
DSTYLE
1002
{
1070
   271
1070
     0
1002
}
  0
ENDSEC
  0
SECTION
  2
OBJECTS
  0
DICTIONARY
  5
C
330
0
100
AcDbDictionary
281
     1
  3
ACAD_COLOR
350
ADA3
  3
ACAD_GROUP
350
D
  3
ACAD_LAYOUT
350
1A
  3
ACAD_MATERIAL
350
ADA2
  3
ACAD_MLINESTYLE
350
17
  3
ACAD_PLOTSETTINGS
350
19
  3
ACAD_PLOTSTYLENAME
350
E
  3
ACAD_TABLESTYLE
350
ADA4
  3
ACDBHEADERROUNDTRIPXREC
350
AE81
  3
ACDBVARIABLEDICTIONARY
350
30
  3
ACMDICTIONARY
350
4D
  3
AMG
350
3F
  3
AMGSNAPSETTINGS
350
73
  3
DWGPROPS
350
AE80
  3
ENG_DATA
350
21C6
  3
FILENAME
350
21C9
  3
HOLD_DIC_DATA
350
21C4
  3
TABLE_DIC_DATA
350
1C0B
  3
ZWKSIZE
350
21CB
  0
DICTIONARY
  5
165
330
1F
100
AcDbDictionary
280
     1
281
     1
  3
ACAD_INDEX
360
AD25
  3
ACAD_LAYOUTSELFREF
360
AD57
  0
DICTIONARY
  5
AD55
330
1B
100
AcDbDictionary
280
     1
281
     1
  3
ACAD_LAYOUTSELFREF
360
AD56
  0
DICTIONARY
  5
ADA3
102
{ACAD_REACTORS
330
C
102
}
330
C
100
AcDbDictionary
281
     1
  0
DICTIONARY
  5
D
102
{ACAD_REACTORS
330
C
102
}
330
C
100
AcDbDictionary
281
     1
  3
*A1
350
7C0D
  3
*A2
350
7C0E
  3
*A3
350
7FE3
  3
*A4
350
8E0E
  0
DICTIONARY
  5
1A
102
{ACAD_REACTORS
330
C
102
}
330
C
100
AcDbDictionary
281
     1
  3
Model
350
ADA6
  3
レイアウト1
350
ADA7
  0
DICTIONARY
  5
ADA2
102
{ACAD_REACTORS
330
C
102
}
330
C
100
AcDbDictionary
281
     1
  0
DICTIONARY
  5
17
102
{ACAD_REACTORS
330
C
102
}
330
C
100
AcDbDictionary
281
     1
  3
STANDARD
350
18
  0
DICTIONARY
  5
19
102
{ACAD_REACTORS
330
C
102
}
330
C
100
AcDbDictionary
281
     1
  0
ACDBDICTIONARYWDFLT
  5
E
102
{ACAD_REACTORS
330
C
102
}
330
C
100
AcDbDictionary
281
     1
  3
Normal
350
F
100
AcDbDictionaryWithDefault
340
F
  0
DICTIONARY
  5
ADA4
102
{ACAD_REACTORS
330
C
102
}
330
C
100
AcDbDictionary
281
     1
  3
Standard
350
ADA5
  0
DICTIONARY
  5
AE81
102
{ACAD_REACTORS
330
C
102
}
330
C
100
AcDbDictionary
281
     1
  0
DICTIONARY
  5
30
102
{ACAD_REACTORS
330
C
102
}
330
C
100
AcDbDictionary
281
     1
  3
CTABLESTYLE
350
AE7C
  3
DIMASSOC
350
AE7D
  3
INDEXCTL
350
31
  3
PROJECTNAME
350
AE7E
  3
SORTENTS
350
42BE
  0
DICTIONARY
  5
4D
102
{ACAD_REACTORS
330
C
102
}
330
C
100
AcDbDictionary
281
     1
  3
ACMSTDDICTIONARY
350
17E
  0
DICTIONARY
  5
3F
102
{ACAD_REACTORS
330
C
102
}
330
C
100
AcDbDictionary
281
     1
  0
DICTIONARY
  5
73
102
{ACAD_REACTORS
330
C
102
}
330
C
100
AcDbDictionary
281
     1
  0
XRECORD
  5
AE80
102
{ACAD_REACTORS
330
C
102
}
330
C
100
AcDbXrecord
280
     1
  1
DWGPROPS COOKIE
  2

  3

  4

  6

  7

  8

  9

300
AmdtFileType=82
301
=
302
=
303
=
304
=
305
=
306
=
307
=
308
=
309
=
 40
0.7410411458333334
 41
2451943.610431666
 42
2455603.398330799
  1

 90
        1
  0
DICTIONARY
  5
21C6
102
{ACAD_REACTORS
330
C
102
}
330
C
100
AcDbDictionary
281
     1
  3
ENG_ID
350
21C7
  0
DICTIONARY
  5
21C9
102
{ACAD_REACTORS
330
C
102
}
330
C
100
AcDbDictionary
281
     1
  3
FILENAME
350
21CA
  0
DICTIONARY
  5
21C4
102
{ACAD_REACTORS
330
C
102
}
330
C
100
AcDbDictionary
281
     1
  3
HOLD_DATA
350
21C5
  0
DICTIONARY
  5
1C0B
102
{ACAD_REACTORS
330
C
102
}
330
C
100
AcDbDictionary
281
     1
  3
INPUT_DATA
350
1C0D
  3
TABLE_DATA
350
1C0C
  0
DICTIONARY
  5
21CB
102
{ACAD_REACTORS
330
C
102
}
330
C
100
AcDbDictionary
281
     1
  3
ZWKSIZE
350
21CC
  0
DICTIONARY
  5
AD25
102
{ACAD_REACTORS
330
165
102
}
330
165
100
AcDbDictionary
281
     1
  3
*A1
350
AD26
  0
XRECORD
  5
AD57
102
{ACAD_REACTORS
330
165
102
}
330
165
100
AcDbXrecord
280
     1
340
1F
  0
XRECORD
  5
AD56
102
{ACAD_REACTORS
330
AD55
102
}
330
AD55
100
AcDbXrecord
280
     1
340
1B
  0
GROUP
  5
7C0D
102
{ACAD_REACTORS
330
D
102
}
330
D
100
AcDbGroup
300

 70
     1
 71
     1
  0
GROUP
  5
7C0E
102
{ACAD_REACTORS
330
D
102
}
330
D
100
AcDbGroup
300

 70
     1
 71
     1
  0
GROUP
  5
7FE3
102
{ACAD_REACTORS
330
D
102
}
330
D
100
AcDbGroup
300

 70
     1
 71
     1
  0
GROUP
  5
8E0E
102
{ACAD_REACTORS
330
D
102
}
330
D
100
AcDbGroup
300

 70
     1
 71
     1
  0
LAYOUT
  5
ADA6
102
{ACAD_XDICTIONARY
360
AE82
102
}
102
{ACAD_REACTORS
330
1A
102
}
330
1A
100
AcDbPlotSettings
  1

  2
SII LP-1010 (C2 VR)2R
  4

  6

 40
0.0
 41
0.0
 42
0.0
 43
0.0
 44
0.0
 45
0.0
 46
0.0
 47
0.0
 48
0.0
 49
0.0
140
0.0
141
0.0
142
1.0
143
1.0
 70
  1712
 72
     0
 73
     0
 74
     0
  7
sei_cad.ctb
 75
     0
147
1.0
148
0.0
149
0.0
100
AcDbLayout
  1
Model
 70
     1
 71
     0
 10
0.0
 20
0.0
 11
12.0
 21
9.0
 12
0.0
 22
0.0
 32
0.0
 14
0.0
 24
0.0
 34
0.0
 15
0.0
 25
0.0
 35
0.0
146
0.0
 13
0.0
 23
0.0
 33
0.0
 16
1.0
 26
0.0
 36
0.0
 17
0.0
 27
1.0
 37
0.0
 76
     0
330
1F
  0
LAYOUT
  5
ADA7
102
{ACAD_XDICTIONARY
360
AE84
102
}
102
{ACAD_REACTORS
330
1A
102
}
330
1A
100
AcDbPlotSettings
  1

  2
SII LP-1010 (C2 VR)2R
  4

  6

 40
0.0
 41
0.0
 42
0.0
 43
0.0
 44
0.0
 45
0.0
 46
0.0
 47
0.0
 48
0.0
 49
0.0
140
0.0
141
0.0
142
1.0
143
1.0
 70
   688
 72
     0
 73
     0
 74
     5
  7
sei_cad.ctb
 75
    16
147
1.0
148
0.0
149
0.0
100
AcDbLayout
  1
レイアウト1
 70
     1
 71
     1
 10
0.0
 20
0.0
 11
420.0
 21
297.0
 12
0.0
 22
0.0
 32
0.0
 14
1.000000000000000E+20
 24
1.000000000000000E+20
 34
1.000000000000000E+20
 15
-1.000000000000000E+20
 25
-1.000000000000000E+20
 35
-1.000000000000000E+20
146
0.0
 13
0.0
 23
0.0
 33
0.0
 16
1.0
 26
0.0
 36
0.0
 17
0.0
 27
1.0
 37
0.0
 76
     0
330
1B
  0
MLINESTYLE
  5
18
102
{ACAD_REACTORS
330
17
102
}
330
17
100
AcDbMlineStyle
  2
STANDARD
 70
     0
  3

 62
   256
 51
90.0
 52
90.0
 71
     2
 49
0.5
 62
   256
  6
BYLAYER
 49
-0.5
 62
   256
  6
BYLAYER
  0
ACDBPLACEHOLDER
  5
F
102
{ACAD_REACTORS
330
E
102
}
330
E
  0
TABLESTYLE
  5
ADA5
102
{ACAD_REACTORS
330
ADA4
102
}
330
ADA4
100
AcDbTableStyle
  3
Standard
 70
     0
 71
     0
 40
1.5
 41
1.5
280
     0
281
     0
  7
STANDARD
140
4.5
170
     2
 62
     0
 63
     7
283
     0
274
    -2
284
     1
 64
     0
275
    -2
285
     1
 65
     0
276
    -2
286
     1
 66
     0
277
    -2
287
     1
 67
     0
278
    -2
288
     1
 68
     0
279
    -2
289
     1
 69
     0
  7
STANDARD
140
6.0
170
     5
 62
     0
 63
     7
283
     0
274
    -2
284
     1
 64
     0
275
    -2
285
     1
 65
     0
276
    -2
286
     1
 66
     0
277
    -2
287
     1
 67
     0
278
    -2
288
     1
 68
     0
279
    -2
289
     1
 69
     0
  7
STANDARD
140
4.5
170
     5
 62
     0
 63
     7
283
     0
274
    -2
284
     1
 64
     0
275
    -2
285
     1
 65
     0
276
    -2
286
     1
 66
     0
277
    -2
287
     1
 67
     0
278
    -2
288
     1
 68
     0
279
    -2
289
     1
 69
     0
  0
DICTIONARYVAR
  5
AE7C
102
{ACAD_REACTORS
330
30
102
}
330
30
100
DictionaryVariables
280
     0
  1
STANDARD
  0
DICTIONARYVAR
  5
AE7D
102
{ACAD_REACTORS
330
30
102
}
330
30
100
DictionaryVariables
280
     0
  1
1
  0
DICTIONARYVAR
  5
31
102
{ACAD_REACTORS
330
30
102
}
330
30
100
DictionaryVariables
280
     0
  1
1
  0
DICTIONARYVAR
  5
AE7E
102
{ACAD_REACTORS
330
30
102
}
330
30
100
DictionaryVariables
280
     0
  1

  0
DICTIONARYVAR
  5
42BE
102
{ACAD_REACTORS
330
30
102
}
330
30
100
DictionaryVariables
280
     0
  1
96
  0
DICTIONARY
  5
17E
102
{ACAD_REACTORS
330
4D
102
}
330
4D
100
AcDbDictionary
281
     1
  0
XRECORD
  5
21C7
102
{ACAD_REACTORS
330
21C6
102
}
330
21C6
100
AcDbXrecord
280
     1
  1
HOLD
  0
XRECORD
  5
21CA
102
{ACAD_REACTORS
330
21C9
102
}
330
21C9
100
AcDbXrecord
280
     1
  1
21000065__00___
  0
XRECORD
  5
21C5
102
{ACAD_REACTORS
330
21C4
102
}
330
21C4
100
AcDbXrecord
280
     1
  1
クランクシャフト加工用 ^M^J１コーナー型 ^M^J15.875 ^M^J20 ^M^Jクランプオン ^M^J９０° ^M^J1 ^M^J鋼 ^M^J ^M^J ^M^J ^M^J ^M^J
  0
XRECORD
  5
1C0D
102
{ACAD_REACTORS
330
1C0B
102
}
330
1C0B
100
AcDbXrecord
280
     1
  1
1,,,,,,,,,^M^J2,,,,,,,,,^M^J3,,,,,,,,,^M^J4,,,,,,,,,^M^J5,,,,,,,,,^M^J6,,,,,,,,,^M^J7,,,,,,,,,^M^J8,,,,,,,,,^M^J9,,,,,,,,,^M^J10,,,,,,,,,
  0
XRECORD
  5
1C0C
102
{ACAD_REACTORS
330
1C0B
102
}
330
1C0B
100
AcDbXrecord
280
     1
  1
10,10
  0
XRECORD
  5
21CC
102
{ACAD_REACTORS
330
21CB
102
}
330
21CB
100
AcDbXrecord
280
     1
  1
3
  0
LAYER_INDEX
  5
AD26
102
{ACAD_REACTORS
330
AD25
102
}
330
AD25
100
AcDbIndex
 40
2455603.398330799
100
AcDbLayerIndex
  8
0
360
AD27
 90
        0
  8
AM_5
360
AD28
 90
        8
  8
DEFPOINTS
360
AD29
 90
        0
  8
AM_0
360
AD2A
 90
      171
  8
AM_6
360
AD2B
 90
        1
  8
AM_1
360
AD2C
 90
        2
  8
AM_7
360
AD2D
 90
        8
  8
PV0001_1
360
AD2E
 90
        4
  8
AM_11
360
AD2F
 90
        1
  0
DICTIONARY
  5
AE82
330
ADA6
100
AcDbDictionary
280
     1
281
     1
  3
ACAD_XREC_ROUNDTRIP
360
AE83
  0
DICTIONARY
  5
AE84
330
ADA7
100
AcDbDictionary
280
     1
281
     1
  3
ACAD_XREC_ROUNDTRIP
360
AE85
  0
IDBUFFER
  5
AD27
330
0
100
AcDbIdBuffer
  0
IDBUFFER
  5
AD28
330
0
100
AcDbIdBuffer
330
AA06
330
AA55
330
AAA9
330
AB12
330
AC0A
330
AC46
330
AC54
330
ACD3
  0
IDBUFFER
  5
AD29
330
0
100
AcDbIdBuffer
  0
IDBUFFER
  5
AD2A
330
0
100
AcDbIdBuffer
330
A726
330
A727
330
A728
330
A729
330
A72C
330
A72D
330
A72F
330
A730
330
A731
330
A732
330
A736
330
A737
330
A738
330
A739
330
A73A
330
A73B
330
A73C
330
A73D
330
A73E
330
A73F
330
A740
330
A741
330
A742
330
A743
330
A744
330
A745
330
A746
330
A747
330
A749
330
A74A
330
A74B
330
A74C
330
A74D
330
A74E
330
A74F
330
A750
330
A751
330
A752
330
A753
330
A754
330
A755
330
A756
330
A757
330
A758
330
A759
330
A75A
330
A75B
330
A75C
330
A75D
330
A75E
330
A75F
330
A760
330
A761
330
A764
330
A766
330
A767
330
A769
330
A76B
330
A76C
330
A76D
330
A76E
330
A76F
330
A770
330
A771
330
A772
330
A773
330
A775
330
A776
330
A777
330
A778
330
A779
330
A77B
330
A77C
330
A77D
330
A77F
330
A781
330
A783
330
A784
330
A787
330
A78C
330
A793
330
A794
330
A795
330
A797
330
A799
330
A79A
330
A79D
330
A79E
330
A79F
330
A7A2
330
A7A3
330
A7AA
330
A7AC
330
A7AD
330
A7AF
330
A7B1
330
A7B2
330
A7B3
330
A7B4
330
A7B5
330
A7B8
330
A7B9
330
A7BA
330
A7BC
330
A7C0
330
A7C3
330
A7C5
330
A7C6
330
A7CC
330
A7D0
330
A7D1
330
A7D2
330
A7DB
330
A7DD
330
A7DE
330
A7DF
330
A7E7
330
A7E8
330
A7E9
330
A7EA
330
A7EB
330
A7EC
330
A7ED
330
A7EE
330
A7EF
330
A7F0
330
A7F1
330
A7F2
330
A7F3
330
A7F4
330
A7F5
330
A7F6
330
A7F7
330
A7F8
330
A7F9
330
A7FA
330
A7FB
330
A7FC
330
A7FD
330
A7FE
330
A7FF
330
A800
330
A801
330
A802
330
A803
330
A804
330
A805
330
A806
330
A807
330
A808
330
A809
330
A80A
330
A80B
330
A80C
330
A80D
330
A810
330
A811
330
A814
330
A815
330
A817
330
A818
330
A81A
330
A820
330
A821
330
A822
330
A823
330
A824
330
A825
330
A826
330
A82A
330
A82E
  0
IDBUFFER
  5
AD2B
330
0
100
AcDbIdBuffer
330
83BD
  0
IDBUFFER
  5
AD2C
330
0
100
AcDbIdBuffer
330
A733
330
AA05
  0
IDBUFFER
  5
AD2D
330
0
100
AcDbIdBuffer
330
A72A
330
A72B
330
A788
330
A789
330
A78B
330
A796
330
A7AB
330
A816
  0
IDBUFFER
  5
AD2E
330
0
100
AcDbIdBuffer
330
A7C1
330
AA14
330
AA62
330
AA63
  0
IDBUFFER
  5
AD2F
330
0
100
AcDbIdBuffer
330
A786
  0
XRECORD
  5
AE83
102
{ACAD_REACTORS
330
AE82
102
}
330
AE82
100
AcDbXrecord
280
     1
102
SHADEPLOT
 70
     0
102
SHADEPLOTRESLEVEL
 70
     2
102
SHADEPLOTCUSTOMDPI
 70
   300
  0
XRECORD
  5
AE85
102
{ACAD_REACTORS
330
AE84
102
}
330
AE84
100
AcDbXrecord
280
     1
102
SHADEPLOT
 70
     0
102
SHADEPLOTRESLEVEL
 70
     2
102
SHADEPLOTCUSTOMDPI
 70
   300
  0
ENDSEC
  0
EOF
