  0
SECTION
  2
HEADER
  9
$ACADVER
  1
AC1015
  9
$ACADMAINTVER
 70
    20
  9
$DWGCODEPAGE
  3
ANSI_932
  9
$INSBASE
 10
0.0
 20
0.0
 30
0.0
  9
$EXTMIN
 10
-88.67268584661156
 20
-94.51824915095727
 30
-0.0015258207003583
  9
$EXTMAX
 10
142.2054527904021
 20
12.61252834498447
 30
0.0000000349246037
  9
$LIMMIN
 10
-180.1534737430533
 20
-113.7442427191531
  9
$LIMMAX
 10
116.9664025214369
 20
61.66918986507154
  9
$ORTHOMODE
 70
     1
  9
$REGENMODE
 70
     1
  9
$FILLMODE
 70
     1
  9
$QTEXTMODE
 70
     0
  9
$MIRRTEXT
 70
     1
  9
$LTSCALE
 40
1.0
  9
$ATTMODE
 70
     1
  9
$TEXTSIZE
 40
2.5
  9
$TRACEWID
 40
1.0
  9
$TEXTSTYLE
  7
STANDARD
  9
$CLAYER
  8
AM_5
  9
$CELTYPE
  6
BYLAYER
  9
$CECOLOR
 62
   256
  9
$CELTSCALE
 40
1.0
  9
$DISPSILH
 70
     0
  9
$DIMSCALE
 40
1.0
  9
$DIMASZ
 40
2.5
  9
$DIMEXO
 40
0.0
  9
$DIMDLI
 40
10.0
  9
$DIMRND
 40
0.0
  9
$DIMDLE
 40
0.0
  9
$DIMEXE
 40
1.0
  9
$DIMTP
 40
0.1
  9
$DIMTM
 40
0.1000000001
  9
$DIMTXT
 40
3.799999999999998
  9
$DIMCEN
 40
0.0
  9
$DIMTSZ
 40
0.0
  9
$DIMTOL
 70
     0
  9
$DIMLIM
 70
     0
  9
$DIMTIH
 70
     0
  9
$DIMTOH
 70
     0
  9
$DIMSE1
 70
     0
  9
$DIMSE2
 70
     0
  9
$DIMTAD
 70
     3
  9
$DIMZIN
 70
     9
  9
$DIMBLK
  1
OPEN30
  9
$DIMASO
 70
     1
  9
$DIMSHO
 70
     1
  9
$DIMPOST
  1

  9
$DIMAPOST
  1
"
  9
$DIMALT
 70
     0
  9
$DIMALTD
 70
     2
  9
$DIMALTF
 40
0.0393701
  9
$DIMLFAC
 40
1.0
  9
$DIMTOFL
 70
     1
  9
$DIMTVP
 40
0.0
  9
$DIMTIX
 70
     0
  9
$DIMSOXD
 70
     0
  9
$DIMSAH
 70
     0
  9
$DIMBLK1
  1

  9
$DIMBLK2
  1

  9
$DIMSTYLE
  2
AM_JIS
  9
$DIMCLRD
 70
   256
  9
$DIMCLRE
 70
   256
  9
$DIMCLRT
 70
     2
  9
$DIMTFAC
 40
0.71
  9
$DIMGAP
 40
1.5
  9
$DIMJUST
 70
     0
  9
$DIMSD1
 70
     0
  9
$DIMSD2
 70
     0
  9
$DIMTOLJ
 70
     0
  9
$DIMTZIN
 70
     8
  9
$DIMALTZ
 70
     0
  9
$DIMALTTZ
 70
     0
  9
$DIMUPT
 70
     0
  9
$DIMDEC
 70
     2
  9
$DIMTDEC
 70
     2
  9
$DIMALTU
 70
     2
  9
$DIMALTTD
 70
     2
  9
$DIMTXSTY
  7
STANDARD
  9
$DIMAUNIT
 70
     1
  9
$DIMADEC
 70
     1
  9
$DIMALTRND
 40
0.0
  9
$DIMAZIN
 70
     2
  9
$DIMDSEP
 70
    46
  9
$DIMATFIT
 70
     3
  9
$DIMFRAC
 70
     0
  9
$DIMLDRBLK
  1
OPEN30
  9
$DIMLUNIT
 70
     2
  9
$DIMLWD
 70
    -1
  9
$DIMLWE
 70
    -1
  9
$DIMTMOVE
 70
     0
  9
$LUNITS
 70
     2
  9
$LUPREC
 70
     2
  9
$SKETCHINC
 40
1.0
  9
$FILLETRAD
 40
0.1
  9
$AUNITS
 70
     1
  9
$AUPREC
 70
     5
  9
$MENU
  1
.
  9
$ELEVATION
 40
0.0
  9
$PELEVATION
 40
0.0
  9
$THICKNESS
 40
0.0
  9
$LIMCHECK
 70
     0
  9
$CHAMFERA
 40
0.5
  9
$CHAMFERB
 40
0.5
  9
$CHAMFERC
 40
20.0
  9
$CHAMFERD
 40
0.0
  9
$SKPOLY
 70
     0
  9
$TDCREATE
 40
2451943.610431666
  9
$TDUCREATE
 40
2451943.235431667
  9
$TDUPDATE
 40
2455603.419048391
  9
$TDUUPDATE
 40
2455603.044048392
  9
$TDINDWG
 40
0.5685368287
  9
$TDUSRTIMER
 40
0.5685366551
  9
$USRTIMER
 70
     1
  9
$ANGBASE
 50
0.0
  9
$ANGDIR
 70
     0
  9
$PDMODE
 70
     0
  9
$PDSIZE
 40
0.0
  9
$PLINEWID
 40
0.0
  9
$SPLFRAME
 70
     0
  9
$SPLINETYPE
 70
     6
  9
$SPLINESEGS
 70
     8
  9
$HANDSEED
  5
8665
  9
$SURFTAB1
 70
     6
  9
$SURFTAB2
 70
     6
  9
$SURFTYPE
 70
     6
  9
$SURFU
 70
     6
  9
$SURFV
 70
     6
  9
$UCSBASE
  2

  9
$UCSNAME
  2

  9
$UCSORG
 10
0.0
 20
0.0
 30
0.0
  9
$UCSXDIR
 10
1.0
 20
0.0
 30
0.0
  9
$UCSYDIR
 10
0.0
 20
1.0
 30
0.0
  9
$UCSORTHOREF
  2

  9
$UCSORTHOVIEW
 70
     0
  9
$UCSORGTOP
 10
0.0
 20
0.0
 30
0.0
  9
$UCSORGBOTTOM
 10
0.0
 20
0.0
 30
0.0
  9
$UCSORGLEFT
 10
0.0
 20
0.0
 30
0.0
  9
$UCSORGRIGHT
 10
0.0
 20
0.0
 30
0.0
  9
$UCSORGFRONT
 10
0.0
 20
0.0
 30
0.0
  9
$UCSORGBACK
 10
0.0
 20
0.0
 30
0.0
  9
$PUCSBASE
  2

  9
$PUCSNAME
  2

  9
$PUCSORG
 10
0.0
 20
0.0
 30
0.0
  9
$PUCSXDIR
 10
1.0
 20
0.0
 30
0.0
  9
$PUCSYDIR
 10
0.0
 20
1.0
 30
0.0
  9
$PUCSORTHOREF
  2

  9
$PUCSORTHOVIEW
 70
     0
  9
$PUCSORGTOP
 10
0.0
 20
0.0
 30
0.0
  9
$PUCSORGBOTTOM
 10
0.0
 20
0.0
 30
0.0
  9
$PUCSORGLEFT
 10
0.0
 20
0.0
 30
0.0
  9
$PUCSORGRIGHT
 10
0.0
 20
0.0
 30
0.0
  9
$PUCSORGFRONT
 10
0.0
 20
0.0
 30
0.0
  9
$PUCSORGBACK
 10
0.0
 20
0.0
 30
0.0
  9
$USERI1
 70
     0
  9
$USERI2
 70
     0
  9
$USERI3
 70
     0
  9
$USERI4
 70
     0
  9
$USERI5
 70
     0
  9
$USERR1
 40
0.0
  9
$USERR2
 40
0.0
  9
$USERR3
 40
0.0
  9
$USERR4
 40
0.0
  9
$USERR5
 40
0.0
  9
$WORLDVIEW
 70
     1
  9
$SHADEDGE
 70
     3
  9
$SHADEDIF
 70
    70
  9
$TILEMODE
 70
     1
  9
$MAXACTVP
 70
    64
  9
$PINSBASE
 10
0.0
 20
0.0
 30
0.0
  9
$PLIMCHECK
 70
     0
  9
$PEXTMIN
 10
1.000000000000000E+20
 20
1.000000000000000E+20
 30
1.000000000000000E+20
  9
$PEXTMAX
 10
-1.000000000000000E+20
 20
-1.000000000000000E+20
 30
-1.000000000000000E+20
  9
$PLIMMIN
 10
0.0
 20
0.0
  9
$PLIMMAX
 10
420.0
 20
297.0
  9
$UNITMODE
 70
     0
  9
$VISRETAIN
 70
     1
  9
$PLINEGEN
 70
     0
  9
$PSLTSCALE
 70
     1
  9
$TREEDEPTH
 70
  3020
  9
$CMLSTYLE
  2
STANDARD
  9
$CMLJUST
 70
     0
  9
$CMLSCALE
 40
20.0
  9
$PROXYGRAPHICS
 70
     1
  9
$MEASUREMENT
 70
     1
  9
$CELWEIGHT
370
    -1
  9
$ENDCAPS
280
     0
  9
$JOINSTYLE
280
     0
  9
$LWDISPLAY
290
     0
  9
$INSUNITS
 70
     4
  9
$HYPERLINKBASE
  1

  9
$STYLESHEET
  1
ASAMI.ctb
  9
$XEDIT
290
     1
  9
$CEPSNTYPE
380
     0
  9
$PSTYLEMODE
290
     1
  9
$FINGERPRINTGUID
  2
{C77AB3BE-9CA2-11D3-BAF3-006094EB760E}
  9
$VERSIONGUID
  2
{36211D4D-121F-4E55-AD7B-500C9F97E957}
  9
$EXTNAMES
290
     1
  9
$PSVPSCALE
 40
0.0
  9
$OLESTARTUP
290
     0
  0
ENDSEC
  0
SECTION
  2
CLASSES
  0
CLASS
  1
ACDBDICTIONARYWDFLT
  2
AcDbDictionaryWithDefault
  3
ObjectDBX Classes
 90
        0
280
     0
281
     0
  0
CLASS
  1
ACDBPLACEHOLDER
  2
AcDbPlaceHolder
  3
ObjectDBX Classes
 90
        0
280
     0
281
     0
  0
CLASS
  1
LAYOUT
  2
AcDbLayout
  3
ObjectDBX Classes
 90
        0
280
     0
281
     0
  0
CLASS
  1
ACME_DOCUMENT
  2
AcMeDbDoc
  3
AcMeServices
 90
        0
280
     0
281
     0
  0
CLASS
  1
ACMESCOPE
  2
AcMeScope
  3
AcMeServices
 90
        0
280
     0
281
     0
  0
CLASS
  1
ACMECOMMANDHISTORY
  2
AcMeCommandHistory
  3
AcMeServices
 90
        0
280
     0
281
     0
  0
CLASS
  1
DICTIONARYVAR
  2
AcDbDictionaryVar
  3
ObjectDBX Classes
 90
        0
280
     0
281
     0
  0
CLASS
  1
ACIMSYSVARMAN
  2
AcImSysVarManager
  3
AcMeServices
 90
        0
280
     0
281
     0
  0
CLASS
  1
ACIMREALSYSVAR
  2
AcImRealSysVar
  3
AcMeServices
 90
        0
280
     0
281
     0
  0
CLASS
  1
ACIMINTSYSVAR
  2
AcImIntSysVar
  3
AcMeServices
 90
        0
280
     0
281
     0
  0
CLASS
  1
ACMEDRAWINGMAN
  2
AcMeDrawingMan
  3
AcMeServices
 90
        0
280
     0
281
     0
  0
CLASS
  1
ACMEVIEW
  2
AcMeView
  3
AcMeServices
 90
        0
280
     0
281
     0
  0
CLASS
  1
ACDBENTITYCACHE
  2
AcMeEntityCache
  3
AcMeServices
 90
        0
280
     0
281
     0
  0
CLASS
  1
GSMANAGER
  2
AcMeGSManager
  3
AcMeServices
 90
        0
280
     0
281
     0
  0
CLASS
  1
AMDTINTERNALREACTOR
  2
AmdtInternalReactor
  3
AcMeServices
 90
        0
280
     0
281
     0
  0
CLASS
  1
ACMESTATEMGR
  2
AcMeStateMgr
  3
AcMeServices
 90
        0
280
     0
281
     0
  0
CLASS
  1
ACME_DATABASE
  2
AcMeDbDatabase
  3
AcMeServices
 90
        0
280
     0
281
     0
  0
CLASS
  1
ACRFINSADJUSTERMGR
  2
AcRfInsAdjusterMgr
  3
AcMeServices
 90
        0
280
     0
281
     0
  0
CLASS
  1
AMGSETTINGSOBJ
  2
AmgSettingsObj
  3
"AcadM|Product Description: AutoCAD Mechanical 2000|Company: Autodesk"
 90
        0
280
     0
281
     0
  0
CLASS
  1
AMGOBJPROPCFG
  2
AmgObjPropCfg
  3
"AmgLay|Product Description: AutoCAD Mechanical 2000|Company: Autodesk"
 90
        1
280
     0
281
     0
  0
CLASS
  1
ACMDATADICTIONARY
  2
AcmDataDictionary
  3
"AcmSymBB|Product Description: AutoCAD Mechanical 2004 DX|Company: Autodesk"
 90
        0
280
     0
281
     0
  0
CLASS
  1
ACMDATAENTRYBLOCK
  2
AcmDataEntryBlock
  3
"AcmSymBB|Product Description: AutoCAD Mechanical 2004 DX|Company: Autodesk"
 90
    32768
280
     0
281
     0
  0
CLASS
  1
ACIMSTRSYSVAR
  2
AcImStrSysVar
  3
AcMeServices
 90
        0
280
     0
281
     0
  0
CLASS
  1
ACAMGFILTERDAT
  2
AcAmgFilterDat
  3
"AcadM|Product Description: AutoCAD Mechanical 2000|Company: Autodesk"
 90
    32768
280
     0
281
     0
  0
CLASS
  1
LAYER_INDEX
  2
AcDbLayerIndex
  3
ObjectDBX Classes
 90
        0
280
     0
281
     0
  0
CLASS
  1
IDBUFFER
  2
AcDbIdBuffer
  3
ObjectDBX Classes
 90
        0
280
     0
281
     0
  0
CLASS
  1
ACMSTANDARDJIS
  2
AcmStandardJIS
  3
"Amdt_StdImp|Product Description: AutoCAD Mechanical 2004 DX|Company: Autodesk"
 90
    32768
280
     0
281
     0
  0
CLASS
  1
ACMSURFSTANDARDJIS
  2
AcmSurfTextStdJIS
  3
"Amdt_StdImp|Product Description: AutoCAD Mechanical 2004 DX|Company: Autodesk"
 90
    32768
280
     0
281
     0
  0
CLASS
  1
ACMFCFSTANDARDJIS
  2
AcmFCFStdJIS
  3
"Amdt_StdImp|Product Description: AutoCAD Mechanical 2004 DX|Company: Autodesk"
 90
    32768
280
     0
281
     0
  0
CLASS
  1
ACMWELDSTANDARDJIS
  2
AcmWeldingStdJIS
  3
"Amdt_StdImp|Product Description: AutoCAD Mechanical 2004 DX|Company: Autodesk"
 90
    32768
280
     0
281
     0
  0
CLASS
  1
ACMIDSTANDARDJIS
  2
AcmIdStdJIS
  3
"Amdt_StdImp|Product Description: AutoCAD Mechanical 2004 DX|Company: Autodesk"
 90
    32768
280
     0
281
     0
  0
CLASS
  1
ACMDATUMSTANDARDJIS
  2
AcmDatumStdJIS
  3
"Amdt_StdImp|Product Description: AutoCAD Mechanical 2004 DX|Company: Autodesk"
 90
    32768
280
     0
281
     0
  0
CLASS
  1
ACMBOMSTANDARDJIS
  2
AcmBOMStdJIS
  3
"Amdt_StdImp|Product Description: AutoCAD Mechanical 2004 DX|Company: Autodesk"
 90
    32768
280
     0
281
     0
  0
CLASS
  1
AMDTNOTE
  2
AmdtNote
  3
"AcmSymBB|Product Description: AutoCAD Mechanical 2004 DX|Company: Autodesk"
 90
    33791
280
     0
281
     1
  0
CLASS
  1
ACMDATAENTRYPART
  2
AcmDataEntryPart
  3
"AcmSymBB|Product Description: AutoCAD Mechanical 2004 DX|Company: Autodesk"
 90
    32768
280
     0
281
     0
  0
CLASS
  1
ACMPARTREF
  2
AcmPartRef
  3
"AcmSymBB|Product Description: AutoCAD Mechanical 2004 DX|Company: Autodesk"
 90
    33791
280
     0
281
     1
  0
CLASS
  1
ACDB_PROXY_ENTITY_DATA
  2
AcDbProxyEntityData
  3
ObjectDBX Classes
 90
    32768
280
     0
281
     0
  0
CLASS
  1
TABLESTYLE
  2
AcDbTableStyle
  3
ObjectDBX Classes
 90
     2047
280
     0
281
     0
  0
CLASS
  1
ACGREFMASTER
  2
AcGrefMaster
  3
AcAttribServices
 90
        0
280
     0
281
     0
  0
CLASS
  1
AM_DRAWING_MGR
  2
AcDmDwgMgr
  3
AcMechDwgViewMgmt
 90
        0
280
     0
281
     0
  0
CLASS
  1
AM_DWG_DOCUMENT
  2
AcDmDwgDocument
  3
AcMechDwgViewMgmt
 90
        0
280
     0
281
     0
  0
CLASS
  1
AM_DWG_SHEET
  2
AcDmSheet
  3
AcMechDwgViewMgmt
 90
        0
280
     0
281
     0
  0
CLASS
  1
AM_VIEWDIMPARMAP
  2
AcDmViewDimParMap
  3
AcMechDwgViewMgmt
 90
        0
280
     0
281
     0
  0
CLASS
  1
AM_DWGMGR_NAME
  2
AcDmDwgMgrName
  3
AcMechDwgViewMgmt
 90
        0
280
     0
281
     0
  0
CLASS
  1
ACGREFACADMASTER
  2
AcGrefacadMaster
  3
AcGrefServices
 90
        0
280
     0
281
     0
  0
CLASS
  1
AMDTMENUSTATEMGR
  2
AmdtMenuStateMgr
  3
McadcomServices
 90
        0
280
     0
281
     0
  0
CLASS
  1
AMDTMCOMMENUSTATE
  2
AmdtMcomMenuState
  3
McadcomServices
 90
        0
280
     0
281
     0
  0
CLASS
  1
AMIMASTER
  2
AmiMaster
  3
AmiServices
 90
        0
280
     0
281
     0
  0
CLASS
  1
MAPIAMMOUDLE
  2
MApiAmModule
  3
MApiAmServices
 90
        0
280
     0
281
     0
  0
CLASS
  1
AMDTADMENUSTATE
  2
AmdtAdMenuState
  3
DesignerServices
 90
        0
280
     0
281
     0
  0
CLASS
  1
ADAPPL
  2
AcAdAppl
  3
DesignerServices
 90
        0
280
     0
281
     0
  0
CLASS
  1
DEPMGR
  2
AcAdDepMgr
  3
DesignerServices
 90
        0
280
     0
281
     0
  0
CLASS
  1
PARAMMGR
  2
AcAdParamMgr
  3
DesignerServices
 90
        0
280
     0
281
     0
  0
CLASS
  1
PARAMSCOPE
  2
AcAdParamScope
  3
DesignerServices
 90
        0
280
     0
281
     0
  0
CLASS
  1
NAMEDAPPL
  2
AcAdNamedAppl
  3
DesignerServices
 90
        0
280
     0
281
     0
  0
CLASS
  1
AMDTDMMENUSTATE
  2
AmdtDmMenuState
  3
AcMechDwgViewMgmt
 90
        0
280
     0
281
     0
  0
CLASS
  1
AMDTAMMENUSTATE
  2
AmdtAmMenuState
  3
DesignerAssemblies
 90
        0
280
     0
281
     0
  0
CLASS
  1
ACAMPROJECT
  2
AcAmProject
  3
DesignerAssemblies
 90
        0
280
     0
281
     0
  0
CLASS
  1
ACAMGRCOMPDEF
  2
AcAmGrCompDef
  3
DesignerAssemblies
 90
        0
280
     0
281
     0
  0
CLASS
  1
ACCMCONTEXT
  2
AcCmContext
  3
DesignerAssemblies
 90
        0
280
     0
281
     0
  0
CLASS
  1
ACAMCOMPDEF
  2
AcAmCompDef
  3
DesignerAssemblies
 90
        0
280
     0
281
     0
  0
CLASS
  1
ACAMCOMPDEFMGR
  2
AcAmCompDefMgr
  3
DesignerAssemblies
 90
        0
280
     0
281
     0
  0
CLASS
  1
AMCONTEXTMGR
  2
AcAmContextMgr
  3
DesignerAssemblies
 90
        0
280
     0
281
     0
  0
CLASS
  1
ACAMCONTEXTMODELER
  2
AcAmContextModeler
  3
DesignerAssemblies
 90
        0
280
     0
281
     0
  0
CLASS
  1
CATALOGSTATE
  2
AcAmCatalogState
  3
DesignerAssemblies
 90
        0
280
     0
281
     0
  0
CLASS
  1
ACAMGRCOMPDEFSET
  2
AcAmGrCompDefSet
  3
DesignerAssemblies
 90
        0
280
     0
281
     0
  0
CLASS
  1
AMDTBROWSERDBTAB
  2
AmdtBrowserDbTab
  3
McadcomServices
 90
        0
280
     0
281
     0
  0
CLASS
  1
CBROWSERAPPOBJECT
  2
CBrowserAppObject
  3
McadcomServices
 90
        0
280
     0
281
     0
  0
CLASS
  1
DM_PLACEHOLDER
  2
AcDmSelsetPlaceholder
  3
AcMechDwgViewMgmt
 90
        0
280
     0
281
     0
  0
CLASS
  1
ACMSTANDARDISO
  2
AcmStandardISO
  3
"Amdt_StdImp|Product Description: AutoCAD Mechanical 2004 DX|Company: Autodesk"
 90
        0
280
     0
281
     0
  0
CLASS
  1
AMDTEDGESTANDARDISO13715
  2
AmdtEdgeStdISO13715
  3
"Amdt_StdImp|Product Description: AutoCAD Mechanical 2004 DX|Company: Autodesk"
 90
        0
280
     0
281
     0
  0
CLASS
  1
ACMSURFSTANDARDISO
  2
AcmSurfTextStdISO
  3
"Amdt_StdImp|Product Description: AutoCAD Mechanical 2004 DX|Company: Autodesk"
 90
        0
280
     0
281
     0
  0
CLASS
  1
ACMFCFSTANDARDISO
  2
AcmFCFStdISO
  3
"Amdt_StdImp|Product Description: AutoCAD Mechanical 2004 DX|Company: Autodesk"
 90
        0
280
     0
281
     0
  0
CLASS
  1
ACMWELDSTANDARDISO
  2
AcmWeldingStdISO
  3
"Amdt_StdImp|Product Description: AutoCAD Mechanical 2004 DX|Company: Autodesk"
 90
        0
280
     0
281
     0
  0
CLASS
  1
ACMIDSTANDARDISO
  2
AcmIdStdISO
  3
"Amdt_StdImp|Product Description: AutoCAD Mechanical 2004 DX|Company: Autodesk"
 90
        0
280
     0
281
     0
  0
CLASS
  1
ACMDATUMSTANDARDISO
  2
AcmDatumStdISO
  3
"Amdt_StdImp|Product Description: AutoCAD Mechanical 2004 DX|Company: Autodesk"
 90
        0
280
     0
281
     0
  0
CLASS
  1
ACMBOMSTANDARDISO
  2
AcmBOMStdISO
  3
"Amdt_StdImp|Product Description: AutoCAD Mechanical 2004 DX|Company: Autodesk"
 90
        0
280
     0
281
     0
  0
CLASS
  1
ACMDETAILSTANDARDISO
  2
AmdtDetailSymStdISO
  3
"Amdt_StdImp|Product Description: AutoCAD Mechanical 2004 DX|Company: Autodesk"
 90
        0
280
     0
281
     0
  0
CLASS
  1
ACMSECTIONSTANDARDISO
  2
AmdtSectionSymStdISO
  3
"Amdt_StdImp|Product Description: AutoCAD Mechanical 2004 DX|Company: Autodesk"
 90
        0
280
     0
281
     0
  0
CLASS
  1
ACMCENTERLINESTANDARDISO
  2
AmdtCenterLineStdISO
  3
"Amdt_StdImp|Product Description: AutoCAD Mechanical 2004 DX|Company: Autodesk"
 90
        0
280
     0
281
     0
  0
CLASS
  1
ACMTHREADLINESTANDARDISO
  2
AmdtThreadLineStdISO
  3
"Amdt_StdImp|Product Description: AutoCAD Mechanical 2004 DX|Company: Autodesk"
 90
        0
280
     0
281
     0
  0
CLASS
  1
ACMNOTESTANDARDISO
  2
AmdtNoteStdISO
  3
"Amdt_StdImp|Product Description: AutoCAD Mechanical 2004 DX|Company: Autodesk"
 90
        0
280
     0
281
     0
  0
CLASS
  1
AMDTNOTETEMPLATEDB
  2
AmdtNoteTemplateDB
  3
AMDT_STDIMP_MODULE_NAME
 90
        0
280
     0
281
     0
  0
CLASS
  1
ACAMGLAYSTD
  2
AcAmgLayStd
  3
"AcAmgLayStd|Product Description: AutoCAD Mechanical 2000|Company: Autodesk"
 90
        0
280
     0
281
     0
  0
CLASS
  1
ACAMGDIMSTD
  2
AcAmgDimStd
  3
"AcAmgDimStd|Product Description: AutoCAD Mechanical 2000|Company: Autodesk"
 90
        0
280
     0
281
     0
  0
CLASS
  1
ACAMGHOLECHARTSTDISO
  2
AcAmgHoleChartStdISO
  3
ACMSYMBB_MODULE_NAME
 90
        0
280
     0
281
     0
  0
CLASS
  1
ACAMGTITLESTD
  2
AcAmgTitleStd
  3
"TITLEAPP"
 90
        0
280
     0
281
     0
  0
ENDSEC
  0
SECTION
  2
TABLES
  0
TABLE
  2
VPORT
  5
8
330
0
100
AcDbSymbolTable
 70
     4
  0
VPORT
  5
865E
330
8
100
AcDbSymbolTableRecord
100
AcDbViewportTableRecord
  2
*Active
 70
     0
 10
0.0
 20
0.0
 11
1.0
 21
1.0
 12
26.76638347189524
 22
-40.9528604029864
 13
0.0
 23
0.0
 14
2.5
 24
2.5
 15
10.0
 25
10.0
 16
0.0
 26
0.0
 36
1.0
 17
0.0
 27
0.0
 37
0.0
 40
107.8959973351985
 41
2.176400476758045
 42
50.0
 43
0.0
 44
0.0
 50
0.0
 51
0.0
 71
     0
 72
  2000
 73
     1
 74
     3
 75
     0
 76
     0
 77
     0
 78
     0
281
     0
 65
     0
110
0.0
120
0.0
130
0.0
111
1.0
121
0.0
131
0.0
112
0.0
122
1.0
132
0.0
 79
     0
146
0.0
  0
ENDTAB
  0
TABLE
  2
LTYPE
  5
5
330
0
100
AcDbSymbolTable
 70
    16
  0
LTYPE
  5
14
330
5
100
AcDbSymbolTableRecord
100
AcDbLinetypeTableRecord
  2
BYBLOCK
 70
     0
  3

 72
    65
 73
     0
 40
0.0
  0
LTYPE
  5
15
330
5
100
AcDbSymbolTableRecord
100
AcDbLinetypeTableRecord
  2
BYLAYER
 70
     0
  3

 72
    65
 73
     0
 40
0.0
  0
LTYPE
  5
16
330
5
100
AcDbSymbolTableRecord
100
AcDbLinetypeTableRecord
  2
CONTINUOUS
 70
     0
  3
Solid line
 72
    65
 73
     0
 40
0.0
  0
LTYPE
  5
43
330
5
100
AcDbSymbolTableRecord
100
AcDbLinetypeTableRecord
  2
AM_ISO02W050
 70
     0
  3
__ __ __ __ __ __ __ __ __ __ __ __ __ __ __
 72
    65
 73
     2
 40
7.5
 49
6.0
 74
     0
 49
-1.5
 74
     0
  0
LTYPE
  5
44
330
5
100
AcDbSymbolTableRecord
100
AcDbLinetypeTableRecord
  2
AM_ISO08W050
 70
     0
  3
____ . ____ . ____ . ____ . ____ . ____ . ____
 72
    65
 73
     4
 40
18.0
 49
12.0
 74
     0
 49
-1.5
 74
     0
 49
3.0
 74
     0
 49
-1.5
 74
     0
  0
LTYPE
  5
45
330
5
100
AcDbSymbolTableRecord
100
AcDbLinetypeTableRecord
  2
AM_ISO09W050
 70
     0
  3
_____ . . _____ . . _____ . . ____ .. ____
 72
    65
 73
     6
 40
22.5
 49
12.0
 74
     0
 49
-1.5
 74
     0
 49
3.0
 74
     0
 49
-1.5
 74
     0
 49
3.0
 74
     0
 49
-1.5
 74
     0
  0
LTYPE
  5
46
330
5
100
AcDbSymbolTableRecord
100
AcDbLinetypeTableRecord
  2
AMCONSTR
 70
     0
  3
_______________________
 72
    65
 73
     2
 40
9999.0
 49
9999.0
 74
     0
 49
0.0
 74
     0
  0
LTYPE
  5
47
330
5
100
AcDbSymbolTableRecord
100
AcDbLinetypeTableRecord
  2
AM_ISO02W050X2
 70
     0
  3
 _ _ _ _ _ _ _ _ _ _ _ _
 72
    65
 73
     2
 40
3.75
 49
3.0
 74
     0
 49
-0.75
 74
     0
  0
LTYPE
  5
48
330
5
100
AcDbSymbolTableRecord
100
AcDbLinetypeTableRecord
  2
AM_ISO08W050X2
 70
     0
  3
__ . __ . __ . __ . __ . __
 72
    65
 73
     4
 40
9.0
 49
6.0
 74
     0
 49
-0.75
 74
     0
 49
1.5
 74
     0
 49
-0.75
 74
     0
  0
LTYPE
  5
4B
330
5
100
AcDbSymbolTableRecord
100
AcDbLinetypeTableRecord
  2
AMZIGZAG
 70
     0
  3
/\/-/\/-/\/-/\/-/\/-/\/
 72
    65
 73
     2
 40
11.00009999999999
 49
0.0001
 74
     4
 75
   135
340
4A
 46
0.04
 50
0.0
 44
0.0
 45
0.0
 49
-11.0
 74
     0
  0
LTYPE
  5
84B3
330
5
100
AcDbSymbolTableRecord
100
AcDbLinetypeTableRecord
  2
HIDDEN
 70
     0
  3
Hidden __ __ __ __ __ __ __ __ __ __ __ __ __ _
 72
    65
 73
     2
 40
9.524999999999998
 49
6.349999999999999
 74
     0
 49
-3.174999999999999
 74
     0
  0
LTYPE
  5
84B4
330
5
100
AcDbSymbolTableRecord
100
AcDbLinetypeTableRecord
  2
PHANTOM2
 70
     0
  3
Phantom (.5x) ___ _ _ ___ _ _ ___ _ _ ___ _ _
 72
    65
 73
     6
 40
31.75
 49
15.875
 74
     0
 49
-3.174999999999999
 74
     0
 49
3.174999999999999
 74
     0
 49
-3.174999999999999
 74
     0
 49
3.174999999999999
 74
     0
 49
-3.174999999999999
 74
     0
  0
LTYPE
  5
84B5
330
5
100
AcDbSymbolTableRecord
100
AcDbLinetypeTableRecord
  2
CENTER
 70
     0
  3
Center ____ _ ____ _ ____ _ ____ _ ____ _ ____
 72
    65
 73
     4
 40
50.8
 49
31.75
 74
     0
 49
-6.349999999999999
 74
     0
 49
6.349999999999999
 74
     0
 49
-6.349999999999999
 74
     0
  0
LTYPE
  5
84F5
330
5
100
AcDbSymbolTableRecord
100
AcDbLinetypeTableRecord
  2
ACISOWELD
 70
     0
  3
_ _ _ _ _
 72
    65
 73
     2
 40
2.0
 49
2.0
 74
     0
 49
-1.0
 74
     0
  0
LTYPE
  5
84F6
330
5
100
AcDbSymbolTableRecord
100
AcDbLinetypeTableRecord
  2
ACISOTGB
 70
     0
  3
__ . . __ . .
 72
    65
 73
     6
 40
9.0
 49
4.0
 74
     0
 49
-1.0
 74
     0
 49
1.0
 74
     0
 49
-1.0
 74
     0
 49
1.0
 74
     0
 49
-1.0
 74
     0
  0
LTYPE
  5
84F7
330
5
100
AcDbSymbolTableRecord
100
AcDbLinetypeTableRecord
  2
ACISOTGL
 70
     0
  3
_ _ _ _ _
 72
    65
 73
     2
 40
3.0
 49
2.0
 74
     0
 49
-1.0
 74
     0
  0
ENDTAB
  0
TABLE
  2
LAYER
  5
2
330
0
100
AcDbSymbolTable
 70
    10
  0
LAYER
  5
10
330
2
100
AcDbSymbolTableRecord
100
AcDbLayerTableRecord
  2
0
 70
     0
 62
     7
  6
CONTINUOUS
370
    -3
390
F
  0
LAYER
  5
7D
330
2
100
AcDbSymbolTableRecord
100
AcDbLayerTableRecord
  2
AM_5
 70
     0
 62
     3
  6
CONTINUOUS
370
    -3
390
F
  0
LAYER
  5
7F
330
2
100
AcDbSymbolTableRecord
100
AcDbLayerTableRecord
  2
DEFPOINTS
 70
     0
 62
     7
  6
CONTINUOUS
290
     0
370
    -3
390
F
  0
LAYER
  5
12B1
330
2
100
AcDbSymbolTableRecord
100
AcDbLayerTableRecord
  2
AM_0
 70
     0
 62
     7
  6
CONTINUOUS
370
    -3
390
F
  0
LAYER
  5
2222
330
2
100
AcDbSymbolTableRecord
100
AcDbLayerTableRecord
  2
AM_6
 70
     0
 62
     2
  6
CONTINUOUS
370
    -3
390
F
  0
LAYER
  5
7DB2
330
2
100
AcDbSymbolTableRecord
100
AcDbLayerTableRecord
  2
AM_7
 70
     0
 62
     4
  6
AM_ISO08W050
370
    -3
390
F
  0
LAYER
  5
7DB3
330
2
100
AcDbSymbolTableRecord
100
AcDbLayerTableRecord
  2
AM_4
 70
     0
 62
     3
  6
CONTINUOUS
370
    -3
390
F
  0
ENDTAB
  0
TABLE
  2
STYLE
  5
3
330
0
100
AcDbSymbolTable
 70
     6
  0
STYLE
  5
11
330
3
100
AcDbSymbolTableRecord
100
AcDbTextStyleTableRecord
  2
STANDARD
 70
     0
 40
0.0
 41
1.0
 50
0.0
 71
     0
 42
2.5
  3
ISOCP.SHX
  4
EXTFONT.SHX
  0
STYLE
  5
4A
330
3
100
AcDbSymbolTableRecord
100
AcDbTextStyleTableRecord
  2

 70
     1
 40
0.0
 41
1.0
 50
0.0
 71
     0
 42
2.5
  3
ltypeshp.shx
  4

  0
STYLE
  5
84E7
330
3
100
AcDbSymbolTableRecord
100
AcDbTextStyleTableRecord
  2
ACISOTS
 70
     0
 40
1.0
 41
1.0
 50
0.0
 71
     0
 42
2.5
  3
isocp.shx
  4
extfont.shx
  0
STYLE
  5
84F4
330
3
100
AcDbSymbolTableRecord
100
AcDbTextStyleTableRecord
  2
ACISOGDT
 70
     0
 40
0.0
 41
1.0
 50
0.0
 71
     0
 42
2.5
  3
amgdt.shx
  4

  0
ENDTAB
  0
TABLE
  2
VIEW
  5
6
330
0
100
AcDbSymbolTable
 70
     6
  0
VIEW
  5
A30
330
6
100
AcDbSymbolTableRecord
100
AcDbViewTableRecord
  2
AM_VIEW1
 70
     0
 40
148.5
 10
112.0719649561952
 20
222.75
 41
224.1439299123904
 11
0.0
 21
0.0
 31
1.0
 12
0.0
 22
0.0
 32
0.0
 42
50.0
 43
0.0
 44
0.0
 50
0.0
 71
     0
281
     0
 72
     0
  0
VIEW
  5
A31
330
6
100
AcDbSymbolTableRecord
100
AcDbViewTableRecord
  2
AM_VIEW2
 70
     0
 40
148.5
 10
307.9280350438047
 20
222.75
 41
224.1439299123904
 11
0.0
 21
0.0
 31
1.0
 12
0.0
 22
0.0
 32
0.0
 42
50.0
 43
0.0
 44
0.0
 50
0.0
 71
     0
281
     0
 72
     0
  0
VIEW
  5
A32
330
6
100
AcDbSymbolTableRecord
100
AcDbViewTableRecord
  2
AM_VIEW3
 70
     0
 40
148.5
 10
112.0719649561952
 20
74.25
 41
224.1439299123904
 11
0.0
 21
0.0
 31
1.0
 12
0.0
 22
0.0
 32
0.0
 42
50.0
 43
0.0
 44
0.0
 50
0.0
 71
     0
281
     0
 72
     0
  0
VIEW
  5
A33
330
6
100
AcDbSymbolTableRecord
100
AcDbViewTableRecord
  2
AM_VIEW4
 70
     0
 40
148.5
 10
307.9280350438047
 20
74.25
 41
224.1439299123904
 11
0.0
 21
0.0
 31
1.0
 12
0.0
 22
0.0
 32
0.0
 42
50.0
 43
0.0
 44
0.0
 50
0.0
 71
     0
281
     0
 72
     0
  0
VIEW
  5
A34
330
6
100
AcDbSymbolTableRecord
100
AcDbViewTableRecord
  2
AM_VIEW5
 70
     0
 40
148.5
 10
210.0
 20
148.5
 41
224.1439299123904
 11
0.0
 21
0.0
 31
1.0
 12
0.0
 22
0.0
 32
0.0
 42
50.0
 43
0.0
 44
0.0
 50
0.0
 71
     0
281
     0
 72
     0
  0
VIEW
  5
A35
330
6
100
AcDbSymbolTableRecord
100
AcDbViewTableRecord
  2
AM_VIEW6
 70
     0
 40
296.9970299999999
 10
210.0
 20
148.5
 41
448.2833769461826
 11
0.0
 21
0.0
 31
1.0
 12
0.0
 22
0.0
 32
0.0
 42
50.0
 43
0.0
 44
0.0
 50
0.0
 71
     0
281
     0
 72
     0
  0
ENDTAB
  0
TABLE
  2
UCS
  5
7
330
0
100
AcDbSymbolTable
 70
     0
  0
ENDTAB
  0
TABLE
  2
APPID
  5
9
330
0
100
AcDbSymbolTable
 70
    42
  0
APPID
  5
12
330
9
100
AcDbSymbolTableRecord
100
AcDbRegAppTableRecord
  2
ACAD
 70
     0
  0
APPID
  5
2C
330
9
100
AcDbSymbolTableRecord
100
AcDbRegAppTableRecord
  2
MCAD_NO_VIS
 70
     0
  0
APPID
  5
2D
330
9
100
AcDbSymbolTableRecord
100
AcDbRegAppTableRecord
  2
ACAD_TEMP_GRAPHIC
 70
     0
  0
APPID
  5
B9
330
9
100
AcDbSymbolTableRecord
100
AcDbRegAppTableRecord
  2
GENIUS_GENDTOL_13
 70
     0
  0
APPID
  5
359
330
9
100
AcDbSymbolTableRecord
100
AcDbRegAppTableRecord
  2
GENIUS_GENREC_14
 70
     0
  0
APPID
  5
35A
330
9
100
AcDbSymbolTableRecord
100
AcDbRegAppTableRecord
  2
GENIUS_GENODEF_13
 70
     0
  0
APPID
  5
35B
330
9
100
AcDbSymbolTableRecord
100
AcDbRegAppTableRecord
  2
GENIUS_GENOBJ-N-REC_13
 70
     0
  0
APPID
  5
667
330
9
100
AcDbSymbolTableRecord
100
AcDbRegAppTableRecord
  2
GENIUS_GENCFG_13
 70
     0
  0
APPID
  5
668
330
9
100
AcDbSymbolTableRecord
100
AcDbRegAppTableRecord
  2
GENIUS_GENCFG0_13
 70
     0
  0
APPID
  5
669
330
9
100
AcDbSymbolTableRecord
100
AcDbRegAppTableRecord
  2
GENIUS_GENCFG1_13
 70
     0
  0
APPID
  5
66A
330
9
100
AcDbSymbolTableRecord
100
AcDbRegAppTableRecord
  2
GENIUS_GENCFG2_13
 70
     0
  0
APPID
  5
66B
330
9
100
AcDbSymbolTableRecord
100
AcDbRegAppTableRecord
  2
GENIUS_GENCFG3_13
 70
     0
  0
APPID
  5
66C
330
9
100
AcDbSymbolTableRecord
100
AcDbRegAppTableRecord
  2
GENIUS_GENCFG4_13
 70
     0
  0
APPID
  5
A76
330
9
100
AcDbSymbolTableRecord
100
AcDbRegAppTableRecord
  2
GENIUS_GENBLLY_14
 70
     0
  0
APPID
  5
A77
330
9
100
AcDbSymbolTableRecord
100
AcDbRegAppTableRecord
  2
GENIUS_GENOBJ-N-CEN_13
 70
     0
  0
APPID
  5
A83
330
9
100
AcDbSymbolTableRecord
100
AcDbRegAppTableRecord
  2
GENIUS_GENTRA_14
 70
     0
  0
APPID
  5
A8D
330
9
100
AcDbSymbolTableRecord
100
AcDbRegAppTableRecord
  2
GENIUS_GENOBJ-N-TIT_13
 70
     0
  0
APPID
  5
A8E
330
9
100
AcDbSymbolTableRecord
100
AcDbRegAppTableRecord
  2
GENIUS_GENTITLE_13
 70
     0
  0
APPID
  5
A8F
330
9
100
AcDbSymbolTableRecord
100
AcDbRegAppTableRecord
  2
GENIUS_GENOENT_13
 70
     0
  0
APPID
  5
A90
330
9
100
AcDbSymbolTableRecord
100
AcDbRegAppTableRecord
  2
GENIUS_GENOREF_13
 70
     0
  0
APPID
  5
A91
330
9
100
AcDbSymbolTableRecord
100
AcDbRegAppTableRecord
  2
GENIUS_GENOLIS_13
 70
     0
  0
APPID
  5
A92
330
9
100
AcDbSymbolTableRecord
100
AcDbRegAppTableRecord
  2
GENIUS_GENZVEED_13
 70
     0
  0
APPID
  5
A93
330
9
100
AcDbSymbolTableRecord
100
AcDbRegAppTableRecord
  2
GENIUS_GENSCREG_15
 70
     0
  0
APPID
  5
A94
330
9
100
AcDbSymbolTableRecord
100
AcDbRegAppTableRecord
  2
GENIUS_GENOBJ-N-SDF_13
 70
     0
  0
APPID
  5
12B5
330
9
100
AcDbSymbolTableRecord
100
AcDbRegAppTableRecord
  2
GENIUS_GENOBJ-N-RSBK_13
 70
     0
  0
APPID
  5
12B6
330
9
100
AcDbSymbolTableRecord
100
AcDbRegAppTableRecord
  2
GENIUS_GENOBJ-N-LIB_13
 70
     0
  0
APPID
  5
12B7
330
9
100
AcDbSymbolTableRecord
100
AcDbRegAppTableRecord
  2
GENIUS_GENSCALE_13
 70
     0
  0
APPID
  5
12B8
330
9
100
AcDbSymbolTableRecord
100
AcDbRegAppTableRecord
  2
GENIUS_GENOBJ-N-HTC_13
 70
     0
  0
APPID
  5
12B9
330
9
100
AcDbSymbolTableRecord
100
AcDbRegAppTableRecord
  2
GENIUS_GENHATCH_13
 70
     0
  0
APPID
  5
1C0A
330
9
100
AcDbSymbolTableRecord
100
AcDbRegAppTableRecord
  2
BASE_TYPE
 70
     0
  0
APPID
  5
276B
330
9
100
AcDbSymbolTableRecord
100
AcDbRegAppTableRecord
  2
GENIUS_GENOBJ-N-FIL_13
 70
     0
  0
APPID
  5
3640
330
9
100
AcDbSymbolTableRecord
100
AcDbRegAppTableRecord
  2
GENIUS_GENBH_13
 70
     0
  0
APPID
  5
36D1
330
9
100
AcDbSymbolTableRecord
100
AcDbRegAppTableRecord
  2
GENIUS_GENOBJ-F-SPR_13
 70
     0
  0
APPID
  5
36DA
330
9
100
AcDbSymbolTableRecord
100
AcDbRegAppTableRecord
  2
GENIUS_GEFSPRING_13
 70
     0
  0
APPID
  5
36DB
330
9
100
AcDbSymbolTableRecord
100
AcDbRegAppTableRecord
  2
GENIUS_GEFSPRINGP_13
 70
     0
  0
APPID
  5
4D67
330
9
100
AcDbSymbolTableRecord
100
AcDbRegAppTableRecord
  2
GENIUS_GENFIL_13
 70
     0
  0
APPID
  5
4D68
330
9
100
AcDbSymbolTableRecord
100
AcDbRegAppTableRecord
  2
GENIUS_GENOBJ-N-CHA_13
 70
     0
  0
APPID
  5
84B7
330
9
100
AcDbSymbolTableRecord
100
AcDbRegAppTableRecord
  2
AD_DRAW
 70
     0
  0
APPID
  5
84BA
330
9
100
AcDbSymbolTableRecord
100
AcDbRegAppTableRecord
  2
ACATTRIBSERVICES
 70
     0
  0
APPID
  5
84D8
330
9
100
AcDbSymbolTableRecord
100
AcDbRegAppTableRecord
  2
DESIGNERASSEMBLIES
 70
     0
  0
APPID
  5
84DD
330
9
100
AcDbSymbolTableRecord
100
AcDbRegAppTableRecord
  2
ACADM_DIM_EDIT
 70
     0
  0
APPID
  5
84DE
330
9
100
AcDbSymbolTableRecord
100
AcDbRegAppTableRecord
  2
AMDT_DM_ADJ
 70
     0
  0
ENDTAB
  0
TABLE
  2
DIMSTYLE
  5
A
330
0
100
AcDbSymbolTable
 70
    18
100
AcDbDimStyleTable
 71
     0
  0
DIMSTYLE
105
58
330
A
100
AcDbSymbolTableRecord
100
AcDbDimStyleTableRecord
  2
AM_JIS
 70
     0
  4
"
 41
2.5
 42
0.0
 43
10.0
 44
1.0
 47
0.1
 48
0.1000000001
 73
     0
 74
     0
 77
     3
 78
     9
140
3.799999999999998
141
0.0
143
0.0393701
146
0.71
147
1.5
172
     1
176
   256
177
   256
178
     2
271
     2
272
     2
275
     1
283
     0
284
     8
340
11
341
59
342
59
  0
DIMSTYLE
105
65F
330
A
100
AcDbSymbolTableRecord
100
AcDbDimStyleTableRecord
  2
STANDARD
 70
     0
340
11
  0
DIMSTYLE
105
1761
102
{ACAD_REACTORS
330
7F98
330
7FBB
330
7FCB
330
8018
330
8026
330
803C
330
8154
330
8161
330
8177
102
}
330
A
100
AcDbSymbolTableRecord
100
AcDbDimStyleTableRecord
  2
AM_JIS$0
 70
     0
  4
"
 41
2.5
 42
0.0
 43
10.0
 44
1.0
 47
0.1
 48
0.1000000001
 73
     0
 74
     0
 77
     3
 78
     9
140
3.799999999999998
141
0.0
143
0.0393701
146
0.71
147
1.5
172
     1
176
     3
177
     3
178
     2
271
     2
272
     2
275
     1
283
     0
284
     8
340
11
341
59
342
59
  0
DIMSTYLE
105
1762
102
{ACAD_REACTORS
330
8052
330
8184
330
822F
330
7FE4
102
}
330
A
100
AcDbSymbolTableRecord
100
AcDbDimStyleTableRecord
  2
AM_JIS$2
 70
     0
  4
"
 41
2.5
 42
0.0
 43
10.0
 44
1.0
 47
0.1
 48
0.1000000001
 73
     0
 74
     0
 77
     3
 78
     9
140
3.799999999999998
141
0.0
143
0.0393701
146
0.71
147
1.5
172
     1
176
     3
177
     3
178
     2
271
     2
272
     2
275
     1
283
     0
284
     8
340
11
341
59
342
59
  0
DIMSTYLE
105
8500
330
A
100
AcDbSymbolTableRecord
100
AcDbDimStyleTableRecord
  2
AM_ISO
 70
     0
  4
"
 41
2.5
 42
1.0
 43
10.0
 44
1.0
 47
0.1
 48
0.1
 73
     0
 74
     0
 77
     1
 78
     8
 79
     2
140
3.5
141
0.0
143
0.0393701
146
0.71
147
1.5
172
     1
176
   256
177
   256
178
     2
271
     2
272
     3
274
     4
283
     0
284
     8
340
11
371
    -1
372
    -1
  0
DIMSTYLE
105
8501
330
A
100
AcDbSymbolTableRecord
100
AcDbDimStyleTableRecord
  2
AM_ISO$3
 70
     0
  4
"
 41
2.5
 42
1.0
 43
10.0
 44
1.0
 47
0.1
 48
0.1
 73
     0
 77
     1
 78
     8
 79
     2
140
3.5
141
0.0
143
0.0393701
146
0.71
147
1.5
176
   256
177
   256
178
     2
271
     2
272
     3
274
     4
283
     0
284
     8
288
     1
289
     0
340
11
371
    -1
372
    -1
  0
DIMSTYLE
105
8502
330
A
100
AcDbSymbolTableRecord
100
AcDbDimStyleTableRecord
  2
AM_ISO$4
 70
     0
  4
"
 41
2.5
 42
1.0
 43
10.0
 44
1.0
 47
0.1
 48
0.1
 73
     0
 77
     1
 78
     8
 79
     2
140
3.5
141
0.0
143
0.0393701
146
0.71
147
1.5
176
   256
177
   256
178
     2
271
     2
272
     3
274
     4
283
     0
284
     8
288
     1
289
     0
340
11
371
    -1
372
    -1
  0
DIMSTYLE
105
8503
330
A
100
AcDbSymbolTableRecord
100
AcDbDimStyleTableRecord
  2
AM_ISO$6
 70
     0
  4
"
 41
2.5
 42
1.0
 43
10.0
 44
1.0
 47
0.1
 48
0.1
 73
     0
 74
     0
 78
     8
 79
     2
140
3.5
141
0.0
143
0.0393701
146
0.71
147
1.5
172
     1
176
   256
177
   256
178
     2
271
     2
272
     3
274
     4
283
     0
284
     8
340
11
371
    -1
372
    -1
  0
DIMSTYLE
105
8504
330
A
100
AcDbSymbolTableRecord
100
AcDbDimStyleTableRecord
  2
AM_ISO$7
 70
     0
  4
"
 41
2.5
 42
1.0
 43
10.0
 44
1.0
 47
0.1
 48
0.1
 73
     0
 74
     0
 77
     1
 78
     8
 79
     2
140
5.0
141
0.0
143
0.0393701
146
0.71
147
1.5
172
     1
176
   256
177
   256
178
     2
271
     2
272
     3
274
     4
283
     0
284
     8
340
11
371
    -1
372
    -1
  0
DIMSTYLE
105
8505
330
A
100
AcDbSymbolTableRecord
100
AcDbDimStyleTableRecord
  2
AM_ISO$SF
 70
     0
  4
"
 41
2.5
 42
1.0
 43
10.0
 44
1.0
 47
0.1
 48
0.1
 73
     0
 74
     0
 75
     1
 76
     1
 77
     1
 78
     8
 79
     2
140
3.5
141
0.0
143
0.0393701
146
0.71
147
1.5
172
     1
176
   256
177
   256
178
     2
271
     2
272
     3
274
     4
283
     0
284
     8
340
11
371
    -1
372
    -1
  0
DIMSTYLE
105
8506
330
A
100
AcDbSymbolTableRecord
100
AcDbDimStyleTableRecord
  2
AM_ISO$SH
 70
     0
  4
"
 41
2.5
 42
1.0
 43
10.0
 44
1.0
 47
0.1
 48
0.1
 73
     0
 74
     0
 75
     1
 76
     1
 77
     1
 78
     8
 79
     2
140
3.5
141
0.0
143
0.0393701
144
2.0
146
0.71
147
1.5
172
     1
173
     1
176
   256
177
   256
178
     2
271
     2
272
     3
274
     4
283
     0
284
     8
340
11
343
64
371
    -1
372
    -1
  0
ENDTAB
  0
TABLE
  2
BLOCK_RECORD
  5
1
330
0
100
AcDbSymbolTable
 70
    17
  0
BLOCK_RECORD
  5
1F
102
{ACAD_XDICTIONARY
360
165
102
}
330
1
100
AcDbSymbolTableRecord
100
AcDbBlockTableRecord
  2
*MODEL_SPACE
340
847F
  0
BLOCK_RECORD
  5
1B
102
{ACAD_XDICTIONARY
360
8448
102
}
330
1
100
AcDbSymbolTableRecord
100
AcDbBlockTableRecord
  2
*PAPER_SPACE
340
8480
  0
BLOCK_RECORD
  5
59
330
1
100
AcDbSymbolTableRecord
100
AcDbBlockTableRecord
  2
_OPEN30
340
0
102
{BLKREFS
331
85D9
331
85DA
331
85E4
331
85E5
331
85ED
331
85EE
331
85F6
331
85F7
331
8601
331
8602
331
860A
331
860B
331
8613
331
8614
331
8625
331
8626
331
862E
331
862F
331
8637
331
8638
331
8641
331
8642
331
864B
331
8654
102
}
  0
BLOCK_RECORD
  5
64
330
1
100
AcDbSymbolTableRecord
100
AcDbBlockTableRecord
  2
GENAXEH
340
0
  0
BLOCK_RECORD
  5
7F99
330
1
100
AcDbSymbolTableRecord
100
AcDbBlockTableRecord
  2
*D2
340
0
  0
BLOCK_RECORD
  5
7FBC
330
1
100
AcDbSymbolTableRecord
100
AcDbBlockTableRecord
  2
*D3
340
0
  0
BLOCK_RECORD
  5
7FCC
330
1
100
AcDbSymbolTableRecord
100
AcDbBlockTableRecord
  2
*D4
340
0
  0
BLOCK_RECORD
  5
7FE5
330
1
100
AcDbSymbolTableRecord
100
AcDbBlockTableRecord
  2
*D5
340
0
  0
BLOCK_RECORD
  5
8019
330
1
100
AcDbSymbolTableRecord
100
AcDbBlockTableRecord
  2
*D6
340
0
  0
BLOCK_RECORD
  5
8027
330
1
100
AcDbSymbolTableRecord
100
AcDbBlockTableRecord
  2
*D7
340
0
  0
BLOCK_RECORD
  5
803D
330
1
100
AcDbSymbolTableRecord
100
AcDbBlockTableRecord
  2
*D8
340
0
  0
BLOCK_RECORD
  5
8053
330
1
100
AcDbSymbolTableRecord
100
AcDbBlockTableRecord
  2
*D9
340
0
  0
BLOCK_RECORD
  5
80B7
330
1
100
AcDbSymbolTableRecord
100
AcDbBlockTableRecord
  2
_NONE
340
0
  0
BLOCK_RECORD
  5
8155
330
1
100
AcDbSymbolTableRecord
100
AcDbBlockTableRecord
  2
*D11
340
0
  0
BLOCK_RECORD
  5
8162
330
1
100
AcDbSymbolTableRecord
100
AcDbBlockTableRecord
  2
*D12
340
0
  0
BLOCK_RECORD
  5
8178
330
1
100
AcDbSymbolTableRecord
100
AcDbBlockTableRecord
  2
*D13
340
0
  0
BLOCK_RECORD
  5
8185
330
1
100
AcDbSymbolTableRecord
100
AcDbBlockTableRecord
  2
*D14
340
0
  0
BLOCK_RECORD
  5
8230
330
1
100
AcDbSymbolTableRecord
100
AcDbBlockTableRecord
  2
*D15
340
0
  0
ENDTAB
  0
ENDSEC
  0
SECTION
  2
BLOCKS
  0
BLOCK
  5
20
330
1F
100
AcDbEntity
  8
0
100
AcDbBlockBegin
  2
*MODEL_SPACE
 70
     0
 10
0.0
 20
0.0
 30
0.0
  3
*MODEL_SPACE
  1

  0
ENDBLK
  5
21
330
1F
100
AcDbEntity
  8
0
100
AcDbBlockEnd
  0
BLOCK
  5
1C
330
1B
100
AcDbEntity
 67
     1
  8
0
100
AcDbBlockBegin
  2
*PAPER_SPACE
 70
     0
 10
0.0
 20
0.0
 30
0.0
  3
*PAPER_SPACE
  1

  0
ENDBLK
  5
1D
330
1B
100
AcDbEntity
 67
     1
  8
0
100
AcDbBlockEnd
  0
BLOCK
  5
5D
330
59
100
AcDbEntity
  8
0
100
AcDbBlockBegin
  2
_OPEN30
 70
     0
 10
0.0
 20
0.0
 30
0.0
  3
_OPEN30
  1

  0
LINE
  5
5A
330
59
100
AcDbEntity
  8
0
 62
     0
100
AcDbLine
 10
-1.0
 20
0.26794919
 30
0.0
 11
0.0
 21
0.0
 31
0.0
  0
LINE
  5
5B
330
59
100
AcDbEntity
  8
0
 62
     0
100
AcDbLine
 10
0.0
 20
0.0
 30
0.0
 11
-1.0
 21
-0.26794919
 31
0.0
  0
LINE
  5
5C
330
59
100
AcDbEntity
  8
0
 62
     0
100
AcDbLine
 10
0.0
 20
0.0
 30
0.0
 11
-1.0
 21
0.0
 31
0.0
  0
ENDBLK
  5
5E
330
59
100
AcDbEntity
  8
0
100
AcDbBlockEnd
  0
BLOCK
  5
66
330
64
100
AcDbEntity
  8
0
100
AcDbBlockBegin
  2
GENAXEH
 70
     0
 10
0.0
 20
0.0
 30
0.0
  3
GENAXEH
  1

  0
LINE
  5
65
330
64
100
AcDbEntity
  8
0
100
AcDbLine
 10
-1.0
 20
0.0
 30
0.0
 11
1.0
 21
0.0
 31
0.0
  0
ENDBLK
  5
67
330
64
100
AcDbEntity
  8
0
100
AcDbBlockEnd
  0
BLOCK
  5
7FA5
330
7F99
100
AcDbEntity
  8
0
100
AcDbBlockBegin
  2
*D2
 70
     1
 10
0.0
 20
0.0
 30
0.0
  3
*D2
  1

  0
LINE
  5
85D6
330
7F99
100
AcDbEntity
  8
AM_5
 62
     3
370
    -2
100
AcDbLine
 10
0.0006477978027419
 20
0.0
 30
0.0
 11
-25.81628716436489
 21
0.0000000000000073
 31
0.0
  0
LINE
  5
85D7
330
7F99
100
AcDbEntity
  8
AM_5
 62
     3
370
    -2
100
AcDbLine
 10
3.900647797802776
 20
11.99999999999994
 30
0.0
 11
-25.81628716436489
 21
11.99999999999995
 31
0.0
  0
LINE
  5
85D8
330
7F99
100
AcDbEntity
  8
AM_5
 62
     3
370
    -2
100
AcDbLine
 10
-24.81628716436489
 20
2.500000000000006
 30
0.0
 11
-24.81628716436489
 21
9.49999999999995
 31
0.0
  0
INSERT
  5
85D9
330
7F99
100
AcDbEntity
  8
AM_5
 62
     3
370
    -2
100
AcDbBlockReference
  2
_OPEN30
 10
-24.81628716436489
 20
0.000000000000007
 30
0.0
 41
2.5
 42
2.5
 43
2.5
 50
270.0
  0
INSERT
  5
85DA
330
7F99
100
AcDbEntity
  8
AM_5
 62
     3
370
    -2
100
AcDbBlockReference
  2
_OPEN30
 10
-24.81628716436489
 20
11.99999999999995
 30
0.0
 41
2.5
 42
2.5
 43
2.5
 50
90.0
  0
MTEXT
  5
85DB
330
7F99
100
AcDbEntity
  8
AM_5
 62
     2
100
AcDbMText
 10
-28.21666118011293
 20
5.999999999999975
 30
0.0
 40
3.799999999999998
 41
0.0
 71
     5
 72
     1
  1
12
 11
0.0000000000000001
 21
1.0
 31
0.0
 73
     1
 44
1.0
1001
ACAD
1000
MTEXTBEGIN
1070
    73
1070
     1
1070
    44
1040
1.0
1070
    74
1070
     0
1000
MTEXTEND
  0
POINT
  5
85DC
330
7F99
100
AcDbEntity
  8
DEFPOINTS
 62
     0
100
AcDbPoint
 10
0.0006477978027419
 20
0.0
 30
0.0
  0
POINT
  5
85DD
330
7F99
100
AcDbEntity
  8
DEFPOINTS
 62
     0
100
AcDbPoint
 10
3.900647797802776
 20
11.99999999999994
 30
0.0
  0
POINT
  5
85DE
330
7F99
100
AcDbEntity
  8
DEFPOINTS
 62
     0
100
AcDbPoint
 10
-24.81628716436489
 20
11.99999999999995
 30
0.0
  0
ENDBLK
  5
7FA6
330
7F99
100
AcDbEntity
  8
0
100
AcDbBlockEnd
  0
BLOCK
  5
7FC8
330
7FBC
100
AcDbEntity
  8
0
100
AcDbBlockBegin
  2
*D3
 70
     1
 10
0.0
 20
0.0
 30
0.0
  3
*D3
  1

  0
LINE
  5
85DF
330
7FBC
100
AcDbEntity
  8
AM_5
 62
     3
370
    -2
100
AcDbLine
 10
0.0006477978027421
 20
1.999999999999978
 30
0.0
 11
-14.75767664272586
 21
1.999999999999982
 31
0.0
  0
LINE
  5
85E0
330
7FBC
100
AcDbEntity
  8
AM_5
 62
     3
370
    -2
100
AcDbLine
 10
0.2290318530226614
 20
0.0
 30
0.0
 11
-14.75767664272586
 21
0.0000000000000042
 31
0.0
  0
LINE
  5
85E1
330
7FBC
100
AcDbEntity
  8
AM_5
 62
     3
370
    -2
100
AcDbLine
 10
-13.75767664272586
 20
4.499999999999982
 30
0.0
 11
-13.75767664272586
 21
6.999999999999982
 31
0.0
  0
LINE
  5
85E2
330
7FBC
100
AcDbEntity
  8
AM_5
 62
     3
370
    -2
100
AcDbLine
 10
-13.75767664272586
 20
-2.499999999999996
 30
0.0
 11
-13.75767664272586
 21
-9.84472047244094
 31
0.0
  0
LINE
  5
85E3
330
7FBC
100
AcDbEntity
  8
AM_5
 62
     3
370
    -2
100
AcDbLine
 10
-13.75767664272586
 20
1.999999999999982
 30
0.0
 11
-13.75767664272586
 21
0.000000000000004
 31
0.0
  0
INSERT
  5
85E4
330
7FBC
100
AcDbEntity
  8
AM_5
 62
     3
370
    -2
100
AcDbBlockReference
  2
_OPEN30
 10
-13.75767664272586
 20
1.999999999999982
 30
0.0
 41
2.5
 42
2.5
 43
2.5
 50
270.0
  0
INSERT
  5
85E5
330
7FBC
100
AcDbEntity
  8
AM_5
 62
     3
370
    -2
100
AcDbBlockReference
  2
_OPEN30
 10
-13.75767664272586
 20
0.000000000000004
 30
0.0
 41
2.5
 42
2.5
 43
2.5
 50
90.0
  0
MTEXT
  5
85E6
330
7FBC
100
AcDbEntity
  8
AM_5
 62
     2
100
AcDbMText
 10
-17.15805065847389
 20
-7.42236023622047
 30
0.0
 40
3.799999999999998
 41
0.0
 71
     5
 72
     1
  1
2
 11
0.0000000000000001
 21
1.0
 31
0.0
 73
     1
 44
1.0
1001
ACAD
1000
MTEXTBEGIN
1070
    73
1070
     1
1070
    44
1040
1.0
1070
    74
1070
     0
1000
MTEXTEND
  0
POINT
  5
85E7
330
7FBC
100
AcDbEntity
  8
DEFPOINTS
 62
     0
100
AcDbPoint
 10
0.0006477978027421
 20
1.999999999999978
 30
0.0
  0
POINT
  5
85E8
330
7FBC
100
AcDbEntity
  8
DEFPOINTS
 62
     0
100
AcDbPoint
 10
0.2290318530226614
 20
0.0
 30
0.0
  0
POINT
  5
85E9
330
7FBC
100
AcDbEntity
  8
DEFPOINTS
 62
     0
100
AcDbPoint
 10
-13.75767664272586
 20
0.000000000000004
 30
0.0
  0
ENDBLK
  5
7FC9
330
7FBC
100
AcDbEntity
  8
0
100
AcDbBlockEnd
  0
BLOCK
  5
7FD8
330
7FCC
100
AcDbEntity
  8
0
100
AcDbBlockBegin
  2
*D4
 70
     1
 10
0.0
 20
0.0
 30
0.0
  3
*D4
  1

  0
LINE
  5
85EA
330
7FCC
100
AcDbEntity
  8
AM_5
 62
     3
370
    -2
100
AcDbLine
 10
125.0006401684066
 20
-0.0000000000000426
 30
0.0
 11
139.6550428139708
 21
-0.0000000000000468
 31
0.0
  0
LINE
  5
85EB
330
7FCC
100
AcDbEntity
  8
AM_5
 62
     3
370
    -2
100
AcDbLine
 10
125.0006401684066
 20
11.99999999999998
 30
0.0
 11
139.6550428139708
 21
11.99999999999998
 31
0.0
  0
LINE
  5
85EC
330
7FCC
100
AcDbEntity
  8
AM_5
 62
     3
370
    -2
100
AcDbLine
 10
138.6550428139708
 20
2.499999999999953
 30
0.0
 11
138.6550428139708
 21
9.499999999999984
 31
0.0
  0
INSERT
  5
85ED
330
7FCC
100
AcDbEntity
  8
AM_5
 62
     3
370
    -2
100
AcDbBlockReference
  2
_OPEN30
 10
138.6550428139708
 20
-0.0000000000000465
 30
0.0
 41
2.5
 42
2.5
 43
2.5
 50
270.0
  0
INSERT
  5
85EE
330
7FCC
100
AcDbEntity
  8
AM_5
 62
     3
370
    -2
100
AcDbBlockReference
  2
_OPEN30
 10
138.6550428139708
 20
11.99999999999998
 30
0.0
 41
2.5
 42
2.5
 43
2.5
 50
90.0
  0
MTEXT
  5
85EF
330
7FCC
100
AcDbEntity
  8
AM_5
 62
     2
100
AcDbMText
 10
135.2546687982228
 20
5.999999999999991
 30
0.0
 40
3.799999999999998
 41
0.0
 71
     5
 72
     1
  1
12
 11
0.0000000000000001
 21
1.0
 31
0.0
 73
     1
 44
1.0
1001
ACAD
1000
MTEXTBEGIN
1070
    73
1070
     1
1070
    44
1040
1.0
1070
    74
1070
     0
1000
MTEXTEND
  0
POINT
  5
85F0
330
7FCC
100
AcDbEntity
  8
DEFPOINTS
 62
     0
100
AcDbPoint
 10
125.0006401684066
 20
-0.0000000000000426
 30
0.0
  0
POINT
  5
85F1
330
7FCC
100
AcDbEntity
  8
DEFPOINTS
 62
     0
100
AcDbPoint
 10
125.0006401684066
 20
11.99999999999998
 30
0.0
  0
POINT
  5
85F2
330
7FCC
100
AcDbEntity
  8
DEFPOINTS
 62
     0
100
AcDbPoint
 10
138.6550428139708
 20
11.99999999999998
 30
0.0
  0
ENDBLK
  5
7FD9
330
7FCC
100
AcDbEntity
  8
0
100
AcDbBlockEnd
  0
BLOCK
  5
7FF3
330
7FE5
100
AcDbEntity
  8
0
100
AcDbBlockBegin
  2
*D5
 70
     1
 10
0.0
 20
0.0
 30
0.0
  3
*D5
  1

  0
ARC
  5
85F3
330
7FE5
100
AcDbEntity
  8
AM_5
 62
     3
370
    -2
100
AcDbCircle
 10
-48.30531540689249
 20
0.000010680949281
 30
0.0
 40
35.25172766437087
100
AcDbArc
 50
169.8716356246795
 51
173.9358189286288
  0
ARC
  5
85F4
330
7FE5
100
AcDbEntity
  8
AM_5
 62
     3
370
    -2
100
AcDbCircle
 10
-48.30531540689249
 20
0.000010680949281
 30
0.0
 40
35.25172766437087
100
AcDbArc
 50
184.0641833039489
 51
188.1283666078983
  0
ARC
  5
85F5
330
7FE5
100
AcDbEntity
  8
AM_5
 62
     3
370
    -2
100
AcDbCircle
 10
-48.30531540689249
 20
0.000010680949281
 30
0.0
 40
35.25172766437087
100
AcDbArc
 50
178.0000022325781
 51
179.9999999999996
  0
INSERT
  5
85F6
330
7FE5
100
AcDbEntity
  8
AM_5
 62
     3
370
    -2
100
AcDbBlockReference
  2
_OPEN30
 10
-83.53556871917842
 20
1.230276861553048
 30
0.0
 41
2.5
 42
2.5
 43
2.5
 50
265.9679105806035
  0
INSERT
  5
85F7
330
7FE5
100
AcDbEntity
  8
AM_5
 62
     3
370
    -2
100
AcDbBlockReference
  2
_OPEN30
 10
-83.55704307126336
 20
0.0000106809495
 30
0.0
 41
2.5
 42
2.5
 43
2.5
 50
92.03209165197431
  0
MTEXT
  5
85F8
330
7FE5
100
AcDbEntity
  8
AM_5
 62
     2
100
AcDbMText
 10
-85.28644004105032
 20
-3.047114340601402
 30
0.0
 40
3.799999999999998
 41
0.0
 71
     5
 72
     1
  1
2°
 73
     1
 44
1.0
1001
ACAD
1000
MTEXTBEGIN
1070
    73
1070
     1
1070
    44
1040
1.0
1070
    74
1070
     0
1000
MTEXTEND
  0
POINT
  5
85F9
330
7FE5
100
AcDbEntity
  8
DEFPOINTS
 62
     0
100
AcDbPoint
 10
-83.54749837636736
 20
0.8202806785875536
 30
0.0
  0
POINT
  5
85FA
330
7FE5
100
AcDbEntity
  8
DEFPOINTS
 62
     0
100
AcDbPoint
 10
-72.77448783872225
 20
0.8544920564704767
 30
0.0
  0
POINT
  5
85FB
330
7FE5
100
AcDbEntity
  8
DEFPOINTS
 62
     0
100
AcDbPoint
 10
-56.77448783872227
 20
0.0000106809493374
 30
0.0
  0
POINT
  5
85FC
330
7FE5
100
AcDbEntity
  8
DEFPOINTS
 62
     0
100
AcDbPoint
 10
-85.5775537641947
 20
0.0000106809495293
 30
0.0
  0
POINT
  5
85FD
330
7FE5
100
AcDbEntity
  8
DEFPOINTS
 62
     0
100
AcDbPoint
 10
-85.55484857433569
 20
1.300791589135442
 30
0.0
  0
ENDBLK
  5
7FF4
330
7FE5
100
AcDbEntity
  8
0
100
AcDbBlockEnd
  0
BLOCK
  5
8023
330
8019
100
AcDbEntity
  8
0
100
AcDbBlockBegin
  2
*D6
 70
     1
 10
0.0
 20
0.0
 30
0.0
  3
*D6
  1

  0
LINE
  5
85FE
330
8019
100
AcDbEntity
  8
AM_5
 62
     3
370
    -2
100
AcDbLine
 10
0.00065542719676
 20
-12.99997711181599
 30
0.0
 11
0.0006554271967596
 21
-19.37203983857695
 31
0.0
  0
LINE
  5
85FF
330
8019
100
AcDbEntity
  8
AM_5
 62
     3
370
    -2
100
AcDbLine
 10
125.0006460397246
 20
-12.99999369745497
 30
0.0
 11
125.0006460397246
 21
-19.37203983857695
 31
0.0
  0
LINE
  5
8600
330
8019
100
AcDbEntity
  8
AM_5
 62
     3
370
    -2
100
AcDbLine
 10
2.500655427196759
 20
-18.37203983857695
 30
0.0
 11
122.5006460397246
 21
-18.37203983857695
 31
0.0
  0
INSERT
  5
8601
330
8019
100
AcDbEntity
  8
AM_5
 62
     3
370
    -2
100
AcDbBlockReference
  2
_OPEN30
 10
0.0006554271967597
 20
-18.37203983857695
 30
0.0
 41
2.5
 42
2.5
 43
2.5
 50
180.0
  0
INSERT
  5
8602
330
8019
100
AcDbEntity
  8
AM_5
 62
     3
370
    -2
100
AcDbBlockReference
  2
_OPEN30
 10
125.0006460397246
 20
-18.37203983857695
 30
0.0
 41
2.5
 42
2.5
 43
2.5
  0
MTEXT
  5
8603
330
8019
100
AcDbEntity
  8
AM_5
 62
     2
100
AcDbMText
 10
62.50065073346069
 20
-14.97166582282892
 30
0.0
 40
3.799999999999998
 41
0.0
 71
     5
 72
     1
  1
125
 73
     1
 44
1.0
1001
ACAD
1000
MTEXTBEGIN
1070
    73
1070
     1
1070
    44
1040
1.0
1070
    74
1070
     0
1000
MTEXTEND
  0
POINT
  5
8604
330
8019
100
AcDbEntity
  8
DEFPOINTS
 62
     0
100
AcDbPoint
 10
0.00065542719676
 20
-12.99997711181599
 30
0.0
  0
POINT
  5
8605
330
8019
100
AcDbEntity
  8
DEFPOINTS
 62
     0
100
AcDbPoint
 10
125.0006460397246
 20
-12.99999369745497
 30
0.0
  0
POINT
  5
8606
330
8019
100
AcDbEntity
  8
DEFPOINTS
 62
     0
100
AcDbPoint
 10
125.0006460397246
 20
-18.37203983857695
 30
0.0
  0
ENDBLK
  5
8024
330
8019
100
AcDbEntity
  8
0
100
AcDbBlockEnd
  0
BLOCK
  5
8031
330
8027
100
AcDbEntity
  8
0
100
AcDbBlockBegin
  2
*D7
 70
     1
 10
0.0
 20
0.0
 30
0.0
  3
*D7
  1

  0
LINE
  5
8607
330
8027
100
AcDbEntity
  8
AM_5
 62
     3
370
    -2
100
AcDbLine
 10
0.0006386165791747
 20
-50.53635420026927
 30
0.0
 11
0.0006386165791751
 21
-44.45555831336537
 31
0.0
  0
LINE
  5
8608
330
8027
100
AcDbEntity
  8
AM_5
 62
     3
370
    -2
100
AcDbLine
 10
17.00064779780273
 20
-57.25000381469699
 30
0.0
 11
17.00064779780273
 21
-44.45555831336537
 31
0.0
  0
LINE
  5
8609
330
8027
100
AcDbEntity
  8
AM_5
 62
     3
370
    -2
100
AcDbLine
 10
2.500638616579175
 20
-45.45555831336537
 30
0.0
 11
14.50064779780273
 21
-45.45555831336537
 31
0.0
  0
INSERT
  5
860A
330
8027
100
AcDbEntity
  8
AM_5
 62
     3
370
    -2
100
AcDbBlockReference
  2
_OPEN30
 10
0.000638616579175
 20
-45.45555831336537
 30
0.0
 41
2.5
 42
2.5
 43
2.5
 50
180.0
  0
INSERT
  5
860B
330
8027
100
AcDbEntity
  8
AM_5
 62
     3
370
    -2
100
AcDbBlockReference
  2
_OPEN30
 10
17.00064779780273
 20
-45.45555831336537
 30
0.0
 41
2.5
 42
2.5
 43
2.5
  0
MTEXT
  5
860C
330
8027
100
AcDbEntity
  8
AM_5
 62
     2
100
AcDbMText
 10
8.500643207190952
 20
-42.05555831336537
 30
0.0
 40
3.799999999999998
 41
0.0
 71
     5
 72
     1
  1
17
 73
     1
 44
1.0
1001
ACAD
1000
MTEXTBEGIN
1070
    73
1070
     1
1070
    44
1040
1.0
1070
    74
1070
     0
1000
MTEXTEND
  0
POINT
  5
860D
330
8027
100
AcDbEntity
  8
DEFPOINTS
 62
     0
100
AcDbPoint
 10
0.0006386165791747
 20
-50.53635420026927
 30
0.0
  0
POINT
  5
860E
330
8027
100
AcDbEntity
  8
DEFPOINTS
 62
     0
100
AcDbPoint
 10
17.00064779780273
 20
-57.25000381469699
 30
0.0
  0
POINT
  5
860F
330
8027
100
AcDbEntity
  8
DEFPOINTS
 62
     0
100
AcDbPoint
 10
17.00064779780273
 20
-45.45555831336537
 30
0.0
  0
ENDBLK
  5
8032
330
8027
100
AcDbEntity
  8
0
100
AcDbBlockEnd
  0
BLOCK
  5
8047
330
803D
100
AcDbEntity
  8
0
100
AcDbBlockBegin
  2
*D8
 70
     1
 10
0.0
 20
0.0
 30
0.0
  3
*D8
  1

  0
LINE
  5
8610
330
803D
100
AcDbEntity
  8
AM_5
 62
     3
370
    -2
100
AcDbLine
 10
17.00064901750651
 20
-73.25000381469651
 30
0.0
 11
17.00064901750651
 21
-84.99520593928854
 31
0.0
  0
LINE
  5
8611
330
803D
100
AcDbEntity
  8
AM_5
 62
     3
370
    -2
100
AcDbLine
 10
0.0006373968770888
 20
-57.24997785783237
 30
0.0
 11
0.0006373968770871
 21
-84.99520593928854
 31
0.0
  0
LINE
  5
8612
330
803D
100
AcDbEntity
  8
AM_5
 62
     3
370
    -2
100
AcDbLine
 10
14.50064901750651
 20
-83.99520593928853
 30
0.0
 11
2.500637396877086
 21
-83.99520593928853
 31
0.0
  0
INSERT
  5
8613
330
803D
100
AcDbEntity
  8
AM_5
 62
     3
370
    -2
100
AcDbBlockReference
  2
_OPEN30
 10
17.00064901750651
 20
-83.99520593928853
 30
0.0
 41
2.5
 42
2.5
 43
2.5
  0
INSERT
  5
8614
330
803D
100
AcDbEntity
  8
AM_5
 62
     3
370
    -2
100
AcDbBlockReference
  2
_OPEN30
 10
0.0006373968770872
 20
-83.99520593928853
 30
0.0
 41
2.5
 42
2.5
 43
2.5
 50
180.0
  0
MTEXT
  5
8615
330
803D
100
AcDbEntity
  8
AM_5
 62
     2
100
AcDbMText
 10
8.500643207191799
 20
-80.59520593928853
 30
0.0
 40
3.799999999999998
 41
0.0
 71
     5
 72
     1
  1
17
 73
     1
 44
1.0
1001
ACAD
1000
MTEXTBEGIN
1070
    73
1070
     1
1070
    44
1040
1.0
1070
    74
1070
     0
1000
MTEXTEND
  0
POINT
  5
8616
330
803D
100
AcDbEntity
  8
DEFPOINTS
 62
     0
100
AcDbPoint
 10
17.00064901750651
 20
-73.25000381469651
 30
0.0
  0
POINT
  5
8617
330
803D
100
AcDbEntity
  8
DEFPOINTS
 62
     0
100
AcDbPoint
 10
0.0006373968770888
 20
-57.24997785783237
 30
0.0
  0
POINT
  5
8618
330
803D
100
AcDbEntity
  8
DEFPOINTS
 62
     0
100
AcDbPoint
 10
0.0006373968770872
 20
-83.99520593928853
 30
0.0
  0
ENDBLK
  5
8048
330
803D
100
AcDbEntity
  8
0
100
AcDbBlockEnd
  0
BLOCK
  5
8063
330
8053
100
AcDbEntity
  8
0
100
AcDbBlockBegin
  2
*D9
 70
     1
 10
0.0
 20
0.0
 30
0.0
  3
*D9
  1

  0
LINE
  5
8652
330
8053
100
AcDbEntity
  8
AM_5
 62
     3
370
    -2
100
AcDbLine
 10
0.0006373968774298
 20
-57.24997785783235
 30
0.0
 11
-35.95149467598235
 21
-50.91063110055241
 31
0.0
  0
ARC
  5
8653
330
8053
100
AcDbEntity
  8
AM_5
 62
     3
370
    -2
100
AcDbCircle
 10
0.0006373968774298
 20
-57.24997785783235
 30
0.0
 40
35.50675441467495
100
AcDbArc
 50
174.0349557404122
 51
179.9999999999997
  0
INSERT
  5
8654
330
8053
100
AcDbEntity
  8
AM_5
 62
     3
370
    -2
100
AcDbBlockReference
  2
_OPEN30
 10
-34.96668699725845
 20
-51.08427969952869
 30
0.0
 41
2.5
 42
2.5
 43
2.5
 50
82.01746561438804
  0
MTEXT
  5
8655
330
8053
100
AcDbEntity
  8
AM_5
 62
     2
100
AcDbMText
 10
-38.73620490252097
 20
-53.61781765275209
 30
0.0
 40
3.799999999999998
 41
0.0
 71
     5
 72
     1
  1
10°
 11
0.0933555178200703
 21
0.9956328375925266
 31
0.0
 73
     1
 44
1.0
1001
ACAD
1000
MTEXTBEGIN
1070
    73
1070
     1
1070
    44
1040
1.0
1070
    74
1070
     0
1000
MTEXTEND
  0
POINT
  5
8656
330
8053
100
AcDbEntity
  8
DEFPOINTS
 62
     0
100
AcDbPoint
 10
-35.44604491461798
 20
-55.18543864242432
 30
0.0
  0
POINT
  5
8657
330
8053
100
AcDbEntity
  8
DEFPOINTS
 62
     0
100
AcDbPoint
 10
0.0006373968774298
 20
-57.24997785783235
 30
0.0
  0
POINT
  5
8658
330
8053
100
AcDbEntity
  8
DEFPOINTS
 62
     0
100
AcDbPoint
 10
0.0006373968774298
 20
-57.24997785783235
 30
0.0
  0
POINT
  5
8659
330
8053
100
AcDbEntity
  8
DEFPOINTS
 62
     0
100
AcDbPoint
 10
1.501395478466739
 20
-57.51460266113205
 30
0.0
  0
POINT
  5
865A
330
8053
100
AcDbEntity
  8
DEFPOINTS
 62
     0
100
AcDbPoint
 10
-16.87625103866543
 20
-57.2499778578323
 30
0.0
  0
ENDBLK
  5
8064
330
8053
100
AcDbEntity
  8
0
100
AcDbBlockEnd
  0
BLOCK
  5
80B8
330
80B7
100
AcDbEntity
  8
0
100
AcDbBlockBegin
  2
_NONE
 70
     0
 10
0.0
 20
0.0
 30
0.0
  3
_NONE
  1

  0
ENDBLK
  5
80B9
330
80B7
100
AcDbEntity
  8
0
100
AcDbBlockEnd
  0
BLOCK
  5
815F
330
8155
100
AcDbEntity
  8
0
100
AcDbBlockBegin
  2
*D11
 70
     1
 10
0.0
 20
0.0
 30
0.0
  3
*D11
  1

  0
LINE
  5
8622
330
8155
100
AcDbEntity
  8
AM_5
 62
     3
370
    -2
100
AcDbLine
 10
0.0006373968770888
 20
-57.24997785782846
 30
0.0
 11
-36.50611701779752
 21
-57.24997785782845
 31
0.0
  0
LINE
  5
8623
330
8155
100
AcDbEntity
  8
AM_5
 62
     3
370
    -2
100
AcDbLine
 10
2.900647797802709
 20
-73.25000381469651
 30
0.0
 11
-36.50611701779752
 21
-73.25000381469649
 31
0.0
  0
LINE
  5
8624
330
8155
100
AcDbEntity
  8
AM_5
 62
     3
370
    -2
100
AcDbLine
 10
-35.50611701779752
 20
-59.74997785782845
 30
0.0
 11
-35.50611701779752
 21
-70.75000381469649
 31
0.0
  0
INSERT
  5
8625
330
8155
100
AcDbEntity
  8
AM_5
 62
     3
370
    -2
100
AcDbBlockReference
  2
_OPEN30
 10
-35.50611701779752
 20
-57.24997785782845
 30
0.0
 41
2.5
 42
2.5
 43
2.5
 50
90.0
  0
INSERT
  5
8626
330
8155
100
AcDbEntity
  8
AM_5
 62
     3
370
    -2
100
AcDbBlockReference
  2
_OPEN30
 10
-35.50611701779752
 20
-73.25000381469649
 30
0.0
 41
2.5
 42
2.5
 43
2.5
 50
270.0
  0
MTEXT
  5
8627
330
8155
100
AcDbEntity
  8
AM_5
 62
     2
100
AcDbMText
 10
-38.90611701779751
 20
-65.24999083626248
 30
0.0
 40
3.799999999999998
 41
0.0
 71
     5
 72
     1
  1
16
 11
0.0000000000000001
 21
1.0
 31
0.0
 73
     1
 44
1.0
1001
ACAD
1000
MTEXTBEGIN
1070
    73
1070
     1
1070
    44
1040
1.0
1070
    74
1070
     0
1000
MTEXTEND
  0
POINT
  5
8628
330
8155
100
AcDbEntity
  8
DEFPOINTS
 62
     0
100
AcDbPoint
 10
0.0006373968770888
 20
-57.24997785782846
 30
0.0
  0
POINT
  5
8629
330
8155
100
AcDbEntity
  8
DEFPOINTS
 62
     0
100
AcDbPoint
 10
2.900647797802709
 20
-73.25000381469651
 30
0.0
  0
POINT
  5
862A
330
8155
100
AcDbEntity
  8
DEFPOINTS
 62
     0
100
AcDbPoint
 10
-35.50611701779752
 20
-73.25000381469649
 30
0.0
  0
ENDBLK
  5
8160
330
8155
100
AcDbEntity
  8
0
100
AcDbBlockEnd
  0
BLOCK
  5
816C
330
8162
100
AcDbEntity
  8
0
100
AcDbBlockBegin
  2
*D12
 70
     1
 10
0.0
 20
0.0
 30
0.0
  3
*D12
  1

  0
LINE
  5
862B
330
8162
100
AcDbEntity
  8
AM_5
 62
     3
370
    -2
100
AcDbLine
 10
17.00064779780273
 20
-69.25000381469702
 30
0.0
 11
-25.42613931037739
 21
-69.25000381469702
 31
0.0
  0
LINE
  5
862C
330
8162
100
AcDbEntity
  8
AM_5
 62
     3
370
    -2
100
AcDbLine
 10
0.0006373968553747
 20
-57.24997785782846
 30
0.0
 11
-25.42613931037739
 21
-57.24997785782845
 31
0.0
  0
LINE
  5
862D
330
8162
100
AcDbEntity
  8
AM_5
 62
     3
370
    -2
100
AcDbLine
 10
-24.42613931037739
 20
-66.75000381469702
 30
0.0
 11
-24.42613931037739
 21
-59.74997785782845
 31
0.0
  0
INSERT
  5
862E
330
8162
100
AcDbEntity
  8
AM_5
 62
     3
370
    -2
100
AcDbBlockReference
  2
_OPEN30
 10
-24.42613931037739
 20
-69.25000381469702
 30
0.0
 41
2.5
 42
2.5
 43
2.5
 50
270.0
  0
INSERT
  5
862F
330
8162
100
AcDbEntity
  8
AM_5
 62
     3
370
    -2
100
AcDbBlockReference
  2
_OPEN30
 10
-24.42613931037739
 20
-57.24997785782845
 30
0.0
 41
2.5
 42
2.5
 43
2.5
 50
90.0
  0
MTEXT
  5
8630
330
8162
100
AcDbEntity
  8
AM_5
 62
     2
100
AcDbMText
 10
-27.82651332612541
 20
-63.24999083626273
 30
0.0
 40
3.799999999999998
 41
0.0
 71
     5
 72
     1
  1
12
 11
0.0000000000000001
 21
1.0
 31
0.0
 73
     1
 44
1.0
1001
ACAD
1000
MTEXTBEGIN
1070
    73
1070
     1
1070
    44
1040
1.0
1070
    74
1070
     0
1000
MTEXTEND
  0
POINT
  5
8631
330
8162
100
AcDbEntity
  8
DEFPOINTS
 62
     0
100
AcDbPoint
 10
17.00064779780273
 20
-69.25000381469702
 30
0.0
  0
POINT
  5
8632
330
8162
100
AcDbEntity
  8
DEFPOINTS
 62
     0
100
AcDbPoint
 10
0.0006373968553747
 20
-57.24997785782846
 30
0.0
  0
POINT
  5
8633
330
8162
100
AcDbEntity
  8
DEFPOINTS
 62
     0
100
AcDbPoint
 10
-24.42613931037739
 20
-57.24997785782845
 30
0.0
  0
ENDBLK
  5
816D
330
8162
100
AcDbEntity
  8
0
100
AcDbBlockEnd
  0
BLOCK
  5
8182
330
8178
100
AcDbEntity
  8
0
100
AcDbBlockBegin
  2
*D13
 70
     1
 10
0.0
 20
0.0
 30
0.0
  3
*D13
  1

  0
LINE
  5
8634
330
8178
100
AcDbEntity
  8
AM_5
 62
     3
370
    -2
100
AcDbLine
 10
125.0006401684066
 20
-69.25000381469705
 30
0.0
 11
142.1925530694407
 21
-69.25000381469705
 31
0.0
  0
LINE
  5
8635
330
8178
100
AcDbEntity
  8
AM_5
 62
     3
370
    -2
100
AcDbLine
 10
125.0006401684066
 20
-57.25000381469702
 30
0.0
 11
142.1925530694407
 21
-57.25000381469702
 31
0.0
  0
LINE
  5
8636
330
8178
100
AcDbEntity
  8
AM_5
 62
     3
370
    -2
100
AcDbLine
 10
141.1925530694407
 20
-66.75000381469705
 30
0.0
 11
141.1925530694407
 21
-59.75000381469702
 31
0.0
  0
INSERT
  5
8637
330
8178
100
AcDbEntity
  8
AM_5
 62
     3
370
    -2
100
AcDbBlockReference
  2
_OPEN30
 10
141.1925530694407
 20
-69.25000381469705
 30
0.0
 41
2.5
 42
2.5
 43
2.5
 50
270.0
  0
INSERT
  5
8638
330
8178
100
AcDbEntity
  8
AM_5
 62
     3
370
    -2
100
AcDbBlockReference
  2
_OPEN30
 10
141.1925530694407
 20
-57.25000381469702
 30
0.0
 41
2.5
 42
2.5
 43
2.5
 50
90.0
  0
MTEXT
  5
8639
330
8178
100
AcDbEntity
  8
AM_5
 62
     2
100
AcDbMText
 10
137.7921790536927
 20
-63.25000381469702
 30
0.0
 40
3.799999999999998
 41
0.0
 71
     5
 72
     1
  1
12
 11
0.0000000000000001
 21
1.0
 31
0.0
 73
     1
 44
1.0
1001
ACAD
1000
MTEXTBEGIN
1070
    73
1070
     1
1070
    44
1040
1.0
1070
    74
1070
     0
1000
MTEXTEND
  0
POINT
  5
863A
330
8178
100
AcDbEntity
  8
DEFPOINTS
 62
     0
100
AcDbPoint
 10
125.0006401684066
 20
-69.25000381469705
 30
0.0
  0
POINT
  5
863B
330
8178
100
AcDbEntity
  8
DEFPOINTS
 62
     0
100
AcDbPoint
 10
125.0006401684066
 20
-57.25000381469702
 30
0.0
  0
POINT
  5
863C
330
8178
100
AcDbEntity
  8
DEFPOINTS
 62
     0
100
AcDbPoint
 10
141.1925530694407
 20
-57.25000381469702
 30
0.0
  0
ENDBLK
  5
8183
330
8178
100
AcDbEntity
  8
0
100
AcDbBlockEnd
  0
BLOCK
  5
8194
330
8185
100
AcDbEntity
  8
0
100
AcDbBlockBegin
  2
*D14
 70
     1
 10
0.0
 20
0.0
 30
0.0
  3
*D14
  1

  0
LINE
  5
863D
330
8185
100
AcDbEntity
  8
AM_5
 62
     3
370
    -2
100
AcDbLine
 10
12.06298376581968
 20
-55.74297142028801
 30
0.0
 11
31.35462599085825
 21
-54.05517194501816
 31
0.0
  0
ARC
  5
863E
330
8185
100
AcDbEntity
  8
AM_5
 62
     3
370
    -2
100
AcDbCircle
 10
-5.162480633517418
 20
-57.25000381469699
 30
0.0
 40
35.65659595340977
100
AcDbArc
 50
351.9639662385886
 51
355.9819831192942
  0
ARC
  5
863F
330
8185
100
AcDbEntity
  8
AM_5
 62
     3
370
    -2
100
AcDbCircle
 10
-5.162480633517418
 20
-57.25000381469699
 30
0.0
 40
35.65659595340977
100
AcDbArc
 50
9.018015347402178
 51
13.03603222810785
  0
ARC
  5
8640
330
8185
100
AcDbEntity
  8
AM_5
 62
     3
370
    -2
100
AcDbCircle
 10
-5.162480633517418
 20
-57.25000381469699
 30
0.0
 40
35.65659595340977
100
AcDbArc
 50
359.9999999999999
 51
4.999998466696502
  0
INSERT
  5
8641
330
8185
100
AcDbEntity
  8
AM_5
 62
     3
370
    -2
100
AcDbBlockReference
  2
_OPEN30
 10
30.49411531989234
 20
-57.25000381469704
 30
0.0
 41
2.5
 42
2.5
 43
2.5
 50
87.99099155964709
  0
INSERT
  5
8642
330
8185
100
AcDbEntity
  8
AM_5
 62
     3
370
    -2
100
AcDbBlockReference
  2
_OPEN30
 10
30.35843129043412
 20
-54.14232766110646
 30
0.0
 41
2.5
 42
2.5
 43
2.5
 50
277.0090069070493
  0
MTEXT
  5
8643
330
8185
100
AcDbEntity
  8
AM_5
 62
     2
100
AcDbMText
 10
36.91748185595244
 20
-53.9555960344716
 30
0.0
 40
3.799999999999998
 41
0.0
 71
     5
 72
     1
  1
5°
 73
     1
 44
1.0
1001
ACAD
1000
MTEXTBEGIN
1070
    73
1070
     1
1070
    44
1040
1.0
1070
    74
1070
     0
1000
MTEXTEND
  0
POINT
  5
8644
330
8185
100
AcDbEntity
  8
DEFPOINTS
 62
     0
100
AcDbPoint
 10
30.47903080915626
 20
-56.21294206799181
 30
0.0
  0
POINT
  5
8645
330
8185
100
AcDbEntity
  8
DEFPOINTS
 62
     0
100
AcDbPoint
 10
3.448109728689636
 20
-56.49667500393174
 30
0.0
  0
POINT
  5
8646
330
8185
100
AcDbEntity
  8
DEFPOINTS
 62
     0
100
AcDbPoint
 10
20.00064779780273
 20
-57.25000381469699
 30
0.0
  0
POINT
  5
8647
330
8185
100
AcDbEntity
  8
DEFPOINTS
 62
     0
100
AcDbPoint
 10
125.0006477978016
 20
-57.25000381469701
 30
0.0
  0
POINT
  5
8648
330
8185
100
AcDbEntity
  8
DEFPOINTS
 62
     0
100
AcDbPoint
 10
12.06298376581968
 20
-55.74297142028801
 30
0.0
  0
ENDBLK
  5
8195
330
8185
100
AcDbEntity
  8
0
100
AcDbBlockEnd
  0
BLOCK
  5
8240
330
8230
100
AcDbEntity
  8
0
100
AcDbBlockBegin
  2
*D15
 70
     1
 10
0.0
 20
0.0
 30
0.0
  3
*D15
  1

  0
ARC
  5
8649
330
8230
100
AcDbEntity
  8
AM_5
 62
     3
370
    -2
100
AcDbCircle
 10
0.0
 20
0.0
 30
0.0
 40
24.80663847119433
100
AcDbArc
 50
187.7766990959118
 51
193.5533840536536
  0
ARC
  5
864A
330
8230
100
AcDbEntity
  8
AM_5
 62
     3
370
    -2
100
AcDbCircle
 10
0.0
 20
0.0
 30
0.0
 40
24.80663847119433
100
AcDbArc
 50
180.0
 51
182.0000141381699
  0
INSERT
  5
864B
330
8230
100
AcDbEntity
  8
AM_5
 62
     3
370
    -2
100
AcDbBlockReference
  2
_OPEN30
 10
-24.79152672366212
 20
-0.8657453150236275
 30
0.0
 41
2.5
 42
2.5
 43
2.5
 50
94.88835661704086
  0
MTEXT
  5
864C
330
8230
100
AcDbEntity
  8
AM_5
 62
     2
100
AcDbMText
 10
-25.68036532622673
 20
-3.200815850877557
 30
0.0
 40
3.799999999999998
 41
0.0
 71
     5
 72
     1
  1
2°
 73
     1
 44
1.0
1001
ACAD
1000
MTEXTBEGIN
1070
    73
1070
     1
1070
    44
1040
1.0
1070
    74
1070
     0
1000
MTEXTEND
  0
POINT
  5
864D
330
8230
100
AcDbEntity
  8
DEFPOINTS
 62
     0
100
AcDbPoint
 10
-24.80495923657549
 20
-0.2886338725223787
 30
0.0
  0
POINT
  5
864E
330
8230
100
AcDbEntity
  8
DEFPOINTS
 62
     0
100
AcDbPoint
 10
0.0
 20
0.0
 30
0.0
  0
POINT
  5
864F
330
8230
100
AcDbEntity
  8
DEFPOINTS
 62
     0
100
AcDbPoint
 10
0.0006477978027419
 20
0.0
 30
0.0
  0
POINT
  5
8650
330
8230
100
AcDbEntity
  8
DEFPOINTS
 62
     0
100
AcDbPoint
 10
-25.76500049393906
 20
0.0
 30
0.0
  0
POINT
  5
8651
330
8230
100
AcDbEntity
  8
DEFPOINTS
 62
     0
100
AcDbPoint
 10
-25.80056035743377
 20
-0.9009817952483487
 30
0.0
  0
ENDBLK
  5
8241
330
8230
100
AcDbEntity
  8
0
100
AcDbBlockEnd
  0
ENDSEC
  0
SECTION
  2
ENTITIES
  0
LINE
  5
7EA7
330
1F
100
AcDbEntity
  8
AM_0
100
AcDbLine
 10
125.0006401684066
 20
-69.25000381469705
 30
0.0
 11
17.00064779780273
 21
-69.25000381469702
 31
0.0
  0
LINE
  5
7EA8
330
1F
100
AcDbEntity
  8
AM_0
100
AcDbLine
 10
3.900647797802776
 20
11.99999999999994
 30
0.0
 11
125.0006401684066
 21
11.99999999999998
 31
0.0
  0
LINE
  5
7EA9
330
1F
100
AcDbEntity
  8
AM_0
100
AcDbLine
 10
20.00064779780273
 20
-57.25000381469699
 30
0.0
 11
125.0006477978016
 21
-57.25000381469702
 31
0.0
  0
LINE
  5
7EAA
330
1F
100
AcDbEntity
  8
AM_0
100
AcDbLine
 10
20.02329582760819
 20
0.0000000000000071
 30
0.0
 11
125.0006477978016
 21
-0.0000000000000426
 31
0.0
  0
LINE
  5
7EB1
330
1F
100
AcDbEntity
  8
AM_7
  6
AM_ISO08W050X2
100
AcDbLine
 10
7.14951635859369
 20
-60.95353984832691
 30
0.0
 11
7.149516358593691
 21
-56.77094554901102
 31
0.0
1001
GENIUS_GENOREF_13
1005
0
  0
LINE
  5
7EB2
330
1F
100
AcDbEntity
  8
AM_0
 48
0.5
100
AcDbLine
 10
13.93131186030273
 20
-56.61418437957703
 30
0.0
 11
12.95176626704073
 21
-57.78156185150102
 31
0.0
  0
ARC
  5
7EB3
330
1F
100
AcDbEntity
  8
AM_0
 48
0.5
100
AcDbCircle
 10
1.813964143017749
 20
-55.74197769165
 30
0.0
 40
1.799999952316299
100
AcDbArc
 50
259.9999994939773
 51
335.2110945555814
  0
LINE
  5
7EB4
330
1F
100
AcDbEntity
  8
AM_0
 48
0.5
100
AcDbLine
 10
9.205271973827725
 20
-67.81400251388472
 30
0.0
 11
14.81031721005569
 21
-55.79394994298896
 31
0.0
  0
LINE
  5
7EB5
330
1F
100
AcDbEntity
  8
AM_0
 48
0.5
100
AcDbLine
 10
0.0006373968774299
 20
-57.24997785783235
 30
0.0
 11
0.1803085949217047
 21
-59.30364036560003
 31
0.0
  0
LINE
  5
7EB6
330
1F
100
AcDbEntity
  8
AM_0
 48
0.5
100
AcDbLine
 10
0.0006373968774299
 20
-57.24997785783235
 30
0.0
 11
1.50139547846674
 21
-57.51460266113203
 31
0.0
  0
LINE
  5
7EB7
330
1F
100
AcDbEntity
  8
AM_0
 48
0.5
100
AcDbLine
 10
20.00064779780273
 20
-57.25000381469699
 30
0.0
 11
20.00064779780273
 21
-69.25000381469702
 31
0.0
  0
LINE
  5
7EB9
330
1F
100
AcDbEntity
  8
AM_5
 62
     3
100
AcDbLine
 10
2.900647797802709
 20
-73.25000381469651
 30
0.0
 11
-36.47680213463321
 21
-73.25000381469651
 31
0.0
  0
LINE
  5
7EC0
330
1F
100
AcDbEntity
  8
AM_0
100
AcDbLine
 10
2.900647797802709
 20
-73.25000381469651
 30
0.0
 11
17.00064779780273
 21
-73.25000381469651
 31
0.0
  0
ARC
  5
7EC1
330
1F
100
AcDbEntity
  8
AM_0
 48
0.5
100
AcDbCircle
 10
14.3306496288577
 20
-58.93857955932602
 30
0.0
 40
1.799999952316299
100
AcDbArc
 50
139.9999993423964
 51
215.2110508597206
  0
LINE
  5
7EC6
330
1F
100
AcDbEntity
  8
AM_0
 48
0.5
100
AcDbLine
 10
2.90064779780271
 20
-63.18869714095176
 30
0.0
 11
2.900647797802709
 21
-73.25000381469651
 31
0.0
  0
LINE
  5
7EC7
330
1F
100
AcDbEntity
  8
AM_0
 48
0.5
100
AcDbLine
 10
0.1803047802247233
 20
-59.30364513397201
 30
0.0
 11
7.320063843944686
 21
-69.50027662515562
 31
0.0
  0
ARC
  5
7EC8
330
1F
100
AcDbEntity
  8
AM_0
 48
0.5
100
AcDbCircle
 10
8.958369508007754
 20
-68.35312271118091
 30
0.0
 40
2.0
100
AcDbArc
 50
214.9999606756997
 51
34.9999827601285
  0
LINE
  5
7EC9
330
1F
100
AcDbEntity
  8
AM_7
  6
AM_ISO08W050X2
100
AcDbLine
 10
7.14951635859369
 20
-60.95353984832691
 30
0.0
 11
2.966922059277854
 21
-60.95353984832691
 31
0.0
1001
GENIUS_GENOREF_13
1005
0
  0
CIRCLE
  5
7ECA
330
1F
100
AcDbEntity
  8
AM_0
 48
0.5
100
AcDbCircle
 10
7.149516358593691
 20
-60.95353984832691
 30
0.0
 40
2.799999952316299
  0
CIRCLE
  5
7ECB
330
1F
100
AcDbEntity
  8
AM_0
 48
0.5
100
AcDbCircle
 10
7.149516358593691
 20
-60.95353984832691
 30
0.0
 40
3.349999904632598
  0
LINE
  5
7ECC
330
1F
100
AcDbEntity
  8
AM_7
  6
AM_ISO08W050X2
100
AcDbLine
 10
7.14951635859369
 20
-60.95353984832691
 30
0.0
 11
7.14951635859369
 21
-65.13613414764281
 31
0.0
1001
GENIUS_GENOREF_13
1005
0
  0
LINE
  5
7ECD
330
1F
100
AcDbEntity
  8
AM_0
 48
0.5
100
AcDbLine
 10
7.516623749950714
 20
-68.99641311168588
 30
0.0
 11
9.205283417919748
 21
-67.81400012969888
 31
0.0
  0
LINE
  5
7ECE
330
1F
100
AcDbEntity
  8
AM_0
 48
0.5
100
AcDbLine
 10
7.516619935253734
 20
-68.99641180038371
 30
0.0
 11
6.995414033153728
 21
-67.56441426277078
 31
0.0
  0
ARC
  5
7ECF
330
1F
100
AcDbEntity
  8
AM_0
 48
0.5
100
AcDbCircle
 10
5.303969636181697
 20
-68.1800422668449
 30
0.0
 40
1.799999952316299
100
AcDbArc
 50
19.99999941818445
 51
95.21104752041289
  0
LINE
  5
7ED0
330
1F
100
AcDbEntity
  8
AM_0
 48
0.5
100
AcDbLine
 10
9.93166662714872
 20
-66.25624418258592
 30
0.0
 11
10.59667517206968
 21
-67.20597124099651
 31
0.0
  0
LINE
  5
7ED1
330
1F
100
AcDbEntity
  8
AM_7
  6
AM_ISO08W050X2
100
AcDbLine
 10
7.14951635859369
 20
-60.95353984832691
 30
0.0
 11
11.33211065790964
 21
-60.95353984832691
 31
0.0
1001
GENIUS_GENOREF_13
1005
0
  0
LINE
  5
7EE2
330
1F
100
AcDbEntity
  8
AM_0
100
AcDbLine
 10
17.00064779780273
 20
-69.25000381469702
 30
0.0
 11
17.00064779780273
 21
-73.25000381469651
 31
0.0
  0
LINE
  5
7EE3
330
1F
100
AcDbEntity
  8
AM_5
 62
     3
100
AcDbLine
 10
-56.77448783872228
 20
0.0000106809493374
 30
0.0
 11
-85.5775537641947
 21
0.0000106809495293
 31
0.0
  0
LINE
  5
7EE4
330
1F
100
AcDbEntity
  8
AM_0
100
AcDbLine
 10
-56.04722683739828
 20
11.24999999999994
 30
0.0
 11
-72.77448783872227
 21
11.24999999999998
 31
0.0
  0
LINE
  5
7EE5
330
1F
100
AcDbEntity
  8
AM_0
 48
0.5
100
AcDbLine
 10
-72.77448783872227
 20
0.8544920564704341
 30
0.0
 11
-62.7657650090266
 21
0.504980144101701
 31
0.0
  0
LINE
  5
7EE6
330
1F
100
AcDbEntity
  8
AM_0
100
AcDbLine
 10
-54.77448783872228
 20
12.24999999999996
 30
0.0
 11
-72.77448783872227
 21
12.25000000000004
 31
0.0
  0
LINE
  5
7EE9
330
1F
100
AcDbEntity
  8
AM_5
 62
     3
100
AcDbLine
 10
-72.77448783872227
 20
0.8544920564704767
 30
0.0
 11
-85.55484857433571
 21
1.300791589135442
 31
0.0
  0
LINE
  5
7EEA
330
1F
100
AcDbEntity
  8
AM_0
100
AcDbLine
 10
-72.77448783872227
 20
12.25000000000004
 30
0.0
 11
-72.77448783872227
 21
0.8544920564704341
 31
0.0
  0
LINE
  5
7EEF
330
1F
100
AcDbEntity
  8
AM_5
 62
     3
100
AcDbLine
 10
0.0006477978027419
 20
0.0
 30
0.0
 11
-25.76500049393905
 21
0.0
 31
0.0
  0
LINE
  5
7EF2
330
1F
100
AcDbEntity
  8
AM_5
 62
     3
100
AcDbLine
 10
0.0
 20
0.0
 30
0.0
 11
-25.80056035743377
 21
-0.9009817952483487
 31
0.0
  0
LINE
  5
7EF3
330
1F
100
AcDbEntity
  8
AM_5
 62
     3
100
AcDbLine
 10
0.0
 20
0.0
 30
0.0
 11
-25.81628716436489
 21
-0.0000000000000497
 31
0.0
  0
LINE
  5
7EF4
330
1F
100
AcDbEntity
  8
AM_5
 62
     3
100
AcDbLine
 10
0.0006373968774299
 20
-57.24997785783237
 30
0.0
 11
-26.18371930491845
 21
-57.24997785783237
 31
0.0
  0
LINE
  5
7EF5
330
1F
100
AcDbEntity
  8
AM_5
 62
     3
100
AcDbLine
 10
0.0006373968774299
 20
-57.24997785783237
 30
0.0
 11
-36.47680213463321
 21
-57.24997785783237
 31
0.0
  0
LINE
  5
7F1F
330
1F
100
AcDbEntity
  8
AM_0
100
AcDbLine
 10
-54.91432469740698
 20
0.8598137930902325
 30
0.0
 11
-54.77448783872228
 21
4.864217496672509
 31
0.0
  0
LINE
  5
7F20
330
1F
100
AcDbEntity
  8
AM_0
100
AcDbLine
 10
-55.31843396701424
 20
0.5171913324071653
 30
0.0
 11
-55.22025672244035
 21
3.328619774644273
 31
0.0
  0
LINE
  5
7F23
330
1F
100
AcDbEntity
  8
AM_0
 48
0.5
100
AcDbLine
 10
-56.77448783872228
 20
1.99999237060598
 30
0.0
 11
-56.77448783872228
 21
0.000010680949309
 31
0.0
  0
LINE
  5
7F24
330
1F
100
AcDbEntity
  8
AM_0
 48
0.5
100
AcDbLine
 10
-59.28558097837225
 20
1.79999542236402
 30
0.0
 11
-59.28558097837225
 21
0.1999969482429833
 31
0.0
  0
LINE
  5
7F25
330
1F
100
AcDbEntity
  8
AM_0
 48
0.5
100
AcDbLine
 10
-58.82848869322224
 20
1.928268432617983
 30
0.0
 11
-58.82848869322224
 21
0.0717239379890131
 31
0.0
  0
LINE
  5
7F26
330
1F
100
AcDbEntity
  8
AM_0
 48
0.5
100
AcDbLine
 10
-62.87125907896228
 20
3.525909423828018
 30
0.0
 11
-62.75935109262411
 21
0.3213111675406779
 31
0.0
  0
LINE
  5
7F27
330
1F
100
AcDbEntity
  8
AM_0
 48
0.5
100
AcDbLine
 10
-58.82847343443228
 20
0.0717163085940058
 30
0.0
 11
-59.28556571958227
 21
0.1999893188479831
 31
0.0
  0
LINE
  5
7F28
330
1F
100
AcDbEntity
  8
AM_0
 48
0.5
100
AcDbLine
 10
-62.75935109262411
 20
0.3213111675406779
 30
0.0
 11
-59.28558097837225
 21
0.200004577637003
 31
0.0
  0
LINE
  5
7F29
330
1F
100
AcDbEntity
  8
AM_0
100
AcDbLine
 10
-55.31183214901203
 20
0.7062426648459095
 30
0.0
 11
-54.91432469740698
 21
0.8598137930902325
 31
0.0
  0
LINE
  5
7F2A
330
1F
100
AcDbEntity
  8
AM_0
100
AcDbLine
 10
-56.77448783872228
 20
0.000010680949309
 30
0.0
 11
-55.31843396701424
 21
0.5171913324071653
 31
0.0
  0
LINE
  5
7F2B
330
1F
100
AcDbEntity
  8
AM_0
 48
0.5
100
AcDbLine
 10
-58.82847343443228
 20
0.0717391967779904
 30
0.0
 11
-56.77448783872228
 21
0.000010680949309
 31
0.0
  0
LINE
  5
7F2C
330
1F
100
AcDbEntity
  8
AM_0
100
AcDbLine
 10
-56.25518433707646
 20
3.294876367133859
 30
0.0
 11
-55.94254959416233
 21
12.24756405025978
 31
0.0
  0
LINE
  5
7F2D
330
1F
100
AcDbEntity
  8
AM_0
 48
0.5
100
AcDbLine
 10
-59.28558097837225
 20
1.799949645995972
 30
0.0
 11
-58.82847343443228
 21
1.928230285644971
 31
0.0
  0
LINE
  5
7F2E
330
1F
100
AcDbEntity
  8
AM_0
 48
0.5
100
AcDbLine
 10
-62.87119804380227
 20
3.525917053223004
 30
0.0
 11
-56.02119194029228
 21
3.286705017090007
 31
0.0
  0
LINE
  5
7F2F
330
1F
100
AcDbEntity
  8
AM_0
 48
0.5
100
AcDbLine
 10
-62.81100212095232
 20
1.799957275391008
 30
0.0
 11
-59.28558097837225
 21
1.79995727539098
 31
0.0
  0
LINE
  5
7F30
330
1F
100
AcDbEntity
  8
AM_0
100
AcDbLine
 10
-57.08899107084721
 20
1.989040071306796
 30
0.0
 11
-57.0424302293107
 21
3.322368122611592
 31
0.0
  0
LINE
  5
7F31
330
1F
100
AcDbEntity
  8
AM_0
 48
0.5
100
AcDbLine
 10
-56.02119956968227
 20
3.286643981933991
 30
0.0
 11
-55.22025672244035
 21
3.328619774644273
 31
0.0
  0
LINE
  5
7F32
330
1F
100
AcDbEntity
  8
AM_0
 48
0.5
100
AcDbLine
 10
-58.82850395200228
 20
1.928291320801001
 30
0.0
 11
-56.77450309751232
 21
2.000022888183991
 31
0.0
  0
LINE
  5
7F33
330
1F
100
AcDbEntity
  8
AM_0
100
AcDbLine
 10
-54.77448783872228
 20
12.24999999999996
 30
0.0
 11
-54.77448783872228
 21
4.864217496672509
 31
0.0
  0
LINE
  5
7F3E
330
1F
100
AcDbEntity
  8
AM_5
 62
     3
100
AcDbLine
 10
0.0006554271967616
 20
0.2105328515034017
 30
0.0
 11
0.00065542719676
 21
-12.99997711181599
 31
0.0
  0
LINE
  5
7F3F
330
1F
100
AcDbEntity
  8
AM_4
100
AcDbLine
 10
0.0006477978027419
 20
0.0
 30
0.0
 11
0.0006373968774299
 21
-57.24997785783235
 31
0.0
  0
LINE
  5
7F42
330
1F
100
AcDbEntity
  8
AM_0
100
AcDbLine
 10
12.58904415421886
 20
-55.98828615397026
 30
0.0
 11
16.56926517170892
 21
-55.6400619366123
 31
0.0
  0
LINE
  5
7F43
330
1F
100
AcDbEntity
  8
AM_0
100
AcDbLine
 10
2.900647797802768
 20
-56.49870883650258
 30
0.0
 11
16.48098171006341
 21
-55.31058357228324
 31
0.0
  0
LINE
  5
7F44
330
1F
100
AcDbEntity
  8
AM_0
 48
0.5
100
AcDbLine
 10
13.93131567499971
 20
-56.61419773101802
 30
0.0
 11
12.06298758051775
 21
-55.74298191070501
 31
0.0
  0
LINE
  5
7F45
330
1F
100
AcDbEntity
  8
AM_5
 62
     3
100
AcDbLine
 10
0.0006373968774299
 20
-57.24997785783235
 30
0.0
 11
-16.87625103866543
 21
-57.24997785783229
 31
0.0
  0
LINE
  5
7F49
330
1F
100
AcDbEntity
  8
AM_5
 62
     3
100
AcDbLine
 10
0.0006373968774299
 20
-57.24997785783235
 30
0.0
 11
0.0006398362809196
 21
-43.82273054270619
 31
0.0
  0
LINE
  5
7F4A
330
1F
100
AcDbEntity
  8
AM_0
 48
0.5
100
AcDbLine
 10
3.448109728689636
 20
-56.49667500393174
 30
0.0
 11
12.06298376581968
 21
-55.74297142028801
 31
0.0
  0
LINE
  5
7F4B
330
1F
100
AcDbEntity
  8
AM_0
100
AcDbLine
 10
2.900647797802768
 20
-56.8359110029025
 30
0.0
 11
3.26740210476884
 21
-56.80382415874366
 31
0.0
  0
LINE
  5
7F4C
330
1F
100
AcDbEntity
  8
AM_0
 48
0.5
100
AcDbLine
 10
2.900647797802768
 20
-56.49870883650258
 30
0.0
 11
2.900647797802711
 21
-57.17694057018094
 31
0.0
  0
LINE
  5
7F53
330
1F
100
AcDbEntity
  8
AM_0
100
AcDbLine
 10
17.00064779780273
 20
-57.25000381469699
 30
0.0
 11
20.00065351984869
 21
-57.25001049041701
 31
0.0
  0
LINE
  5
7F54
330
1F
100
AcDbEntity
  8
AM_0
100
AcDbLine
 10
16.48098171006341
 20
-55.31058357228324
 30
0.0
 11
17.00064779780273
 21
-57.25000381469699
 31
0.0
  0
LINE
  5
7F58
330
1F
100
AcDbEntity
  8
AM_0
 48
0.5
100
AcDbLine
 10
12.63164300778805
 20
2.422296712547577
 30
0.0
 11
13.64617468378872
 21
2.457733154296967
 31
0.0
  0
LINE
  5
7F59
330
1F
100
AcDbEntity
  8
AM_0
 48
0.5
100
AcDbLine
 10
6.847583152352172
 20
1.743173464874004
 30
0.0
 11
13.93131186030273
 21
2.487693786620965
 31
0.0
  0
LINE
  5
7F5A
330
1F
100
AcDbEntity
  8
AM_0
 48
0.5
100
AcDbLine
 10
2.900647797802776
 20
3.283220503120432
 30
0.0
 11
16.09957743446988
 21
3.744146048619008
 31
0.0
  0
LINE
  5
7F5B
330
1F
100
AcDbEntity
  8
AM_0
 48
0.5
100
AcDbLine
 10
0.1041377721337215
 20
0.0036365968641761
 30
0.0
 11
13.9313233043947
 21
0.4864959716799789
 31
0.0
  0
LINE
  5
7F5E
330
1F
100
AcDbEntity
  8
AM_5
 62
     3
100
AcDbLine
 10
0.0006554271967616
 20
0.0000228881839703
 30
0.0
 11
-16.33908555342736
 21
0.0000228881839703
 31
0.0
  0
LINE
  5
7F65
330
1F
100
AcDbEntity
  8
AM_7
  6
AM_ISO08W050X2
100
AcDbLine
 10
7.254215588523151
 20
-2.872927635230773
 30
0.0
 11
6.713816832672421
 21
12.60195852888027
 31
0.0
1001
GENIUS_GENODEF_13
1002
{
1000
HIER
1070
     0
1002
}
1002
{
1000
MANEDIT
1070
     0
1002
}
1002
{
1000
NOSEL
1070
     0
1002
}
1002
{
1000
BEHIND
1070
     0
1002
}
1002
{
1000
REACTOR
1002
}
1001
GENIUS_GENOBJ-N-CEN_13
1002
{
1000
OWNER
1000
GEN
1002
}
  0
LINE
  5
7F66
330
1F
100
AcDbEntity
  8
AM_0
 48
0.5
100
AcDbLine
 10
12.06298758051776
 20
2.291320800781974
 30
0.0
 11
12.06298758051776
 21
0.4212265014650001
 31
0.0
  0
LINE
  5
7F67
330
1F
100
AcDbEntity
  8
AM_0
 48
0.5
100
AcDbLine
 10
3.500647797802742
 20
3.304161071777983
 30
0.0
 11
3.500647797802741
 21
0.1222229003909732
 31
0.0
  0
LINE
  5
7F68
330
1F
100
AcDbEntity
  8
AM_0
 48
0.5
100
AcDbLine
 10
0.0006477978027421
 20
1.89646296806972
 30
0.0
 11
0.0006477978027419
 21
0.1035756787049067
 31
0.0
  0
LINE
  5
7F69
330
1F
100
AcDbEntity
  8
AM_0
 48
0.5
100
AcDbLine
 10
3.500647797802742
 20
2.603752136230959
 30
0.0
 11
6.813495350362814
 21
2.71943550942516
 31
0.0
  0
LINE
  5
7F6A
330
1F
100
AcDbEntity
  8
AM_0
 48
0.5
100
AcDbLine
 10
2.900647797802776
 20
10.99999999999996
 30
0.0
 11
2.900647797802775
 21
1.928428649902983
 31
0.0
  0
LINE
  5
7F6B
330
1F
100
AcDbEntity
  8
AM_0
 48
0.5
100
AcDbLine
 10
0.1041378040186634
 20
1.996402048797001
 30
0.0
 11
2.850878968456753
 21
1.900482177734986
 31
0.0
  0
LINE
  5
7F6C
330
1F
100
AcDbEntity
  8
AM_0
 48
0.5
100
AcDbLine
 10
3.249789490917749
 20
3.29539489746098
 30
0.0
 11
3.212863221386725
 21
2.238029479980973
 31
0.0
  0
ARC
  5
7F6D
330
1F
100
AcDbEntity
  8
AM_0
 48
0.5
100
AcDbCircle
 10
2.86307455561473
 20
2.250259399413991
 30
0.0
 40
0.3499999940395
100
AcDbArc
 50
268.0000019933252
 51
358.0000000154923
  0
LINE
  5
7F6E
330
1F
100
AcDbEntity
  8
AM_0
 48
0.5
100
AcDbLine
 10
3.900647797802776
 20
11.99999999999994
 30
0.0
 11
2.900647797802776
 21
10.99999999999996
 31
0.0
1001
GENIUS_GENFIL_13
1070
     0
1040
1.0
1040
1.0
1040
20.0
1040
0.0
1002
{
1002
}
1001
GENIUS_GENODEF_13
1002
{
1000
HIER
1070
     0
1002
}
1002
{
1000
MANEDIT
1070
     0
1002
}
1002
{
1000
NOSEL
1070
     0
1002
}
1002
{
1000
BEHIND
1070
     0
1002
}
1002
{
1000
REACTOR
1002
}
1001
GENIUS_GENOBJ-N-CHA_13
1002
{
1000
OWNER
1000
GEN
1002
}
  0
LINE
  5
7F6F
330
1F
100
AcDbEntity
  8
AM_0
 48
0.5
100
AcDbLine
 10
6.789068560785722
 20
3.41900973078075
 30
0.0
 11
6.847583152352172
 21
1.743173464874004
 31
0.0
  0
LINE
  5
7F70
330
1F
100
AcDbEntity
  8
AM_0
 48
0.5
100
AcDbLine
 10
12.58976810393902
 20
3.621578474974512
 30
0.0
 11
12.63412004840626
 21
2.351355185161445
 31
0.0
  0
LINE
  5
7F77
330
1F
100
AcDbEntity
  8
AM_0
100
AcDbLine
 10
17.00064779780274
 20
11.99999999999997
 30
0.0
 11
17.00064779780274
 21
0.7937910008100602
 31
0.0
  0
LINE
  5
7F78
330
1F
100
AcDbEntity
  8
AM_0
100
AcDbLine
 10
16.46467126113667
 20
11.99982624811562
 30
0.0
 11
16.56926517170893
 21
0.7787267593937913
 31
0.0
  0
LINE
  5
7F79
330
1F
100
AcDbEntity
  8
AM_0
 48
0.5
100
AcDbLine
 10
13.93131186030273
 20
2.487686157226995
 30
0.0
 11
13.93131186030273
 21
0.4864730834959659
 31
0.0
  0
LINE
  5
7F7A
330
1F
100
AcDbEntity
  8
AM_0
 48
0.5
100
AcDbLine
 10
15.20420004389671
 20
0.7310485839849861
 30
0.0
 11
15.36049963496071
 21
2.517593383788991
 31
0.0
  0
LINE
  5
7F7B
330
1F
100
AcDbEntity
  8
AM_0
 48
0.5
100
AcDbLine
 10
13.93131567499972
 20
0.6866073608400001
 30
0.0
 11
20.00064779780279
 21
0.8985535051741919
 31
0.0
  0
LINE
  5
7F7C
330
1F
100
AcDbEntity
  8
AM_0
100
AcDbLine
 10
20.00064779780279
 20
0.8985535051741919
 30
0.0
 11
20.03201540309067
 21
0.0003044948548592
 31
0.0
  0
LINE
  5
7F7D
330
1F
100
AcDbEntity
  8
AM_0
 48
0.5
100
AcDbLine
 10
16.09957743446988
 20
3.744146048619008
 30
0.0
 11
16.14145590327171
 21
2.544860839843998
 31
0.0
  0
LINE
  5
7F7E
330
1F
100
AcDbEntity
  8
AM_0
 48
0.5
100
AcDbLine
 10
13.93130423090769
 20
2.467689514159971
 30
0.0
 11
16.14145590327171
 21
2.544868469239006
 31
0.0
  0
LINE
  5
7F80
330
1F
100
AcDbEntity
  8
AM_0
 48
0.5
100
AcDbLine
 10
125.0006401684066
 20
-57.25000381469702
 30
0.0
 11
125.0006401684066
 21
-69.25000381469705
 31
0.0
  0
LINE
  5
7F88
330
1F
100
AcDbEntity
  8
AM_4
100
AcDbLine
 10
125.0006477978016
 20
0.2499999999999574
 30
0.0
 11
125.0006401684066
 21
-57.25000381469702
 31
0.0
  0
LINE
  5
7F90
330
1F
100
AcDbEntity
  8
AM_0
 48
0.5
100
AcDbLine
 10
125.0006401684066
 20
11.99999999999998
 30
0.0
 11
125.0006401684066
 21
-0.0000000000000426
 31
0.0
  0
DIMENSION
  5
7F98
330
1F
100
AcDbEntity
  8
AM_5
100
AcDbDimension
  2
*D2
 10
-24.81628716436489
 20
11.99999999999995
 30
0.0
 11
-28.21666118011293
 21
5.999999999999975
 31
0.0
 70
    32
 71
     5
 42
11.99999999999994
  3
AM_JIS$0
100
AcDbAlignedDimension
 13
0.0006477978027419
 23
0.0
 33
0.0
 14
3.900647797802776
 24
11.99999999999994
 34
0.0
 50
89.99999999999998
100
AcDbRotatedDimension
1001
ACAD
1000
DSTYLE
1002
{
1070
   271
1070
     6
1002
}
  0
DIMENSION
  5
7FBB
330
1F
100
AcDbEntity
  8
AM_5
100
AcDbDimension
  2
*D3
 10
-13.75767664272586
 20
0.000000000000004
 30
0.0
 11
-17.15805065847389
 21
-7.42236023622047
 31
0.0
 70
    32
 71
     5
 42
1.999999999999978
  3
AM_JIS$0
100
AcDbAlignedDimension
 13
0.0006477978027421
 23
1.999999999999978
 33
0.0
 14
0.2290318530226614
 24
0.0
 34
0.0
 50
89.99999999999998
100
AcDbRotatedDimension
  0
DIMENSION
  5
7FCB
330
1F
100
AcDbEntity
  8
AM_5
100
AcDbDimension
  2
*D4
 10
138.6550428139708
 20
11.99999999999998
 30
0.0
 11
135.2546687982228
 21
5.999999999999991
 31
0.0
 70
    32
 71
     5
 42
12.00000000000003
  3
AM_JIS$0
100
AcDbAlignedDimension
 13
125.0006401684066
 23
-0.0000000000000426
 33
0.0
 14
125.0006401684066
 24
11.99999999999998
 34
0.0
 50
89.99999999999998
100
AcDbRotatedDimension
  0
DIMENSION
  5
7FE4
330
1F
100
AcDbEntity
  8
AM_5
100
AcDbDimension
  2
*D5
 10
-85.55484857433571
 20
1.300791589135442
 30
0.0
 11
-90.4051160375627
 21
-3.468876681808779
 31
0.0
 70
   162
 71
     5
 42
0.0349065460740405
  3
AM_JIS$2
100
AcDb2LineAngularDimension
 13
-56.77448783872228
 23
0.0000106809493374
 33
0.0
 14
-85.5775537641947
 24
0.0000106809495293
 34
0.0
 15
-72.77448783872227
 25
0.8544920564704767
 35
0.0
 16
-83.54749837636736
 26
0.8202806785875536
 36
0.0
1001
ACAD
1000
DSTYLE
1002
{
1070
   287
1070
     4
1070
   271
1070
     0
1070
   279
1070
     1
1002
}
  0
DIMENSION
  5
8018
330
1F
100
AcDbEntity
  8
AM_5
100
AcDbDimension
  2
*D6
 10
125.0006460397246
 20
-18.37203983857695
 30
0.0
 11
62.50065073346069
 21
-14.97166582282892
 31
0.0
 70
    32
 71
     5
 42
124.9999906125278
  3
AM_JIS$0
100
AcDbAlignedDimension
 13
0.00065542719676
 23
-12.99997711181599
 33
0.0
 14
125.0006460397246
 24
-12.99999369745497
 34
0.0
100
AcDbRotatedDimension
  0
DIMENSION
  5
8026
330
1F
100
AcDbEntity
  8
AM_5
100
AcDbDimension
  2
*D7
 10
17.00064779780273
 20
-45.45555831336537
 30
0.0
 11
8.500643207190952
 21
-42.05555831336537
 31
0.0
 70
    32
 71
     5
 42
17.00000918122356
  3
AM_JIS$0
100
AcDbAlignedDimension
 13
0.0006386165791747
 23
-50.53635420026927
 33
0.0
 14
17.00064779780273
 24
-57.25000381469699
 34
0.0
100
AcDbRotatedDimension
  0
DIMENSION
  5
803C
330
1F
100
AcDbEntity
  8
AM_5
100
AcDbDimension
  2
*D8
 10
0.0006373968770872
 20
-83.99520593928853
 30
0.0
 11
8.500643207191799
 21
-80.59520593928853
 31
0.0
 70
    32
 71
     5
 42
17.00001162062942
  3
AM_JIS$0
100
AcDbAlignedDimension
 13
17.00064901750651
 23
-73.25000381469651
 33
0.0
 14
0.0006373968770888
 24
-57.24997785783237
 34
0.0
100
AcDbRotatedDimension
  0
DIMENSION
  5
8052
330
1F
100
AcDbEntity
  8
AM_5
100
AcDbDimension
  2
*D9
 10
-16.87625103866543
 20
-57.24997785783229
 30
0.0
 11
-35.35105325470637
 21
-53.93522641334033
 31
0.0
 70
   162
 71
     5
 42
0.1745333530081849
  3
AM_JIS$2
100
AcDb2LineAngularDimension
 13
0.0006373968774299
 23
-57.24997785783235
 33
0.0
 14
1.50139547846674
 24
-57.51460266113203
 34
0.0
 15
0.0006373968774299
 25
-57.24997785783235
 35
0.0
 16
-35.44604491461798
 26
-55.18543864242432
 36
0.0
1001
ACAD
1000
DSTYLE
1002
{
1070
   271
1070
     0
1070
    75
1070
     1
1070
   281
1070
     0
1070
    76
1070
     0
1070
   282
1070
     1
1070
     7
1000
NONE
1070
     5
1000

1070
   173
1070
     1
1070
     6
1000
OPEN30
1002
}
  0
DIMENSION
  5
8154
330
1F
100
AcDbEntity
  8
AM_5
100
AcDbDimension
  2
*D11
 10
-35.50611701779752
 20
-73.25000381469649
 30
0.0
 11
-38.90611701779751
 21
-65.24999083626248
 31
0.0
 70
    32
 71
     5
 42
16.00002595686806
  3
AM_JIS$0
100
AcDbAlignedDimension
 13
0.0006373968770888
 23
-57.24997785782846
 33
0.0
 14
2.900647797802709
 24
-73.25000381469651
 34
0.0
 50
89.99999999999998
100
AcDbRotatedDimension
  0
DIMENSION
  5
8161
330
1F
100
AcDbEntity
  8
AM_5
100
AcDbDimension
  2
*D12
 10
-24.42613931037739
 20
-57.24997785782845
 30
0.0
 11
-27.82651332612541
 21
-63.24999083626273
 31
0.0
 70
    32
 71
     5
 42
12.00002595686857
  3
AM_JIS$0
100
AcDbAlignedDimension
 13
17.00064779780273
 23
-69.25000381469702
 33
0.0
 14
0.0006373968553747
 24
-57.24997785782846
 34
0.0
 50
89.99999999999998
100
AcDbRotatedDimension
  0
DIMENSION
  5
8177
330
1F
100
AcDbEntity
  8
AM_5
100
AcDbDimension
  2
*D13
 10
141.1925530694407
 20
-57.25000381469702
 30
0.0
 11
137.7921790536927
 21
-63.25000381469702
 31
0.0
 70
    32
 71
     5
 42
12.00000000000003
  3
AM_JIS$0
100
AcDbAlignedDimension
 13
125.0006401684066
 23
-69.25000381469705
 33
0.0
 14
125.0006401684066
 24
-57.25000381469702
 34
0.0
 50
89.99999999999998
100
AcDbRotatedDimension
  0
DIMENSION
  5
8184
330
1F
100
AcDbEntity
  8
AM_5
100
AcDbDimension
  2
*D14
 10
12.06298376581968
 20
-55.74297142028801
 30
0.0
 11
31.85731328210863
 21
-54.35175272598705
 31
0.0
 70
   162
 71
     5
 42
0.0872664358385233
  3
AM_JIS$2
100
AcDb2LineAngularDimension
 13
20.00064779780273
 23
-57.25000381469699
 33
0.0
 14
125.0006477978016
 24
-57.25000381469702
 34
0.0
 15
3.448109728689636
 25
-56.49667500393174
 35
0.0
 16
30.47903080915626
 26
-56.21294206799181
 36
0.0
1001
ACAD
1000
DSTYLE
1002
{
1070
   287
1070
     4
1070
   271
1070
     0
1070
   279
1070
     1
1002
}
  0
DIMENSION
  5
822F
330
1F
100
AcDbEntity
  8
AM_5
100
AcDbDimension
  2
*D15
 10
-25.80056035743377
 20
-0.9009817952483487
 30
0.0
 11
-30.89640535344689
 21
-3.850946150265755
 31
0.0
 70
   162
 71
     5
 42
0.0349068317975023
  3
AM_JIS$2
100
AcDb2LineAngularDimension
 13
0.0006477978027419
 23
0.0
 33
0.0
 14
-25.76500049393905
 24
0.0
 34
0.0
 15
0.0
 25
0.0
 35
0.0
 16
-24.80495923657549
 26
-0.2886338725223787
 36
0.0
1001
ACAD
1000
DSTYLE
1002
{
1070
   287
1070
     4
1070
   271
1070
     0
1070
   173
1070
     1
1070
   279
1070
     1
1070
   281
1070
     1
1070
     5
1000

1070
     6
1000
NONE
1070
     7
1000
OPEN30
1002
}
  0
TEXT
  5
83BD
330
1F
100
AcDbEntity
  8
AM_6
100
AcDbText
 10
44.21160475050167
 20
-94.50352452282013
 30
0.0
 40
5.0
  1
GWCR1212-3
 72
     4
 11
62.18571640285336
 21
-92.00352452282013
 31
0.0
100
AcDbText
  0
ARC
  5
83E4
330
1F
100
AcDbEntity
  8
AM_0
 48
0.5
100
AcDbCircle
 10
0.1006477978027419
 20
0.1035756787049067
 30
0.0
 40
0.1
100
AcDbArc
 50
180.0
 51
272.0000141381698
  0
ARC
  5
83E5
330
1F
100
AcDbEntity
  8
AM_0
 48
0.5
100
AcDbCircle
 10
0.1006477978027421
 20
1.89646296806972
 30
0.0
 40
0.1
100
AcDbArc
 50
87.99996758196838
 51
180.0
  0
ENDSEC
  0
SECTION
  2
OBJECTS
  0
DICTIONARY
  5
C
330
0
100
AcDbDictionary
281
     1
  3
ACAD_COLOR
350
847C
  3
ACAD_GROUP
350
D
  3
ACAD_LAYOUT
350
1A
  3
ACAD_MATERIAL
350
847B
  3
ACAD_MLINESTYLE
350
17
  3
ACAD_PLOTSETTINGS
350
19
  3
ACAD_PLOTSTYLENAME
350
E
  3
ACAD_TABLESTYLE
350
847D
  3
ACDBHEADERROUNDTRIPXREC
350
8660
  3
ACDBVARIABLEDICTIONARY
350
30
  3
ACMDICTIONARY
350
4D
  3
AMG
350
3F
  3
AMGSNAPSETTINGS
350
73
  3
DWGPROPS
350
865F
  3
ENG_DATA
350
21C6
  3
FILENAME
350
21C9
  3
HOLD_DIC_DATA
350
21C4
  3
TABLE_DIC_DATA
350
1C0B
  3
ZWKSIZE
350
21CB
  0
DICTIONARY
  5
165
330
1F
100
AcDbDictionary
280
     1
281
     1
  3
ACAD_INDEX
360
841A
  3
ACAD_LAYOUTSELFREF
360
844A
  0
DICTIONARY
  5
8448
330
1B
100
AcDbDictionary
280
     1
281
     1
  3
ACAD_LAYOUTSELFREF
360
8449
  0
DICTIONARY
  5
847C
102
{ACAD_REACTORS
330
C
102
}
330
C
100
AcDbDictionary
281
     1
  0
DICTIONARY
  5
D
102
{ACAD_REACTORS
330
C
102
}
330
C
100
AcDbDictionary
281
     1
  3
*A1
350
7C0D
  3
*A2
350
7C0E
  3
*A3
350
7FE3
  0
DICTIONARY
  5
1A
102
{ACAD_REACTORS
330
C
102
}
330
C
100
AcDbDictionary
281
     1
  3
Model
350
847F
  3
レイアウト1
350
8480
  0
DICTIONARY
  5
847B
102
{ACAD_REACTORS
330
C
102
}
330
C
100
AcDbDictionary
281
     1
  0
DICTIONARY
  5
17
102
{ACAD_REACTORS
330
C
102
}
330
C
100
AcDbDictionary
281
     1
  3
STANDARD
350
18
  0
DICTIONARY
  5
19
102
{ACAD_REACTORS
330
C
102
}
330
C
100
AcDbDictionary
281
     1
  0
ACDBDICTIONARYWDFLT
  5
E
102
{ACAD_REACTORS
330
C
102
}
330
C
100
AcDbDictionary
281
     1
  3
Normal
350
F
100
AcDbDictionaryWithDefault
340
F
  0
DICTIONARY
  5
847D
102
{ACAD_REACTORS
330
C
102
}
330
C
100
AcDbDictionary
281
     1
  3
Standard
350
847E
  0
DICTIONARY
  5
8660
102
{ACAD_REACTORS
330
C
102
}
330
C
100
AcDbDictionary
281
     1
  0
DICTIONARY
  5
30
102
{ACAD_REACTORS
330
C
102
}
330
C
100
AcDbDictionary
281
     1
  3
CTABLESTYLE
350
865B
  3
DIMASSOC
350
865C
  3
INDEXCTL
350
31
  3
PROJECTNAME
350
865D
  3
SORTENTS
350
42BE
  0
DICTIONARY
  5
4D
102
{ACAD_REACTORS
330
C
102
}
330
C
100
AcDbDictionary
281
     1
  3
ACMSTDDICTIONARY
350
17E
  3
AMDTSECTSYM_ARROWCOLOR
350
84F8
  0
DICTIONARY
  5
3F
102
{ACAD_REACTORS
330
C
102
}
330
C
100
AcDbDictionary
281
     1
  0
DICTIONARY
  5
73
102
{ACAD_REACTORS
330
C
102
}
330
C
100
AcDbDictionary
281
     1
  0
XRECORD
  5
865F
102
{ACAD_REACTORS
330
C
102
}
330
C
100
AcDbXrecord
280
     1
  1
DWGPROPS COOKIE
  2

  3

  4

  6

  7

  8

  9

300
AmdtFileType=82
301
=
302
=
303
=
304
=
305
=
306
=
307
=
308
=
309
=
 40
0.5685362847222222
 41
2451943.610431666
 42
2455603.419048391
  1

 90
        1
  0
DICTIONARY
  5
21C6
102
{ACAD_REACTORS
330
C
102
}
330
C
100
AcDbDictionary
281
     1
  3
ENG_ID
350
21C7
  0
DICTIONARY
  5
21C9
102
{ACAD_REACTORS
330
C
102
}
330
C
100
AcDbDictionary
281
     1
  3
FILENAME
350
21CA
  0
DICTIONARY
  5
21C4
102
{ACAD_REACTORS
330
C
102
}
330
C
100
AcDbDictionary
281
     1
  3
HOLD_DATA
350
21C5
  0
DICTIONARY
  5
1C0B
102
{ACAD_REACTORS
330
C
102
}
330
C
100
AcDbDictionary
281
     1
  3
INPUT_DATA
350
1C0D
  3
TABLE_DATA
350
1C0C
  0
DICTIONARY
  5
21CB
102
{ACAD_REACTORS
330
C
102
}
330
C
100
AcDbDictionary
281
     1
  3
ZWKSIZE
350
21CC
  0
DICTIONARY
  5
841A
102
{ACAD_REACTORS
330
165
102
}
330
165
100
AcDbDictionary
281
     1
  3
*A1
350
841B
  0
XRECORD
  5
844A
102
{ACAD_REACTORS
330
165
102
}
330
165
100
AcDbXrecord
280
     1
340
1F
  0
XRECORD
  5
8449
102
{ACAD_REACTORS
330
8448
102
}
330
8448
100
AcDbXrecord
280
     1
340
1B
  0
GROUP
  5
7C0D
102
{ACAD_REACTORS
330
D
102
}
330
D
100
AcDbGroup
300

 70
     1
 71
     1
  0
GROUP
  5
7C0E
102
{ACAD_REACTORS
330
D
102
}
330
D
100
AcDbGroup
300

 70
     1
 71
     1
  0
GROUP
  5
7FE3
102
{ACAD_REACTORS
330
D
102
}
330
D
100
AcDbGroup
300

 70
     1
 71
     1
  0
LAYOUT
  5
847F
102
{ACAD_XDICTIONARY
360
8661
102
}
102
{ACAD_REACTORS
330
1A
102
}
330
1A
100
AcDbPlotSettings
  1

  2
SII LP-1010 (C2 VR)2R
  4

  6

 40
0.0
 41
0.0
 42
0.0
 43
0.0
 44
0.0
 45
0.0
 46
0.0
 47
0.0
 48
0.0
 49
0.0
140
0.0
141
0.0
142
1.0
143
1.0
 70
  1712
 72
     0
 73
     0
 74
     0
  7
sei_cad.ctb
 75
     0
147
1.0
148
0.0
149
0.0
100
AcDbLayout
  1
Model
 70
     1
 71
     0
 10
0.0
 20
0.0
 11
12.0
 21
9.0
 12
0.0
 22
0.0
 32
0.0
 14
0.0
 24
0.0
 34
0.0
 15
0.0
 25
0.0
 35
0.0
146
0.0
 13
0.0
 23
0.0
 33
0.0
 16
1.0
 26
0.0
 36
0.0
 17
0.0
 27
1.0
 37
0.0
 76
     0
330
1F
  0
LAYOUT
  5
8480
102
{ACAD_XDICTIONARY
360
8663
102
}
102
{ACAD_REACTORS
330
1A
102
}
330
1A
100
AcDbPlotSettings
  1

  2
SII LP-1010 (C2 VR)2R
  4

  6

 40
0.0
 41
0.0
 42
0.0
 43
0.0
 44
0.0
 45
0.0
 46
0.0
 47
0.0
 48
0.0
 49
0.0
140
0.0
141
0.0
142
1.0
143
1.0
 70
   688
 72
     0
 73
     0
 74
     5
  7
sei_cad.ctb
 75
    16
147
1.0
148
0.0
149
0.0
100
AcDbLayout
  1
レイアウト1
 70
     1
 71
     1
 10
0.0
 20
0.0
 11
420.0
 21
297.0
 12
0.0
 22
0.0
 32
0.0
 14
1.000000000000000E+20
 24
1.000000000000000E+20
 34
1.000000000000000E+20
 15
-1.000000000000000E+20
 25
-1.000000000000000E+20
 35
-1.000000000000000E+20
146
0.0
 13
0.0
 23
0.0
 33
0.0
 16
1.0
 26
0.0
 36
0.0
 17
0.0
 27
1.0
 37
0.0
 76
     0
330
1B
  0
MLINESTYLE
  5
18
102
{ACAD_REACTORS
330
17
102
}
330
17
100
AcDbMlineStyle
  2
STANDARD
 70
     0
  3

 62
   256
 51
90.0
 52
90.0
 71
     2
 49
0.5
 62
   256
  6
BYLAYER
 49
-0.5
 62
   256
  6
BYLAYER
  0
ACDBPLACEHOLDER
  5
F
102
{ACAD_REACTORS
330
E
102
}
330
E
  0
TABLESTYLE
  5
847E
102
{ACAD_REACTORS
330
847D
102
}
330
847D
100
AcDbTableStyle
  3
Standard
 70
     0
 71
     0
 40
1.5
 41
1.5
280
     0
281
     0
  7
STANDARD
140
4.5
170
     2
 62
     0
 63
     7
283
     0
274
    -2
284
     1
 64
     0
275
    -2
285
     1
 65
     0
276
    -2
286
     1
 66
     0
277
    -2
287
     1
 67
     0
278
    -2
288
     1
 68
     0
279
    -2
289
     1
 69
     0
  7
STANDARD
140
6.0
170
     5
 62
     0
 63
     7
283
     0
274
    -2
284
     1
 64
     0
275
    -2
285
     1
 65
     0
276
    -2
286
     1
 66
     0
277
    -2
287
     1
 67
     0
278
    -2
288
     1
 68
     0
279
    -2
289
     1
 69
     0
  7
STANDARD
140
4.5
170
     5
 62
     0
 63
     7
283
     0
274
    -2
284
     1
 64
     0
275
    -2
285
     1
 65
     0
276
    -2
286
     1
 66
     0
277
    -2
287
     1
 67
     0
278
    -2
288
     1
 68
     0
279
    -2
289
     1
 69
     0
  0
DICTIONARYVAR
  5
865B
102
{ACAD_REACTORS
330
30
102
}
330
30
100
DictionaryVariables
280
     0
  1
STANDARD
  0
DICTIONARYVAR
  5
865C
102
{ACAD_REACTORS
330
30
102
}
330
30
100
DictionaryVariables
280
     0
  1
1
  0
DICTIONARYVAR
  5
31
102
{ACAD_REACTORS
330
30
102
}
330
30
100
DictionaryVariables
280
     0
  1
1
  0
DICTIONARYVAR
  5
865D
102
{ACAD_REACTORS
330
30
102
}
330
30
100
DictionaryVariables
280
     0
  1

  0
DICTIONARYVAR
  5
42BE
102
{ACAD_REACTORS
330
30
102
}
330
30
100
DictionaryVariables
280
     0
  1
96
  0
DICTIONARY
  5
17E
102
{ACAD_REACTORS
330
4D
102
}
330
4D
100
AcDbDictionary
281
     1
  0
XRECORD
  5
84F8
102
{ACAD_REACTORS
330
4D
102
}
330
4D
100
AcDbXrecord
280
     1
 90
-1023410169
  0
XRECORD
  5
21C7
102
{ACAD_REACTORS
330
21C6
102
}
330
21C6
100
AcDbXrecord
280
     1
  1
HOLD
  0
XRECORD
  5
21CA
102
{ACAD_REACTORS
330
21C9
102
}
330
21C9
100
AcDbXrecord
280
     1
  1
21000065__00___
  0
XRECORD
  5
21C5
102
{ACAD_REACTORS
330
21C4
102
}
330
21C4
100
AcDbXrecord
280
     1
  1
クランクシャフト加工用 ^M^J１コーナー型 ^M^J15.875 ^M^J20 ^M^Jクランプオン ^M^J９０° ^M^J1 ^M^J鋼 ^M^J ^M^J ^M^J ^M^J ^M^J
  0
XRECORD
  5
1C0D
102
{ACAD_REACTORS
330
1C0B
102
}
330
1C0B
100
AcDbXrecord
280
     1
  1
1,,,,,,,,,^M^J2,,,,,,,,,^M^J3,,,,,,,,,^M^J4,,,,,,,,,^M^J5,,,,,,,,,^M^J6,,,,,,,,,^M^J7,,,,,,,,,^M^J8,,,,,,,,,^M^J9,,,,,,,,,^M^J10,,,,,,,,,
  0
XRECORD
  5
1C0C
102
{ACAD_REACTORS
330
1C0B
102
}
330
1C0B
100
AcDbXrecord
280
     1
  1
10,10
  0
XRECORD
  5
21CC
102
{ACAD_REACTORS
330
21CB
102
}
330
21CB
100
AcDbXrecord
280
     1
  1
3
  0
LAYER_INDEX
  5
841B
102
{ACAD_REACTORS
330
841A
102
}
330
841A
100
AcDbIndex
 40
2455603.419048391
100
AcDbLayerIndex
  8
0
360
841C
 90
        0
  8
AM_5
360
841D
 90
       25
  8
DEFPOINTS
360
841E
 90
        0
  8
AM_0
360
841F
 90
       80
  8
AM_6
360
8420
 90
        1
  8
AM_7
360
8421
 90
        5
  8
AM_4
360
8422
 90
        2
  0
DICTIONARY
  5
8661
330
847F
100
AcDbDictionary
280
     1
281
     1
  3
ACAD_XREC_ROUNDTRIP
360
8662
  0
DICTIONARY
  5
8663
330
8480
100
AcDbDictionary
280
     1
281
     1
  3
ACAD_XREC_ROUNDTRIP
360
8664
  0
IDBUFFER
  5
841C
330
0
100
AcDbIdBuffer
  0
IDBUFFER
  5
841D
330
0
100
AcDbIdBuffer
330
7EB9
330
7EE3
330
7EE9
330
7EEF
330
7EF2
330
7EF3
330
7EF4
330
7EF5
330
7F3E
330
7F45
330
7F49
330
7F5E
330
7F98
330
7FBB
330
7FCB
330
7FE4
330
8018
330
8026
330
803C
330
8052
330
8154
330
8161
330
8177
330
8184
330
822F
  0
IDBUFFER
  5
841E
330
0
100
AcDbIdBuffer
  0
IDBUFFER
  5
841F
330
0
100
AcDbIdBuffer
330
7EA7
330
7EA8
330
7EA9
330
7EAA
330
7EB2
330
7EB3
330
7EB4
330
7EB5
330
7EB6
330
7EB7
330
7EC0
330
7EC1
330
7EC6
330
7EC7
330
7EC8
330
7ECA
330
7ECB
330
7ECD
330
7ECE
330
7ECF
330
7ED0
330
7EE2
330
7EE4
330
7EE5
330
7EE6
330
7EEA
330
7F1F
330
7F20
330
7F23
330
7F24
330
7F25
330
7F26
330
7F27
330
7F28
330
7F29
330
7F2A
330
7F2B
330
7F2C
330
7F2D
330
7F2E
330
7F2F
330
7F30
330
7F31
330
7F32
330
7F33
330
7F42
330
7F43
330
7F44
330
7F4A
330
7F4B
330
7F4C
330
7F53
330
7F54
330
7F58
330
7F59
330
7F5A
330
7F5B
330
7F66
330
7F67
330
7F68
330
7F69
330
7F6A
330
7F6B
330
7F6C
330
7F6D
330
7F6E
330
7F6F
330
7F70
330
7F77
330
7F78
330
7F79
330
7F7A
330
7F7B
330
7F7C
330
7F7D
330
7F7E
330
7F80
330
7F90
330
83E4
330
83E5
  0
IDBUFFER
  5
8420
330
0
100
AcDbIdBuffer
330
83BD
  0
IDBUFFER
  5
8421
330
0
100
AcDbIdBuffer
330
7EB1
330
7EC9
330
7ECC
330
7ED1
330
7F65
  0
IDBUFFER
  5
8422
330
0
100
AcDbIdBuffer
330
7F3F
330
7F88
  0
XRECORD
  5
8662
102
{ACAD_REACTORS
330
8661
102
}
330
8661
100
AcDbXrecord
280
     1
102
SHADEPLOT
 70
     0
102
SHADEPLOTRESLEVEL
 70
     2
102
SHADEPLOTCUSTOMDPI
 70
   300
  0
XRECORD
  5
8664
102
{ACAD_REACTORS
330
8663
102
}
330
8663
100
AcDbXrecord
280
     1
102
SHADEPLOT
 70
     0
102
SHADEPLOTRESLEVEL
 70
     2
102
SHADEPLOTCUSTOMDPI
 70
   300
  0
ENDSEC
  0
EOF
