  0
SECTION
  2
HEADER
  9
$ACADVER
  1
AC1015
  9
$ACADMAINTVER
 70
    20
  9
$DWGCODEPAGE
  3
ANSI_932
  9
$INSBASE
 10
0.0
 20
0.0
 30
0.0
  9
$EXTMIN
 10
-109.7928038658999
 20
-93.92466587512116
 30
-0.0000000000022887
  9
$EXTMAX
 10
146.3165004165535
 20
25.00336120192822
 30
0.0000000000000001
  9
$LIMMIN
 10
-187.7783995014006
 20
-156.1607100642759
  9
$LIMMAX
 10
152.5374839511403
 20
47.84576000541335
  9
$ORTHOMODE
 70
     0
  9
$REGENMODE
 70
     1
  9
$FILLMODE
 70
     1
  9
$QTEXTMODE
 70
     0
  9
$MIRRTEXT
 70
     1
  9
$LTSCALE
 40
1.0
  9
$ATTMODE
 70
     1
  9
$TEXTSIZE
 40
2.5
  9
$TRACEWID
 40
1.0
  9
$TEXTSTYLE
  7
STANDARD
  9
$CLAYER
  8
AM_5
  9
$CELTYPE
  6
BYLAYER
  9
$CECOLOR
 62
   256
  9
$CELTSCALE
 40
1.0
  9
$DISPSILH
 70
     0
  9
$DIMSCALE
 40
1.0
  9
$DIMASZ
 40
2.5
  9
$DIMEXO
 40
0.0
  9
$DIMDLI
 40
10.0
  9
$DIMRND
 40
0.0
  9
$DIMDLE
 40
0.0
  9
$DIMEXE
 40
1.0
  9
$DIMTP
 40
0.1
  9
$DIMTM
 40
0.1000000001
  9
$DIMTXT
 40
3.799999999999998
  9
$DIMCEN
 40
0.0
  9
$DIMTSZ
 40
0.0
  9
$DIMTOL
 70
     0
  9
$DIMLIM
 70
     0
  9
$DIMTIH
 70
     0
  9
$DIMTOH
 70
     0
  9
$DIMSE1
 70
     0
  9
$DIMSE2
 70
     0
  9
$DIMTAD
 70
     3
  9
$DIMZIN
 70
     9
  9
$DIMBLK
  1
OPEN30
  9
$DIMASO
 70
     1
  9
$DIMSHO
 70
     1
  9
$DIMPOST
  1

  9
$DIMAPOST
  1
"
  9
$DIMALT
 70
     0
  9
$DIMALTD
 70
     2
  9
$DIMALTF
 40
0.0393701
  9
$DIMLFAC
 40
1.0
  9
$DIMTOFL
 70
     1
  9
$DIMTVP
 40
0.0
  9
$DIMTIX
 70
     0
  9
$DIMSOXD
 70
     0
  9
$DIMSAH
 70
     0
  9
$DIMBLK1
  1

  9
$DIMBLK2
  1

  9
$DIMSTYLE
  2
AM_JIS
  9
$DIMCLRD
 70
   256
  9
$DIMCLRE
 70
   256
  9
$DIMCLRT
 70
     2
  9
$DIMTFAC
 40
0.71
  9
$DIMGAP
 40
1.5
  9
$DIMJUST
 70
     0
  9
$DIMSD1
 70
     0
  9
$DIMSD2
 70
     0
  9
$DIMTOLJ
 70
     0
  9
$DIMTZIN
 70
     8
  9
$DIMALTZ
 70
     0
  9
$DIMALTTZ
 70
     0
  9
$DIMUPT
 70
     0
  9
$DIMDEC
 70
     2
  9
$DIMTDEC
 70
     2
  9
$DIMALTU
 70
     2
  9
$DIMALTTD
 70
     2
  9
$DIMTXSTY
  7
STANDARD
  9
$DIMAUNIT
 70
     1
  9
$DIMADEC
 70
     1
  9
$DIMALTRND
 40
0.0
  9
$DIMAZIN
 70
     2
  9
$DIMDSEP
 70
    46
  9
$DIMATFIT
 70
     3
  9
$DIMFRAC
 70
     0
  9
$DIMLDRBLK
  1
OPEN30
  9
$DIMLUNIT
 70
     2
  9
$DIMLWD
 70
    -1
  9
$DIMLWE
 70
    -1
  9
$DIMTMOVE
 70
     0
  9
$LUNITS
 70
     2
  9
$LUPREC
 70
     2
  9
$SKETCHINC
 40
1.0
  9
$FILLETRAD
 40
0.2
  9
$AUNITS
 70
     1
  9
$AUPREC
 70
     5
  9
$MENU
  1
.
  9
$ELEVATION
 40
0.0
  9
$PELEVATION
 40
0.0
  9
$THICKNESS
 40
0.0
  9
$LIMCHECK
 70
     0
  9
$CHAMFERA
 40
0.0
  9
$CHAMFERB
 40
0.0
  9
$CHAMFERC
 40
20.0
  9
$CHAMFERD
 40
0.0
  9
$SKPOLY
 70
     0
  9
$TDCREATE
 40
2451943.610431666
  9
$TDUCREATE
 40
2451943.235431667
  9
$TDUPDATE
 40
2455603.415782327
  9
$TDUUPDATE
 40
2455603.040782327
  9
$TDINDWG
 40
0.7637176505
  9
$TDUSRTIMER
 40
0.7637172917
  9
$USRTIMER
 70
     1
  9
$ANGBASE
 50
0.0
  9
$ANGDIR
 70
     0
  9
$PDMODE
 70
     0
  9
$PDSIZE
 40
0.0
  9
$PLINEWID
 40
0.0
  9
$SPLFRAME
 70
     0
  9
$SPLINETYPE
 70
     6
  9
$SPLINESEGS
 70
     8
  9
$HANDSEED
  5
A3B9
  9
$SURFTAB1
 70
     6
  9
$SURFTAB2
 70
     6
  9
$SURFTYPE
 70
     6
  9
$SURFU
 70
     6
  9
$SURFV
 70
     6
  9
$UCSBASE
  2

  9
$UCSNAME
  2

  9
$UCSORG
 10
0.0
 20
0.0
 30
0.0
  9
$UCSXDIR
 10
1.0
 20
0.0
 30
0.0
  9
$UCSYDIR
 10
0.0
 20
1.0
 30
0.0
  9
$UCSORTHOREF
  2

  9
$UCSORTHOVIEW
 70
     0
  9
$UCSORGTOP
 10
0.0
 20
0.0
 30
0.0
  9
$UCSORGBOTTOM
 10
0.0
 20
0.0
 30
0.0
  9
$UCSORGLEFT
 10
0.0
 20
0.0
 30
0.0
  9
$UCSORGRIGHT
 10
0.0
 20
0.0
 30
0.0
  9
$UCSORGFRONT
 10
0.0
 20
0.0
 30
0.0
  9
$UCSORGBACK
 10
0.0
 20
0.0
 30
0.0
  9
$PUCSBASE
  2

  9
$PUCSNAME
  2

  9
$PUCSORG
 10
0.0
 20
0.0
 30
0.0
  9
$PUCSXDIR
 10
1.0
 20
0.0
 30
0.0
  9
$PUCSYDIR
 10
0.0
 20
1.0
 30
0.0
  9
$PUCSORTHOREF
  2

  9
$PUCSORTHOVIEW
 70
     0
  9
$PUCSORGTOP
 10
0.0
 20
0.0
 30
0.0
  9
$PUCSORGBOTTOM
 10
0.0
 20
0.0
 30
0.0
  9
$PUCSORGLEFT
 10
0.0
 20
0.0
 30
0.0
  9
$PUCSORGRIGHT
 10
0.0
 20
0.0
 30
0.0
  9
$PUCSORGFRONT
 10
0.0
 20
0.0
 30
0.0
  9
$PUCSORGBACK
 10
0.0
 20
0.0
 30
0.0
  9
$USERI1
 70
     0
  9
$USERI2
 70
     0
  9
$USERI3
 70
     0
  9
$USERI4
 70
     0
  9
$USERI5
 70
     0
  9
$USERR1
 40
0.0
  9
$USERR2
 40
0.0
  9
$USERR3
 40
0.0
  9
$USERR4
 40
0.0
  9
$USERR5
 40
0.0
  9
$WORLDVIEW
 70
     1
  9
$SHADEDGE
 70
     3
  9
$SHADEDIF
 70
    70
  9
$TILEMODE
 70
     1
  9
$MAXACTVP
 70
    64
  9
$PINSBASE
 10
0.0
 20
0.0
 30
0.0
  9
$PLIMCHECK
 70
     0
  9
$PEXTMIN
 10
1.000000000000000E+20
 20
1.000000000000000E+20
 30
1.000000000000000E+20
  9
$PEXTMAX
 10
-1.000000000000000E+20
 20
-1.000000000000000E+20
 30
-1.000000000000000E+20
  9
$PLIMMIN
 10
0.0
 20
0.0
  9
$PLIMMAX
 10
420.0
 20
297.0
  9
$UNITMODE
 70
     0
  9
$VISRETAIN
 70
     1
  9
$PLINEGEN
 70
     0
  9
$PSLTSCALE
 70
     1
  9
$TREEDEPTH
 70
  3020
  9
$CMLSTYLE
  2
STANDARD
  9
$CMLJUST
 70
     0
  9
$CMLSCALE
 40
20.0
  9
$PROXYGRAPHICS
 70
     1
  9
$MEASUREMENT
 70
     1
  9
$CELWEIGHT
370
    -1
  9
$ENDCAPS
280
     0
  9
$JOINSTYLE
280
     0
  9
$LWDISPLAY
290
     0
  9
$INSUNITS
 70
     4
  9
$HYPERLINKBASE
  1

  9
$STYLESHEET
  1
ASAMI.ctb
  9
$XEDIT
290
     1
  9
$CEPSNTYPE
380
     0
  9
$PSTYLEMODE
290
     1
  9
$FINGERPRINTGUID
  2
{C77AB3BE-9CA2-11D3-BAF3-006094EB760E}
  9
$VERSIONGUID
  2
{78C6AAE9-474A-4EAB-AE95-57ED1D5AC74F}
  9
$EXTNAMES
290
     1
  9
$PSVPSCALE
 40
0.0
  9
$OLESTARTUP
290
     0
  0
ENDSEC
  0
SECTION
  2
CLASSES
  0
CLASS
  1
ACDBDICTIONARYWDFLT
  2
AcDbDictionaryWithDefault
  3
ObjectDBX Classes
 90
        0
280
     0
281
     0
  0
CLASS
  1
ACDBPLACEHOLDER
  2
AcDbPlaceHolder
  3
ObjectDBX Classes
 90
        0
280
     0
281
     0
  0
CLASS
  1
LAYOUT
  2
AcDbLayout
  3
ObjectDBX Classes
 90
        0
280
     0
281
     0
  0
CLASS
  1
ACME_DOCUMENT
  2
AcMeDbDoc
  3
AcMeServices
 90
        0
280
     0
281
     0
  0
CLASS
  1
ACMESCOPE
  2
AcMeScope
  3
AcMeServices
 90
        0
280
     0
281
     0
  0
CLASS
  1
ACMECOMMANDHISTORY
  2
AcMeCommandHistory
  3
AcMeServices
 90
        0
280
     0
281
     0
  0
CLASS
  1
DICTIONARYVAR
  2
AcDbDictionaryVar
  3
ObjectDBX Classes
 90
        0
280
     0
281
     0
  0
CLASS
  1
ACIMSYSVARMAN
  2
AcImSysVarManager
  3
AcMeServices
 90
        0
280
     0
281
     0
  0
CLASS
  1
ACIMREALSYSVAR
  2
AcImRealSysVar
  3
AcMeServices
 90
        0
280
     0
281
     0
  0
CLASS
  1
ACIMINTSYSVAR
  2
AcImIntSysVar
  3
AcMeServices
 90
        0
280
     0
281
     0
  0
CLASS
  1
ACMEDRAWINGMAN
  2
AcMeDrawingMan
  3
AcMeServices
 90
        0
280
     0
281
     0
  0
CLASS
  1
ACMEVIEW
  2
AcMeView
  3
AcMeServices
 90
        0
280
     0
281
     0
  0
CLASS
  1
ACDBENTITYCACHE
  2
AcMeEntityCache
  3
AcMeServices
 90
        0
280
     0
281
     0
  0
CLASS
  1
GSMANAGER
  2
AcMeGSManager
  3
AcMeServices
 90
        0
280
     0
281
     0
  0
CLASS
  1
AMDTINTERNALREACTOR
  2
AmdtInternalReactor
  3
AcMeServices
 90
        0
280
     0
281
     0
  0
CLASS
  1
ACMESTATEMGR
  2
AcMeStateMgr
  3
AcMeServices
 90
        0
280
     0
281
     0
  0
CLASS
  1
ACME_DATABASE
  2
AcMeDbDatabase
  3
AcMeServices
 90
        0
280
     0
281
     0
  0
CLASS
  1
ACRFINSADJUSTERMGR
  2
AcRfInsAdjusterMgr
  3
AcMeServices
 90
        0
280
     0
281
     0
  0
CLASS
  1
AMGSETTINGSOBJ
  2
AmgSettingsObj
  3
"AcadM|Product Description: AutoCAD Mechanical 2000|Company: Autodesk"
 90
        0
280
     0
281
     0
  0
CLASS
  1
AMGOBJPROPCFG
  2
AmgObjPropCfg
  3
"AmgLay|Product Description: AutoCAD Mechanical 2000|Company: Autodesk"
 90
        1
280
     0
281
     0
  0
CLASS
  1
ACMDATADICTIONARY
  2
AcmDataDictionary
  3
"AcmSymBB|Product Description: AutoCAD Mechanical 2004 DX|Company: Autodesk"
 90
        0
280
     0
281
     0
  0
CLASS
  1
ACMDATAENTRYBLOCK
  2
AcmDataEntryBlock
  3
"AcmSymBB|Product Description: AutoCAD Mechanical 2004 DX|Company: Autodesk"
 90
    32768
280
     0
281
     0
  0
CLASS
  1
ACIMSTRSYSVAR
  2
AcImStrSysVar
  3
AcMeServices
 90
        0
280
     0
281
     0
  0
CLASS
  1
ACAMGFILTERDAT
  2
AcAmgFilterDat
  3
"AcadM|Product Description: AutoCAD Mechanical 2000|Company: Autodesk"
 90
    32768
280
     0
281
     0
  0
CLASS
  1
LAYER_INDEX
  2
AcDbLayerIndex
  3
ObjectDBX Classes
 90
        0
280
     0
281
     0
  0
CLASS
  1
IDBUFFER
  2
AcDbIdBuffer
  3
ObjectDBX Classes
 90
        0
280
     0
281
     0
  0
CLASS
  1
ACMSTANDARDJIS
  2
AcmStandardJIS
  3
"Amdt_StdImp|Product Description: AutoCAD Mechanical 2004 DX|Company: Autodesk"
 90
    32768
280
     0
281
     0
  0
CLASS
  1
ACMSURFSTANDARDJIS
  2
AcmSurfTextStdJIS
  3
"Amdt_StdImp|Product Description: AutoCAD Mechanical 2004 DX|Company: Autodesk"
 90
    32768
280
     0
281
     0
  0
CLASS
  1
ACMFCFSTANDARDJIS
  2
AcmFCFStdJIS
  3
"Amdt_StdImp|Product Description: AutoCAD Mechanical 2004 DX|Company: Autodesk"
 90
    32768
280
     0
281
     0
  0
CLASS
  1
ACMWELDSTANDARDJIS
  2
AcmWeldingStdJIS
  3
"Amdt_StdImp|Product Description: AutoCAD Mechanical 2004 DX|Company: Autodesk"
 90
    32768
280
     0
281
     0
  0
CLASS
  1
ACMIDSTANDARDJIS
  2
AcmIdStdJIS
  3
"Amdt_StdImp|Product Description: AutoCAD Mechanical 2004 DX|Company: Autodesk"
 90
    32768
280
     0
281
     0
  0
CLASS
  1
ACMDATUMSTANDARDJIS
  2
AcmDatumStdJIS
  3
"Amdt_StdImp|Product Description: AutoCAD Mechanical 2004 DX|Company: Autodesk"
 90
    32768
280
     0
281
     0
  0
CLASS
  1
ACMBOMSTANDARDJIS
  2
AcmBOMStdJIS
  3
"Amdt_StdImp|Product Description: AutoCAD Mechanical 2004 DX|Company: Autodesk"
 90
    32768
280
     0
281
     0
  0
CLASS
  1
AMDTNOTE
  2
AmdtNote
  3
"AcmSymBB|Product Description: AutoCAD Mechanical 2004 DX|Company: Autodesk"
 90
    33791
280
     0
281
     1
  0
CLASS
  1
ACMDATAENTRYPART
  2
AcmDataEntryPart
  3
"AcmSymBB|Product Description: AutoCAD Mechanical 2004 DX|Company: Autodesk"
 90
    32768
280
     0
281
     0
  0
CLASS
  1
ACMPARTREF
  2
AcmPartRef
  3
"AcmSymBB|Product Description: AutoCAD Mechanical 2004 DX|Company: Autodesk"
 90
    33791
280
     0
281
     1
  0
CLASS
  1
ACDB_PROXY_ENTITY_DATA
  2
AcDbProxyEntityData
  3
ObjectDBX Classes
 90
    32768
280
     0
281
     0
  0
CLASS
  1
TABLESTYLE
  2
AcDbTableStyle
  3
ObjectDBX Classes
 90
     2047
280
     0
281
     0
  0
CLASS
  1
ACGREFMASTER
  2
AcGrefMaster
  3
AcAttribServices
 90
        0
280
     0
281
     0
  0
CLASS
  1
AM_DRAWING_MGR
  2
AcDmDwgMgr
  3
AcMechDwgViewMgmt
 90
        0
280
     0
281
     0
  0
CLASS
  1
AM_DWG_DOCUMENT
  2
AcDmDwgDocument
  3
AcMechDwgViewMgmt
 90
        0
280
     0
281
     0
  0
CLASS
  1
AM_DWG_SHEET
  2
AcDmSheet
  3
AcMechDwgViewMgmt
 90
        0
280
     0
281
     0
  0
CLASS
  1
AM_VIEWDIMPARMAP
  2
AcDmViewDimParMap
  3
AcMechDwgViewMgmt
 90
        0
280
     0
281
     0
  0
CLASS
  1
AM_DWGMGR_NAME
  2
AcDmDwgMgrName
  3
AcMechDwgViewMgmt
 90
        0
280
     0
281
     0
  0
CLASS
  1
ACGREFACADMASTER
  2
AcGrefacadMaster
  3
AcGrefServices
 90
        0
280
     0
281
     0
  0
CLASS
  1
AMDTMENUSTATEMGR
  2
AmdtMenuStateMgr
  3
McadcomServices
 90
        0
280
     0
281
     0
  0
CLASS
  1
AMDTMCOMMENUSTATE
  2
AmdtMcomMenuState
  3
McadcomServices
 90
        0
280
     0
281
     0
  0
CLASS
  1
AMIMASTER
  2
AmiMaster
  3
AmiServices
 90
        0
280
     0
281
     0
  0
CLASS
  1
MAPIAMMOUDLE
  2
MApiAmModule
  3
MApiAmServices
 90
        0
280
     0
281
     0
  0
CLASS
  1
AMDTADMENUSTATE
  2
AmdtAdMenuState
  3
DesignerServices
 90
        0
280
     0
281
     0
  0
CLASS
  1
ADAPPL
  2
AcAdAppl
  3
DesignerServices
 90
        0
280
     0
281
     0
  0
CLASS
  1
DEPMGR
  2
AcAdDepMgr
  3
DesignerServices
 90
        0
280
     0
281
     0
  0
CLASS
  1
PARAMMGR
  2
AcAdParamMgr
  3
DesignerServices
 90
        0
280
     0
281
     0
  0
CLASS
  1
PARAMSCOPE
  2
AcAdParamScope
  3
DesignerServices
 90
        0
280
     0
281
     0
  0
CLASS
  1
NAMEDAPPL
  2
AcAdNamedAppl
  3
DesignerServices
 90
        0
280
     0
281
     0
  0
CLASS
  1
AMDTDMMENUSTATE
  2
AmdtDmMenuState
  3
AcMechDwgViewMgmt
 90
        0
280
     0
281
     0
  0
CLASS
  1
AMDTAMMENUSTATE
  2
AmdtAmMenuState
  3
DesignerAssemblies
 90
        0
280
     0
281
     0
  0
CLASS
  1
ACAMPROJECT
  2
AcAmProject
  3
DesignerAssemblies
 90
        0
280
     0
281
     0
  0
CLASS
  1
ACAMGRCOMPDEF
  2
AcAmGrCompDef
  3
DesignerAssemblies
 90
        0
280
     0
281
     0
  0
CLASS
  1
ACCMCONTEXT
  2
AcCmContext
  3
DesignerAssemblies
 90
        0
280
     0
281
     0
  0
CLASS
  1
ACAMCOMPDEF
  2
AcAmCompDef
  3
DesignerAssemblies
 90
        0
280
     0
281
     0
  0
CLASS
  1
ACAMCOMPDEFMGR
  2
AcAmCompDefMgr
  3
DesignerAssemblies
 90
        0
280
     0
281
     0
  0
CLASS
  1
AMCONTEXTMGR
  2
AcAmContextMgr
  3
DesignerAssemblies
 90
        0
280
     0
281
     0
  0
CLASS
  1
ACAMCONTEXTMODELER
  2
AcAmContextModeler
  3
DesignerAssemblies
 90
        0
280
     0
281
     0
  0
CLASS
  1
CATALOGSTATE
  2
AcAmCatalogState
  3
DesignerAssemblies
 90
        0
280
     0
281
     0
  0
CLASS
  1
ACAMGRCOMPDEFSET
  2
AcAmGrCompDefSet
  3
DesignerAssemblies
 90
        0
280
     0
281
     0
  0
CLASS
  1
AMDTBROWSERDBTAB
  2
AmdtBrowserDbTab
  3
McadcomServices
 90
        0
280
     0
281
     0
  0
CLASS
  1
CBROWSERAPPOBJECT
  2
CBrowserAppObject
  3
McadcomServices
 90
        0
280
     0
281
     0
  0
CLASS
  1
DM_PLACEHOLDER
  2
AcDmSelsetPlaceholder
  3
AcMechDwgViewMgmt
 90
        0
280
     0
281
     0
  0
CLASS
  1
ACMSTANDARDISO
  2
AcmStandardISO
  3
"Amdt_StdImp|Product Description: AutoCAD Mechanical 2004 DX|Company: Autodesk"
 90
        0
280
     0
281
     0
  0
CLASS
  1
AMDTEDGESTANDARDISO13715
  2
AmdtEdgeStdISO13715
  3
"Amdt_StdImp|Product Description: AutoCAD Mechanical 2004 DX|Company: Autodesk"
 90
        0
280
     0
281
     0
  0
CLASS
  1
ACMSURFSTANDARDISO
  2
AcmSurfTextStdISO
  3
"Amdt_StdImp|Product Description: AutoCAD Mechanical 2004 DX|Company: Autodesk"
 90
        0
280
     0
281
     0
  0
CLASS
  1
ACMFCFSTANDARDISO
  2
AcmFCFStdISO
  3
"Amdt_StdImp|Product Description: AutoCAD Mechanical 2004 DX|Company: Autodesk"
 90
        0
280
     0
281
     0
  0
CLASS
  1
ACMWELDSTANDARDISO
  2
AcmWeldingStdISO
  3
"Amdt_StdImp|Product Description: AutoCAD Mechanical 2004 DX|Company: Autodesk"
 90
        0
280
     0
281
     0
  0
CLASS
  1
ACMIDSTANDARDISO
  2
AcmIdStdISO
  3
"Amdt_StdImp|Product Description: AutoCAD Mechanical 2004 DX|Company: Autodesk"
 90
        0
280
     0
281
     0
  0
CLASS
  1
ACMDATUMSTANDARDISO
  2
AcmDatumStdISO
  3
"Amdt_StdImp|Product Description: AutoCAD Mechanical 2004 DX|Company: Autodesk"
 90
        0
280
     0
281
     0
  0
CLASS
  1
ACMBOMSTANDARDISO
  2
AcmBOMStdISO
  3
"Amdt_StdImp|Product Description: AutoCAD Mechanical 2004 DX|Company: Autodesk"
 90
        0
280
     0
281
     0
  0
CLASS
  1
ACMDETAILSTANDARDISO
  2
AmdtDetailSymStdISO
  3
"Amdt_StdImp|Product Description: AutoCAD Mechanical 2004 DX|Company: Autodesk"
 90
        0
280
     0
281
     0
  0
CLASS
  1
ACMSECTIONSTANDARDISO
  2
AmdtSectionSymStdISO
  3
"Amdt_StdImp|Product Description: AutoCAD Mechanical 2004 DX|Company: Autodesk"
 90
        0
280
     0
281
     0
  0
CLASS
  1
ACMCENTERLINESTANDARDISO
  2
AmdtCenterLineStdISO
  3
"Amdt_StdImp|Product Description: AutoCAD Mechanical 2004 DX|Company: Autodesk"
 90
        0
280
     0
281
     0
  0
CLASS
  1
ACMTHREADLINESTANDARDISO
  2
AmdtThreadLineStdISO
  3
"Amdt_StdImp|Product Description: AutoCAD Mechanical 2004 DX|Company: Autodesk"
 90
        0
280
     0
281
     0
  0
CLASS
  1
ACMNOTESTANDARDISO
  2
AmdtNoteStdISO
  3
"Amdt_StdImp|Product Description: AutoCAD Mechanical 2004 DX|Company: Autodesk"
 90
        0
280
     0
281
     0
  0
CLASS
  1
AMDTNOTETEMPLATEDB
  2
AmdtNoteTemplateDB
  3
AMDT_STDIMP_MODULE_NAME
 90
        0
280
     0
281
     0
  0
CLASS
  1
ACAMGLAYSTD
  2
AcAmgLayStd
  3
"AcAmgLayStd|Product Description: AutoCAD Mechanical 2000|Company: Autodesk"
 90
        0
280
     0
281
     0
  0
CLASS
  1
ACAMGDIMSTD
  2
AcAmgDimStd
  3
"AcAmgDimStd|Product Description: AutoCAD Mechanical 2000|Company: Autodesk"
 90
        0
280
     0
281
     0
  0
CLASS
  1
ACAMGHOLECHARTSTDISO
  2
AcAmgHoleChartStdISO
  3
ACMSYMBB_MODULE_NAME
 90
        0
280
     0
281
     0
  0
CLASS
  1
ACAMGTITLESTD
  2
AcAmgTitleStd
  3
"TITLEAPP"
 90
        0
280
     0
281
     0
  0
ENDSEC
  0
SECTION
  2
TABLES
  0
TABLE
  2
VPORT
  5
8
330
0
100
AcDbSymbolTable
 70
     4
  0
VPORT
  5
A3B2
330
8
100
AcDbSymbolTableRecord
100
AcDbViewportTableRecord
  2
*Active
 70
     0
 10
0.0
 20
0.0
 11
1.0
 21
1.0
 12
18.26184827532679
 22
-34.46065233659647
 13
0.0
 23
0.0
 14
2.5
 24
2.5
 15
10.0
 25
10.0
 16
0.0
 26
0.0
 36
1.0
 17
0.0
 27
0.0
 37
0.0
 40
119.7775129847425
 41
2.176400476758045
 42
50.0
 43
0.0
 44
0.0
 50
0.0
 51
0.0
 71
     0
 72
  2000
 73
     1
 74
     3
 75
     0
 76
     0
 77
     0
 78
     0
281
     0
 65
     0
110
0.0
120
0.0
130
0.0
111
1.0
121
0.0
131
0.0
112
0.0
122
1.0
132
0.0
 79
     0
146
0.0
  0
ENDTAB
  0
TABLE
  2
LTYPE
  5
5
330
0
100
AcDbSymbolTable
 70
    16
  0
LTYPE
  5
14
330
5
100
AcDbSymbolTableRecord
100
AcDbLinetypeTableRecord
  2
BYBLOCK
 70
     0
  3

 72
    65
 73
     0
 40
0.0
  0
LTYPE
  5
15
330
5
100
AcDbSymbolTableRecord
100
AcDbLinetypeTableRecord
  2
BYLAYER
 70
     0
  3

 72
    65
 73
     0
 40
0.0
  0
LTYPE
  5
16
330
5
100
AcDbSymbolTableRecord
100
AcDbLinetypeTableRecord
  2
CONTINUOUS
 70
     0
  3
Solid line
 72
    65
 73
     0
 40
0.0
  0
LTYPE
  5
43
330
5
100
AcDbSymbolTableRecord
100
AcDbLinetypeTableRecord
  2
AM_ISO02W050
 70
     0
  3
__ __ __ __ __ __ __ __ __ __ __ __ __ __ __
 72
    65
 73
     2
 40
7.5
 49
6.0
 74
     0
 49
-1.5
 74
     0
  0
LTYPE
  5
44
330
5
100
AcDbSymbolTableRecord
100
AcDbLinetypeTableRecord
  2
AM_ISO08W050
 70
     0
  3
____ . ____ . ____ . ____ . ____ . ____ . ____
 72
    65
 73
     4
 40
18.0
 49
12.0
 74
     0
 49
-1.5
 74
     0
 49
3.0
 74
     0
 49
-1.5
 74
     0
  0
LTYPE
  5
45
330
5
100
AcDbSymbolTableRecord
100
AcDbLinetypeTableRecord
  2
AM_ISO09W050
 70
     0
  3
_____ . . _____ . . _____ . . ____ .. ____
 72
    65
 73
     6
 40
22.5
 49
12.0
 74
     0
 49
-1.5
 74
     0
 49
3.0
 74
     0
 49
-1.5
 74
     0
 49
3.0
 74
     0
 49
-1.5
 74
     0
  0
LTYPE
  5
46
330
5
100
AcDbSymbolTableRecord
100
AcDbLinetypeTableRecord
  2
AMCONSTR
 70
     0
  3
_______________________
 72
    65
 73
     2
 40
9999.0
 49
9999.0
 74
     0
 49
0.0
 74
     0
  0
LTYPE
  5
47
330
5
100
AcDbSymbolTableRecord
100
AcDbLinetypeTableRecord
  2
AM_ISO02W050X2
 70
     0
  3
 _ _ _ _ _ _ _ _ _ _ _ _
 72
    65
 73
     2
 40
3.75
 49
3.0
 74
     0
 49
-0.75
 74
     0
  0
LTYPE
  5
48
330
5
100
AcDbSymbolTableRecord
100
AcDbLinetypeTableRecord
  2
AM_ISO08W050X2
 70
     0
  3
__ . __ . __ . __ . __ . __
 72
    65
 73
     4
 40
9.0
 49
6.0
 74
     0
 49
-0.75
 74
     0
 49
1.5
 74
     0
 49
-0.75
 74
     0
  0
LTYPE
  5
4B
330
5
100
AcDbSymbolTableRecord
100
AcDbLinetypeTableRecord
  2
AMZIGZAG
 70
     0
  3
/\/-/\/-/\/-/\/-/\/-/\/
 72
    65
 73
     2
 40
11.00009999999999
 49
0.0001
 74
     4
 75
   135
340
4A
 46
0.04
 50
0.0
 44
0.0
 45
0.0
 49
-11.0
 74
     0
  0
LTYPE
  5
A26C
330
5
100
AcDbSymbolTableRecord
100
AcDbLinetypeTableRecord
  2
HIDDEN
 70
     0
  3
Hidden __ __ __ __ __ __ __ __ __ __ __ __ __ _
 72
    65
 73
     2
 40
9.524999999999998
 49
6.349999999999999
 74
     0
 49
-3.174999999999999
 74
     0
  0
LTYPE
  5
A26D
330
5
100
AcDbSymbolTableRecord
100
AcDbLinetypeTableRecord
  2
PHANTOM2
 70
     0
  3
Phantom (.5x) ___ _ _ ___ _ _ ___ _ _ ___ _ _
 72
    65
 73
     6
 40
31.75
 49
15.875
 74
     0
 49
-3.174999999999999
 74
     0
 49
3.174999999999999
 74
     0
 49
-3.174999999999999
 74
     0
 49
3.174999999999999
 74
     0
 49
-3.174999999999999
 74
     0
  0
LTYPE
  5
A26E
330
5
100
AcDbSymbolTableRecord
100
AcDbLinetypeTableRecord
  2
CENTER
 70
     0
  3
Center ____ _ ____ _ ____ _ ____ _ ____ _ ____
 72
    65
 73
     4
 40
50.8
 49
31.75
 74
     0
 49
-6.349999999999999
 74
     0
 49
6.349999999999999
 74
     0
 49
-6.349999999999999
 74
     0
  0
LTYPE
  5
A2AE
330
5
100
AcDbSymbolTableRecord
100
AcDbLinetypeTableRecord
  2
ACISOWELD
 70
     0
  3
_ _ _ _ _
 72
    65
 73
     2
 40
2.0
 49
2.0
 74
     0
 49
-1.0
 74
     0
  0
LTYPE
  5
A2AF
330
5
100
AcDbSymbolTableRecord
100
AcDbLinetypeTableRecord
  2
ACISOTGB
 70
     0
  3
__ . . __ . .
 72
    65
 73
     6
 40
9.0
 49
4.0
 74
     0
 49
-1.0
 74
     0
 49
1.0
 74
     0
 49
-1.0
 74
     0
 49
1.0
 74
     0
 49
-1.0
 74
     0
  0
LTYPE
  5
A2B0
330
5
100
AcDbSymbolTableRecord
100
AcDbLinetypeTableRecord
  2
ACISOTGL
 70
     0
  3
_ _ _ _ _
 72
    65
 73
     2
 40
3.0
 49
2.0
 74
     0
 49
-1.0
 74
     0
  0
ENDTAB
  0
TABLE
  2
LAYER
  5
2
330
0
100
AcDbSymbolTable
 70
    11
  0
LAYER
  5
10
330
2
100
AcDbSymbolTableRecord
100
AcDbLayerTableRecord
  2
0
 70
     0
 62
     7
  6
CONTINUOUS
370
    -3
390
F
  0
LAYER
  5
7D
330
2
100
AcDbSymbolTableRecord
100
AcDbLayerTableRecord
  2
AM_5
 70
     0
 62
     3
  6
CONTINUOUS
370
    -3
390
F
  0
LAYER
  5
7F
330
2
100
AcDbSymbolTableRecord
100
AcDbLayerTableRecord
  2
DEFPOINTS
 70
     0
 62
     7
  6
CONTINUOUS
290
     0
370
    -3
390
F
  0
LAYER
  5
12B1
330
2
100
AcDbSymbolTableRecord
100
AcDbLayerTableRecord
  2
AM_0
 70
     0
 62
     7
  6
CONTINUOUS
370
    -3
390
F
  0
LAYER
  5
2222
330
2
100
AcDbSymbolTableRecord
100
AcDbLayerTableRecord
  2
AM_6
 70
     0
 62
     2
  6
CONTINUOUS
370
    -3
390
F
  0
LAYER
  5
7DB2
330
2
100
AcDbSymbolTableRecord
100
AcDbLayerTableRecord
  2
AM_7
 70
     0
 62
     4
  6
AM_ISO08W050
370
    -3
390
F
  0
LAYER
  5
8B83
330
2
100
AcDbSymbolTableRecord
100
AcDbLayerTableRecord
  2
PV0001_1
 70
     0
 62
     7
  6
CONTINUOUS
370
    -3
390
F
  0
ENDTAB
  0
TABLE
  2
STYLE
  5
3
330
0
100
AcDbSymbolTable
 70
     6
  0
STYLE
  5
11
330
3
100
AcDbSymbolTableRecord
100
AcDbTextStyleTableRecord
  2
STANDARD
 70
     0
 40
0.0
 41
1.0
 50
0.0
 71
     0
 42
2.5
  3
ISOCP.SHX
  4
EXTFONT.SHX
  0
STYLE
  5
4A
330
3
100
AcDbSymbolTableRecord
100
AcDbTextStyleTableRecord
  2

 70
     1
 40
0.0
 41
1.0
 50
0.0
 71
     0
 42
2.5
  3
ltypeshp.shx
  4

  0
STYLE
  5
A2A0
330
3
100
AcDbSymbolTableRecord
100
AcDbTextStyleTableRecord
  2
ACISOTS
 70
     0
 40
1.0
 41
1.0
 50
0.0
 71
     0
 42
2.5
  3
isocp.shx
  4
extfont.shx
  0
STYLE
  5
A2AD
330
3
100
AcDbSymbolTableRecord
100
AcDbTextStyleTableRecord
  2
ACISOGDT
 70
     0
 40
0.0
 41
1.0
 50
0.0
 71
     0
 42
2.5
  3
amgdt.shx
  4

  0
ENDTAB
  0
TABLE
  2
VIEW
  5
6
330
0
100
AcDbSymbolTable
 70
     6
  0
VIEW
  5
A30
330
6
100
AcDbSymbolTableRecord
100
AcDbViewTableRecord
  2
AM_VIEW1
 70
     0
 40
148.5
 10
112.0719649561952
 20
222.75
 41
224.1439299123904
 11
0.0
 21
0.0
 31
1.0
 12
0.0
 22
0.0
 32
0.0
 42
50.0
 43
0.0
 44
0.0
 50
0.0
 71
     0
281
     0
 72
     0
  0
VIEW
  5
A31
330
6
100
AcDbSymbolTableRecord
100
AcDbViewTableRecord
  2
AM_VIEW2
 70
     0
 40
148.5
 10
307.9280350438047
 20
222.75
 41
224.1439299123904
 11
0.0
 21
0.0
 31
1.0
 12
0.0
 22
0.0
 32
0.0
 42
50.0
 43
0.0
 44
0.0
 50
0.0
 71
     0
281
     0
 72
     0
  0
VIEW
  5
A32
330
6
100
AcDbSymbolTableRecord
100
AcDbViewTableRecord
  2
AM_VIEW3
 70
     0
 40
148.5
 10
112.0719649561952
 20
74.25
 41
224.1439299123904
 11
0.0
 21
0.0
 31
1.0
 12
0.0
 22
0.0
 32
0.0
 42
50.0
 43
0.0
 44
0.0
 50
0.0
 71
     0
281
     0
 72
     0
  0
VIEW
  5
A33
330
6
100
AcDbSymbolTableRecord
100
AcDbViewTableRecord
  2
AM_VIEW4
 70
     0
 40
148.5
 10
307.9280350438047
 20
74.25
 41
224.1439299123904
 11
0.0
 21
0.0
 31
1.0
 12
0.0
 22
0.0
 32
0.0
 42
50.0
 43
0.0
 44
0.0
 50
0.0
 71
     0
281
     0
 72
     0
  0
VIEW
  5
A34
330
6
100
AcDbSymbolTableRecord
100
AcDbViewTableRecord
  2
AM_VIEW5
 70
     0
 40
148.5
 10
210.0
 20
148.5
 41
224.1439299123904
 11
0.0
 21
0.0
 31
1.0
 12
0.0
 22
0.0
 32
0.0
 42
50.0
 43
0.0
 44
0.0
 50
0.0
 71
     0
281
     0
 72
     0
  0
VIEW
  5
A35
330
6
100
AcDbSymbolTableRecord
100
AcDbViewTableRecord
  2
AM_VIEW6
 70
     0
 40
296.9970299999999
 10
210.0
 20
148.5
 41
448.2833769461826
 11
0.0
 21
0.0
 31
1.0
 12
0.0
 22
0.0
 32
0.0
 42
50.0
 43
0.0
 44
0.0
 50
0.0
 71
     0
281
     0
 72
     0
  0
ENDTAB
  0
TABLE
  2
UCS
  5
7
330
0
100
AcDbSymbolTable
 70
     0
  0
ENDTAB
  0
TABLE
  2
APPID
  5
9
330
0
100
AcDbSymbolTable
 70
    42
  0
APPID
  5
12
330
9
100
AcDbSymbolTableRecord
100
AcDbRegAppTableRecord
  2
ACAD
 70
     0
  0
APPID
  5
2C
330
9
100
AcDbSymbolTableRecord
100
AcDbRegAppTableRecord
  2
MCAD_NO_VIS
 70
     0
  0
APPID
  5
2D
330
9
100
AcDbSymbolTableRecord
100
AcDbRegAppTableRecord
  2
ACAD_TEMP_GRAPHIC
 70
     0
  0
APPID
  5
B9
330
9
100
AcDbSymbolTableRecord
100
AcDbRegAppTableRecord
  2
GENIUS_GENDTOL_13
 70
     0
  0
APPID
  5
359
330
9
100
AcDbSymbolTableRecord
100
AcDbRegAppTableRecord
  2
GENIUS_GENREC_14
 70
     0
  0
APPID
  5
35A
330
9
100
AcDbSymbolTableRecord
100
AcDbRegAppTableRecord
  2
GENIUS_GENODEF_13
 70
     0
  0
APPID
  5
35B
330
9
100
AcDbSymbolTableRecord
100
AcDbRegAppTableRecord
  2
GENIUS_GENOBJ-N-REC_13
 70
     0
  0
APPID
  5
667
330
9
100
AcDbSymbolTableRecord
100
AcDbRegAppTableRecord
  2
GENIUS_GENCFG_13
 70
     0
  0
APPID
  5
668
330
9
100
AcDbSymbolTableRecord
100
AcDbRegAppTableRecord
  2
GENIUS_GENCFG0_13
 70
     0
  0
APPID
  5
669
330
9
100
AcDbSymbolTableRecord
100
AcDbRegAppTableRecord
  2
GENIUS_GENCFG1_13
 70
     0
  0
APPID
  5
66A
330
9
100
AcDbSymbolTableRecord
100
AcDbRegAppTableRecord
  2
GENIUS_GENCFG2_13
 70
     0
  0
APPID
  5
66B
330
9
100
AcDbSymbolTableRecord
100
AcDbRegAppTableRecord
  2
GENIUS_GENCFG3_13
 70
     0
  0
APPID
  5
66C
330
9
100
AcDbSymbolTableRecord
100
AcDbRegAppTableRecord
  2
GENIUS_GENCFG4_13
 70
     0
  0
APPID
  5
A76
330
9
100
AcDbSymbolTableRecord
100
AcDbRegAppTableRecord
  2
GENIUS_GENBLLY_14
 70
     0
  0
APPID
  5
A77
330
9
100
AcDbSymbolTableRecord
100
AcDbRegAppTableRecord
  2
GENIUS_GENOBJ-N-CEN_13
 70
     0
  0
APPID
  5
A83
330
9
100
AcDbSymbolTableRecord
100
AcDbRegAppTableRecord
  2
GENIUS_GENTRA_14
 70
     0
  0
APPID
  5
A8D
330
9
100
AcDbSymbolTableRecord
100
AcDbRegAppTableRecord
  2
GENIUS_GENOBJ-N-TIT_13
 70
     0
  0
APPID
  5
A8E
330
9
100
AcDbSymbolTableRecord
100
AcDbRegAppTableRecord
  2
GENIUS_GENTITLE_13
 70
     0
  0
APPID
  5
A8F
330
9
100
AcDbSymbolTableRecord
100
AcDbRegAppTableRecord
  2
GENIUS_GENOENT_13
 70
     0
  0
APPID
  5
A90
330
9
100
AcDbSymbolTableRecord
100
AcDbRegAppTableRecord
  2
GENIUS_GENOREF_13
 70
     0
  0
APPID
  5
A91
330
9
100
AcDbSymbolTableRecord
100
AcDbRegAppTableRecord
  2
GENIUS_GENOLIS_13
 70
     0
  0
APPID
  5
A92
330
9
100
AcDbSymbolTableRecord
100
AcDbRegAppTableRecord
  2
GENIUS_GENZVEED_13
 70
     0
  0
APPID
  5
A93
330
9
100
AcDbSymbolTableRecord
100
AcDbRegAppTableRecord
  2
GENIUS_GENSCREG_15
 70
     0
  0
APPID
  5
A94
330
9
100
AcDbSymbolTableRecord
100
AcDbRegAppTableRecord
  2
GENIUS_GENOBJ-N-SDF_13
 70
     0
  0
APPID
  5
12B5
330
9
100
AcDbSymbolTableRecord
100
AcDbRegAppTableRecord
  2
GENIUS_GENOBJ-N-RSBK_13
 70
     0
  0
APPID
  5
12B6
330
9
100
AcDbSymbolTableRecord
100
AcDbRegAppTableRecord
  2
GENIUS_GENOBJ-N-LIB_13
 70
     0
  0
APPID
  5
12B7
330
9
100
AcDbSymbolTableRecord
100
AcDbRegAppTableRecord
  2
GENIUS_GENSCALE_13
 70
     0
  0
APPID
  5
12B8
330
9
100
AcDbSymbolTableRecord
100
AcDbRegAppTableRecord
  2
GENIUS_GENOBJ-N-HTC_13
 70
     0
  0
APPID
  5
12B9
330
9
100
AcDbSymbolTableRecord
100
AcDbRegAppTableRecord
  2
GENIUS_GENHATCH_13
 70
     0
  0
APPID
  5
1C0A
330
9
100
AcDbSymbolTableRecord
100
AcDbRegAppTableRecord
  2
BASE_TYPE
 70
     0
  0
APPID
  5
276B
330
9
100
AcDbSymbolTableRecord
100
AcDbRegAppTableRecord
  2
GENIUS_GENOBJ-N-FIL_13
 70
     0
  0
APPID
  5
3640
330
9
100
AcDbSymbolTableRecord
100
AcDbRegAppTableRecord
  2
GENIUS_GENBH_13
 70
     0
  0
APPID
  5
36D1
330
9
100
AcDbSymbolTableRecord
100
AcDbRegAppTableRecord
  2
GENIUS_GENOBJ-F-SPR_13
 70
     0
  0
APPID
  5
36DA
330
9
100
AcDbSymbolTableRecord
100
AcDbRegAppTableRecord
  2
GENIUS_GEFSPRING_13
 70
     0
  0
APPID
  5
36DB
330
9
100
AcDbSymbolTableRecord
100
AcDbRegAppTableRecord
  2
GENIUS_GEFSPRINGP_13
 70
     0
  0
APPID
  5
4D67
330
9
100
AcDbSymbolTableRecord
100
AcDbRegAppTableRecord
  2
GENIUS_GENFIL_13
 70
     0
  0
APPID
  5
4D68
330
9
100
AcDbSymbolTableRecord
100
AcDbRegAppTableRecord
  2
GENIUS_GENOBJ-N-CHA_13
 70
     0
  0
APPID
  5
A270
330
9
100
AcDbSymbolTableRecord
100
AcDbRegAppTableRecord
  2
AD_DRAW
 70
     0
  0
APPID
  5
A273
330
9
100
AcDbSymbolTableRecord
100
AcDbRegAppTableRecord
  2
ACATTRIBSERVICES
 70
     0
  0
APPID
  5
A291
330
9
100
AcDbSymbolTableRecord
100
AcDbRegAppTableRecord
  2
DESIGNERASSEMBLIES
 70
     0
  0
APPID
  5
A296
330
9
100
AcDbSymbolTableRecord
100
AcDbRegAppTableRecord
  2
ACADM_DIM_EDIT
 70
     0
  0
APPID
  5
A297
330
9
100
AcDbSymbolTableRecord
100
AcDbRegAppTableRecord
  2
AMDT_DM_ADJ
 70
     0
  0
ENDTAB
  0
TABLE
  2
DIMSTYLE
  5
A
330
0
100
AcDbSymbolTable
 70
    19
100
AcDbDimStyleTable
 71
     0
  0
DIMSTYLE
105
58
330
A
100
AcDbSymbolTableRecord
100
AcDbDimStyleTableRecord
  2
AM_JIS
 70
     0
  4
"
 41
2.5
 42
0.0
 43
10.0
 44
1.0
 47
0.1
 48
0.1000000001
 73
     0
 74
     0
 77
     3
 78
     9
140
3.799999999999998
141
0.0
143
0.0393701
146
0.71
147
1.5
172
     1
176
   256
177
   256
178
     2
271
     2
272
     2
275
     1
283
     0
284
     8
340
11
341
59
342
59
  0
DIMSTYLE
105
65F
330
A
100
AcDbSymbolTableRecord
100
AcDbDimStyleTableRecord
  2
STANDARD
 70
     0
340
11
  0
DIMSTYLE
105
1761
102
{ACAD_REACTORS
330
9AAB
330
9AB4
330
9B2E
330
9DA3
330
9DB0
330
A0E6
102
}
330
A
100
AcDbSymbolTableRecord
100
AcDbDimStyleTableRecord
  2
AM_JIS$0
 70
     0
  4
"
 41
2.5
 42
0.0
 43
10.0
 44
1.0
 47
0.1
 48
0.1000000001
 73
     0
 74
     0
 77
     3
 78
     9
140
3.799999999999998
141
0.0
143
0.0393701
146
0.71
147
1.5
172
     1
176
     3
177
     3
178
     2
271
     2
272
     2
275
     1
283
     0
284
     8
340
11
341
59
342
59
  0
DIMSTYLE
105
1762
102
{ACAD_REACTORS
330
9E74
330
9F1E
330
A164
102
}
330
A
100
AcDbSymbolTableRecord
100
AcDbDimStyleTableRecord
  2
AM_JIS$2
 70
     0
  4
"
 41
2.5
 42
0.0
 43
10.0
 44
1.0
 47
0.1
 48
0.1000000001
 73
     0
 74
     0
 77
     3
 78
     9
140
3.799999999999998
141
0.0
143
0.0393701
146
0.71
147
1.5
172
     1
176
     3
177
     3
178
     2
271
     2
272
     2
275
     1
283
     0
284
     8
340
11
341
59
342
59
  0
DIMSTYLE
105
8B84
102
{ACAD_REACTORS
330
9B1B
102
}
330
A
100
AcDbSymbolTableRecord
100
AcDbDimStyleTableRecord
  2
AM_JISORG-1P0$2
 70
     0
  4
"
 41
2.5
 42
0.0
 43
10.0
 44
1.0
 47
0.1
 48
0.1000000001
 73
     0
 74
     0
 77
     3
 78
     1
140
3.799999999999998
141
0.0
143
0.0393701
144
-1.000004617828349
146
0.71
147
1.5
172
     1
176
     3
177
     3
178
     2
271
     2
272
     2
275
     1
283
     0
284
     8
340
11
341
59
342
59
  0
DIMSTYLE
105
A2B9
330
A
100
AcDbSymbolTableRecord
100
AcDbDimStyleTableRecord
  2
AM_ISO
 70
     0
  4
"
 41
2.5
 42
1.0
 43
10.0
 44
1.0
 47
0.1
 48
0.1
 73
     0
 74
     0
 77
     1
 78
     8
 79
     2
140
3.5
141
0.0
143
0.0393701
146
0.71
147
1.5
172
     1
176
   256
177
   256
178
     2
271
     2
272
     3
274
     4
283
     0
284
     8
340
11
371
    -1
372
    -1
  0
DIMSTYLE
105
A2BA
330
A
100
AcDbSymbolTableRecord
100
AcDbDimStyleTableRecord
  2
AM_ISO$3
 70
     0
  4
"
 41
2.5
 42
1.0
 43
10.0
 44
1.0
 47
0.1
 48
0.1
 73
     0
 77
     1
 78
     8
 79
     2
140
3.5
141
0.0
143
0.0393701
146
0.71
147
1.5
176
   256
177
   256
178
     2
271
     2
272
     3
274
     4
283
     0
284
     8
288
     1
289
     0
340
11
371
    -1
372
    -1
  0
DIMSTYLE
105
A2BB
330
A
100
AcDbSymbolTableRecord
100
AcDbDimStyleTableRecord
  2
AM_ISO$4
 70
     0
  4
"
 41
2.5
 42
1.0
 43
10.0
 44
1.0
 47
0.1
 48
0.1
 73
     0
 77
     1
 78
     8
 79
     2
140
3.5
141
0.0
143
0.0393701
146
0.71
147
1.5
176
   256
177
   256
178
     2
271
     2
272
     3
274
     4
283
     0
284
     8
288
     1
289
     0
340
11
371
    -1
372
    -1
  0
DIMSTYLE
105
A2BC
330
A
100
AcDbSymbolTableRecord
100
AcDbDimStyleTableRecord
  2
AM_ISO$6
 70
     0
  4
"
 41
2.5
 42
1.0
 43
10.0
 44
1.0
 47
0.1
 48
0.1
 73
     0
 74
     0
 78
     8
 79
     2
140
3.5
141
0.0
143
0.0393701
146
0.71
147
1.5
172
     1
176
   256
177
   256
178
     2
271
     2
272
     3
274
     4
283
     0
284
     8
340
11
371
    -1
372
    -1
  0
DIMSTYLE
105
A2BD
330
A
100
AcDbSymbolTableRecord
100
AcDbDimStyleTableRecord
  2
AM_ISO$7
 70
     0
  4
"
 41
2.5
 42
1.0
 43
10.0
 44
1.0
 47
0.1
 48
0.1
 73
     0
 74
     0
 77
     1
 78
     8
 79
     2
140
5.0
141
0.0
143
0.0393701
146
0.71
147
1.5
172
     1
176
   256
177
   256
178
     2
271
     2
272
     3
274
     4
283
     0
284
     8
340
11
371
    -1
372
    -1
  0
DIMSTYLE
105
A2BE
330
A
100
AcDbSymbolTableRecord
100
AcDbDimStyleTableRecord
  2
AM_ISO$SF
 70
     0
  4
"
 41
2.5
 42
1.0
 43
10.0
 44
1.0
 47
0.1
 48
0.1
 73
     0
 74
     0
 75
     1
 76
     1
 77
     1
 78
     8
 79
     2
140
3.5
141
0.0
143
0.0393701
146
0.71
147
1.5
172
     1
176
   256
177
   256
178
     2
271
     2
272
     3
274
     4
283
     0
284
     8
340
11
371
    -1
372
    -1
  0
DIMSTYLE
105
A2BF
330
A
100
AcDbSymbolTableRecord
100
AcDbDimStyleTableRecord
  2
AM_ISO$SH
 70
     0
  4
"
 41
2.5
 42
1.0
 43
10.0
 44
1.0
 47
0.1
 48
0.1
 73
     0
 74
     0
 75
     1
 76
     1
 77
     1
 78
     8
 79
     2
140
3.5
141
0.0
143
0.0393701
144
2.0
146
0.71
147
1.5
172
     1
173
     1
176
   256
177
   256
178
     2
271
     2
272
     3
274
     4
283
     0
284
     8
340
11
343
64
371
    -1
372
    -1
  0
ENDTAB
  0
TABLE
  2
BLOCK_RECORD
  5
1
330
0
100
AcDbSymbolTable
 70
    17
  0
BLOCK_RECORD
  5
1F
102
{ACAD_XDICTIONARY
360
165
102
}
330
1
100
AcDbSymbolTableRecord
100
AcDbBlockTableRecord
  2
*MODEL_SPACE
340
A238
  0
BLOCK_RECORD
  5
1B
102
{ACAD_XDICTIONARY
360
A1DE
102
}
330
1
100
AcDbSymbolTableRecord
100
AcDbBlockTableRecord
  2
*PAPER_SPACE
340
A239
  0
BLOCK_RECORD
  5
59
330
1
100
AcDbSymbolTableRecord
100
AcDbBlockTableRecord
  2
_OPEN30
340
0
102
{BLKREFS
331
A349
331
A34A
331
A352
331
A353
331
A35D
331
A35E
331
A368
331
A369
331
A371
331
A372
331
A37A
331
A37B
331
A384
331
A385
331
A390
331
A391
331
A39D
331
A39E
331
A3A8
102
}
  0
BLOCK_RECORD
  5
64
330
1
100
AcDbSymbolTableRecord
100
AcDbBlockTableRecord
  2
GENAXEH
340
0
  0
BLOCK_RECORD
  5
80B7
330
1
100
AcDbSymbolTableRecord
100
AcDbBlockTableRecord
  2
_NONE
340
0
  0
BLOCK_RECORD
  5
9C26
330
1
100
AcDbSymbolTableRecord
100
AcDbBlockTableRecord
  2
*D6
340
0
  0
BLOCK_RECORD
  5
9C32
330
1
100
AcDbSymbolTableRecord
100
AcDbBlockTableRecord
  2
*D7
340
0
  0
BLOCK_RECORD
  5
9C40
330
1
100
AcDbSymbolTableRecord
100
AcDbBlockTableRecord
  2
*D8
340
0
  0
BLOCK_RECORD
  5
9C4F
330
1
100
AcDbSymbolTableRecord
100
AcDbBlockTableRecord
  2
*D9
340
0
  0
BLOCK_RECORD
  5
9DA4
330
1
100
AcDbSymbolTableRecord
100
AcDbBlockTableRecord
  2
*D10
340
0
  0
BLOCK_RECORD
  5
9DB1
330
1
100
AcDbSymbolTableRecord
100
AcDbBlockTableRecord
  2
*D11
340
0
  0
BLOCK_RECORD
  5
9E75
330
1
100
AcDbSymbolTableRecord
100
AcDbBlockTableRecord
  2
*D12
340
0
  0
BLOCK_RECORD
  5
9F1F
330
1
100
AcDbSymbolTableRecord
100
AcDbBlockTableRecord
  2
*D13
340
0
  0
BLOCK_RECORD
  5
A0E7
330
1
100
AcDbSymbolTableRecord
100
AcDbBlockTableRecord
  2
*D14
340
0
  0
BLOCK_RECORD
  5
A167
330
1
100
AcDbSymbolTableRecord
100
AcDbBlockTableRecord
  2
*D15
340
0
  0
ENDTAB
  0
ENDSEC
  0
SECTION
  2
BLOCKS
  0
BLOCK
  5
20
330
1F
100
AcDbEntity
  8
0
100
AcDbBlockBegin
  2
*MODEL_SPACE
 70
     0
 10
0.0
 20
0.0
 30
0.0
  3
*MODEL_SPACE
  1

  0
ENDBLK
  5
21
330
1F
100
AcDbEntity
  8
0
100
AcDbBlockEnd
  0
BLOCK
  5
1C
330
1B
100
AcDbEntity
 67
     1
  8
0
100
AcDbBlockBegin
  2
*PAPER_SPACE
 70
     0
 10
0.0
 20
0.0
 30
0.0
  3
*PAPER_SPACE
  1

  0
ENDBLK
  5
1D
330
1B
100
AcDbEntity
 67
     1
  8
0
100
AcDbBlockEnd
  0
BLOCK
  5
5D
330
59
100
AcDbEntity
  8
0
100
AcDbBlockBegin
  2
_OPEN30
 70
     0
 10
0.0
 20
0.0
 30
0.0
  3
_OPEN30
  1

  0
LINE
  5
5A
330
59
100
AcDbEntity
  8
0
 62
     0
100
AcDbLine
 10
-1.0
 20
0.26794919
 30
0.0
 11
0.0
 21
0.0
 31
0.0
  0
LINE
  5
5B
330
59
100
AcDbEntity
  8
0
 62
     0
100
AcDbLine
 10
0.0
 20
0.0
 30
0.0
 11
-1.0
 21
-0.26794919
 31
0.0
  0
LINE
  5
5C
330
59
100
AcDbEntity
  8
0
 62
     0
100
AcDbLine
 10
0.0
 20
0.0
 30
0.0
 11
-1.0
 21
0.0
 31
0.0
  0
ENDBLK
  5
5E
330
59
100
AcDbEntity
  8
0
100
AcDbBlockEnd
  0
BLOCK
  5
66
330
64
100
AcDbEntity
  8
0
100
AcDbBlockBegin
  2
GENAXEH
 70
     0
 10
0.0
 20
0.0
 30
0.0
  3
GENAXEH
  1

  0
LINE
  5
65
330
64
100
AcDbEntity
  8
0
100
AcDbLine
 10
-1.0
 20
0.0
 30
0.0
 11
1.0
 21
0.0
 31
0.0
  0
ENDBLK
  5
67
330
64
100
AcDbEntity
  8
0
100
AcDbBlockEnd
  0
BLOCK
  5
80B8
330
80B7
100
AcDbEntity
  8
0
100
AcDbBlockBegin
  2
_NONE
 70
     0
 10
0.0
 20
0.0
 30
0.0
  3
_NONE
  1

  0
ENDBLK
  5
80B9
330
80B7
100
AcDbEntity
  8
0
100
AcDbBlockEnd
  0
BLOCK
  5
9C30
330
9C26
100
AcDbEntity
  8
0
100
AcDbBlockBegin
  2
*D6
 70
     1
 10
0.0
 20
0.0
 30
0.0
  3
*D6
  1

  0
LINE
  5
A346
330
9C26
100
AcDbEntity
  8
PV0001_1
 62
     3
370
    -2
100
AcDbLine
 10
0.0
 20
0.1641235343529814
 30
0.0
 11
-0.0000000000000016
 21
-25.89612579345702
 31
0.0
  0
LINE
  5
A347
330
9C26
100
AcDbEntity
  8
PV0001_1
 62
     3
370
    -2
100
AcDbLine
 10
124.9969329822571
 20
5.164947509764964
 30
0.0
 11
124.9969329822571
 21
-25.89612579345702
 31
0.0
  0
LINE
  5
A348
330
9C26
100
AcDbEntity
  8
PV0001_1
 62
     3
370
    -2
100
AcDbLine
 10
2.499999999999998
 20
-24.89612579345702
 30
0.0
 11
122.4969329822571
 21
-24.89612579345702
 31
0.0
  0
INSERT
  5
A349
330
9C26
100
AcDbEntity
  8
PV0001_1
 62
     3
370
    -2
100
AcDbBlockReference
  2
_OPEN30
 10
-0.0000000000000015
 20
-24.89612579345702
 30
0.0
 41
2.5
 42
2.5
 43
2.5
 50
180.0
  0
INSERT
  5
A34A
330
9C26
100
AcDbEntity
  8
PV0001_1
 62
     3
370
    -2
100
AcDbBlockReference
  2
_OPEN30
 10
124.9969329822571
 20
-24.89612579345702
 30
0.0
 41
2.5
 42
2.5
 43
2.5
  0
MTEXT
  5
A34B
330
9C26
100
AcDbEntity
  8
PV0001_1
 62
     2
100
AcDbMText
 10
62.49693298225708
 20
-21.49575177770898
 30
0.0
 40
3.799999999999998
 41
0.0
 71
     5
 72
     1
  1
125
 73
     1
 44
1.0
1001
ACAD
1000
MTEXTBEGIN
1070
    73
1070
     1
1070
    44
1040
1.0
1070
    74
1070
     0
1000
MTEXTEND
  0
POINT
  5
A34C
330
9C26
100
AcDbEntity
  8
DEFPOINTS
 62
     0
100
AcDbPoint
 10
0.0
 20
0.1641235343529814
 30
0.0
  0
POINT
  5
A34D
330
9C26
100
AcDbEntity
  8
DEFPOINTS
 62
     0
100
AcDbPoint
 10
124.9969329822571
 20
5.164947509764964
 30
0.0
  0
POINT
  5
A34E
330
9C26
100
AcDbEntity
  8
DEFPOINTS
 62
     0
100
AcDbPoint
 10
124.9969329822571
 20
-24.89612579345702
 30
0.0
  0
ENDBLK
  5
9C31
330
9C26
100
AcDbEntity
  8
0
100
AcDbBlockEnd
  0
BLOCK
  5
9C3E
330
9C32
100
AcDbEntity
  8
0
100
AcDbBlockBegin
  2
*D7
 70
     1
 10
0.0
 20
0.0
 30
0.0
  3
*D7
  1

  0
LINE
  5
A34F
330
9C32
100
AcDbEntity
  8
PV0001_1
 62
     3
370
    -2
100
AcDbLine
 10
-0.0030670177420119
 20
-57.25006484985401
 30
0.0
 11
-24.03681993363573
 21
-57.250064849854
 31
0.0
  0
LINE
  5
A350
330
9C32
100
AcDbEntity
  8
PV0001_1
 62
     3
370
    -2
100
AcDbLine
 10
4.196933745198005
 20
-77.2500648498535
 30
0.0
 11
-24.03681993363574
 21
-77.2500648498535
 31
0.0
  0
LINE
  5
A351
330
9C32
100
AcDbEntity
  8
PV0001_1
 62
     3
370
    -2
100
AcDbLine
 10
-23.03681993363573
 20
-59.750064849854
 30
0.0
 11
-23.03681993363574
 21
-74.7500648498535
 31
0.0
  0
INSERT
  5
A352
330
9C32
100
AcDbEntity
  8
PV0001_1
 62
     3
370
    -2
100
AcDbBlockReference
  2
_OPEN30
 10
-23.03681993363573
 20
-57.250064849854
 30
0.0
 41
2.5
 42
2.5
 43
2.5
 50
90.0
  0
INSERT
  5
A353
330
9C32
100
AcDbEntity
  8
PV0001_1
 62
     3
370
    -2
100
AcDbBlockReference
  2
_OPEN30
 10
-23.03681993363574
 20
-77.2500648498535
 30
0.0
 41
2.5
 42
2.5
 43
2.5
 50
270.0
  0
MTEXT
  5
A354
330
9C32
100
AcDbEntity
  8
PV0001_1
 62
     2
100
AcDbMText
 10
-26.43719394938376
 20
-67.25006233910638
 30
0.0
 40
3.799999999999998
 41
0.0
 71
     5
 72
     1
  1
20
 11
0.0000000000000001
 21
1.0
 31
0.0
 73
     1
 44
1.0
1001
ACAD
1000
MTEXTBEGIN
1070
    73
1070
     1
1070
    44
1040
1.0
1070
    74
1070
     0
1000
MTEXTEND
  0
POINT
  5
A355
330
9C32
100
AcDbEntity
  8
DEFPOINTS
 62
     0
100
AcDbPoint
 10
-0.0030670177420119
 20
-57.25006484985401
 30
0.0
  0
POINT
  5
A356
330
9C32
100
AcDbEntity
  8
DEFPOINTS
 62
     0
100
AcDbPoint
 10
4.196933745198005
 20
-77.2500648498535
 30
0.0
  0
POINT
  5
A357
330
9C32
100
AcDbEntity
  8
DEFPOINTS
 62
     0
100
AcDbPoint
 10
-23.03681993363574
 20
-77.2500648498535
 30
0.0
  0
ENDBLK
  5
9C3F
330
9C32
100
AcDbEntity
  8
0
100
AcDbBlockEnd
  0
BLOCK
  5
9C4D
330
9C40
100
AcDbEntity
  8
0
100
AcDbBlockBegin
  2
*D8
 70
     1
 10
0.0
 20
0.0
 30
0.0
  3
*D8
  1

  0
LINE
  5
A358
330
9C40
100
AcDbEntity
  8
PV0001_1
 62
     3
370
    -2
100
AcDbLine
 10
-96.65306091421795
 20
0.8422927856440125
 30
0.0
 11
-105.4232762950078
 21
1.119651714904761
 31
0.0
  0
LINE
  5
A359
330
9C40
100
AcDbEntity
  8
PV0001_1
 62
     3
370
    -2
100
AcDbLine
 10
-76.48161316031798
 20
0.0000000000000142
 30
0.0
 11
-105.4409764185716
 21
0.0000000000000562
 31
0.0
  0
ARC
  5
A35A
330
9C40
100
AcDbEntity
  8
PV0001_1
 62
     3
370
    -2
100
AcDbCircle
 10
-70.019380277102
 20
0.000000000000008
 30
0.0
 40
34.42159614146965
100
AcDbArc
 50
169.8641386951884
 51
174.026378859921
  0
ARC
  5
A35B
330
9C40
100
AcDbEntity
  8
PV0001_1
 62
     3
370
    -2
100
AcDbCircle
 10
-70.019380277102
 20
0.000000000000008
 30
0.0
 40
34.42159614146965
100
AcDbArc
 50
184.1622401647325
 51
188.3244803294652
  0
ARC
  5
A35C
330
9C40
100
AcDbEntity
  8
PV0001_1
 62
     3
370
    -2
100
AcDbCircle
 10
-70.019380277102
 20
0.000000000000008
 30
0.0
 40
34.42159614146965
100
AcDbArc
 50
178.1886190246537
 51
179.9999999999999
  0
INSERT
  5
A35D
330
9C40
100
AcDbEntity
  8
PV0001_1
 62
     3
370
    -2
100
AcDbBlockReference
  2
_OPEN30
 10
-104.4237759936519
 20
1.088042418970355
 30
0.0
 41
2.5
 42
2.5
 43
2.5
 50
266.1074989422874
  0
INSERT
  5
A35E
330
9C40
100
AcDbEntity
  8
PV0001_1
 62
     3
370
    -2
100
AcDbBlockReference
  2
_OPEN30
 10
-104.4409764185716
 20
0.0000000000000544
 30
0.0
 41
2.5
 42
2.5
 43
2.5
 50
92.08112008236629
  0
MTEXT
  5
A35F
330
9C40
100
AcDbEntity
  8
PV0001_1
 62
     2
100
AcDbMText
 10
-107.8366252234701
 20
0.5978388075866659
 30
0.0
 40
3.799999999999998
 41
0.0
 71
     5
 72
     1
  1
2°
 11
0.0158066543096931
 21
0.9998750670356443
 31
0.0
 73
     1
 44
1.0
1001
ACAD
1000
MTEXTBEGIN
1070
    73
1070
     1
1070
    44
1040
1.0
1070
    74
1070
     0
1000
MTEXTEND
  0
POINT
  5
A360
330
9C40
100
AcDbEntity
  8
DEFPOINTS
 62
     0
100
AcDbPoint
 10
-104.4390651187469
 20
0.3627345148665269
 30
0.0
  0
POINT
  5
A361
330
9C40
100
AcDbEntity
  8
DEFPOINTS
 62
     0
100
AcDbPoint
 10
-87.88284301870801
 20
0.5649337768549856
 30
0.0
  0
POINT
  5
A362
330
9C40
100
AcDbEntity
  8
DEFPOINTS
 62
     0
100
AcDbPoint
 10
-47.52224731559799
 20
-0.0000000000000141
 30
0.0
  0
POINT
  5
A363
330
9C40
100
AcDbEntity
  8
DEFPOINTS
 62
     0
100
AcDbPoint
 10
-76.48161316031798
 20
0.0000000000000142
 30
0.0
  0
POINT
  5
A364
330
9C40
100
AcDbEntity
  8
DEFPOINTS
 62
     0
100
AcDbPoint
 10
-96.65306091421795
 20
0.8422927856440125
 30
0.0
  0
ENDBLK
  5
9C4E
330
9C40
100
AcDbEntity
  8
0
100
AcDbBlockEnd
  0
BLOCK
  5
9C59
330
9C4F
100
AcDbEntity
  8
0
100
AcDbBlockBegin
  2
*D9
 70
     1
 10
0.0
 20
0.0
 30
0.0
  3
*D9
  1

  0
LINE
  5
A365
330
9C4F
100
AcDbEntity
  8
PV0001_1
 62
     3
370
    -2
100
AcDbLine
 10
11.70248412971904
 20
24.999938964843
 30
0.0
 11
-30.55527381025097
 21
24.99993896484301
 31
0.0
  0
LINE
  5
A366
330
9C4F
100
AcDbEntity
  8
PV0001_1
 62
     3
370
    -2
100
AcDbLine
 10
0.1995925891920436
 20
0.0
 30
0.0
 11
-30.55527381025097
 21
0.0000000000000087
 31
0.0
  0
LINE
  5
A367
330
9C4F
100
AcDbEntity
  8
PV0001_1
 62
     3
370
    -2
100
AcDbLine
 10
-29.55527381025097
 20
22.49993896484301
 30
0.0
 11
-29.55527381025097
 21
2.500000000000008
 31
0.0
  0
INSERT
  5
A368
330
9C4F
100
AcDbEntity
  8
PV0001_1
 62
     3
370
    -2
100
AcDbBlockReference
  2
_OPEN30
 10
-29.55527381025096
 20
24.99993896484301
 30
0.0
 41
2.5
 42
2.5
 43
2.5
 50
90.0
  0
INSERT
  5
A369
330
9C4F
100
AcDbEntity
  8
PV0001_1
 62
     3
370
    -2
100
AcDbBlockReference
  2
_OPEN30
 10
-29.55527381025097
 20
0.0000000000000084
 30
0.0
 41
2.5
 42
2.5
 43
2.5
 50
270.0
  0
MTEXT
  5
A36A
330
9C4F
100
AcDbEntity
  8
PV0001_1
 62
     2
100
AcDbMText
 10
-32.955647825999
 20
12.49996948242099
 30
0.0
 40
3.799999999999998
 41
0.0
 71
     5
 72
     1
  1
25
 11
0.0000000000000001
 21
1.0
 31
0.0
 73
     1
 44
1.0
1001
ACAD
1000
MTEXTBEGIN
1070
    73
1070
     1
1070
    44
1040
1.0
1070
    74
1070
     0
1000
MTEXTEND
  0
POINT
  5
A36B
330
9C4F
100
AcDbEntity
  8
DEFPOINTS
 62
     0
100
AcDbPoint
 10
11.70248412971904
 20
24.999938964843
 30
0.0
  0
POINT
  5
A36C
330
9C4F
100
AcDbEntity
  8
DEFPOINTS
 62
     0
100
AcDbPoint
 10
0.1995925891920436
 20
0.0
 30
0.0
  0
POINT
  5
A36D
330
9C4F
100
AcDbEntity
  8
DEFPOINTS
 62
     0
100
AcDbPoint
 10
-29.55527381025097
 20
0.0000000000000084
 30
0.0
  0
ENDBLK
  5
9C5A
330
9C4F
100
AcDbEntity
  8
0
100
AcDbBlockEnd
  0
BLOCK
  5
9DAE
330
9DA4
100
AcDbEntity
  8
0
100
AcDbBlockBegin
  2
*D10
 70
     1
 10
0.0
 20
0.0
 30
0.0
  3
*D10
  1

  0
LINE
  5
A36E
330
9DA4
100
AcDbEntity
  8
AM_5
 62
     3
370
    -2
100
AcDbLine
 10
124.9969329822571
 20
4.994947509764962
 30
0.0
 11
143.096178165699
 21
4.994947509764957
 31
0.0
  0
LINE
  5
A36F
330
9DA4
100
AcDbEntity
  8
AM_5
 62
     3
370
    -2
100
AcDbLine
 10
124.9969329822571
 20
24.99993896484296
 30
0.0
 11
143.096178165699
 21
24.99993896484295
 31
0.0
  0
LINE
  5
A370
330
9DA4
100
AcDbEntity
  8
AM_5
 62
     3
370
    -2
100
AcDbLine
 10
142.096178165699
 20
7.494947509764957
 30
0.0
 11
142.096178165699
 21
22.49993896484295
 31
0.0
  0
INSERT
  5
A371
330
9DA4
100
AcDbEntity
  8
AM_5
 62
     3
370
    -2
100
AcDbBlockReference
  2
_OPEN30
 10
142.096178165699
 20
4.994947509764957
 30
0.0
 41
2.5
 42
2.5
 43
2.5
 50
270.0
  0
INSERT
  5
A372
330
9DA4
100
AcDbEntity
  8
AM_5
 62
     3
370
    -2
100
AcDbBlockReference
  2
_OPEN30
 10
142.096178165699
 20
24.99993896484295
 30
0.0
 41
2.5
 42
2.5
 43
2.5
 50
90.0
  0
MTEXT
  5
A373
330
9DA4
100
AcDbEntity
  8
AM_5
 62
     2
100
AcDbMText
 10
138.695804149951
 20
14.99744323730397
 30
0.0
 40
3.799999999999998
 41
0.0
 71
     5
 72
     1
  1
20
 11
0.0000000000000001
 21
1.0
 31
0.0
 73
     1
 44
1.0
1001
ACAD
1000
MTEXTBEGIN
1070
    73
1070
     1
1070
    44
1040
1.0
1070
    74
1070
     0
1000
MTEXTEND
  0
POINT
  5
A374
330
9DA4
100
AcDbEntity
  8
DEFPOINTS
 62
     0
100
AcDbPoint
 10
124.9969329822571
 20
4.994947509764962
 30
0.0
  0
POINT
  5
A375
330
9DA4
100
AcDbEntity
  8
DEFPOINTS
 62
     0
100
AcDbPoint
 10
124.9969329822571
 20
24.99993896484296
 30
0.0
  0
POINT
  5
A376
330
9DA4
100
AcDbEntity
  8
DEFPOINTS
 62
     0
100
AcDbPoint
 10
142.096178165699
 20
24.99993896484295
 30
0.0
  0
ENDBLK
  5
9DAF
330
9DA4
100
AcDbEntity
  8
0
100
AcDbBlockEnd
  0
BLOCK
  5
9DBB
330
9DB1
100
AcDbEntity
  8
0
100
AcDbBlockBegin
  2
*D11
 70
     1
 10
0.0
 20
0.0
 30
0.0
  3
*D11
  1

  0
LINE
  5
A377
330
9DB1
100
AcDbEntity
  8
AM_5
 62
     3
370
    -2
100
AcDbLine
 10
124.996932982257
 20
-77.25006484985353
 30
0.0
 11
146.3137769346628
 21
-77.25006484985353
 31
0.0
  0
LINE
  5
A378
330
9DB1
100
AcDbEntity
  8
AM_5
 62
     3
370
    -2
100
AcDbLine
 10
124.996932982257
 20
-57.24507339477604
 30
0.0
 11
146.3137769346628
 21
-57.24507339477605
 31
0.0
  0
LINE
  5
A379
330
9DB1
100
AcDbEntity
  8
AM_5
 62
     3
370
    -2
100
AcDbLine
 10
145.3137769346628
 20
-74.75006484985353
 30
0.0
 11
145.3137769346628
 21
-59.74507339477605
 31
0.0
  0
INSERT
  5
A37A
330
9DB1
100
AcDbEntity
  8
AM_5
 62
     3
370
    -2
100
AcDbBlockReference
  2
_OPEN30
 10
145.3137769346628
 20
-77.25006484985353
 30
0.0
 41
2.5
 42
2.5
 43
2.5
 50
270.0
  0
INSERT
  5
A37B
330
9DB1
100
AcDbEntity
  8
AM_5
 62
     3
370
    -2
100
AcDbBlockReference
  2
_OPEN30
 10
145.3137769346628
 20
-57.24507339477605
 30
0.0
 41
2.5
 42
2.5
 43
2.5
 50
90.0
  0
MTEXT
  5
A37C
330
9DB1
100
AcDbEntity
  8
AM_5
 62
     2
100
AcDbMText
 10
141.9134029189148
 20
-67.24756912231477
 30
0.0
 40
3.799999999999998
 41
0.0
 71
     5
 72
     1
  1
20
 11
0.0000000000000001
 21
1.0
 31
0.0
 73
     1
 44
1.0
1001
ACAD
1000
MTEXTBEGIN
1070
    73
1070
     1
1070
    44
1040
1.0
1070
    74
1070
     0
1000
MTEXTEND
  0
POINT
  5
A37D
330
9DB1
100
AcDbEntity
  8
DEFPOINTS
 62
     0
100
AcDbPoint
 10
124.996932982257
 20
-77.25006484985353
 30
0.0
  0
POINT
  5
A37E
330
9DB1
100
AcDbEntity
  8
DEFPOINTS
 62
     0
100
AcDbPoint
 10
124.996932982257
 20
-57.24507339477604
 30
0.0
  0
POINT
  5
A37F
330
9DB1
100
AcDbEntity
  8
DEFPOINTS
 62
     0
100
AcDbPoint
 10
145.3137769346628
 20
-57.24507339477605
 30
0.0
  0
ENDBLK
  5
9DBC
330
9DB1
100
AcDbEntity
  8
0
100
AcDbBlockEnd
  0
BLOCK
  5
9E84
330
9E75
100
AcDbEntity
  8
0
100
AcDbBlockBegin
  2
*D12
 70
     1
 10
0.0
 20
0.0
 30
0.0
  3
*D12
  1

  0
LINE
  5
A380
330
9E75
100
AcDbEntity
  8
AM_5
 62
     3
370
    -2
100
AcDbLine
 10
17.57312011604704
 20
-55.553862571717
 30
0.0
 11
41.80373412597019
 21
-53.40428200946623
 31
0.0
  0
ARC
  5
A381
330
9E75
100
AcDbEntity
  8
AM_5
 62
     3
370
    -2
100
AcDbCircle
 10
-1.01606071266038
 20
-57.20297232028504
 30
0.0
 40
41.98796201380011
100
AcDbArc
 50
353.0796717224405
 51
356.4916166872843
  0
ARC
  5
A382
330
9E75
100
AcDbEntity
  8
AM_5
 62
     3
370
    -2
100
AcDbCircle
 10
-1.01606071266038
 20
-57.20297232028504
 30
0.0
 40
41.98796201380011
100
AcDbArc
 50
8.481577680575913
 51
11.89352264541978
  0
ARC
  5
A383
330
9E75
100
AcDbEntity
  8
AM_5
 62
     3
370
    -2
100
AcDbCircle
 10
-1.01606071266038
 20
-57.20297232028504
 30
0.0
 40
41.98796201380011
100
AcDbArc
 50
359.9035616521283
 51
5.069632715732036
  0
INSERT
  5
A384
330
9E75
100
AcDbEntity
  8
AM_5
 62
     3
370
    -2
100
AcDbBlockReference
  2
_OPEN30
 10
40.97184182415326
 20
-57.27364502619065
 30
0.0
 41
2.5
 42
2.5
 43
2.5
 50
88.19758916970625
  0
INSERT
  5
A385
330
9E75
100
AcDbEntity
  8
AM_5
 62
     3
370
    -2
100
AcDbBlockReference
  2
_OPEN30
 10
40.80764608567452
 20
-53.49264838304774
 30
0.0
 41
2.5
 42
2.5
 43
2.5
 50
276.775605198154
  0
MTEXT
  5
A386
330
9E75
100
AcDbEntity
  8
AM_5
 62
     2
100
AcDbMText
 10
51.9544983621918
 20
-53.06945892643341
 30
0.0
 40
3.799999999999998
 41
0.0
 71
     5
 72
     1
  1
5°
 73
     1
 44
1.0
1001
ACAD
1000
MTEXTBEGIN
1070
    73
1070
     1
1070
    44
1040
1.0
1070
    74
1070
     0
1000
MTEXTEND
  0
POINT
  5
A387
330
9E75
100
AcDbEntity
  8
DEFPOINTS
 62
     0
100
AcDbPoint
 10
40.9550031204156
 20
-56.01185738368861
 30
0.0
  0
POINT
  5
A388
330
9E75
100
AcDbEntity
  8
DEFPOINTS
 62
     0
100
AcDbPoint
 10
23.99693107491004
 20
-57.245073394776
 30
0.0
  0
POINT
  5
A389
330
9E75
100
AcDbEntity
  8
DEFPOINTS
 62
     0
100
AcDbPoint
 10
17.57312011604704
 20
-55.553862571717
 30
0.0
  0
POINT
  5
A38A
330
9E75
100
AcDbEntity
  8
DEFPOINTS
 62
     0
100
AcDbPoint
 10
4.221118925862072
 20
-56.73836421966601
 30
0.0
  0
POINT
  5
A38B
330
9E75
100
AcDbEntity
  8
DEFPOINTS
 62
     0
100
AcDbPoint
 10
124.9969329822571
 20
-57.41507339477605
 30
0.0
  0
ENDBLK
  5
9E85
330
9E75
100
AcDbEntity
  8
0
100
AcDbBlockEnd
  0
BLOCK
  5
9F2E
330
9F1F
100
AcDbEntity
  8
0
100
AcDbBlockBegin
  2
*D13
 70
     1
 10
0.0
 20
0.0
 30
0.0
  3
*D13
  1

  0
LINE
  5
A38C
330
9F1F
100
AcDbEntity
  8
AM_5
 62
     3
370
    -2
100
AcDbLine
 10
17.57313537483702
 20
0.6002502441399927
 30
0.0
 11
39.51414369730144
 21
1.366519843689211
 31
0.0
  0
ARC
  5
A38D
330
9F1F
100
AcDbEntity
  8
AM_5
 62
     3
370
    -2
100
AcDbCircle
 10
149.4553339013813
 20
5.206115114494956
 30
0.0
 40
111.008216944614
100
AcDbArc
 50
177.5156838783564
 51
178.806061113114
  0
ARC
  5
A38E
330
9F1F
100
AcDbEntity
  8
AM_5
 62
     3
370
    -2
100
AcDbCircle
 10
149.4553339013813
 20
5.206115114494956
 30
0.0
 40
111.008216944614
100
AcDbArc
 50
183.290566863431
 51
184.5809440981887
  0
ARC
  5
A38F
330
9F1F
100
AcDbEntity
  8
AM_5
 62
     3
370
    -2
100
AcDbCircle
 10
149.4553339013813
 20
5.206115114494956
 30
0.0
 40
111.008216944614
100
AcDbArc
 50
180.0964383478717
 51
182.0001896286733
  0
INSERT
  5
A390
330
9F1F
100
AcDbEntity
  8
AM_5
 62
     3
370
    -2
100
AcDbBlockReference
  2
_OPEN30
 10
38.44727420265162
 20
5.019269869025625
 30
0.0
 41
2.5
 42
2.5
 43
2.5
 50
269.4512497304929
  0
INSERT
  5
A391
330
9F1F
100
AcDbEntity
  8
AM_5
 62
     3
370
    -2
100
AcDbBlockReference
  2
_OPEN30
 10
38.51475298579275
 20
1.33161703935834
 30
0.0
 41
2.5
 42
2.5
 43
2.5
 50
92.64537824605218
  0
MTEXT
  5
A392
330
9F1F
100
AcDbEntity
  8
AM_5
 62
     2
100
AcDbMText
 10
42.09453391750926
 20
-2.081304636453545
 30
0.0
 40
3.799999999999998
 41
0.0
 71
     5
 72
     1
  1
2°
 11
0.0677220131228338
 21
-0.9977042291874836
 31
0.0
 73
     1
 44
1.0
1001
ACAD
1000
MTEXTBEGIN
1070
    73
1070
     1
1070
    44
1040
1.0
1070
    74
1070
     0
1000
MTEXTEND
  0
POINT
  5
A393
330
9F1F
100
AcDbEntity
  8
DEFPOINTS
 62
     0
100
AcDbPoint
 10
38.45615209908705
 20
3.789828263706498
 30
0.0
  0
POINT
  5
A394
330
9F1F
100
AcDbEntity
  8
DEFPOINTS
 62
     0
100
AcDbPoint
 10
23.99693107491004
 20
4.99494750976499
 30
0.0
  0
POINT
  5
A395
330
9F1F
100
AcDbEntity
  8
DEFPOINTS
 62
     0
100
AcDbPoint
 10
17.57313537483702
 20
0.6002502441399927
 30
0.0
  0
POINT
  5
A396
330
9F1F
100
AcDbEntity
  8
DEFPOINTS
 62
     0
100
AcDbPoint
 10
4.220634459309001
 20
0.1339263916009798
 30
0.0
  0
POINT
  5
A397
330
9F1F
100
AcDbEntity
  8
DEFPOINTS
 62
     0
100
AcDbPoint
 10
124.996932982257
 20
5.16494750976496
 30
0.0
  0
ENDBLK
  5
9F2F
330
9F1F
100
AcDbEntity
  8
0
100
AcDbBlockEnd
  0
BLOCK
  5
A0F3
330
A0E7
100
AcDbEntity
  8
0
100
AcDbBlockBegin
  2
*D14
 70
     1
 10
0.0
 20
0.0
 30
0.0
  3
*D14
  1

  0
LINE
  5
A398
330
A0E7
100
AcDbEntity
  8
AM_5
 62
     3
370
    -2
100
AcDbLine
 10
0.1919834969260755
 20
2.000056605561525
 30
0.0
 11
-17.28449018774777
 21
2.00005660556153
 31
0.0
  0
LINE
  5
A399
330
A0E7
100
AcDbEntity
  8
AM_5
 62
     3
370
    -2
100
AcDbLine
 10
-9.412424746767314
 20
0.0
 30
0.0
 11
-17.28449018774777
 21
0.0000000000000022
 31
0.0
  0
LINE
  5
A39A
330
A0E7
100
AcDbEntity
  8
AM_5
 62
     3
370
    -2
100
AcDbLine
 10
-16.28449018774777
 20
-2.499999999999998
 30
0.0
 11
-16.28449018774777
 21
-4.999999999999998
 31
0.0
  0
LINE
  5
A39B
330
A0E7
100
AcDbEntity
  8
AM_5
 62
     3
370
    -2
100
AcDbLine
 10
-16.28449018774777
 20
4.500056605561529
 30
0.0
 11
-16.28449018774777
 21
11.84477707800247
 31
0.0
  0
LINE
  5
A39C
330
A0E7
100
AcDbEntity
  8
AM_5
 62
     3
370
    -2
100
AcDbLine
 10
-16.28449018774777
 20
0.0000000000000019
 30
0.0
 11
-16.28449018774777
 21
2.000056605561529
 31
0.0
  0
INSERT
  5
A39D
330
A0E7
100
AcDbEntity
  8
AM_5
 62
     3
370
    -2
100
AcDbBlockReference
  2
_OPEN30
 10
-16.28449018774777
 20
0.0000000000000019
 30
0.0
 41
2.5
 42
2.5
 43
2.5
 50
90.0
  0
INSERT
  5
A39E
330
A0E7
100
AcDbEntity
  8
AM_5
 62
     3
370
    -2
100
AcDbBlockReference
  2
_OPEN30
 10
-16.28449018774777
 20
2.000056605561529
 30
0.0
 41
2.5
 42
2.5
 43
2.5
 50
270.0
  0
MTEXT
  5
A39F
330
A0E7
100
AcDbEntity
  8
AM_5
 62
     2
100
AcDbMText
 10
-19.6848642034958
 20
9.422416841782
 30
0.0
 40
3.799999999999998
 41
0.0
 71
     5
 72
     1
  1
2
 11
0.0000000000000001
 21
1.0
 31
0.0
 73
     1
 44
1.0
1001
ACAD
1000
MTEXTBEGIN
1070
    73
1070
     1
1070
    44
1040
1.0
1070
    74
1070
     0
1000
MTEXTEND
  0
POINT
  5
A3A0
330
A0E7
100
AcDbEntity
  8
DEFPOINTS
 62
     0
100
AcDbPoint
 10
0.1919834969260755
 20
2.000056605561525
 30
0.0
  0
POINT
  5
A3A1
330
A0E7
100
AcDbEntity
  8
DEFPOINTS
 62
     0
100
AcDbPoint
 10
-9.412424746767314
 20
0.0
 30
0.0
  0
POINT
  5
A3A2
330
A0E7
100
AcDbEntity
  8
DEFPOINTS
 62
     0
100
AcDbPoint
 10
-16.28449018774777
 20
0.0000000000000019
 30
0.0
  0
ENDBLK
  5
A0F4
330
A0E7
100
AcDbEntity
  8
0
100
AcDbBlockEnd
  0
BLOCK
  5
A176
330
A167
100
AcDbEntity
  8
0
100
AcDbBlockBegin
  2
*D15
 70
     1
 10
0.0
 20
0.0
 30
0.0
  3
*D15
  1

  0
LINE
  5
A3A3
330
A167
100
AcDbEntity
  8
AM_5
 62
     3
370
    -2
100
AcDbLine
 10
-0.0030806490546214
 20
-57.25006233910666
 30
0.0
 11
-23.6392258873282
 21
-52.89652788139822
 31
0.0
  0
LINE
  5
A3A4
330
A167
100
AcDbEntity
  8
AM_5
 62
     3
370
    -2
100
AcDbLine
 10
-24.06886631406357
 20
-57.25006233910665
 30
0.0
 11
-22.03681993363574
 21
-57.25006233910666
 31
0.0
  0
ARC
  5
A3A5
330
A167
100
AcDbEntity
  8
AM_5
 62
     3
370
    -2
100
AcDbCircle
 10
-0.0030806490546214
 20
-57.25006233910666
 30
0.0
 40
23.03373928458111
100
AcDbArc
 50
163.3419426409191
 51
169.563678851123
  0
LINE
  5
A3A6
330
A167
100
AcDbEntity
  8
AM_5
 62
     3
370
    -2
100
AcDbLine
 10
-22.07015370925912
 20
-50.64722719156192
 30
0.0
 11
-18.7592390109586
 21
-39.58195069883127
 31
0.0
  0
ARC
  5
A3A7
330
A167
100
AcDbEntity
  8
AM_5
 62
     3
370
    -2
100
AcDbCircle
 10
-0.0030806490546214
 20
-57.25006233910666
 30
0.0
 40
23.03373928458111
100
AcDbArc
 50
175.7854150613267
 51
180.0
  0
INSERT
  5
A3A8
330
A167
100
AcDbEntity
  8
AM_5
 62
     3
370
    -2
100
AcDbBlockReference
  2
_OPEN30
 10
-22.65576904948868
 20
-53.07767049953844
 30
0.0
 41
2.5
 42
2.5
 43
2.5
 50
82.67454695622488
  0
MTEXT
  5
A3A9
330
A167
100
AcDbEntity
  8
AM_5
 62
     2
100
AcDbMText
 10
-23.6720071891378
 20
-44.13994738898693
 30
0.0
 40
3.799999999999998
 41
0.0
 71
     5
 72
     1
  1
10°
 11
0.2866592812381395
 21
0.958032596773217
 31
0.0
 73
     1
 44
1.0
1001
ACAD
1000
MTEXTBEGIN
1070
    73
1070
     1
1070
    44
1040
1.0
1070
    74
1070
     0
1000
MTEXTEND
  0
POINT
  5
A3AA
330
A167
100
AcDbEntity
  8
DEFPOINTS
 62
     0
100
AcDbPoint
 10
-22.994376733074
 20
-55.85240365151147
 30
0.0
  0
POINT
  5
A3AB
330
A167
100
AcDbEntity
  8
DEFPOINTS
 62
     0
100
AcDbPoint
 10
-0.0030670177420085
 20
-57.25006484985401
 30
0.0
  0
POINT
  5
A3AC
330
A167
100
AcDbEntity
  8
DEFPOINTS
 62
     0
100
AcDbPoint
 10
-24.06886631406357
 20
-57.25006233910665
 30
0.0
  0
POINT
  5
A3AD
330
A167
100
AcDbEntity
  8
DEFPOINTS
 62
     0
100
AcDbPoint
 10
-30.42365918179202
 20
-57.25006233910665
 30
0.0
  0
POINT
  5
A3AE
330
A167
100
AcDbEntity
  8
DEFPOINTS
 62
     0
100
AcDbPoint
 10
2.157765262938745
 20
-57.64806789546229
 30
0.0
  0
ENDBLK
  5
A177
330
A167
100
AcDbEntity
  8
0
100
AcDbBlockEnd
  0
ENDSEC
  0
SECTION
  2
ENTITIES
  0
TEXT
  5
83BD
330
1F
100
AcDbEntity
  8
AM_6
100
AcDbText
 10
42.07363831686663
 20
-93.91385785703153
 30
0.0
 40
5.0
  1
GWCR2020-25
 72
     4
 11
62.79774996921833
 21
-91.41385785703153
 31
0.0
100
AcDbText
  0
LINE
  5
9AA7
330
1F
100
AcDbEntity
  8
AM_0
100
AcDbLine
 10
4.196933745198005
 20
-77.2500648498535
 30
0.0
 11
124.996932982257
 21
-77.25006484985353
 31
0.0
  0
LINE
  5
9AA9
330
1F
100
AcDbEntity
  8
AM_0
100
AcDbLine
 10
23.99693107491005
 20
4.99494750976499
 30
0.0
 11
124.9969329822571
 21
4.994947509764962
 31
0.0
  0
LINE
  5
9AAA
330
1F
100
AcDbEntity
  8
AM_0
100
AcDbLine
 10
11.70248412971904
 20
24.999938964843
 30
0.0
 11
124.9969329822571
 21
24.99993896484296
 31
0.0
  0
DIMENSION
  5
9AAB
330
1F
100
AcDbEntity
  8
PV0001_1
100
AcDbDimension
  2
*D6
 10
124.9969329822571
 20
-24.89612579345702
 30
0.0
 11
62.49693298225708
 21
-24.89612579345702
 31
0.0
 70
   160
  1
<>
 71
     5
 42
124.9969329822571
  3
AM_JIS$0
100
AcDbAlignedDimension
 13
0.0
 23
0.1641235343529814
 33
0.0
 14
124.9969329822571
 24
5.164947509764964
 34
0.0
100
AcDbRotatedDimension
1001
ACAD
1000
DSTYLE
1002
{
1070
   284
1070
     8
1070
   271
1070
     0
1070
    45
1040
0.1
1070
   173
1070
     1
1070
     6
1000
OPEN30
1070
     7
1000
OPEN30
1002
}
  0
LINE
  5
9AAD
330
1F
100
AcDbEntity
  8
AM_0
 48
0.5
100
AcDbLine
 10
1.432929991536012
 20
-60.61174106597902
 30
0.0
 11
8.020538328938014
 21
-70.01355379540472
 31
0.0
  0
LINE
  5
9AAE
330
1F
100
AcDbEntity
  8
AM_0
 48
0.5
100
AcDbLine
 10
12.70382690315698
 20
-70.6614803671837
 30
0.0
 11
17.64252471809805
 21
-60.06208705902101
 31
0.0
  0
LINE
  5
9AAF
330
1F
100
AcDbEntity
  8
AM_0
 48
0.5
100
AcDbLine
 10
23.07705688362608
 20
-77.25006437301631
 30
0.0
 11
22.88544463997306
 21
-54.86133861541801
 31
0.0
  0
LINE
  5
9AB0
330
1F
100
AcDbEntity
  8
AM_0
 48
0.5
100
AcDbLine
 10
0.4969329822579861
 20
-73.7500691413879
 30
0.0
 11
0.4969329822579876
 21
-60.694766998291
 31
0.0
  0
LINE
  5
9AB1
330
1F
100
AcDbEntity
  8
AM_0
 48
0.5
100
AcDbLine
 10
23.99693107491003
 20
-77.2500648498535
 30
0.0
 11
23.99693107491004
 21
-57.245073394776
 31
0.0
  0
LINE
  5
9AB2
330
1F
100
AcDbEntity
  8
AM_0
 48
0.5
100
AcDbLine
 10
0.3620223987620077
 20
-59.04827499389701
 30
0.0
 11
8.049720763020046
 21
-70.02047765883609
 31
0.0
  0
LINE
  5
9AB3
330
1F
100
AcDbEntity
  8
AM_0
 48
0.5
100
AcDbLine
 10
11.97545623665297
 20
-72.2058708667755
 30
0.0
 11
17.63965225105704
 21
-60.04927921295162
 31
0.0
  0
DIMENSION
  5
9AB4
330
1F
100
AcDbEntity
  8
PV0001_1
100
AcDbDimension
  2
*D7
 10
-23.03681993363574
 20
-77.2500648498535
 30
0.0
 11
-23.03681993363572
 21
-67.25006233910638
 31
0.0
 70
   160
  1
<>
 71
     5
 42
19.99999999999949
  3
AM_JIS$0
100
AcDbAlignedDimension
 13
-0.0030670177420119
 23
-57.25006484985401
 33
0.0
 14
4.196933745198005
 24
-77.2500648498535
 34
0.0
 50
89.99999999999998
100
AcDbRotatedDimension
1001
ACAD
1000
DSTYLE
1002
{
1070
    45
1040
0.01
1070
   173
1070
     1
1070
   271
1070
     5
1070
     6
1000
OPEN30
1070
     7
1000
OPEN30
1002
}
  0
ELLIPSE
  5
9AB5
330
1F
100
AcDbEntity
  8
AM_0
 48
0.5
100
AcDbEllipse
 10
10.52563476448499
 20
-73.2113683223724
 30
0.0
 11
-0.0694732698009943
 21
0.1955261141554998
 31
0.0
210
0.0
220
0.0
230
0.9999999999999998
 40
0.0241193714493
 41
4.670612716417346
 42
4.679993827077046
  0
ELLIPSE
  5
9AB9
330
1F
100
AcDbEntity
  8
AM_0
 48
0.5
100
AcDbEllipse
 10
7.471427916340017
 20
-71.58636832237239
 30
0.0
 11
-2.735481134049996
 21
0.4582826328783003
 31
0.0
210
0.0
220
0.0
230
1.0
 40
0.5949995095991
 41
4.599815203064383
 42
4.610414254212662
  0
LINE
  5
9ABA
330
1F
100
AcDbEntity
  8
AM_0
 48
0.5
100
AcDbLine
 10
3.99692916756106
 20
-77.25006389617921
 30
0.0
 11
0.4969253528640233
 21
-73.75006008148192
 31
0.0
  0
ARC
  5
9ABB
330
1F
100
AcDbEntity
  8
AM_0
 48
0.5
100
AcDbCircle
 10
10.92073058968009
 20
-73.21457266807549
 30
0.0
 40
1.9999824762344
100
AcDbArc
 50
230.0323054539263
 51
5.068821267512104
  0
ARC
  5
9ABC
330
1F
100
AcDbEntity
  8
AM_0
 48
0.5
100
AcDbCircle
 10
10.74893188362607
 20
-73.0705602169037
 30
0.0
 40
2.000024318695099
100
AcDbArc
 50
233.248709835977
 51
5.068821267512104
  0
ARC
  5
9ABD
330
1F
100
AcDbEntity
  8
AM_0
 48
0.5
100
AcDbCircle
 10
7.987335203938014
 20
-72.0185582637787
 30
0.0
 40
1.9993273019791
100
AcDbArc
 50
19.56418553781226
 51
50.03230363269429
  0
ARC
  5
9ABE
330
1F
100
AcDbEntity
  8
AM_0
 48
0.5
100
AcDbCircle
 10
7.914733885578979
 20
-71.9577672481537
 30
0.0
 40
2.001813173294098
100
AcDbArc
 50
19.44781448228368
 51
47.9380583501383
  0
ARC
  5
9ABF
330
1F
100
AcDbEntity
  8
AM_0
 48
0.5
100
AcDbCircle
 10
10.92073058968009
 20
-73.21457266807549
 30
0.0
 40
1.998717188835098
100
AcDbArc
 50
185.0690745250845
 51
230.0323054539263
  0
ARC
  5
9AC0
330
1F
100
AcDbEntity
  8
AM_0
 48
0.5
100
AcDbCircle
 10
7.987335203938014
 20
-72.0185582637787
 30
0.0
 40
1.9999824762344
100
AcDbArc
 50
50.03230363269429
 51
88.21125109293374
  0
LINE
  5
9AC1
330
1F
100
AcDbEntity
  8
AM_0
 48
0.5
100
AcDbLine
 10
8.02053451424109
 20
-70.01357782445841
 30
0.0
 11
8.721935271077027
 21
-71.01468491554261
 31
0.0
  0
LINE
  5
9AC2
330
1F
100
AcDbEntity
  8
AM_0
 48
0.5
100
AcDbLine
 10
8.721920012288077
 20
-71.0146565437317
 30
0.0
 11
8.929821013264072
 21
-73.39115428924562
 31
0.0
  0
LINE
  5
9AC3
330
1F
100
AcDbEntity
  8
AM_0
 48
0.5
100
AcDbLine
 10
12.70384979134001
 20
-70.66146427392961
 30
0.0
 11
12.91174697761999
 21
-73.03796148300169
 31
0.0
  0
LINE
  5
9AC4
330
1F
100
AcDbEntity
  8
AM_0
 48
0.5
100
AcDbLine
 10
12.67562103157507
 20
-71.56036031246181
 30
0.0
 11
12.61912155037401
 21
-71.51306033134462
 31
0.0
  0
LINE
  5
9AC5
330
1F
100
AcDbEntity
  8
AM_0
 48
0.5
100
AcDbLine
 10
12.61913680916307
 20
-71.51304459571839
 30
0.0
 11
12.66323470955301
 21
-71.41834819316859
 31
0.0
  0
LINE
  5
9AC6
330
1F
100
AcDbEntity
  8
AM_0
 48
0.5
100
AcDbLine
 10
12.73994445686803
 20
-72.8939640522003
 30
0.0
 11
12.91174316292204
 21
-73.0379645824432
 31
0.0
  0
LINE
  5
9AC7
330
1F
100
AcDbEntity
  8
AM_0
 48
0.5
100
AcDbLine
 10
12.73991393929002
 20
-72.8939769268036
 30
0.0
 11
12.61911392097902
 21
-71.513081073761
 31
0.0
  0
LINE
  5
9AC8
330
1F
100
AcDbEntity
  8
AM_0
 48
0.5
100
AcDbLine
 10
12.67562484627199
 20
-71.5603553056717
 30
0.0
 11
12.63512039070604
 21
-71.09784591197961
 31
0.0
  0
LINE
  5
9AC9
330
1F
100
AcDbEntity
  8
AM_0
 48
0.5
100
AcDbLine
 10
12.63512039070604
 20
-71.09785819053652
 30
0.0
 11
12.66931915169203
 21
-70.88096421957011
 31
0.0
  0
LINE
  5
9ACA
330
1F
100
AcDbEntity
  8
AM_0
 48
0.5
100
AcDbLine
 10
12.66933441048097
 20
-70.88095957040782
 30
0.0
 11
12.70383453255106
 21
-70.66145592927931
 31
0.0
  0
LINE
  5
9ACB
330
1F
100
AcDbEntity
  8
AM_0
 48
0.5
100
AcDbLine
 10
10.53312301521696
 20
-73.2177717685699
 30
0.0
 11
11.97542190437803
 21
-72.205872297287
 31
0.0
  0
LINE
  5
9ACC
330
1F
100
AcDbEntity
  8
AM_0
 48
0.5
100
AcDbLine
 10
10.53314590340101
 20
-73.21777296066279
 30
0.0
 11
9.871238707355981
 21
-71.34906601905822
 31
0.0
  0
LINE
  5
9ACE
330
1F
100
AcDbEntity
  8
AM_0
 48
0.5
100
AcDbLine
 10
9.80231475716101
 20
-71.2912482023239
 30
0.0
 11
9.871215819172048
 21
-71.34905087947841
 31
0.0
  0
ELLIPSE
  5
9AD3
330
1F
100
AcDbEntity
  8
AM_0
 48
0.5
100
AcDbEllipse
 10
16.38496780281507
 20
-55.014017105103
 30
0.0
 11
-5.996624760795995
 21
-0.531938042450998
 31
0.0
210
0.0
220
0.0
230
0.9999999999999998
 40
0.0346704739286
 41
0.9600791996566998
 42
3.141553914901208
  0
ELLIPSE
  5
9AD4
330
1F
100
AcDbEntity
  8
AM_0
 48
0.5
100
AcDbEllipse
 10
15.84957504158507
 20
-48.893718719483
 30
0.0
 11
-5.996622860907996
 21
-0.531937873918997
 31
0.0
210
0.0
220
0.0
230
0.9999999999999998
 40
0.0346704552106
 41
1.5707117289401
 42
4.712389079991097
  0
ELLIPSE
  5
9AD5
330
1F
100
AcDbEntity
  8
AM_0
 48
0.5
100
AcDbEllipse
 10
19.33565902596008
 20
18.00007629394497
 30
0.0
 11
1.519392922946999
 21
1.196258513936001
 31
0.0
210
0.0
220
0.0
230
1.0
 40
0.9781168734497999
 41
5.032833708515478
 42
7.383304661297102
  0
ELLIPSE
  5
9AD6
330
1F
100
AcDbEntity
  8
AM_0
 48
0.5
100
AcDbEllipse
 10
19.33565902596008
 20
18.00007629394497
 30
0.0
 11
1.519392922946999
 21
1.196258513936001
 31
0.0
210
0.0
220
0.0
230
1.0
 40
0.9781168734497999
 41
1.100104761101456
 42
1.891246177154248
  0
SPLINE
  5
9AD7
330
1F
100
AcDbEntity
  8
AM_0
 48
0.5
100
AcDbSpline
210
0.0
220
0.0
230
1.0
 70
     8
 71
     3
 72
    11
 73
     7
 74
     5
 42
0.0000000001
 43
0.0000000001
 44
0.0000000001
 40
0.0
 40
0.0
 40
0.0
 40
0.0
 40
1.371915578288392
 40
2.743920379610035
 40
4.115785380302121
 40
5.487700958590616
 40
5.487700958590616
 40
5.487700958590616
 40
5.487700958590616
 10
11.42115783577407
 20
0.5051116943359944
 30
0.0
 10
11.03783804737693
 20
0.754498901426814
 30
0.0
 10
10.27117354123949
 20
1.253289534597001
 30
0.0
 10
9.121202184172354
 20
2.001456348638491
 30
0.0
 10
7.97113502605499
 20
2.749475895059774
 30
0.0
 10
7.204522354292119
 20
3.248260750814615
 30
0.0
 10
6.821208952716979
 20
3.497657775877996
 30
0.0
 11
11.42115783577407
 21
0.5051116943359944
 31
0.0
 11
10.27119827156508
 21
1.253273010252982
 31
0.0
 11
9.12114715462207
 21
2.001457214354999
 31
0.0
 11
7.971168516926076
 21
2.74949645996098
 31
0.0
 11
6.821208952716979
 21
3.497657775877996
 31
0.0
  0
SPLINE
  5
9AD8
330
1F
100
AcDbEntity
  8
AM_0
 48
0.5
100
AcDbSpline
210
0.0
220
0.0
230
1.0
 70
     8
 71
     3
 72
    11
 73
     7
 74
     5
 42
0.0000000001
 43
0.0000000001
 44
0.0000000001
 40
0.0
 40
0.0
 40
0.0
 40
0.0
 40
1.866172295855166
 40
3.60483358976855
 40
5.127393569551608
 40
6.345223500094022
 40
6.345223500094022
 40
6.345223500094022
 40
6.345223500094022
 10
16.01026916389907
 20
4.885780334471995
 30
0.0
 10
15.55120560739476
 20
4.465981736609187
 30
0.0
 10
14.66444518768386
 20
3.655068355312778
 30
0.0
 10
13.42113101169809
 20
2.482318679203288
 30
0.0
 10
12.34475709071836
 20
1.447428134314229
 30
0.0
 10
11.70532265271643
 20
0.7950352485557631
 30
0.0
 10
11.42115783577407
 20
0.5051116943359944
 30
0.0
 11
16.01026916389907
 21
4.885780334471995
 31
0.0
 11
14.63646697884002
 21
3.622741699217982
 31
0.0
 11
13.37074279671202
 21
2.430732727049999
 31
0.0
 11
12.27742767220007
 21
1.371086120604999
 31
0.0
 11
11.42115783577407
 21
0.5051116943359944
 31
0.0
  0
SPLINE
  5
9AD9
330
1F
100
AcDbEntity
  8
AM_0
 48
0.5
100
AcDbSpline
210
0.0
220
0.0
230
1.0
 70
     8
 71
     3
 72
    11
 73
     7
 74
     5
 42
0.0000000001
 43
0.0000000001
 44
0.0000000001
 40
0.0
 40
0.0
 40
0.0
 40
0.0
 40
1.270255311205038
 40
2.832454025997061
 40
4.597231153433429
 40
6.474631837844439
 40
6.474631837844439
 40
6.474631837844439
 40
6.474631837844439
 10
6.821208952716979
 20
3.497657775877996
 30
0.0
 10
6.913108384935876
 20
3.911034320849395
 30
0.0
 10
7.118028541127404
 20
4.832793945649726
 30
0.0
 10
7.52091789413456
 20
6.311728220497755
 30
0.0
 10
8.004120213374962
 20
7.977920884204579
 30
0.0
 10
8.3721929943281
 20
9.134904923792873
 30
0.0
 10
8.561920164876092
 20
9.731285095213976
 30
0.0
 11
6.821208952716979
 21
3.497657775877996
 31
0.0
 11
7.10561752205303
 21
4.735664367674999
 31
0.0
 11
7.50698470955303
 21
6.245422363280979
 31
0.0
 11
8.00068664436805
 21
7.939735412596974
 31
0.0
 11
8.561920164876092
 21
9.731285095213976
 31
0.0
  0
ELLIPSE
  5
9ADA
330
1F
100
AcDbEntity
  8
AM_0
 48
0.5
100
AcDbEllipse
 10
15.88896560554901
 20
12.85216522216798
 30
0.0
 11
4.798130075649
 21
3.777702545313998
 31
0.0
210
0.0
220
0.0
230
1.0
 40
0.9781385068769999
 41
6.281342957068267
 42
6.925808162937116
  0
ELLIPSE
  5
9ADB
330
1F
100
AcDbEntity
  8
AM_0
 48
0.5
100
AcDbEllipse
 10
17.14993286018802
 20
2.226242065428976
 30
0.0
 11
0.3960113525389985
 21
0.0
 31
0.0
210
0.0
220
0.0
230
1.0
 40
0.5050283204254002
 41
1.697607559014485
 42
1.699866926066035
  0
ELLIPSE
  5
9ADC
330
1F
100
AcDbEntity
  8
AM_0
 48
0.5
100
AcDbEllipse
 10
-74.50125885123798
 20
13.76094055175701
 30
0.0
 11
0.2825701114200021
 21
8.095070123968
 31
0.0
210
0.0
220
0.0
230
1.0
 40
0.0870987547957
 41
0.0
 42
0.8243057413839965
  0
ELLIPSE
  5
9ADD
330
1F
100
AcDbEntity
  8
AM_0
 48
0.5
100
AcDbEllipse
 10
-74.50125885123798
 20
13.76094055175701
 30
0.0
 11
0.2825701114200021
 21
8.095070123968
 31
0.0
210
0.0
220
0.0
230
1.0
 40
0.0870987547957
 41
5.903431192002011
 42
6.283185307179585
  0
ELLIPSE
  5
9ADE
330
1F
100
AcDbEntity
  8
AM_0
 48
0.5
100
AcDbEllipse
 10
-74.50126648062796
 20
13.76093292236301
 30
0.0
 11
0.2127989568100064
 21
6.096286543714995
 31
0.0
210
0.0
220
0.0
230
1.0
 40
0.0870981649897
 41
3.141591649862484
 42
3.323679718127509
  0
ELLIPSE
  5
9ADF
330
1F
100
AcDbEntity
  8
AM_0
 48
0.5
100
AcDbEllipse
 10
-74.50126648062796
 20
13.76093292236301
 30
0.0
 11
0.2127989568100064
 21
6.096286543714995
 31
0.0
210
0.0
220
0.0
230
1.0
 40
0.0870981649897
 41
1.152553891107737
 42
3.1415936573171
  0
ELLIPSE
  5
9AE0
330
1F
100
AcDbEntity
  8
AM_0
 48
0.5
100
AcDbEllipse
 10
-74.74596405142794
 20
17.91913604736301
 30
0.0
 11
0.0697708877699917
 21
1.998783112438004
 31
0.0
210
0.0
220
0.0
230
1.0
 40
0.0871005670189
 41
0.824297638050994
 42
2.554328208181638
  0
ELLIPSE
  5
9AE1
330
1F
100
AcDbEntity
  8
AM_0
 48
0.5
100
AcDbEllipse
 10
-68.42816162222793
 20
13.54893493652301
 30
0.0
 11
0.1395417755500015
 21
3.997566224875995
 31
0.0
210
0.0
220
0.0
230
0.9999999999999998
 40
0.0871006340741
 41
0.0
 42
3.141593657288646
  0
ELLIPSE
  5
9AE2
330
1F
100
AcDbEntity
  8
AM_0
 48
0.5
100
AcDbEllipse
 10
-68.42816162222793
 20
13.54893493652301
 30
0.0
 11
0.1395417755500015
 21
3.997566224875995
 31
0.0
210
0.0
220
0.0
230
0.9999999999999998
 40
0.0871006340741
 41
3.141591649890937
 42
6.283185307179585
  0
SPLINE
  5
9AE3
330
1F
100
AcDbEntity
  8
AM_0
 48
0.5
100
AcDbSpline
210
0.0
220
0.0
230
1.0
 70
     8
 71
     3
 72
    11
 73
     7
 74
     5
 42
0.0000000001
 43
0.0000000001
 44
0.0000000001
 40
0.0
 40
0.0
 40
0.0
 40
0.0
 40
1.894474214314657
 40
3.789759856627714
 40
5.682625649444362
 40
7.567669538105659
 40
7.567669538105659
 40
7.567669538105659
 40
7.567669538105659
 10
-72.65476989859796
 20
2.775535583496001
 30
0.0
 10
-72.16297947583912
 20
3.17683522973423
 30
0.0
 10
-71.1791879900734
 20
3.97960640407966
 30
0.0
 10
-70.11420389604952
 20
5.571574356251218
 30
0.0
 10
-69.36578016927352
 20
7.330735108896519
 30
0.0
 10
-69.22873521928463
 20
8.588937270095243
 30
0.0
 10
-69.16035461539802
 20
9.216735839843011
 30
0.0
 11
-72.65476989859796
 21
2.775535583496001
 31
0.0
 11
-71.24775695914802
 21
4.044136047363004
 31
0.0
 11
-70.16636657828795
 21
5.600639343261001
 31
0.0
 11
-69.4554595958579
 21
7.354934692382016
 31
0.0
 11
-69.16035461539802
 21
9.216735839843011
 31
0.0
  0
SPLINE
  5
9AE4
330
1F
100
AcDbEntity
  8
AM_0
 48
0.5
100
AcDbSpline
210
0.0
220
0.0
230
1.0
 70
     8
 71
     3
 72
    11
 73
     7
 74
     0
 42
0.0000000001
 43
0.0000000001
 40
0.0
 40
0.0
 40
0.0
 40
0.0
 40
0.5448718683067961
 40
1.08974630454379
 40
1.634522973750248
 40
2.179387679092334
 40
2.179387679092334
 40
2.179387679092334
 40
2.179387679092334
 10
-72.28796386832795
 20
0.6272354125970168
 30
0.0
 10
-72.31852638131629
 20
0.8062694714513725
 30
0.0
 10
-72.37965155133128
 20
1.164338432930883
 30
0.0
 10
-72.47134904071078
 20
1.701407587131626
 30
0.0
 10
-72.56307449532498
 20
2.238469543664983
 30
0.0
 10
-72.62420286992726
 20
2.596502475411831
 30
0.0
 10
-72.65476952660144
 20
2.775533404687578
 30
0.0
  0
SPLINE
  5
9AE5
330
1F
100
AcDbEntity
  8
AM_0
 48
0.5
100
AcDbSpline
210
0.0
220
0.0
230
1.0
 70
     8
 71
     3
 72
    11
 73
     7
 74
     5
 42
0.0000000001
 43
0.0000000001
 44
0.0000000001
 40
0.0
 40
0.0
 40
0.0
 40
0.0
 40
1.525464285347272
 40
3.118888369638586
 40
4.796125299200745
 40
6.560515566724771
 40
6.560515566724771
 40
6.560515566724771
 40
6.560515566724771
 10
-68.56645202749795
 20
5.738235473632009
 30
0.0
 10
-68.6587306399589
 20
5.234573409671043
 30
0.0
 10
-68.84739889914747
 20
4.204811016277183
 30
0.0
 10
-69.67153426517113
 20
2.805038785137348
 30
0.0
 10
-70.80672796308829
 20
1.547217490676409
 30
0.0
 10
-71.78595283342881
 20
0.9390298765791555
 30
0.0
 10
-72.28796386832795
 20
0.6272354125970168
 30
0.0
 11
-68.56645202749795
 21
5.738235473632009
 31
0.0
 11
-68.92636108511799
 21
4.255836486816001
 31
0.0
 11
-69.69876098746798
 21
2.862136840820014
 31
0.0
 11
-70.835357667148
 21
1.628738403320014
 31
0.0
 11
-72.28796386832795
 21
0.6272354125970168
 31
0.0
  0
ELLIPSE
  5
9AE6
330
1F
100
AcDbEntity
  8
AM_0
 48
0.5
100
AcDbEllipse
 10
-68.42816162222793
 20
13.54893493652301
 30
0.0
 11
0.1395417755500015
 21
3.997566224875995
 31
0.0
210
0.0
220
0.0
230
0.9999999999999998
 40
0.0871006340741
 41
3.141591649890937
 42
6.283185307179585
  0
ELLIPSE
  5
9AE7
330
1F
100
AcDbEntity
  8
AM_0
 48
0.5
100
AcDbEllipse
 10
-68.42816162222793
 20
13.54893493652301
 30
0.0
 11
0.1395417755500015
 21
3.997566224875995
 31
0.0
210
0.0
220
0.0
230
0.9999999999999998
 40
0.0871006340741
 41
0.0
 42
3.141593657288646
  0
ELLIPSE
  5
9AE8
330
1F
100
AcDbEntity
  8
AM_0
 48
0.5
100
AcDbEllipse
 10
-70.04376220816793
 20
19.23073577880801
 30
0.0
 11
0.401000940839992
 21
-1.915168819783004
 31
0.0
210
0.0
220
0.0
230
1.0
 40
0.0155366302402
 41
1.96702400571482
 42
3.141598280473183
  0
ELLIPSE
  5
9AE9
330
1F
100
AcDbEntity
  8
AM_0
 48
0.5
100
AcDbEllipse
 10
-68.42816162222793
 20
13.54894256591801
 30
0.0
 11
0.2093047836600036
 21
5.996349135233996
 31
0.0
210
0.0
220
0.0
230
1.0
 40
0.0870992998919
 41
4.053940751909703
 42
6.283185307179585
  0
ELLIPSE
  5
9AEA
330
1F
100
AcDbEntity
  8
AM_0
 48
0.5
100
AcDbEllipse
 10
-68.42816162222793
 20
13.54894256591801
 30
0.0
 11
0.2093047836600036
 21
5.996349135233996
 31
0.0
210
0.0
220
0.0
230
1.0
 40
0.0870992998919
 41
0.0
 42
1.432335067236313
  0
ELLIPSE
  5
9AEB
330
1F
100
AcDbEntity
  8
AM_0
 48
0.5
100
AcDbEllipse
 10
-78.479766846838
 20
0.2623367309570099
 30
0.0
 11
0.3267593525000052
 21
-0.0564270041210051
 31
0.0
210
0.0
220
0.0
230
1.0
 40
0.5931950862553002
 41
4.939353390277947
 42
6.5082318056795
  0
ELLIPSE
  5
9AEC
330
1F
100
AcDbEntity
  8
AM_0
 48
0.5
100
AcDbEllipse
 10
-78.479766846838
 20
0.2623367309570099
 30
0.0
 11
0.3267593525000052
 21
-0.0564270041210051
 31
0.0
210
0.0
220
0.0
230
1.0
 40
0.5931950862553002
 41
4.902562690786681
 42
4.939353390277947
  0
ELLIPSE
  5
9AED
330
1F
100
AcDbEntity
  8
AM_0
 48
0.5
100
AcDbEllipse
 10
-76.69086456412793
 20
0.1999359130860014
 30
0.0
 11
0.0048141393099997
 21
0.1999435452899973
 31
0.0
210
0.0
220
0.0
230
1.0
 40
0.1889959955663
 41
3.141592191025459
 42
4.704652102819383
  0
ELLIPSE
  5
9AEE
330
1F
100
AcDbEntity
  8
AM_0
 48
0.5
100
AcDbEllipse
 10
-76.65095520132803
 20
1.793937683105006
 30
0.0
 11
0.0055847221499903
 21
0.200325009791996
 31
0.0
210
0.0
220
0.0
230
1.0
 40
0.1885972674007
 41
4.730299911733933
 42
6.283185307179585
  0
ELLIPSE
  5
9AEF
330
1F
100
AcDbEntity
  8
AM_0
 48
0.5
100
AcDbEllipse
 10
-78.768463135898
 20
1.719337463378003
 30
0.0
 11
0.3235015841100051
 21
-0.0197219841389968
 31
0.0
210
0.0
220
0.0
230
1.0
 40
0.6124722013156
 41
1.725451071222035
 42
1.765452059423538
  0
ELLIPSE
  5
9AF0
330
1F
100
AcDbEntity
  8
AM_0
 48
0.5
100
AcDbEllipse
 10
-78.768463135898
 20
1.719337463378003
 30
0.0
 11
0.3235015841100051
 21
-0.0197219841389968
 31
0.0
210
0.0
220
0.0
230
1.0
 40
0.6124722013156
 41
0.1592661930190556
 42
1.725451071222035
  0
ELLIPSE
  5
9AF1
330
1F
100
AcDbEntity
  8
AM_0
 48
0.5
100
AcDbEllipse
 10
-75.7347641002579
 20
-20.346366882325
 30
0.0
 11
0.9086539603800007
 21
28.75174521923998
 31
0.0
210
0.0
220
0.0
230
1.0
 40
0.0695262331136
 41
0.6463164023203741
 42
0.6910371557022276
  0
ELLIPSE
  5
9AF2
330
1F
100
AcDbEntity
  8
AM_0
 48
0.5
100
AcDbEllipse
 10
-75.78466034048796
 20
-21.923263549805
 30
0.0
 11
0.9051888773599969
 21
28.64210261792198
 31
0.0
210
0.0
220
0.0
230
1.0
 40
0.0697923810693
 41
0.3617087521645587
 42
0.5423893252531396
  0
ELLIPSE
  5
9AF3
330
1F
100
AcDbEntity
  8
AM_0
 48
0.5
100
AcDbEllipse
 10
-75.09026336783796
 20
0.0366439819330111
 30
0.0
 11
1.999000540720004
 21
-0.0631828288370008
 31
0.0
210
0.0
220
0.0
230
1.0
 40
0.0376986080102
 41
2.12540117743404
 42
2.474390766679268
  0
ELLIPSE
  5
9AF4
330
1F
100
AcDbEntity
  8
AM_0
 48
0.5
100
AcDbEllipse
 10
-75.02935791128793
 20
1.960639953613004
 30
0.0
 11
2.00306695930999
 21
0.064327234912994
 31
0.0
210
0.0
220
0.0
230
1.0
 40
0.0378734451367
 41
3.790555420912013
 42
4.024912235793481
  0
ELLIPSE
  5
9AF5
330
1F
100
AcDbEntity
  8
AM_0
 48
0.5
100
AcDbEllipse
 10
-74.65785980337789
 20
13.71083831787101
 30
0.0
 11
2.714546260050003
 21
22.762916372862
 31
0.0
210
0.0
220
0.0
230
1.0
 40
0.0072888767864
 41
4.076794694231153
 42
4.268168895084441
  0
ELLIPSE
  5
9AF6
330
1F
100
AcDbEntity
  8
AM_0
 48
0.5
100
AcDbEllipse
 10
-75.00476074332794
 20
2.741638183593003
 30
0.0
 11
2.003067075160001
 21
0.0643310556509955
 31
0.0
210
0.0
220
0.0
230
1.0
 40
0.037871540902
 41
4.064728289769624
 42
4.169387143757426
  0
ELLIPSE
  5
9AF7
330
1F
100
AcDbEntity
  8
AM_0
 48
0.5
100
AcDbEllipse
 10
-74.93585968130791
 20
0.7983322143550069
 30
0.0
 11
0.0241622980699958
 21
0.1985359221149991
 31
0.0
210
0.0
220
0.0
230
1.0
 40
0.1675088892512
 41
3.247731377743658
 42
4.328337048301524
  0
ELLIPSE
  5
9AF8
330
1F
100
AcDbEntity
  8
AM_0
 48
0.5
100
AcDbEllipse
 10
0.2010345447579881
 20
-57.28786087036201
 30
0.0
 11
0.2041020982169117
 21
-0.0377933158638615
 31
0.0
210
0.0
220
0.0
230
1.0
 40
0.0230978715210586
 41
3.141017620416679
 42
3.141592653589792
  0
ELLIPSE
  5
9AF9
330
1F
100
AcDbEntity
  8
AM_0
 48
0.5
100
AcDbEllipse
 10
0.3575286853829878
 20
-59.076770782471
 30
0.0
 11
-0.2287445340409987
 21
0.3282622931880006
 31
0.0
210
0.0
220
0.0
230
1.0
 40
0.0499676735118
 41
4.765459022705893
 42
6.360549647120985
  0
ELLIPSE
  5
9AFA
330
1F
100
AcDbEntity
  8
AM_0
 48
0.5
100
AcDbEllipse
 10
17.533935545735
 20
-55.532863616944
 30
0.0
 11
0.4001312341749995
 21
0.0332107563769987
 31
0.0
210
0.0
220
0.0
230
0.9999999999999998
 40
0.0605360691529
 41
0.0765789298608831
 42
0.1678124630315751
  0
ELLIPSE
  5
9AFB
330
1F
100
AcDbEntity
  8
AM_0
 48
0.5
100
AcDbEllipse
 10
19.16133117561804
 20
-56.289867401123
 30
0.0
 11
0.1346731103429982
 21
0.157859801731
 31
0.0
210
0.0
220
0.0
230
1.0
 40
0.0471822680059
 41
4.712376030574143
 42
4.712690812475413
  0
ELLIPSE
  5
9AFC
330
1F
100
AcDbEntity
  8
AM_0
 48
0.5
100
AcDbEllipse
 10
17.533935545735
 20
-55.532863616944
 30
0.0
 11
0.4001312341749995
 21
0.0332107563769987
 31
0.0
210
0.0
220
0.0
230
0.9999999999999998
 40
0.0605360691529
 41
4.808497966446467
 42
6.359977230003893
  0
ELLIPSE
  5
9B00
330
1F
100
AcDbEntity
  8
AM_0
 48
0.5
100
AcDbEllipse
 10
2.006530760578982
 20
-55.254863739014
 30
0.0
 11
-1.593063538587001
 21
2.530265666253999
 31
0.0
210
0.0
220
0.0
230
1.0
 40
0.6246817031478999
 41
3.760017130970687
 42
3.953220623935353
  0
ELLIPSE
  5
9B01
330
1F
100
AcDbEntity
  8
AM_0
 48
0.5
100
AcDbEllipse
 10
18.88493347054003
 20
-58.66996383667002
 30
0.0
 11
1.001707971385002
 21
1.761375500866999
 31
0.0
210
0.0
220
0.0
230
1.0
 40
0.4442050242338001
 41
2.681269441355834
 42
2.691885823340433
  0
ELLIPSE
  5
9B04
330
1F
100
AcDbEntity
  8
AM_0
 48
0.5
100
AcDbEllipse
 10
19.06373596077407
 20
2.47524261474598
 30
0.0
 11
-0.0089559597569995
 21
0.2002029491510058
 31
0.0
210
0.0
220
0.0
230
1.0
 40
0.6711571691483002
 41
4.738221874269519
 42
6.344415815225677
  0
ELLIPSE
  5
9B06
330
1F
100
AcDbEntity
  8
AM_0
 48
0.5
100
AcDbEllipse
 10
17.53393554573501
 20
0.79833984375
 30
0.0
 11
-0.4001312206669996
 21
0.0074005055709991
 31
0.0
210
0.0
220
0.0
230
1.0
 40
0.4959771297881
 41
1.711964809957046
 42
3.283940175946151
  0
ELLIPSE
  5
9B07
330
1F
100
AcDbEntity
  8
AM_0
 48
0.5
100
AcDbEllipse
 10
19.16132926826907
 20
0.8836364746089842
 30
0.0
 11
-0.013671880267001
 21
0.199523925215999
 31
0.0
210
0.0
220
0.0
230
1.0
 40
0.6725172268218002
 41
3.135199831869109
 42
4.703078645955092
  0
ELLIPSE
  5
9B08
330
1F
100
AcDbEntity
  8
AM_0
 48
0.5
100
AcDbEllipse
 10
2.00653076057899
 20
13.71083831787099
 30
0.0
 11
-1.036514295439994
 21
22.762918016612
 31
0.0
210
0.0
220
0.0
230
1.0
 40
0.087424459208
 41
4.069173490714281
 42
4.262095348601161
  0
ELLIPSE
  5
9B0A
330
1F
100
AcDbEntity
  8
AM_0
 48
0.5
100
AcDbEllipse
 10
17.14993286018802
 20
2.226242065428976
 30
0.0
 11
0.3935699333840005
 21
0.0240783688630017
 31
0.0
210
0.0
220
0.0
230
1.0
 40
0.5036643166537002
 41
0.102717917728404
 42
1.704435624562406
  0
ELLIPSE
  5
9B0B
330
1F
100
AcDbEntity
  8
AM_0
 48
0.5
100
AcDbEllipse
 10
17.53393554573501
 20
0.79833984375
 30
0.0
 11
-0.4001312206669996
 21
0.0074005055709991
 31
0.0
210
0.0
220
0.0
230
1.0
 40
0.4959771297881
 41
1.675880219904569
 42
1.711964809957046
  0
ELLIPSE
  5
9B0C
330
1F
100
AcDbEntity
  8
AM_0
 48
0.5
100
AcDbEllipse
 10
2.52233123665298
 20
0.0366363525389844
 30
0.0
 11
1.998573292526997
 21
0.0753784203000119
 31
0.0
210
0.0
220
0.0
230
1.0
 40
0.0316007184586
 41
0.5576365724805741
 42
1.754204272783668
  0
ELLIPSE
  5
9B0D
330
1F
100
AcDbEntity
  8
AM_0
 48
0.5
100
AcDbEllipse
 10
2.449737547688023
 20
1.960647583007002
 30
0.0
 11
-2.004257131340998
 21
0.0761870052679973
 31
0.0
210
0.0
220
0.0
230
1.0
 40
0.0318611750204
 41
1.392338272356613
 42
2.444288205480483
  0
ELLIPSE
  5
9B0E
330
1F
100
AcDbEntity
  8
AM_0
 48
0.5
100
AcDbEllipse
 10
2.42033386116504
 20
2.741638183592996
 30
0.0
 11
1.712159115666311
 21
-0.0935591178964766
 31
0.0
210
0.0
220
0.0
230
1.0
 40
0.019357542266408
 41
-0.3557592296273682
 42
-0.1698237331897088
  0
ELLIPSE
  5
9B0F
330
1F
100
AcDbEntity
  8
AM_0
 48
0.5
100
AcDbEllipse
 10
20.16982650642802
 20
-19.60166931152402
 30
0.0
 11
-2.084025402674995
 21
28.69331508985
 31
0.0
210
0.0
220
0.0
230
1.0
 40
0.0602419312814
 41
0.6455107523339239
 42
0.6895099474877826
  0
ELLIPSE
  5
9B10
330
1F
100
AcDbEntity
  8
AM_0
 48
0.5
100
AcDbEllipse
 10
20.229335783772
 20
-21.17856597900402
 30
0.0
 11
-2.07892794997899
 21
28.58370461478399
 31
0.0
210
0.0
220
0.0
230
1.0
 40
0.0604798873302
 41
0.3765294128938776
 42
0.5408484341400004
  0
ELLIPSE
  5
9B11
330
1F
100
AcDbEntity
  8
AM_0
 48
0.5
100
AcDbEllipse
 10
18.88493347054003
 20
14.45543670654298
 30
0.0
 11
0.9496452246490093
 21
22.92734761510999
 31
0.0
210
0.0
220
0.0
230
1.0
 40
0.0368196261649
 41
1.980293262406426
 42
2.045192069569253
  0
ELLIPSE
  5
9B12
330
1F
100
AcDbEntity
  8
AM_0
 48
0.5
100
AcDbEllipse
 10
18.88493347054003
 20
14.45553588867096
 30
0.0
 11
0.9496438629000095
 21
22.92744693868201
 31
0.0
210
0.0
220
0.0
230
0.9999999999999998
 40
0.0368194800103
 41
2.04518909842335
 42
2.120722392315546
  0
LINE
  5
9B13
330
1F
100
AcDbEntity
  8
AM_0
 48
0.5
100
AcDbLine
 10
-96.65306091421797
 20
1.199935913086015
 30
0.0
 11
-80.06695556753793
 21
1.199935913086001
 31
0.0
  0
LINE
  5
9B14
330
1F
100
AcDbEntity
  8
AM_0
 48
0.5
100
AcDbLine
 10
-96.65306091421797
 20
0.8422927856440125
 30
0.0
 11
-80.097747803868
 21
0.3187332153320099
 31
0.0
  0
LINE
  5
9B15
330
1F
100
AcDbEntity
  8
AM_0
 48
0.5
100
AcDbLine
 10
-96.65306091421797
 20
11.99993896484301
 30
0.0
 11
-75.49906921499796
 21
11.99993896484301
 31
0.0
  0
LINE
  5
9B16
330
1F
100
AcDbEntity
  8
AM_0
 48
0.5
100
AcDbLine
 10
-84.93206787222794
 20
5.176734924316001
 30
0.0
 11
-75.74748230093796
 21
4.886337280273011
 31
0.0
  0
LINE
  5
9B17
330
1F
100
AcDbEntity
  8
AM_0
 48
0.5
100
AcDbLine
 10
-96.65306091421797
 20
24.99993896484301
 30
0.0
 11
-73.65306091421796
 21
24.99993896484301
 31
0.0
  0
LINE
  5
9B18
330
1F
100
AcDbEntity
  8
AM_0
 48
0.5
100
AcDbLine
 10
-76.21343994253793
 20
2.642333984375014
 30
0.0
 11
-84.00375366324798
 21
2.394432067871001
 31
0.0
  0
LINE
  5
9B19
330
1F
100
AcDbEntity
  8
AM_0
 48
0.5
100
AcDbLine
 10
-78.45127868765797
 20
0.0614318847650139
 30
0.0
 11
-86.21939087027802
 21
0.51233673095701
 31
0.0
  0
LINE
  5
9B1A
330
1F
100
AcDbEntity
  8
AM_0
 48
0.5
100
AcDbLine
 10
-78.81904602164802
 20
1.917533874511001
 30
0.0
 11
-83.83523559683798
 21
1.621536254882009
 31
0.0
  0
DIMENSION
  5
9B1B
330
1F
100
AcDbEntity
  8
PV0001_1
100
AcDbDimension
  2
*D8
 10
-96.65306091421797
 20
0.8422927856440125
 30
0.0
 11
-104.4366760265278
 21
0.5440902709960869
 31
0.0
 70
   162
  1
<>
 71
     5
 42
0.0316145620277775
  3
AM_JISORG-1P0$2
100
AcDb2LineAngularDimension
 13
-47.52224731559799
 23
-0.0000000000000142
 33
0.0
 14
-76.48161316031798
 24
0.0000000000000142
 34
0.0
 15
-87.88284301870801
 25
0.5649337768549856
 35
0.0
 16
-104.4390651187469
 26
0.3627345148665269
 36
0.0
1001
ACAD
1000
DSTYLE
1002
{
1070
   173
1070
     1
1070
   271
1070
     1
1070
   343
1005
59
1070
   344
1005
59
1002
}
  0
LINE
  5
9B1C
330
1F
100
AcDbEntity
  8
AM_0
 48
0.5
100
AcDbLine
 10
-96.65306091421797
 20
0.8422927856440125
 30
0.0
 11
-96.65306091421797
 21
24.99993896484301
 31
0.0
  0
LINE
  5
9B1E
330
1F
100
AcDbEntity
  8
AM_0
 48
0.5
100
AcDbLine
 10
-93.15306091421797
 20
0.7316055297850284
 30
0.0
 11
-93.15306091421795
 21
1.199935913086015
 31
0.0
  0
LINE
  5
9B1F
330
1F
100
AcDbEntity
  8
AM_0
 48
0.5
100
AcDbLine
 10
-84.49395752066793
 20
3.661041259764999
 30
0.0
 11
-84.06695556753792
 21
1.199943542480006
 31
0.0
  0
LINE
  5
9B20
330
1F
100
AcDbEntity
  8
AM_0
 48
0.5
100
AcDbLine
 10
-84.55697631949799
 20
4.163040161132009
 30
0.0
 11
-84.16827392691793
 21
2.384742736816001
 31
0.0
  0
LINE
  5
9B21
330
1F
100
AcDbEntity
  8
AM_0
 48
0.5
100
AcDbLine
 10
-84.89874267691794
 20
3.673835754393984
 30
0.0
 11
-84.49394226187795
 21
3.661041259764999
 31
0.0
  0
LINE
  5
9B22
330
1F
100
AcDbEntity
  8
AM_0
 48
0.5
100
AcDbLine
 10
-84.89875793570801
 20
3.673835754393984
 30
0.0
 11
-84.93205261343796
 21
5.176742553711001
 31
0.0
  0
LINE
  5
9B23
330
1F
100
AcDbEntity
  8
AM_0
 48
0.5
100
AcDbLine
 10
-84.89895629996798
 20
3.684638977050006
 30
0.0
 11
-84.49395752066793
 21
3.661041259764999
 31
0.0
  0
LINE
  5
9B24
330
1F
100
AcDbEntity
  8
AM_0
 48
0.5
100
AcDbLine
 10
-84.62506103628793
 20
5.167037963867009
 30
0.0
 11
-84.55696106070801
 21
4.163032531738004
 31
0.0
  0
LINE
  5
9B25
330
1F
100
AcDbEntity
  8
AM_0
 48
0.5
100
AcDbLine
 10
-84.91003418082794
 20
4.183540344238004
 30
0.0
 11
-84.55694580191794
 21
4.163040161132009
 31
0.0
  0
LINE
  5
9B26
330
1F
100
AcDbEntity
  8
AM_0
 48
0.5
100
AcDbLine
 10
-84.00375366324798
 20
2.394447326659999
 30
0.0
 11
-83.83525085562796
 21
1.621543884277016
 31
0.0
  0
LINE
  5
9B27
330
1F
100
AcDbEntity
  8
AM_0
 48
0.5
100
AcDbLine
 10
-84.00373840445801
 20
2.394439697264999
 30
0.0
 11
-84.16824340933798
 21
2.384735107421001
 31
0.0
  0
LINE
  5
9B28
330
1F
100
AcDbEntity
  8
AM_0
 48
0.5
100
AcDbLine
 10
23.14883041267803
 20
14.87677001953098
 30
0.0
 11
19.108249663167
 21
24.999938964843
 31
0.0
  0
LINE
  5
9B29
330
1F
100
AcDbEntity
  8
AM_0
 48
0.5
100
AcDbLine
 10
-74.38843536490792
 20
24.99993896484301
 30
0.0
 11
-75.49906921499796
 21
11.99993896484301
 31
0.0
  0
LINE
  5
9B2A
330
1F
100
AcDbEntity
  8
AM_0
 48
0.5
100
AcDbLine
 10
-73.65306091421796
 20
21.257934570312
 30
0.0
 11
-73.65306091421796
 21
24.99993896484301
 31
0.0
  0
LINE
  5
9B2B
330
1F
100
AcDbEntity
  8
AM_0
 48
0.5
100
AcDbLine
 10
23.14883232002701
 20
24.999938964843
 30
0.0
 11
23.14883232002701
 21
14.87673950195298
 31
0.0
  0
LINE
  5
9B2C
330
1F
100
AcDbEntity
  8
AM_0
 48
0.5
100
AcDbLine
 10
11.70248412971904
 20
24.999938964843
 30
0.0
 11
4.196933745198017
 21
11.99993133544897
 31
0.0
  0
LINE
  5
9B2D
330
1F
100
AcDbEntity
  8
AM_0
 48
0.5
100
AcDbLine
 10
23.99693107491005
 20
4.99494750976499
 30
0.0
 11
23.99693107491005
 21
24.999938964843
 31
0.0
  0
DIMENSION
  5
9B2E
330
1F
100
AcDbEntity
  8
PV0001_1
100
AcDbDimension
  2
*D9
 10
-29.55527381025097
 20
0.0000000000000084
 30
0.0
 11
-29.55527381025097
 21
12.49996948242099
 31
0.0
 70
   160
  1
<>
 71
     5
 42
24.999938964843
  3
AM_JIS$0
100
AcDbAlignedDimension
 13
11.70248412971904
 23
24.999938964843
 33
0.0
 14
0.1995925891920436
 24
0.0
 34
0.0
 50
89.99999999999998
100
AcDbRotatedDimension
1001
ACAD
1000
DSTYLE
1002
{
1070
    45
1040
0.01
1070
   173
1070
     1
1070
   271
1070
     5
1070
     6
1000
OPEN30
1070
     7
1000
OPEN30
1002
}
  0
LINE
  5
9B38
330
1F
100
AcDbEntity
  8
AM_0
 48
0.5
100
AcDbLine
 10
-75.49908447378793
 20
11.99993896484301
 30
0.0
 11
-75.74748230093796
 21
4.886337280273011
 31
0.0
  0
LINE
  5
9B39
330
1F
100
AcDbEntity
  8
AM_0
 48
0.5
100
AcDbLine
 10
-68.28808593863794
 20
12.46513366699202
 30
0.0
 11
-68.50108337515796
 21
11.24224090576101
 31
0.0
  0
LINE
  5
9B3A
330
1F
100
AcDbEntity
  8
AM_0
 48
0.5
100
AcDbLine
 10
-68.50106048697802
 20
11.24224090576101
 30
0.0
 11
-68.64126587027799
 21
12.32603454589801
 31
0.0
  0
LINE
  5
9B3B
330
1F
100
AcDbEntity
  8
AM_0
 48
0.5
100
AcDbLine
 10
-73.78028869742791
 20
6.404136657713991
 30
0.0
 11
-73.39678192251793
 21
14.551033020019
 31
0.0
  0
LINE
  5
9B3C
330
1F
100
AcDbEntity
  8
AM_0
 48
0.5
100
AcDbLine
 10
-69.16036987417799
 20
9.216728210449005
 30
0.0
 11
-68.91657257193791
 21
14.39463043212801
 31
0.0
  0
LINE
  5
9B3D
330
1F
100
AcDbEntity
  8
AM_0
 48
0.5
100
AcDbLine
 10
-73.78026580923794
 20
6.404121398925013
 30
0.0
 11
-75.34597015494789
 21
4.920516967773011
 31
0.0
  0
LINE
  5
9B3E
330
1F
100
AcDbEntity
  8
AM_0
 48
0.5
100
AcDbLine
 10
-80.06695556753793
 20
1.199935913086001
 30
0.0
 11
-80.09776306265797
 21
0.3187332153320099
 31
0.0
  0
LINE
  5
9B3F
330
1F
100
AcDbEntity
  8
AM_0
 48
0.5
100
AcDbLine
 10
-80.09777832144795
 20
0.3187484741210014
 30
0.0
 11
-80.01477050894795
 21
0.3514404296870097
 31
0.0
  0
LINE
  5
9B40
330
1F
100
AcDbEntity
  8
AM_0
 48
0.5
100
AcDbLine
 10
-80.06695556753793
 20
1.199935913086001
 30
0.0
 11
-79.99536132925793
 21
1.199935913086001
 31
0.0
  0
LINE
  5
9B41
330
1F
100
AcDbEntity
  8
AM_0
 48
0.5
100
AcDbLine
 10
-79.99536132925793
 20
1.199935913086001
 30
0.0
 11
-80.01477050894795
 21
0.3514328002930114
 31
0.0
  0
LINE
  5
9B42
330
1F
100
AcDbEntity
  8
AM_0
 48
0.5
100
AcDbLine
 10
-76.61308288687796
 20
1.795936584472016
 30
0.0
 11
-78.44717407339797
 21
1.731338500976008
 31
0.0
  0
LINE
  5
9B43
330
1F
100
AcDbEntity
  8
AM_0
 48
0.5
100
AcDbLine
 10
-76.61304473990792
 20
1.795936584472016
 30
0.0
 11
-76.65304565542801
 21
0.1980438232420098
 31
0.0
  0
LINE
  5
9B44
330
1F
100
AcDbEntity
  8
AM_0
 48
0.5
100
AcDbLine
 10
-78.15377807730801
 20
0.2504348754880041
 30
0.0
 11
-76.65306854361796
 21
0.1980285644530184
 31
0.0
  0
LINE
  5
9B45
330
1F
100
AcDbEntity
  8
AM_0
 48
0.5
100
AcDbLine
 10
-78.44718933218796
 20
1.731330871582009
 30
0.0
 11
-78.15379333609797
 21
0.2504348754880041
 31
0.0
  0
LINE
  5
9B46
330
1F
100
AcDbEntity
  8
AM_0
 48
0.5
100
AcDbLine
 10
-78.43896484488794
 20
0.0608367919920099
 30
0.0
 11
-76.69565582388798
 21
-0.0000686645510157
 31
0.0
  0
LINE
  5
9B47
330
1F
100
AcDbEntity
  8
AM_0
 48
0.5
100
AcDbLine
 10
-76.64572906607796
 20
1.994239807128003
 30
0.0
 11
-78.80685424917797
 21
1.918136596679005
 31
0.0
  0
LINE
  5
9B48
330
1F
100
AcDbEntity
  8
AM_0
 48
0.5
100
AcDbLine
 10
-75.74745178335792
 20
4.886344909668011
 30
0.0
 11
-75.74615478628793
 21
4.886840820312002
 31
0.0
  0
LINE
  5
9B49
330
1F
100
AcDbEntity
  8
AM_0
 48
0.5
100
AcDbLine
 10
-75.74617004507803
 20
4.886833190918004
 30
0.0
 11
-75.22827148550793
 21
5.090728759765013
 31
0.0
  0
LINE
  5
9B4A
330
1F
100
AcDbEntity
  8
AM_0
 48
0.5
100
AcDbLine
 10
-75.22825622671795
 20
5.090721130371001
 30
0.0
 11
-75.12233734244789
 21
5.132423400878003
 31
0.0
  0
LINE
  5
9B4B
330
1F
100
AcDbEntity
  8
AM_0
 48
0.5
100
AcDbLine
 10
-75.34595489615792
 20
4.920532226562009
 30
0.0
 11
-75.38935852164802
 21
3.998237609863004
 31
0.0
  0
LINE
  5
9B4C
330
1F
100
AcDbEntity
  8
AM_0
 48
0.5
100
AcDbLine
 10
-75.38938140982797
 20
3.998229980468003
 30
0.0
 11
-75.44238281363793
 21
2.872924804687009
 31
0.0
  0
LINE
  5
9B4D
330
1F
100
AcDbEntity
  8
AM_0
 48
0.5
100
AcDbLine
 10
-72.65476989859796
 20
2.775535583496001
 30
0.0
 11
-75.44236755484796
 21
2.872940063476008
 31
0.0
  0
LINE
  5
9B4E
330
1F
100
AcDbEntity
  8
AM_0
 48
0.5
100
AcDbLine
 10
-75.44237518423793
 20
2.872924804687009
 30
0.0
 11
-75.07557678335792
 21
0.7246246337889915
 31
0.0
  0
LINE
  5
9B4F
330
1F
100
AcDbEntity
  8
AM_0
 48
0.5
100
AcDbLine
 10
-72.28797912710793
 20
0.6272354125970168
 30
0.0
 11
-75.07556152457794
 21
0.7246322631830111
 31
0.0
  0
LINE
  5
9B50
330
1F
100
AcDbEntity
  8
AM_0
 48
0.5
100
AcDbLine
 10
-75.74614715689794
 20
4.886833190918004
 30
0.0
 11
-75.645835877598
 21
4.883735656738004
 31
0.0
  0
LINE
  5
9B51
330
1F
100
AcDbEntity
  8
AM_0
 48
0.5
100
AcDbLine
 10
-75.64586639517793
 20
4.883743286132009
 30
0.0
 11
-75.677459717928
 21
3.884933471679005
 31
0.0
  0
LINE
  5
9B52
330
1F
100
AcDbEntity
  8
AM_0
 48
0.5
100
AcDbLine
 10
-75.38936615103799
 20
3.998245239257009
 30
0.0
 11
-75.67745208853799
 21
3.884941101074005
 31
0.0
  0
LINE
  5
9B53
330
1F
100
AcDbEntity
  8
AM_0
 48
0.5
100
AcDbLine
 10
-75.64587402457793
 20
4.883735656738004
 30
0.0
 11
-75.19937133902799
 21
5.059432983398004
 31
0.0
  0
LINE
  5
9B54
330
1F
100
AcDbEntity
  8
AM_0
 48
0.5
100
AcDbLine
 10
-75.17215728873797
 20
5.085243225097016
 30
0.0
 11
-75.22824859732797
 21
5.090744018554005
 31
0.0
  0
LINE
  5
9B55
330
1F
100
AcDbEntity
  8
AM_0
 48
0.5
100
AcDbLine
 10
-75.25724792593796
 20
1.788444519043004
 30
0.0
 11
-75.38695526236795
 21
1.618934631347016
 31
0.0
  0
LINE
  5
9B56
330
1F
100
AcDbEntity
  8
AM_0
 48
0.5
100
AcDbLine
 10
-74.95687103384802
 20
0.6002426147460014
 30
0.0
 11
-76.14137268179793
 21
0.1339416503900139
 31
0.0
  0
LINE
  5
9B57
330
1F
100
AcDbEntity
  8
AM_0
 48
0.5
100
AcDbLine
 10
-75.329063416658
 20
2.209030151367009
 30
0.0
 11
-75.38696289175793
 21
1.618927001953018
 31
0.0
  0
LINE
  5
9B58
330
1F
100
AcDbEntity
  8
AM_0
 48
0.5
100
AcDbLine
 10
-73.89665222281796
 20
7.736236572265013
 30
0.0
 11
-73.94755554312796
 21
6.245643615722016
 31
0.0
  0
LINE
  5
9B59
330
1F
100
AcDbEntity
  8
AM_0
 48
0.5
100
AcDbLine
 10
-74.80644989126794
 20
7.767944335937016
 30
0.0
 11
-73.71785736197799
 21
7.729942321777016
 31
0.0
  0
LINE
  5
9B5A
330
1F
100
AcDbEntity
  8
AM_0
 48
0.5
100
AcDbLine
 10
-68.566482545078
 20
5.738227844238004
 30
0.0
 11
-69.16038513296796
 21
9.216720581054019
 31
0.0
  0
LINE
  5
9B5B
330
1F
100
AcDbEntity
  8
AM_0
 48
0.5
100
AcDbLine
 10
-68.56645202749795
 20
5.738235473632009
 30
0.0
 11
-68.14325714224792
 21
9.864936828613011
 31
0.0
  0
LINE
  5
9B5C
330
1F
100
AcDbEntity
  8
AM_0
 48
0.5
100
AcDbLine
 10
-68.91656494253793
 20
14.39464569091801
 30
0.0
 11
-73.39675140494789
 21
14.55104827880801
 31
0.0
  0
LINE
  5
9B5D
330
1F
100
AcDbEntity
  8
AM_0
 48
0.5
100
AcDbLine
 10
-70.17047882193792
 20
19.97292327880801
 30
0.0
 11
-74.71607208365792
 21
20.13162231445301
 31
0.0
  0
LINE
  5
9B5E
330
1F
100
AcDbEntity
  8
AM_0
 48
0.5
100
AcDbLine
 10
-70.444549561678
 20
21.14591217041
 30
0.0
 11
-74.50035095328797
 21
21.28751373291
 31
0.0
  0
LINE
  5
9B5F
330
1F
100
AcDbEntity
  8
AM_0
 48
0.5
100
AcDbLine
 10
-68.21877288931787
 20
19.545257568359
 30
0.0
 11
-74.76555633658795
 21
19.773857116699
 31
0.0
  0
LINE
  5
9B60
330
1F
100
AcDbEntity
  8
AM_0
 48
0.5
100
AcDbLine
 10
-68.35527038687795
 20
15.85552978515601
 30
0.0
 11
-68.21507263296796
 21
14.77172851562501
 31
0.0
  0
LINE
  5
9B61
330
1F
100
AcDbEntity
  8
AM_0
 48
0.5
100
AcDbLine
 10
-68.21504211539802
 20
14.77171325683601
 30
0.0
 11
-68.54205322378793
 21
14.78311157226501
 31
0.0
  0
LINE
  5
9B62
330
1F
100
AcDbEntity
  8
AM_0
 48
0.5
100
AcDbLine
 10
-68.21505737417798
 20
14.771743774414
 30
0.0
 11
-68.28805542105799
 21
12.46514129638601
 31
0.0
  0
LINE
  5
9B63
330
1F
100
AcDbEntity
  8
AM_0
 48
0.5
100
AcDbLine
 10
-68.28805542105799
 20
12.46513366699202
 30
0.0
 11
-68.63644409292799
 21
12.47723388671801
 31
0.0
  0
LINE
  5
9B64
330
1F
100
AcDbEntity
  8
AM_0
 48
0.5
100
AcDbLine
 10
-68.5682525646079
 20
14.63262939453101
 30
0.0
 11
-68.35525512808799
 21
15.85553741455001
 31
0.0
  0
LINE
  5
9B65
330
1F
100
AcDbEntity
  8
AM_0
 48
0.5
100
AcDbLine
 10
-68.56826019400789
 20
14.63263702392501
 30
0.0
 11
-68.64125824087789
 21
12.32603454589801
 31
0.0
  0
LINE
  5
9B66
330
1F
100
AcDbEntity
  8
AM_0
 48
0.5
100
AcDbLine
 10
-70.17047119253793
 20
19.97293090820301
 30
0.0
 11
-70.09217071646791
 21
19.61063385009701
 31
0.0
  0
ARC
  5
9B69
330
1F
100
AcDbEntity
  8
AM_0
 48
0.5
100
AcDbCircle
 10
19.40083122139406
 20
-59.10226821899501
 30
0.0
 40
1.997533798217799
100
AcDbArc
 50
139.5337296485133
 51
208.2669887758628
  0
LINE
  5
9B6A
330
1F
100
AcDbEntity
  8
AM_0
 48
0.5
100
AcDbLine
 10
13.74235916023706
 20
-53.938920974732
 30
0.0
 11
18.76214980965102
 21
-53.27301979065001
 31
0.0
  0
LINE
  5
9B6B
330
1F
100
AcDbEntity
  8
AM_0
 48
0.5
100
AcDbLine
 10
17.64250945930898
 20
-60.06205463409421
 30
0.0
 11
19.84851646309305
 21
-55.32744503021302
 31
0.0
  0
LINE
  5
9B6C
330
1F
100
AcDbEntity
  8
AM_0
 48
0.5
100
AcDbLine
 10
13.03824996834197
 20
-55.56023979187101
 30
0.0
 11
20.354530333333
 21
-54.91117382049601
 31
0.0
  0
LINE
  5
9B6D
330
1F
100
AcDbEntity
  8
AM_0
 48
0.5
100
AcDbLine
 10
19.16881561165297
 20
-56.29617023468101
 30
0.0
 11
17.57312011604704
 21
-55.55386829376302
 31
0.0
  0
LINE
  5
9B73
330
1F
100
AcDbEntity
  8
AM_0
 48
0.5
100
AcDbLine
 10
-0.0030675127231077
 20
-57.25006736060137
 30
0.0
 11
0.1282157886550407
 21
-58.750752449036
 31
0.0
  0
LINE
  5
9B74
330
1F
100
AcDbEntity
  8
AM_0
 48
0.5
100
AcDbLine
 10
0.496929167561063
 20
-60.69475650787352
 30
0.0
 11
1.432933806233051
 21
-60.61175632476801
 31
0.0
  0
LINE
  5
9B75
330
1F
100
AcDbEntity
  8
AM_0
 48
0.5
100
AcDbLine
 10
0.4969329822579876
 20
-60.66395950317382
 30
0.0
 11
0.4969329822579876
 21
-60.694766998291
 31
0.0
  0
LINE
  5
9B76
330
1F
100
AcDbEntity
  8
AM_0
 48
0.5
100
AcDbLine
 10
0.4969329822579876
 20
-60.66396141052242
 30
0.0
 11
1.315132139973058
 21
-60.5923633575439
 31
0.0
  0
LINE
  5
9B77
330
1F
100
AcDbEntity
  8
AM_0
 48
0.5
100
AcDbLine
 10
1.315132139973058
 20
-60.59237957000731
 30
0.0
 11
1.432929991536012
 21
-60.61177730560301
 31
0.0
  0
LINE
  5
9B79
330
1F
100
AcDbEntity
  8
AM_0
 48
0.5
100
AcDbLine
 10
0.1281982313814061
 20
-58.75037395632978
 30
0.0
 11
0.1282348621410277
 21
-58.75079059600901
 31
0.0
  0
LINE
  5
9B7C
330
1F
100
AcDbEntity
  8
AM_7
 48
0.5
100
AcDbLine
 10
9.960456847004081
 20
-57.27960968017601
 30
0.0
 11
9.960456847004079
 21
-67.27960991859432
 31
0.0
  0
CIRCLE
  5
9B7D
330
1F
100
AcDbEntity
  8
AM_0
 48
0.5
100
AcDbCircle
 10
9.960456847004081
 20
-62.27960968017571
 30
0.0
 40
4.0999999046326
  0
CIRCLE
  5
9B7E
330
1F
100
AcDbEntity
  8
AM_0
 48
0.5
100
AcDbCircle
 10
9.960456847004081
 20
-62.27960968017571
 30
0.0
 40
3.0
  0
CIRCLE
  5
9B7F
330
1F
100
AcDbEntity
  8
AM_0
 48
0.5
100
AcDbCircle
 10
9.960456847004081
 20
-62.27960968017571
 30
0.0
 40
3.5
  0
CIRCLE
  5
9B80
330
1F
100
AcDbEntity
  8
AM_0
 48
0.5
100
AcDbCircle
 10
9.960456847004081
 20
-62.27960968017571
 30
0.0
 40
1.9700000286102
  0
LINE
  5
9B83
330
1F
100
AcDbEntity
  8
AM_7
 48
0.5
100
AcDbLine
 10
4.960456847004079
 20
-62.27960968017571
 30
0.0
 11
14.96045684700408
 21
-62.27960968017571
 31
0.0
  0
LINE
  5
9B8E
330
1F
100
AcDbEntity
  8
AM_0
 48
0.5
100
AcDbLine
 10
15.83163452034404
 20
-48.68576812744201
 30
0.0
 11
8.561931608966974
 21
-49.330625534058
 31
0.0
  0
LINE
  5
9B8F
330
1F
100
AcDbEntity
  8
AM_0
 48
0.5
100
AcDbLine
 10
11.42117309456302
 20
-52.93762207031301
 30
0.0
 11
6.821228026203981
 21
-53.27175903320402
 31
0.0
  0
LINE
  5
9B90
330
1F
100
AcDbEntity
  8
AM_0
 48
0.5
100
AcDbLine
 10
7.065029143147
 20
-56.05935573577901
 30
0.0
 11
11.66507339363505
 21
-55.72522640228301
 31
0.0
  0
LINE
  5
9B91
330
1F
100
AcDbEntity
  8
AM_0
 48
0.5
100
AcDbLine
 10
17.57312011604704
 20
-55.55386257171701
 30
0.0
 11
4.221118925862072
 21
-56.73836421966601
 31
0.0
  0
ARC
  5
9B92
330
1F
100
AcDbEntity
  8
AM_0
 48
0.5
100
AcDbCircle
 10
11.27184295540297
 20
-52.88250923156801
 30
0.0
 40
4.467604637145998
100
AcDbArc
 50
127.3418283196653
 51
184.9983374435696
  0
LINE
  5
9B94
330
1F
100
AcDbEntity
  8
AM_0
 48
0.5
100
AcDbLine
 10
7.062019347004081
 20
-56.02494812011801
 30
0.0
 11
4.249626158527973
 21
-56.27447414398201
 31
0.0
  0
LINE
  5
9B95
330
1F
100
AcDbEntity
  8
AM_0
 48
0.5
100
AcDbLine
 10
4.211944578938015
 20
-56.242852210999
 30
0.0
 11
7.058982847980985
 21
-55.99023151397701
 31
0.0
  0
LINE
  5
9B9A
330
1F
100
AcDbEntity
  8
AM_0
 48
0.5
100
AcDbLine
 10
4.211952208333002
 20
-56.24286937713701
 30
0.0
 11
4.249641417317035
 21
-56.274458885193
 31
0.0
  0
LINE
  5
9B9B
330
1F
100
AcDbEntity
  8
AM_0
 48
0.5
100
AcDbLine
 10
6.821578978352079
 20
-53.27580833435099
 30
0.0
 11
7.065029143147
 21
-56.05935478210501
 31
0.0
  0
ARC
  5
9B9C
330
1F
100
AcDbEntity
  8
AM_0
 48
0.5
100
AcDbCircle
 10
16.47256469612608
 20
-54.30058097839399
 30
0.0
 40
5.232038021087599
100
AcDbArc
 50
95.06914351021695
 51
164.9000686787006
  0
LINE
  5
9B9D
330
1F
100
AcDbEntity
  8
AM_0
 48
0.5
100
AcDbLine
 10
12.92676544075408
 20
-55.557906150818
 30
0.0
 11
13.74235534554002
 21
-53.93891716003501
 31
0.0
  0
LINE
  5
9B9F
330
1F
100
AcDbEntity
  8
AM_0
 48
0.5
100
AcDbLine
 10
11.42117309456302
 20
-52.93762207031301
 30
0.0
 11
11.66507339363505
 21
-55.72522640228301
 31
0.0
  0
LINE
  5
9BA0
330
1F
100
AcDbEntity
  8
AM_0
 48
0.5
100
AcDbLine
 10
11.66505050545202
 20
-55.72522926330602
 30
0.0
 11
12.92675018196501
 21
-55.55792808532801
 31
0.0
  0
LINE
  5
9BA4
330
1F
100
AcDbEntity
  8
AM_0
 48
0.5
100
AcDbLine
 10
22.38159370308409
 20
-54.48208808899001
 30
0.0
 11
21.84619903450408
 21
-48.36178970337001
 31
0.0
  0
LINE
  5
9BA5
330
1F
100
AcDbEntity
  8
AM_0
 48
0.5
100
AcDbLine
 10
22.88531112556899
 20
-54.84589767456101
 30
0.0
 11
20.19454193001201
 21
-55.08458232879701
 31
0.0
  0
LINE
  5
9BA6
330
1F
100
AcDbEntity
  8
AM_0
 48
0.5
100
AcDbLine
 10
22.88620376472902
 20
-54.95000648498602
 30
0.0
 11
20.02474212532508
 21
-55.20385932922401
 31
0.0
  0
LINE
  5
9BA7
330
1F
100
AcDbEntity
  8
AM_0
 48
0.5
100
AcDbLine
 10
20.02474594002199
 20
-55.20384788513202
 30
0.0
 11
20.19454574471007
 21
-55.08454704284701
 31
0.0
  0
LINE
  5
9BA8
330
1F
100
AcDbEntity
  8
AM_0
 48
0.5
100
AcDbLine
 10
20.02474594002199
 20
-55.203894615174
 30
0.0
 11
19.84854125862607
 21
-55.32749652862602
 31
0.0
  0
LINE
  5
9BA9
330
1F
100
AcDbEntity
  8
AM_0
 48
0.5
100
AcDbLine
 10
20.10364723091601
 20
-55.00827503204401
 30
0.0
 11
19.84855461006605
 21
-55.32746887207101
 31
0.0
  0
LINE
  5
9BAA
330
1F
100
AcDbEntity
  8
AM_0
 48
0.5
100
AcDbLine
 10
20.19454383736098
 20
-55.08455562591601
 30
0.0
 11
20.10364723091601
 21
-55.008266448975
 31
0.0
  0
LINE
  5
9BAB
330
1F
100
AcDbEntity
  8
AM_0
 48
0.5
100
AcDbLine
 10
20.32910919075408
 20
-54.96585559845001
 30
0.0
 11
20.35450935249804
 21
-54.91114616394101
 31
0.0
  0
LINE
  5
9BAC
330
1F
100
AcDbEntity
  8
AM_0
 48
0.5
100
AcDbLine
 10
20.41102599983702
 20
-54.958552360535
 30
0.0
 11
20.35452842598402
 21
-54.91115570068401
 31
0.0
  0
LINE
  5
9BAD
330
1F
100
AcDbEntity
  8
AM_0
 48
0.5
100
AcDbLine
 10
20.41102409248805
 20
-54.95857334137001
 30
0.0
 11
20.14402198677505
 21
-54.98227405548099
 31
0.0
  0
LINE
  5
9BAE
330
1F
100
AcDbEntity
  8
AM_0
 48
0.5
100
AcDbLine
 10
20.14404678230704
 20
-54.982261657715
 30
0.0
 11
20.10363960152102
 21
-55.00826358795201
 31
0.0
  0
LINE
  5
9BAF
330
1F
100
AcDbEntity
  8
AM_0
 48
0.5
100
AcDbLine
 10
19.16883277779101
 20
-56.29616355896001
 30
0.0
 11
17.88113784676005
 21
-57.80586242675801
 31
0.0
  0
LINE
  5
9BB1
330
1F
100
AcDbEntity
  8
AM_0
 48
0.5
100
AcDbLine
 10
23.28517341499804
 20
-54.758784294129
 30
0.0
 11
22.88531112556899
 21
-54.84589767456101
 31
0.0
  0
LINE
  5
9BB2
330
1F
100
AcDbEntity
  8
AM_0
 48
0.5
100
AcDbLine
 10
23.99693107491004
 20
-57.245073394776
 30
0.0
 11
23.26271819954405
 21
-54.67498683929502
 31
0.0
  0
LINE
  5
9BB3
330
1F
100
AcDbEntity
  8
AM_0
 48
0.5
100
AcDbLine
 10
23.14881706123804
 20
-54.25006484985401
 30
0.0
 11
22.36129569893302
 21
-54.25006484985401
 31
0.0
  0
LINE
  5
9BB4
330
1F
100
AcDbEntity
  8
AM_0
 48
0.5
100
AcDbLine
 10
23.14882659798099
 20
-54.250099182129
 30
0.0
 11
23.26272582893801
 21
-54.67499446868901
 31
0.0
  0
CIRCLE
  5
9BB5
330
1F
100
AcDbEntity
  8
AM_0
 48
0.5
100
AcDbCircle
 10
15.85291671638908
 20
12.84473419189399
 30
0.0
 40
3.374989986419698
  0
ARC
  5
9BBA
330
1F
100
AcDbEntity
  8
AM_0
 48
0.5
100
AcDbCircle
 10
15.85291671638908
 20
12.84473419189399
 30
0.0
 40
5.993264675140399
100
AcDbArc
 50
312.0705989146332
 51
101.7588561795697
  0
ARC
  5
9BBB
330
1F
100
AcDbEntity
  8
AM_0
 48
0.5
100
AcDbCircle
 10
15.85291671638908
 20
12.84473419189399
 30
0.0
 40
3.999989986419698
100
AcDbArc
 50
281.7588511706139
 51
101.7588561795697
  0
ARC
  5
9BBC
330
1F
100
AcDbEntity
  8
AM_0
 48
0.5
100
AcDbCircle
 10
15.85291671638908
 20
12.84473419189399
 30
0.0
 40
3.999989986419698
100
AcDbArc
 50
281.7588511706139
 51
101.7588561795697
  0
ARC
  5
9BBD
330
1F
100
AcDbEntity
  8
AM_0
 48
0.5
100
AcDbCircle
 10
16.412967680745
 20
12.96124267578099
 30
0.0
 40
8.082375526428199
100
AcDbArc
 50
57.20650552553251
 51
101.7589859531627
  0
LINE
  5
9BBE
330
1F
100
AcDbEntity
  8
AM_0
 48
0.5
100
AcDbLine
 10
14.21086120491503
 20
2.959068298338983
 30
0.0
 11
20.28191184883604
 21
8.481849670409985
 31
0.0
  0
LINE
  5
9BBF
330
1F
100
AcDbEntity
  8
AM_0
 48
0.5
100
AcDbLine
 10
16.01026916389907
 20
4.885780334471995
 30
0.0
 11
19.86869239693107
 21
8.395797729491974
 31
0.0
  0
LINE
  5
9BC0
330
1F
100
AcDbEntity
  8
AM_0
 48
0.5
100
AcDbLine
 10
16.81381988411402
 20
5.326957702635979
 30
0.0
 11
20.35453987007605
 21
5.450553894042975
 31
0.0
  0
LINE
  5
9BC1
330
1F
100
AcDbEntity
  8
AM_0
 48
0.5
100
AcDbLine
 10
17.69993209724902
 20
4.016738891600979
 30
0.0
 11
20.14402961617003
 21
3.943038940428976
 31
0.0
  0
LINE
  5
9BC2
330
1F
100
AcDbEntity
  8
AM_0
 48
0.5
100
AcDbLine
 10
17.70033645515906
 20
4.034034729002982
 30
0.0
 11
20.41103553658007
 21
3.952331542967982
 31
0.0
  0
LINE
  5
9BC3
330
1F
100
AcDbEntity
  8
AM_0
 48
0.5
100
AcDbLine
 10
19.19793891792705
 20
2.486137390135979
 30
0.0
 11
17.54023742561804
 21
2.270439147948977
 31
0.0
  0
LINE
  5
9BC4
330
1F
100
AcDbEntity
  8
AM_0
 48
0.5
100
AcDbLine
 10
17.54022598152602
 20
2.270446777342996
 30
0.0
 11
17.93043136482703
 21
0.8191452026359797
 31
0.0
  0
LINE
  5
9BC5
330
1F
100
AcDbEntity
  8
AM_0
 48
0.5
100
AcDbLine
 10
19.047245024495
 20
2.674720764159992
 30
0.0
 11
17.08503723030509
 21
2.419425964354999
 31
0.0
  0
LINE
  5
9BC6
330
1F
100
AcDbEntity
  8
AM_0
 48
0.5
100
AcDbLine
 10
17.58691787605704
 20
0.600830078125
 30
0.0
 11
19.17352294807898
 21
0.6840286254879829
 31
0.0
  0
LINE
  5
9BC8
330
1F
100
AcDbEntity
  8
AM_0
 48
0.5
100
AcDbLine
 10
0.2056233788819816
 20
-0.0000123195687536
 30
0.0
 11
2.158130644612078
 21
0.0850143432609798
 31
0.0
  0
LINE
  5
9BC9
330
1F
100
AcDbEntity
  8
AM_0
 48
0.5
100
AcDbLine
 10
0.2039231216598687
 20
1.999890135210549
 30
0.0
 11
2.089237211995004
 21
1.917263980938024
 31
0.0
  0
LINE
  5
9BCA
330
1F
100
AcDbEntity
  8
AM_0
 48
0.5
100
AcDbLine
 10
-0.0063820452810169
 20
1.799665731071861
 30
0.0
 11
-0.0030774330859538
 21
0.1993853086469954
 31
0.0
  0
ARC
  5
9BCF
330
1F
100
AcDbEntity
  8
AM_0
 48
0.5
100
AcDbCircle
 10
15.85291671638908
 20
12.84473419189399
 30
0.0
 40
3.999989986419698
100
AcDbArc
 50
101.7588561795697
 51
281.7588543583398
  0
ARC
  5
9BD0
330
1F
100
AcDbEntity
  8
AM_0
 48
0.5
100
AcDbCircle
 10
15.85291671638908
 20
12.84473419189399
 30
0.0
 40
3.999989986419698
100
AcDbArc
 50
101.7588561795697
 51
281.7588543583398
  0
LINE
  5
9BD1
330
1F
100
AcDbEntity
  8
AM_0
 48
0.5
100
AcDbLine
 10
8.561912535480994
 20
9.731292724608991
 30
0.0
 11
10.16971206551005
 21
14.70556640624998
 31
0.0
  0
LINE
  5
9BD2
330
1F
100
AcDbEntity
  8
AM_0
 48
0.5
100
AcDbLine
 10
4.196929930501093
 20
11.999938964843
 30
0.0
 11
4.196929930501092
 21
4.886337280272996
 31
0.0
  0
LINE
  5
9BD3
330
1F
100
AcDbEntity
  8
AM_0
 48
0.5
100
AcDbLine
 10
16.01025771980704
 20
4.885765075682982
 30
0.0
 11
8.561916350178032
 21
9.731269836424999
 31
0.0
  0
LINE
  5
9BD4
330
1F
100
AcDbEntity
  8
AM_0
 48
0.5
100
AcDbLine
 10
17.57313537483702
 20
0.6002502441399927
 30
0.0
 11
4.220634459309002
 21
0.1339263916009798
 31
0.0
  0
LINE
  5
9BD5
330
1F
100
AcDbEntity
  8
AM_0
 48
0.5
100
AcDbLine
 10
4.211933134845999
 20
4.886825561522996
 30
0.0
 11
7.169452666095999
 21
4.99013519287098
 31
0.0
  0
LINE
  5
9BD6
330
1F
100
AcDbEntity
  8
AM_0
 48
0.5
100
AcDbLine
 10
6.926792143635061
 20
3.978408813476001
 30
0.0
 11
4.249633787922056
 21
3.884956359862997
 31
0.0
  0
LINE
  5
9BD7
330
1F
100
AcDbEntity
  8
AM_0
 48
0.5
100
AcDbLine
 10
4.21193694954406
 20
4.883720397948977
 30
0.0
 11
7.168636320881042
 21
4.986930847167997
 31
0.0
  0
LINE
  5
9BD8
330
1F
100
AcDbEntity
  8
AM_0
 48
0.5
100
AcDbLine
 10
4.196937559895054
 20
4.886337280272996
 30
0.0
 11
4.21193694954406
 21
4.886840820311995
 31
0.0
  0
LINE
  5
9BD9
330
1F
100
AcDbEntity
  8
AM_0
 48
0.5
100
AcDbLine
 10
4.196929930501092
 20
4.69554138183598
 30
0.0
 11
4.196929930501092
 21
4.886337280272996
 31
0.0
  0
LINE
  5
9BDA
330
1F
100
AcDbEntity
  8
AM_0
 48
0.5
100
AcDbLine
 10
4.211940764241099
 20
4.883735656737982
 30
0.0
 11
4.249641417317042
 21
3.884941101073977
 31
0.0
  0
LINE
  5
9BDB
330
1F
100
AcDbEntity
  8
AM_0
 48
0.5
100
AcDbLine
 10
2.089414559842864
 20
1.906557555996499
 30
0.0
 11
2.158130644612078
 21
0.0850524902339842
 31
0.0
  0
LINE
  5
9BDC
330
1F
100
AcDbEntity
  8
AM_0
 48
0.5
100
AcDbLine
 10
4.005527495198015
 20
2.394447326659992
 30
0.0
 11
3.98872756844009
 21
1.861137390135979
 31
0.0
  0
LINE
  5
9BDD
330
1F
100
AcDbEntity
  8
AM_0
 48
0.5
100
AcDbLine
 10
4.022842406087028
 20
2.642326354979999
 30
0.0
 11
4.00553893929004
 21
2.394424438475979
 31
0.0
  0
LINE
  5
9BDE
330
1F
100
AcDbEntity
  8
AM_0
 48
0.5
100
AcDbLine
 10
4.179828642659067
 20
4.163040161132002
 30
0.0
 11
4.131419165947272
 21
2.643063478322545
 31
0.0
  0
LINE
  5
9BDF
330
1F
100
AcDbEntity
  8
AM_0
 48
0.5
100
AcDbLine
 10
4.203025816730993
 20
4.886535644530979
 30
0.0
 11
4.179824827962028
 21
4.163040161132002
 31
0.0
  0
LINE
  5
9BE0
330
1F
100
AcDbEntity
  8
AM_0
 48
0.5
100
AcDbLine
 10
4.211929320149074
 20
4.886840820311995
 30
0.0
 11
4.211929320149074
 21
4.883728027342982
 31
0.0
  0
LINE
  5
9BE1
330
1F
100
AcDbEntity
  8
AM_0
 48
0.5
100
AcDbLine
 10
13.20418548470008
 20
1.946693420409992
 30
0.0
 11
14.21087264900603
 21
2.959060668944992
 31
0.0
  0
LINE
  5
9BE2
330
1F
100
AcDbEntity
  8
AM_0
 48
0.5
100
AcDbLine
 10
17.084022520833
 20
2.41933441162098
 30
0.0
 11
13.16156387215102
 21
1.903831481933003
 31
0.0
  0
LINE
  5
9BE3
330
1F
100
AcDbEntity
  8
AM_0
 48
0.5
100
AcDbLine
 10
11.42116165047099
 20
0.5051116943359944
 30
0.0
 11
11.67827606087206
 21
0.5586853027339842
 31
0.0
  0
LINE
  5
9BE4
330
1F
100
AcDbEntity
  8
AM_0
 48
0.5
100
AcDbLine
 10
11.67825317268802
 20
0.5586700439449928
 30
0.0
 11
13.20415878181899
 21
1.946685791014992
 31
0.0
  0
LINE
  5
9BE5
330
1F
100
AcDbEntity
  8
AM_0
 48
0.5
100
AcDbLine
 10
17.46582794075408
 20
3.244224548338983
 30
0.0
 11
14.03441238289298
 21
2.798553466795979
 31
0.0
  0
ARC
  5
9BE9
330
1F
100
AcDbEntity
  8
AM_0
 48
0.5
100
AcDbCircle
 10
15.85291671638908
 20
12.84473419189399
 30
0.0
 40
5.999985218048099
100
AcDbArc
 50
101.7588561795697
 51
161.8700328383468
  0
ARC
  5
9BEA
330
1F
100
AcDbEntity
  8
AM_0
 48
0.5
100
AcDbCircle
 10
12.90244293098902
 20
17.86260223388599
 30
0.0
 40
1.9984176158905
100
AcDbArc
 50
126.98108504846
 51
215.522534806631
  0
ARC
  5
9BEB
330
1F
100
AcDbEntity
  8
AM_0
 48
0.5
100
AcDbCircle
 10
12.74634170418204
 20
17.83010101318299
 30
0.0
 40
1.9984176158905
100
AcDbArc
 50
126.98108504846
 51
218.3848485217284
  0
ARC
  5
9BFD
330
1F
100
AcDbEntity
  8
AM_0
 48
0.5
100
AcDbCircle
 10
16.412967680745
 20
12.96124267578099
 30
0.0
 40
8.100014686584499
100
AcDbArc
 50
101.7589859531627
 51
126.982177878726
  0
ARC
  5
9BFE
330
1F
100
AcDbEntity
  8
AM_0
 48
0.5
100
AcDbCircle
 10
16.56908416634002
 20
12.9937210083
 30
0.0
 40
8.100029945373499
100
AcDbArc
 50
102.2594407438403
 51
126.982177878726
  0
LINE
  5
9BFF
330
1F
100
AcDbEntity
  8
AM_0
 48
0.5
100
AcDbLine
 10
11.70029830818606
 20
19.45900726318298
 30
0.0
 11
11.54418563728808
 21
19.42652130126896
 31
0.0
  0
ARC
  5
9C00
330
1F
100
AcDbEntity
  8
AM_0
 48
0.5
100
AcDbCircle
 10
16.49561309700408
 20
12.97844696044897
 30
0.0
 40
5.9960107803345
100
AcDbArc
 50
79.05777307673616
 51
101.7588561795697
  0
ARC
  5
9C01
330
1F
100
AcDbEntity
  8
AM_0
 48
0.5
100
AcDbCircle
 10
16.78023528938701
 20
13.037727355957
 30
0.0
 40
6.100021839141799
100
AcDbArc
 50
102.772968516591
 51
112.2139018741919
  0
ARC
  5
9C02
330
1F
100
AcDbEntity
  8
AM_0
 48
0.5
100
AcDbCircle
 10
16.56908416634002
 20
12.9937210083
 30
0.0
 40
6.0960984230042
100
AcDbArc
 50
79.19732067167446
 51
101.759026934304
  0
ARC
  5
9C03
330
1F
100
AcDbEntity
  8
AM_0
 48
0.5
100
AcDbCircle
 10
16.56908416634002
 20
12.9937210083
 30
0.0
 40
6.100019454956099
100
AcDbArc
 50
101.759026934304
 51
112.9553052482173
  0
LINE
  5
9C04
330
1F
100
AcDbEntity
  8
AM_0
 48
0.5
100
AcDbLine
 10
15.27286910896697
 20
18.85250854492096
 30
0.0
 11
14.630176543049
 21
18.718780517578
 31
0.0
  0
LINE
  5
9C05
330
1F
100
AcDbEntity
  8
AM_0
 48
0.5
100
AcDbLine
 10
17.74654006844009
 20
19.03392791747998
 30
0.0
 11
17.51551818733703
 21
18.68889617919896
 31
0.0
  0
ARC
  5
9C06
330
1F
100
AcDbEntity
  8
AM_0
 48
0.5
100
AcDbCircle
 10
16.49561309700408
 20
12.97844696044897
 30
0.0
 40
5.997186660766598
100
AcDbArc
 50
300.6615021514668
 51
38.72131229166608
  0
ARC
  5
9C07
330
1F
100
AcDbEntity
  8
AM_0
 48
0.5
100
AcDbCircle
 10
16.412967680745
 20
12.96124267578099
 30
0.0
 40
6.097828865051299
100
AcDbArc
 50
298.3035159443007
 51
38.04144209186869
  0
LINE
  5
9C08
330
1F
100
AcDbEntity
  8
AM_0
 48
0.5
100
AcDbLine
 10
23.14883613472404
 20
14.87672424316399
 30
0.0
 11
23.262733458333
 21
2.424827575682982
 31
0.0
  0
LINE
  5
9C09
330
1F
100
AcDbEntity
  8
AM_0
 48
0.5
100
AcDbLine
 10
22.87598609810307
 20
0.9813995361320024
 30
0.0
 11
20.19454383736098
 21
0.8878326416009798
 31
0.0
  0
LINE
  5
9C0A
330
1F
100
AcDbEntity
  8
AM_0
 48
0.5
100
AcDbLine
 10
20.02474212532508
 20
0.881813049315987
 30
0.0
 11
19.84853744392802
 21
0.8791198730459797
 31
0.0
  0
LINE
  5
9C0B
330
1F
100
AcDbEntity
  8
AM_0
 48
0.5
100
AcDbLine
 10
20.10363387947502
 20
3.298553466795979
 30
0.0
 11
19.84853553658007
 21
0.879150390625
 31
0.0
  0
LINE
  5
9C0C
330
1F
100
AcDbEntity
  8
AM_0
 48
0.5
100
AcDbLine
 10
20.194549559407
 20
0.8878326416009798
 30
0.0
 11
20.10364532356703
 21
3.298530578612997
 31
0.0
  0
LINE
  5
9C0D
330
1F
100
AcDbEntity
  8
AM_0
 48
0.5
100
AcDbLine
 10
20.02474212532508
 20
0.8818206787109801
 30
0.0
 11
20.19454193001202
 21
0.8878250122070028
 31
0.0
  0
LINE
  5
9C0E
330
1F
100
AcDbEntity
  8
AM_0
 48
0.5
100
AcDbLine
 10
20.14403533821503
 20
3.943023681639992
 30
0.0
 11
20.10363006477797
 21
3.298522949217996
 31
0.0
  0
LINE
  5
9C0F
330
1F
100
AcDbEntity
  8
AM_0
 48
0.5
100
AcDbLine
 10
20.41103744392803
 20
3.952354431151995
 30
0.0
 11
20.14403343086707
 21
3.943054199217996
 31
0.0
  0
LINE
  5
9C10
330
1F
100
AcDbEntity
  8
AM_0
 48
0.5
100
AcDbLine
 10
20.41103172188202
 20
3.952362060545993
 30
0.0
 11
20.35452842598403
 21
5.450561523436981
 31
0.0
  0
LINE
  5
9C11
330
1F
100
AcDbEntity
  8
AM_0
 48
0.5
100
AcDbLine
 10
19.29533195381606
 20
0.8958358764639839
 30
0.0
 11
19.84853172188201
 21
0.8791427612299997
 31
0.0
  0
LINE
  5
9C12
330
1F
100
AcDbEntity
  8
AM_0
 48
0.5
100
AcDbLine
 10
19.19792365913798
 20
2.486114501952997
 30
0.0
 11
19.29562568550506
 21
0.8907089233389839
 31
0.0
  0
LINE
  5
9C13
330
1F
100
AcDbEntity
  8
AM_0
 48
0.5
100
AcDbLine
 10
17.93043136482703
 20
0.8191146850579826
 30
0.0
 11
19.295629500203
 21
0.8907165527339842
 31
0.0
  0
LINE
  5
9C14
330
1F
100
AcDbEntity
  8
AM_0
 48
0.5
100
AcDbLine
 10
23.26272964363505
 20
2.424835205077982
 30
0.0
 11
22.88542747383606
 21
1.016647338866995
 31
0.0
  0
LINE
  5
9C15
330
1F
100
AcDbEntity
  8
AM_0
 48
0.5
100
AcDbLine
 10
23.99693107491005
 20
4.99494750976499
 30
0.0
 11
23.26272582893802
 21
2.424819946288984
 31
0.0
  0
LINE
  5
9C16
330
1F
100
AcDbEntity
  8
AM_0
 48
0.5
100
AcDbLine
 10
19.86868858223403
 20
8.395797729491974
 30
0.0
 11
20.28191184883604
 21
8.481849670409985
 31
0.0
  0
ARC
  5
9C17
330
1F
100
AcDbEntity
  8
AM_0
 48
0.5
100
AcDbCircle
 10
19.79220008736098
 20
18.095138549804
 30
0.0
 40
1.895782828330999
100
AcDbArc
 50
326.9553842860321
 51
101.7571759530358
  0
ARC
  5
9C18
330
1F
100
AcDbEntity
  8
AM_0
 48
0.5
100
AcDbCircle
 10
19.70964813118399
 20
18.07791900634697
 30
0.0
 40
1.9954708814621
100
AcDbArc
 50
326.9529698141648
 51
57.20742760107338
  0
LINE
  5
9C19
330
1F
100
AcDbEntity
  8
AM_0
 48
0.5
100
AcDbLine
 10
21.16043853645801
 20
16.71852111816396
 30
0.0
 11
20.69376182442108
 21
16.62128448486298
 31
0.0
  0
LINE
  5
9C1A
330
1F
100
AcDbEntity
  8
AM_0
 48
0.5
100
AcDbLine
 10
21.38133811836707
 20
17.06137084960898
 30
0.0
 11
21.1604518878981
 21
16.71852111816396
 31
0.0
  0
LINE
  5
9C1B
330
1F
100
AcDbEntity
  8
AM_0
 48
0.5
100
AcDbLine
 10
20.92468833809307
 20
16.96631622314396
 30
0.0
 11
21.38133239632105
 21
17.06136322021398
 31
0.0
  0
LINE
  5
9C1C
330
1F
100
AcDbEntity
  8
AM_0
 48
0.5
100
AcDbLine
 10
20.69376563911903
 20
16.62128448486298
 30
0.0
 11
20.92469215279102
 21
16.96632385253896
 31
0.0
  0
LINE
  5
9C1D
330
1F
100
AcDbEntity
  8
AM_0
 48
0.5
100
AcDbLine
 10
21.20014190559807
 20
16.70695495605398
 30
0.0
 11
21.38230705147209
 21
16.98972320556596
 31
0.0
  0
ARC
  5
9C1E
330
1F
100
AcDbEntity
  8
AM_0
 48
0.5
100
AcDbCircle
 10
19.86566924934806
 20
18.11041259765598
 30
0.0
 40
1.998677372932399
100
AcDbArc
 50
79.04534896263481
 51
101.7588561795697
  0
ARC
  5
9C1F
330
1F
100
AcDbEntity
  8
AM_0
 48
0.5
100
AcDbCircle
 10
19.86566924934806
 20
18.11041259765598
 30
0.0
 40
1.999994993209798
100
AcDbArc
 50
101.7588561795697
 51
120.2503297723872
  0
ARC
  5
9C20
330
1F
100
AcDbEntity
  8
AM_0
 48
0.5
100
AcDbCircle
 10
20.07691192512909
 20
18.154403686523
 30
0.0
 40
1.999978184699999
100
AcDbArc
 50
104.8569821757623
 51
119.8800652174753
  0
LINE
  5
9C21
330
1F
100
AcDbEntity
  8
AM_0
 48
0.5
100
AcDbLine
 10
19.40504455452407
 20
19.95533752441396
 30
0.0
 11
18.98168945198501
 21
19.86711120605396
 31
0.0
  0
LINE
  5
9C22
330
1F
100
AcDbEntity
  8
AM_0
 48
0.5
100
AcDbLine
 10
124.996932982257
 20
-77.25006484985353
 30
0.0
 11
124.996932982257
 21
-57.24507339477604
 31
0.0
  0
LINE
  5
9C24
330
1F
100
AcDbEntity
  8
AM_0
 48
0.5
100
AcDbLine
 10
124.9969329822571
 20
24.99993896484296
 30
0.0
 11
124.9969329822571
 21
4.994947509764962
 31
0.0
  0
DIMENSION
  5
9DA3
330
1F
100
AcDbEntity
  8
AM_5
100
AcDbDimension
  2
*D10
 10
142.096178165699
 20
24.99993896484295
 30
0.0
 11
138.695804149951
 21
14.99744323730397
 31
0.0
 70
    32
 71
     5
 42
20.00499145507799
  3
AM_JIS$0
100
AcDbAlignedDimension
 13
124.9969329822571
 23
4.994947509764962
 33
0.0
 14
124.9969329822571
 24
24.99993896484296
 34
0.0
 50
89.99999999999998
100
AcDbRotatedDimension
  0
DIMENSION
  5
9DB0
330
1F
100
AcDbEntity
  8
AM_5
100
AcDbDimension
  2
*D11
 10
145.3137769346628
 20
-57.24507339477605
 30
0.0
 11
141.9134029189148
 21
-67.24756912231477
 31
0.0
 70
    32
 71
     5
 42
20.00499145507749
  3
AM_JIS$0
100
AcDbAlignedDimension
 13
124.996932982257
 23
-77.25006484985353
 33
0.0
 14
124.996932982257
 24
-57.24507339477604
 34
0.0
 50
89.99999999999998
100
AcDbRotatedDimension
  0
DIMENSION
  5
9E74
330
1F
100
AcDbEntity
  8
AM_5
100
AcDbDimension
  2
*D12
 10
124.996932982257
 20
-57.41507339477604
 30
0.0
 11
46.89499121214665
 21
-53.46427334667479
 31
0.0
 70
   162
 71
     5
 42
0.0901649494518924
  3
AM_JIS$2
100
AcDb2LineAngularDimension
 13
17.57312011604704
 23
-55.55386257171701
 33
0.0
 14
4.221118925862072
 24
-56.73836421966601
 34
0.0
 15
23.99693107491004
 25
-57.245073394776
 35
0.0
 16
40.9550031204156
 26
-56.01185738368861
 36
0.0
1001
ACAD
1000
DSTYLE
1002
{
1070
   287
1070
     4
1070
   271
1070
     0
1070
   279
1070
     1
1002
}
  0
DIMENSION
  5
9F1E
330
1F
100
AcDbEntity
  8
AM_5
100
AcDbDimension
  2
*D13
 10
124.9969329822571
 20
5.164947509764964
 30
0.0
 11
38.70196638117823
 21
-2.311584810170578
 31
0.0
 70
   162
 71
     5
 42
0.0332267279890477
  3
AM_JIS$2
100
AcDb2LineAngularDimension
 13
17.57313537483702
 23
0.6002502441399927
 33
0.0
 14
4.220634459309002
 24
0.1339263916009798
 34
0.0
 15
23.99693107491005
 25
4.99494750976499
 35
0.0
 16
38.45615209908705
 26
3.789828263706498
 36
0.0
1001
ACAD
1000
DSTYLE
1002
{
1070
   271
1070
     0
1002
}
  0
ARC
  5
A020
330
1F
100
AcDbEntity
  8
AM_0
  6
Continuous
 48
0.5
100
AcDbCircle
 10
18.80571746712195
 20
-53.771116256715
 30
0.0
 40
0.5000000000000026
100
AcDbArc
 50
5.000130055030487
 51
94.99994686373835
  0
LINE
  5
A021
330
1F
100
AcDbEntity
  8
AM_0
100
AcDbLine
 10
19.30381471724962
 20
-53.72753725471584
 30
0.0
 11
19.31977281441229
 21
-53.90993918244632
 31
0.0
  0
LINE
  5
A022
330
1F
100
AcDbEntity
  8
AM_0
100
AcDbLine
 10
19.31977281441229
 20
-53.90993918244632
 30
0.0
 11
19.43058357417902
 21
-54.92468282355814
 31
0.0
  0
LINE
  5
A038
330
1F
100
AcDbEntity
  8
AM_0
100
AcDbLine
 10
124.996932982257
 20
-57.41507339477604
 30
0.0
 11
23.99693107491004
 21
-57.41507339477603
 31
0.0
  0
ARC
  5
A070
330
1F
100
AcDbEntity
  8
AM_0
 48
0.5
100
AcDbCircle
 10
0.1969221404843617
 20
0.1997983119060294
 30
0.0
 40
0.2
100
AcDbArc
 50
180.1183168024283
 51
272.4935082199158
  0
ARC
  5
A071
330
1F
100
AcDbEntity
  8
AM_0
 48
0.5
100
AcDbCircle
 10
0.1951662872084807
 20
1.800081932550121
 30
0.0
 40
0.2
100
AcDbArc
 50
87.49054949235484
 51
180.1183168024283
  0
DIMENSION
  5
A0E6
330
1F
100
AcDbEntity
  8
AM_5
100
AcDbDimension
  2
*D14
 10
-16.28449018774777
 20
0.0000000000000019
 30
0.0
 11
-16.28449018774777
 21
9.422416841782
 31
0.0
 70
   160
 71
     5
 42
2.000056605561527
  3
AM_JIS$0
100
AcDbAlignedDimension
 13
0.1919834969260755
 23
2.000056605561525
 33
0.0
 14
-9.412424746767314
 24
0.0
 34
0.0
 50
270.0
100
AcDbRotatedDimension
  0
DIMENSION
  5
A164
330
1F
100
AcDbEntity
  8
AM_5
100
AcDbDimension
  2
*D15
 10
2.157765262938745
 20
-57.64806789546229
 30
0.0
 11
-23.6720071891378
 21
-44.13994738898693
 31
0.0
 70
    34
 71
     5
 42
0.1821481658434214
  3
AM_JIS$2
100
AcDb2LineAngularDimension
 13
-24.06886631406357
 23
-57.25006233910665
 33
0.0
 14
-30.42365918179202
 24
-57.25006233910665
 34
0.0
 15
-0.0030670177420088
 25
-57.25006484985401
 35
0.0
 16
-22.994376733074
 26
-55.85240365151147
 36
0.0
1001
ACAD
1000
DSTYLE
1002
{
1070
   271
1070
     0
1070
     7
1000
NONE
1070
     5
1000

1070
   173
1070
     1
1070
     6
1000
OPEN30
1002
}
  0
ARC
  5
A165
330
1F
100
AcDbEntity
  8
AM_0
 48
0.5
100
AcDbCircle
 10
2.521965854979762
 20
-55.68207306056229
 30
0.0
 40
1.9994493722916
100
AcDbArc
 50
259.5049747036922
 51
328.2536427378056
  0
LINE
  5
A166
330
1F
100
AcDbEntity
  8
AM_0
 48
0.5
100
AcDbLine
 10
-0.0030670177420088
 20
-57.25006484985401
 30
0.0
 11
2.157765262938745
 21
-57.64806789546229
 31
0.0
  0
ENDSEC
  0
SECTION
  2
OBJECTS
  0
DICTIONARY
  5
C
330
0
100
AcDbDictionary
281
     1
  3
ACAD_COLOR
350
A235
  3
ACAD_GROUP
350
D
  3
ACAD_LAYOUT
350
1A
  3
ACAD_MATERIAL
350
A234
  3
ACAD_MLINESTYLE
350
17
  3
ACAD_PLOTSETTINGS
350
19
  3
ACAD_PLOTSTYLENAME
350
E
  3
ACAD_TABLESTYLE
350
A236
  3
ACDBHEADERROUNDTRIPXREC
350
A3B4
  3
ACDBVARIABLEDICTIONARY
350
30
  3
ACMDICTIONARY
350
4D
  3
AMG
350
3F
  3
AMGSNAPSETTINGS
350
73
  3
DWGPROPS
350
A3B3
  3
ENG_DATA
350
21C6
  3
FILENAME
350
21C9
  3
HOLD_DIC_DATA
350
21C4
  3
TABLE_DIC_DATA
350
1C0B
  3
ZWKSIZE
350
21CB
  0
DICTIONARY
  5
165
330
1F
100
AcDbDictionary
280
     1
281
     1
  3
ACAD_INDEX
360
A1AF
  3
ACAD_LAYOUTSELFREF
360
A1E0
  0
DICTIONARY
  5
A1DE
330
1B
100
AcDbDictionary
280
     1
281
     1
  3
ACAD_LAYOUTSELFREF
360
A1DF
  0
DICTIONARY
  5
A235
102
{ACAD_REACTORS
330
C
102
}
330
C
100
AcDbDictionary
281
     1
  0
DICTIONARY
  5
D
102
{ACAD_REACTORS
330
C
102
}
330
C
100
AcDbDictionary
281
     1
  3
*A1
350
7C0D
  3
*A2
350
7C0E
  3
*A3
350
7FE3
  3
*A4
350
8E0E
  3
*A5
350
96D0
  0
DICTIONARY
  5
1A
102
{ACAD_REACTORS
330
C
102
}
330
C
100
AcDbDictionary
281
     1
  3
Model
350
A238
  3
レイアウト1
350
A239
  0
DICTIONARY
  5
A234
102
{ACAD_REACTORS
330
C
102
}
330
C
100
AcDbDictionary
281
     1
  0
DICTIONARY
  5
17
102
{ACAD_REACTORS
330
C
102
}
330
C
100
AcDbDictionary
281
     1
  3
STANDARD
350
18
  0
DICTIONARY
  5
19
102
{ACAD_REACTORS
330
C
102
}
330
C
100
AcDbDictionary
281
     1
  0
ACDBDICTIONARYWDFLT
  5
E
102
{ACAD_REACTORS
330
C
102
}
330
C
100
AcDbDictionary
281
     1
  3
Normal
350
F
100
AcDbDictionaryWithDefault
340
F
  0
DICTIONARY
  5
A236
102
{ACAD_REACTORS
330
C
102
}
330
C
100
AcDbDictionary
281
     1
  3
Standard
350
A237
  0
DICTIONARY
  5
A3B4
102
{ACAD_REACTORS
330
C
102
}
330
C
100
AcDbDictionary
281
     1
  0
DICTIONARY
  5
30
102
{ACAD_REACTORS
330
C
102
}
330
C
100
AcDbDictionary
281
     1
  3
CTABLESTYLE
350
A3AF
  3
DIMASSOC
350
A3B0
  3
INDEXCTL
350
31
  3
PROJECTNAME
350
A3B1
  3
SORTENTS
350
42BE
  0
DICTIONARY
  5
4D
102
{ACAD_REACTORS
330
C
102
}
330
C
100
AcDbDictionary
281
     1
  3
ACMSTDDICTIONARY
350
17E
  3
AMDTSECTSYM_ARROWCOLOR
350
A2B1
  0
DICTIONARY
  5
3F
102
{ACAD_REACTORS
330
C
102
}
330
C
100
AcDbDictionary
281
     1
  0
DICTIONARY
  5
73
102
{ACAD_REACTORS
330
C
102
}
330
C
100
AcDbDictionary
281
     1
  0
XRECORD
  5
A3B3
102
{ACAD_REACTORS
330
C
102
}
330
C
100
AcDbXrecord
280
     1
  1
DWGPROPS COOKIE
  2

  3

  4

  6

  7

  8

  9

300
AmdtFileType=82
301
=
302
=
303
=
304
=
305
=
306
=
307
=
308
=
309
=
 40
0.7637169212962963
 41
2451943.610431666
 42
2455603.415782327
  1

 90
        1
  0
DICTIONARY
  5
21C6
102
{ACAD_REACTORS
330
C
102
}
330
C
100
AcDbDictionary
281
     1
  3
ENG_ID
350
21C7
  0
DICTIONARY
  5
21C9
102
{ACAD_REACTORS
330
C
102
}
330
C
100
AcDbDictionary
281
     1
  3
FILENAME
350
21CA
  0
DICTIONARY
  5
21C4
102
{ACAD_REACTORS
330
C
102
}
330
C
100
AcDbDictionary
281
     1
  3
HOLD_DATA
350
21C5
  0
DICTIONARY
  5
1C0B
102
{ACAD_REACTORS
330
C
102
}
330
C
100
AcDbDictionary
281
     1
  3
INPUT_DATA
350
1C0D
  3
TABLE_DATA
350
1C0C
  0
DICTIONARY
  5
21CB
102
{ACAD_REACTORS
330
C
102
}
330
C
100
AcDbDictionary
281
     1
  3
ZWKSIZE
350
21CC
  0
DICTIONARY
  5
A1AF
102
{ACAD_REACTORS
330
165
102
}
330
165
100
AcDbDictionary
281
     1
  3
*A1
350
A1B0
  0
XRECORD
  5
A1E0
102
{ACAD_REACTORS
330
165
102
}
330
165
100
AcDbXrecord
280
     1
340
1F
  0
XRECORD
  5
A1DF
102
{ACAD_REACTORS
330
A1DE
102
}
330
A1DE
100
AcDbXrecord
280
     1
340
1B
  0
GROUP
  5
7C0D
102
{ACAD_REACTORS
330
D
102
}
330
D
100
AcDbGroup
300

 70
     1
 71
     1
  0
GROUP
  5
7C0E
102
{ACAD_REACTORS
330
D
102
}
330
D
100
AcDbGroup
300

 70
     1
 71
     1
  0
GROUP
  5
7FE3
102
{ACAD_REACTORS
330
D
102
}
330
D
100
AcDbGroup
300

 70
     1
 71
     1
  0
GROUP
  5
8E0E
102
{ACAD_REACTORS
330
D
102
}
330
D
100
AcDbGroup
300

 70
     1
 71
     1
  0
GROUP
  5
96D0
102
{ACAD_REACTORS
330
D
102
}
330
D
100
AcDbGroup
300

 70
     1
 71
     1
  0
LAYOUT
  5
A238
102
{ACAD_XDICTIONARY
360
A3B5
102
}
102
{ACAD_REACTORS
330
1A
102
}
330
1A
100
AcDbPlotSettings
  1

  2
SII LP-1010 (C2 VR)2R
  4

  6

 40
0.0
 41
0.0
 42
0.0
 43
0.0
 44
0.0
 45
0.0
 46
0.0
 47
0.0
 48
0.0
 49
0.0
140
0.0
141
0.0
142
1.0
143
1.0
 70
  1712
 72
     0
 73
     0
 74
     0
  7
sei_cad.ctb
 75
     0
147
1.0
148
0.0
149
0.0
100
AcDbLayout
  1
Model
 70
     1
 71
     0
 10
0.0
 20
0.0
 11
12.0
 21
9.0
 12
0.0
 22
0.0
 32
0.0
 14
0.0
 24
0.0
 34
0.0
 15
0.0
 25
0.0
 35
0.0
146
0.0
 13
0.0
 23
0.0
 33
0.0
 16
1.0
 26
0.0
 36
0.0
 17
0.0
 27
1.0
 37
0.0
 76
     0
330
1F
  0
LAYOUT
  5
A239
102
{ACAD_XDICTIONARY
360
A3B7
102
}
102
{ACAD_REACTORS
330
1A
102
}
330
1A
100
AcDbPlotSettings
  1

  2
SII LP-1010 (C2 VR)2R
  4

  6

 40
0.0
 41
0.0
 42
0.0
 43
0.0
 44
0.0
 45
0.0
 46
0.0
 47
0.0
 48
0.0
 49
0.0
140
0.0
141
0.0
142
1.0
143
1.0
 70
   688
 72
     0
 73
     0
 74
     5
  7
sei_cad.ctb
 75
    16
147
1.0
148
0.0
149
0.0
100
AcDbLayout
  1
レイアウト1
 70
     1
 71
     1
 10
0.0
 20
0.0
 11
420.0
 21
297.0
 12
0.0
 22
0.0
 32
0.0
 14
1.000000000000000E+20
 24
1.000000000000000E+20
 34
1.000000000000000E+20
 15
-1.000000000000000E+20
 25
-1.000000000000000E+20
 35
-1.000000000000000E+20
146
0.0
 13
0.0
 23
0.0
 33
0.0
 16
1.0
 26
0.0
 36
0.0
 17
0.0
 27
1.0
 37
0.0
 76
     0
330
1B
  0
MLINESTYLE
  5
18
102
{ACAD_REACTORS
330
17
102
}
330
17
100
AcDbMlineStyle
  2
STANDARD
 70
     0
  3

 62
   256
 51
90.0
 52
90.0
 71
     2
 49
0.5
 62
   256
  6
BYLAYER
 49
-0.5
 62
   256
  6
BYLAYER
  0
ACDBPLACEHOLDER
  5
F
102
{ACAD_REACTORS
330
E
102
}
330
E
  0
TABLESTYLE
  5
A237
102
{ACAD_REACTORS
330
A236
102
}
330
A236
100
AcDbTableStyle
  3
Standard
 70
     0
 71
     0
 40
1.5
 41
1.5
280
     0
281
     0
  7
STANDARD
140
4.5
170
     2
 62
     0
 63
     7
283
     0
274
    -2
284
     1
 64
     0
275
    -2
285
     1
 65
     0
276
    -2
286
     1
 66
     0
277
    -2
287
     1
 67
     0
278
    -2
288
     1
 68
     0
279
    -2
289
     1
 69
     0
  7
STANDARD
140
6.0
170
     5
 62
     0
 63
     7
283
     0
274
    -2
284
     1
 64
     0
275
    -2
285
     1
 65
     0
276
    -2
286
     1
 66
     0
277
    -2
287
     1
 67
     0
278
    -2
288
     1
 68
     0
279
    -2
289
     1
 69
     0
  7
STANDARD
140
4.5
170
     5
 62
     0
 63
     7
283
     0
274
    -2
284
     1
 64
     0
275
    -2
285
     1
 65
     0
276
    -2
286
     1
 66
     0
277
    -2
287
     1
 67
     0
278
    -2
288
     1
 68
     0
279
    -2
289
     1
 69
     0
  0
DICTIONARYVAR
  5
A3AF
102
{ACAD_REACTORS
330
30
102
}
330
30
100
DictionaryVariables
280
     0
  1
STANDARD
  0
DICTIONARYVAR
  5
A3B0
102
{ACAD_REACTORS
330
30
102
}
330
30
100
DictionaryVariables
280
     0
  1
1
  0
DICTIONARYVAR
  5
31
102
{ACAD_REACTORS
330
30
102
}
330
30
100
DictionaryVariables
280
     0
  1
1
  0
DICTIONARYVAR
  5
A3B1
102
{ACAD_REACTORS
330
30
102
}
330
30
100
DictionaryVariables
280
     0
  1

  0
DICTIONARYVAR
  5
42BE
102
{ACAD_REACTORS
330
30
102
}
330
30
100
DictionaryVariables
280
     0
  1
96
  0
DICTIONARY
  5
17E
102
{ACAD_REACTORS
330
4D
102
}
330
4D
100
AcDbDictionary
281
     1
  0
XRECORD
  5
A2B1
102
{ACAD_REACTORS
330
4D
102
}
330
4D
100
AcDbXrecord
280
     1
 90
-1023410169
  0
XRECORD
  5
21C7
102
{ACAD_REACTORS
330
21C6
102
}
330
21C6
100
AcDbXrecord
280
     1
  1
HOLD
  0
XRECORD
  5
21CA
102
{ACAD_REACTORS
330
21C9
102
}
330
21C9
100
AcDbXrecord
280
     1
  1
21000065__00___
  0
XRECORD
  5
21C5
102
{ACAD_REACTORS
330
21C4
102
}
330
21C4
100
AcDbXrecord
280
     1
  1
クランクシャフト加工用 ^M^J１コーナー型 ^M^J15.875 ^M^J20 ^M^Jクランプオン ^M^J９０° ^M^J1 ^M^J鋼 ^M^J ^M^J ^M^J ^M^J ^M^J
  0
XRECORD
  5
1C0D
102
{ACAD_REACTORS
330
1C0B
102
}
330
1C0B
100
AcDbXrecord
280
     1
  1
1,,,,,,,,,^M^J2,,,,,,,,,^M^J3,,,,,,,,,^M^J4,,,,,,,,,^M^J5,,,,,,,,,^M^J6,,,,,,,,,^M^J7,,,,,,,,,^M^J8,,,,,,,,,^M^J9,,,,,,,,,^M^J10,,,,,,,,,
  0
XRECORD
  5
1C0C
102
{ACAD_REACTORS
330
1C0B
102
}
330
1C0B
100
AcDbXrecord
280
     1
  1
10,10
  0
XRECORD
  5
21CC
102
{ACAD_REACTORS
330
21CB
102
}
330
21CB
100
AcDbXrecord
280
     1
  1
3
  0
LAYER_INDEX
  5
A1B0
102
{ACAD_REACTORS
330
A1AF
102
}
330
A1AF
100
AcDbIndex
 40
2455603.415782327
100
AcDbLayerIndex
  8
0
360
A1B1
 90
        0
  8
AM_5
360
A1B2
 90
        6
  8
DEFPOINTS
360
A1B3
 90
        0
  8
AM_0
360
A1B4
 90
      295
  8
AM_6
360
A1B5
 90
        1
  8
AM_7
360
A1B6
 90
        2
  8
PV0001_1
360
A1B7
 90
        4
  0
DICTIONARY
  5
A3B5
330
A238
100
AcDbDictionary
280
     1
281
     1
  3
ACAD_XREC_ROUNDTRIP
360
A3B6
  0
DICTIONARY
  5
A3B7
330
A239
100
AcDbDictionary
280
     1
281
     1
  3
ACAD_XREC_ROUNDTRIP
360
A3B8
  0
IDBUFFER
  5
A1B1
330
0
100
AcDbIdBuffer
  0
IDBUFFER
  5
A1B2
330
0
100
AcDbIdBuffer
330
9DA3
330
9DB0
330
9E74
330
9F1E
330
A0E6
330
A164
  0
IDBUFFER
  5
A1B3
330
0
100
AcDbIdBuffer
  0
IDBUFFER
  5
A1B4
330
0
100
AcDbIdBuffer
330
9AA7
330
9AA9
330
9AAA
330
9AAD
330
9AAE
330
9AAF
330
9AB0
330
9AB1
330
9AB2
330
9AB3
330
9AB5
330
9AB9
330
9ABA
330
9ABB
330
9ABC
330
9ABD
330
9ABE
330
9ABF
330
9AC0
330
9AC1
330
9AC2
330
9AC3
330
9AC4
330
9AC5
330
9AC6
330
9AC7
330
9AC8
330
9AC9
330
9ACA
330
9ACB
330
9ACC
330
9ACE
330
9AD3
330
9AD4
330
9AD5
330
9AD6
330
9AD7
330
9AD8
330
9AD9
330
9ADA
330
9ADB
330
9ADC
330
9ADD
330
9ADE
330
9ADF
330
9AE0
330
9AE1
330
9AE2
330
9AE3
330
9AE4
330
9AE5
330
9AE6
330
9AE7
330
9AE8
330
9AE9
330
9AEA
330
9AEB
330
9AEC
330
9AED
330
9AEE
330
9AEF
330
9AF0
330
9AF1
330
9AF2
330
9AF3
330
9AF4
330
9AF5
330
9AF6
330
9AF7
330
9AF8
330
9AF9
330
9AFA
330
9AFB
330
9AFC
330
9B00
330
9B01
330
9B04
330
9B06
330
9B07
330
9B08
330
9B0A
330
9B0B
330
9B0C
330
9B0D
330
9B0E
330
9B0F
330
9B10
330
9B11
330
9B12
330
9B13
330
9B14
330
9B15
330
9B16
330
9B17
330
9B18
330
9B19
330
9B1A
330
9B1C
330
9B1E
330
9B1F
330
9B20
330
9B21
330
9B22
330
9B23
330
9B24
330
9B25
330
9B26
330
9B27
330
9B28
330
9B29
330
9B2A
330
9B2B
330
9B2C
330
9B2D
330
9B38
330
9B39
330
9B3A
330
9B3B
330
9B3C
330
9B3D
330
9B3E
330
9B3F
330
9B40
330
9B41
330
9B42
330
9B43
330
9B44
330
9B45
330
9B46
330
9B47
330
9B48
330
9B49
330
9B4A
330
9B4B
330
9B4C
330
9B4D
330
9B4E
330
9B4F
330
9B50
330
9B51
330
9B52
330
9B53
330
9B54
330
9B55
330
9B56
330
9B57
330
9B58
330
9B59
330
9B5A
330
9B5B
330
9B5C
330
9B5D
330
9B5E
330
9B5F
330
9B60
330
9B61
330
9B62
330
9B63
330
9B64
330
9B65
330
9B66
330
9B69
330
9B6A
330
9B6B
330
9B6C
330
9B6D
330
9B73
330
9B74
330
9B75
330
9B76
330
9B77
330
9B79
330
9B7D
330
9B7E
330
9B7F
330
9B80
330
9B8E
330
9B8F
330
9B90
330
9B91
330
9B92
330
9B94
330
9B95
330
9B9A
330
9B9B
330
9B9C
330
9B9D
330
9B9F
330
9BA0
330
9BA4
330
9BA5
330
9BA6
330
9BA7
330
9BA8
330
9BA9
330
9BAA
330
9BAB
330
9BAC
330
9BAD
330
9BAE
330
9BAF
330
9BB1
330
9BB2
330
9BB3
330
9BB4
330
9BB5
330
9BBA
330
9BBB
330
9BBC
330
9BBD
330
9BBE
330
9BBF
330
9BC0
330
9BC1
330
9BC2
330
9BC3
330
9BC4
330
9BC5
330
9BC6
330
9BC8
330
9BC9
330
9BCA
330
9BCF
330
9BD0
330
9BD1
330
9BD2
330
9BD3
330
9BD4
330
9BD5
330
9BD6
330
9BD7
330
9BD8
330
9BD9
330
9BDA
330
9BDB
330
9BDC
330
9BDD
330
9BDE
330
9BDF
330
9BE0
330
9BE1
330
9BE2
330
9BE3
330
9BE4
330
9BE5
330
9BE9
330
9BEA
330
9BEB
330
9BFD
330
9BFE
330
9BFF
330
9C00
330
9C01
330
9C02
330
9C03
330
9C04
330
9C05
330
9C06
330
9C07
330
9C08
330
9C09
330
9C0A
330
9C0B
330
9C0C
330
9C0D
330
9C0E
330
9C0F
330
9C10
330
9C11
330
9C12
330
9C13
330
9C14
330
9C15
330
9C16
330
9C17
330
9C18
330
9C19
330
9C1A
330
9C1B
330
9C1C
330
9C1D
330
9C1E
330
9C1F
330
9C20
330
9C21
330
9C22
330
9C24
330
A020
330
A021
330
A022
330
A038
330
A070
330
A071
330
A165
330
A166
  0
IDBUFFER
  5
A1B5
330
0
100
AcDbIdBuffer
330
83BD
  0
IDBUFFER
  5
A1B6
330
0
100
AcDbIdBuffer
330
9B7C
330
9B83
  0
IDBUFFER
  5
A1B7
330
0
100
AcDbIdBuffer
330
9AAB
330
9AB4
330
9B1B
330
9B2E
  0
XRECORD
  5
A3B6
102
{ACAD_REACTORS
330
A3B5
102
}
330
A3B5
100
AcDbXrecord
280
     1
102
SHADEPLOT
 70
     0
102
SHADEPLOTRESLEVEL
 70
     2
102
SHADEPLOTCUSTOMDPI
 70
   300
  0
XRECORD
  5
A3B8
102
{ACAD_REACTORS
330
A3B7
102
}
330
A3B7
100
AcDbXrecord
280
     1
102
SHADEPLOT
 70
     0
102
SHADEPLOTRESLEVEL
 70
     2
102
SHADEPLOTCUSTOMDPI
 70
   300
  0
ENDSEC
  0
EOF
