  0
SECTION
  2
HEADER
  9
$ACADVER
  1
AC1015
  9
$ACADMAINTVER
 70
    20
  9
$DWGCODEPAGE
  3
ANSI_932
  9
$INSBASE
 10
0.0
 20
0.0
 30
0.0
  9
$EXTMIN
 10
-114.7886496079368
 20
-107.7638118786463
 30
-0.0000000000022887
  9
$EXTMAX
 10
171.3237606893144
 20
30.00860282282304
 30
0.0000000000000001
  9
$LIMMIN
 10
-214.0765363195321
 20
-159.9874744516372
  9
$LIMMAX
 10
155.4674709253631
 20
62.21144215514835
  9
$ORTHOMODE
 70
     0
  9
$REGENMODE
 70
     1
  9
$FILLMODE
 70
     1
  9
$QTEXTMODE
 70
     0
  9
$MIRRTEXT
 70
     1
  9
$LTSCALE
 40
1.0
  9
$ATTMODE
 70
     1
  9
$TEXTSIZE
 40
2.5
  9
$TRACEWID
 40
1.0
  9
$TEXTSTYLE
  7
STANDARD
  9
$CLAYER
  8
AM_5
  9
$CELTYPE
  6
BYLAYER
  9
$CECOLOR
 62
   256
  9
$CELTSCALE
 40
1.0
  9
$DISPSILH
 70
     0
  9
$DIMSCALE
 40
1.0
  9
$DIMASZ
 40
2.5
  9
$DIMEXO
 40
0.0
  9
$DIMDLI
 40
10.0
  9
$DIMRND
 40
0.0
  9
$DIMDLE
 40
0.0
  9
$DIMEXE
 40
1.0
  9
$DIMTP
 40
0.1
  9
$DIMTM
 40
0.1000000001
  9
$DIMTXT
 40
3.799999999999998
  9
$DIMCEN
 40
0.0
  9
$DIMTSZ
 40
0.0
  9
$DIMTOL
 70
     0
  9
$DIMLIM
 70
     0
  9
$DIMTIH
 70
     0
  9
$DIMTOH
 70
     0
  9
$DIMSE1
 70
     0
  9
$DIMSE2
 70
     0
  9
$DIMTAD
 70
     3
  9
$DIMZIN
 70
     9
  9
$DIMBLK
  1
OPEN30
  9
$DIMASO
 70
     1
  9
$DIMSHO
 70
     1
  9
$DIMPOST
  1

  9
$DIMAPOST
  1
"
  9
$DIMALT
 70
     0
  9
$DIMALTD
 70
     2
  9
$DIMALTF
 40
0.0393701
  9
$DIMLFAC
 40
1.0
  9
$DIMTOFL
 70
     1
  9
$DIMTVP
 40
0.0
  9
$DIMTIX
 70
     0
  9
$DIMSOXD
 70
     0
  9
$DIMSAH
 70
     0
  9
$DIMBLK1
  1

  9
$DIMBLK2
  1

  9
$DIMSTYLE
  2
AM_JIS
  9
$DIMCLRD
 70
   256
  9
$DIMCLRE
 70
   256
  9
$DIMCLRT
 70
     2
  9
$DIMTFAC
 40
0.71
  9
$DIMGAP
 40
1.5
  9
$DIMJUST
 70
     0
  9
$DIMSD1
 70
     0
  9
$DIMSD2
 70
     0
  9
$DIMTOLJ
 70
     0
  9
$DIMTZIN
 70
     8
  9
$DIMALTZ
 70
     0
  9
$DIMALTTZ
 70
     0
  9
$DIMUPT
 70
     0
  9
$DIMDEC
 70
     2
  9
$DIMTDEC
 70
     2
  9
$DIMALTU
 70
     2
  9
$DIMALTTD
 70
     2
  9
$DIMTXSTY
  7
STANDARD
  9
$DIMAUNIT
 70
     1
  9
$DIMADEC
 70
     1
  9
$DIMALTRND
 40
0.0
  9
$DIMAZIN
 70
     2
  9
$DIMDSEP
 70
    46
  9
$DIMATFIT
 70
     3
  9
$DIMFRAC
 70
     0
  9
$DIMLDRBLK
  1
OPEN30
  9
$DIMLUNIT
 70
     2
  9
$DIMLWD
 70
    -1
  9
$DIMLWE
 70
    -1
  9
$DIMTMOVE
 70
     0
  9
$LUNITS
 70
     2
  9
$LUPREC
 70
     2
  9
$SKETCHINC
 40
1.0
  9
$FILLETRAD
 40
0.0
  9
$AUNITS
 70
     1
  9
$AUPREC
 70
     5
  9
$MENU
  1
.
  9
$ELEVATION
 40
0.0
  9
$PELEVATION
 40
0.0
  9
$THICKNESS
 40
0.0
  9
$LIMCHECK
 70
     0
  9
$CHAMFERA
 40
0.0
  9
$CHAMFERB
 40
0.0
  9
$CHAMFERC
 40
20.0
  9
$CHAMFERD
 40
0.0
  9
$SKPOLY
 70
     0
  9
$TDCREATE
 40
2451943.610431666
  9
$TDUCREATE
 40
2451943.235431667
  9
$TDUPDATE
 40
2455603.413539132
  9
$TDUUPDATE
 40
2455603.038539132
  9
$TDINDWG
 40
0.7773275810
  9
$TDUSRTIMER
 40
0.7773274074
  9
$USRTIMER
 70
     1
  9
$ANGBASE
 50
0.0
  9
$ANGDIR
 70
     0
  9
$PDMODE
 70
     0
  9
$PDSIZE
 40
0.0
  9
$PLINEWID
 40
0.0
  9
$SPLFRAME
 70
     0
  9
$SPLINETYPE
 70
     6
  9
$SPLINESEGS
 70
     8
  9
$HANDSEED
  5
AC72
  9
$SURFTAB1
 70
     6
  9
$SURFTAB2
 70
     6
  9
$SURFTYPE
 70
     6
  9
$SURFU
 70
     6
  9
$SURFV
 70
     6
  9
$UCSBASE
  2

  9
$UCSNAME
  2

  9
$UCSORG
 10
0.0
 20
0.0
 30
0.0
  9
$UCSXDIR
 10
1.0
 20
0.0
 30
0.0
  9
$UCSYDIR
 10
0.0
 20
1.0
 30
0.0
  9
$UCSORTHOREF
  2

  9
$UCSORTHOVIEW
 70
     0
  9
$UCSORGTOP
 10
0.0
 20
0.0
 30
0.0
  9
$UCSORGBOTTOM
 10
0.0
 20
0.0
 30
0.0
  9
$UCSORGLEFT
 10
0.0
 20
0.0
 30
0.0
  9
$UCSORGRIGHT
 10
0.0
 20
0.0
 30
0.0
  9
$UCSORGFRONT
 10
0.0
 20
0.0
 30
0.0
  9
$UCSORGBACK
 10
0.0
 20
0.0
 30
0.0
  9
$PUCSBASE
  2

  9
$PUCSNAME
  2

  9
$PUCSORG
 10
0.0
 20
0.0
 30
0.0
  9
$PUCSXDIR
 10
1.0
 20
0.0
 30
0.0
  9
$PUCSYDIR
 10
0.0
 20
1.0
 30
0.0
  9
$PUCSORTHOREF
  2

  9
$PUCSORTHOVIEW
 70
     0
  9
$PUCSORGTOP
 10
0.0
 20
0.0
 30
0.0
  9
$PUCSORGBOTTOM
 10
0.0
 20
0.0
 30
0.0
  9
$PUCSORGLEFT
 10
0.0
 20
0.0
 30
0.0
  9
$PUCSORGRIGHT
 10
0.0
 20
0.0
 30
0.0
  9
$PUCSORGFRONT
 10
0.0
 20
0.0
 30
0.0
  9
$PUCSORGBACK
 10
0.0
 20
0.0
 30
0.0
  9
$USERI1
 70
     0
  9
$USERI2
 70
     0
  9
$USERI3
 70
     0
  9
$USERI4
 70
     0
  9
$USERI5
 70
     0
  9
$USERR1
 40
0.0
  9
$USERR2
 40
0.0
  9
$USERR3
 40
0.0
  9
$USERR4
 40
0.0
  9
$USERR5
 40
0.0
  9
$WORLDVIEW
 70
     1
  9
$SHADEDGE
 70
     3
  9
$SHADEDIF
 70
    70
  9
$TILEMODE
 70
     1
  9
$MAXACTVP
 70
    64
  9
$PINSBASE
 10
0.0
 20
0.0
 30
0.0
  9
$PLIMCHECK
 70
     0
  9
$PEXTMIN
 10
1.000000000000000E+20
 20
1.000000000000000E+20
 30
1.000000000000000E+20
  9
$PEXTMAX
 10
-1.000000000000000E+20
 20
-1.000000000000000E+20
 30
-1.000000000000000E+20
  9
$PLIMMIN
 10
0.0
 20
0.0
  9
$PLIMMAX
 10
420.0
 20
297.0
  9
$UNITMODE
 70
     0
  9
$VISRETAIN
 70
     1
  9
$PLINEGEN
 70
     0
  9
$PSLTSCALE
 70
     1
  9
$TREEDEPTH
 70
  3020
  9
$CMLSTYLE
  2
STANDARD
  9
$CMLJUST
 70
     0
  9
$CMLSCALE
 40
20.0
  9
$PROXYGRAPHICS
 70
     1
  9
$MEASUREMENT
 70
     1
  9
$CELWEIGHT
370
    -1
  9
$ENDCAPS
280
     0
  9
$JOINSTYLE
280
     0
  9
$LWDISPLAY
290
     0
  9
$INSUNITS
 70
     4
  9
$HYPERLINKBASE
  1

  9
$STYLESHEET
  1
sei_cad.ctb
  9
$XEDIT
290
     1
  9
$CEPSNTYPE
380
     0
  9
$PSTYLEMODE
290
     1
  9
$FINGERPRINTGUID
  2
{C77AB3BE-9CA2-11D3-BAF3-006094EB760E}
  9
$VERSIONGUID
  2
{07FB95EF-2C9A-4E23-B481-DB797E3D777C}
  9
$EXTNAMES
290
     1
  9
$PSVPSCALE
 40
0.0
  9
$OLESTARTUP
290
     0
  0
ENDSEC
  0
SECTION
  2
CLASSES
  0
CLASS
  1
ACDBDICTIONARYWDFLT
  2
AcDbDictionaryWithDefault
  3
ObjectDBX Classes
 90
        0
280
     0
281
     0
  0
CLASS
  1
ACDBPLACEHOLDER
  2
AcDbPlaceHolder
  3
ObjectDBX Classes
 90
        0
280
     0
281
     0
  0
CLASS
  1
LAYOUT
  2
AcDbLayout
  3
ObjectDBX Classes
 90
        0
280
     0
281
     0
  0
CLASS
  1
ACME_DOCUMENT
  2
AcMeDbDoc
  3
AcMeServices
 90
        0
280
     0
281
     0
  0
CLASS
  1
ACMESCOPE
  2
AcMeScope
  3
AcMeServices
 90
        0
280
     0
281
     0
  0
CLASS
  1
ACMECOMMANDHISTORY
  2
AcMeCommandHistory
  3
AcMeServices
 90
        0
280
     0
281
     0
  0
CLASS
  1
DICTIONARYVAR
  2
AcDbDictionaryVar
  3
ObjectDBX Classes
 90
        0
280
     0
281
     0
  0
CLASS
  1
ACIMSYSVARMAN
  2
AcImSysVarManager
  3
AcMeServices
 90
        0
280
     0
281
     0
  0
CLASS
  1
ACIMREALSYSVAR
  2
AcImRealSysVar
  3
AcMeServices
 90
        0
280
     0
281
     0
  0
CLASS
  1
ACIMINTSYSVAR
  2
AcImIntSysVar
  3
AcMeServices
 90
        0
280
     0
281
     0
  0
CLASS
  1
ACMEDRAWINGMAN
  2
AcMeDrawingMan
  3
AcMeServices
 90
        0
280
     0
281
     0
  0
CLASS
  1
ACMEVIEW
  2
AcMeView
  3
AcMeServices
 90
        0
280
     0
281
     0
  0
CLASS
  1
ACDBENTITYCACHE
  2
AcMeEntityCache
  3
AcMeServices
 90
        0
280
     0
281
     0
  0
CLASS
  1
GSMANAGER
  2
AcMeGSManager
  3
AcMeServices
 90
        0
280
     0
281
     0
  0
CLASS
  1
AMDTINTERNALREACTOR
  2
AmdtInternalReactor
  3
AcMeServices
 90
        0
280
     0
281
     0
  0
CLASS
  1
ACMESTATEMGR
  2
AcMeStateMgr
  3
AcMeServices
 90
        0
280
     0
281
     0
  0
CLASS
  1
ACME_DATABASE
  2
AcMeDbDatabase
  3
AcMeServices
 90
        0
280
     0
281
     0
  0
CLASS
  1
ACRFINSADJUSTERMGR
  2
AcRfInsAdjusterMgr
  3
AcMeServices
 90
        0
280
     0
281
     0
  0
CLASS
  1
AMGSETTINGSOBJ
  2
AmgSettingsObj
  3
"AcadM|Product Description: AutoCAD Mechanical 2000|Company: Autodesk"
 90
        0
280
     0
281
     0
  0
CLASS
  1
AMGOBJPROPCFG
  2
AmgObjPropCfg
  3
"AmgLay|Product Description: AutoCAD Mechanical 2000|Company: Autodesk"
 90
        1
280
     0
281
     0
  0
CLASS
  1
ACMDATADICTIONARY
  2
AcmDataDictionary
  3
"AcmSymBB|Product Description: AutoCAD Mechanical 2004 DX|Company: Autodesk"
 90
        0
280
     0
281
     0
  0
CLASS
  1
ACMDATAENTRYBLOCK
  2
AcmDataEntryBlock
  3
"AcmSymBB|Product Description: AutoCAD Mechanical 2004 DX|Company: Autodesk"
 90
    32768
280
     0
281
     0
  0
CLASS
  1
ACIMSTRSYSVAR
  2
AcImStrSysVar
  3
AcMeServices
 90
        0
280
     0
281
     0
  0
CLASS
  1
ACAMGFILTERDAT
  2
AcAmgFilterDat
  3
"AcadM|Product Description: AutoCAD Mechanical 2000|Company: Autodesk"
 90
    32768
280
     0
281
     0
  0
CLASS
  1
LAYER_INDEX
  2
AcDbLayerIndex
  3
ObjectDBX Classes
 90
        0
280
     0
281
     0
  0
CLASS
  1
IDBUFFER
  2
AcDbIdBuffer
  3
ObjectDBX Classes
 90
        0
280
     0
281
     0
  0
CLASS
  1
ACMSTANDARDJIS
  2
AcmStandardJIS
  3
"Amdt_StdImp|Product Description: AutoCAD Mechanical 2004 DX|Company: Autodesk"
 90
    32768
280
     0
281
     0
  0
CLASS
  1
ACMSURFSTANDARDJIS
  2
AcmSurfTextStdJIS
  3
"Amdt_StdImp|Product Description: AutoCAD Mechanical 2004 DX|Company: Autodesk"
 90
    32768
280
     0
281
     0
  0
CLASS
  1
ACMFCFSTANDARDJIS
  2
AcmFCFStdJIS
  3
"Amdt_StdImp|Product Description: AutoCAD Mechanical 2004 DX|Company: Autodesk"
 90
    32768
280
     0
281
     0
  0
CLASS
  1
ACMWELDSTANDARDJIS
  2
AcmWeldingStdJIS
  3
"Amdt_StdImp|Product Description: AutoCAD Mechanical 2004 DX|Company: Autodesk"
 90
    32768
280
     0
281
     0
  0
CLASS
  1
ACMIDSTANDARDJIS
  2
AcmIdStdJIS
  3
"Amdt_StdImp|Product Description: AutoCAD Mechanical 2004 DX|Company: Autodesk"
 90
    32768
280
     0
281
     0
  0
CLASS
  1
ACMDATUMSTANDARDJIS
  2
AcmDatumStdJIS
  3
"Amdt_StdImp|Product Description: AutoCAD Mechanical 2004 DX|Company: Autodesk"
 90
    32768
280
     0
281
     0
  0
CLASS
  1
ACMBOMSTANDARDJIS
  2
AcmBOMStdJIS
  3
"Amdt_StdImp|Product Description: AutoCAD Mechanical 2004 DX|Company: Autodesk"
 90
    32768
280
     0
281
     0
  0
CLASS
  1
AMDTNOTE
  2
AmdtNote
  3
"AcmSymBB|Product Description: AutoCAD Mechanical 2004 DX|Company: Autodesk"
 90
    33791
280
     0
281
     1
  0
CLASS
  1
ACMDATAENTRYPART
  2
AcmDataEntryPart
  3
"AcmSymBB|Product Description: AutoCAD Mechanical 2004 DX|Company: Autodesk"
 90
    32768
280
     0
281
     0
  0
CLASS
  1
ACMPARTREF
  2
AcmPartRef
  3
"AcmSymBB|Product Description: AutoCAD Mechanical 2004 DX|Company: Autodesk"
 90
    33791
280
     0
281
     1
  0
CLASS
  1
ACDB_PROXY_ENTITY_DATA
  2
AcDbProxyEntityData
  3
ObjectDBX Classes
 90
    32768
280
     0
281
     0
  0
CLASS
  1
TABLESTYLE
  2
AcDbTableStyle
  3
ObjectDBX Classes
 90
     2047
280
     0
281
     0
  0
CLASS
  1
ACGREFMASTER
  2
AcGrefMaster
  3
AcAttribServices
 90
        0
280
     0
281
     0
  0
CLASS
  1
AM_DRAWING_MGR
  2
AcDmDwgMgr
  3
AcMechDwgViewMgmt
 90
        0
280
     0
281
     0
  0
CLASS
  1
AM_DWG_DOCUMENT
  2
AcDmDwgDocument
  3
AcMechDwgViewMgmt
 90
        0
280
     0
281
     0
  0
CLASS
  1
AM_DWG_SHEET
  2
AcDmSheet
  3
AcMechDwgViewMgmt
 90
        0
280
     0
281
     0
  0
CLASS
  1
AM_VIEWDIMPARMAP
  2
AcDmViewDimParMap
  3
AcMechDwgViewMgmt
 90
        0
280
     0
281
     0
  0
CLASS
  1
AM_DWGMGR_NAME
  2
AcDmDwgMgrName
  3
AcMechDwgViewMgmt
 90
        0
280
     0
281
     0
  0
CLASS
  1
ACGREFACADMASTER
  2
AcGrefacadMaster
  3
AcGrefServices
 90
        0
280
     0
281
     0
  0
CLASS
  1
AMDTMENUSTATEMGR
  2
AmdtMenuStateMgr
  3
McadcomServices
 90
        0
280
     0
281
     0
  0
CLASS
  1
AMDTMCOMMENUSTATE
  2
AmdtMcomMenuState
  3
McadcomServices
 90
        0
280
     0
281
     0
  0
CLASS
  1
AMIMASTER
  2
AmiMaster
  3
AmiServices
 90
        0
280
     0
281
     0
  0
CLASS
  1
MAPIAMMOUDLE
  2
MApiAmModule
  3
MApiAmServices
 90
        0
280
     0
281
     0
  0
CLASS
  1
AMDTADMENUSTATE
  2
AmdtAdMenuState
  3
DesignerServices
 90
        0
280
     0
281
     0
  0
CLASS
  1
ADAPPL
  2
AcAdAppl
  3
DesignerServices
 90
        0
280
     0
281
     0
  0
CLASS
  1
DEPMGR
  2
AcAdDepMgr
  3
DesignerServices
 90
        0
280
     0
281
     0
  0
CLASS
  1
PARAMMGR
  2
AcAdParamMgr
  3
DesignerServices
 90
        0
280
     0
281
     0
  0
CLASS
  1
PARAMSCOPE
  2
AcAdParamScope
  3
DesignerServices
 90
        0
280
     0
281
     0
  0
CLASS
  1
NAMEDAPPL
  2
AcAdNamedAppl
  3
DesignerServices
 90
        0
280
     0
281
     0
  0
CLASS
  1
AMDTDMMENUSTATE
  2
AmdtDmMenuState
  3
AcMechDwgViewMgmt
 90
        0
280
     0
281
     0
  0
CLASS
  1
AMDTAMMENUSTATE
  2
AmdtAmMenuState
  3
DesignerAssemblies
 90
        0
280
     0
281
     0
  0
CLASS
  1
ACAMPROJECT
  2
AcAmProject
  3
DesignerAssemblies
 90
        0
280
     0
281
     0
  0
CLASS
  1
ACAMGRCOMPDEF
  2
AcAmGrCompDef
  3
DesignerAssemblies
 90
        0
280
     0
281
     0
  0
CLASS
  1
ACCMCONTEXT
  2
AcCmContext
  3
DesignerAssemblies
 90
        0
280
     0
281
     0
  0
CLASS
  1
ACAMCOMPDEF
  2
AcAmCompDef
  3
DesignerAssemblies
 90
        0
280
     0
281
     0
  0
CLASS
  1
ACAMCOMPDEFMGR
  2
AcAmCompDefMgr
  3
DesignerAssemblies
 90
        0
280
     0
281
     0
  0
CLASS
  1
AMCONTEXTMGR
  2
AcAmContextMgr
  3
DesignerAssemblies
 90
        0
280
     0
281
     0
  0
CLASS
  1
ACAMCONTEXTMODELER
  2
AcAmContextModeler
  3
DesignerAssemblies
 90
        0
280
     0
281
     0
  0
CLASS
  1
CATALOGSTATE
  2
AcAmCatalogState
  3
DesignerAssemblies
 90
        0
280
     0
281
     0
  0
CLASS
  1
ACAMGRCOMPDEFSET
  2
AcAmGrCompDefSet
  3
DesignerAssemblies
 90
        0
280
     0
281
     0
  0
CLASS
  1
AMDTBROWSERDBTAB
  2
AmdtBrowserDbTab
  3
McadcomServices
 90
        0
280
     0
281
     0
  0
CLASS
  1
CBROWSERAPPOBJECT
  2
CBrowserAppObject
  3
McadcomServices
 90
        0
280
     0
281
     0
  0
CLASS
  1
DM_PLACEHOLDER
  2
AcDmSelsetPlaceholder
  3
AcMechDwgViewMgmt
 90
        0
280
     0
281
     0
  0
CLASS
  1
ACMSTANDARDISO
  2
AcmStandardISO
  3
"Amdt_StdImp|Product Description: AutoCAD Mechanical 2004 DX|Company: Autodesk"
 90
        0
280
     0
281
     0
  0
CLASS
  1
AMDTEDGESTANDARDISO13715
  2
AmdtEdgeStdISO13715
  3
"Amdt_StdImp|Product Description: AutoCAD Mechanical 2004 DX|Company: Autodesk"
 90
        0
280
     0
281
     0
  0
CLASS
  1
ACMSURFSTANDARDISO
  2
AcmSurfTextStdISO
  3
"Amdt_StdImp|Product Description: AutoCAD Mechanical 2004 DX|Company: Autodesk"
 90
        0
280
     0
281
     0
  0
CLASS
  1
ACMFCFSTANDARDISO
  2
AcmFCFStdISO
  3
"Amdt_StdImp|Product Description: AutoCAD Mechanical 2004 DX|Company: Autodesk"
 90
        0
280
     0
281
     0
  0
CLASS
  1
ACMWELDSTANDARDISO
  2
AcmWeldingStdISO
  3
"Amdt_StdImp|Product Description: AutoCAD Mechanical 2004 DX|Company: Autodesk"
 90
        0
280
     0
281
     0
  0
CLASS
  1
ACMIDSTANDARDISO
  2
AcmIdStdISO
  3
"Amdt_StdImp|Product Description: AutoCAD Mechanical 2004 DX|Company: Autodesk"
 90
        0
280
     0
281
     0
  0
CLASS
  1
ACMDATUMSTANDARDISO
  2
AcmDatumStdISO
  3
"Amdt_StdImp|Product Description: AutoCAD Mechanical 2004 DX|Company: Autodesk"
 90
        0
280
     0
281
     0
  0
CLASS
  1
ACMBOMSTANDARDISO
  2
AcmBOMStdISO
  3
"Amdt_StdImp|Product Description: AutoCAD Mechanical 2004 DX|Company: Autodesk"
 90
        0
280
     0
281
     0
  0
CLASS
  1
ACMDETAILSTANDARDISO
  2
AmdtDetailSymStdISO
  3
"Amdt_StdImp|Product Description: AutoCAD Mechanical 2004 DX|Company: Autodesk"
 90
        0
280
     0
281
     0
  0
CLASS
  1
ACMSECTIONSTANDARDISO
  2
AmdtSectionSymStdISO
  3
"Amdt_StdImp|Product Description: AutoCAD Mechanical 2004 DX|Company: Autodesk"
 90
        0
280
     0
281
     0
  0
CLASS
  1
ACMCENTERLINESTANDARDISO
  2
AmdtCenterLineStdISO
  3
"Amdt_StdImp|Product Description: AutoCAD Mechanical 2004 DX|Company: Autodesk"
 90
        0
280
     0
281
     0
  0
CLASS
  1
ACMTHREADLINESTANDARDISO
  2
AmdtThreadLineStdISO
  3
"Amdt_StdImp|Product Description: AutoCAD Mechanical 2004 DX|Company: Autodesk"
 90
        0
280
     0
281
     0
  0
CLASS
  1
ACMNOTESTANDARDISO
  2
AmdtNoteStdISO
  3
"Amdt_StdImp|Product Description: AutoCAD Mechanical 2004 DX|Company: Autodesk"
 90
        0
280
     0
281
     0
  0
CLASS
  1
AMDTNOTETEMPLATEDB
  2
AmdtNoteTemplateDB
  3
AMDT_STDIMP_MODULE_NAME
 90
        0
280
     0
281
     0
  0
CLASS
  1
ACAMGLAYSTD
  2
AcAmgLayStd
  3
"AcAmgLayStd|Product Description: AutoCAD Mechanical 2000|Company: Autodesk"
 90
        0
280
     0
281
     0
  0
CLASS
  1
ACAMGDIMSTD
  2
AcAmgDimStd
  3
"AcAmgDimStd|Product Description: AutoCAD Mechanical 2000|Company: Autodesk"
 90
        0
280
     0
281
     0
  0
CLASS
  1
ACAMGHOLECHARTSTDISO
  2
AcAmgHoleChartStdISO
  3
ACMSYMBB_MODULE_NAME
 90
        0
280
     0
281
     0
  0
CLASS
  1
ACAMGTITLESTD
  2
AcAmgTitleStd
  3
"TITLEAPP"
 90
        0
280
     0
281
     0
  0
ENDSEC
  0
SECTION
  2
TABLES
  0
TABLE
  2
VPORT
  5
8
330
0
100
AcDbSymbolTable
 70
     5
  0
VPORT
  5
AC6B
330
8
100
AcDbSymbolTableRecord
100
AcDbViewportTableRecord
  2
*Active
 70
     0
 10
0.0
 20
0.0
 11
1.0
 21
1.0
 12
28.26755554068882
 22
-38.87760452791165
 13
0.0
 23
0.0
 14
2.5
 24
2.5
 15
10.0
 25
10.0
 16
0.0
 26
0.0
 36
1.0
 17
0.0
 27
0.0
 37
0.0
 40
138.7565033779084
 41
2.176400476758045
 42
50.0
 43
0.0
 44
0.0
 50
0.0
 51
0.0
 71
     0
 72
  2000
 73
     1
 74
     3
 75
     0
 76
     0
 77
     0
 78
     0
281
     0
 65
     0
110
0.0
120
0.0
130
0.0
111
1.0
121
0.0
131
0.0
112
0.0
122
1.0
132
0.0
 79
     0
146
0.0
  0
ENDTAB
  0
TABLE
  2
LTYPE
  5
5
330
0
100
AcDbSymbolTable
 70
    16
  0
LTYPE
  5
14
330
5
100
AcDbSymbolTableRecord
100
AcDbLinetypeTableRecord
  2
BYBLOCK
 70
     0
  3

 72
    65
 73
     0
 40
0.0
  0
LTYPE
  5
15
330
5
100
AcDbSymbolTableRecord
100
AcDbLinetypeTableRecord
  2
BYLAYER
 70
     0
  3

 72
    65
 73
     0
 40
0.0
  0
LTYPE
  5
16
330
5
100
AcDbSymbolTableRecord
100
AcDbLinetypeTableRecord
  2
CONTINUOUS
 70
     0
  3
Solid line
 72
    65
 73
     0
 40
0.0
  0
LTYPE
  5
43
330
5
100
AcDbSymbolTableRecord
100
AcDbLinetypeTableRecord
  2
AM_ISO02W050
 70
     0
  3
__ __ __ __ __ __ __ __ __ __ __ __ __ __ __
 72
    65
 73
     2
 40
7.5
 49
6.0
 74
     0
 49
-1.5
 74
     0
  0
LTYPE
  5
44
330
5
100
AcDbSymbolTableRecord
100
AcDbLinetypeTableRecord
  2
AM_ISO08W050
 70
     0
  3
____ . ____ . ____ . ____ . ____ . ____ . ____
 72
    65
 73
     4
 40
18.0
 49
12.0
 74
     0
 49
-1.5
 74
     0
 49
3.0
 74
     0
 49
-1.5
 74
     0
  0
LTYPE
  5
45
330
5
100
AcDbSymbolTableRecord
100
AcDbLinetypeTableRecord
  2
AM_ISO09W050
 70
     0
  3
_____ . . _____ . . _____ . . ____ .. ____
 72
    65
 73
     6
 40
22.5
 49
12.0
 74
     0
 49
-1.5
 74
     0
 49
3.0
 74
     0
 49
-1.5
 74
     0
 49
3.0
 74
     0
 49
-1.5
 74
     0
  0
LTYPE
  5
46
330
5
100
AcDbSymbolTableRecord
100
AcDbLinetypeTableRecord
  2
AMCONSTR
 70
     0
  3
_______________________
 72
    65
 73
     2
 40
9999.0
 49
9999.0
 74
     0
 49
0.0
 74
     0
  0
LTYPE
  5
47
330
5
100
AcDbSymbolTableRecord
100
AcDbLinetypeTableRecord
  2
AM_ISO02W050X2
 70
     0
  3
 _ _ _ _ _ _ _ _ _ _ _ _
 72
    65
 73
     2
 40
3.75
 49
3.0
 74
     0
 49
-0.75
 74
     0
  0
LTYPE
  5
48
330
5
100
AcDbSymbolTableRecord
100
AcDbLinetypeTableRecord
  2
AM_ISO08W050X2
 70
     0
  3
__ . __ . __ . __ . __ . __
 72
    65
 73
     4
 40
9.0
 49
6.0
 74
     0
 49
-0.75
 74
     0
 49
1.5
 74
     0
 49
-0.75
 74
     0
  0
LTYPE
  5
4B
330
5
100
AcDbSymbolTableRecord
100
AcDbLinetypeTableRecord
  2
AMZIGZAG
 70
     0
  3
/\/-/\/-/\/-/\/-/\/-/\/
 72
    65
 73
     2
 40
11.00009999999999
 49
0.0001
 74
     4
 75
   135
340
4A
 46
0.04
 50
0.0
 44
0.0
 45
0.0
 49
-11.0
 74
     0
  0
LTYPE
  5
AB0B
330
5
100
AcDbSymbolTableRecord
100
AcDbLinetypeTableRecord
  2
HIDDEN
 70
     0
  3
Hidden __ __ __ __ __ __ __ __ __ __ __ __ __ _
 72
    65
 73
     2
 40
9.524999999999998
 49
6.349999999999999
 74
     0
 49
-3.174999999999999
 74
     0
  0
LTYPE
  5
AB0C
330
5
100
AcDbSymbolTableRecord
100
AcDbLinetypeTableRecord
  2
PHANTOM2
 70
     0
  3
Phantom (.5x) ___ _ _ ___ _ _ ___ _ _ ___ _ _
 72
    65
 73
     6
 40
31.75
 49
15.875
 74
     0
 49
-3.174999999999999
 74
     0
 49
3.174999999999999
 74
     0
 49
-3.174999999999999
 74
     0
 49
3.174999999999999
 74
     0
 49
-3.174999999999999
 74
     0
  0
LTYPE
  5
AB0D
330
5
100
AcDbSymbolTableRecord
100
AcDbLinetypeTableRecord
  2
CENTER
 70
     0
  3
Center ____ _ ____ _ ____ _ ____ _ ____ _ ____
 72
    65
 73
     4
 40
50.8
 49
31.75
 74
     0
 49
-6.349999999999999
 74
     0
 49
6.349999999999999
 74
     0
 49
-6.349999999999999
 74
     0
  0
LTYPE
  5
AB4D
330
5
100
AcDbSymbolTableRecord
100
AcDbLinetypeTableRecord
  2
ACISOWELD
 70
     0
  3
_ _ _ _ _
 72
    65
 73
     2
 40
2.0
 49
2.0
 74
     0
 49
-1.0
 74
     0
  0
LTYPE
  5
AB4E
330
5
100
AcDbSymbolTableRecord
100
AcDbLinetypeTableRecord
  2
ACISOTGB
 70
     0
  3
__ . . __ . .
 72
    65
 73
     6
 40
9.0
 49
4.0
 74
     0
 49
-1.0
 74
     0
 49
1.0
 74
     0
 49
-1.0
 74
     0
 49
1.0
 74
     0
 49
-1.0
 74
     0
  0
LTYPE
  5
AB4F
330
5
100
AcDbSymbolTableRecord
100
AcDbLinetypeTableRecord
  2
ACISOTGL
 70
     0
  3
_ _ _ _ _
 72
    65
 73
     2
 40
3.0
 49
2.0
 74
     0
 49
-1.0
 74
     0
  0
ENDTAB
  0
TABLE
  2
LAYER
  5
2
330
0
100
AcDbSymbolTable
 70
    11
  0
LAYER
  5
10
330
2
100
AcDbSymbolTableRecord
100
AcDbLayerTableRecord
  2
0
 70
     0
 62
     7
  6
CONTINUOUS
370
    -3
390
F
  0
LAYER
  5
7D
330
2
100
AcDbSymbolTableRecord
100
AcDbLayerTableRecord
  2
AM_5
 70
     0
 62
     3
  6
CONTINUOUS
370
    -3
390
F
  0
LAYER
  5
7F
330
2
100
AcDbSymbolTableRecord
100
AcDbLayerTableRecord
  2
DEFPOINTS
 70
     0
 62
     7
  6
CONTINUOUS
290
     0
370
    -3
390
F
  0
LAYER
  5
12B1
330
2
100
AcDbSymbolTableRecord
100
AcDbLayerTableRecord
  2
AM_0
 70
     0
 62
     7
  6
CONTINUOUS
370
    -3
390
F
  0
LAYER
  5
2222
330
2
100
AcDbSymbolTableRecord
100
AcDbLayerTableRecord
  2
AM_6
 70
     0
 62
     2
  6
CONTINUOUS
370
    -3
390
F
  0
LAYER
  5
8B83
330
2
100
AcDbSymbolTableRecord
100
AcDbLayerTableRecord
  2
PV0001_1
 70
     0
 62
     7
  6
CONTINUOUS
370
    -3
390
F
  0
ENDTAB
  0
TABLE
  2
STYLE
  5
3
330
0
100
AcDbSymbolTable
 70
     6
  0
STYLE
  5
11
330
3
100
AcDbSymbolTableRecord
100
AcDbTextStyleTableRecord
  2
STANDARD
 70
     0
 40
0.0
 41
1.0
 50
0.0
 71
     0
 42
2.5
  3
ISOCP.SHX
  4
EXTFONT.SHX
  0
STYLE
  5
4A
330
3
100
AcDbSymbolTableRecord
100
AcDbTextStyleTableRecord
  2

 70
     1
 40
0.0
 41
1.0
 50
0.0
 71
     0
 42
2.5
  3
ltypeshp.shx
  4

  0
STYLE
  5
AB3F
330
3
100
AcDbSymbolTableRecord
100
AcDbTextStyleTableRecord
  2
ACISOTS
 70
     0
 40
1.0
 41
1.0
 50
0.0
 71
     0
 42
2.5
  3
isocp.shx
  4
extfont.shx
  0
STYLE
  5
AB4C
330
3
100
AcDbSymbolTableRecord
100
AcDbTextStyleTableRecord
  2
ACISOGDT
 70
     0
 40
0.0
 41
1.0
 50
0.0
 71
     0
 42
2.5
  3
amgdt.shx
  4

  0
ENDTAB
  0
TABLE
  2
VIEW
  5
6
330
0
100
AcDbSymbolTable
 70
     6
  0
VIEW
  5
A30
330
6
100
AcDbSymbolTableRecord
100
AcDbViewTableRecord
  2
AM_VIEW1
 70
     0
 40
148.5
 10
112.0719649561952
 20
222.75
 41
224.1439299123904
 11
0.0
 21
0.0
 31
1.0
 12
0.0
 22
0.0
 32
0.0
 42
50.0
 43
0.0
 44
0.0
 50
0.0
 71
     0
281
     0
 72
     0
  0
VIEW
  5
A31
330
6
100
AcDbSymbolTableRecord
100
AcDbViewTableRecord
  2
AM_VIEW2
 70
     0
 40
148.5
 10
307.9280350438047
 20
222.75
 41
224.1439299123904
 11
0.0
 21
0.0
 31
1.0
 12
0.0
 22
0.0
 32
0.0
 42
50.0
 43
0.0
 44
0.0
 50
0.0
 71
     0
281
     0
 72
     0
  0
VIEW
  5
A32
330
6
100
AcDbSymbolTableRecord
100
AcDbViewTableRecord
  2
AM_VIEW3
 70
     0
 40
148.5
 10
112.0719649561952
 20
74.25
 41
224.1439299123904
 11
0.0
 21
0.0
 31
1.0
 12
0.0
 22
0.0
 32
0.0
 42
50.0
 43
0.0
 44
0.0
 50
0.0
 71
     0
281
     0
 72
     0
  0
VIEW
  5
A33
330
6
100
AcDbSymbolTableRecord
100
AcDbViewTableRecord
  2
AM_VIEW4
 70
     0
 40
148.5
 10
307.9280350438047
 20
74.25
 41
224.1439299123904
 11
0.0
 21
0.0
 31
1.0
 12
0.0
 22
0.0
 32
0.0
 42
50.0
 43
0.0
 44
0.0
 50
0.0
 71
     0
281
     0
 72
     0
  0
VIEW
  5
A34
330
6
100
AcDbSymbolTableRecord
100
AcDbViewTableRecord
  2
AM_VIEW5
 70
     0
 40
148.5
 10
210.0
 20
148.5
 41
224.1439299123904
 11
0.0
 21
0.0
 31
1.0
 12
0.0
 22
0.0
 32
0.0
 42
50.0
 43
0.0
 44
0.0
 50
0.0
 71
     0
281
     0
 72
     0
  0
VIEW
  5
A35
330
6
100
AcDbSymbolTableRecord
100
AcDbViewTableRecord
  2
AM_VIEW6
 70
     0
 40
296.9970299999999
 10
210.0
 20
148.5
 41
448.2833769461826
 11
0.0
 21
0.0
 31
1.0
 12
0.0
 22
0.0
 32
0.0
 42
50.0
 43
0.0
 44
0.0
 50
0.0
 71
     0
281
     0
 72
     0
  0
ENDTAB
  0
TABLE
  2
UCS
  5
7
330
0
100
AcDbSymbolTable
 70
     0
  0
ENDTAB
  0
TABLE
  2
APPID
  5
9
330
0
100
AcDbSymbolTable
 70
    42
  0
APPID
  5
12
330
9
100
AcDbSymbolTableRecord
100
AcDbRegAppTableRecord
  2
ACAD
 70
     0
  0
APPID
  5
2C
330
9
100
AcDbSymbolTableRecord
100
AcDbRegAppTableRecord
  2
MCAD_NO_VIS
 70
     0
  0
APPID
  5
2D
330
9
100
AcDbSymbolTableRecord
100
AcDbRegAppTableRecord
  2
ACAD_TEMP_GRAPHIC
 70
     0
  0
APPID
  5
B9
330
9
100
AcDbSymbolTableRecord
100
AcDbRegAppTableRecord
  2
GENIUS_GENDTOL_13
 70
     0
  0
APPID
  5
359
330
9
100
AcDbSymbolTableRecord
100
AcDbRegAppTableRecord
  2
GENIUS_GENREC_14
 70
     0
  0
APPID
  5
35A
330
9
100
AcDbSymbolTableRecord
100
AcDbRegAppTableRecord
  2
GENIUS_GENODEF_13
 70
     0
  0
APPID
  5
35B
330
9
100
AcDbSymbolTableRecord
100
AcDbRegAppTableRecord
  2
GENIUS_GENOBJ-N-REC_13
 70
     0
  0
APPID
  5
667
330
9
100
AcDbSymbolTableRecord
100
AcDbRegAppTableRecord
  2
GENIUS_GENCFG_13
 70
     0
  0
APPID
  5
668
330
9
100
AcDbSymbolTableRecord
100
AcDbRegAppTableRecord
  2
GENIUS_GENCFG0_13
 70
     0
  0
APPID
  5
669
330
9
100
AcDbSymbolTableRecord
100
AcDbRegAppTableRecord
  2
GENIUS_GENCFG1_13
 70
     0
  0
APPID
  5
66A
330
9
100
AcDbSymbolTableRecord
100
AcDbRegAppTableRecord
  2
GENIUS_GENCFG2_13
 70
     0
  0
APPID
  5
66B
330
9
100
AcDbSymbolTableRecord
100
AcDbRegAppTableRecord
  2
GENIUS_GENCFG3_13
 70
     0
  0
APPID
  5
66C
330
9
100
AcDbSymbolTableRecord
100
AcDbRegAppTableRecord
  2
GENIUS_GENCFG4_13
 70
     0
  0
APPID
  5
A76
330
9
100
AcDbSymbolTableRecord
100
AcDbRegAppTableRecord
  2
GENIUS_GENBLLY_14
 70
     0
  0
APPID
  5
A77
330
9
100
AcDbSymbolTableRecord
100
AcDbRegAppTableRecord
  2
GENIUS_GENOBJ-N-CEN_13
 70
     0
  0
APPID
  5
A83
330
9
100
AcDbSymbolTableRecord
100
AcDbRegAppTableRecord
  2
GENIUS_GENTRA_14
 70
     0
  0
APPID
  5
A8D
330
9
100
AcDbSymbolTableRecord
100
AcDbRegAppTableRecord
  2
GENIUS_GENOBJ-N-TIT_13
 70
     0
  0
APPID
  5
A8E
330
9
100
AcDbSymbolTableRecord
100
AcDbRegAppTableRecord
  2
GENIUS_GENTITLE_13
 70
     0
  0
APPID
  5
A8F
330
9
100
AcDbSymbolTableRecord
100
AcDbRegAppTableRecord
  2
GENIUS_GENOENT_13
 70
     0
  0
APPID
  5
A90
330
9
100
AcDbSymbolTableRecord
100
AcDbRegAppTableRecord
  2
GENIUS_GENOREF_13
 70
     0
  0
APPID
  5
A91
330
9
100
AcDbSymbolTableRecord
100
AcDbRegAppTableRecord
  2
GENIUS_GENOLIS_13
 70
     0
  0
APPID
  5
A92
330
9
100
AcDbSymbolTableRecord
100
AcDbRegAppTableRecord
  2
GENIUS_GENZVEED_13
 70
     0
  0
APPID
  5
A93
330
9
100
AcDbSymbolTableRecord
100
AcDbRegAppTableRecord
  2
GENIUS_GENSCREG_15
 70
     0
  0
APPID
  5
A94
330
9
100
AcDbSymbolTableRecord
100
AcDbRegAppTableRecord
  2
GENIUS_GENOBJ-N-SDF_13
 70
     0
  0
APPID
  5
12B5
330
9
100
AcDbSymbolTableRecord
100
AcDbRegAppTableRecord
  2
GENIUS_GENOBJ-N-RSBK_13
 70
     0
  0
APPID
  5
12B6
330
9
100
AcDbSymbolTableRecord
100
AcDbRegAppTableRecord
  2
GENIUS_GENOBJ-N-LIB_13
 70
     0
  0
APPID
  5
12B7
330
9
100
AcDbSymbolTableRecord
100
AcDbRegAppTableRecord
  2
GENIUS_GENSCALE_13
 70
     0
  0
APPID
  5
12B8
330
9
100
AcDbSymbolTableRecord
100
AcDbRegAppTableRecord
  2
GENIUS_GENOBJ-N-HTC_13
 70
     0
  0
APPID
  5
12B9
330
9
100
AcDbSymbolTableRecord
100
AcDbRegAppTableRecord
  2
GENIUS_GENHATCH_13
 70
     0
  0
APPID
  5
1C0A
330
9
100
AcDbSymbolTableRecord
100
AcDbRegAppTableRecord
  2
BASE_TYPE
 70
     0
  0
APPID
  5
276B
330
9
100
AcDbSymbolTableRecord
100
AcDbRegAppTableRecord
  2
GENIUS_GENOBJ-N-FIL_13
 70
     0
  0
APPID
  5
3640
330
9
100
AcDbSymbolTableRecord
100
AcDbRegAppTableRecord
  2
GENIUS_GENBH_13
 70
     0
  0
APPID
  5
36D1
330
9
100
AcDbSymbolTableRecord
100
AcDbRegAppTableRecord
  2
GENIUS_GENOBJ-F-SPR_13
 70
     0
  0
APPID
  5
36DA
330
9
100
AcDbSymbolTableRecord
100
AcDbRegAppTableRecord
  2
GENIUS_GEFSPRING_13
 70
     0
  0
APPID
  5
36DB
330
9
100
AcDbSymbolTableRecord
100
AcDbRegAppTableRecord
  2
GENIUS_GEFSPRINGP_13
 70
     0
  0
APPID
  5
4D67
330
9
100
AcDbSymbolTableRecord
100
AcDbRegAppTableRecord
  2
GENIUS_GENFIL_13
 70
     0
  0
APPID
  5
4D68
330
9
100
AcDbSymbolTableRecord
100
AcDbRegAppTableRecord
  2
GENIUS_GENOBJ-N-CHA_13
 70
     0
  0
APPID
  5
AB0F
330
9
100
AcDbSymbolTableRecord
100
AcDbRegAppTableRecord
  2
AD_DRAW
 70
     0
  0
APPID
  5
AB12
330
9
100
AcDbSymbolTableRecord
100
AcDbRegAppTableRecord
  2
ACATTRIBSERVICES
 70
     0
  0
APPID
  5
AB30
330
9
100
AcDbSymbolTableRecord
100
AcDbRegAppTableRecord
  2
DESIGNERASSEMBLIES
 70
     0
  0
APPID
  5
AB35
330
9
100
AcDbSymbolTableRecord
100
AcDbRegAppTableRecord
  2
ACADM_DIM_EDIT
 70
     0
  0
APPID
  5
AB36
330
9
100
AcDbSymbolTableRecord
100
AcDbRegAppTableRecord
  2
AMDT_DM_ADJ
 70
     0
  0
ENDTAB
  0
TABLE
  2
DIMSTYLE
  5
A
330
0
100
AcDbSymbolTable
 70
    19
100
AcDbDimStyleTable
 71
     0
  0
DIMSTYLE
105
58
330
A
100
AcDbSymbolTableRecord
100
AcDbDimStyleTableRecord
  2
AM_JIS
 70
     0
  4
"
 41
2.5
 42
0.0
 43
10.0
 44
1.0
 47
0.1
 48
0.1000000001
 73
     0
 74
     0
 77
     3
 78
     9
140
3.799999999999998
141
0.0
143
0.0393701
146
0.71
147
1.5
172
     1
176
   256
177
   256
178
     2
271
     2
272
     2
275
     1
283
     0
284
     8
340
11
341
59
342
59
  0
DIMSTYLE
105
65F
330
A
100
AcDbSymbolTableRecord
100
AcDbDimStyleTableRecord
  2
STANDARD
 70
     0
340
11
  0
DIMSTYLE
105
1761
102
{ACAD_REACTORS
330
A71A
330
A719
330
A718
330
A77F
330
A780
330
A7DD
102
}
330
A
100
AcDbSymbolTableRecord
100
AcDbDimStyleTableRecord
  2
AM_JIS$0
 70
     0
  4
"
 41
2.5
 42
0.0
 43
10.0
 44
1.0
 47
0.1
 48
0.1000000001
 73
     0
 74
     0
 77
     3
 78
     9
140
3.799999999999998
141
0.0
143
0.0393701
146
0.71
147
1.5
172
     1
176
     3
177
     3
178
     2
271
     2
272
     2
275
     1
283
     0
284
     8
340
11
341
59
342
59
  0
DIMSTYLE
105
1762
102
{ACAD_REACTORS
330
A77E
330
A7DE
330
A9DA
102
}
330
A
100
AcDbSymbolTableRecord
100
AcDbDimStyleTableRecord
  2
AM_JIS$2
 70
     0
  4
"
 41
2.5
 42
0.0
 43
10.0
 44
1.0
 47
0.1
 48
0.1000000001
 73
     0
 74
     0
 77
     3
 78
     9
140
3.799999999999998
141
0.0
143
0.0393701
146
0.71
147
1.5
172
     1
176
     3
177
     3
178
     2
271
     2
272
     2
275
     1
283
     0
284
     8
340
11
341
59
342
59
  0
DIMSTYLE
105
8B84
102
{ACAD_REACTORS
330
A82F
102
}
330
A
100
AcDbSymbolTableRecord
100
AcDbDimStyleTableRecord
  2
AM_JISORG-1P0$2
 70
     0
  4
"
 41
2.5
 42
0.0
 43
10.0
 44
1.0
 47
0.1
 48
0.1000000001
 73
     0
 74
     0
 77
     3
 78
     1
140
3.799999999999998
141
0.0
143
0.0393701
144
-1.000004617828349
146
0.71
147
1.5
172
     1
176
     3
177
     3
178
     2
271
     2
272
     2
275
     1
283
     0
284
     8
340
11
341
59
342
59
  0
DIMSTYLE
105
AB58
330
A
100
AcDbSymbolTableRecord
100
AcDbDimStyleTableRecord
  2
AM_ISO
 70
     0
  4
"
 41
2.5
 42
1.0
 43
10.0
 44
1.0
 47
0.1
 48
0.1
 73
     0
 74
     0
 77
     1
 78
     8
 79
     2
140
3.5
141
0.0
143
0.0393701
146
0.71
147
1.5
172
     1
176
   256
177
   256
178
     2
271
     2
272
     3
274
     4
283
     0
284
     8
340
11
371
    -1
372
    -1
  0
DIMSTYLE
105
AB59
330
A
100
AcDbSymbolTableRecord
100
AcDbDimStyleTableRecord
  2
AM_ISO$3
 70
     0
  4
"
 41
2.5
 42
1.0
 43
10.0
 44
1.0
 47
0.1
 48
0.1
 73
     0
 77
     1
 78
     8
 79
     2
140
3.5
141
0.0
143
0.0393701
146
0.71
147
1.5
176
   256
177
   256
178
     2
271
     2
272
     3
274
     4
283
     0
284
     8
288
     1
289
     0
340
11
371
    -1
372
    -1
  0
DIMSTYLE
105
AB5A
330
A
100
AcDbSymbolTableRecord
100
AcDbDimStyleTableRecord
  2
AM_ISO$4
 70
     0
  4
"
 41
2.5
 42
1.0
 43
10.0
 44
1.0
 47
0.1
 48
0.1
 73
     0
 77
     1
 78
     8
 79
     2
140
3.5
141
0.0
143
0.0393701
146
0.71
147
1.5
176
   256
177
   256
178
     2
271
     2
272
     3
274
     4
283
     0
284
     8
288
     1
289
     0
340
11
371
    -1
372
    -1
  0
DIMSTYLE
105
AB5B
330
A
100
AcDbSymbolTableRecord
100
AcDbDimStyleTableRecord
  2
AM_ISO$6
 70
     0
  4
"
 41
2.5
 42
1.0
 43
10.0
 44
1.0
 47
0.1
 48
0.1
 73
     0
 74
     0
 78
     8
 79
     2
140
3.5
141
0.0
143
0.0393701
146
0.71
147
1.5
172
     1
176
   256
177
   256
178
     2
271
     2
272
     3
274
     4
283
     0
284
     8
340
11
371
    -1
372
    -1
  0
DIMSTYLE
105
AB5C
330
A
100
AcDbSymbolTableRecord
100
AcDbDimStyleTableRecord
  2
AM_ISO$7
 70
     0
  4
"
 41
2.5
 42
1.0
 43
10.0
 44
1.0
 47
0.1
 48
0.1
 73
     0
 74
     0
 77
     1
 78
     8
 79
     2
140
5.0
141
0.0
143
0.0393701
146
0.71
147
1.5
172
     1
176
   256
177
   256
178
     2
271
     2
272
     3
274
     4
283
     0
284
     8
340
11
371
    -1
372
    -1
  0
DIMSTYLE
105
AB5D
330
A
100
AcDbSymbolTableRecord
100
AcDbDimStyleTableRecord
  2
AM_ISO$SF
 70
     0
  4
"
 41
2.5
 42
1.0
 43
10.0
 44
1.0
 47
0.1
 48
0.1
 73
     0
 74
     0
 75
     1
 76
     1
 77
     1
 78
     8
 79
     2
140
3.5
141
0.0
143
0.0393701
146
0.71
147
1.5
172
     1
176
   256
177
   256
178
     2
271
     2
272
     3
274
     4
283
     0
284
     8
340
11
371
    -1
372
    -1
  0
DIMSTYLE
105
AB5E
330
A
100
AcDbSymbolTableRecord
100
AcDbDimStyleTableRecord
  2
AM_ISO$SH
 70
     0
  4
"
 41
2.5
 42
1.0
 43
10.0
 44
1.0
 47
0.1
 48
0.1
 73
     0
 74
     0
 75
     1
 76
     1
 77
     1
 78
     8
 79
     2
140
3.5
141
0.0
143
0.0393701
144
2.0
146
0.71
147
1.5
172
     1
173
     1
176
   256
177
   256
178
     2
271
     2
272
     3
274
     4
283
     0
284
     8
340
11
343
64
371
    -1
372
    -1
  0
ENDTAB
  0
TABLE
  2
BLOCK_RECORD
  5
1
330
0
100
AcDbSymbolTable
 70
    17
  0
BLOCK_RECORD
  5
1F
102
{ACAD_XDICTIONARY
360
165
102
}
330
1
100
AcDbSymbolTableRecord
100
AcDbBlockTableRecord
  2
*MODEL_SPACE
340
AAD7
  0
BLOCK_RECORD
  5
1B
102
{ACAD_XDICTIONARY
360
AA79
102
}
330
1
100
AcDbSymbolTableRecord
100
AcDbBlockTableRecord
  2
*PAPER_SPACE
340
AAD8
  0
BLOCK_RECORD
  5
59
330
1
100
AcDbSymbolTableRecord
100
AcDbBlockTableRecord
  2
_OPEN30
340
0
102
{BLKREFS
331
ABFE
331
ABFF
331
AC07
331
AC08
331
AC10
331
AC11
331
AC1C
331
AC1D
331
AC27
331
AC28
331
AC32
331
AC33
331
AC3B
331
AC3C
331
AC47
331
AC48
331
AC54
331
AC55
331
AC61
102
}
  0
BLOCK_RECORD
  5
64
330
1
100
AcDbSymbolTableRecord
100
AcDbBlockTableRecord
  2
GENAXEH
340
0
  0
BLOCK_RECORD
  5
80B7
330
1
100
AcDbSymbolTableRecord
100
AcDbBlockTableRecord
  2
_NONE
340
0
  0
BLOCK_RECORD
  5
A71B
330
1
100
AcDbSymbolTableRecord
100
AcDbBlockTableRecord
  2
*D6
340
0
  0
BLOCK_RECORD
  5
A727
330
1
100
AcDbSymbolTableRecord
100
AcDbBlockTableRecord
  2
*D7
340
0
  0
BLOCK_RECORD
  5
A733
330
1
100
AcDbSymbolTableRecord
100
AcDbBlockTableRecord
  2
*D8
340
0
  0
BLOCK_RECORD
  5
A781
330
1
100
AcDbSymbolTableRecord
100
AcDbBlockTableRecord
  2
*D9
340
0
  0
BLOCK_RECORD
  5
A78D
330
1
100
AcDbSymbolTableRecord
100
AcDbBlockTableRecord
  2
*D10
340
0
  0
BLOCK_RECORD
  5
A79C
330
1
100
AcDbSymbolTableRecord
100
AcDbBlockTableRecord
  2
*D11
340
0
  0
BLOCK_RECORD
  5
A7DF
330
1
100
AcDbSymbolTableRecord
100
AcDbBlockTableRecord
  2
*D12
340
0
  0
BLOCK_RECORD
  5
A7EB
330
1
100
AcDbSymbolTableRecord
100
AcDbBlockTableRecord
  2
*D13
340
0
  0
BLOCK_RECORD
  5
A831
330
1
100
AcDbSymbolTableRecord
100
AcDbBlockTableRecord
  2
*D14
340
0
  0
BLOCK_RECORD
  5
A9DD
330
1
100
AcDbSymbolTableRecord
100
AcDbBlockTableRecord
  2
*D15
340
0
  0
ENDTAB
  0
ENDSEC
  0
SECTION
  2
BLOCKS
  0
BLOCK
  5
20
330
1F
100
AcDbEntity
  8
0
100
AcDbBlockBegin
  2
*MODEL_SPACE
 70
     0
 10
0.0
 20
0.0
 30
0.0
  3
*MODEL_SPACE
  1

  0
ENDBLK
  5
21
330
1F
100
AcDbEntity
  8
0
100
AcDbBlockEnd
  0
BLOCK
  5
1C
330
1B
100
AcDbEntity
 67
     1
  8
0
100
AcDbBlockBegin
  2
*PAPER_SPACE
 70
     0
 10
0.0
 20
0.0
 30
0.0
  3
*PAPER_SPACE
  1

  0
ENDBLK
  5
1D
330
1B
100
AcDbEntity
 67
     1
  8
0
100
AcDbBlockEnd
  0
BLOCK
  5
5D
330
59
100
AcDbEntity
  8
0
100
AcDbBlockBegin
  2
_OPEN30
 70
     0
 10
0.0
 20
0.0
 30
0.0
  3
_OPEN30
  1

  0
LINE
  5
5A
330
59
100
AcDbEntity
  8
0
 62
     0
100
AcDbLine
 10
-1.0
 20
0.26794919
 30
0.0
 11
0.0
 21
0.0
 31
0.0
  0
LINE
  5
5B
330
59
100
AcDbEntity
  8
0
 62
     0
100
AcDbLine
 10
0.0
 20
0.0
 30
0.0
 11
-1.0
 21
-0.26794919
 31
0.0
  0
LINE
  5
5C
330
59
100
AcDbEntity
  8
0
 62
     0
100
AcDbLine
 10
0.0
 20
0.0
 30
0.0
 11
-1.0
 21
0.0
 31
0.0
  0
ENDBLK
  5
5E
330
59
100
AcDbEntity
  8
0
100
AcDbBlockEnd
  0
BLOCK
  5
66
330
64
100
AcDbEntity
  8
0
100
AcDbBlockBegin
  2
GENAXEH
 70
     0
 10
0.0
 20
0.0
 30
0.0
  3
GENAXEH
  1

  0
LINE
  5
65
330
64
100
AcDbEntity
  8
0
100
AcDbLine
 10
-1.0
 20
0.0
 30
0.0
 11
1.0
 21
0.0
 31
0.0
  0
ENDBLK
  5
67
330
64
100
AcDbEntity
  8
0
100
AcDbBlockEnd
  0
BLOCK
  5
80B8
330
80B7
100
AcDbEntity
  8
0
100
AcDbBlockBegin
  2
_NONE
 70
     0
 10
0.0
 20
0.0
 30
0.0
  3
_NONE
  1

  0
ENDBLK
  5
80B9
330
80B7
100
AcDbEntity
  8
0
100
AcDbBlockEnd
  0
BLOCK
  5
A725
330
A71B
100
AcDbEntity
  8
0
100
AcDbBlockBegin
  2
*D6
 70
     1
 10
0.0
 20
0.0
 30
0.0
  3
*D6
  1

  0
LINE
  5
AC0D
330
A71B
100
AcDbEntity
  8
PV0001_1
 62
     3
370
    -2
100
AcDbLine
 10
0.0
 20
0.1986853568573039
 30
0.0
 11
-0.0000000000000013
 21
-20.89625255394375
 31
0.0
  0
LINE
  5
AC0E
330
A71B
100
AcDbEntity
  8
PV0001_1
 62
     3
370
    -2
100
AcDbLine
 10
149.9999635092288
 20
5.164820749278227
 30
0.0
 11
149.9999635092288
 21
-20.89625255394375
 31
0.0
  0
LINE
  5
AC0F
330
A71B
100
AcDbEntity
  8
PV0001_1
 62
     3
370
    -2
100
AcDbLine
 10
2.499999999999998
 20
-19.89625255394375
 30
0.0
 11
147.4999635092288
 21
-19.89625255394375
 31
0.0
  0
INSERT
  5
AC10
330
A71B
100
AcDbEntity
  8
PV0001_1
 62
     3
370
    -2
100
AcDbBlockReference
  2
_OPEN30
 10
-0.0000000000000012
 20
-19.89625255394375
 30
0.0
 41
2.5
 42
2.5
 43
2.5
 50
180.0
  0
INSERT
  5
AC11
330
A71B
100
AcDbEntity
  8
PV0001_1
 62
     3
370
    -2
100
AcDbBlockReference
  2
_OPEN30
 10
149.9999635092288
 20
-19.89625255394375
 30
0.0
 41
2.5
 42
2.5
 43
2.5
  0
MTEXT
  5
AC12
330
A71B
100
AcDbEntity
  8
PV0001_1
 62
     2
100
AcDbMText
 10
87.49996350922883
 20
-16.49625255394375
 30
0.0
 40
3.799999999999998
 41
0.0
 71
     5
 72
     1
  1
150
 73
     1
 44
1.0
1001
ACAD
1000
MTEXTBEGIN
1070
    73
1070
     1
1070
    44
1040
1.0
1070
    74
1070
     0
1000
MTEXTEND
  0
POINT
  5
AC13
330
A71B
100
AcDbEntity
  8
DEFPOINTS
 62
     0
100
AcDbPoint
 10
0.0
 20
0.1986853568573039
 30
0.0
  0
POINT
  5
AC14
330
A71B
100
AcDbEntity
  8
DEFPOINTS
 62
     0
100
AcDbPoint
 10
149.9999635092288
 20
5.164820749278227
 30
0.0
  0
POINT
  5
AC15
330
A71B
100
AcDbEntity
  8
DEFPOINTS
 62
     0
100
AcDbPoint
 10
149.9999635092288
 20
-19.89625255394375
 30
0.0
  0
ENDBLK
  5
A726
330
A71B
100
AcDbEntity
  8
0
100
AcDbBlockEnd
  0
BLOCK
  5
A731
330
A727
100
AcDbEntity
  8
0
100
AcDbBlockBegin
  2
*D7
 70
     1
 10
0.0
 20
0.0
 30
0.0
  3
*D7
  1

  0
LINE
  5
AC04
330
A727
100
AcDbEntity
  8
AM_5
 62
     3
370
    -2
100
AcDbLine
 10
149.9999635092288
 20
4.994820749278218
 30
0.0
 11
168.0992086926708
 21
4.994820749278213
 31
0.0
  0
LINE
  5
AC05
330
A727
100
AcDbEntity
  8
AM_5
 62
     3
370
    -2
100
AcDbLine
 10
149.9999635092288
 20
29.99981220435623
 30
0.0
 11
168.0992086926708
 21
29.99981220435623
 31
0.0
  0
LINE
  5
AC06
330
A727
100
AcDbEntity
  8
AM_5
 62
     3
370
    -2
100
AcDbLine
 10
167.0992086926708
 20
7.494820749278213
 30
0.0
 11
167.0992086926708
 21
27.49981220435623
 31
0.0
  0
INSERT
  5
AC07
330
A727
100
AcDbEntity
  8
AM_5
 62
     3
370
    -2
100
AcDbBlockReference
  2
_OPEN30
 10
167.0992086926708
 20
4.994820749278213
 30
0.0
 41
2.5
 42
2.5
 43
2.5
 50
270.0
  0
INSERT
  5
AC08
330
A727
100
AcDbEntity
  8
AM_5
 62
     3
370
    -2
100
AcDbBlockReference
  2
_OPEN30
 10
167.0992086926708
 20
29.99981220435623
 30
0.0
 41
2.5
 42
2.5
 43
2.5
 50
90.0
  0
MTEXT
  5
AC09
330
A727
100
AcDbEntity
  8
AM_5
 62
     2
100
AcDbMText
 10
163.6988346769227
 20
17.49731647681725
 30
0.0
 40
3.799999999999998
 41
0.0
 71
     5
 72
     1
  1
25
 11
0.0000000000000001
 21
1.0
 31
0.0
 73
     1
 44
1.0
1001
ACAD
1000
MTEXTBEGIN
1070
    73
1070
     1
1070
    44
1040
1.0
1070
    74
1070
     0
1000
MTEXTEND
  0
POINT
  5
AC0A
330
A727
100
AcDbEntity
  8
DEFPOINTS
 62
     0
100
AcDbPoint
 10
149.9999635092288
 20
4.994820749278218
 30
0.0
  0
POINT
  5
AC0B
330
A727
100
AcDbEntity
  8
DEFPOINTS
 62
     0
100
AcDbPoint
 10
149.9999635092288
 20
29.99981220435623
 30
0.0
  0
POINT
  5
AC0C
330
A727
100
AcDbEntity
  8
DEFPOINTS
 62
     0
100
AcDbPoint
 10
167.0992086926708
 20
29.99981220435623
 30
0.0
  0
ENDBLK
  5
A732
330
A727
100
AcDbEntity
  8
0
100
AcDbBlockEnd
  0
BLOCK
  5
A73D
330
A733
100
AcDbEntity
  8
0
100
AcDbBlockBegin
  2
*D8
 70
     1
 10
0.0
 20
0.0
 30
0.0
  3
*D8
  1

  0
LINE
  5
ABFB
330
A733
100
AcDbEntity
  8
AM_5
 62
     3
370
    -2
100
AcDbLine
 10
149.9999635092288
 20
-82.25019161033975
 30
0.0
 11
171.3168074616346
 21
-82.25019161033976
 31
0.0
  0
LINE
  5
ABFC
330
A733
100
AcDbEntity
  8
AM_5
 62
     3
370
    -2
100
AcDbLine
 10
149.9999635092288
 20
-57.24520015526277
 30
0.0
 11
171.3168074616346
 21
-57.24520015526277
 31
0.0
  0
LINE
  5
ABFD
330
A733
100
AcDbEntity
  8
AM_5
 62
     3
370
    -2
100
AcDbLine
 10
170.3168074616346
 20
-79.75019161033976
 30
0.0
 11
170.3168074616346
 21
-59.74520015526277
 31
0.0
  0
INSERT
  5
ABFE
330
A733
100
AcDbEntity
  8
AM_5
 62
     3
370
    -2
100
AcDbBlockReference
  2
_OPEN30
 10
170.3168074616346
 20
-82.25019161033976
 30
0.0
 41
2.5
 42
2.5
 43
2.5
 50
270.0
  0
INSERT
  5
ABFF
330
A733
100
AcDbEntity
  8
AM_5
 62
     3
370
    -2
100
AcDbBlockReference
  2
_OPEN30
 10
170.3168074616346
 20
-57.24520015526277
 30
0.0
 41
2.5
 42
2.5
 43
2.5
 50
90.0
  0
MTEXT
  5
AC00
330
A733
100
AcDbEntity
  8
AM_5
 62
     2
100
AcDbMText
 10
166.9164334458866
 20
-69.74769588280124
 30
0.0
 40
3.799999999999998
 41
0.0
 71
     5
 72
     1
  1
25
 11
0.0000000000000001
 21
1.0
 31
0.0
 73
     1
 44
1.0
1001
ACAD
1000
MTEXTBEGIN
1070
    73
1070
     1
1070
    44
1040
1.0
1070
    74
1070
     0
1000
MTEXTEND
  0
POINT
  5
AC01
330
A733
100
AcDbEntity
  8
DEFPOINTS
 62
     0
100
AcDbPoint
 10
149.9999635092288
 20
-82.25019161033975
 30
0.0
  0
POINT
  5
AC02
330
A733
100
AcDbEntity
  8
DEFPOINTS
 62
     0
100
AcDbPoint
 10
149.9999635092288
 20
-57.24520015526277
 30
0.0
  0
POINT
  5
AC03
330
A733
100
AcDbEntity
  8
DEFPOINTS
 62
     0
100
AcDbPoint
 10
170.3168074616346
 20
-57.24520015526277
 30
0.0
  0
ENDBLK
  5
A73E
330
A733
100
AcDbEntity
  8
0
100
AcDbBlockEnd
  0
BLOCK
  5
A78B
330
A781
100
AcDbEntity
  8
0
100
AcDbBlockBegin
  2
*D9
 70
     1
 10
0.0
 20
0.0
 30
0.0
  3
*D9
  1

  0
LINE
  5
AC24
330
A781
100
AcDbEntity
  8
PV0001_1
 62
     3
370
    -2
100
AcDbLine
 10
14.59226773896683
 20
29.99981220435626
 30
0.0
 11
-30.54933242257811
 21
29.99981220435627
 31
0.0
  0
LINE
  5
AC25
330
A781
100
AcDbEntity
  8
PV0001_1
 62
     3
370
    -2
100
AcDbLine
 10
0.2055339768648991
 20
0.0
 30
0.0
 11
-30.54933242257812
 21
0.0000000000000087
 31
0.0
  0
LINE
  5
AC26
330
A781
100
AcDbEntity
  8
PV0001_1
 62
     3
370
    -2
100
AcDbLine
 10
-29.54933242257811
 20
27.49981220435627
 30
0.0
 11
-29.54933242257812
 21
2.500000000000008
 31
0.0
  0
INSERT
  5
AC27
330
A781
100
AcDbEntity
  8
PV0001_1
 62
     3
370
    -2
100
AcDbBlockReference
  2
_OPEN30
 10
-29.54933242257811
 20
29.99981220435627
 30
0.0
 41
2.5
 42
2.5
 43
2.5
 50
90.0
  0
INSERT
  5
AC28
330
A781
100
AcDbEntity
  8
PV0001_1
 62
     3
370
    -2
100
AcDbBlockReference
  2
_OPEN30
 10
-29.54933242257812
 20
0.0000000000000084
 30
0.0
 41
2.5
 42
2.5
 43
2.5
 50
270.0
  0
MTEXT
  5
AC29
330
A781
100
AcDbEntity
  8
PV0001_1
 62
     2
100
AcDbMText
 10
-32.94933242257812
 20
14.99990610217816
 30
0.0
 40
3.799999999999998
 41
0.0
 71
     5
 72
     1
  1
30
 11
0.0000000000000001
 21
1.0
 31
0.0
 73
     1
 44
1.0
1001
ACAD
1000
MTEXTBEGIN
1070
    73
1070
     1
1070
    44
1040
1.0
1070
    74
1070
     0
1000
MTEXTEND
  0
POINT
  5
AC2A
330
A781
100
AcDbEntity
  8
DEFPOINTS
 62
     0
100
AcDbPoint
 10
14.59226773896683
 20
29.99981220435626
 30
0.0
  0
POINT
  5
AC2B
330
A781
100
AcDbEntity
  8
DEFPOINTS
 62
     0
100
AcDbPoint
 10
0.2055339768648991
 20
0.0
 30
0.0
  0
POINT
  5
AC2C
330
A781
100
AcDbEntity
  8
DEFPOINTS
 62
     0
100
AcDbPoint
 10
-29.54933242257812
 20
0.0000000000000084
 30
0.0
  0
ENDBLK
  5
A78C
330
A781
100
AcDbEntity
  8
0
100
AcDbBlockEnd
  0
BLOCK
  5
A79A
330
A78D
100
AcDbEntity
  8
0
100
AcDbBlockBegin
  2
*D10
 70
     1
 10
0.0
 20
0.0
 30
0.0
  3
*D10
  1

  0
LINE
  5
AC16
330
A78D
100
AcDbEntity
  8
AM_5
 62
     3
370
    -2
100
AcDbLine
 10
17.57907676250988
 20
0.6002502441400069
 30
0.0
 11
39.52008834450784
 21
1.366519957525464
 31
0.0
  0
ARC
  5
AC17
330
A78D
100
AcDbEntity
  8
AM_5
 62
     3
370
    -2
100
AcDbCircle
 10
149.4745633797482
 20
5.206579188879508
 30
0.0
 40
111.021509875004
100
AcDbArc
 50
177.5168634645228
 51
180.0974725203969
  0
LINE
  5
AC18
330
A78D
100
AcDbEntity
  8
AM_5
 62
     3
370
    -2
100
AcDbLine
 10
38.55730087089172
 20
10.01662414366253
 30
0.0
 11
38.97957115227584
 21
19.75396840764852
 31
0.0
  0
ARC
  5
AC19
330
A78D
100
AcDbEntity
  8
AM_5
 62
     3
370
    -2
100
AcDbCircle
 10
149.4745633797482
 20
5.206579188879508
 30
0.0
 40
111.021509875004
100
AcDbArc
 50
177.5170270652284
 51
178.8072497928127
  0
ARC
  5
AC1A
330
A78D
100
AcDbEntity
  8
AM_5
 62
     3
370
    -2
100
AcDbCircle
 10
149.4745633797482
 20
5.206579188879508
 30
0.0
 40
111.021509875004
100
AcDbArc
 50
183.2904123562576
 51
184.5806350838419
  0
ARC
  5
AC1B
330
A78D
100
AcDbEntity
  8
AM_5
 62
     3
370
    -2
100
AcDbCircle
 10
149.4745633797482
 20
5.206579188879508
 30
0.0
 40
111.021509875004
100
AcDbArc
 50
180.0974725203969
 51
182.0001896286733
  0
INSERT
  5
AC1C
330
A78D
100
AcDbEntity
  8
AM_5
 62
     3
370
    -2
100
AcDbBlockReference
  2
_OPEN30
 10
38.45321416045062
 20
5.017707665393476
 30
0.0
 41
2.5
 42
2.5
 43
2.5
 50
269.4523611566049
  0
INSERT
  5
AC1D
330
A78D
100
AcDbEntity
  8
AM_5
 62
     3
370
    -2
100
AcDbBlockReference
  2
_OPEN30
 10
38.52069763299915
 20
1.331617153194593
 30
0.0
 41
2.5
 42
2.5
 43
2.5
 50
92.64530099246545
  0
MTEXT
  5
AC1E
330
A78D
100
AcDbEntity
  8
AM_5
 62
     2
100
AcDbMText
 10
42.16561713223015
 20
14.73797390634854
 30
0.0
 40
3.799999999999998
 41
0.0
 71
     5
 72
     1
  1
2°
 11
-0.0433253426313381
 21
-0.9990610164979299
 31
0.0
 73
     1
 44
1.0
1001
ACAD
1000
MTEXTBEGIN
1070
    73
1070
     1
1070
    44
1040
1.0
1070
    74
1070
     0
1000
MTEXTEND
  0
POINT
  5
AC1F
330
A78D
100
AcDbEntity
  8
DEFPOINTS
 62
     0
100
AcDbPoint
 10
38.4846021911249
 20
2.560039887545895
 30
0.0
  0
POINT
  5
AC20
330
A78D
100
AcDbEntity
  8
DEFPOINTS
 62
     0
100
AcDbPoint
 10
24.99996160188186
 20
4.994820749278261
 30
0.0
  0
POINT
  5
AC21
330
A78D
100
AcDbEntity
  8
DEFPOINTS
 62
     0
100
AcDbPoint
 10
17.57907676250988
 20
0.6002502441400069
 30
0.0
  0
POINT
  5
AC22
330
A78D
100
AcDbEntity
  8
DEFPOINTS
 62
     0
100
AcDbPoint
 10
4.226575846981857
 20
0.1339263916010011
 30
0.0
  0
POINT
  5
AC23
330
A78D
100
AcDbEntity
  8
DEFPOINTS
 62
     0
100
AcDbPoint
 10
125.0028743699299
 20
5.164947509764971
 30
0.0
  0
ENDBLK
  5
A79B
330
A78D
100
AcDbEntity
  8
0
100
AcDbBlockEnd
  0
BLOCK
  5
A7A8
330
A79C
100
AcDbEntity
  8
0
100
AcDbBlockBegin
  2
*D11
 70
     1
 10
0.0
 20
0.0
 30
0.0
  3
*D11
  1

  0
LINE
  5
AC2D
330
A79C
100
AcDbEntity
  8
AM_5
 62
     3
370
    -2
100
AcDbLine
 10
0.2077698128069215
 20
1.253951080101636
 30
0.0
 11
-17.27854880007492
 21
1.253951080101641
 31
0.0
  0
LINE
  5
AC2E
330
A79C
100
AcDbEntity
  8
AM_5
 62
     3
370
    -2
100
AcDbLine
 10
-9.406483359094464
 20
0.0
 30
0.0
 11
-17.27854880007492
 21
0.0000000000000022
 31
0.0
  0
LINE
  5
AC2F
330
A79C
100
AcDbEntity
  8
AM_5
 62
     3
370
    -2
100
AcDbLine
 10
-16.27854880007492
 20
-2.499999999999998
 30
0.0
 11
-16.27854880007492
 21
-4.999999999999998
 31
0.0
  0
LINE
  5
AC30
330
A79C
100
AcDbEntity
  8
AM_5
 62
     3
370
    -2
100
AcDbLine
 10
-16.27854880007492
 20
3.75395108010164
 30
0.0
 11
-16.27854880007492
 21
16.73267152976112
 31
0.0
  0
LINE
  5
AC31
330
A79C
100
AcDbEntity
  8
AM_5
 62
     3
370
    -2
100
AcDbLine
 10
-16.27854880007492
 20
0.0000000000000019
 30
0.0
 11
-16.27854880007492
 21
1.25395108010164
 31
0.0
  0
INSERT
  5
AC32
330
A79C
100
AcDbEntity
  8
AM_5
 62
     3
370
    -2
100
AcDbBlockReference
  2
_OPEN30
 10
-16.27854880007492
 20
0.0000000000000019
 30
0.0
 41
2.5
 42
2.5
 43
2.5
 50
90.0
  0
INSERT
  5
AC33
330
A79C
100
AcDbEntity
  8
AM_5
 62
     3
370
    -2
100
AcDbBlockReference
  2
_OPEN30
 10
-16.27854880007492
 20
1.25395108010164
 30
0.0
 41
2.5
 42
2.5
 43
2.5
 50
270.0
  0
MTEXT
  5
AC34
330
A79C
100
AcDbEntity
  8
AM_5
 62
     2
100
AcDbMText
 10
-19.67892281582295
 20
11.54397095291023
 30
0.0
 40
3.799999999999998
 41
0.0
 71
     5
 72
     1
  1
1.25
 11
0.0000000000000001
 21
1.0
 31
0.0
 73
     1
 44
1.0
1001
ACAD
1000
MTEXTBEGIN
1070
    73
1070
     1
1070
    44
1040
1.0
1070
    74
1070
     0
1000
MTEXTEND
  0
POINT
  5
AC35
330
A79C
100
AcDbEntity
  8
DEFPOINTS
 62
     0
100
AcDbPoint
 10
0.2077698128069215
 20
1.253951080101636
 30
0.0
  0
POINT
  5
AC36
330
A79C
100
AcDbEntity
  8
DEFPOINTS
 62
     0
100
AcDbPoint
 10
-9.406483359094464
 20
0.0
 30
0.0
  0
POINT
  5
AC37
330
A79C
100
AcDbEntity
  8
DEFPOINTS
 62
     0
100
AcDbPoint
 10
-16.27854880007492
 20
0.0000000000000019
 30
0.0
  0
ENDBLK
  5
A7A9
330
A79C
100
AcDbEntity
  8
0
100
AcDbBlockEnd
  0
BLOCK
  5
A7E9
330
A7DF
100
AcDbEntity
  8
0
100
AcDbBlockBegin
  2
*D12
 70
     1
 10
0.0
 20
0.0
 30
0.0
  3
*D12
  1

  0
LINE
  5
AC38
330
A7DF
100
AcDbEntity
  8
PV0001_1
 62
     3
370
    -2
100
AcDbLine
 10
-0.0000541791187131
 20
-57.25013374012476
 30
0.0
 11
-24.0338084801499
 21
-57.25013374012476
 31
0.0
  0
LINE
  5
AC39
330
A7DF
100
AcDbEntity
  8
PV0001_1
 62
     3
370
    -2
100
AcDbLine
 10
4.099963890699815
 20
-82.25019161033973
 30
0.0
 11
-24.0338084801499
 21
-82.25019161033973
 31
0.0
  0
LINE
  5
AC3A
330
A7DF
100
AcDbEntity
  8
PV0001_1
 62
     3
370
    -2
100
AcDbLine
 10
-23.0338084801499
 20
-59.75013374012476
 30
0.0
 11
-23.0338084801499
 21
-79.75019161033973
 31
0.0
  0
INSERT
  5
AC3B
330
A7DF
100
AcDbEntity
  8
PV0001_1
 62
     3
370
    -2
100
AcDbBlockReference
  2
_OPEN30
 10
-23.0338084801499
 20
-57.25013374012476
 30
0.0
 41
2.5
 42
2.5
 43
2.5
 50
90.0
  0
INSERT
  5
AC3C
330
A7DF
100
AcDbEntity
  8
PV0001_1
 62
     3
370
    -2
100
AcDbBlockReference
  2
_OPEN30
 10
-23.0338084801499
 20
-82.25019161033973
 30
0.0
 41
2.5
 42
2.5
 43
2.5
 50
270.0
  0
MTEXT
  5
AC3D
330
A7DF
100
AcDbEntity
  8
PV0001_1
 62
     2
100
AcDbMText
 10
-26.43418249589792
 20
-67.2501700261071
 30
0.0
 40
3.799999999999998
 41
0.0
 71
     5
 72
     1
  1
25
 11
0.0000000000000001
 21
1.0
 31
0.0
 73
     1
 44
1.0
1001
ACAD
1000
MTEXTBEGIN
1070
    73
1070
     1
1070
    44
1040
1.0
1070
    74
1070
     0
1000
MTEXTEND
  0
POINT
  5
AC3E
330
A7DF
100
AcDbEntity
  8
DEFPOINTS
 62
     0
100
AcDbPoint
 10
-0.0000541791187131
 20
-57.25013374012476
 30
0.0
  0
POINT
  5
AC3F
330
A7DF
100
AcDbEntity
  8
DEFPOINTS
 62
     0
100
AcDbPoint
 10
4.099963890699815
 20
-82.25019161033973
 30
0.0
  0
POINT
  5
AC40
330
A7DF
100
AcDbEntity
  8
DEFPOINTS
 62
     0
100
AcDbPoint
 10
-23.0338084801499
 20
-82.25019161033973
 30
0.0
  0
ENDBLK
  5
A7EA
330
A7DF
100
AcDbEntity
  8
0
100
AcDbBlockEnd
  0
BLOCK
  5
A7F8
330
A7EB
100
AcDbEntity
  8
0
100
AcDbBlockBegin
  2
*D13
 70
     1
 10
0.0
 20
0.0
 30
0.0
  3
*D13
  1

  0
LINE
  5
AC41
330
A7EB
100
AcDbEntity
  8
AM_5
 62
     3
370
    -2
100
AcDbLine
 10
17.57613295467035
 20
-55.55393146198776
 30
0.0
 11
41.80678789947626
 21
-53.40434726826375
 31
0.0
  0
LINE
  5
AC42
330
A7EB
100
AcDbEntity
  8
AM_5
 62
     3
370
    -2
100
AcDbLine
 10
40.93536648370757
 20
-55.38068067488542
 30
0.0
 11
42.62493469353472
 21
-57.00380323070465
 31
0.0
  0
LINE
  5
AC43
330
A7EB
100
AcDbEntity
  8
AM_5
 62
     3
370
    -2
100
AcDbLine
 10
42.62493469353472
 20
-57.00380323070465
 30
0.0
 11
50.77493469353472
 21
-57.00380323070465
 31
0.0
  0
ARC
  5
AC44
330
A7EB
100
AcDbEntity
  8
AM_5
 62
     3
370
    -2
100
AcDbCircle
 10
-0.990394845677617
 20
-57.20103158300704
 30
0.0
 40
41.96526111532334
100
AcDbArc
 50
353.0750480393966
 51
356.4888392248926
  0
ARC
  5
AC45
330
A7EB
100
AcDbEntity
  8
AM_5
 62
     3
370
    -2
100
AcDbCircle
 10
-0.990394845677617
 20
-57.20103158300704
 30
0.0
 40
41.96526111532334
100
AcDbArc
 50
8.483423901227959
 51
11.89721508672398
  0
ARC
  5
AC46
330
A7EB
100
AcDbEntity
  8
AM_5
 62
     3
370
    -2
100
AcDbCircle
 10
-0.990394845677617
 20
-57.20103158300704
 30
0.0
 40
41.96526111532334
100
AcDbArc
 50
359.9026304103886
 51
5.069632715731935
  0
INSERT
  5
AC47
330
A7EB
100
AcDbEntity
  8
AM_5
 62
     3
370
    -2
100
AcDbBlockReference
  2
_OPEN30
 10
40.97480567123368
 20
-57.27234814978813
 30
0.0
 41
2.5
 42
2.5
 43
2.5
 50
88.19573481764061
  0
INSERT
  5
AC48
330
A7EB
100
AcDbEntity
  8
AM_5
 62
     3
370
    -2
100
AcDbBlockReference
  2
_OPEN30
 10
40.81069985918062
 20
-53.49271364184525
 30
0.0
 41
2.5
 42
2.5
 43
2.5
 50
276.7765283084799
  0
MTEXT
  5
AC49
330
A7EB
100
AcDbEntity
  8
AM_5
 62
     2
100
AcDbMText
 10
47.44993469353473
 20
-53.60380323070463
 30
0.0
 40
3.799999999999998
 41
0.0
 71
     5
 72
     1
  1
5°
 73
     1
 44
1.0
1001
ACAD
1000
MTEXTBEGIN
1070
    73
1070
     1
1070
    44
1040
1.0
1070
    74
1070
     0
1000
MTEXTEND
  0
POINT
  5
AC4A
330
A7EB
100
AcDbEntity
  8
DEFPOINTS
 62
     0
100
AcDbPoint
 10
40.9579901218392
 20
-56.01101515695283
 30
0.0
  0
POINT
  5
AC4B
330
A7EB
100
AcDbEntity
  8
DEFPOINTS
 62
     0
100
AcDbPoint
 10
24.99996160188185
 20
-57.24520015526274
 30
0.0
  0
POINT
  5
AC4C
330
A7EB
100
AcDbEntity
  8
DEFPOINTS
 62
     0
100
AcDbPoint
 10
17.57613295467035
 20
-55.55393146198776
 30
0.0
  0
POINT
  5
AC4D
330
A7EB
100
AcDbEntity
  8
DEFPOINTS
 62
     0
100
AcDbPoint
 10
4.22413176448537
 20
-56.73843310993677
 30
0.0
  0
POINT
  5
AC4E
330
A7EB
100
AcDbEntity
  8
DEFPOINTS
 62
     0
100
AcDbPoint
 10
124.9999458208803
 20
-57.4151422850468
 30
0.0
  0
ENDBLK
  5
A7F9
330
A7EB
100
AcDbEntity
  8
0
100
AcDbBlockEnd
  0
BLOCK
  5
A83E
330
A831
100
AcDbEntity
  8
0
100
AcDbBlockBegin
  2
*D14
 70
     1
 10
0.0
 20
0.0
 30
0.0
  3
*D14
  1

  0
LINE
  5
AC4F
330
A831
100
AcDbEntity
  8
PV0001_1
 62
     3
370
    -2
100
AcDbLine
 10
-101.6546883433984
 20
1.132635951480864
 30
0.0
 11
-110.4237377052827
 21
1.409958005278369
 31
0.0
  0
LINE
  5
AC50
330
A831
100
AcDbEntity
  8
PV0001_1
 62
     3
370
    -2
100
AcDbLine
 10
-76.69264819394578
 20
-0.0001343922698283
 30
0.0
 11
-110.4415289943279
 21
-0.4057525137001952
 31
0.0
  0
ARC
  5
AC51
330
A831
100
AcDbEntity
  8
PV0001_1
 62
     3
370
    -2
100
AcDbCircle
 10
-68.82570586069518
 20
0.0944161319234991
 30
0.0
 40
40.6188287168664
100
AcDbArc
 50
171.1346456973763
 51
174.661632361015
  0
ARC
  5
AC52
330
A831
100
AcDbEntity
  8
PV0001_1
 62
     3
370
    -2
100
AcDbCircle
 10
-68.82570586069518
 20
0.0944161319234991
 30
0.0
 40
40.6188287168664
100
AcDbArc
 50
184.2155750548979
 51
187.7425617185366
  0
ARC
  5
AC53
330
A831
100
AcDbEntity
  8
PV0001_1
 62
     3
370
    -2
100
AcDbCircle
 10
-68.82570586069518
 20
0.0944161319234991
 30
0.0
 40
40.6188287168664
100
AcDbArc
 50
178.1886190246536
 51
180.6885883912592
  0
INSERT
  5
AC54
330
A831
100
AcDbEntity
  8
PV0001_1
 62
     3
370
    -2
100
AcDbBlockReference
  2
_OPEN30
 10
-109.4242374039267
 20
1.37834870934396
 30
0.0
 41
2.5
 42
2.5
 43
2.5
 50
266.4251256928344
  0
INSERT
  5
AC55
330
A831
100
AcDbEntity
  8
PV0001_1
 62
     3
370
    -2
100
AcDbBlockReference
  2
_OPEN30
 10
-109.4416012112385
 20
-0.3937346683872878
 30
0.0
 41
2.5
 42
2.5
 43
2.5
 50
92.4520817230786
  0
MTEXT
  5
AC56
330
A831
100
AcDbEntity
  8
PV0001_1
 62
     2
100
AcDbMText
 10
-112.8427955786159
 20
0.5257187861272302
 30
0.0
 40
3.799999999999998
 41
0.0
 71
     5
 72
     1
  1
2°
 11
0.0097980569258282
 21
0.9999519978881378
 31
0.0
 73
     1
 44
1.0
1001
ACAD
1000
MTEXTBEGIN
1070
    73
1070
     1
1070
    44
1040
1.0
1070
    74
1070
     0
1000
MTEXTEND
  0
POINT
  5
AC57
330
A831
100
AcDbEntity
  8
DEFPOINTS
 62
     0
100
AcDbPoint
 10
-109.4386166359152
 20
0.7877592606464488
 30
0.0
  0
POINT
  5
AC58
330
A831
100
AcDbEntity
  8
DEFPOINTS
 62
     0
100
AcDbPoint
 10
-92.88447044788847
 20
0.8552769426918301
 30
0.0
  0
POINT
  5
AC59
330
A831
100
AcDbEntity
  8
DEFPOINTS
 62
     0
100
AcDbPoint
 10
-52.52387474477849
 20
0.2903431658368305
 30
0.0
  0
POINT
  5
AC5A
330
A831
100
AcDbEntity
  8
DEFPOINTS
 62
     0
100
AcDbPoint
 10
-76.69264819394578
 20
-0.0001343922698283
 30
0.0
  0
POINT
  5
AC5B
330
A831
100
AcDbEntity
  8
DEFPOINTS
 62
     0
100
AcDbPoint
 10
-101.6546883433984
 20
1.132635951480864
 30
0.0
  0
ENDBLK
  5
A83F
330
A831
100
AcDbEntity
  8
0
100
AcDbBlockEnd
  0
BLOCK
  5
A9EC
330
A9DD
100
AcDbEntity
  8
0
100
AcDbBlockBegin
  2
*D15
 70
     1
 10
0.0
 20
0.0
 30
0.0
  3
*D15
  1

  0
LINE
  5
AC5C
330
A9DD
100
AcDbEntity
  8
AM_5
 62
     3
370
    -2
100
AcDbLine
 10
-0.0000691955687726
 20
-57.25017002610737
 30
0.0
 11
-23.63621443384237
 21
-52.89663556839893
 31
0.0
  0
LINE
  5
AC5D
330
A9DD
100
AcDbEntity
  8
AM_5
 62
     3
370
    -2
100
AcDbLine
 10
-24.06585486057775
 20
-57.25017002610737
 30
0.0
 11
-22.0338084801499
 21
-57.25017002610738
 31
0.0
  0
ARC
  5
AC5E
330
A9DD
100
AcDbEntity
  8
AM_5
 62
     3
370
    -2
100
AcDbCircle
 10
-0.0000691955687726
 20
-57.25017002610737
 30
0.0
 40
23.03373928458113
100
AcDbArc
 50
163.3419426409191
 51
169.5636788511229
  0
LINE
  5
AC5F
330
A9DD
100
AcDbEntity
  8
AM_5
 62
     3
370
    -2
100
AcDbLine
 10
-22.06714225577329
 20
-50.64733487856263
 30
0.0
 11
-18.75622755747276
 21
-39.58205838583199
 31
0.0
  0
ARC
  5
AC60
330
A9DD
100
AcDbEntity
  8
AM_5
 62
     3
370
    -2
100
AcDbCircle
 10
-0.0000691955687726
 20
-57.25017002610737
 30
0.0
 40
23.03373928458113
100
AcDbArc
 50
175.7854150613267
 51
180.0
  0
INSERT
  5
AC61
330
A9DD
100
AcDbEntity
  8
AM_5
 62
     3
370
    -2
100
AcDbBlockReference
  2
_OPEN30
 10
-22.65275759600285
 20
-53.07777818653915
 30
0.0
 41
2.5
 42
2.5
 43
2.5
 50
82.67454695622481
  0
MTEXT
  5
AC62
330
A9DD
100
AcDbEntity
  8
AM_5
 62
     2
100
AcDbMText
 10
-23.66899573565196
 20
-44.14005507598763
 30
0.0
 40
3.799999999999998
 41
0.0
 71
     5
 72
     1
  1
10°
 11
0.2866592812381412
 21
0.9580325967732164
 31
0.0
 73
     1
 44
1.0
1001
ACAD
1000
MTEXTBEGIN
1070
    73
1070
     1
1070
    44
1040
1.0
1070
    74
1070
     0
1000
MTEXTEND
  0
POINT
  5
AC63
330
A9DD
100
AcDbEntity
  8
DEFPOINTS
 62
     0
100
AcDbPoint
 10
-22.99136527958817
 20
-55.85251133851218
 30
0.0
  0
POINT
  5
AC64
330
A9DD
100
AcDbEntity
  8
DEFPOINTS
 62
     0
100
AcDbPoint
 10
-0.0000555642561793
 20
-57.25017253685472
 30
0.0
  0
POINT
  5
AC65
330
A9DD
100
AcDbEntity
  8
DEFPOINTS
 62
     0
100
AcDbPoint
 10
-24.06585486057775
 20
-57.25017002610737
 30
0.0
  0
POINT
  5
AC66
330
A9DD
100
AcDbEntity
  8
DEFPOINTS
 62
     0
100
AcDbPoint
 10
-30.42064772830619
 20
-57.25017002610736
 30
0.0
  0
POINT
  5
AC67
330
A9DD
100
AcDbEntity
  8
DEFPOINTS
 62
     0
100
AcDbPoint
 10
2.160776716424575
 20
-57.64817558246301
 30
0.0
  0
ENDBLK
  5
A9ED
330
A9DD
100
AcDbEntity
  8
0
100
AcDbBlockEnd
  0
ENDSEC
  0
SECTION
  2
ENTITIES
  0
TEXT
  5
83BD
330
1F
100
AcDbEntity
  8
AM_6
100
AcDbText
 10
52.88788942107883
 20
-107.7543701291768
 30
0.0
 40
5.0
  1
GWCR2525-15
 72
     4
 11
73.11200107343052
 21
-105.2543701291767
 31
0.0
100
AcDbText
  0
LINE
  5
A3A5
330
1F
100
AcDbEntity
  8
PV0001_1
  6
Continuous
100
AcDbLine
 10
24.99996160188185
 20
-57.24520015526273
 30
0.0
 11
149.9999635092288
 21
-57.24520015526277
 31
0.0
  0
LINE
  5
A3A6
330
1F
100
AcDbEntity
  8
PV0001_1
  6
Continuous
100
AcDbLine
 10
149.9999635092288
 20
-82.25019161033975
 30
0.0
 11
29.99996160188184
 21
-82.25019161033973
 31
0.0
  0
LINE
  5
A3A7
330
1F
100
AcDbEntity
  8
PV0001_1
  6
Continuous
100
AcDbLine
 10
24.99996160188186
 20
4.994820749278261
 30
0.0
 11
149.9999635092288
 21
4.994820749278218
 31
0.0
  0
LINE
  5
A3A8
330
1F
100
AcDbEntity
  8
PV0001_1
  6
Continuous
100
AcDbLine
 10
24.99996160188186
 20
29.99981220435626
 30
0.0
 11
149.9999635092288
 21
29.99981220435623
 31
0.0
  0
LINE
  5
A3AB
330
1F
100
AcDbEntity
  8
PV0001_1
  6
Continuous
 48
0.5
100
AcDbLine
 10
1.435960518507832
 20
-60.61186782646572
 30
0.0
 11
8.023568855909832
 21
-70.01368055589143
 31
0.0
  0
LINE
  5
A3AC
330
1F
100
AcDbEntity
  8
PV0001_1
  6
Continuous
 48
0.5
100
AcDbLine
 10
12.70685743012881
 20
-70.66160712767043
 30
0.0
 11
17.64555524506982
 21
-60.06221381950773
 31
0.0
  0
LINE
  5
A3AD
330
1F
100
AcDbEntity
  8
PV0001_1
  6
Continuous
 48
0.5
100
AcDbLine
 10
24.12288068452282
 20
-82.25015727806473
 30
0.0
 11
23.88847516694482
 21
-54.86146537590474
 31
0.0
  0
LINE
  5
A3AE
330
1F
100
AcDbEntity
  8
PV0001_1
  6
Continuous
 48
0.5
100
AcDbLine
 10
0.4999635092298053
 20
-78.75019161034024
 30
0.0
 11
0.4999635092298075
 21
-60.69489375877772
 31
0.0
  0
LINE
  5
A3AF
330
1F
100
AcDbEntity
  8
PV0001_1
  6
Continuous
 48
0.5
100
AcDbLine
 10
24.99996160188184
 20
-82.25019161033973
 30
0.0
 11
24.99996160188185
 21
-57.24520015526273
 31
0.0
  0
LINE
  5
A3B0
330
1F
100
AcDbEntity
  8
PV0001_1
  6
Continuous
 48
0.5
100
AcDbLine
 10
0.3650529257338276
 20
-59.04840175438373
 30
0.0
 11
8.052751289991864
 21
-70.02060441932283
 31
0.0
  0
LINE
  5
A3B1
330
1F
100
AcDbEntity
  8
PV0001_1
  6
Continuous
 48
0.5
100
AcDbLine
 10
11.97848676362484
 20
-72.20599762726223
 30
0.0
 11
17.64268277802885
 21
-60.04940597343834
 31
0.0
  0
ELLIPSE
  5
A3B7
330
1F
100
AcDbEntity
  8
PV0001_1
  6
Continuous
 48
0.5
100
AcDbEllipse
 10
7.474458443311837
 20
-71.58649508285913
 30
0.0
 11
-2.735481134049996
 21
0.4582826328783003
 31
0.0
210
0.0
220
0.0
230
1.0
 40
0.5949995095991
 41
4.599815203064383
 42
4.610414254212662
  0
LINE
  5
A3B8
330
1F
100
AcDbEntity
  8
PV0001_1
  6
Continuous
 48
0.5
100
AcDbLine
 10
4.199964272169826
 20
-82.25019161033973
 30
0.0
 11
24.12286351838581
 21
-82.25019161033973
 31
0.0
  0
LINE
  5
A3B9
330
1F
100
AcDbEntity
  8
PV0001_1
  6
Continuous
 48
0.5
100
AcDbLine
 10
4.199964272169826
 20
-82.25019161033973
 30
0.0
 11
24.12286351838581
 21
-82.25019161033973
 31
0.0
  0
LINE
  5
A3BA
330
1F
100
AcDbEntity
  8
PV0001_1
  6
Continuous
 48
0.5
100
AcDbLine
 10
3.999959694532823
 20
-82.25019065666572
 30
0.0
 11
0.4999558798358425
 21
-78.75018684196863
 31
0.0
  0
LINE
  5
A3BB
330
1F
100
AcDbEntity
  8
PV0001_1
  6
Continuous
 48
0.5
100
AcDbLine
 10
3.999963509229804
 20
-82.25019161033973
 30
0.0
 11
4.199964272169826
 21
-82.25019161033973
 31
0.0
  0
ARC
  5
A3BC
330
1F
100
AcDbEntity
  8
PV0001_1
  6
Continuous
 48
0.5
100
AcDbCircle
 10
10.92376111665178
 20
-73.21469942856222
 30
0.0
 40
1.9999824762344
100
AcDbArc
 50
230.0323054539238
 51
5.068821267512104
  0
ARC
  5
A3BD
330
1F
100
AcDbEntity
  8
PV0001_1
  6
Continuous
 48
0.5
100
AcDbCircle
 10
10.75196241059785
 20
-73.07068697739044
 30
0.0
 40
2.000024318695099
100
AcDbArc
 50
233.248709835977
 51
5.068821267512104
  0
ARC
  5
A3BE
330
1F
100
AcDbEntity
  8
PV0001_1
  6
Continuous
 48
0.5
100
AcDbCircle
 10
7.990365730909832
 20
-72.01868502426544
 30
0.0
 40
1.9993273019791
100
AcDbArc
 50
19.56418553781338
 51
50.03230363269175
  0
ARC
  5
A3C0
330
1F
100
AcDbEntity
  8
PV0001_1
  6
Continuous
 48
0.5
100
AcDbCircle
 10
10.92376111665178
 20
-73.21469942856222
 30
0.0
 40
1.998717188835098
100
AcDbArc
 50
185.0690745250845
 51
230.0323054539238
  0
ARC
  5
A3C1
330
1F
100
AcDbEntity
  8
PV0001_1
  6
Continuous
 48
0.5
100
AcDbCircle
 10
7.990365730909832
 20
-72.01868502426544
 30
0.0
 40
1.9999824762344
100
AcDbArc
 50
50.03230363269175
 51
88.2112510929304
  0
LINE
  5
A3C2
330
1F
100
AcDbEntity
  8
PV0001_1
  6
Continuous
 48
0.5
100
AcDbLine
 10
8.023565041212796
 20
-70.01370458494513
 30
0.0
 11
8.724965798048847
 21
-71.01481167602933
 31
0.0
  0
LINE
  5
A3C3
330
1F
100
AcDbEntity
  8
PV0001_1
  6
Continuous
 48
0.5
100
AcDbLine
 10
8.724950539259841
 20
-71.01478330421844
 30
0.0
 11
8.932851540235834
 21
-73.39128104973233
 31
0.0
  0
LINE
  5
A3C4
330
1F
100
AcDbEntity
  8
PV0001_1
  6
Continuous
 48
0.5
100
AcDbLine
 10
12.70688031831183
 20
-70.66159103441633
 30
0.0
 11
12.91477750459181
 21
-73.03808824348843
 31
0.0
  0
LINE
  5
A3C5
330
1F
100
AcDbEntity
  8
PV0001_1
  6
Continuous
 48
0.5
100
AcDbLine
 10
12.67865155854684
 20
-71.56048707294852
 30
0.0
 11
12.62215207734583
 21
-71.51318709183133
 31
0.0
  0
LINE
  5
A3C6
330
1F
100
AcDbEntity
  8
PV0001_1
  6
Continuous
 48
0.5
100
AcDbLine
 10
12.62216733613484
 20
-71.51317135620513
 30
0.0
 11
12.66626523652484
 21
-71.41847495365533
 31
0.0
  0
LINE
  5
A3C7
330
1F
100
AcDbEntity
  8
PV0001_1
  6
Continuous
 48
0.5
100
AcDbLine
 10
12.74297498383985
 20
-72.89409081268704
 30
0.0
 11
12.9147736898938
 21
-73.03809134292993
 31
0.0
  0
LINE
  5
A3C8
330
1F
100
AcDbEntity
  8
PV0001_1
  6
Continuous
 48
0.5
100
AcDbLine
 10
12.74294446626184
 20
-72.89410368729034
 30
0.0
 11
12.62214444795084
 21
-71.51320783424774
 31
0.0
  0
LINE
  5
A3C9
330
1F
100
AcDbEntity
  8
PV0001_1
  6
Continuous
 48
0.5
100
AcDbLine
 10
12.67865537324382
 20
-71.56048206615844
 30
0.0
 11
12.63815091767781
 21
-71.09797267246634
 31
0.0
  0
LINE
  5
A3CA
330
1F
100
AcDbEntity
  8
PV0001_1
  6
Continuous
 48
0.5
100
AcDbLine
 10
12.63815091767781
 20
-71.09798495102322
 30
0.0
 11
12.67234967866384
 21
-70.88109098005682
 31
0.0
  0
LINE
  5
A3CB
330
1F
100
AcDbEntity
  8
PV0001_1
  6
Continuous
 48
0.5
100
AcDbLine
 10
12.6723649374528
 20
-70.88108633089453
 30
0.0
 11
12.70686505952283
 21
-70.66158268976602
 31
0.0
  0
LINE
  5
A3CC
330
1F
100
AcDbEntity
  8
PV0001_1
  6
Continuous
 48
0.5
100
AcDbLine
 10
10.53615354218885
 20
-73.21789852905664
 30
0.0
 11
11.97845243134985
 21
-72.20599905777373
 31
0.0
  0
LINE
  5
A3CD
330
1F
100
AcDbEntity
  8
PV0001_1
  6
Continuous
 48
0.5
100
AcDbLine
 10
10.53617643037283
 20
-73.21789972114953
 30
0.0
 11
9.874269234327801
 21
-71.34919277954492
 31
0.0
  0
LINE
  5
A3D4
330
1F
100
AcDbEntity
  8
PV0001_1
  6
Continuous
 48
0.5
100
AcDbLine
 10
29.99996160188184
 20
-82.25019161033973
 30
0.0
 11
24.99996160188184
 21
-82.25019161033973
 31
0.0
  0
LINE
  5
A3D5
330
1F
100
AcDbEntity
  8
PV0001_1
  6
Continuous
 48
0.5
100
AcDbLine
 10
29.99996160188184
 20
-82.25019161033973
 30
0.0
 11
24.99996160188184
 21
-82.25019161033973
 31
0.0
  0
LINE
  5
A3D6
330
1F
100
AcDbEntity
  8
PV0001_1
  6
Continuous
 48
0.5
100
AcDbLine
 10
24.12286351838581
 20
-82.25019161033973
 30
0.0
 11
24.99996160188184
 21
-82.25019161033973
 31
0.0
  0
LINE
  5
A3D7
330
1F
100
AcDbEntity
  8
PV0001_1
  6
Continuous
 48
0.5
100
AcDbLine
 10
24.12286351838581
 20
-82.25019161033973
 30
0.0
 11
24.99996160188184
 21
-82.25019161033973
 31
0.0
  0
ELLIPSE
  5
A3D8
330
1F
100
AcDbEntity
  8
PV0001_1
  6
Continuous
 48
0.5
100
AcDbEllipse
 10
16.38799832978683
 20
-55.01414386558973
 30
0.0
 11
-5.996624760795995
 21
-0.531938042450998
 31
0.0
210
0.0
220
0.0
230
0.9999999999999998
 40
0.0346704739286
 41
0.9600791996566998
 42
3.141553914901208
  0
ELLIPSE
  5
A3D9
330
1F
100
AcDbEntity
  8
PV0001_1
  6
Continuous
 48
0.5
100
AcDbEllipse
 10
15.85260556855683
 20
-48.89384547996974
 30
0.0
 11
-5.996622860907996
 21
-0.531937873918997
 31
0.0
210
0.0
220
0.0
230
0.9999999999999998
 40
0.0346704552106
 41
1.5707117289401
 42
4.712389079991097
  0
ELLIPSE
  5
A3DA
330
1F
100
AcDbEntity
  8
PV0001_1
  6
Continuous
 48
0.5
100
AcDbEllipse
 10
19.33868955293183
 20
17.99994953345828
 30
0.0
 11
1.519392922946999
 21
1.196258513936001
 31
0.0
210
0.0
220
0.0
230
1.0
 40
0.9781168734497999
 41
5.032833708515478
 42
7.383304661297102
  0
ELLIPSE
  5
A3DB
330
1F
100
AcDbEntity
  8
PV0001_1
  6
Continuous
 48
0.5
100
AcDbEllipse
 10
19.33868955293183
 20
17.99994953345828
 30
0.0
 11
1.519392922946999
 21
1.196258513936001
 31
0.0
210
0.0
220
0.0
230
1.0
 40
0.9781168734497999
 41
1.100104761101456
 42
1.891246177154248
  0
SPLINE
  5
A3DC
330
1F
100
AcDbEntity
  8
PV0001_1
  6
Continuous
 48
0.5
100
AcDbSpline
210
0.0
220
0.0
230
1.0
 70
     8
 71
     3
 72
    11
 73
     7
 74
     5
 42
0.0000000001
 43
0.0000000001
 44
0.0000000001
 40
0.0
 40
0.0
 40
0.0
 40
0.0
 40
1.371915578288402
 40
2.743920379610035
 40
4.115785380302126
 40
5.487700958590524
 40
5.487700958590524
 40
5.487700958590524
 40
5.487700958590524
 10
11.42418836274583
 20
0.5049849338492578
 30
0.0
 10
11.04086857434869
 20
0.7543721409400775
 30
0.0
 10
10.27420406821126
 20
1.253162774110279
 30
0.0
 10
9.124232711144115
 20
2.00132958815179
 30
0.0
 10
7.974165553026775
 20
2.749349134573023
 30
0.0
 10
7.207552881263953
 20
3.248133990327879
 30
0.0
 10
6.824239479688855
 20
3.497531015391267
 30
0.0
 11
11.42418836274583
 21
0.5049849338492578
 31
0.0
 11
10.27422879853684
 21
1.253146249766267
 31
0.0
 11
9.124177681593835
 21
2.00133045386827
 31
0.0
 11
7.97419904389784
 21
2.749369699474257
 31
0.0
 11
6.824239479688855
 21
3.497531015391267
 31
0.0
  0
SPLINE
  5
A3DD
330
1F
100
AcDbEntity
  8
PV0001_1
  6
Continuous
 48
0.5
100
AcDbSpline
210
0.0
220
0.0
230
1.0
 70
     8
 71
     3
 72
    11
 73
     7
 74
     5
 42
0.0000000001
 43
0.0000000001
 44
0.0000000001
 40
0.0
 40
0.0
 40
0.0
 40
0.0
 40
1.86617229585511
 40
3.604833589768505
 40
5.127393569551603
 40
6.34522350009403
 40
6.34522350009403
 40
6.34522350009403
 40
6.34522350009403
 10
16.01329969087083
 20
4.885653573985273
 30
0.0
 10
15.55423613436654
 20
4.465854976122486
 30
0.0
 10
14.66747571465567
 20
3.65494159482607
 30
0.0
 10
13.42416153866991
 20
2.482191918716516
 30
0.0
 10
12.34778761769014
 20
1.447301373827514
 30
0.0
 10
11.70835317968819
 20
0.7949084880690407
 30
0.0
 10
11.42418836274583
 20
0.5049849338492578
 30
0.0
 11
16.01329969087083
 21
4.885653573985273
 31
0.0
 11
14.63949750581184
 21
3.622614938731274
 31
0.0
 11
13.37377332368384
 21
2.430605966563277
 31
0.0
 11
12.28045819917184
 21
1.37095936011827
 31
0.0
 11
11.42418836274583
 21
0.5049849338492578
 31
0.0
  0
SPLINE
  5
A3DE
330
1F
100
AcDbEntity
  8
PV0001_1
  6
Continuous
 48
0.5
100
AcDbSpline
210
0.0
220
0.0
230
1.0
 70
     8
 71
     3
 72
    11
 73
     7
 74
     5
 42
0.0000000001
 43
0.0000000001
 44
0.0000000001
 40
0.0
 40
0.0
 40
0.0
 40
0.0
 40
1.270255311205033
 40
2.832454025997062
 40
4.59723115343345
 40
6.474631837844417
 40
6.474631837844417
 40
6.474631837844417
 40
6.474631837844417
 10
6.824239479688855
 20
3.497531015391267
 30
0.0
 10
6.916138911907729
 20
3.910907560362673
 30
0.0
 10
7.12105906809921
 20
4.832667185163025
 30
0.0
 10
7.523948421106387
 20
6.311601460011047
 30
0.0
 10
8.007150740346782
 20
7.977794123717842
 30
0.0
 10
8.375223521299885
 20
9.134778163306165
 30
0.0
 10
8.564950691847855
 20
9.731158334727254
 30
0.0
 11
6.824239479688855
 21
3.497531015391267
 31
0.0
 11
7.108648049024851
 21
4.735537607188277
 31
0.0
 11
7.510015236524851
 21
6.245295602794264
 31
0.0
 11
8.00371717133987
 21
7.93960865211028
 31
0.0
 11
8.564950691847855
 21
9.731158334727254
 31
0.0
  0
ELLIPSE
  5
A3DF
330
1F
100
AcDbEntity
  8
PV0001_1
  6
Continuous
 48
0.5
100
AcDbEllipse
 10
15.89199613252082
 20
12.85203846168127
 30
0.0
 11
4.798130075649
 21
3.777702545313998
 31
0.0
210
0.0
220
0.0
230
1.0
 40
0.9781385068769999
 41
6.281342957068267
 42
6.925808162937116
  0
ELLIPSE
  5
A3E0
330
1F
100
AcDbEntity
  8
PV0001_1
  6
Continuous
 48
0.5
100
AcDbEllipse
 10
17.15296338715983
 20
2.226115304942268
 30
0.0
 11
0.3960113525389985
 21
0.0
 31
0.0
210
0.0
220
0.0
230
1.0
 40
0.5050283204254002
 41
1.697607559014485
 42
1.699866926066035
  0
ELLIPSE
  5
A3E1
330
1F
100
AcDbEntity
  8
PV0001_1
  6
Continuous
 48
0.5
100
AcDbEllipse
 10
-74.49822832426615
 20
13.76081379127029
 30
0.0
 11
0.2825701114200021
 21
8.095070123968
 31
0.0
210
0.0
220
0.0
230
1.0
 40
0.0870987547957
 41
0.0
 42
0.8243057413839965
  0
ELLIPSE
  5
A3E2
330
1F
100
AcDbEntity
  8
PV0001_1
  6
Continuous
 48
0.5
100
AcDbEllipse
 10
-74.49822832426615
 20
13.76081379127029
 30
0.0
 11
0.2825701114200021
 21
8.095070123968
 31
0.0
210
0.0
220
0.0
230
1.0
 40
0.0870987547957
 41
5.903431192002011
 42
6.283185307179585
  0
ELLIPSE
  5
A3E3
330
1F
100
AcDbEntity
  8
PV0001_1
  6
Continuous
 48
0.5
100
AcDbEllipse
 10
-74.49823595365614
 20
13.76080616187629
 30
0.0
 11
0.2127989568100064
 21
6.096286543714995
 31
0.0
210
0.0
220
0.0
230
1.0
 40
0.0870981649897
 41
3.141591649862484
 42
3.323679718127509
  0
ELLIPSE
  5
A3E4
330
1F
100
AcDbEntity
  8
PV0001_1
  6
Continuous
 48
0.5
100
AcDbEllipse
 10
-74.49823595365614
 20
13.76080616187629
 30
0.0
 11
0.2127989568100064
 21
6.096286543714995
 31
0.0
210
0.0
220
0.0
230
1.0
 40
0.0870981649897
 41
1.152553891107737
 42
3.1415936573171
  0
ELLIPSE
  5
A3E5
330
1F
100
AcDbEntity
  8
PV0001_1
  6
Continuous
 48
0.5
100
AcDbEllipse
 10
-74.74293352445612
 20
17.91900928687629
 30
0.0
 11
0.0697708877699916
 21
1.998783112438004
 31
0.0
210
0.0
220
0.0
230
1.0
 40
0.0871005670189
 41
0.824297638050994
 42
2.554328208181638
  0
ELLIPSE
  5
A3E6
330
1F
100
AcDbEntity
  8
PV0001_1
  6
Continuous
 48
0.5
100
AcDbEllipse
 10
-68.42513109525611
 20
13.5488081760363
 30
0.0
 11
0.1395417755500015
 21
3.997566224875995
 31
0.0
210
0.0
220
0.0
230
0.9999999999999998
 40
0.0871006340741
 41
0.0
 42
3.141593657288646
  0
ELLIPSE
  5
A3E7
330
1F
100
AcDbEntity
  8
PV0001_1
  6
Continuous
 48
0.5
100
AcDbEllipse
 10
-68.42513109525611
 20
13.5488081760363
 30
0.0
 11
0.1395417755500015
 21
3.997566224875995
 31
0.0
210
0.0
220
0.0
230
0.9999999999999998
 40
0.0871006340741
 41
3.141591649890937
 42
6.283185307179585
  0
SPLINE
  5
A3E8
330
1F
100
AcDbEntity
  8
PV0001_1
  6
Continuous
 48
0.5
100
AcDbSpline
210
0.0
220
0.0
230
1.0
 70
     8
 71
     3
 72
    11
 73
     7
 74
     5
 42
0.0000000001
 43
0.0000000001
 44
0.0000000001
 40
0.0
 40
0.0
 40
0.0
 40
0.0
 40
1.894474214314695
 40
3.789759856627705
 40
5.682625649444323
 40
7.56766953810565
 40
7.56766953810565
 40
7.56766953810565
 40
7.56766953810565
 10
-72.65173937162614
 20
2.775408823009293
 30
0.0
 10
-72.15994894886726
 20
3.1767084692475
 30
0.0
 10
-71.17615746310156
 20
3.979479643592917
 30
0.0
 10
-70.11117336907767
 20
5.571447595764503
 30
0.0
 10
-69.36274964230181
 20
7.330608348409811
 30
0.0
 10
-69.2257046923128
 20
8.588810509608521
 30
0.0
 10
-69.15732408842615
 20
9.216609079356288
 30
0.0
 11
-72.65173937162614
 21
2.775408823009293
 31
0.0
 11
-71.24472643217614
 21
4.044009286876288
 31
0.0
 11
-70.16333605131613
 21
5.600512582774278
 31
0.0
 11
-69.45242906888613
 21
7.35480793189528
 31
0.0
 11
-69.15732408842615
 21
9.216609079356288
 31
0.0
  0
SPLINE
  5
A3E9
330
1F
100
AcDbEntity
  8
PV0001_1
  6
Continuous
 48
0.5
100
AcDbSpline
210
0.0
220
0.0
230
1.0
 70
     8
 71
     3
 72
    11
 73
     7
 74
     0
 42
0.0000000001
 43
0.0000000001
 40
0.0
 40
0.0
 40
0.0
 40
0.0
 40
0.5448718683067961
 40
1.08974630454379
 40
1.634522973750248
 40
2.179387679092334
 40
2.179387679092334
 40
2.179387679092334
 40
2.179387679092334
 10
-72.28493334135611
 20
0.6271086521102874
 30
0.0
 10
-72.31549585434446
 20
0.8061427109646572
 30
0.0
 10
-72.37662102435938
 20
1.164211672444181
 30
0.0
 10
-72.46831851373894
 20
1.701280826644918
 30
0.0
 10
-72.56004396835315
 20
2.238342783178275
 30
0.0
 10
-72.62117234295543
 20
2.596375714925123
 30
0.0
 10
-72.6517389996296
 20
2.77540664420087
 30
0.0
  0
SPLINE
  5
A3EA
330
1F
100
AcDbEntity
  8
PV0001_1
  6
Continuous
 48
0.5
100
AcDbSpline
210
0.0
220
0.0
230
1.0
 70
     8
 71
     3
 72
    11
 73
     7
 74
     5
 42
0.0000000001
 43
0.0000000001
 44
0.0000000001
 40
0.0
 40
0.0
 40
0.0
 40
0.0
 40
1.525464285347259
 40
3.118888369638579
 40
4.796125299200719
 40
6.560515566724748
 40
6.560515566724748
 40
6.560515566724748
 40
6.560515566724748
 10
-68.56342150052613
 20
5.738108713145273
 30
0.0
 10
-68.65570011298706
 20
5.234446649184292
 30
0.0
 10
-68.84436837217565
 20
4.204684255790446
 30
0.0
 10
-69.6685037381993
 20
2.80491202465064
 30
0.0
 10
-70.80369743611647
 20
1.547090730189687
 30
0.0
 10
-71.78292230645695
 20
0.9389031160924261
 30
0.0
 10
-72.28493334135611
 20
0.6271086521102874
 30
0.0
 11
-68.56342150052613
 21
5.738108713145273
 31
0.0
 11
-68.92333055814616
 21
4.255709726329278
 31
0.0
 11
-69.69573046049617
 21
2.862010080333291
 31
0.0
 11
-70.83232714017616
 21
1.628611642833291
 31
0.0
 11
-72.28493334135611
 21
0.6271086521102874
 31
0.0
  0
ELLIPSE
  5
A3EB
330
1F
100
AcDbEntity
  8
PV0001_1
  6
Continuous
 48
0.5
100
AcDbEllipse
 10
-68.42513109525611
 20
13.5488081760363
 30
0.0
 11
0.1395417755500015
 21
3.997566224875995
 31
0.0
210
0.0
220
0.0
230
0.9999999999999998
 40
0.0871006340741
 41
3.141591649890937
 42
6.283185307179585
  0
ELLIPSE
  5
A3EC
330
1F
100
AcDbEntity
  8
PV0001_1
  6
Continuous
 48
0.5
100
AcDbEllipse
 10
-68.42513109525611
 20
13.5488081760363
 30
0.0
 11
0.1395417755500015
 21
3.997566224875995
 31
0.0
210
0.0
220
0.0
230
0.9999999999999998
 40
0.0871006340741
 41
0.0
 42
3.141593657288646
  0
ELLIPSE
  5
A3ED
330
1F
100
AcDbEntity
  8
PV0001_1
  6
Continuous
 48
0.5
100
AcDbEllipse
 10
-70.04073168119609
 20
19.23060901832129
 30
0.0
 11
0.401000940839992
 21
-1.915168819783004
 31
0.0
210
0.0
220
0.0
230
1.0
 40
0.0155366302402
 41
1.96702400571482
 42
3.141598280473183
  0
ELLIPSE
  5
A3EE
330
1F
100
AcDbEntity
  8
PV0001_1
  6
Continuous
 48
0.5
100
AcDbEllipse
 10
-68.42513109525611
 20
13.5488158054313
 30
0.0
 11
0.2093047836600036
 21
5.996349135233996
 31
0.0
210
0.0
220
0.0
230
1.0
 40
0.0870992998919
 41
4.053940751909703
 42
6.283185307179585
  0
ELLIPSE
  5
A3EF
330
1F
100
AcDbEntity
  8
PV0001_1
  6
Continuous
 48
0.5
100
AcDbEllipse
 10
-68.42513109525611
 20
13.5488158054313
 30
0.0
 11
0.2093047836600036
 21
5.996349135233996
 31
0.0
210
0.0
220
0.0
230
1.0
 40
0.0870992998919
 41
0.0
 42
1.432335067236313
  0
ELLIPSE
  5
A3F0
330
1F
100
AcDbEntity
  8
PV0001_1
  6
Continuous
 48
0.5
100
AcDbEllipse
 10
-78.47673631986618
 20
0.2622099704702876
 30
0.0
 11
0.3267593525000052
 21
-0.0564270041210051
 31
0.0
210
0.0
220
0.0
230
1.0
 40
0.5931950862553002
 41
4.939353390277947
 42
6.5082318056795
  0
ELLIPSE
  5
A3F1
330
1F
100
AcDbEntity
  8
PV0001_1
  6
Continuous
 48
0.5
100
AcDbEllipse
 10
-78.47673631986618
 20
0.2622099704702876
 30
0.0
 11
0.3267593525000052
 21
-0.0564270041210051
 31
0.0
210
0.0
220
0.0
230
1.0
 40
0.5931950862553002
 41
4.902562690786681
 42
4.939353390277947
  0
ELLIPSE
  5
A3F2
330
1F
100
AcDbEntity
  8
PV0001_1
  6
Continuous
 48
0.5
100
AcDbEllipse
 10
-76.68783403715616
 20
0.1998091525992862
 30
0.0
 11
0.0048141393099997
 21
0.1999435452899973
 31
0.0
210
0.0
220
0.0
230
1.0
 40
0.1889959955663
 41
3.141592191025459
 42
4.704652102819383
  0
ELLIPSE
  5
A3F3
330
1F
100
AcDbEntity
  8
PV0001_1
  6
Continuous
 48
0.5
100
AcDbEllipse
 10
-76.64792467435614
 20
1.793810922618284
 30
0.0
 11
0.0055847221499903
 21
0.200325009791996
 31
0.0
210
0.0
220
0.0
230
1.0
 40
0.1885972674007
 41
4.730299911733933
 42
6.283185307179585
  0
ELLIPSE
  5
A3F4
330
1F
100
AcDbEntity
  8
PV0001_1
  6
Continuous
 48
0.5
100
AcDbEllipse
 10
-78.76543260892616
 20
1.719210702891281
 30
0.0
 11
0.3235015841100051
 21
-0.0197219841389968
 31
0.0
210
0.0
220
0.0
230
1.0
 40
0.6124722013156
 41
1.725451071222035
 42
1.765452059423538
  0
ELLIPSE
  5
A3F5
330
1F
100
AcDbEntity
  8
PV0001_1
  6
Continuous
 48
0.5
100
AcDbEllipse
 10
-78.76543260892616
 20
1.719210702891281
 30
0.0
 11
0.3235015841100051
 21
-0.0197219841389968
 31
0.0
210
0.0
220
0.0
230
1.0
 40
0.6124722013156
 41
0.1592661930190556
 42
1.725451071222035
  0
ELLIPSE
  5
A3F6
330
1F
100
AcDbEntity
  8
PV0001_1
  6
Continuous
 48
0.5
100
AcDbEllipse
 10
-75.73173357328617
 20
-20.34649364281171
 30
0.0
 11
0.9086539603800007
 21
28.75174521923998
 31
0.0
210
0.0
220
0.0
230
1.0
 40
0.0695262331136
 41
0.6463164023203741
 42
0.6910371557022276
  0
ELLIPSE
  5
A3F7
330
1F
100
AcDbEntity
  8
PV0001_1
  6
Continuous
 48
0.5
100
AcDbEllipse
 10
-75.78162981351614
 20
-21.92339031029172
 30
0.0
 11
0.9051888773599969
 21
28.64210261792198
 31
0.0
210
0.0
220
0.0
230
1.0
 40
0.0697923810693
 41
0.3617087521645587
 42
0.5423893252531396
  0
ELLIPSE
  5
A3F8
330
1F
100
AcDbEntity
  8
PV0001_1
  6
Continuous
 48
0.5
100
AcDbEllipse
 10
-75.08723284086613
 20
0.0365172214462746
 30
0.0
 11
1.999000540720004
 21
-0.0631828288370008
 31
0.0
210
0.0
220
0.0
230
1.0
 40
0.0376986080102
 41
2.12540117743404
 42
2.474390766679268
  0
ELLIPSE
  5
A3F9
330
1F
100
AcDbEntity
  8
PV0001_1
  6
Continuous
 48
0.5
100
AcDbEllipse
 10
-75.02632738431611
 20
1.960513193126288
 30
0.0
 11
2.00306695930999
 21
0.064327234912994
 31
0.0
210
0.0
220
0.0
230
1.0
 40
0.0378734451367
 41
3.790555420912013
 42
4.024912235793481
  0
ELLIPSE
  5
A3FA
330
1F
100
AcDbEntity
  8
PV0001_1
  6
Continuous
 48
0.5
100
AcDbEllipse
 10
-74.65482927640618
 20
13.71071155738427
 30
0.0
 11
2.714546260050003
 21
22.762916372862
 31
0.0
210
0.0
220
0.0
230
1.0
 40
0.0072888767864
 41
4.076794694231153
 42
4.268168895084441
  0
ELLIPSE
  5
A3FB
330
1F
100
AcDbEntity
  8
PV0001_1
  6
Continuous
 48
0.5
100
AcDbEllipse
 10
-75.00173021635609
 20
2.741511423106288
 30
0.0
 11
2.003067075160001
 21
0.0643310556509955
 31
0.0
210
0.0
220
0.0
230
1.0
 40
0.037871540902
 41
4.064728289769624
 42
4.169387143757426
  0
ELLIPSE
  5
A3FC
330
1F
100
AcDbEntity
  8
PV0001_1
  6
Continuous
 48
0.5
100
AcDbEllipse
 10
-74.93282915433614
 20
0.7982054538682846
 30
0.0
 11
0.0241622980699958
 21
0.1985359221149991
 31
0.0
210
0.0
220
0.0
230
1.0
 40
0.1675088892512
 41
3.247731377743658
 42
4.328337048301524
  0
ELLIPSE
  5
A3FE
330
1F
100
AcDbEntity
  8
PV0001_1
  6
Continuous
 48
0.5
100
AcDbEllipse
 10
0.3605592123548076
 20
-59.07689754295772
 30
0.0
 11
-0.2287445340409987
 21
0.3282622931880006
 31
0.0
210
0.0
220
0.0
230
1.0
 40
0.0499676735118
 41
4.765459022705893
 42
6.360549647120985
  0
ELLIPSE
  5
A400
330
1F
100
AcDbEntity
  8
PV0001_1
  6
Continuous
 48
0.5
100
AcDbEllipse
 10
19.16436170258986
 20
-56.28999416160974
 30
0.0
 11
0.1346731103429982
 21
0.157859801731
 31
0.0
210
0.0
220
0.0
230
1.0
 40
0.0471822680059
 41
4.712376030574143
 42
4.71276868771863
  0
ELLIPSE
  5
A406
330
1F
100
AcDbEntity
  8
PV0001_1
  6
Continuous
 48
0.5
100
AcDbEllipse
 10
18.88796399751185
 20
-58.67009059715674
 30
0.0
 11
1.001707971385002
 21
1.761375500866999
 31
0.0
210
0.0
220
0.0
230
1.0
 40
0.4442050242338001
 41
2.681269441355834
 42
2.691885823340433
  0
ELLIPSE
  5
A409
330
1F
100
AcDbEntity
  8
PV0001_1
  6
Continuous
 48
0.5
100
AcDbEllipse
 10
19.06676648774583
 20
2.475115854259264
 30
0.0
 11
-0.0089559597569995
 21
0.2002029491510058
 31
0.0
210
0.0
220
0.0
230
1.0
 40
0.6711571691483002
 41
4.738221874269519
 42
6.344415815225677
  0
ELLIPSE
  5
A40A
330
1F
100
AcDbEntity
  8
PV0001_1
  6
Continuous
 48
0.5
100
AcDbEllipse
 10
0.2040650717298149
 20
0.1998091525992578
 30
0.0
 11
0.2010345447579951
 21
0.0358123787329987
 31
0.0
210
0.0
220
0.0
230
1.0
 40
0.9784386474409
 41
2.967120141987026
 42
4.576294209668585
  0
ELLIPSE
  5
A40B
330
1F
100
AcDbEntity
  8
PV0001_1
  6
Continuous
 48
0.5
100
AcDbEllipse
 10
17.53696607270682
 20
0.7982130832632635
 30
0.0
 11
-0.4001312206669996
 21
0.0074005055709991
 31
0.0
210
0.0
220
0.0
230
1.0
 40
0.4959771297881
 41
1.711964809957046
 42
3.283940175946151
  0
ELLIPSE
  5
A40C
330
1F
100
AcDbEntity
  8
PV0001_1
  6
Continuous
 48
0.5
100
AcDbEllipse
 10
19.16435979524083
 20
0.8835097141222689
 30
0.0
 11
-0.013671880267001
 21
0.199523925215999
 31
0.0
210
0.0
220
0.0
230
1.0
 40
0.6725172268218002
 41
3.135199831869109
 42
4.703078645955092
  0
ELLIPSE
  5
A40D
330
1F
100
AcDbEntity
  8
PV0001_1
  6
Continuous
 48
0.5
100
AcDbEllipse
 10
2.00956128755081
 20
13.71071155738424
 30
0.0
 11
-1.036514295439994
 21
22.762918016612
 31
0.0
210
0.0
220
0.0
230
1.0
 40
0.087424459208
 41
4.069173490714281
 42
4.262095348601161
  0
ELLIPSE
  5
A40E
330
1F
100
AcDbEntity
  8
PV0001_1
  6
Continuous
 48
0.5
100
AcDbEllipse
 10
0.2007691732928266
 20
1.053810922618268
 30
0.0
 11
-0.1962280306279993
 21
0.0572128128629999
 31
0.0
210
0.0
220
0.0
230
1.0
 40
0.9785017093083999
 41
4.958197259069238
 42
6.564639379739324
  0
ELLIPSE
  5
A40F
330
1F
100
AcDbEntity
  8
PV0001_1
  6
Continuous
 48
0.5
100
AcDbEllipse
 10
17.15296338715983
 20
2.226115304942268
 30
0.0
 11
0.3935699333840005
 21
0.0240783688630017
 31
0.0
210
0.0
220
0.0
230
1.0
 40
0.5036643166537002
 41
0.102717917728404
 42
1.704435624562406
  0
ELLIPSE
  5
A410
330
1F
100
AcDbEntity
  8
PV0001_1
  6
Continuous
 48
0.5
100
AcDbEllipse
 10
17.53696607270682
 20
0.7982130832632635
 30
0.0
 11
-0.4001312206669996
 21
0.0074005055709991
 31
0.0
210
0.0
220
0.0
230
1.0
 40
0.4959771297881
 41
1.675880219904569
 42
1.711964809957046
  0
ELLIPSE
  5
A411
330
1F
100
AcDbEntity
  8
PV0001_1
  6
Continuous
 48
0.5
100
AcDbEllipse
 10
2.525361763624856
 20
0.036509592052262
 30
0.0
 11
1.998573292526997
 21
0.0753784203000119
 31
0.0
210
0.0
220
0.0
230
1.0
 40
0.0316007184586
 41
0.5576365724805741
 42
1.754204272783668
  0
ELLIPSE
  5
A412
330
1F
100
AcDbEntity
  8
PV0001_1
  6
Continuous
 48
0.5
100
AcDbEllipse
 10
2.452768074659843
 20
1.220520822520271
 30
0.0
 11
-2.004257131340998
 21
0.0761870052679973
 31
0.0
210
0.0
220
0.0
230
1.0
 40
0.0318611750204
 41
1.392338272356613
 42
2.444288205480483
  0
ELLIPSE
  5
A413
330
1F
100
AcDbEntity
  8
PV0001_1
  6
Continuous
 48
0.5
100
AcDbEllipse
 10
2.42336438813686
 20
2.001511423106265
 30
0.0
 11
-2.004257131340998
 21
0.0761870052679973
 31
0.0
210
0.0
220
0.0
230
1.0
 40
0.0318535710401
 41
2.500059483928081
 42
2.572628981742822
  0
ELLIPSE
  5
A414
330
1F
100
AcDbEntity
  8
PV0001_1
  6
Continuous
 48
0.5
100
AcDbEllipse
 10
20.17285703339984
 20
-19.60179607201073
 30
0.0
 11
-2.084025402674995
 21
28.69331508985
 31
0.0
210
0.0
220
0.0
230
1.0
 40
0.0602419312814
 41
0.6455107523339239
 42
0.6895099474877826
  0
ELLIPSE
  5
A415
330
1F
100
AcDbEntity
  8
PV0001_1
  6
Continuous
 48
0.5
100
AcDbEllipse
 10
20.23236631074382
 20
-21.17869273949074
 30
0.0
 11
-2.07892794997899
 21
28.58370461478399
 31
0.0
210
0.0
220
0.0
230
1.0
 40
0.0604798873302
 41
0.3765294128938776
 42
0.5408484341400004
  0
ELLIPSE
  5
A416
330
1F
100
AcDbEntity
  8
PV0001_1
  6
Continuous
 48
0.5
100
AcDbEllipse
 10
18.88796399751185
 20
14.45530994605629
 30
0.0
 11
0.9496452246490093
 21
22.92734761510999
 31
0.0
210
0.0
220
0.0
230
1.0
 40
0.0368196261649
 41
1.980293262406426
 42
2.045192069569253
  0
ELLIPSE
  5
A417
330
1F
100
AcDbEntity
  8
PV0001_1
  6
Continuous
 48
0.5
100
AcDbEllipse
 10
18.88796399751185
 20
14.45540912818428
 30
0.0
 11
0.9496438629000095
 21
22.92744693868201
 31
0.0
210
0.0
220
0.0
230
0.9999999999999998
 40
0.0368194800103
 41
2.04518909842335
 42
2.120722392315546
  0
LINE
  5
A418
330
1F
100
AcDbEntity
  8
PV0001_1
  6
Continuous
 48
0.5
100
AcDbLine
 10
-98.15003038724613
 20
1.199809152599286
 30
0.0
 11
-80.06392504056611
 21
1.199809152599279
 31
0.0
  0
LINE
  5
A419
330
1F
100
AcDbEntity
  8
PV0001_1
  6
Continuous
 48
0.5
100
AcDbLine
 10
-98.15003038724613
 20
0.8896056003522829
 30
0.0
 11
-80.09471727689618
 21
0.3186064548452876
 31
0.0
  0
LINE
  5
A41A
330
1F
100
AcDbEntity
  8
PV0001_1
  6
Continuous
 48
0.5
100
AcDbLine
 10
-101.650030387246
 20
11.9998122043563
 30
0.0
 11
-75.49603868802613
 21
11.99981220435629
 31
0.0
  0
LINE
  5
A41B
330
1F
100
AcDbEntity
  8
PV0001_1
  6
Continuous
 48
0.5
100
AcDbLine
 10
-84.9290373452561
 20
5.176608163829286
 30
0.0
 11
-75.74445177396613
 21
4.886210519786281
 31
0.0
  0
LINE
  5
A41C
330
1F
100
AcDbEntity
  8
PV0001_1
  6
Continuous
 48
0.5
100
AcDbLine
 10
-101.650030387246
 20
29.99981220435631
 30
0.0
 11
-73.95822740873613
 21
29.99981220435627
 31
0.0
  0
LINE
  5
A41D
330
1F
100
AcDbEntity
  8
PV0001_1
  6
Continuous
 48
0.5
100
AcDbLine
 10
-76.21040941556611
 20
2.642207223888284
 30
0.0
 11
-84.00072313627616
 21
2.394305307384279
 31
0.0
  0
LINE
  5
A41E
330
1F
100
AcDbEntity
  8
PV0001_1
  6
Continuous
 48
0.5
100
AcDbLine
 10
-78.44824816068615
 20
0.0613051242782845
 30
0.0
 11
-86.21636034330618
 21
0.5122099704702876
 31
0.0
  0
LINE
  5
A41F
330
1F
100
AcDbEntity
  8
PV0001_1
  6
Continuous
 48
0.5
100
AcDbLine
 10
-78.81601549467614
 20
1.917407114024278
 30
0.0
 11
-83.83220506986615
 21
1.621409494395287
 31
0.0
  0
LINE
  5
A421
330
1F
100
AcDbEntity
  8
PV0001_1
  6
Continuous
 48
0.5
100
AcDbLine
 10
-101.650030387246
 20
11.9998122043563
 30
0.0
 11
-101.650030387246
 21
29.99981220435631
 31
0.0
  0
LINE
  5
A423
330
1F
100
AcDbEntity
  8
PV0001_1
  6
AM_ISO02W050
 48
0.5
100
AcDbLine
 10
-97.65003038724616
 20
11.9998122043563
 30
0.0
 11
-93.65003038724616
 21
11.9998122043563
 31
0.0
  0
LINE
  5
A424
330
1F
100
AcDbEntity
  8
PV0001_1
  6
Continuous
 48
0.5
100
AcDbLine
 10
-101.650030387246
 20
1.199809152599286
 30
0.0
 11
-101.650030387246
 21
11.9998122043563
 31
0.0
  0
LINE
  5
A425
330
1F
100
AcDbEntity
  8
PV0001_1
  6
Continuous
 48
0.5
100
AcDbLine
 10
-101.650030387246
 20
1.199809152599286
 30
0.0
 11
-98.15003038724613
 21
1.199809152599286
 31
0.0
  0
LINE
  5
A426
330
1F
100
AcDbEntity
  8
PV0001_1
  6
Continuous
 48
0.5
100
AcDbLine
 10
-101.6500151284561
 20
1.132311899181289
 30
0.0
 11
-98.15001512845617
 21
0.8896132297472831
 31
0.0
  0
LINE
  5
A427
330
1F
100
AcDbEntity
  8
PV0001_1
  6
Continuous
 48
0.5
100
AcDbLine
 10
-101.650030387246
 20
1.132311899181289
 30
0.0
 11
-101.650030387246
 21
1.199809152599286
 31
0.0
  0
LINE
  5
A428
330
1F
100
AcDbEntity
  8
PV0001_1
  6
Continuous
 48
0.5
100
AcDbLine
 10
-98.15003038724613
 20
0.8896132297472831
 30
0.0
 11
-98.15003038724613
 21
1.199809152599286
 31
0.0
  0
LINE
  5
A429
330
1F
100
AcDbEntity
  8
PV0001_1
  6
Continuous
 48
0.5
100
AcDbLine
 10
-84.49092699369611
 20
3.660914499278284
 30
0.0
 11
-84.0639250405661
 21
1.199816781993284
 31
0.0
  0
LINE
  5
A42A
330
1F
100
AcDbEntity
  8
PV0001_1
  6
Continuous
 48
0.5
100
AcDbLine
 10
-84.55394579252617
 20
4.162913400645287
 30
0.0
 11
-84.16524339994611
 21
2.384615976329278
 31
0.0
  0
LINE
  5
A42B
330
1F
100
AcDbEntity
  8
PV0001_1
  6
Continuous
 48
0.5
100
AcDbLine
 10
-84.8957121499461
 20
3.673708993907283
 30
0.0
 11
-84.49091173490613
 21
3.660914499278284
 31
0.0
  0
LINE
  5
A42C
330
1F
100
AcDbEntity
  8
PV0001_1
  6
Continuous
 48
0.5
100
AcDbLine
 10
-84.89572740873613
 20
3.673708993907283
 30
0.0
 11
-84.92902208646613
 21
5.176615793224286
 31
0.0
  0
LINE
  5
A42D
330
1F
100
AcDbEntity
  8
PV0001_1
  6
Continuous
 48
0.5
100
AcDbLine
 10
-84.89592577299616
 20
3.684512216563291
 30
0.0
 11
-84.49092699369611
 21
3.660914499278284
 31
0.0
  0
LINE
  5
A42E
330
1F
100
AcDbEntity
  8
PV0001_1
  6
Continuous
 48
0.5
100
AcDbLine
 10
-84.62203050931611
 20
5.166911203380287
 30
0.0
 11
-84.55393053373613
 21
4.162905771251274
 31
0.0
  0
LINE
  5
A42F
330
1F
100
AcDbEntity
  8
PV0001_1
  6
Continuous
 48
0.5
100
AcDbLine
 10
-84.9070036538561
 20
4.183413583751288
 30
0.0
 11
-84.5539152749461
 21
4.162913400645287
 31
0.0
  0
LINE
  5
A430
330
1F
100
AcDbEntity
  8
PV0001_1
  6
Continuous
 48
0.5
100
AcDbLine
 10
-84.00072313627616
 20
2.394320566173284
 30
0.0
 11
-83.83222032865614
 21
1.62141712379028
 31
0.0
  0
LINE
  5
A431
330
1F
100
AcDbEntity
  8
PV0001_1
  6
Continuous
 48
0.5
100
AcDbLine
 10
-84.00070787748614
 20
2.394312936778284
 30
0.0
 11
-84.16521288236616
 21
2.384608346934278
 31
0.0
  0
LINE
  5
A432
330
1F
100
AcDbEntity
  8
PV0001_1
  6
Continuous
 48
0.5
100
AcDbLine
 10
24.15186093964984
 20
14.87663562964925
 30
0.0
 11
18.11556790986487
 21
29.99981983374627
 31
0.0
  0
LINE
  5
A433
330
1F
100
AcDbEntity
  8
PV0001_1
  6
Continuous
 48
0.5
100
AcDbLine
 10
-73.95823503812619
 20
29.99980457495629
 30
0.0
 11
-75.49603868802613
 21
11.99981220435629
 31
0.0
  0
LINE
  5
A434
330
1F
100
AcDbEntity
  8
PV0001_1
  6
Continuous
 48
0.5
100
AcDbLine
 10
-73.65003038724613
 20
21.25780780982529
 30
0.0
 11
-73.65003038724613
 21
29.99981220435627
 31
0.0
  0
LINE
  5
A435
330
1F
100
AcDbEntity
  8
PV0001_1
  6
Continuous
 48
0.5
100
AcDbLine
 10
24.15186284699883
 20
29.99981220435626
 30
0.0
 11
24.15186284699883
 21
14.87661274146626
 31
0.0
  0
LINE
  5
A436
330
1F
100
AcDbEntity
  8
PV0001_1
  6
Continuous
 48
0.5
100
AcDbLine
 10
14.59226773896683
 20
29.99981220435626
 30
0.0
 11
4.199964272169838
 21
11.99980457496227
 31
0.0
  0
LINE
  5
A437
330
1F
100
AcDbEntity
  8
PV0001_1
  6
Continuous
 48
0.5
100
AcDbLine
 10
24.99996160188186
 20
4.994820749278261
 30
0.0
 11
24.99996160188186
 21
29.99981220435626
 31
0.0
  0
LINE
  5
A442
330
1F
100
AcDbEntity
  8
PV0001_1
  6
Continuous
 48
0.5
100
AcDbLine
 10
-75.4960539468161
 20
11.99981220435629
 30
0.0
 11
-75.74445177396613
 21
4.886210519786281
 31
0.0
  0
LINE
  5
A443
330
1F
100
AcDbEntity
  8
PV0001_1
  6
Continuous
 48
0.5
100
AcDbLine
 10
-68.2850554116661
 20
12.46500690650528
 30
0.0
 11
-68.49805284818612
 21
11.24211414527428
 31
0.0
  0
LINE
  5
A444
330
1F
100
AcDbEntity
  8
PV0001_1
  6
Continuous
 48
0.5
100
AcDbLine
 10
-68.49802996000618
 20
11.24211414527428
 30
0.0
 11
-68.63823534330617
 21
12.32590778541129
 31
0.0
  0
LINE
  5
A445
330
1F
100
AcDbEntity
  8
PV0001_1
  6
Continuous
 48
0.5
100
AcDbLine
 10
-73.77725817045614
 20
6.404009897227275
 30
0.0
 11
-73.3937513955461
 21
14.55090625953228
 31
0.0
  0
LINE
  5
A446
330
1F
100
AcDbEntity
  8
PV0001_1
  6
Continuous
 48
0.5
100
AcDbLine
 10
-69.15733934720616
 20
9.216601449962283
 30
0.0
 11
-68.91354204496614
 21
14.39450367164129
 31
0.0
  0
LINE
  5
A447
330
1F
100
AcDbEntity
  8
PV0001_1
  6
Continuous
 48
0.5
100
AcDbLine
 10
-73.77723528226612
 20
6.403994638438284
 30
0.0
 11
-75.34293962797618
 21
4.920390207286281
 31
0.0
  0
LINE
  5
A448
330
1F
100
AcDbEntity
  8
PV0001_1
  6
Continuous
 48
0.5
100
AcDbLine
 10
-80.06392504056611
 20
1.199809152599279
 30
0.0
 11
-80.09473253568613
 21
0.3186064548452876
 31
0.0
  0
LINE
  5
A449
330
1F
100
AcDbEntity
  8
PV0001_1
  6
Continuous
 48
0.5
100
AcDbLine
 10
-80.09474779447613
 20
0.3186217136342933
 30
0.0
 11
-80.01173998197613
 21
0.3513136692002874
 31
0.0
  0
LINE
  5
A44A
330
1F
100
AcDbEntity
  8
PV0001_1
  6
Continuous
 48
0.5
100
AcDbLine
 10
-80.06392504056611
 20
1.199809152599279
 30
0.0
 11
-79.9923308022861
 21
1.199809152599279
 31
0.0
  0
LINE
  5
A44B
330
1F
100
AcDbEntity
  8
PV0001_1
  6
Continuous
 48
0.5
100
AcDbLine
 10
-79.9923308022861
 20
1.199809152599279
 30
0.0
 11
-80.01173998197613
 21
0.351306039806289
 31
0.0
  0
LINE
  5
A44C
330
1F
100
AcDbEntity
  8
PV0001_1
  6
Continuous
 48
0.5
100
AcDbLine
 10
-76.61005235990614
 20
1.795809823985287
 30
0.0
 11
-78.44414354642616
 21
1.731211740489285
 31
0.0
  0
LINE
  5
A44D
330
1F
100
AcDbEntity
  8
PV0001_1
  6
Continuous
 48
0.5
100
AcDbLine
 10
-76.61001421293615
 20
1.795809823985287
 30
0.0
 11
-76.65001512845617
 21
0.1979170627552875
 31
0.0
  0
LINE
  5
A44E
330
1F
100
AcDbEntity
  8
PV0001_1
  6
Continuous
 48
0.5
100
AcDbLine
 10
-78.15074755033617
 20
0.2503081150012889
 30
0.0
 11
-76.65003801664614
 21
0.1979018039662819
 31
0.0
  0
LINE
  5
A44F
330
1F
100
AcDbEntity
  8
PV0001_1
  6
Continuous
 48
0.5
100
AcDbLine
 10
-78.44415880521613
 20
1.731204111095301
 30
0.0
 11
-78.15076280912615
 21
0.2503081150012889
 31
0.0
  0
LINE
  5
A450
330
1F
100
AcDbEntity
  8
PV0001_1
  6
Continuous
 48
0.5
100
AcDbLine
 10
-78.43593431791612
 20
0.0607100315052875
 30
0.0
 11
-76.69262529691614
 21
-0.0001954250377096
 31
0.0
  0
LINE
  5
A451
330
1F
100
AcDbEntity
  8
PV0001_1
  6
Continuous
 48
0.5
100
AcDbLine
 10
-76.64269853910615
 20
1.994113046641281
 30
0.0
 11
-78.80382372220616
 21
1.918009836192283
 31
0.0
  0
LINE
  5
A452
330
1F
100
AcDbEntity
  8
PV0001_1
  6
Continuous
 48
0.5
100
AcDbLine
 10
-75.74442125638613
 20
4.886218149181281
 30
0.0
 11
-75.7431242593161
 21
4.886714059825287
 31
0.0
  0
LINE
  5
A453
330
1F
100
AcDbEntity
  8
PV0001_1
  6
Continuous
 48
0.5
100
AcDbLine
 10
-75.74313951810615
 20
4.886706430431281
 30
0.0
 11
-75.22524095853611
 21
5.090601999278277
 31
0.0
  0
LINE
  5
A454
330
1F
100
AcDbEntity
  8
PV0001_1
  6
Continuous
 48
0.5
100
AcDbLine
 10
-75.22522569974613
 20
5.090594369884279
 30
0.0
 11
-75.11930681547617
 21
5.132296640391281
 31
0.0
  0
LINE
  5
A455
330
1F
100
AcDbEntity
  8
PV0001_1
  6
Continuous
 48
0.5
100
AcDbLine
 10
-75.34292436918615
 20
4.920405466075287
 30
0.0
 11
-75.38632799467613
 21
3.998110849376274
 31
0.0
  0
LINE
  5
A456
330
1F
100
AcDbEntity
  8
PV0001_1
  6
Continuous
 48
0.5
100
AcDbLine
 10
-75.38635088285615
 20
3.998103219981281
 30
0.0
 11
-75.43935228666611
 21
2.872798044200287
 31
0.0
  0
LINE
  5
A457
330
1F
100
AcDbEntity
  8
PV0001_1
  6
Continuous
 48
0.5
100
AcDbLine
 10
-72.65173937162614
 20
2.775408823009293
 30
0.0
 11
-75.43933702787613
 21
2.872813302989285
 31
0.0
  0
LINE
  5
A458
330
1F
100
AcDbEntity
  8
PV0001_1
  6
Continuous
 48
0.5
100
AcDbLine
 10
-75.43934465726612
 20
2.872798044200287
 30
0.0
 11
-75.07254625638615
 21
0.7244978733022905
 31
0.0
  0
LINE
  5
A459
330
1F
100
AcDbEntity
  8
PV0001_1
  6
Continuous
 48
0.5
100
AcDbLine
 10
-72.28494860013615
 20
0.6271086521102874
 30
0.0
 11
-75.0725309976061
 21
0.7245055026962888
 31
0.0
  0
LINE
  5
A45A
330
1F
100
AcDbEntity
  8
PV0001_1
  6
Continuous
 48
0.5
100
AcDbLine
 10
-75.74311662992612
 20
4.886706430431281
 30
0.0
 11
-75.64280535062619
 21
4.883608896251274
 31
0.0
  0
LINE
  5
A45B
330
1F
100
AcDbEntity
  8
PV0001_1
  6
Continuous
 48
0.5
100
AcDbLine
 10
-75.64283586820612
 20
4.883616525645273
 30
0.0
 11
-75.67442919095616
 21
3.884806711192283
 31
0.0
  0
LINE
  5
A45C
330
1F
100
AcDbEntity
  8
PV0001_1
  6
Continuous
 48
0.5
100
AcDbLine
 10
-75.38633562406619
 20
3.998118478770287
 30
0.0
 11
-75.67442156156619
 21
3.884814340587283
 31
0.0
  0
LINE
  5
A45D
330
1F
100
AcDbEntity
  8
PV0001_1
  6
Continuous
 48
0.5
100
AcDbLine
 10
-75.64284349760609
 20
4.883608896251274
 30
0.0
 11
-75.19634081205616
 21
5.059306222911281
 31
0.0
  0
LINE
  5
A45E
330
1F
100
AcDbEntity
  8
PV0001_1
  6
Continuous
 48
0.5
100
AcDbLine
 10
-75.16912676176615
 20
5.08511646461028
 30
0.0
 11
-75.22521807035615
 21
5.090617258067283
 31
0.0
  0
LINE
  5
A45F
330
1F
100
AcDbEntity
  8
PV0001_1
  6
Continuous
 48
0.5
100
AcDbLine
 10
-75.25421739896613
 20
1.788317758556289
 30
0.0
 11
-75.38392473539612
 21
1.618807870860287
 31
0.0
  0
LINE
  5
A460
330
1F
100
AcDbEntity
  8
PV0001_1
  6
Continuous
 48
0.5
100
AcDbLine
 10
-74.9538405068762
 20
0.6001158542592933
 30
0.0
 11
-76.13834215482615
 21
0.1338148899032845
 31
0.0
  0
LINE
  5
A461
330
1F
100
AcDbEntity
  8
PV0001_1
  6
Continuous
 48
0.5
100
AcDbLine
 10
-75.32603288968617
 20
2.208903390880301
 30
0.0
 11
-75.38393236478611
 21
1.618800241466281
 31
0.0
  0
LINE
  5
A462
330
1F
100
AcDbEntity
  8
PV0001_1
  6
Continuous
 48
0.5
100
AcDbLine
 10
-73.89362169584614
 20
7.736109811778291
 30
0.0
 11
-73.94452501615614
 21
6.24551685523528
 31
0.0
  0
LINE
  5
A463
330
1F
100
AcDbEntity
  8
PV0001_1
  6
Continuous
 48
0.5
100
AcDbLine
 10
-74.80341936429612
 20
7.76781757545028
 30
0.0
 11
-73.71482683500618
 21
7.729815561290294
 31
0.0
  0
LINE
  5
A464
330
1F
100
AcDbEntity
  8
PV0001_1
  6
Continuous
 48
0.5
100
AcDbLine
 10
-68.56345201810613
 20
5.738101083751274
 30
0.0
 11
-69.15735460599613
 21
9.216593820567297
 31
0.0
  0
LINE
  5
A465
330
1F
100
AcDbEntity
  8
PV0001_1
  6
Continuous
 48
0.5
100
AcDbLine
 10
-68.56342150052613
 20
5.738108713145273
 30
0.0
 11
-68.14022661527615
 21
9.864810068126288
 31
0.0
  0
LINE
  5
A466
330
1F
100
AcDbEntity
  8
PV0001_1
  6
Continuous
 48
0.5
100
AcDbLine
 10
-68.91353441556609
 20
14.3945189304313
 30
0.0
 11
-73.39372087797618
 21
14.55092151832129
 31
0.0
  0
LINE
  5
A467
330
1F
100
AcDbEntity
  8
PV0001_1
  6
Continuous
 48
0.5
100
AcDbLine
 10
-70.16744829496615
 20
19.97279651832129
 30
0.0
 11
-74.71304155668615
 21
20.13149555396629
 31
0.0
  0
LINE
  5
A468
330
1F
100
AcDbEntity
  8
PV0001_1
  6
Continuous
 48
0.5
100
AcDbLine
 10
-70.44151903470616
 20
21.14578540992329
 30
0.0
 11
-74.49732042631613
 21
21.28738697242329
 31
0.0
  0
LINE
  5
A469
330
1F
100
AcDbEntity
  8
PV0001_1
  6
Continuous
 48
0.5
100
AcDbLine
 10
-68.21574236234616
 20
19.54513080787228
 30
0.0
 11
-74.76252580961612
 21
19.77373035621228
 31
0.0
  0
LINE
  5
A46A
330
1F
100
AcDbEntity
  8
PV0001_1
  6
Continuous
 48
0.5
100
AcDbLine
 10
-68.35223985990612
 20
15.85540302466928
 30
0.0
 11
-68.21204210599614
 21
14.77160175513829
 31
0.0
  0
LINE
  5
A46B
330
1F
100
AcDbEntity
  8
PV0001_1
  6
Continuous
 48
0.5
100
AcDbLine
 10
-68.21201158842612
 20
14.7715864963493
 30
0.0
 11
-68.53902269681609
 21
14.78298481177829
 31
0.0
  0
LINE
  5
A46C
330
1F
100
AcDbEntity
  8
PV0001_1
  6
Continuous
 48
0.5
100
AcDbLine
 10
-68.21202684720616
 20
14.7716170139273
 30
0.0
 11
-68.28502489408615
 21
12.46501453589928
 31
0.0
  0
LINE
  5
A46D
330
1F
100
AcDbEntity
  8
PV0001_1
  6
Continuous
 48
0.5
100
AcDbLine
 10
-68.28502489408615
 20
12.46500690650528
 30
0.0
 11
-68.63341356595616
 21
12.47710712623129
 31
0.0
  0
LINE
  5
A46E
330
1F
100
AcDbEntity
  8
PV0001_1
  6
Continuous
 48
0.5
100
AcDbLine
 10
-68.56522203763613
 20
14.63250263404428
 30
0.0
 11
-68.35222460111616
 21
15.8554106540633
 31
0.0
  0
LINE
  5
A46F
330
1F
100
AcDbEntity
  8
PV0001_1
  6
Continuous
 48
0.5
100
AcDbLine
 10
-68.56522966703619
 20
14.6325102634383
 30
0.0
 11
-68.63822771390617
 21
12.32590778541129
 31
0.0
  0
LINE
  5
A470
330
1F
100
AcDbEntity
  8
PV0001_1
  6
Continuous
 48
0.5
100
AcDbLine
 10
-70.16744066556609
 20
19.97280414771629
 30
0.0
 11
-70.08914018949615
 21
19.61050708961029
 31
0.0
  0
ARC
  5
A473
330
1F
100
AcDbEntity
  8
PV0001_1
  6
Continuous
 48
0.5
100
AcDbCircle
 10
19.40386174836582
 20
-59.10239497948173
 30
0.0
 40
1.997533798217799
100
AcDbArc
 50
139.5337296485133
 51
208.2669887758644
  0
LINE
  5
A474
330
1F
100
AcDbEntity
  8
PV0001_1
  6
Continuous
 48
0.5
100
AcDbLine
 10
13.74538968720883
 20
-53.93904773521874
 30
0.0
 11
18.76518033662284
 21
-53.27314655113673
 31
0.0
  0
LINE
  5
A475
330
1F
100
AcDbEntity
  8
PV0001_1
  6
Continuous
 48
0.5
100
AcDbLine
 10
17.6455399862808
 20
-60.06218139458093
 30
0.0
 11
19.85154699006482
 21
-55.32757179069974
 31
0.0
  0
LINE
  5
A476
330
1F
100
AcDbEntity
  8
PV0001_1
  6
Continuous
 48
0.5
100
AcDbLine
 10
13.04128049531384
 20
-55.56036655235773
 30
0.0
 11
20.35756086030482
 21
-54.91130058098274
 31
0.0
  0
LINE
  5
A477
330
1F
100
AcDbEntity
  8
PV0001_1
  6
Continuous
 48
0.5
100
AcDbLine
 10
19.17184613862485
 20
-56.29629699516773
 30
0.0
 11
17.5761506430188
 21
-55.55399505424974
 31
0.0
  0
LINE
  5
A47D
330
1F
100
AcDbEntity
  8
PV0001_1
  6
Continuous
 48
0.5
100
AcDbLine
 10
-0.0000555642561792
 20
-57.25017253685473
 30
0.0
 11
0.1312463156268605
 21
-58.75087920952272
 31
0.0
  0
LINE
  5
A47E
330
1F
100
AcDbEntity
  8
PV0001_1
  6
Continuous
 48
0.5
100
AcDbLine
 10
0.4999596945328261
 20
-60.69488326836022
 30
0.0
 11
1.43596433320487
 21
-60.61188308525473
 31
0.0
  0
LINE
  5
A47F
330
1F
100
AcDbEntity
  8
PV0001_1
  6
Continuous
 48
0.5
100
AcDbLine
 10
0.4999635092298075
 20
-60.66408626366052
 30
0.0
 11
0.4999635092298075
 21
-60.69489375877772
 31
0.0
  0
LINE
  5
A480
330
1F
100
AcDbEntity
  8
PV0001_1
  6
Continuous
 48
0.5
100
AcDbLine
 10
0.4999635092298075
 20
-60.66408817100913
 30
0.0
 11
1.318162666944821
 21
-60.59249011803064
 31
0.0
  0
LINE
  5
A481
330
1F
100
AcDbEntity
  8
PV0001_1
  6
Continuous
 48
0.5
100
AcDbLine
 10
1.318162666944821
 20
-60.59250633049403
 30
0.0
 11
1.435960518507832
 21
-60.61190406608972
 31
0.0
  0
LINE
  5
A486
330
1F
100
AcDbEntity
  8
PV0001_1
  6
AM_ISO08W050
 48
0.5
100
AcDbLine
 10
9.963487373975844
 20
-57.27973644066273
 30
0.0
 11
9.963487373975842
 21
-67.27973667908102
 31
0.0
  0
CIRCLE
  5
A487
330
1F
100
AcDbEntity
  8
PV0001_1
  6
Continuous
 48
0.5
100
AcDbCircle
 10
9.963487373975844
 20
-62.27973644066243
 30
0.0
 40
4.0999999046326
  0
CIRCLE
  5
A488
330
1F
100
AcDbEntity
  8
PV0001_1
  6
Continuous
 48
0.5
100
AcDbCircle
 10
9.963487373975844
 20
-62.27973644066243
 30
0.0
 40
3.0
  0
CIRCLE
  5
A489
330
1F
100
AcDbEntity
  8
PV0001_1
  6
Continuous
 48
0.5
100
AcDbCircle
 10
9.963487373975844
 20
-62.27973644066243
 30
0.0
 40
3.5
  0
LINE
  5
A48D
330
1F
100
AcDbEntity
  8
PV0001_1
  6
AM_ISO08W050
 48
0.5
100
AcDbLine
 10
4.963487373975843
 20
-62.27973644066243
 30
0.0
 11
14.96348737397584
 21
-62.27973644066243
 31
0.0
  0
LINE
  5
A498
330
1F
100
AcDbEntity
  8
PV0001_1
  6
Continuous
 48
0.5
100
AcDbLine
 10
15.83466504731586
 20
-48.68589488792874
 30
0.0
 11
8.56496213593885
 21
-49.33075229454473
 31
0.0
  0
LINE
  5
A499
330
1F
100
AcDbEntity
  8
PV0001_1
  6
Continuous
 48
0.5
100
AcDbLine
 10
11.42420362153483
 20
-52.93774883079973
 30
0.0
 11
6.824258553175802
 21
-53.27188579369073
 31
0.0
  0
LINE
  5
A49A
330
1F
100
AcDbEntity
  8
PV0001_1
  6
Continuous
 48
0.5
100
AcDbLine
 10
7.06805967011882
 20
-56.05948249626573
 30
0.0
 11
11.66810392060682
 21
-55.72535316276973
 31
0.0
  0
LINE
  5
A49B
330
1F
100
AcDbEntity
  8
PV0001_1
  6
Continuous
 48
0.5
100
AcDbLine
 10
17.5761506430188
 20
-55.55398933220374
 30
0.0
 11
4.224149452833834
 21
-56.73849098015273
 31
0.0
  0
ARC
  5
A49C
330
1F
100
AcDbEntity
  8
PV0001_1
  6
Continuous
 48
0.5
100
AcDbCircle
 10
11.27487348237484
 20
-52.88263599205473
 30
0.0
 40
4.467604637145998
100
AcDbArc
 50
127.3418283196653
 51
184.9983374435696
  0
LINE
  5
A4A5
330
1F
100
AcDbEntity
  8
PV0001_1
  6
Continuous
 48
0.5
100
AcDbLine
 10
6.824609505323841
 20
-53.27593509483773
 30
0.0
 11
7.06805967011882
 21
-56.05948154259174
 31
0.0
  0
ARC
  5
A4A6
330
1F
100
AcDbEntity
  8
PV0001_1
  6
Continuous
 48
0.5
100
AcDbCircle
 10
16.47559522309784
 20
-54.30070773888073
 30
0.0
 40
5.232038021087599
100
AcDbArc
 50
95.06914351021695
 51
164.9000686787006
  0
LINE
  5
A4A7
330
1F
100
AcDbEntity
  8
PV0001_1
  6
Continuous
 48
0.5
100
AcDbLine
 10
12.92979596772584
 20
-55.55803291130473
 30
0.0
 11
13.74538587251185
 21
-53.93904392052174
 31
0.0
  0
LINE
  5
A4A9
330
1F
100
AcDbEntity
  8
PV0001_1
  6
Continuous
 48
0.5
100
AcDbLine
 10
11.42420362153483
 20
-52.93774883079973
 30
0.0
 11
11.66810392060682
 21
-55.72535316276973
 31
0.0
  0
LINE
  5
A4AA
330
1F
100
AcDbEntity
  8
PV0001_1
  6
Continuous
 48
0.5
100
AcDbLine
 10
11.66808103242385
 20
-55.72535602379274
 30
0.0
 11
12.92978070893684
 21
-55.55805484581473
 31
0.0
  0
LINE
  5
A4AE
330
1F
100
AcDbEntity
  8
PV0001_1
  6
Continuous
 48
0.5
100
AcDbLine
 10
22.38462423005584
 20
-54.48221484947673
 30
0.0
 11
21.84922956147584
 21
-48.36191646385675
 31
0.0
  0
LINE
  5
A4AF
330
1F
100
AcDbEntity
  8
PV0001_1
  6
Continuous
 48
0.5
100
AcDbLine
 10
23.88846944489887
 20
-54.75730888176373
 30
0.0
 11
20.19757245698383
 21
-55.08470908928373
 31
0.0
  0
LINE
  5
A4B0
330
1F
100
AcDbEntity
  8
PV0001_1
  6
Continuous
 48
0.5
100
AcDbLine
 10
23.88847135224784
 20
-54.86148635673973
 30
0.0
 11
20.02777265229684
 21
-55.20398608971074
 31
0.0
  0
LINE
  5
A4B1
330
1F
100
AcDbEntity
  8
PV0001_1
  6
Continuous
 48
0.5
100
AcDbLine
 10
20.02777646699382
 20
-55.20397464561874
 30
0.0
 11
20.19757627168182
 21
-55.08467380333375
 31
0.0
  0
LINE
  5
A4B2
330
1F
100
AcDbEntity
  8
PV0001_1
  6
Continuous
 48
0.5
100
AcDbLine
 10
20.02777646699382
 20
-55.20402137566073
 30
0.0
 11
19.85157178559784
 21
-55.32762328911274
 31
0.0
  0
LINE
  5
A4B3
330
1F
100
AcDbEntity
  8
PV0001_1
  6
Continuous
 48
0.5
100
AcDbLine
 10
20.10667775788783
 20
-55.00840179253073
 30
0.0
 11
19.85158513703782
 21
-55.32759563255773
 31
0.0
  0
LINE
  5
A4B4
330
1F
100
AcDbEntity
  8
PV0001_1
  6
Continuous
 48
0.5
100
AcDbLine
 10
20.1975743643328
 20
-55.08468238640273
 30
0.0
 11
20.10667775788783
 21
-55.00839320946173
 31
0.0
  0
LINE
  5
A4B5
330
1F
100
AcDbEntity
  8
PV0001_1
  6
Continuous
 48
0.5
100
AcDbLine
 10
20.33213971772584
 20
-54.96598235893674
 30
0.0
 11
20.35753987946986
 21
-54.91127292442773
 31
0.0
  0
LINE
  5
A4B6
330
1F
100
AcDbEntity
  8
PV0001_1
  6
Continuous
 48
0.5
100
AcDbLine
 10
20.41405652680884
 20
-54.95867912102173
 30
0.0
 11
20.35755895295585
 21
-54.91128246117074
 31
0.0
  0
LINE
  5
A4B7
330
1F
100
AcDbEntity
  8
PV0001_1
  6
Continuous
 48
0.5
100
AcDbLine
 10
20.41405461945987
 20
-54.95870010185673
 30
0.0
 11
20.14705251374686
 21
-54.98240081596773
 31
0.0
  0
LINE
  5
A4B8
330
1F
100
AcDbEntity
  8
PV0001_1
  6
Continuous
 48
0.5
100
AcDbLine
 10
20.14707730927886
 20
-54.98238841820174
 30
0.0
 11
20.10667012849284
 21
-55.00839034843874
 31
0.0
  0
LINE
  5
A4B9
330
1F
100
AcDbEntity
  8
PV0001_1
  6
Continuous
 48
0.5
100
AcDbLine
 10
19.17186330476283
 20
-56.29629031944674
 30
0.0
 11
17.88416837373181
 21
-57.80598918724473
 31
0.0
  0
LINE
  5
A4BB
330
1F
100
AcDbEntity
  8
PV0001_1
  6
Continuous
 48
0.5
100
AcDbLine
 10
23.88845800080786
 20
-54.86148921776274
 30
0.0
 11
23.88845800080786
 21
-54.75728694725474
 31
0.0
  0
LINE
  5
A4BC
330
1F
100
AcDbEntity
  8
PV0001_1
  6
Continuous
 48
0.5
100
AcDbLine
 10
24.26576780000186
 20
-54.67510120201573
 30
0.0
 11
23.88846372285285
 21
-54.75730029869473
 31
0.0
  0
LINE
  5
A4BD
330
1F
100
AcDbEntity
  8
PV0001_1
  6
Continuous
 48
0.5
100
AcDbLine
 10
24.99996160188185
 20
-57.24520015526273
 30
0.0
 11
24.26575063386382
 21
-54.67511264610774
 31
0.0
  0
LINE
  5
A4BE
330
1F
100
AcDbEntity
  8
PV0001_1
  6
Continuous
 48
0.5
100
AcDbLine
 10
24.15186284699882
 20
-54.25019161034073
 30
0.0
 11
22.36432622590484
 21
-54.25019161034073
 31
0.0
  0
LINE
  5
A4BF
330
1F
100
AcDbEntity
  8
PV0001_1
  6
Continuous
 48
0.5
100
AcDbLine
 10
24.1518571249528
 20
-54.25022689629074
 30
0.0
 11
24.26575635590983
 21
-54.67512122917573
 31
0.0
  0
CIRCLE
  5
A4C0
330
1F
100
AcDbEntity
  8
PV0001_1
  6
Continuous
 48
0.5
100
AcDbCircle
 10
15.85594724336084
 20
12.84460743140727
 30
0.0
 40
3.374989986419698
  0
ARC
  5
A4C5
330
1F
100
AcDbEntity
  8
PV0001_1
  6
Continuous
 48
0.5
100
AcDbCircle
 10
15.85594724336084
 20
12.84460743140727
 30
0.0
 40
5.993264675140399
100
AcDbArc
 50
312.0705989146332
 51
101.7588561795728
  0
ARC
  5
A4C6
330
1F
100
AcDbEntity
  8
PV0001_1
  6
Continuous
 48
0.5
100
AcDbCircle
 10
15.85594724336084
 20
12.84460743140727
 30
0.0
 40
3.999989986419698
100
AcDbArc
 50
281.7588511706139
 51
101.7588561795728
  0
ARC
  5
A4C7
330
1F
100
AcDbEntity
  8
PV0001_1
  6
Continuous
 48
0.5
100
AcDbCircle
 10
15.85594724336084
 20
12.84460743140727
 30
0.0
 40
3.999989986419698
100
AcDbArc
 50
281.7588511706139
 51
101.7588561795728
  0
ARC
  5
A4C8
330
1F
100
AcDbEntity
  8
PV0001_1
  6
Continuous
 48
0.5
100
AcDbCircle
 10
16.41599820771682
 20
12.96111591529427
 30
0.0
 40
8.082375526428199
100
AcDbArc
 50
57.20650552553522
 51
101.7589859531659
  0
LINE
  5
A4C9
330
1F
100
AcDbEntity
  8
PV0001_1
  6
Continuous
 48
0.5
100
AcDbLine
 10
14.21389173188685
 20
2.958941537852261
 30
0.0
 11
20.28494237580787
 21
8.481722909923263
 31
0.0
  0
LINE
  5
A4CA
330
1F
100
AcDbEntity
  8
PV0001_1
  6
Continuous
 48
0.5
100
AcDbLine
 10
16.01329969087083
 20
4.885653573985273
 30
0.0
 11
19.87172292390283
 21
8.395670969005266
 31
0.0
  0
LINE
  5
A4CB
330
1F
100
AcDbEntity
  8
PV0001_1
  6
Continuous
 48
0.5
100
AcDbLine
 10
16.81685041108584
 20
5.326830942149257
 30
0.0
 11
20.35757039704781
 21
5.450427133556274
 31
0.0
  0
LINE
  5
A4CC
330
1F
100
AcDbEntity
  8
PV0001_1
  6
Continuous
 48
0.5
100
AcDbLine
 10
17.70296262422083
 20
4.016612131114264
 30
0.0
 11
20.14706014314185
 21
3.942912179942254
 31
0.0
  0
LINE
  5
A4CD
330
1F
100
AcDbEntity
  8
PV0001_1
  6
Continuous
 48
0.5
100
AcDbLine
 10
17.70336698213083
 20
4.033907968516267
 30
0.0
 11
20.41406606355183
 21
3.952204782481274
 31
0.0
  0
LINE
  5
A4CE
330
1F
100
AcDbEntity
  8
PV0001_1
  6
Continuous
 48
0.5
100
AcDbLine
 10
19.20096944489888
 20
2.486010629649257
 30
0.0
 11
17.54326795258986
 21
2.270312387462269
 31
0.0
  0
LINE
  5
A4CF
330
1F
100
AcDbEntity
  8
PV0001_1
  6
Continuous
 48
0.5
100
AcDbLine
 10
17.54325650849785
 20
2.27032001685626
 30
0.0
 11
17.93346189179885
 21
0.8190184421492574
 31
0.0
  0
LINE
  5
A4D0
330
1F
100
AcDbEntity
  8
PV0001_1
  6
Continuous
 48
0.5
100
AcDbLine
 10
19.05027555146682
 20
2.67459400367327
 30
0.0
 11
17.08806775727685
 21
2.41929920386827
 31
0.0
  0
LINE
  5
A4D1
330
1F
100
AcDbEntity
  8
PV0001_1
  6
Continuous
 48
0.5
100
AcDbLine
 10
17.58994840302886
 20
0.6007033176382777
 30
0.0
 11
19.1765534750508
 21
0.6839018650012605
 31
0.0
  0
LINE
  5
A4D3
330
1F
100
AcDbEntity
  8
PV0001_1
  6
Continuous
 48
0.5
100
AcDbLine
 10
0.2115647665548294
 20
-0.0000123195687252
 30
0.0
 11
2.161161171583841
 21
0.0848875827742575
 31
0.0
  0
LINE
  5
A4D4
330
1F
100
AcDbEntity
  8
PV0001_1
  6
Continuous
 48
0.5
100
AcDbLine
 10
0.2074715963888139
 20
1.253899423595271
 30
0.0
 11
2.092267738966825
 21
1.171295969005271
 31
0.0
  0
LINE
  5
A4D5
330
1F
100
AcDbEntity
  8
PV0001_1
  6
Continuous
 48
0.5
100
AcDbLine
 10
-0.0019090423851814
 20
1.101010415715627
 30
0.0
 11
-0.0000441201641479
 21
0.1979094333602731
 31
0.0
  0
ARC
  5
A4DA
330
1F
100
AcDbEntity
  8
PV0001_1
  6
Continuous
 48
0.5
100
AcDbCircle
 10
15.85594724336084
 20
12.84460743140727
 30
0.0
 40
3.999989986419698
100
AcDbArc
 50
101.7588561795728
 51
281.7588543583398
  0
ARC
  5
A4DB
330
1F
100
AcDbEntity
  8
PV0001_1
  6
Continuous
 48
0.5
100
AcDbCircle
 10
15.85594724336084
 20
12.84460743140727
 30
0.0
 40
3.999989986419698
100
AcDbArc
 50
101.7588561795728
 51
281.7588543583398
  0
LINE
  5
A4DC
330
1F
100
AcDbEntity
  8
PV0001_1
  6
Continuous
 48
0.5
100
AcDbLine
 10
8.564943062452814
 20
9.731165964122254
 30
0.0
 11
10.17274259248182
 21
14.70543964576328
 31
0.0
  0
LINE
  5
A4DD
330
1F
100
AcDbEntity
  8
PV0001_1
  6
Continuous
 48
0.5
100
AcDbLine
 10
4.199960457472855
 20
11.99981220435626
 30
0.0
 11
4.199960457472855
 21
4.886210519786267
 31
0.0
  0
LINE
  5
A4DE
330
1F
100
AcDbEntity
  8
PV0001_1
  6
Continuous
 48
0.5
100
AcDbLine
 10
16.01328824677886
 20
4.885638315196267
 30
0.0
 11
8.564946877149852
 21
9.731143075938263
 31
0.0
  0
LINE
  5
A4DF
330
1F
100
AcDbEntity
  8
PV0001_1
  6
Continuous
 48
0.5
100
AcDbLine
 10
17.57616590180884
 20
0.6001234836532632
 30
0.0
 11
4.223664986280822
 21
0.1337996311142646
 31
0.0
  0
LINE
  5
A4E0
330
1F
100
AcDbEntity
  8
PV0001_1
  6
Continuous
 48
0.5
100
AcDbLine
 10
4.214963661817819
 20
4.886698801036267
 30
0.0
 11
7.17248319306782
 21
4.990008432384264
 31
0.0
  0
LINE
  5
A4E1
330
1F
100
AcDbEntity
  8
PV0001_1
  6
Continuous
 48
0.5
100
AcDbLine
 10
6.929822670606823
 20
3.978282052989264
 30
0.0
 11
4.252664314893877
 21
3.88482959937626
 31
0.0
  0
LINE
  5
A4E2
330
1F
100
AcDbEntity
  8
PV0001_1
  6
Continuous
 48
0.5
100
AcDbLine
 10
4.214967476515881
 20
4.883593637462269
 30
0.0
 11
7.171666847852861
 21
4.98680408668126
 31
0.0
  0
LINE
  5
A4E3
330
1F
100
AcDbEntity
  8
PV0001_1
  6
Continuous
 48
0.5
100
AcDbLine
 10
4.199968086866874
 20
4.886210519786267
 30
0.0
 11
4.214967476515881
 21
4.886714059825273
 31
0.0
  0
LINE
  5
A4E4
330
1F
100
AcDbEntity
  8
PV0001_1
  6
Continuous
 48
0.5
100
AcDbLine
 10
4.199960457472855
 20
4.695414621349257
 30
0.0
 11
4.199960457472855
 21
4.886210519786267
 31
0.0
  0
LINE
  5
A4E5
330
1F
100
AcDbEntity
  8
PV0001_1
  6
Continuous
 48
0.5
100
AcDbLine
 10
4.214971291212806
 20
4.883608896251267
 30
0.0
 11
4.252671944288863
 21
3.884814340587269
 31
0.0
  0
LINE
  5
A4E6
330
1F
100
AcDbEntity
  8
PV0001_1
  6
Continuous
 48
0.5
100
AcDbLine
 10
2.120515018237991
 20
1.162361594609826
 30
0.0
 11
2.161161171583841
 21
0.084925729747269
 31
0.0
  0
LINE
  5
A4E7
330
1F
100
AcDbEntity
  8
PV0001_1
  6
Continuous
 48
0.5
100
AcDbLine
 10
4.008558022169836
 20
1.654320566173261
 30
0.0
 11
3.991758095411853
 21
1.121010629649262
 31
0.0
  0
LINE
  5
A4E8
330
1F
100
AcDbEntity
  8
PV0001_1
  6
Continuous
 48
0.5
100
AcDbLine
 10
4.025872933058849
 20
1.902199594493268
 30
0.0
 11
4.00856946626186
 21
1.654297677989255
 31
0.0
  0
LINE
  5
A4E9
330
1F
100
AcDbEntity
  8
PV0001_1
  6
Continuous
 48
0.5
100
AcDbLine
 10
4.182859169630829
 20
4.162913400645265
 30
0.0
 11
4.110562891502018
 21
1.892931065078002
 31
0.0
  0
LINE
  5
A4EA
330
1F
100
AcDbEntity
  8
PV0001_1
  6
Continuous
 48
0.5
100
AcDbLine
 10
4.206056343702812
 20
4.886408884044264
 30
0.0
 11
4.182855354933849
 21
4.162913400645265
 31
0.0
  0
LINE
  5
A4EB
330
1F
100
AcDbEntity
  8
PV0001_1
  6
Continuous
 48
0.5
100
AcDbLine
 10
4.214959847120837
 20
4.886714059825273
 30
0.0
 11
4.214959847120837
 21
4.883601266856274
 31
0.0
  0
LINE
  5
A4EC
330
1F
100
AcDbEntity
  8
PV0001_1
  6
Continuous
 48
0.5
100
AcDbLine
 10
13.20721601167184
 20
1.946566659923263
 30
0.0
 11
14.21390317597785
 21
2.958933908458263
 31
0.0
  0
LINE
  5
A4ED
330
1F
100
AcDbEntity
  8
PV0001_1
  6
Continuous
 48
0.5
100
AcDbLine
 10
17.08705304780482
 20
2.419207651134264
 30
0.0
 11
13.16459439912284
 21
1.903704721446267
 31
0.0
  0
LINE
  5
A4EE
330
1F
100
AcDbEntity
  8
PV0001_1
  6
Continuous
 48
0.5
100
AcDbLine
 10
11.42419217744281
 20
0.5049849338492578
 30
0.0
 11
11.68130658784382
 21
0.558558542247269
 31
0.0
  0
LINE
  5
A4EF
330
1F
100
AcDbEntity
  8
PV0001_1
  6
Continuous
 48
0.5
100
AcDbLine
 10
11.68128369965983
 20
0.5585432834582634
 30
0.0
 11
13.20718930879081
 21
1.946559030528263
 31
0.0
  0
LINE
  5
A4F0
330
1F
100
AcDbEntity
  8
PV0001_1
  6
Continuous
 48
0.5
100
AcDbLine
 10
17.46885846772584
 20
3.244097787852261
 30
0.0
 11
14.03744290986485
 21
2.798426706309264
 31
0.0
  0
ARC
  5
A4F4
330
1F
100
AcDbEntity
  8
PV0001_1
  6
Continuous
 48
0.5
100
AcDbCircle
 10
15.85594724336084
 20
12.84460743140727
 30
0.0
 40
5.999985218048099
100
AcDbArc
 50
101.7588561795728
 51
161.8700328383468
  0
ARC
  5
A4F5
330
1F
100
AcDbEntity
  8
PV0001_1
  6
Continuous
 48
0.5
100
AcDbCircle
 10
12.90547345796085
 20
17.86247547339925
 30
0.0
 40
1.9984176158905
100
AcDbArc
 50
126.9810850484627
 51
215.5225348066309
  0
ARC
  5
A4F6
330
1F
100
AcDbEntity
  8
PV0001_1
  6
Continuous
 48
0.5
100
AcDbCircle
 10
12.74937223115387
 20
17.82997425269627
 30
0.0
 40
1.9984176158905
100
AcDbArc
 50
126.9810850484627
 51
218.3848485217263
  0
ARC
  5
A508
330
1F
100
AcDbEntity
  8
PV0001_1
  6
Continuous
 48
0.5
100
AcDbCircle
 10
16.41599820771682
 20
12.96111591529427
 30
0.0
 40
8.100014686584499
100
AcDbArc
 50
101.7589859531659
 51
126.9821778787258
  0
ARC
  5
A509
330
1F
100
AcDbEntity
  8
PV0001_1
  6
Continuous
 48
0.5
100
AcDbCircle
 10
16.57211469331184
 20
12.99359424781326
 30
0.0
 40
8.100029945373499
100
AcDbArc
 50
102.2594407438434
 51
126.9821778787258
  0
LINE
  5
A50A
330
1F
100
AcDbEntity
  8
PV0001_1
  6
Continuous
 48
0.5
100
AcDbLine
 10
11.70332883515783
 20
19.45888050269627
 30
0.0
 11
11.54721616425985
 21
19.42639454078227
 31
0.0
  0
ARC
  5
A50B
330
1F
100
AcDbEntity
  8
PV0001_1
  6
Continuous
 48
0.5
100
AcDbCircle
 10
16.49864362397584
 20
12.97832019996227
 30
0.0
 40
5.9960107803345
100
AcDbArc
 50
79.05777307673616
 51
101.7588561795728
  0
ARC
  5
A50C
330
1F
100
AcDbEntity
  8
PV0001_1
  6
Continuous
 48
0.5
100
AcDbCircle
 10
16.78326581635883
 20
13.03760059547026
 30
0.0
 40
6.100021839141799
100
AcDbArc
 50
102.772968516591
 51
112.2139018741919
  0
ARC
  5
A50D
330
1F
100
AcDbEntity
  8
PV0001_1
  6
Continuous
 48
0.5
100
AcDbCircle
 10
16.57211469331184
 20
12.99359424781326
 30
0.0
 40
6.0960984230042
100
AcDbArc
 50
79.19732067167446
 51
101.759026934304
  0
ARC
  5
A50E
330
1F
100
AcDbEntity
  8
PV0001_1
  6
Continuous
 48
0.5
100
AcDbCircle
 10
16.57211469331184
 20
12.99359424781326
 30
0.0
 40
6.100019454956099
100
AcDbArc
 50
101.759026934304
 51
112.9553052482173
  0
LINE
  5
A50F
330
1F
100
AcDbEntity
  8
PV0001_1
  6
Continuous
 48
0.5
100
AcDbLine
 10
15.27589963593885
 20
18.85238178443428
 30
0.0
 11
14.63320707002083
 21
18.71865375709126
 31
0.0
  0
LINE
  5
A510
330
1F
100
AcDbEntity
  8
PV0001_1
  6
Continuous
 48
0.5
100
AcDbLine
 10
17.74957059541184
 20
19.03380115699326
 30
0.0
 11
17.51854871430885
 21
18.68876941871228
 31
0.0
  0
ARC
  5
A511
330
1F
100
AcDbEntity
  8
PV0001_1
  6
Continuous
 48
0.5
100
AcDbCircle
 10
16.49864362397584
 20
12.97832019996227
 30
0.0
 40
5.997186660766598
100
AcDbArc
 50
300.6615021514668
 51
38.72131229166408
  0
ARC
  5
A512
330
1F
100
AcDbEntity
  8
PV0001_1
  6
Continuous
 48
0.5
100
AcDbCircle
 10
16.41599820771682
 20
12.96111591529427
 30
0.0
 40
6.097828865051299
100
AcDbArc
 50
298.3035159443036
 51
38.04144209187077
  0
LINE
  5
A513
330
1F
100
AcDbEntity
  8
PV0001_1
  6
Continuous
 48
0.5
100
AcDbLine
 10
24.15186475434785
 20
14.87659748267725
 30
0.0
 11
24.26576398530483
 21
2.424700815196267
 31
0.0
  0
LINE
  5
A514
330
1F
100
AcDbEntity
  8
PV0001_1
  6
Continuous
 48
0.5
100
AcDbLine
 10
23.88846563020184
 20
1.016505319591267
 30
0.0
 11
20.19757436433281
 21
0.8877058811142646
 31
0.0
  0
LINE
  5
A515
330
1F
100
AcDbEntity
  8
PV0001_1
  6
Continuous
 48
0.5
100
AcDbLine
 10
20.02777265229685
 20
0.8816862888292646
 30
0.0
 11
19.85156797089985
 21
0.8789931125592644
 31
0.0
  0
LINE
  5
A516
330
1F
100
AcDbEntity
  8
PV0001_1
  6
Continuous
 48
0.5
100
AcDbLine
 10
20.10666440644683
 20
3.298426706309264
 30
0.0
 11
19.85156606355183
 21
0.8790236301382776
 31
0.0
  0
LINE
  5
A517
330
1F
100
AcDbEntity
  8
PV0001_1
  6
Continuous
 48
0.5
100
AcDbLine
 10
20.19758008637881
 20
0.8877058811142646
 30
0.0
 11
20.10667585053885
 21
3.29840381812626
 31
0.0
  0
LINE
  5
A518
330
1F
100
AcDbEntity
  8
PV0001_1
  6
Continuous
 48
0.5
100
AcDbLine
 10
20.02777265229685
 20
0.8816939182242577
 30
0.0
 11
20.19757245698384
 21
0.8876982517202662
 31
0.0
  0
LINE
  5
A519
330
1F
100
AcDbEntity
  8
PV0001_1
  6
Continuous
 48
0.5
100
AcDbLine
 10
20.14706586518685
 20
3.94289692115327
 30
0.0
 11
20.10666059174985
 21
3.29839618873126
 31
0.0
  0
LINE
  5
A51A
330
1F
100
AcDbEntity
  8
PV0001_1
  6
Continuous
 48
0.5
100
AcDbLine
 10
20.41406797089985
 20
3.952227670665273
 30
0.0
 11
20.14706395783884
 21
3.94292743873126
 31
0.0
  0
LINE
  5
A51B
330
1F
100
AcDbEntity
  8
PV0001_1
  6
Continuous
 48
0.5
100
AcDbLine
 10
20.41406224885383
 20
3.952235300059264
 30
0.0
 11
20.35755895295586
 21
5.450434762950273
 31
0.0
  0
LINE
  5
A51C
330
1F
100
AcDbEntity
  8
PV0001_1
  6
Continuous
 48
0.5
100
AcDbLine
 10
19.29836248078783
 20
0.8957091159772616
 30
0.0
 11
19.85156224885383
 21
0.8790160007432703
 31
0.0
  0
LINE
  5
A51D
330
1F
100
AcDbEntity
  8
PV0001_1
  6
Continuous
 48
0.5
100
AcDbLine
 10
19.20095418610981
 20
2.485987741466267
 30
0.0
 11
19.29865621247682
 21
0.8905821628522616
 31
0.0
  0
LINE
  5
A51E
330
1F
100
AcDbEntity
  8
PV0001_1
  6
Continuous
 48
0.5
100
AcDbLine
 10
17.93346189179885
 20
0.8189879245712674
 30
0.0
 11
19.29866002717482
 21
0.8905897922472689
 31
0.0
  0
LINE
  5
A51F
330
1F
100
AcDbEntity
  8
PV0001_1
  6
Continuous
 48
0.5
100
AcDbLine
 10
24.26576017060683
 20
2.424708444591274
 30
0.0
 11
23.88845990815581
 21
1.016520578380273
 31
0.0
  0
LINE
  5
A520
330
1F
100
AcDbEntity
  8
PV0001_1
  6
Continuous
 48
0.5
100
AcDbLine
 10
24.99996160188186
 20
4.994820749278261
 30
0.0
 11
24.26575635590983
 21
2.424693185802262
 31
0.0
  0
LINE
  5
A521
330
1F
100
AcDbEntity
  8
PV0001_1
  6
Continuous
 48
0.5
100
AcDbLine
 10
19.87171910920585
 20
8.395670969005266
 30
0.0
 11
20.28494237580787
 21
8.481722909923263
 31
0.0
  0
ARC
  5
A522
330
1F
100
AcDbEntity
  8
PV0001_1
  6
Continuous
 48
0.5
100
AcDbCircle
 10
19.79523061433281
 20
18.09501178931725
 30
0.0
 40
1.895782828330999
100
AcDbArc
 50
326.9553842860321
 51
101.7571759530358
  0
ARC
  5
A523
330
1F
100
AcDbEntity
  8
PV0001_1
  6
Continuous
 48
0.5
100
AcDbCircle
 10
19.71267865815581
 20
18.07779224586028
 30
0.0
 40
1.9954708814621
100
AcDbArc
 50
326.952969814163
 51
57.20742760107338
  0
LINE
  5
A524
330
1F
100
AcDbEntity
  8
PV0001_1
  6
Continuous
 48
0.5
100
AcDbLine
 10
21.16346906342983
 20
16.71839435767725
 30
0.0
 11
20.69679235139285
 21
16.62115772437627
 31
0.0
  0
LINE
  5
A525
330
1F
100
AcDbEntity
  8
PV0001_1
  6
Continuous
 48
0.5
100
AcDbLine
 10
21.38436864533884
 20
17.06124408912225
 30
0.0
 11
21.16348241486985
 21
16.71839435767725
 31
0.0
  0
LINE
  5
A526
330
1F
100
AcDbEntity
  8
PV0001_1
  6
Continuous
 48
0.5
100
AcDbLine
 10
20.92771886506483
 20
16.96618946265727
 30
0.0
 11
21.38436292329283
 21
17.06123645972728
 31
0.0
  0
LINE
  5
A527
330
1F
100
AcDbEntity
  8
PV0001_1
  6
Continuous
 48
0.5
100
AcDbLine
 10
20.69679616609085
 20
16.62115772437627
 30
0.0
 11
20.92772267976284
 21
16.96619709205225
 31
0.0
  0
LINE
  5
A528
330
1F
100
AcDbEntity
  8
PV0001_1
  6
Continuous
 48
0.5
100
AcDbLine
 10
21.20317243256983
 20
16.70682819556725
 30
0.0
 11
21.38533757844385
 21
16.98959644507926
 31
0.0
  0
ARC
  5
A529
330
1F
100
AcDbEntity
  8
PV0001_1
  6
Continuous
 48
0.5
100
AcDbCircle
 10
19.86869977631983
 20
18.11028583716927
 30
0.0
 40
1.998677372932399
100
AcDbArc
 50
79.045348962638
 51
101.7588561795728
  0
ARC
  5
A52A
330
1F
100
AcDbEntity
  8
PV0001_1
  6
Continuous
 48
0.5
100
AcDbCircle
 10
19.86869977631983
 20
18.11028583716927
 30
0.0
 40
1.999994993209798
100
AcDbArc
 50
101.7588561795728
 51
120.2503297723872
  0
ARC
  5
A52B
330
1F
100
AcDbEntity
  8
PV0001_1
  6
Continuous
 48
0.5
100
AcDbCircle
 10
20.07994245210085
 20
18.15427692603626
 30
0.0
 40
1.999978184699999
100
AcDbArc
 50
104.8569821757653
 51
119.8800652174755
  0
LINE
  5
A52C
330
1F
100
AcDbEntity
  8
PV0001_1
  6
Continuous
 48
0.5
100
AcDbLine
 10
19.40807508149584
 20
19.95521076392725
 30
0.0
 11
18.98471997895683
 21
19.86698444556725
 31
0.0
  0
LINE
  5
A52D
330
1F
100
AcDbEntity
  8
PV0001_1
  6
Continuous
 48
0.5
100
AcDbLine
 10
-73.95822740873613
 20
29.99981220435627
 30
0.0
 11
-73.65003038724613
 21
29.99981220435627
 31
0.0
  0
LINE
  5
A52E
330
1F
100
AcDbEntity
  8
PV0001_1
  6
Continuous
 48
0.5
100
AcDbLine
 10
14.59226392426882
 20
29.99981220435626
 30
0.0
 11
18.11556409516783
 21
29.99981220435626
 31
0.0
  0
LINE
  5
A52F
330
1F
100
AcDbEntity
  8
PV0001_1
  6
Continuous
 48
0.5
100
AcDbLine
 10
24.15186284699883
 20
29.99981220435626
 30
0.0
 11
18.11556409516783
 21
29.99981220435626
 31
0.0
  0
LINE
  5
A530
330
1F
100
AcDbEntity
  8
PV0001_1
  6
Continuous
 48
0.5
100
AcDbLine
 10
24.15186284699883
 20
29.99981220435626
 30
0.0
 11
24.99996160188186
 21
29.99981220435626
 31
0.0
  0
LINE
  5
A531
330
1F
100
AcDbEntity
  8
PV0001_1
  6
Continuous
 48
0.5
100
AcDbLine
 10
149.9999635092288
 20
-82.25019161033975
 30
0.0
 11
149.9999635092288
 21
-57.24520015526277
 31
0.0
  0
LINE
  5
A533
330
1F
100
AcDbEntity
  8
PV0001_1
  6
Continuous
 48
0.5
100
AcDbLine
 10
149.9999635092288
 20
29.99981220435623
 30
0.0
 11
149.9999635092288
 21
4.994820749278218
 31
0.0
  0
DIMENSION
  5
A718
330
1F
100
AcDbEntity
  8
AM_5
100
AcDbDimension
  2
*D8
 10
170.3168074616346
 20
-57.24520015526277
 30
0.0
 11
166.9164334458866
 21
-69.74769588280124
 31
0.0
 70
    32
 71
     5
 42
25.004991455077
  3
AM_JIS$0
100
AcDbAlignedDimension
 13
149.9999635092288
 23
-82.25019161033975
 33
0.0
 14
149.9999635092288
 24
-57.24520015526277
 34
0.0
 50
89.99999999999998
100
AcDbRotatedDimension
  0
DIMENSION
  5
A719
330
1F
100
AcDbEntity
  8
AM_5
100
AcDbDimension
  2
*D7
 10
167.0992086926708
 20
29.99981220435623
 30
0.0
 11
163.6988346769227
 21
17.49731647681725
 31
0.0
 70
    32
 71
     5
 42
25.00499145507801
  3
AM_JIS$0
100
AcDbAlignedDimension
 13
149.9999635092288
 23
4.994820749278218
 33
0.0
 14
149.9999635092288
 24
29.99981220435623
 34
0.0
 50
89.99999999999998
100
AcDbRotatedDimension
  0
DIMENSION
  5
A71A
330
1F
100
AcDbEntity
  8
PV0001_1
100
AcDbDimension
  2
*D6
 10
149.9999635092288
 20
-19.89625255394375
 30
0.0
 11
87.49996350922883
 21
-19.89625255394375
 31
0.0
 70
   160
  1
<>
 71
     5
 42
149.9999635092288
  3
AM_JIS$0
100
AcDbAlignedDimension
 13
0.0
 23
0.1986853568573039
 33
0.0
 14
149.9999635092288
 24
5.164820749278227
 34
0.0
100
AcDbRotatedDimension
1001
ACAD
1000
DSTYLE
1002
{
1070
   284
1070
     8
1070
   271
1070
     0
1070
    45
1040
0.1
1070
   173
1070
     1
1070
     6
1000
OPEN30
1070
     7
1000
OPEN30
1002
}
  0
DIMENSION
  5
A77E
330
1F
100
AcDbEntity
  8
AM_5
100
AcDbDimension
  2
*D10
 10
125.0028743699299
 20
5.164947509764971
 30
0.0
 11
42.16561713223015
 21
14.73797390634854
 31
0.0
 70
    34
 71
     5
 42
0.0332086782734473
  3
AM_JIS$2
100
AcDb2LineAngularDimension
 13
17.57907676250988
 23
0.6002502441400069
 33
0.0
 14
4.226575846981858
 24
0.1339263916010012
 34
0.0
 15
24.99996160188186
 25
4.994820749278261
 35
0.0
 16
38.4846021911249
 26
2.560039887545895
 36
0.0
1001
ACAD
1000
DSTYLE
1002
{
1070
   271
1070
     0
1002
}
  0
DIMENSION
  5
A77F
330
1F
100
AcDbEntity
  8
PV0001_1
100
AcDbDimension
  2
*D9
 10
-29.54933242257812
 20
0.0000000000000084
 30
0.0
 11
-29.54933242257812
 21
14.99990610217816
 31
0.0
 70
   160
  1
<>
 71
     5
 42
29.99981220435627
  3
AM_JIS$0
100
AcDbAlignedDimension
 13
14.59226773896683
 23
29.99981220435626
 33
0.0
 14
0.2055339768648991
 24
0.0
 34
0.0
 50
89.99999999999998
100
AcDbRotatedDimension
1001
ACAD
1000
DSTYLE
1002
{
1070
    45
1040
0.01
1070
   173
1070
     1
1070
   271
1070
     5
1070
     6
1000
OPEN30
1070
     7
1000
OPEN30
1002
}
  0
DIMENSION
  5
A780
330
1F
100
AcDbEntity
  8
AM_5
100
AcDbDimension
  2
*D11
 10
-16.27854880007492
 20
0.0000000000000019
 30
0.0
 11
-16.27854880007492
 21
11.54397095291023
 31
0.0
 70
   160
 71
     5
 42
1.253951080101638
  3
AM_JIS$0
100
AcDbAlignedDimension
 13
0.2077698128069215
 23
1.253951080101636
 33
0.0
 14
-9.406483359094464
 24
0.0
 34
0.0
 50
270.0
100
AcDbRotatedDimension
  0
DIMENSION
  5
A7DD
330
1F
100
AcDbEntity
  8
PV0001_1
100
AcDbDimension
  2
*D12
 10
-23.0338084801499
 20
-82.25019161033973
 30
0.0
 11
-23.03380848014989
 21
-67.2501700261071
 31
0.0
 70
   160
  1
<>
 71
     5
 42
25.00005787021496
  3
AM_JIS$0
100
AcDbAlignedDimension
 13
-0.0000541791187131
 23
-57.25013374012476
 33
0.0
 14
4.099963890699815
 24
-82.25019161033973
 34
0.0
 50
89.99999999999998
100
AcDbRotatedDimension
1001
ACAD
1000
DSTYLE
1002
{
1070
    45
1040
0.01
1070
   173
1070
     1
1070
   271
1070
     5
1070
     6
1000
OPEN30
1070
     7
1000
OPEN30
1002
}
  0
DIMENSION
  5
A7DE
330
1F
100
AcDbEntity
  8
AM_5
100
AcDbDimension
  2
*D13
 10
124.9999458208803
 20
-57.4151422850468
 30
0.0
 11
47.44993469353471
 21
-53.60380323070464
 31
0.0
 70
   162
 71
     5
 42
0.0901812026863782
  3
AM_JIS$2
100
AcDb2LineAngularDimension
 13
17.57613295467034
 23
-55.55393146198776
 33
0.0
 14
4.224131764485369
 24
-56.73843310993676
 34
0.0
 15
24.99996160188185
 25
-57.24520015526273
 35
0.0
 16
40.9579901218392
 26
-56.01101515695283
 36
0.0
1001
ACAD
1000
DSTYLE
1002
{
1070
   287
1070
     4
1070
   271
1070
     0
1070
   279
1070
     1
1002
}
  0
DIMENSION
  5
A82F
330
1F
100
AcDbEntity
  8
PV0001_1
100
AcDbDimension
  2
*D14
 10
-101.6546883433984
 20
1.132635951480864
 30
0.0
 11
-109.4425847880018
 21
0.4924017279518294
 31
0.0
 70
   162
  1
<>
 71
     5
 42
0.043632696646265
  3
AM_JISORG-1P0$2
100
AcDb2LineAngularDimension
 13
-52.52387474477849
 23
0.2903431658368305
 33
0.0
 14
-76.69264819394578
 24
-0.0001343922698283
 34
0.0
 15
-92.88447044788849
 25
0.8552769426918302
 35
0.0
 16
-109.4386166359152
 26
0.7877592606464488
 36
0.0
1001
ACAD
1000
DSTYLE
1002
{
1070
   173
1070
     1
1070
   271
1070
     1
1070
   343
1005
59
1070
   344
1005
59
1002
}
  0
DIMENSION
  5
A9DA
330
1F
100
AcDbEntity
  8
AM_5
100
AcDbDimension
  2
*D15
 10
2.160776716424575
 20
-57.64817558246301
 30
0.0
 11
-23.66899573565195
 21
-44.14005507598763
 31
0.0
 70
    34
 71
     5
 42
0.1821481658434221
  3
AM_JIS$2
100
AcDb2LineAngularDimension
 13
-24.06585486057775
 23
-57.25017002610737
 33
0.0
 14
-30.42064772830619
 24
-57.25017002610737
 34
0.0
 15
-0.0000555642561792
 25
-57.25017253685473
 35
0.0
 16
-22.99136527958817
 26
-55.85251133851218
 36
0.0
1001
ACAD
1000
DSTYLE
1002
{
1070
   271
1070
     0
1070
     7
1000
NONE
1070
     5
1000

1070
   173
1070
     1
1070
     6
1000
OPEN30
1002
}
  0
ARC
  5
A9DB
330
1F
100
AcDbEntity
  8
AM_0
 48
0.5
100
AcDbCircle
 10
2.524977308465591
 20
-55.68218074756301
 30
0.0
 40
1.9994493722916
100
AcDbArc
 50
259.5049747036922
 51
328.2536427378056
  0
LINE
  5
A9DC
330
1F
100
AcDbEntity
  8
AM_0
 48
0.5
100
AcDbLine
 10
-0.0000555642561792
 20
-57.25017253685473
 30
0.0
 11
2.160776716424575
 21
-57.64817558246301
 31
0.0
  0
LINE
  5
AA05
330
1F
100
AcDbEntity
  8
AM_0
100
AcDbLine
 10
19.32414320370907
 20
-53.90458853110196
 30
0.0
 11
19.4349539634758
 21
-54.91933217221379
 31
0.0
  0
LINE
  5
AA06
330
1F
100
AcDbEntity
  8
AM_0
100
AcDbLine
 10
19.30818510654642
 20
-53.7221866033715
 30
0.0
 11
19.32414320370907
 21
-53.90458853110196
 31
0.0
  0
ARC
  5
AA07
330
1F
100
AcDbEntity
  8
AM_0
  6
Continuous
 48
0.5
100
AcDbCircle
 10
18.81008785641873
 20
-53.76576560537066
 30
0.0
 40
0.5000000000000026
100
AcDbArc
 50
5.000130055030487
 51
94.99994686373835
  0
ELLIPSE
  5
AA08
330
1F
100
AcDbEntity
  8
AM_0
 48
0.5
100
AcDbEllipse
 10
2.010901149875765
 20
-55.24951308766965
 30
0.0
 11
-1.593063538587001
 21
2.530265666253998
 31
0.0
210
0.0
220
0.0
230
1.0
 40
0.6246817031478999
 41
3.760017130970687
 42
3.953220623935353
  0
LINE
  5
AA09
330
1F
100
AcDbEntity
  8
AM_0
 48
0.5
100
AcDbLine
 10
7.066389736300864
 20
-56.01959746877366
 30
0.0
 11
4.253996547824756
 21
-56.26912349263766
 31
0.0
  0
ENDSEC
  0
SECTION
  2
OBJECTS
  0
DICTIONARY
  5
C
330
0
100
AcDbDictionary
281
     1
  3
ACAD_COLOR
350
AAD4
  3
ACAD_GROUP
350
D
  3
ACAD_LAYOUT
350
1A
  3
ACAD_MATERIAL
350
AAD3
  3
ACAD_MLINESTYLE
350
17
  3
ACAD_PLOTSETTINGS
350
19
  3
ACAD_PLOTSTYLENAME
350
E
  3
ACAD_TABLESTYLE
350
AAD5
  3
ACDBHEADERROUNDTRIPXREC
350
AC6D
  3
ACDBVARIABLEDICTIONARY
350
30
  3
ACMDICTIONARY
350
4D
  3
AMG
350
3F
  3
AMGSNAPSETTINGS
350
73
  3
DWGPROPS
350
AC6C
  3
ENG_DATA
350
21C6
  3
FILENAME
350
21C9
  3
HOLD_DIC_DATA
350
21C4
  3
TABLE_DIC_DATA
350
1C0B
  3
ZWKSIZE
350
21CB
  0
DICTIONARY
  5
165
330
1F
100
AcDbDictionary
280
     1
281
     1
  3
ACAD_INDEX
360
AA4A
  3
ACAD_LAYOUTSELFREF
360
AA7B
  0
DICTIONARY
  5
AA79
330
1B
100
AcDbDictionary
280
     1
281
     1
  3
ACAD_LAYOUTSELFREF
360
AA7A
  0
DICTIONARY
  5
AAD4
102
{ACAD_REACTORS
330
C
102
}
330
C
100
AcDbDictionary
281
     1
  0
DICTIONARY
  5
D
102
{ACAD_REACTORS
330
C
102
}
330
C
100
AcDbDictionary
281
     1
  3
*A1
350
7C0D
  3
*A2
350
7C0E
  3
*A3
350
7FE3
  3
*A4
350
8E0E
  3
*A5
350
96D0
  0
DICTIONARY
  5
1A
102
{ACAD_REACTORS
330
C
102
}
330
C
100
AcDbDictionary
281
     1
  3
Model
350
AAD7
  3
レイアウト1
350
AAD8
  0
DICTIONARY
  5
AAD3
102
{ACAD_REACTORS
330
C
102
}
330
C
100
AcDbDictionary
281
     1
  0
DICTIONARY
  5
17
102
{ACAD_REACTORS
330
C
102
}
330
C
100
AcDbDictionary
281
     1
  3
STANDARD
350
18
  0
DICTIONARY
  5
19
102
{ACAD_REACTORS
330
C
102
}
330
C
100
AcDbDictionary
281
     1
  0
ACDBDICTIONARYWDFLT
  5
E
102
{ACAD_REACTORS
330
C
102
}
330
C
100
AcDbDictionary
281
     1
  3
Normal
350
F
100
AcDbDictionaryWithDefault
340
F
  0
DICTIONARY
  5
AAD5
102
{ACAD_REACTORS
330
C
102
}
330
C
100
AcDbDictionary
281
     1
  3
Standard
350
AAD6
  0
DICTIONARY
  5
AC6D
102
{ACAD_REACTORS
330
C
102
}
330
C
100
AcDbDictionary
281
     1
  0
DICTIONARY
  5
30
102
{ACAD_REACTORS
330
C
102
}
330
C
100
AcDbDictionary
281
     1
  3
CTABLESTYLE
350
AC68
  3
DIMASSOC
350
AC69
  3
INDEXCTL
350
31
  3
PROJECTNAME
350
AC6A
  3
SORTENTS
350
42BE
  0
DICTIONARY
  5
4D
102
{ACAD_REACTORS
330
C
102
}
330
C
100
AcDbDictionary
281
     1
  3
ACMSTDDICTIONARY
350
17E
  3
AMDTSECTSYM_ARROWCOLOR
350
AB50
  0
DICTIONARY
  5
3F
102
{ACAD_REACTORS
330
C
102
}
330
C
100
AcDbDictionary
281
     1
  0
DICTIONARY
  5
73
102
{ACAD_REACTORS
330
C
102
}
330
C
100
AcDbDictionary
281
     1
  0
XRECORD
  5
AC6C
102
{ACAD_REACTORS
330
C
102
}
330
C
100
AcDbXrecord
280
     1
  1
DWGPROPS COOKIE
  2

  3

  4

  6

  7

  8

  9

300
AmdtFileType=82
301
=
302
=
303
=
304
=
305
=
306
=
307
=
308
=
309
=
 40
0.777326863425926
 41
2451943.610431666
 42
2455603.413539132
  1

 90
        1
  0
DICTIONARY
  5
21C6
102
{ACAD_REACTORS
330
C
102
}
330
C
100
AcDbDictionary
281
     1
  3
ENG_ID
350
21C7
  0
DICTIONARY
  5
21C9
102
{ACAD_REACTORS
330
C
102
}
330
C
100
AcDbDictionary
281
     1
  3
FILENAME
350
21CA
  0
DICTIONARY
  5
21C4
102
{ACAD_REACTORS
330
C
102
}
330
C
100
AcDbDictionary
281
     1
  3
HOLD_DATA
350
21C5
  0
DICTIONARY
  5
1C0B
102
{ACAD_REACTORS
330
C
102
}
330
C
100
AcDbDictionary
281
     1
  3
INPUT_DATA
350
1C0D
  3
TABLE_DATA
350
1C0C
  0
DICTIONARY
  5
21CB
102
{ACAD_REACTORS
330
C
102
}
330
C
100
AcDbDictionary
281
     1
  3
ZWKSIZE
350
21CC
  0
DICTIONARY
  5
AA4A
102
{ACAD_REACTORS
330
165
102
}
330
165
100
AcDbDictionary
281
     1
  3
*A1
350
AA4B
  0
XRECORD
  5
AA7B
102
{ACAD_REACTORS
330
165
102
}
330
165
100
AcDbXrecord
280
     1
340
1F
  0
XRECORD
  5
AA7A
102
{ACAD_REACTORS
330
AA79
102
}
330
AA79
100
AcDbXrecord
280
     1
340
1B
  0
GROUP
  5
7C0D
102
{ACAD_REACTORS
330
D
102
}
330
D
100
AcDbGroup
300

 70
     1
 71
     1
  0
GROUP
  5
7C0E
102
{ACAD_REACTORS
330
D
102
}
330
D
100
AcDbGroup
300

 70
     1
 71
     1
  0
GROUP
  5
7FE3
102
{ACAD_REACTORS
330
D
102
}
330
D
100
AcDbGroup
300

 70
     1
 71
     1
  0
GROUP
  5
8E0E
102
{ACAD_REACTORS
330
D
102
}
330
D
100
AcDbGroup
300

 70
     1
 71
     1
  0
GROUP
  5
96D0
102
{ACAD_REACTORS
330
D
102
}
330
D
100
AcDbGroup
300

 70
     1
 71
     1
  0
LAYOUT
  5
AAD7
102
{ACAD_XDICTIONARY
360
AC6E
102
}
102
{ACAD_REACTORS
330
1A
102
}
330
1A
100
AcDbPlotSettings
  1

  2
SII LP-1010 (C2 VR)2R
  4

  6

 40
0.0
 41
0.0
 42
0.0
 43
0.0
 44
0.0
 45
0.0
 46
0.0
 47
0.0
 48
0.0
 49
0.0
140
0.0
141
0.0
142
1.0
143
1.0
 70
  1712
 72
     0
 73
     0
 74
     0
  7
sei_cad.ctb
 75
     0
147
1.0
148
0.0
149
0.0
100
AcDbLayout
  1
Model
 70
     1
 71
     0
 10
0.0
 20
0.0
 11
12.0
 21
9.0
 12
0.0
 22
0.0
 32
0.0
 14
0.0
 24
0.0
 34
0.0
 15
0.0
 25
0.0
 35
0.0
146
0.0
 13
0.0
 23
0.0
 33
0.0
 16
1.0
 26
0.0
 36
0.0
 17
0.0
 27
1.0
 37
0.0
 76
     0
330
1F
  0
LAYOUT
  5
AAD8
102
{ACAD_XDICTIONARY
360
AC70
102
}
102
{ACAD_REACTORS
330
1A
102
}
330
1A
100
AcDbPlotSettings
  1

  2
SII LP-1010 (C2 VR)2R
  4

  6

 40
0.0
 41
0.0
 42
0.0
 43
0.0
 44
0.0
 45
0.0
 46
0.0
 47
0.0
 48
0.0
 49
0.0
140
0.0
141
0.0
142
1.0
143
1.0
 70
   688
 72
     0
 73
     0
 74
     5
  7
sei_cad.ctb
 75
    16
147
1.0
148
0.0
149
0.0
100
AcDbLayout
  1
レイアウト1
 70
     1
 71
     1
 10
0.0
 20
0.0
 11
420.0
 21
297.0
 12
0.0
 22
0.0
 32
0.0
 14
1.000000000000000E+20
 24
1.000000000000000E+20
 34
1.000000000000000E+20
 15
-1.000000000000000E+20
 25
-1.000000000000000E+20
 35
-1.000000000000000E+20
146
0.0
 13
0.0
 23
0.0
 33
0.0
 16
1.0
 26
0.0
 36
0.0
 17
0.0
 27
1.0
 37
0.0
 76
     0
330
1B
  0
MLINESTYLE
  5
18
102
{ACAD_REACTORS
330
17
102
}
330
17
100
AcDbMlineStyle
  2
STANDARD
 70
     0
  3

 62
   256
 51
90.0
 52
90.0
 71
     2
 49
0.5
 62
   256
  6
BYLAYER
 49
-0.5
 62
   256
  6
BYLAYER
  0
ACDBPLACEHOLDER
  5
F
102
{ACAD_REACTORS
330
E
102
}
330
E
  0
TABLESTYLE
  5
AAD6
102
{ACAD_REACTORS
330
AAD5
102
}
330
AAD5
100
AcDbTableStyle
  3
Standard
 70
     0
 71
     0
 40
1.5
 41
1.5
280
     0
281
     0
  7
STANDARD
140
4.5
170
     2
 62
     0
 63
     7
283
     0
274
    -2
284
     1
 64
     0
275
    -2
285
     1
 65
     0
276
    -2
286
     1
 66
     0
277
    -2
287
     1
 67
     0
278
    -2
288
     1
 68
     0
279
    -2
289
     1
 69
     0
  7
STANDARD
140
6.0
170
     5
 62
     0
 63
     7
283
     0
274
    -2
284
     1
 64
     0
275
    -2
285
     1
 65
     0
276
    -2
286
     1
 66
     0
277
    -2
287
     1
 67
     0
278
    -2
288
     1
 68
     0
279
    -2
289
     1
 69
     0
  7
STANDARD
140
4.5
170
     5
 62
     0
 63
     7
283
     0
274
    -2
284
     1
 64
     0
275
    -2
285
     1
 65
     0
276
    -2
286
     1
 66
     0
277
    -2
287
     1
 67
     0
278
    -2
288
     1
 68
     0
279
    -2
289
     1
 69
     0
  0
DICTIONARYVAR
  5
AC68
102
{ACAD_REACTORS
330
30
102
}
330
30
100
DictionaryVariables
280
     0
  1
STANDARD
  0
DICTIONARYVAR
  5
AC69
102
{ACAD_REACTORS
330
30
102
}
330
30
100
DictionaryVariables
280
     0
  1
1
  0
DICTIONARYVAR
  5
31
102
{ACAD_REACTORS
330
30
102
}
330
30
100
DictionaryVariables
280
     0
  1
1
  0
DICTIONARYVAR
  5
AC6A
102
{ACAD_REACTORS
330
30
102
}
330
30
100
DictionaryVariables
280
     0
  1

  0
DICTIONARYVAR
  5
42BE
102
{ACAD_REACTORS
330
30
102
}
330
30
100
DictionaryVariables
280
     0
  1
96
  0
DICTIONARY
  5
17E
102
{ACAD_REACTORS
330
4D
102
}
330
4D
100
AcDbDictionary
281
     1
  0
XRECORD
  5
AB50
102
{ACAD_REACTORS
330
4D
102
}
330
4D
100
AcDbXrecord
280
     1
 90
-1023410169
  0
XRECORD
  5
21C7
102
{ACAD_REACTORS
330
21C6
102
}
330
21C6
100
AcDbXrecord
280
     1
  1
HOLD
  0
XRECORD
  5
21CA
102
{ACAD_REACTORS
330
21C9
102
}
330
21C9
100
AcDbXrecord
280
     1
  1
21000065__00___
  0
XRECORD
  5
21C5
102
{ACAD_REACTORS
330
21C4
102
}
330
21C4
100
AcDbXrecord
280
     1
  1
クランクシャフト加工用 ^M^J１コーナー型 ^M^J15.875 ^M^J20 ^M^Jクランプオン ^M^J９０° ^M^J1 ^M^J鋼 ^M^J ^M^J ^M^J ^M^J ^M^J
  0
XRECORD
  5
1C0D
102
{ACAD_REACTORS
330
1C0B
102
}
330
1C0B
100
AcDbXrecord
280
     1
  1
1,,,,,,,,,^M^J2,,,,,,,,,^M^J3,,,,,,,,,^M^J4,,,,,,,,,^M^J5,,,,,,,,,^M^J6,,,,,,,,,^M^J7,,,,,,,,,^M^J8,,,,,,,,,^M^J9,,,,,,,,,^M^J10,,,,,,,,,
  0
XRECORD
  5
1C0C
102
{ACAD_REACTORS
330
1C0B
102
}
330
1C0B
100
AcDbXrecord
280
     1
  1
10,10
  0
XRECORD
  5
21CC
102
{ACAD_REACTORS
330
21CB
102
}
330
21CB
100
AcDbXrecord
280
     1
  1
3
  0
LAYER_INDEX
  5
AA4B
102
{ACAD_REACTORS
330
AA4A
102
}
330
AA4A
100
AcDbIndex
 40
2455603.413539132
100
AcDbLayerIndex
  8
0
360
AA4C
 90
        0
  8
AM_5
360
AA4D
 90
        6
  8
DEFPOINTS
360
AA4E
 90
        0
  8
AM_0
360
AA4F
 90
        7
  8
AM_6
360
AA50
 90
        1
  8
PV0001_1
360
AA51
 90
      301
  0
DICTIONARY
  5
AC6E
330
AAD7
100
AcDbDictionary
280
     1
281
     1
  3
ACAD_XREC_ROUNDTRIP
360
AC6F
  0
DICTIONARY
  5
AC70
330
AAD8
100
AcDbDictionary
280
     1
281
     1
  3
ACAD_XREC_ROUNDTRIP
360
AC71
  0
IDBUFFER
  5
AA4C
330
0
100
AcDbIdBuffer
  0
IDBUFFER
  5
AA4D
330
0
100
AcDbIdBuffer
330
A718
330
A719
330
A77E
330
A780
330
A7DE
330
A9DA
  0
IDBUFFER
  5
AA4E
330
0
100
AcDbIdBuffer
  0
IDBUFFER
  5
AA4F
330
0
100
AcDbIdBuffer
330
A9DB
330
A9DC
330
AA05
330
AA06
330
AA07
330
AA08
330
AA09
  0
IDBUFFER
  5
AA50
330
0
100
AcDbIdBuffer
330
83BD
  0
IDBUFFER
  5
AA51
330
0
100
AcDbIdBuffer
330
A4E6
330
A4E7
330
A4E8
330
A4E9
330
A4EA
330
A4EB
330
A4EC
330
A4ED
330
A4EE
330
A4EF
330
A4F0
330
A4F4
330
A4F5
330
A4F6
330
A508
330
A509
330
A50A
330
A50B
330
A50C
330
A50D
330
A50E
330
A50F
330
A510
330
A511
330
A512
330
A513
330
A514
330
A515
330
A516
330
A517
330
A518
330
A519
330
A51A
330
A51B
330
A51C
330
A51D
330
A51E
330
A51F
330
A520
330
A521
330
A522
330
A523
330
A524
330
A525
330
A526
330
A527
330
A528
330
A529
330
A52A
330
A52B
330
A52C
330
A52D
330
A52E
330
A52F
330
A530
330
A531
330
A533
330
A71A
330
A77F
330
A7DD
330
A82F
330
A3A5
330
A3A6
330
A3A7
330
A3A8
330
A3AB
330
A3AC
330
A3AD
330
A3AE
330
A3AF
330
A3B0
330
A3B1
330
A3B7
330
A3B8
330
A3B9
330
A3BA
330
A3BB
330
A3BC
330
A3BD
330
A3BE
330
A3C0
330
A3C1
330
A3C2
330
A3C3
330
A3C4
330
A3C5
330
A3C6
330
A3C7
330
A3C8
330
A3C9
330
A3CA
330
A3CB
330
A3CC
330
A3CD
330
A3D4
330
A3D5
330
A3D6
330
A3D7
330
A3D8
330
A3D9
330
A3DA
330
A3DB
330
A3DC
330
A3DD
330
A3DE
330
A3DF
330
A3E0
330
A3E1
330
A3E2
330
A3E3
330
A3E4
330
A3E5
330
A3E6
330
A3E7
330
A3E8
330
A3E9
330
A3EA
330
A3EB
330
A3EC
330
A3ED
330
A3EE
330
A3EF
330
A3F0
330
A3F1
330
A3F2
330
A3F3
330
A3F4
330
A3F5
330
A3F6
330
A3F7
330
A3F8
330
A3F9
330
A3FA
330
A3FB
330
A3FC
330
A3FE
330
A400
330
A406
330
A409
330
A40A
330
A40B
330
A40C
330
A40D
330
A40E
330
A40F
330
A410
330
A411
330
A412
330
A413
330
A414
330
A415
330
A416
330
A417
330
A418
330
A419
330
A41A
330
A41B
330
A41C
330
A41D
330
A41E
330
A41F
330
A421
330
A423
330
A424
330
A425
330
A426
330
A427
330
A428
330
A429
330
A42A
330
A42B
330
A42C
330
A42D
330
A42E
330
A42F
330
A430
330
A431
330
A432
330
A433
330
A434
330
A435
330
A436
330
A437
330
A442
330
A443
330
A444
330
A445
330
A446
330
A447
330
A448
330
A449
330
A44A
330
A44B
330
A44C
330
A44D
330
A44E
330
A44F
330
A450
330
A451
330
A452
330
A453
330
A454
330
A455
330
A456
330
A457
330
A458
330
A459
330
A45A
330
A45B
330
A45C
330
A45D
330
A45E
330
A45F
330
A460
330
A461
330
A462
330
A463
330
A464
330
A465
330
A466
330
A467
330
A468
330
A469
330
A46A
330
A46B
330
A46C
330
A46D
330
A46E
330
A46F
330
A470
330
A473
330
A474
330
A475
330
A476
330
A477
330
A47D
330
A47E
330
A47F
330
A480
330
A481
330
A486
330
A487
330
A488
330
A489
330
A48D
330
A498
330
A499
330
A49A
330
A49B
330
A49C
330
A4A5
330
A4A6
330
A4A7
330
A4A9
330
A4AA
330
A4AE
330
A4AF
330
A4B0
330
A4B1
330
A4B2
330
A4B3
330
A4B4
330
A4B5
330
A4B6
330
A4B7
330
A4B8
330
A4B9
330
A4BB
330
A4BC
330
A4BD
330
A4BE
330
A4BF
330
A4C0
330
A4C5
330
A4C6
330
A4C7
330
A4C8
330
A4C9
330
A4CA
330
A4CB
330
A4CC
330
A4CD
330
A4CE
330
A4CF
330
A4D0
330
A4D1
330
A4D3
330
A4D4
330
A4D5
330
A4DA
330
A4DB
330
A4DC
330
A4DD
330
A4DE
330
A4DF
330
A4E0
330
A4E1
330
A4E2
330
A4E3
330
A4E4
330
A4E5
  0
XRECORD
  5
AC6F
102
{ACAD_REACTORS
330
AC6E
102
}
330
AC6E
100
AcDbXrecord
280
     1
102
SHADEPLOT
 70
     0
102
SHADEPLOTRESLEVEL
 70
     2
102
SHADEPLOTCUSTOMDPI
 70
   300
  0
XRECORD
  5
AC71
102
{ACAD_REACTORS
330
AC70
102
}
330
AC70
100
AcDbXrecord
280
     1
102
SHADEPLOT
 70
     0
102
SHADEPLOTRESLEVEL
 70
     2
102
SHADEPLOTCUSTOMDPI
 70
   300
  0
ENDSEC
  0
EOF
