  0
SECTION
  2
HEADER
  9
$ACADVER
  1
AC1015
  9
$ACADMAINTVER
 70
    20
  9
$DWGCODEPAGE
  3
ANSI_932
  9
$INSBASE
 10
0.0
 20
0.0
 30
0.0
  9
$EXTMIN
 10
-77.26464123836035
 20
-96.02538152368106
 30
-0.0000000000022887
  9
$EXTMAX
 10
146.3284240004902
 20
45.78549385076274
 30
0.0000000000000001
  9
$LIMMIN
 10
-177.2732476030711
 20
-82.6928869156068
  9
$LIMMAX
 10
112.1193687396448
 20
110.7448804374658
  9
$ORTHOMODE
 70
     0
  9
$REGENMODE
 70
     1
  9
$FILLMODE
 70
     1
  9
$QTEXTMODE
 70
     0
  9
$MIRRTEXT
 70
     1
  9
$LTSCALE
 40
1.0
  9
$ATTMODE
 70
     1
  9
$TEXTSIZE
 40
2.5
  9
$TRACEWID
 40
1.0
  9
$TEXTSTYLE
  7
STANDARD
  9
$CLAYER
  8
AM_5
  9
$CELTYPE
  6
BYLAYER
  9
$CECOLOR
 62
   256
  9
$CELTSCALE
 40
1.0
  9
$DISPSILH
 70
     0
  9
$DIMSCALE
 40
1.0
  9
$DIMASZ
 40
2.5
  9
$DIMEXO
 40
0.0
  9
$DIMDLI
 40
10.0
  9
$DIMRND
 40
0.0
  9
$DIMDLE
 40
0.0
  9
$DIMEXE
 40
1.0
  9
$DIMTP
 40
0.1
  9
$DIMTM
 40
0.1000000001
  9
$DIMTXT
 40
3.799999999999998
  9
$DIMCEN
 40
0.0
  9
$DIMTSZ
 40
0.0
  9
$DIMTOL
 70
     0
  9
$DIMLIM
 70
     0
  9
$DIMTIH
 70
     0
  9
$DIMTOH
 70
     0
  9
$DIMSE1
 70
     0
  9
$DIMSE2
 70
     0
  9
$DIMTAD
 70
     3
  9
$DIMZIN
 70
     9
  9
$DIMBLK
  1
OPEN30
  9
$DIMASO
 70
     1
  9
$DIMSHO
 70
     1
  9
$DIMPOST
  1

  9
$DIMAPOST
  1
"
  9
$DIMALT
 70
     0
  9
$DIMALTD
 70
     2
  9
$DIMALTF
 40
0.0393701
  9
$DIMLFAC
 40
1.0
  9
$DIMTOFL
 70
     1
  9
$DIMTVP
 40
0.0
  9
$DIMTIX
 70
     0
  9
$DIMSOXD
 70
     0
  9
$DIMSAH
 70
     0
  9
$DIMBLK1
  1

  9
$DIMBLK2
  1

  9
$DIMSTYLE
  2
AM_JIS
  9
$DIMCLRD
 70
   256
  9
$DIMCLRE
 70
   256
  9
$DIMCLRT
 70
     2
  9
$DIMTFAC
 40
0.71
  9
$DIMGAP
 40
1.5
  9
$DIMJUST
 70
     0
  9
$DIMSD1
 70
     0
  9
$DIMSD2
 70
     0
  9
$DIMTOLJ
 70
     0
  9
$DIMTZIN
 70
     8
  9
$DIMALTZ
 70
     0
  9
$DIMALTTZ
 70
     0
  9
$DIMUPT
 70
     0
  9
$DIMDEC
 70
     2
  9
$DIMTDEC
 70
     2
  9
$DIMALTU
 70
     2
  9
$DIMALTTD
 70
     2
  9
$DIMTXSTY
  7
STANDARD
  9
$DIMAUNIT
 70
     1
  9
$DIMADEC
 70
     1
  9
$DIMALTRND
 40
0.0
  9
$DIMAZIN
 70
     2
  9
$DIMDSEP
 70
    46
  9
$DIMATFIT
 70
     3
  9
$DIMFRAC
 70
     0
  9
$DIMLDRBLK
  1
OPEN30
  9
$DIMLUNIT
 70
     2
  9
$DIMLWD
 70
    -1
  9
$DIMLWE
 70
    -1
  9
$DIMTMOVE
 70
     0
  9
$LUNITS
 70
     2
  9
$LUPREC
 70
     2
  9
$SKETCHINC
 40
1.0
  9
$FILLETRAD
 40
0.2
  9
$AUNITS
 70
     1
  9
$AUPREC
 70
     5
  9
$MENU
  1
.
  9
$ELEVATION
 40
0.0
  9
$PELEVATION
 40
0.0
  9
$THICKNESS
 40
0.0
  9
$LIMCHECK
 70
     0
  9
$CHAMFERA
 40
0.0
  9
$CHAMFERB
 40
0.0
  9
$CHAMFERC
 40
20.0
  9
$CHAMFERD
 40
0.0
  9
$SKPOLY
 70
     0
  9
$TDCREATE
 40
2451943.610431666
  9
$TDUCREATE
 40
2451943.235431667
  9
$TDUPDATE
 40
2455603.410045382
  9
$TDUUPDATE
 40
2455603.035045382
  9
$TDINDWG
 40
0.7624234028
  9
$TDUSRTIMER
 40
0.7624230440
  9
$USRTIMER
 70
     1
  9
$ANGBASE
 50
0.0
  9
$ANGDIR
 70
     0
  9
$PDMODE
 70
     0
  9
$PDSIZE
 40
0.0
  9
$PLINEWID
 40
0.0
  9
$SPLFRAME
 70
     0
  9
$SPLINETYPE
 70
     6
  9
$SPLINESEGS
 70
     8
  9
$HANDSEED
  5
AADD
  9
$SURFTAB1
 70
     6
  9
$SURFTAB2
 70
     6
  9
$SURFTYPE
 70
     6
  9
$SURFU
 70
     6
  9
$SURFV
 70
     6
  9
$UCSBASE
  2

  9
$UCSNAME
  2

  9
$UCSORG
 10
0.0
 20
0.0
 30
0.0
  9
$UCSXDIR
 10
1.0
 20
0.0
 30
0.0
  9
$UCSYDIR
 10
0.0
 20
1.0
 30
0.0
  9
$UCSORTHOREF
  2

  9
$UCSORTHOVIEW
 70
     0
  9
$UCSORGTOP
 10
0.0
 20
0.0
 30
0.0
  9
$UCSORGBOTTOM
 10
0.0
 20
0.0
 30
0.0
  9
$UCSORGLEFT
 10
0.0
 20
0.0
 30
0.0
  9
$UCSORGRIGHT
 10
0.0
 20
0.0
 30
0.0
  9
$UCSORGFRONT
 10
0.0
 20
0.0
 30
0.0
  9
$UCSORGBACK
 10
0.0
 20
0.0
 30
0.0
  9
$PUCSBASE
  2

  9
$PUCSNAME
  2

  9
$PUCSORG
 10
0.0
 20
0.0
 30
0.0
  9
$PUCSXDIR
 10
1.0
 20
0.0
 30
0.0
  9
$PUCSYDIR
 10
0.0
 20
1.0
 30
0.0
  9
$PUCSORTHOREF
  2

  9
$PUCSORTHOVIEW
 70
     0
  9
$PUCSORGTOP
 10
0.0
 20
0.0
 30
0.0
  9
$PUCSORGBOTTOM
 10
0.0
 20
0.0
 30
0.0
  9
$PUCSORGLEFT
 10
0.0
 20
0.0
 30
0.0
  9
$PUCSORGRIGHT
 10
0.0
 20
0.0
 30
0.0
  9
$PUCSORGFRONT
 10
0.0
 20
0.0
 30
0.0
  9
$PUCSORGBACK
 10
0.0
 20
0.0
 30
0.0
  9
$USERI1
 70
     0
  9
$USERI2
 70
     0
  9
$USERI3
 70
     0
  9
$USERI4
 70
     0
  9
$USERI5
 70
     0
  9
$USERR1
 40
0.0
  9
$USERR2
 40
0.0
  9
$USERR3
 40
0.0
  9
$USERR4
 40
0.0
  9
$USERR5
 40
0.0
  9
$WORLDVIEW
 70
     1
  9
$SHADEDGE
 70
     3
  9
$SHADEDIF
 70
    70
  9
$TILEMODE
 70
     1
  9
$MAXACTVP
 70
    64
  9
$PINSBASE
 10
0.0
 20
0.0
 30
0.0
  9
$PLIMCHECK
 70
     0
  9
$PEXTMIN
 10
1.000000000000000E+20
 20
1.000000000000000E+20
 30
1.000000000000000E+20
  9
$PEXTMAX
 10
-1.000000000000000E+20
 20
-1.000000000000000E+20
 30
-1.000000000000000E+20
  9
$PLIMMIN
 10
0.0
 20
0.0
  9
$PLIMMAX
 10
420.0
 20
297.0
  9
$UNITMODE
 70
     0
  9
$VISRETAIN
 70
     1
  9
$PLINEGEN
 70
     0
  9
$PSLTSCALE
 70
     1
  9
$TREEDEPTH
 70
  3020
  9
$CMLSTYLE
  2
STANDARD
  9
$CMLJUST
 70
     0
  9
$CMLSCALE
 40
20.0
  9
$PROXYGRAPHICS
 70
     1
  9
$MEASUREMENT
 70
     1
  9
$CELWEIGHT
370
    -1
  9
$ENDCAPS
280
     0
  9
$JOINSTYLE
280
     0
  9
$LWDISPLAY
290
     0
  9
$INSUNITS
 70
     4
  9
$HYPERLINKBASE
  1

  9
$STYLESHEET
  1
sei_cad.ctb
  9
$XEDIT
290
     1
  9
$CEPSNTYPE
380
     0
  9
$PSTYLEMODE
290
     1
  9
$FINGERPRINTGUID
  2
{C77AB3BE-9CA2-11D3-BAF3-006094EB760E}
  9
$VERSIONGUID
  2
{EF418171-3F8E-4D5C-95FF-656CD0E0768E}
  9
$EXTNAMES
290
     1
  9
$PSVPSCALE
 40
0.0
  9
$OLESTARTUP
290
     0
  0
ENDSEC
  0
SECTION
  2
CLASSES
  0
CLASS
  1
ACDBDICTIONARYWDFLT
  2
AcDbDictionaryWithDefault
  3
ObjectDBX Classes
 90
        0
280
     0
281
     0
  0
CLASS
  1
ACDBPLACEHOLDER
  2
AcDbPlaceHolder
  3
ObjectDBX Classes
 90
        0
280
     0
281
     0
  0
CLASS
  1
LAYOUT
  2
AcDbLayout
  3
ObjectDBX Classes
 90
        0
280
     0
281
     0
  0
CLASS
  1
ACME_DOCUMENT
  2
AcMeDbDoc
  3
AcMeServices
 90
        0
280
     0
281
     0
  0
CLASS
  1
ACMESCOPE
  2
AcMeScope
  3
AcMeServices
 90
        0
280
     0
281
     0
  0
CLASS
  1
ACMECOMMANDHISTORY
  2
AcMeCommandHistory
  3
AcMeServices
 90
        0
280
     0
281
     0
  0
CLASS
  1
DICTIONARYVAR
  2
AcDbDictionaryVar
  3
ObjectDBX Classes
 90
        0
280
     0
281
     0
  0
CLASS
  1
ACIMSYSVARMAN
  2
AcImSysVarManager
  3
AcMeServices
 90
        0
280
     0
281
     0
  0
CLASS
  1
ACIMREALSYSVAR
  2
AcImRealSysVar
  3
AcMeServices
 90
        0
280
     0
281
     0
  0
CLASS
  1
ACIMINTSYSVAR
  2
AcImIntSysVar
  3
AcMeServices
 90
        0
280
     0
281
     0
  0
CLASS
  1
ACMEDRAWINGMAN
  2
AcMeDrawingMan
  3
AcMeServices
 90
        0
280
     0
281
     0
  0
CLASS
  1
ACMEVIEW
  2
AcMeView
  3
AcMeServices
 90
        0
280
     0
281
     0
  0
CLASS
  1
ACDBENTITYCACHE
  2
AcMeEntityCache
  3
AcMeServices
 90
        0
280
     0
281
     0
  0
CLASS
  1
GSMANAGER
  2
AcMeGSManager
  3
AcMeServices
 90
        0
280
     0
281
     0
  0
CLASS
  1
AMDTINTERNALREACTOR
  2
AmdtInternalReactor
  3
AcMeServices
 90
        0
280
     0
281
     0
  0
CLASS
  1
ACMESTATEMGR
  2
AcMeStateMgr
  3
AcMeServices
 90
        0
280
     0
281
     0
  0
CLASS
  1
ACME_DATABASE
  2
AcMeDbDatabase
  3
AcMeServices
 90
        0
280
     0
281
     0
  0
CLASS
  1
ACRFINSADJUSTERMGR
  2
AcRfInsAdjusterMgr
  3
AcMeServices
 90
        0
280
     0
281
     0
  0
CLASS
  1
AMGSETTINGSOBJ
  2
AmgSettingsObj
  3
"AcadM|Product Description: AutoCAD Mechanical 2000|Company: Autodesk"
 90
        0
280
     0
281
     0
  0
CLASS
  1
AMGOBJPROPCFG
  2
AmgObjPropCfg
  3
"AmgLay|Product Description: AutoCAD Mechanical 2000|Company: Autodesk"
 90
        1
280
     0
281
     0
  0
CLASS
  1
ACMDATADICTIONARY
  2
AcmDataDictionary
  3
"AcmSymBB|Product Description: AutoCAD Mechanical 2004 DX|Company: Autodesk"
 90
        0
280
     0
281
     0
  0
CLASS
  1
ACMDATAENTRYBLOCK
  2
AcmDataEntryBlock
  3
"AcmSymBB|Product Description: AutoCAD Mechanical 2004 DX|Company: Autodesk"
 90
    32768
280
     0
281
     0
  0
CLASS
  1
ACIMSTRSYSVAR
  2
AcImStrSysVar
  3
AcMeServices
 90
        0
280
     0
281
     0
  0
CLASS
  1
ACAMGFILTERDAT
  2
AcAmgFilterDat
  3
"AcadM|Product Description: AutoCAD Mechanical 2000|Company: Autodesk"
 90
    32768
280
     0
281
     0
  0
CLASS
  1
LAYER_INDEX
  2
AcDbLayerIndex
  3
ObjectDBX Classes
 90
        0
280
     0
281
     0
  0
CLASS
  1
IDBUFFER
  2
AcDbIdBuffer
  3
ObjectDBX Classes
 90
        0
280
     0
281
     0
  0
CLASS
  1
ACMSTANDARDJIS
  2
AcmStandardJIS
  3
"Amdt_StdImp|Product Description: AutoCAD Mechanical 2004 DX|Company: Autodesk"
 90
    32768
280
     0
281
     0
  0
CLASS
  1
ACMSURFSTANDARDJIS
  2
AcmSurfTextStdJIS
  3
"Amdt_StdImp|Product Description: AutoCAD Mechanical 2004 DX|Company: Autodesk"
 90
    32768
280
     0
281
     0
  0
CLASS
  1
ACMFCFSTANDARDJIS
  2
AcmFCFStdJIS
  3
"Amdt_StdImp|Product Description: AutoCAD Mechanical 2004 DX|Company: Autodesk"
 90
    32768
280
     0
281
     0
  0
CLASS
  1
ACMWELDSTANDARDJIS
  2
AcmWeldingStdJIS
  3
"Amdt_StdImp|Product Description: AutoCAD Mechanical 2004 DX|Company: Autodesk"
 90
    32768
280
     0
281
     0
  0
CLASS
  1
ACMIDSTANDARDJIS
  2
AcmIdStdJIS
  3
"Amdt_StdImp|Product Description: AutoCAD Mechanical 2004 DX|Company: Autodesk"
 90
    32768
280
     0
281
     0
  0
CLASS
  1
ACMDATUMSTANDARDJIS
  2
AcmDatumStdJIS
  3
"Amdt_StdImp|Product Description: AutoCAD Mechanical 2004 DX|Company: Autodesk"
 90
    32768
280
     0
281
     0
  0
CLASS
  1
ACMBOMSTANDARDJIS
  2
AcmBOMStdJIS
  3
"Amdt_StdImp|Product Description: AutoCAD Mechanical 2004 DX|Company: Autodesk"
 90
    32768
280
     0
281
     0
  0
CLASS
  1
AMDTNOTE
  2
AmdtNote
  3
"AcmSymBB|Product Description: AutoCAD Mechanical 2004 DX|Company: Autodesk"
 90
    33791
280
     0
281
     1
  0
CLASS
  1
ACMDATAENTRYPART
  2
AcmDataEntryPart
  3
"AcmSymBB|Product Description: AutoCAD Mechanical 2004 DX|Company: Autodesk"
 90
    32768
280
     0
281
     0
  0
CLASS
  1
ACMPARTREF
  2
AcmPartRef
  3
"AcmSymBB|Product Description: AutoCAD Mechanical 2004 DX|Company: Autodesk"
 90
    33791
280
     0
281
     1
  0
CLASS
  1
ACDB_PROXY_ENTITY_DATA
  2
AcDbProxyEntityData
  3
ObjectDBX Classes
 90
    32768
280
     0
281
     0
  0
CLASS
  1
TABLESTYLE
  2
AcDbTableStyle
  3
ObjectDBX Classes
 90
     2047
280
     0
281
     0
  0
CLASS
  1
ACGREFMASTER
  2
AcGrefMaster
  3
AcAttribServices
 90
        0
280
     0
281
     0
  0
CLASS
  1
AM_DRAWING_MGR
  2
AcDmDwgMgr
  3
AcMechDwgViewMgmt
 90
        0
280
     0
281
     0
  0
CLASS
  1
AM_DWG_DOCUMENT
  2
AcDmDwgDocument
  3
AcMechDwgViewMgmt
 90
        0
280
     0
281
     0
  0
CLASS
  1
AM_DWG_SHEET
  2
AcDmSheet
  3
AcMechDwgViewMgmt
 90
        0
280
     0
281
     0
  0
CLASS
  1
AM_VIEWDIMPARMAP
  2
AcDmViewDimParMap
  3
AcMechDwgViewMgmt
 90
        0
280
     0
281
     0
  0
CLASS
  1
AM_DWGMGR_NAME
  2
AcDmDwgMgrName
  3
AcMechDwgViewMgmt
 90
        0
280
     0
281
     0
  0
CLASS
  1
ACGREFACADMASTER
  2
AcGrefacadMaster
  3
AcGrefServices
 90
        0
280
     0
281
     0
  0
CLASS
  1
AMDTMENUSTATEMGR
  2
AmdtMenuStateMgr
  3
McadcomServices
 90
        0
280
     0
281
     0
  0
CLASS
  1
AMDTMCOMMENUSTATE
  2
AmdtMcomMenuState
  3
McadcomServices
 90
        0
280
     0
281
     0
  0
CLASS
  1
AMIMASTER
  2
AmiMaster
  3
AmiServices
 90
        0
280
     0
281
     0
  0
CLASS
  1
MAPIAMMOUDLE
  2
MApiAmModule
  3
MApiAmServices
 90
        0
280
     0
281
     0
  0
CLASS
  1
AMDTADMENUSTATE
  2
AmdtAdMenuState
  3
DesignerServices
 90
        0
280
     0
281
     0
  0
CLASS
  1
ADAPPL
  2
AcAdAppl
  3
DesignerServices
 90
        0
280
     0
281
     0
  0
CLASS
  1
DEPMGR
  2
AcAdDepMgr
  3
DesignerServices
 90
        0
280
     0
281
     0
  0
CLASS
  1
PARAMMGR
  2
AcAdParamMgr
  3
DesignerServices
 90
        0
280
     0
281
     0
  0
CLASS
  1
PARAMSCOPE
  2
AcAdParamScope
  3
DesignerServices
 90
        0
280
     0
281
     0
  0
CLASS
  1
NAMEDAPPL
  2
AcAdNamedAppl
  3
DesignerServices
 90
        0
280
     0
281
     0
  0
CLASS
  1
AMDTDMMENUSTATE
  2
AmdtDmMenuState
  3
AcMechDwgViewMgmt
 90
        0
280
     0
281
     0
  0
CLASS
  1
AMDTAMMENUSTATE
  2
AmdtAmMenuState
  3
DesignerAssemblies
 90
        0
280
     0
281
     0
  0
CLASS
  1
ACAMPROJECT
  2
AcAmProject
  3
DesignerAssemblies
 90
        0
280
     0
281
     0
  0
CLASS
  1
ACAMGRCOMPDEF
  2
AcAmGrCompDef
  3
DesignerAssemblies
 90
        0
280
     0
281
     0
  0
CLASS
  1
ACCMCONTEXT
  2
AcCmContext
  3
DesignerAssemblies
 90
        0
280
     0
281
     0
  0
CLASS
  1
ACAMCOMPDEF
  2
AcAmCompDef
  3
DesignerAssemblies
 90
        0
280
     0
281
     0
  0
CLASS
  1
ACAMCOMPDEFMGR
  2
AcAmCompDefMgr
  3
DesignerAssemblies
 90
        0
280
     0
281
     0
  0
CLASS
  1
AMCONTEXTMGR
  2
AcAmContextMgr
  3
DesignerAssemblies
 90
        0
280
     0
281
     0
  0
CLASS
  1
ACAMCONTEXTMODELER
  2
AcAmContextModeler
  3
DesignerAssemblies
 90
        0
280
     0
281
     0
  0
CLASS
  1
CATALOGSTATE
  2
AcAmCatalogState
  3
DesignerAssemblies
 90
        0
280
     0
281
     0
  0
CLASS
  1
ACAMGRCOMPDEFSET
  2
AcAmGrCompDefSet
  3
DesignerAssemblies
 90
        0
280
     0
281
     0
  0
CLASS
  1
AMDTBROWSERDBTAB
  2
AmdtBrowserDbTab
  3
McadcomServices
 90
        0
280
     0
281
     0
  0
CLASS
  1
CBROWSERAPPOBJECT
  2
CBrowserAppObject
  3
McadcomServices
 90
        0
280
     0
281
     0
  0
CLASS
  1
DM_PLACEHOLDER
  2
AcDmSelsetPlaceholder
  3
AcMechDwgViewMgmt
 90
        0
280
     0
281
     0
  0
CLASS
  1
ACMSTANDARDISO
  2
AcmStandardISO
  3
"Amdt_StdImp|Product Description: AutoCAD Mechanical 2004 DX|Company: Autodesk"
 90
        0
280
     0
281
     0
  0
CLASS
  1
AMDTEDGESTANDARDISO13715
  2
AmdtEdgeStdISO13715
  3
"Amdt_StdImp|Product Description: AutoCAD Mechanical 2004 DX|Company: Autodesk"
 90
        0
280
     0
281
     0
  0
CLASS
  1
ACMSURFSTANDARDISO
  2
AcmSurfTextStdISO
  3
"Amdt_StdImp|Product Description: AutoCAD Mechanical 2004 DX|Company: Autodesk"
 90
        0
280
     0
281
     0
  0
CLASS
  1
ACMFCFSTANDARDISO
  2
AcmFCFStdISO
  3
"Amdt_StdImp|Product Description: AutoCAD Mechanical 2004 DX|Company: Autodesk"
 90
        0
280
     0
281
     0
  0
CLASS
  1
ACMWELDSTANDARDISO
  2
AcmWeldingStdISO
  3
"Amdt_StdImp|Product Description: AutoCAD Mechanical 2004 DX|Company: Autodesk"
 90
        0
280
     0
281
     0
  0
CLASS
  1
ACMIDSTANDARDISO
  2
AcmIdStdISO
  3
"Amdt_StdImp|Product Description: AutoCAD Mechanical 2004 DX|Company: Autodesk"
 90
        0
280
     0
281
     0
  0
CLASS
  1
ACMDATUMSTANDARDISO
  2
AcmDatumStdISO
  3
"Amdt_StdImp|Product Description: AutoCAD Mechanical 2004 DX|Company: Autodesk"
 90
        0
280
     0
281
     0
  0
CLASS
  1
ACMBOMSTANDARDISO
  2
AcmBOMStdISO
  3
"Amdt_StdImp|Product Description: AutoCAD Mechanical 2004 DX|Company: Autodesk"
 90
        0
280
     0
281
     0
  0
CLASS
  1
ACMDETAILSTANDARDISO
  2
AmdtDetailSymStdISO
  3
"Amdt_StdImp|Product Description: AutoCAD Mechanical 2004 DX|Company: Autodesk"
 90
        0
280
     0
281
     0
  0
CLASS
  1
ACMSECTIONSTANDARDISO
  2
AmdtSectionSymStdISO
  3
"Amdt_StdImp|Product Description: AutoCAD Mechanical 2004 DX|Company: Autodesk"
 90
        0
280
     0
281
     0
  0
CLASS
  1
ACMCENTERLINESTANDARDISO
  2
AmdtCenterLineStdISO
  3
"Amdt_StdImp|Product Description: AutoCAD Mechanical 2004 DX|Company: Autodesk"
 90
        0
280
     0
281
     0
  0
CLASS
  1
ACMTHREADLINESTANDARDISO
  2
AmdtThreadLineStdISO
  3
"Amdt_StdImp|Product Description: AutoCAD Mechanical 2004 DX|Company: Autodesk"
 90
        0
280
     0
281
     0
  0
CLASS
  1
ACMNOTESTANDARDISO
  2
AmdtNoteStdISO
  3
"Amdt_StdImp|Product Description: AutoCAD Mechanical 2004 DX|Company: Autodesk"
 90
        0
280
     0
281
     0
  0
CLASS
  1
AMDTNOTETEMPLATEDB
  2
AmdtNoteTemplateDB
  3
AMDT_STDIMP_MODULE_NAME
 90
        0
280
     0
281
     0
  0
CLASS
  1
ACAMGLAYSTD
  2
AcAmgLayStd
  3
"AcAmgLayStd|Product Description: AutoCAD Mechanical 2000|Company: Autodesk"
 90
        0
280
     0
281
     0
  0
CLASS
  1
ACAMGDIMSTD
  2
AcAmgDimStd
  3
"AcAmgDimStd|Product Description: AutoCAD Mechanical 2000|Company: Autodesk"
 90
        0
280
     0
281
     0
  0
CLASS
  1
ACAMGHOLECHARTSTDISO
  2
AcAmgHoleChartStdISO
  3
ACMSYMBB_MODULE_NAME
 90
        0
280
     0
281
     0
  0
CLASS
  1
ACAMGTITLESTD
  2
AcAmgTitleStd
  3
"TITLEAPP"
 90
        0
280
     0
281
     0
  0
ENDSEC
  0
SECTION
  2
TABLES
  0
TABLE
  2
VPORT
  5
8
330
0
100
AcDbSymbolTable
 70
     3
  0
VPORT
  5
AAD6
330
8
100
AcDbSymbolTableRecord
100
AcDbViewportTableRecord
  2
*Active
 70
     0
 10
0.0
 20
0.0
 11
1.0
 21
1.0
 12
34.53189138106495
 22
-25.11994383645916
 13
0.0
 23
0.0
 14
2.5
 24
2.5
 15
10.0
 25
10.0
 16
0.0
 26
0.0
 36
1.0
 17
0.0
 27
0.0
 37
0.0
 40
142.823810198547
 41
2.176400476758045
 42
50.0
 43
0.0
 44
0.0
 50
0.0
 51
0.0
 71
     0
 72
  2000
 73
     1
 74
     3
 75
     0
 76
     0
 77
     0
 78
     0
281
     0
 65
     0
110
0.0
120
0.0
130
0.0
111
1.0
121
0.0
131
0.0
112
0.0
122
1.0
132
0.0
 79
     0
146
0.0
  0
ENDTAB
  0
TABLE
  2
LTYPE
  5
5
330
0
100
AcDbSymbolTable
 70
    16
  0
LTYPE
  5
14
330
5
100
AcDbSymbolTableRecord
100
AcDbLinetypeTableRecord
  2
BYBLOCK
 70
     0
  3

 72
    65
 73
     0
 40
0.0
  0
LTYPE
  5
15
330
5
100
AcDbSymbolTableRecord
100
AcDbLinetypeTableRecord
  2
BYLAYER
 70
     0
  3

 72
    65
 73
     0
 40
0.0
  0
LTYPE
  5
16
330
5
100
AcDbSymbolTableRecord
100
AcDbLinetypeTableRecord
  2
CONTINUOUS
 70
     0
  3
Solid line
 72
    65
 73
     0
 40
0.0
  0
LTYPE
  5
43
330
5
100
AcDbSymbolTableRecord
100
AcDbLinetypeTableRecord
  2
AM_ISO02W050
 70
     0
  3
__ __ __ __ __ __ __ __ __ __ __ __ __ __ __
 72
    65
 73
     2
 40
7.5
 49
6.0
 74
     0
 49
-1.5
 74
     0
  0
LTYPE
  5
44
330
5
100
AcDbSymbolTableRecord
100
AcDbLinetypeTableRecord
  2
AM_ISO08W050
 70
     0
  3
____ . ____ . ____ . ____ . ____ . ____ . ____
 72
    65
 73
     4
 40
18.0
 49
12.0
 74
     0
 49
-1.5
 74
     0
 49
3.0
 74
     0
 49
-1.5
 74
     0
  0
LTYPE
  5
45
330
5
100
AcDbSymbolTableRecord
100
AcDbLinetypeTableRecord
  2
AM_ISO09W050
 70
     0
  3
_____ . . _____ . . _____ . . ____ .. ____
 72
    65
 73
     6
 40
22.5
 49
12.0
 74
     0
 49
-1.5
 74
     0
 49
3.0
 74
     0
 49
-1.5
 74
     0
 49
3.0
 74
     0
 49
-1.5
 74
     0
  0
LTYPE
  5
46
330
5
100
AcDbSymbolTableRecord
100
AcDbLinetypeTableRecord
  2
AMCONSTR
 70
     0
  3
_______________________
 72
    65
 73
     2
 40
9999.0
 49
9999.0
 74
     0
 49
0.0
 74
     0
  0
LTYPE
  5
47
330
5
100
AcDbSymbolTableRecord
100
AcDbLinetypeTableRecord
  2
AM_ISO02W050X2
 70
     0
  3
 _ _ _ _ _ _ _ _ _ _ _ _
 72
    65
 73
     2
 40
3.75
 49
3.0
 74
     0
 49
-0.75
 74
     0
  0
LTYPE
  5
48
330
5
100
AcDbSymbolTableRecord
100
AcDbLinetypeTableRecord
  2
AM_ISO08W050X2
 70
     0
  3
__ . __ . __ . __ . __ . __
 72
    65
 73
     4
 40
9.0
 49
6.0
 74
     0
 49
-0.75
 74
     0
 49
1.5
 74
     0
 49
-0.75
 74
     0
  0
LTYPE
  5
4B
330
5
100
AcDbSymbolTableRecord
100
AcDbLinetypeTableRecord
  2
AMZIGZAG
 70
     0
  3
/\/-/\/-/\/-/\/-/\/-/\/
 72
    65
 73
     2
 40
11.00009999999999
 49
0.0001
 74
     4
 75
   135
340
4A
 46
0.04
 50
0.0
 44
0.0
 45
0.0
 49
-11.0
 74
     0
  0
LTYPE
  5
AA19
330
5
100
AcDbSymbolTableRecord
100
AcDbLinetypeTableRecord
  2
HIDDEN
 70
     0
  3
Hidden __ __ __ __ __ __ __ __ __ __ __ __ __ _
 72
    65
 73
     2
 40
9.524999999999998
 49
6.349999999999999
 74
     0
 49
-3.174999999999999
 74
     0
  0
LTYPE
  5
AA1A
330
5
100
AcDbSymbolTableRecord
100
AcDbLinetypeTableRecord
  2
PHANTOM2
 70
     0
  3
Phantom (.5x) ___ _ _ ___ _ _ ___ _ _ ___ _ _
 72
    65
 73
     6
 40
31.75
 49
15.875
 74
     0
 49
-3.174999999999999
 74
     0
 49
3.174999999999999
 74
     0
 49
-3.174999999999999
 74
     0
 49
3.174999999999999
 74
     0
 49
-3.174999999999999
 74
     0
  0
LTYPE
  5
AA1B
330
5
100
AcDbSymbolTableRecord
100
AcDbLinetypeTableRecord
  2
CENTER
 70
     0
  3
Center ____ _ ____ _ ____ _ ____ _ ____ _ ____
 72
    65
 73
     4
 40
50.8
 49
31.75
 74
     0
 49
-6.349999999999999
 74
     0
 49
6.349999999999999
 74
     0
 49
-6.349999999999999
 74
     0
  0
LTYPE
  5
AA5B
330
5
100
AcDbSymbolTableRecord
100
AcDbLinetypeTableRecord
  2
ACISOWELD
 70
     0
  3
_ _ _ _ _
 72
    65
 73
     2
 40
2.0
 49
2.0
 74
     0
 49
-1.0
 74
     0
  0
LTYPE
  5
AA5C
330
5
100
AcDbSymbolTableRecord
100
AcDbLinetypeTableRecord
  2
ACISOTGB
 70
     0
  3
__ . . __ . .
 72
    65
 73
     6
 40
9.0
 49
4.0
 74
     0
 49
-1.0
 74
     0
 49
1.0
 74
     0
 49
-1.0
 74
     0
 49
1.0
 74
     0
 49
-1.0
 74
     0
  0
LTYPE
  5
AA5D
330
5
100
AcDbSymbolTableRecord
100
AcDbLinetypeTableRecord
  2
ACISOTGL
 70
     0
  3
_ _ _ _ _
 72
    65
 73
     2
 40
3.0
 49
2.0
 74
     0
 49
-1.0
 74
     0
  0
ENDTAB
  0
TABLE
  2
LAYER
  5
2
330
0
100
AcDbSymbolTable
 70
    11
  0
LAYER
  5
10
330
2
100
AcDbSymbolTableRecord
100
AcDbLayerTableRecord
  2
0
 70
     0
 62
     7
  6
CONTINUOUS
370
    -3
390
F
  0
LAYER
  5
7D
330
2
100
AcDbSymbolTableRecord
100
AcDbLayerTableRecord
  2
AM_5
 70
     0
 62
     3
  6
CONTINUOUS
370
    -3
390
F
  0
LAYER
  5
7F
330
2
100
AcDbSymbolTableRecord
100
AcDbLayerTableRecord
  2
DEFPOINTS
 70
     0
 62
     7
  6
CONTINUOUS
290
     0
370
    -3
390
F
  0
LAYER
  5
12B1
330
2
100
AcDbSymbolTableRecord
100
AcDbLayerTableRecord
  2
AM_0
 70
     0
 62
     7
  6
CONTINUOUS
370
    -3
390
F
  0
LAYER
  5
2222
330
2
100
AcDbSymbolTableRecord
100
AcDbLayerTableRecord
  2
AM_6
 70
     0
 62
     2
  6
CONTINUOUS
370
    -3
390
F
  0
LAYER
  5
4379
330
2
100
AcDbSymbolTableRecord
100
AcDbLayerTableRecord
  2
AM_1
 70
     0
 62
     3
  6
CONTINUOUS
370
    -3
390
F
  0
LAYER
  5
7DB2
330
2
100
AcDbSymbolTableRecord
100
AcDbLayerTableRecord
  2
AM_7
 70
     0
 62
     4
  6
AM_ISO08W050
370
    -3
390
F
  0
LAYER
  5
8B83
330
2
100
AcDbSymbolTableRecord
100
AcDbLayerTableRecord
  2
PV0001_1
 70
     0
 62
     7
  6
CONTINUOUS
370
    -3
390
F
  0
ENDTAB
  0
TABLE
  2
STYLE
  5
3
330
0
100
AcDbSymbolTable
 70
     6
  0
STYLE
  5
11
330
3
100
AcDbSymbolTableRecord
100
AcDbTextStyleTableRecord
  2
STANDARD
 70
     0
 40
0.0
 41
1.0
 50
0.0
 71
     0
 42
2.5
  3
ISOCP.SHX
  4
EXTFONT.SHX
  0
STYLE
  5
4A
330
3
100
AcDbSymbolTableRecord
100
AcDbTextStyleTableRecord
  2

 70
     1
 40
0.0
 41
1.0
 50
0.0
 71
     0
 42
2.5
  3
ltypeshp.shx
  4

  0
STYLE
  5
AA4D
330
3
100
AcDbSymbolTableRecord
100
AcDbTextStyleTableRecord
  2
ACISOTS
 70
     0
 40
1.0
 41
1.0
 50
0.0
 71
     0
 42
2.5
  3
isocp.shx
  4
extfont.shx
  0
STYLE
  5
AA5A
330
3
100
AcDbSymbolTableRecord
100
AcDbTextStyleTableRecord
  2
ACISOGDT
 70
     0
 40
0.0
 41
1.0
 50
0.0
 71
     0
 42
2.5
  3
amgdt.shx
  4

  0
ENDTAB
  0
TABLE
  2
VIEW
  5
6
330
0
100
AcDbSymbolTable
 70
     6
  0
VIEW
  5
A30
330
6
100
AcDbSymbolTableRecord
100
AcDbViewTableRecord
  2
AM_VIEW1
 70
     0
 40
148.5
 10
112.0719649561952
 20
222.75
 41
224.1439299123904
 11
0.0
 21
0.0
 31
1.0
 12
0.0
 22
0.0
 32
0.0
 42
50.0
 43
0.0
 44
0.0
 50
0.0
 71
     0
281
     0
 72
     0
  0
VIEW
  5
A31
330
6
100
AcDbSymbolTableRecord
100
AcDbViewTableRecord
  2
AM_VIEW2
 70
     0
 40
148.5
 10
307.9280350438047
 20
222.75
 41
224.1439299123904
 11
0.0
 21
0.0
 31
1.0
 12
0.0
 22
0.0
 32
0.0
 42
50.0
 43
0.0
 44
0.0
 50
0.0
 71
     0
281
     0
 72
     0
  0
VIEW
  5
A32
330
6
100
AcDbSymbolTableRecord
100
AcDbViewTableRecord
  2
AM_VIEW3
 70
     0
 40
148.5
 10
112.0719649561952
 20
74.25
 41
224.1439299123904
 11
0.0
 21
0.0
 31
1.0
 12
0.0
 22
0.0
 32
0.0
 42
50.0
 43
0.0
 44
0.0
 50
0.0
 71
     0
281
     0
 72
     0
  0
VIEW
  5
A33
330
6
100
AcDbSymbolTableRecord
100
AcDbViewTableRecord
  2
AM_VIEW4
 70
     0
 40
148.5
 10
307.9280350438047
 20
74.25
 41
224.1439299123904
 11
0.0
 21
0.0
 31
1.0
 12
0.0
 22
0.0
 32
0.0
 42
50.0
 43
0.0
 44
0.0
 50
0.0
 71
     0
281
     0
 72
     0
  0
VIEW
  5
A34
330
6
100
AcDbSymbolTableRecord
100
AcDbViewTableRecord
  2
AM_VIEW5
 70
     0
 40
148.5
 10
210.0
 20
148.5
 41
224.1439299123904
 11
0.0
 21
0.0
 31
1.0
 12
0.0
 22
0.0
 32
0.0
 42
50.0
 43
0.0
 44
0.0
 50
0.0
 71
     0
281
     0
 72
     0
  0
VIEW
  5
A35
330
6
100
AcDbSymbolTableRecord
100
AcDbViewTableRecord
  2
AM_VIEW6
 70
     0
 40
296.9970299999999
 10
210.0
 20
148.5
 41
448.2833769461826
 11
0.0
 21
0.0
 31
1.0
 12
0.0
 22
0.0
 32
0.0
 42
50.0
 43
0.0
 44
0.0
 50
0.0
 71
     0
281
     0
 72
     0
  0
ENDTAB
  0
TABLE
  2
UCS
  5
7
330
0
100
AcDbSymbolTable
 70
     0
  0
ENDTAB
  0
TABLE
  2
APPID
  5
9
330
0
100
AcDbSymbolTable
 70
    42
  0
APPID
  5
12
330
9
100
AcDbSymbolTableRecord
100
AcDbRegAppTableRecord
  2
ACAD
 70
     0
  0
APPID
  5
2C
330
9
100
AcDbSymbolTableRecord
100
AcDbRegAppTableRecord
  2
MCAD_NO_VIS
 70
     0
  0
APPID
  5
2D
330
9
100
AcDbSymbolTableRecord
100
AcDbRegAppTableRecord
  2
ACAD_TEMP_GRAPHIC
 70
     0
  0
APPID
  5
B9
330
9
100
AcDbSymbolTableRecord
100
AcDbRegAppTableRecord
  2
GENIUS_GENDTOL_13
 70
     0
  0
APPID
  5
359
330
9
100
AcDbSymbolTableRecord
100
AcDbRegAppTableRecord
  2
GENIUS_GENREC_14
 70
     0
  0
APPID
  5
35A
330
9
100
AcDbSymbolTableRecord
100
AcDbRegAppTableRecord
  2
GENIUS_GENODEF_13
 70
     0
  0
APPID
  5
35B
330
9
100
AcDbSymbolTableRecord
100
AcDbRegAppTableRecord
  2
GENIUS_GENOBJ-N-REC_13
 70
     0
  0
APPID
  5
667
330
9
100
AcDbSymbolTableRecord
100
AcDbRegAppTableRecord
  2
GENIUS_GENCFG_13
 70
     0
  0
APPID
  5
668
330
9
100
AcDbSymbolTableRecord
100
AcDbRegAppTableRecord
  2
GENIUS_GENCFG0_13
 70
     0
  0
APPID
  5
669
330
9
100
AcDbSymbolTableRecord
100
AcDbRegAppTableRecord
  2
GENIUS_GENCFG1_13
 70
     0
  0
APPID
  5
66A
330
9
100
AcDbSymbolTableRecord
100
AcDbRegAppTableRecord
  2
GENIUS_GENCFG2_13
 70
     0
  0
APPID
  5
66B
330
9
100
AcDbSymbolTableRecord
100
AcDbRegAppTableRecord
  2
GENIUS_GENCFG3_13
 70
     0
  0
APPID
  5
66C
330
9
100
AcDbSymbolTableRecord
100
AcDbRegAppTableRecord
  2
GENIUS_GENCFG4_13
 70
     0
  0
APPID
  5
A76
330
9
100
AcDbSymbolTableRecord
100
AcDbRegAppTableRecord
  2
GENIUS_GENBLLY_14
 70
     0
  0
APPID
  5
A77
330
9
100
AcDbSymbolTableRecord
100
AcDbRegAppTableRecord
  2
GENIUS_GENOBJ-N-CEN_13
 70
     0
  0
APPID
  5
A83
330
9
100
AcDbSymbolTableRecord
100
AcDbRegAppTableRecord
  2
GENIUS_GENTRA_14
 70
     0
  0
APPID
  5
A8D
330
9
100
AcDbSymbolTableRecord
100
AcDbRegAppTableRecord
  2
GENIUS_GENOBJ-N-TIT_13
 70
     0
  0
APPID
  5
A8E
330
9
100
AcDbSymbolTableRecord
100
AcDbRegAppTableRecord
  2
GENIUS_GENTITLE_13
 70
     0
  0
APPID
  5
A8F
330
9
100
AcDbSymbolTableRecord
100
AcDbRegAppTableRecord
  2
GENIUS_GENOENT_13
 70
     0
  0
APPID
  5
A90
330
9
100
AcDbSymbolTableRecord
100
AcDbRegAppTableRecord
  2
GENIUS_GENOREF_13
 70
     0
  0
APPID
  5
A91
330
9
100
AcDbSymbolTableRecord
100
AcDbRegAppTableRecord
  2
GENIUS_GENOLIS_13
 70
     0
  0
APPID
  5
A92
330
9
100
AcDbSymbolTableRecord
100
AcDbRegAppTableRecord
  2
GENIUS_GENZVEED_13
 70
     0
  0
APPID
  5
A93
330
9
100
AcDbSymbolTableRecord
100
AcDbRegAppTableRecord
  2
GENIUS_GENSCREG_15
 70
     0
  0
APPID
  5
A94
330
9
100
AcDbSymbolTableRecord
100
AcDbRegAppTableRecord
  2
GENIUS_GENOBJ-N-SDF_13
 70
     0
  0
APPID
  5
12B5
330
9
100
AcDbSymbolTableRecord
100
AcDbRegAppTableRecord
  2
GENIUS_GENOBJ-N-RSBK_13
 70
     0
  0
APPID
  5
12B6
330
9
100
AcDbSymbolTableRecord
100
AcDbRegAppTableRecord
  2
GENIUS_GENOBJ-N-LIB_13
 70
     0
  0
APPID
  5
12B7
330
9
100
AcDbSymbolTableRecord
100
AcDbRegAppTableRecord
  2
GENIUS_GENSCALE_13
 70
     0
  0
APPID
  5
12B8
330
9
100
AcDbSymbolTableRecord
100
AcDbRegAppTableRecord
  2
GENIUS_GENOBJ-N-HTC_13
 70
     0
  0
APPID
  5
12B9
330
9
100
AcDbSymbolTableRecord
100
AcDbRegAppTableRecord
  2
GENIUS_GENHATCH_13
 70
     0
  0
APPID
  5
1C0A
330
9
100
AcDbSymbolTableRecord
100
AcDbRegAppTableRecord
  2
BASE_TYPE
 70
     0
  0
APPID
  5
276B
330
9
100
AcDbSymbolTableRecord
100
AcDbRegAppTableRecord
  2
GENIUS_GENOBJ-N-FIL_13
 70
     0
  0
APPID
  5
3640
330
9
100
AcDbSymbolTableRecord
100
AcDbRegAppTableRecord
  2
GENIUS_GENBH_13
 70
     0
  0
APPID
  5
36D1
330
9
100
AcDbSymbolTableRecord
100
AcDbRegAppTableRecord
  2
GENIUS_GENOBJ-F-SPR_13
 70
     0
  0
APPID
  5
36DA
330
9
100
AcDbSymbolTableRecord
100
AcDbRegAppTableRecord
  2
GENIUS_GEFSPRING_13
 70
     0
  0
APPID
  5
36DB
330
9
100
AcDbSymbolTableRecord
100
AcDbRegAppTableRecord
  2
GENIUS_GEFSPRINGP_13
 70
     0
  0
APPID
  5
4D67
330
9
100
AcDbSymbolTableRecord
100
AcDbRegAppTableRecord
  2
GENIUS_GENFIL_13
 70
     0
  0
APPID
  5
4D68
330
9
100
AcDbSymbolTableRecord
100
AcDbRegAppTableRecord
  2
GENIUS_GENOBJ-N-CHA_13
 70
     0
  0
APPID
  5
AA1D
330
9
100
AcDbSymbolTableRecord
100
AcDbRegAppTableRecord
  2
AD_DRAW
 70
     0
  0
APPID
  5
AA20
330
9
100
AcDbSymbolTableRecord
100
AcDbRegAppTableRecord
  2
ACATTRIBSERVICES
 70
     0
  0
APPID
  5
AA3E
330
9
100
AcDbSymbolTableRecord
100
AcDbRegAppTableRecord
  2
DESIGNERASSEMBLIES
 70
     0
  0
APPID
  5
AA43
330
9
100
AcDbSymbolTableRecord
100
AcDbRegAppTableRecord
  2
ACADM_DIM_EDIT
 70
     0
  0
APPID
  5
AA44
330
9
100
AcDbSymbolTableRecord
100
AcDbRegAppTableRecord
  2
AMDT_DM_ADJ
 70
     0
  0
ENDTAB
  0
TABLE
  2
DIMSTYLE
  5
A
330
0
100
AcDbSymbolTable
 70
    19
100
AcDbDimStyleTable
 71
     0
  0
DIMSTYLE
105
58
330
A
100
AcDbSymbolTableRecord
100
AcDbDimStyleTableRecord
  2
AM_JIS
 70
     0
  4
"
 41
2.5
 42
0.0
 43
10.0
 44
1.0
 47
0.1
 48
0.1000000001
 73
     0
 74
     0
 77
     3
 78
     9
140
3.799999999999998
141
0.0
143
0.0393701
146
0.71
147
1.5
172
     1
176
   256
177
   256
178
     2
271
     2
272
     2
275
     1
283
     0
284
     8
340
11
341
59
342
59
  0
DIMSTYLE
105
65F
330
A
100
AcDbSymbolTableRecord
100
AcDbDimStyleTableRecord
  2
STANDARD
 70
     0
340
11
  0
DIMSTYLE
105
1761
102
{ACAD_REACTORS
330
A721
330
A720
330
A71F
330
A774
330
A7B7
330
A854
102
}
330
A
100
AcDbSymbolTableRecord
100
AcDbDimStyleTableRecord
  2
AM_JIS$0
 70
     0
  4
"
 41
2.5
 42
0.0
 43
10.0
 44
1.0
 47
0.1
 48
0.1000000001
 73
     0
 74
     0
 77
     3
 78
     9
140
3.799999999999998
141
0.0
143
0.0393701
146
0.71
147
1.5
172
     1
176
     3
177
     3
178
     2
271
     2
272
     2
275
     1
283
     0
284
     8
340
11
341
59
342
59
  0
DIMSTYLE
105
1762
102
{ACAD_REACTORS
330
A87C
330
A892
330
A8A5
102
}
330
A
100
AcDbSymbolTableRecord
100
AcDbDimStyleTableRecord
  2
AM_JIS$2
 70
     0
  4
"
 41
2.5
 42
0.0
 43
10.0
 44
1.0
 47
0.1
 48
0.1000000001
 73
     0
 74
     0
 77
     3
 78
     9
140
3.799999999999998
141
0.0
143
0.0393701
146
0.71
147
1.5
172
     1
176
     3
177
     3
178
     2
271
     2
272
     2
275
     1
283
     0
284
     8
340
11
341
59
342
59
  0
DIMSTYLE
105
AA66
330
A
100
AcDbSymbolTableRecord
100
AcDbDimStyleTableRecord
  2
AM_ISO
 70
     0
  4
"
 41
2.5
 42
1.0
 43
10.0
 44
1.0
 47
0.1
 48
0.1
 73
     0
 74
     0
 77
     1
 78
     8
 79
     2
140
3.5
141
0.0
143
0.0393701
146
0.71
147
1.5
172
     1
176
   256
177
   256
178
     2
271
     2
272
     3
274
     4
283
     0
284
     8
340
11
371
    -1
372
    -1
  0
DIMSTYLE
105
AA67
330
A
100
AcDbSymbolTableRecord
100
AcDbDimStyleTableRecord
  2
AM_ISO$3
 70
     0
  4
"
 41
2.5
 42
1.0
 43
10.0
 44
1.0
 47
0.1
 48
0.1
 73
     0
 77
     1
 78
     8
 79
     2
140
3.5
141
0.0
143
0.0393701
146
0.71
147
1.5
176
   256
177
   256
178
     2
271
     2
272
     3
274
     4
283
     0
284
     8
288
     1
289
     0
340
11
371
    -1
372
    -1
  0
DIMSTYLE
105
AA68
330
A
100
AcDbSymbolTableRecord
100
AcDbDimStyleTableRecord
  2
AM_ISO$4
 70
     0
  4
"
 41
2.5
 42
1.0
 43
10.0
 44
1.0
 47
0.1
 48
0.1
 73
     0
 77
     1
 78
     8
 79
     2
140
3.5
141
0.0
143
0.0393701
146
0.71
147
1.5
176
   256
177
   256
178
     2
271
     2
272
     3
274
     4
283
     0
284
     8
288
     1
289
     0
340
11
371
    -1
372
    -1
  0
DIMSTYLE
105
AA69
330
A
100
AcDbSymbolTableRecord
100
AcDbDimStyleTableRecord
  2
AM_ISO$6
 70
     0
  4
"
 41
2.5
 42
1.0
 43
10.0
 44
1.0
 47
0.1
 48
0.1
 73
     0
 74
     0
 78
     8
 79
     2
140
3.5
141
0.0
143
0.0393701
146
0.71
147
1.5
172
     1
176
   256
177
   256
178
     2
271
     2
272
     3
274
     4
283
     0
284
     8
340
11
371
    -1
372
    -1
  0
DIMSTYLE
105
AA6A
330
A
100
AcDbSymbolTableRecord
100
AcDbDimStyleTableRecord
  2
AM_ISO$7
 70
     0
  4
"
 41
2.5
 42
1.0
 43
10.0
 44
1.0
 47
0.1
 48
0.1
 73
     0
 74
     0
 77
     1
 78
     8
 79
     2
140
5.0
141
0.0
143
0.0393701
146
0.71
147
1.5
172
     1
176
   256
177
   256
178
     2
271
     2
272
     3
274
     4
283
     0
284
     8
340
11
371
    -1
372
    -1
  0
DIMSTYLE
105
AA6B
330
A
100
AcDbSymbolTableRecord
100
AcDbDimStyleTableRecord
  2
AM_ISO$SF
 70
     0
  4
"
 41
2.5
 42
1.0
 43
10.0
 44
1.0
 47
0.1
 48
0.1
 73
     0
 74
     0
 75
     1
 76
     1
 77
     1
 78
     8
 79
     2
140
3.5
141
0.0
143
0.0393701
146
0.71
147
1.5
172
     1
176
   256
177
   256
178
     2
271
     2
272
     3
274
     4
283
     0
284
     8
340
11
371
    -1
372
    -1
  0
DIMSTYLE
105
AA6C
330
A
100
AcDbSymbolTableRecord
100
AcDbDimStyleTableRecord
  2
AM_ISO$SH
 70
     0
  4
"
 41
2.5
 42
1.0
 43
10.0
 44
1.0
 47
0.1
 48
0.1
 73
     0
 74
     0
 75
     1
 76
     1
 77
     1
 78
     8
 79
     2
140
3.5
141
0.0
143
0.0393701
144
2.0
146
0.71
147
1.5
172
     1
173
     1
176
   256
177
   256
178
     2
271
     2
272
     3
274
     4
283
     0
284
     8
340
11
343
64
371
    -1
372
    -1
  0
ENDTAB
  0
TABLE
  2
BLOCK_RECORD
  5
1
330
0
100
AcDbSymbolTable
 70
    16
  0
BLOCK_RECORD
  5
1F
102
{ACAD_XDICTIONARY
360
165
102
}
330
1
100
AcDbSymbolTableRecord
100
AcDbBlockTableRecord
  2
*MODEL_SPACE
340
A9E5
  0
BLOCK_RECORD
  5
1B
102
{ACAD_XDICTIONARY
360
A99B
102
}
330
1
100
AcDbSymbolTableRecord
100
AcDbBlockTableRecord
  2
*PAPER_SPACE
340
A9E6
  0
BLOCK_RECORD
  5
59
330
1
100
AcDbSymbolTableRecord
100
AcDbBlockTableRecord
  2
_OPEN30
340
0
102
{BLKREFS
331
AA73
331
AA74
331
AA7C
331
AA7D
331
AA85
331
AA86
331
AA8E
331
AA8F
331
AA99
331
AA9A
331
AAA2
331
AAA3
331
AAAF
331
AAB0
331
AABE
331
AABF
331
AACB
331
AACC
102
}
  0
BLOCK_RECORD
  5
64
330
1
100
AcDbSymbolTableRecord
100
AcDbBlockTableRecord
  2
GENAXEH
340
0
  0
BLOCK_RECORD
  5
A722
330
1
100
AcDbSymbolTableRecord
100
AcDbBlockTableRecord
  2
*D4
340
0
  0
BLOCK_RECORD
  5
A72E
330
1
100
AcDbSymbolTableRecord
100
AcDbBlockTableRecord
  2
*D5
340
0
  0
BLOCK_RECORD
  5
A73A
330
1
100
AcDbSymbolTableRecord
100
AcDbBlockTableRecord
  2
*D6
340
0
  0
BLOCK_RECORD
  5
A775
330
1
100
AcDbSymbolTableRecord
100
AcDbBlockTableRecord
  2
*D7
340
0
  0
BLOCK_RECORD
  5
A7B8
330
1
100
AcDbSymbolTableRecord
100
AcDbBlockTableRecord
  2
*D8
340
0
  0
BLOCK_RECORD
  5
A855
330
1
100
AcDbSymbolTableRecord
100
AcDbBlockTableRecord
  2
*D9
340
0
  0
BLOCK_RECORD
  5
A87D
330
1
100
AcDbSymbolTableRecord
100
AcDbBlockTableRecord
  2
*D10
340
0
  0
BLOCK_RECORD
  5
A893
330
1
100
AcDbSymbolTableRecord
100
AcDbBlockTableRecord
  2
*D11
340
0
  0
BLOCK_RECORD
  5
A8A6
330
1
100
AcDbSymbolTableRecord
100
AcDbBlockTableRecord
  2
*D12
340
0
  0
ENDTAB
  0
ENDSEC
  0
SECTION
  2
BLOCKS
  0
BLOCK
  5
20
330
1F
100
AcDbEntity
  8
0
100
AcDbBlockBegin
  2
*MODEL_SPACE
 70
     0
 10
0.0
 20
0.0
 30
0.0
  3
*MODEL_SPACE
  1

  0
ENDBLK
  5
21
330
1F
100
AcDbEntity
  8
0
100
AcDbBlockEnd
  0
BLOCK
  5
1C
330
1B
100
AcDbEntity
 67
     1
  8
0
100
AcDbBlockBegin
  2
*PAPER_SPACE
 70
     0
 10
0.0
 20
0.0
 30
0.0
  3
*PAPER_SPACE
  1

  0
ENDBLK
  5
1D
330
1B
100
AcDbEntity
 67
     1
  8
0
100
AcDbBlockEnd
  0
BLOCK
  5
5D
330
59
100
AcDbEntity
  8
0
100
AcDbBlockBegin
  2
_OPEN30
 70
     0
 10
0.0
 20
0.0
 30
0.0
  3
_OPEN30
  1

  0
LINE
  5
5A
330
59
100
AcDbEntity
  8
0
 62
     0
100
AcDbLine
 10
-1.0
 20
0.26794919
 30
0.0
 11
0.0
 21
0.0
 31
0.0
  0
LINE
  5
5B
330
59
100
AcDbEntity
  8
0
 62
     0
100
AcDbLine
 10
0.0
 20
0.0
 30
0.0
 11
-1.0
 21
-0.26794919
 31
0.0
  0
LINE
  5
5C
330
59
100
AcDbEntity
  8
0
 62
     0
100
AcDbLine
 10
0.0
 20
0.0
 30
0.0
 11
-1.0
 21
0.0
 31
0.0
  0
ENDBLK
  5
5E
330
59
100
AcDbEntity
  8
0
100
AcDbBlockEnd
  0
BLOCK
  5
66
330
64
100
AcDbEntity
  8
0
100
AcDbBlockBegin
  2
GENAXEH
 70
     0
 10
0.0
 20
0.0
 30
0.0
  3
GENAXEH
  1

  0
LINE
  5
65
330
64
100
AcDbEntity
  8
0
100
AcDbLine
 10
-1.0
 20
0.0
 30
0.0
 11
1.0
 21
0.0
 31
0.0
  0
ENDBLK
  5
67
330
64
100
AcDbEntity
  8
0
100
AcDbBlockEnd
  0
BLOCK
  5
A72C
330
A722
100
AcDbEntity
  8
0
100
AcDbBlockBegin
  2
*D4
 70
     1
 10
0.0
 20
0.0
 30
0.0
  3
*D4
  1

  0
LINE
  5
AA82
330
A722
100
AcDbEntity
  8
PV0001_1
 62
     3
370
    -2
100
AcDbLine
 10
0.0000000000000001
 20
0.2056233556102354
 30
0.0
 11
-0.0000000000000014
 21
-23.89579590121502
 31
0.0
  0
LINE
  5
AA83
330
A722
100
AcDbEntity
  8
PV0001_1
 62
     3
370
    -2
100
AcDbLine
 10
125.0000123202618
 20
7.165277402006962
 30
0.0
 11
125.0000123202618
 21
-23.89579590121502
 31
0.0
  0
LINE
  5
AA84
330
A722
100
AcDbEntity
  8
PV0001_1
 62
     3
370
    -2
100
AcDbLine
 10
2.499999999999998
 20
-22.89579590121502
 30
0.0
 11
122.5000123202618
 21
-22.89579590121502
 31
0.0
  0
INSERT
  5
AA85
330
A722
100
AcDbEntity
  8
PV0001_1
 62
     3
370
    -2
100
AcDbBlockReference
  2
_OPEN30
 10
-0.0000000000000014
 20
-22.89579590121502
 30
0.0
 41
2.5
 42
2.5
 43
2.5
 50
180.0
  0
INSERT
  5
AA86
330
A722
100
AcDbEntity
  8
PV0001_1
 62
     3
370
    -2
100
AcDbBlockReference
  2
_OPEN30
 10
125.0000123202618
 20
-22.89579590121502
 30
0.0
 41
2.5
 42
2.5
 43
2.5
  0
MTEXT
  5
AA87
330
A722
100
AcDbEntity
  8
PV0001_1
 62
     2
100
AcDbMText
 10
62.50001232026182
 20
-19.49542188546698
 30
0.0
 40
3.799999999999998
 41
0.0
 71
     5
 72
     1
  1
125
 73
     1
 44
1.0
1001
ACAD
1000
MTEXTBEGIN
1070
    73
1070
     1
1070
    44
1040
1.0
1070
    74
1070
     0
1000
MTEXTEND
  0
POINT
  5
AA88
330
A722
100
AcDbEntity
  8
DEFPOINTS
 62
     0
100
AcDbPoint
 10
0.0000000000000001
 20
0.2056233556102354
 30
0.0
  0
POINT
  5
AA89
330
A722
100
AcDbEntity
  8
DEFPOINTS
 62
     0
100
AcDbPoint
 10
125.0000123202618
 20
7.165277402006962
 30
0.0
  0
POINT
  5
AA8A
330
A722
100
AcDbEntity
  8
DEFPOINTS
 62
     0
100
AcDbPoint
 10
125.0000123202618
 20
-22.89579590121502
 30
0.0
  0
ENDBLK
  5
A72D
330
A722
100
AcDbEntity
  8
0
100
AcDbBlockEnd
  0
BLOCK
  5
A738
330
A72E
100
AcDbEntity
  8
0
100
AcDbBlockBegin
  2
*D5
 70
     1
 10
0.0
 20
0.0
 30
0.0
  3
*D5
  1

  0
LINE
  5
AA79
330
A72E
100
AcDbEntity
  8
AM_5
 62
     3
370
    -2
100
AcDbLine
 10
125.0000123202618
 20
6.995277402006961
 30
0.0
 11
143.0992575037038
 21
6.995277402006956
 31
0.0
  0
LINE
  5
AA7A
330
A72E
100
AcDbEntity
  8
AM_5
 62
     3
370
    -2
100
AcDbLine
 10
125.0000123202618
 20
27.00026885708495
 30
0.0
 11
143.0992575037038
 21
27.00026885708494
 31
0.0
  0
LINE
  5
AA7B
330
A72E
100
AcDbEntity
  8
AM_5
 62
     3
370
    -2
100
AcDbLine
 10
142.0992575037038
 20
9.495277402006955
 30
0.0
 11
142.0992575037038
 21
24.50026885708494
 31
0.0
  0
INSERT
  5
AA7C
330
A72E
100
AcDbEntity
  8
AM_5
 62
     3
370
    -2
100
AcDbBlockReference
  2
_OPEN30
 10
142.0992575037038
 20
6.995277402006956
 30
0.0
 41
2.5
 42
2.5
 43
2.5
 50
270.0
  0
INSERT
  5
AA7D
330
A72E
100
AcDbEntity
  8
AM_5
 62
     3
370
    -2
100
AcDbBlockReference
  2
_OPEN30
 10
142.0992575037038
 20
27.00026885708494
 30
0.0
 41
2.5
 42
2.5
 43
2.5
 50
90.0
  0
MTEXT
  5
AA7E
330
A72E
100
AcDbEntity
  8
AM_5
 62
     2
100
AcDbMText
 10
138.6988834879557
 20
16.99777312954597
 30
0.0
 40
3.799999999999998
 41
0.0
 71
     5
 72
     1
  1
20
 11
0.0000000000000001
 21
1.0
 31
0.0
 73
     1
 44
1.0
1001
ACAD
1000
MTEXTBEGIN
1070
    73
1070
     1
1070
    44
1040
1.0
1070
    74
1070
     0
1000
MTEXTEND
  0
POINT
  5
AA7F
330
A72E
100
AcDbEntity
  8
DEFPOINTS
 62
     0
100
AcDbPoint
 10
125.0000123202618
 20
6.995277402006961
 30
0.0
  0
POINT
  5
AA80
330
A72E
100
AcDbEntity
  8
DEFPOINTS
 62
     0
100
AcDbPoint
 10
125.0000123202618
 20
27.00026885708495
 30
0.0
  0
POINT
  5
AA81
330
A72E
100
AcDbEntity
  8
DEFPOINTS
 62
     0
100
AcDbPoint
 10
142.0992575037038
 20
27.00026885708494
 30
0.0
  0
ENDBLK
  5
A739
330
A72E
100
AcDbEntity
  8
0
100
AcDbBlockEnd
  0
BLOCK
  5
A744
330
A73A
100
AcDbEntity
  8
0
100
AcDbBlockBegin
  2
*D6
 70
     1
 10
0.0
 20
0.0
 30
0.0
  3
*D6
  1

  0
LINE
  5
AA70
330
A73A
100
AcDbEntity
  8
AM_5
 62
     3
370
    -2
100
AcDbLine
 10
125.0000123202618
 20
-82.25472641268956
 30
0.0
 11
146.3168562726675
 21
-82.25472641268956
 31
0.0
  0
LINE
  5
AA71
330
A73A
100
AcDbEntity
  8
AM_5
 62
     3
370
    -2
100
AcDbLine
 10
125.0000123202618
 20
-62.25472641269004
 30
0.0
 11
146.3168562726676
 21
-62.25472641269004
 31
0.0
  0
LINE
  5
AA72
330
A73A
100
AcDbEntity
  8
AM_5
 62
     3
370
    -2
100
AcDbLine
 10
145.3168562726675
 20
-79.75472641268956
 30
0.0
 11
145.3168562726675
 21
-64.75472641269004
 31
0.0
  0
INSERT
  5
AA73
330
A73A
100
AcDbEntity
  8
AM_5
 62
     3
370
    -2
100
AcDbBlockReference
  2
_OPEN30
 10
145.3168562726675
 20
-82.25472641268956
 30
0.0
 41
2.5
 42
2.5
 43
2.5
 50
270.0
  0
INSERT
  5
AA74
330
A73A
100
AcDbEntity
  8
AM_5
 62
     3
370
    -2
100
AcDbBlockReference
  2
_OPEN30
 10
145.3168562726676
 20
-62.25472641269004
 30
0.0
 41
2.5
 42
2.5
 43
2.5
 50
90.0
  0
MTEXT
  5
AA75
330
A73A
100
AcDbEntity
  8
AM_5
 62
     2
100
AcDbMText
 10
141.9164822569195
 20
-72.25472641268978
 30
0.0
 40
3.799999999999998
 41
0.0
 71
     5
 72
     1
  1
20
 11
0.0000000000000001
 21
1.0
 31
0.0
 73
     1
 44
1.0
1001
ACAD
1000
MTEXTBEGIN
1070
    73
1070
     1
1070
    44
1040
1.0
1070
    74
1070
     0
1000
MTEXTEND
  0
POINT
  5
AA76
330
A73A
100
AcDbEntity
  8
DEFPOINTS
 62
     0
100
AcDbPoint
 10
125.0000123202618
 20
-82.25472641268956
 30
0.0
  0
POINT
  5
AA77
330
A73A
100
AcDbEntity
  8
DEFPOINTS
 62
     0
100
AcDbPoint
 10
125.0000123202618
 20
-62.25472641269004
 30
0.0
  0
POINT
  5
AA78
330
A73A
100
AcDbEntity
  8
DEFPOINTS
 62
     0
100
AcDbPoint
 10
145.3168562726676
 20
-62.25472641269004
 30
0.0
  0
ENDBLK
  5
A745
330
A73A
100
AcDbEntity
  8
0
100
AcDbBlockEnd
  0
BLOCK
  5
A77F
330
A775
100
AcDbEntity
  8
0
100
AcDbBlockBegin
  2
*D7
 70
     1
 10
0.0
 20
0.0
 30
0.0
  3
*D7
  1

  0
LINE
  5
AA8B
330
A775
100
AcDbEntity
  8
PV0001_1
 62
     3
370
    -2
100
AcDbLine
 10
4.020470541698845
 20
26.99527740200699
 30
0.0
 11
-21.5358091260121
 21
26.99527740200699
 31
0.0
  0
LINE
  5
AA8C
330
A775
100
AcDbEntity
  8
PV0001_1
 62
     3
370
    -2
100
AcDbLine
 10
0.1641358454288593
 20
-0.0000000000000002
 30
0.0
 11
-21.53580912601211
 21
0.000000000000006
 31
0.0
  0
LINE
  5
AA8D
330
A775
100
AcDbEntity
  8
PV0001_1
 62
     3
370
    -2
100
AcDbLine
 10
-20.5358091260121
 20
24.49527740200699
 30
0.0
 11
-20.53580912601211
 21
2.500000000000005
 31
0.0
  0
INSERT
  5
AA8E
330
A775
100
AcDbEntity
  8
PV0001_1
 62
     3
370
    -2
100
AcDbBlockReference
  2
_OPEN30
 10
-20.5358091260121
 20
26.99527740200699
 30
0.0
 41
2.5
 42
2.5
 43
2.5
 50
90.0
  0
INSERT
  5
AA8F
330
A775
100
AcDbEntity
  8
PV0001_1
 62
     3
370
    -2
100
AcDbBlockReference
  2
_OPEN30
 10
-20.53580912601211
 20
0.0000000000000057
 30
0.0
 41
2.5
 42
2.5
 43
2.5
 50
270.0
  0
MTEXT
  5
AA90
330
A775
100
AcDbEntity
  8
PV0001_1
 62
     2
100
AcDbMText
 10
-23.93618314176014
 20
13.49763870100351
 30
0.0
 40
3.799999999999998
 41
0.0
 71
     5
 72
     1
  1
27
 11
0.0000000000000001
 21
1.0
 31
0.0
 73
     1
 44
1.0
1001
ACAD
1000
MTEXTBEGIN
1070
    73
1070
     1
1070
    44
1040
1.0
1070
    74
1070
     0
1000
MTEXTEND
  0
POINT
  5
AA91
330
A775
100
AcDbEntity
  8
DEFPOINTS
 62
     0
100
AcDbPoint
 10
4.020470541698845
 20
26.99527740200699
 30
0.0
  0
POINT
  5
AA92
330
A775
100
AcDbEntity
  8
DEFPOINTS
 62
     0
100
AcDbPoint
 10
0.1641358454288593
 20
-0.0000000000000002
 30
0.0
  0
POINT
  5
AA93
330
A775
100
AcDbEntity
  8
DEFPOINTS
 62
     0
100
AcDbPoint
 10
-20.53580912601211
 20
0.0000000000000057
 30
0.0
  0
ENDBLK
  5
A780
330
A775
100
AcDbEntity
  8
0
100
AcDbBlockEnd
  0
BLOCK
  5
A7C4
330
A7B8
100
AcDbEntity
  8
0
100
AcDbBlockBegin
  2
*D8
 70
     1
 10
0.0
 20
0.0
 30
0.0
  3
*D8
  1

  0
LINE
  5
AA94
330
A7B8
100
AcDbEntity
  8
AM_5
 62
     3
370
    -2
100
AcDbLine
 10
0.0000000000000001
 20
0.2056233556101146
 30
0.0
 11
-0.0000000000000004
 21
-7.826587561283758
 31
0.0
  0
LINE
  5
AA95
330
A7B8
100
AcDbEntity
  8
AM_5
 62
     3
370
    -2
100
AcDbLine
 10
2.000000373244801
 20
0.2023900796430663
 30
0.0
 11
2.000000373244801
 21
-7.826587561283758
 31
0.0
  0
LINE
  5
AA96
330
A7B8
100
AcDbEntity
  8
AM_5
 62
     3
370
    -2
100
AcDbLine
 10
-2.5
 20
-6.826587561283758
 30
0.0
 11
-5.0
 21
-6.826587561283758
 31
0.0
  0
LINE
  5
AA97
330
A7B8
100
AcDbEntity
  8
AM_5
 62
     3
370
    -2
100
AcDbLine
 10
4.500000373244801
 20
-6.826587561283758
 30
0.0
 11
11.84472084568574
 21
-6.826587561283758
 31
0.0
  0
LINE
  5
AA98
330
A7B8
100
AcDbEntity
  8
AM_5
 62
     3
370
    -2
100
AcDbLine
 10
-0.0000000000000004
 20
-6.826587561283758
 30
0.0
 11
2.000000373244801
 21
-6.826587561283758
 31
0.0
  0
INSERT
  5
AA99
330
A7B8
100
AcDbEntity
  8
AM_5
 62
     3
370
    -2
100
AcDbBlockReference
  2
_OPEN30
 10
-0.0000000000000004
 20
-6.826587561283758
 30
0.0
 41
2.5
 42
2.5
 43
2.5
  0
INSERT
  5
AA9A
330
A7B8
100
AcDbEntity
  8
AM_5
 62
     3
370
    -2
100
AcDbBlockReference
  2
_OPEN30
 10
2.000000373244801
 20
-6.826587561283758
 30
0.0
 41
2.5
 42
2.5
 43
2.5
 50
180.0
  0
MTEXT
  5
AA9B
330
A7B8
100
AcDbEntity
  8
AM_5
 62
     2
100
AcDbMText
 10
9.422360609465272
 20
-3.426213545535727
 30
0.0
 40
3.799999999999998
 41
0.0
 71
     5
 72
     1
  1
2
 73
     1
 44
1.0
1001
ACAD
1000
MTEXTBEGIN
1070
    73
1070
     1
1070
    44
1040
1.0
1070
    74
1070
     0
1000
MTEXTEND
  0
POINT
  5
AA9C
330
A7B8
100
AcDbEntity
  8
DEFPOINTS
 62
     0
100
AcDbPoint
 10
0.0000000000000001
 20
0.2056233556101146
 30
0.0
  0
POINT
  5
AA9D
330
A7B8
100
AcDbEntity
  8
DEFPOINTS
 62
     0
100
AcDbPoint
 10
2.000000373244801
 20
0.2023900796430663
 30
0.0
  0
POINT
  5
AA9E
330
A7B8
100
AcDbEntity
  8
DEFPOINTS
 62
     0
100
AcDbPoint
 10
2.000000373244801
 20
-6.826587561283758
 30
0.0
  0
ENDBLK
  5
A7C5
330
A7B8
100
AcDbEntity
  8
0
100
AcDbBlockEnd
  0
BLOCK
  5
A85F
330
A855
100
AcDbEntity
  8
0
100
AcDbBlockBegin
  2
*D9
 70
     1
 10
0.0
 20
0.0
 30
0.0
  3
*D9
  1

  0
LINE
  5
AA9F
330
A855
100
AcDbEntity
  8
AM_5
 62
     3
370
    -2
100
AcDbLine
 10
0.1329553794660038
 20
-62.25846087171611
 30
0.0
 11
-22.18251675248968
 21
-62.25846087171611
 31
0.0
  0
LINE
  5
AAA0
330
A855
100
AcDbEntity
  8
AM_5
 62
     3
370
    -2
100
AcDbLine
 10
0.842305105907816
 20
-82.25472450534089
 30
0.0
 11
-22.18251675248968
 21
-82.25472450534089
 31
0.0
  0
LINE
  5
AAA1
330
A855
100
AcDbEntity
  8
AM_5
 62
     3
370
    -2
100
AcDbLine
 10
-21.18251675248968
 20
-64.75846087171612
 30
0.0
 11
-21.18251675248968
 21
-79.75472450534089
 31
0.0
  0
INSERT
  5
AAA2
330
A855
100
AcDbEntity
  8
AM_5
 62
     3
370
    -2
100
AcDbBlockReference
  2
_OPEN30
 10
-21.18251675248968
 20
-62.25846087171611
 30
0.0
 41
2.5
 42
2.5
 43
2.5
 50
90.0
  0
INSERT
  5
AAA3
330
A855
100
AcDbEntity
  8
AM_5
 62
     3
370
    -2
100
AcDbBlockReference
  2
_OPEN30
 10
-21.18251675248968
 20
-82.25472450534089
 30
0.0
 41
2.5
 42
2.5
 43
2.5
 50
270.0
  0
MTEXT
  5
AAA4
330
A855
100
AcDbEntity
  8
AM_5
 62
     2
100
AcDbMText
 10
-24.5828907682377
 20
-72.25659268852851
 30
0.0
 40
3.799999999999998
 41
0.0
 71
     5
 72
     1
  1
20
 11
0.0000000000000001
 21
1.0
 31
0.0
 73
     1
 44
1.0
1001
ACAD
1000
MTEXTBEGIN
1070
    73
1070
     1
1070
    44
1040
1.0
1070
    74
1070
     0
1000
MTEXTEND
  0
POINT
  5
AAA5
330
A855
100
AcDbEntity
  8
DEFPOINTS
 62
     0
100
AcDbPoint
 10
0.1329553794660038
 20
-62.25846087171611
 30
0.0
  0
POINT
  5
AAA6
330
A855
100
AcDbEntity
  8
DEFPOINTS
 62
     0
100
AcDbPoint
 10
0.842305105907816
 20
-82.25472450534089
 30
0.0
  0
POINT
  5
AAA7
330
A855
100
AcDbEntity
  8
DEFPOINTS
 62
     0
100
AcDbPoint
 10
-21.18251675248968
 20
-82.25472450534089
 30
0.0
  0
ENDBLK
  5
A860
330
A855
100
AcDbEntity
  8
0
100
AcDbBlockEnd
  0
BLOCK
  5
A88D
330
A87D
100
AcDbEntity
  8
0
100
AcDbBlockBegin
  2
*D10
 70
     1
 10
0.0
 20
0.0
 30
0.0
  3
*D10
  1

  0
LINE
  5
AAA8
330
A87D
100
AcDbEntity
  8
AM_5
 62
     3
370
    -2
100
AcDbLine
 10
0.6002587497068268
 20
17.57314300259298
 30
0.0
 11
1.468629880919872
 21
42.43788263118978
 31
0.0
  0
LINE
  5
AAA9
330
A87D
100
AcDbEntity
  8
AM_5
 62
     3
370
    -2
100
AcDbLine
 10
0.0000003486456961
 20
0.3854817414298497
 30
0.0
 11
0.0000384057709033
 21
42.4635198764796
 31
0.0
  0
ARC
  5
AAAA
330
A87D
100
AcDbEntity
  8
AM_5
 62
     3
370
    -2
100
AcDbCircle
 10
0.0000003486456961
 20
0.3854817414298497
 30
0.0
 40
41.07803813506696
100
AcDbArc
 50
81.02149828121012
 51
87.99982672030729
  0
LINE
  5
AAAB
330
A87D
100
AcDbEntity
  8
AM_5
 62
     3
370
    -2
100
AcDbLine
 10
6.410797449847074
 20
40.96018935039782
 30
0.0
 11
16.03786938223984
 21
39.43911357501504
 31
0.0
  0
ARC
  5
AAAC
330
A87D
100
AcDbEntity
  8
AM_5
 62
     3
370
    -2
100
AcDbCircle
 10
0.0000003486456961
 20
0.3854817414298497
 30
0.0
 40
41.07803813506696
100
AcDbArc
 50
81.02473391655754
 51
84.51228031843241
  0
ARC
  5
AAAD
330
A87D
100
AcDbEntity
  8
AM_5
 62
     3
370
    -2
100
AcDbCircle
 10
0.0000003486456961
 20
0.3854817414298497
 30
0.0
 40
41.07803813506696
100
AcDbArc
 50
93.4874945811924
 51
96.97504098306726
  0
ARC
  5
AAAE
330
A87D
100
AcDbEntity
  8
AM_5
 62
     3
370
    -2
100
AcDbCircle
 10
0.0000003486456961
 20
0.3854817414298497
 30
0.0
 40
41.07803813506696
100
AcDbArc
 50
87.99982672030729
 51
89.99994817931749
  0
INSERT
  5
AAAF
330
A87D
100
AcDbEntity
  8
AM_5
 62
     3
370
    -2
100
AcDbBlockReference
  2
_OPEN30
 10
1.433727361758689
 20
41.43849190972185
 30
0.0
 41
2.5
 42
2.5
 43
2.5
 50
176.2560535193698
  0
INSERT
  5
AAB0
330
A87D
100
AcDbEntity
  8
AM_5
 62
     3
370
    -2
100
AcDbBlockReference
  2
_OPEN30
 10
0.0000375013293727
 20
41.46351987648001
 30
0.0
 41
2.5
 42
2.5
 43
2.5
 50
1.743721380254929
  0
MTEXT
  5
AAB1
330
A87D
100
AcDbEntity
  8
AM_5
 62
     2
100
AcDbMText
 10
11.75500890282015
 20
43.5583605859722
 30
0.0
 40
3.799999999999998
 41
0.0
 71
     5
 72
     1
  1
2°
 11
0.9877469677484594
 21
-0.1560638577753469
 31
0.0
 73
     1
 44
1.0
1001
ACAD
1000
MTEXTBEGIN
1070
    73
1070
     1
1070
    44
1040
1.0
1070
    74
1070
     0
1000
MTEXTEND
  0
POINT
  5
AAB2
330
A87D
100
AcDbEntity
  8
DEFPOINTS
 62
     0
100
AcDbPoint
 10
0.4780204157086713
 20
41.46073845202754
 30
0.0
  0
POINT
  5
AAB3
330
A87D
100
AcDbEntity
  8
DEFPOINTS
 62
     0
100
AcDbPoint
 10
0.0
 20
-0.0000000000000002
 30
0.0
  0
POINT
  5
AAB4
330
A87D
100
AcDbEntity
  8
DEFPOINTS
 62
     0
100
AcDbPoint
 10
0.6002587497068268
 20
17.57314300259298
 30
0.0
  0
POINT
  5
AAB5
330
A87D
100
AcDbEntity
  8
DEFPOINTS
 62
     0
100
AcDbPoint
 10
0.133938711864801
 20
4.220642087065996
 30
0.0
  0
POINT
  5
AAB6
330
A87D
100
AcDbEntity
  8
DEFPOINTS
 62
     0
100
AcDbPoint
 10
-0.0000563442872097
 20
-62.29732418338101
 30
0.0
  0
ENDBLK
  5
A88E
330
A87D
100
AcDbEntity
  8
0
100
AcDbBlockEnd
  0
BLOCK
  5
A8A3
330
A893
100
AcDbEntity
  8
0
100
AcDbBlockBegin
  2
*D11
 70
     1
 10
0.0
 20
0.0
 30
0.0
  3
*D11
  1

  0
LINE
  5
AAB7
330
A893
100
AcDbEntity
  8
AM_5
 62
     3
370
    -2
100
AcDbLine
 10
-55.55385883451315
 20
17.57312774380401
 30
0.0
 11
-53.61514017460486
 21
39.42685947558771
 31
0.0
  0
LINE
  5
AAB8
330
A893
100
AcDbEntity
  8
AM_5
 62
     3
370
    -2
100
AcDbLine
 10
-57.2442503750431
 20
31.91743566600167
 30
0.0
 11
-57.24285156014564
 21
39.58778884205499
 31
0.0
  0
ARC
  5
AAB9
330
A893
100
AcDbEntity
  8
AM_5
 62
     3
370
    -2
100
AcDbCircle
 10
-57.25035374744035
 20
-1.550196066985741
 30
0.0
 40
40.13798559311426
100
AcDbArc
 50
77.78839468266882
 51
84.93036872512131
  0
LINE
  5
AABA
330
A893
100
AcDbEntity
  8
AM_5
 62
     3
370
    -2
100
AcDbLine
 10
-48.76025590538445
 20
37.67959014330817
 30
0.0
 11
-39.32860577807264
 21
35.63839542550712
 31
0.0
  0
ARC
  5
AABB
330
A893
100
AcDbEntity
  8
AM_5
 62
     3
370
    -2
100
AcDbCircle
 10
-57.25035374744035
 20
-1.550196066985741
 30
0.0
 40
40.13798559311426
100
AcDbArc
 50
77.79186336817687
 51
81.36111604664909
  0
ARC
  5
AABC
330
A893
100
AcDbEntity
  8
AM_5
 62
     3
370
    -2
100
AcDbCircle
 10
-57.25035374744035
 20
-1.550196066985741
 30
0.0
 40
40.13798559311426
100
AcDbArc
 50
93.55880385203382
 51
97.12805653050608
  0
ARC
  5
AABD
330
A893
100
AcDbEntity
  8
AM_5
 62
     3
370
    -2
100
AcDbCircle
 10
-57.25035374744035
 20
-1.550196066985741
 30
0.0
 40
40.13798559311426
100
AcDbArc
 50
84.93036872512131
 51
89.98955117356164
  0
INSERT
  5
AABE
330
A893
100
AcDbEntity
  8
AM_5
 62
     3
370
    -2
100
AcDbBlockReference
  2
_OPEN30
 10
-53.7035065231371
 20
38.43077143306985
 30
0.0
 41
2.5
 42
2.5
 43
2.5
 50
173.1457423858852
  0
INSERT
  5
AABF
330
A893
100
AcDbEntity
  8
AM_5
 62
     3
370
    -2
100
AcDbBlockReference
  2
_OPEN30
 10
-57.24303392656894
 20
38.58778885868375
 30
0.0
 41
2.5
 42
2.5
 43
2.5
 50
1.774177512797746
  0
MTEXT
  5
AAC0
330
A893
100
AcDbEntity
  8
AM_5
 62
     2
100
AcDbMText
 10
-43.32525342820279
 20
39.982061223046
 30
0.0
 40
3.799999999999998
 41
0.0
 71
     5
 72
     1
  1
5°
 11
0.9773730701877532
 21
-0.2115227686840475
 31
0.0
 73
     1
 44
1.0
1001
ACAD
1000
MTEXTBEGIN
1070
    73
1070
     1
1070
    44
1040
1.0
1070
    74
1070
     0
1000
MTEXTEND
  0
POINT
  5
AAC1
330
A893
100
AcDbEntity
  8
DEFPOINTS
 62
     0
100
AcDbPoint
 10
-56.06182111979574
 20
38.57018874754555
 30
0.0
  0
POINT
  5
AAC2
330
A893
100
AcDbEntity
  8
DEFPOINTS
 62
     0
100
AcDbPoint
 10
-57.25007159191321
 20
-0.0030059794059985
 30
0.0
  0
POINT
  5
AAC3
330
A893
100
AcDbEntity
  8
DEFPOINTS
 62
     0
100
AcDbPoint
 10
-55.55385883451315
 20
17.57312774380401
 30
0.0
  0
POINT
  5
AAC4
330
A893
100
AcDbEntity
  8
DEFPOINTS
 62
     0
100
AcDbPoint
 10
-56.73836048246318
 20
4.221122738921009
 30
0.0
  0
POINT
  5
AAC5
330
A893
100
AcDbEntity
  8
DEFPOINTS
 62
     0
100
AcDbPoint
 10
-57.2442503750431
 20
31.91743566600167
 30
0.0
  0
ENDBLK
  5
A8A4
330
A893
100
AcDbEntity
  8
0
100
AcDbBlockEnd
  0
BLOCK
  5
A8B6
330
A8A6
100
AcDbEntity
  8
0
100
AcDbBlockBegin
  2
*D12
 70
     1
 10
0.0
 20
0.0
 30
0.0
  3
*D12
  1

  0
LINE
  5
AAC6
330
A8A6
100
AcDbEntity
  8
AM_5
 62
     3
370
    -2
100
AcDbLine
 10
-57.25007664806589
 20
-0.0307312179557691
 30
0.0
 11
-57.25293951176912
 21
-15.72914545275703
 31
0.0
  0
LINE
  5
AAC7
330
A8A6
100
AcDbEntity
  8
AM_5
 62
     3
370
    -2
100
AcDbLine
 10
-57.25007664806589
 20
-0.0307312179557691
 30
0.0
 11
-54.40644127703397
 21
-15.46944734203861
 31
0.0
  0
ARC
  5
AAC8
330
A8A6
100
AcDbEntity
  8
AM_5
 62
     3
370
    -2
100
AcDbCircle
 10
-57.25007664806589
 20
-0.0307312179557691
 30
0.0
 40
14.69841449584637
100
AcDbArc
 50
250.4755181917108
 51
260.2325346826362
  0
ARC
  5
AAC9
330
A8A6
100
AcDbEntity
  8
AM_5
 62
     3
370
    -2
100
AcDbCircle
 10
-57.25007664806589
 20
-0.0307312179557691
 30
0.0
 40
14.69841449584637
100
AcDbArc
 50
290.1932762888904
 51
299.9502927798157
  0
ARC
  5
AACA
330
A8A6
100
AcDbEntity
  8
AM_5
 62
     3
370
    -2
100
AcDbCircle
 10
-57.25007664806589
 20
-0.0307312179557691
 30
0.0
 40
14.69841449584637
100
AcDbArc
 50
269.9895511735616
 51
280.436259797965
  0
INSERT
  5
AACB
330
A8A6
100
AcDbEntity
  8
AM_5
 62
     3
370
    -2
100
AcDbBlockReference
  2
_OPEN30
 10
-57.2527571453458
 20
-14.72914546938579
 30
0.0
 41
2.5
 42
2.5
 43
2.5
 50
355.1110429280989
  0
INSERT
  5
AACC
330
A8A6
100
AcDbEntity
  8
AM_5
 62
     3
370
    -2
100
AcDbBlockReference
  2
_OPEN30
 10
-54.58758284211268
 20
-14.48599031023659
 30
0.0
 41
2.5
 42
2.5
 43
2.5
 50
195.3147680434276
  0
MTEXT
  5
AACD
330
A8A6
100
AcDbEntity
  8
AM_5
 62
     2
100
AcDbMText
 10
-56.85205280819181
 20
-11.32213268734137
 30
0.0
 40
3.799999999999998
 41
0.0
 71
     5
 72
     1
  1
10°
 11
0.9993792910975829
 21
0.0352282915466052
 31
0.0
 73
     1
 44
1.0
1001
ACAD
1000
MTEXTBEGIN
1070
    73
1070
     1
1070
    44
1040
1.0
1070
    74
1070
     0
1000
MTEXTEND
  0
POINT
  5
AACE
330
A8A6
100
AcDbEntity
  8
DEFPOINTS
 62
     0
100
AcDbPoint
 10
-55.47049777656141
 20
-14.62101866309548
 30
0.0
  0
POINT
  5
AACF
330
A8A6
100
AcDbEntity
  8
DEFPOINTS
 62
     0
100
AcDbPoint
 10
-57.29414661528319
 20
0.2085342379450017
 30
0.0
  0
POINT
  5
AAD0
330
A8A6
100
AcDbEntity
  8
DEFPOINTS
 62
     0
100
AcDbPoint
 10
-57.25007159191322
 20
-0.0030059794059985
 30
0.0
  0
POINT
  5
AAD1
330
A8A6
100
AcDbEntity
  8
DEFPOINTS
 62
     0
100
AcDbPoint
 10
-57.2442503750431
 20
31.91743566600167
 30
0.0
  0
POINT
  5
AAD2
330
A8A6
100
AcDbEntity
  8
DEFPOINTS
 62
     0
100
AcDbPoint
 10
-57.65323932768315
 20
2.158126828277005
 30
0.0
  0
ENDBLK
  5
A8B7
330
A8A6
100
AcDbEntity
  8
0
100
AcDbBlockEnd
  0
ENDSEC
  0
SECTION
  2
ENTITIES
  0
TEXT
  5
83BD
330
1F
100
AcDbEntity
  8
AM_6
100
AcDbText
 10
42.75195341366996
 20
-96.01127829627898
 30
0.0
 40
5.0
  1
GWCSR2020-25
 72
     4
 11
65.47606506602164
 21
-93.51127829627898
 31
0.0
100
AcDbText
  0
LINE
  5
A3A5
330
1F
100
AcDbEntity
  8
AM_0
100
AcDbLine
 10
24.99994937775879
 20
-62.25472641269002
 30
0.0
 11
125.0000123202618
 21
-62.25472641269004
 31
0.0
  0
LINE
  5
A3A6
330
1F
100
AcDbEntity
  8
AM_0
100
AcDbLine
 10
24.9999493777588
 20
6.995277402006987
 30
0.0
 11
125.0000123202618
 21
6.995277402006961
 31
0.0
  0
LINE
  5
A3A7
330
1F
100
AcDbEntity
  8
AM_0
100
AcDbLine
 10
4.020474356395826
 20
26.99527740200699
 30
0.0
 11
125.0000123202618
 21
26.99527740200696
 31
0.0
  0
LINE
  5
A3A8
330
1F
100
AcDbEntity
  8
AM_0
100
AcDbLine
 10
0.842305105907816
 20
-82.2547264126895
 30
0.0
 11
125.0000123202618
 21
-82.25472641268956
 31
0.0
  0
LINE
  5
A3AA
330
1F
100
AcDbEntity
  8
AM_0
 48
0.5
100
AcDbLine
 10
24.24926463959882
 20
-60.05423450747803
 30
0.0
 11
24.24926463959882
 21
-82.2547264126895
 31
0.0
  0
LINE
  5
A3AB
330
1F
100
AcDbEntity
  8
AM_0
 48
0.5
100
AcDbLine
 10
24.99994937775879
 20
-62.25472641269002
 30
0.0
 11
24.99994937775879
 21
-82.2547264126895
 31
0.0
  0
LINE
  5
A3AC
330
1F
100
AcDbEntity
  8
AM_0
 48
0.5
100
AcDbLine
 10
1.199948233348823
 20
-82.2547264126895
 30
0.0
 11
1.199948233348825
 21
-65.66862106600979
 31
0.0
  0
LINE
  5
A3AD
330
1F
100
AcDbEntity
  8
AM_0
 48
0.5
100
AcDbLine
 10
0.842305105907816
 20
-82.25472450534089
 30
0.0
 11
0.3187417208978251
 21
-65.69941711703521
 31
0.0
  0
LINE
  5
A3AF
330
1F
100
AcDbEntity
  8
AM_0
 48
0.5
100
AcDbLine
 10
0.7316178500488394
 20
-78.75472641268951
 30
0.0
 11
1.199948233348824
 21
-78.75472641268951
 31
0.0
  0
ELLIPSE
  5
A3B0
330
1F
100
AcDbEntity
  8
AM_0
 48
0.5
100
AcDbEllipse
 10
-57.28785236479319
 20
0.2010345431210109
 30
0.0
 11
0.0377807728799979
 21
-0.2040405225270092
 31
0.0
210
0.0
220
0.0
230
1.0
 40
0.0231051099971
 41
4.669805269007901
 42
6.283185307179585
  0
ELLIPSE
  5
A3B1
330
1F
100
AcDbEntity
  8
AM_0
 48
0.5
100
AcDbEllipse
 10
-59.07676227690314
 20
0.3575286837460112
 30
0.0
 11
0.3282623168200017
 21
-0.2287445001270072
 31
0.0
210
0.0
220
0.0
230
1.0
 40
0.0499676735118
 41
6.205820967238187
 42
7.800911591653277
  0
ELLIPSE
  5
A3B2
330
1F
100
AcDbEntity
  8
AM_0
 48
0.5
100
AcDbEllipse
 10
0.0366524874997862
 20
-60.691928866303
 30
0.0
 11
-0.0631828566409989
 21
1.999000539834
 31
0.0
210
0.0
220
0.0
230
1.0
 40
0.0376986080102
 41
3.808794540500316
 42
4.157784129745544
  0
ELLIPSE
  5
A3B3
330
1F
100
AcDbEntity
  8
AM_0
 48
0.5
100
AcDbEllipse
 10
1.96064845917879
 20
-60.63102340976
 30
0.0
 11
0.0643273115209985
 21
2.003066956854999
 31
0.0
210
0.0
220
0.0
230
1.0
 40
0.0378734451367
 41
2.258273071386104
 42
2.492629886267571
  0
ELLIPSE
  5
A3B4
330
1F
100
AcDbEntity
  8
AM_0
 48
0.5
100
AcDbEllipse
 10
-55.53285511137318
 20
17.533935544097
 30
0.0
 11
0.033210768700002
 21
0.4001312331530044
 31
0.0
210
0.0
220
0.0
230
1.0
 40
0.0605360691529
 41
6.115372844148009
 42
6.206606377318701
  0
ELLIPSE
  5
A3B5
330
1F
100
AcDbEntity
  8
AM_0
 48
0.5
100
AcDbEllipse
 10
-56.28985889555321
 20
19.16133117397999
 30
0.0
 11
0.1578598063899932
 21
0.1346740691679997
 31
0.0
210
0.0
220
0.0
230
1.0
 40
0.047178629335
 41
0.0
 42
1.570806131717414
  0
ELLIPSE
  5
A3B6
330
1F
100
AcDbEntity
  8
AM_0
 48
0.5
100
AcDbEllipse
 10
-55.53285511137318
 20
17.533935544097
 30
0.0
 11
0.033210768700002
 21
0.4001312331530044
 31
0.0
210
0.0
220
0.0
230
1.0
 40
0.0605360691529
 41
6.206393384355276
 42
7.757872647912702
  0
ELLIPSE
  5
A3B7
330
1F
100
AcDbEntity
  8
AM_0
 48
0.5
100
AcDbEllipse
 10
-73.21136005522324
 20
10.525634762847
 30
0.0
 11
0.1955261171899991
 21
-0.0694732612540037
 31
0.0
210
0.0
220
0.0
230
1.0
 40
0.0241193714493
 41
1.603191480102539
 42
3.141596278178718
  0
ELLIPSE
  5
A3B8
330
1F
100
AcDbEntity
  8
AM_0
 48
0.5
100
AcDbEllipse
 10
-72.17946155668319
 20
11.99652862271
 30
0.0
 11
0.3634719955099968
 21
0.1700973540449979
 31
0.0
210
0.0
220
0.0
230
1.0
 40
0.0199269744782
 41
3.141588266430731
 42
4.637724947558488
  0
ELLIPSE
  5
A3B9
330
1F
100
AcDbEntity
  8
AM_0
 48
0.5
100
AcDbEllipse
 10
13.71085063813381
 20
-60.25952530185
 30
0.0
 11
22.76291637556399
 21
2.714546237465991
 31
0.0
210
0.0
220
0.0
230
1.0
 40
0.0072888787365
 41
2.015016515914373
 42
2.206390740761499
  0
ELLIPSE
  5
A3BB
330
1F
100
AcDbEntity
  8
AM_0
 48
0.5
100
AcDbEllipse
 10
2.741650503856809
 20
-60.60642624179101
 30
0.0
 11
0.0643311397199972
 21
2.003067072452
 31
0.0
210
0.0
220
0.0
230
1.0
 40
0.037871540902
 41
2.113798163422158
 42
2.21845701740996
  0
ELLIPSE
  5
A3BC
330
1F
100
AcDbEntity
  8
AM_0
 48
0.5
100
AcDbEllipse
 10
0.7983483493158515
 20
-60.53752517978001
 30
0.0
 11
0.1985359226789995
 21
0.0241622934399999
 31
0.0
210
0.0
220
0.0
230
1.0
 40
0.1675088892511999
 41
1.95484825887806
 42
3.035453929435925
  0
ELLIPSE
  5
A3BF
330
1F
100
AcDbEntity
  8
AM_0
 48
0.5
100
AcDbEllipse
 10
2.226254385692813
 20
17.14993285854998
 30
0.0
 11
-0.0000000173100005
 21
0.3960113525390057
 31
0.0
210
0.0
220
0.0
230
1.0
 40
0.5050283204254002
 41
4.583318381113549
 42
4.585577748165099
  0
ELLIPSE
  5
A3C0
330
1F
100
AcDbEntity
  8
AM_0
 48
0.5
100
AcDbEllipse
 10
13.76095287202081
 20
-60.102924349702
 30
0.0
 11
8.09506917747
 21
0.2825698891719987
 31
0.0
210
0.0
220
0.0
230
1.0
 40
0.0870987724091
 41
5.458879626805464
 42
6.283185307179585
  0
ELLIPSE
  5
A3C1
330
1F
100
AcDbEntity
  8
AM_0
 48
0.5
100
AcDbEllipse
 10
13.76095287202081
 20
-60.102924349702
 30
0.0
 11
8.09506917747
 21
0.2825698891719987
 31
0.0
210
0.0
220
0.0
230
1.0
 40
0.0870987724091
 41
0.0
 42
0.3797540455556434
  0
ELLIPSE
  5
A3C2
330
1F
100
AcDbEntity
  8
AM_0
 48
0.5
100
AcDbEllipse
 10
13.76094905732383
 20
-60.10293197909601
 30
0.0
 11
6.096285586075999
 21
0.2127990537599997
 31
0.0
210
0.0
220
0.0
230
1.0
 40
0.0870981883779
 41
2.959505636873711
 42
3.141593657316831
  0
ELLIPSE
  5
A3C3
330
1F
100
AcDbEntity
  8
AM_0
 48
0.5
100
AcDbEllipse
 10
13.76094905732383
 20
-60.10293197909601
 30
0.0
 11
6.096285586075999
 21
0.2127990537599997
 31
0.0
210
0.0
220
0.0
230
1.0
 40
0.0870981883779
 41
3.141591649862753
 42
5.130631574346979
  0
ELLIPSE
  5
A3C4
330
1F
100
AcDbEntity
  8
AM_0
 48
0.5
100
AcDbEllipse
 10
17.91915218232383
 20
-60.347629549897
 30
0.0
 11
1.998782160712995
 21
0.0697708152920007
 31
0.0
210
0.0
220
0.0
230
1.0
 40
0.0871006234528
 41
3.728858703420821
 42
5.458887912516037
  0
ELLIPSE
  5
A3C5
330
1F
100
AcDbEntity
  8
AM_0
 48
0.5
100
AcDbEllipse
 10
13.54894725678683
 20
-54.029827120698
 30
0.0
 11
3.997566230212995
 21
0.1395416226629987
 31
0.0
210
0.0
220
0.0
230
1.0
 40
0.0871006340741
 41
3.141591649890937
 42
6.283185307179585
  0
ELLIPSE
  5
A3C6
330
1F
100
AcDbEntity
  8
AM_0
 48
0.5
100
AcDbEllipse
 10
13.54894725678683
 20
-54.029827120698
 30
0.0
 11
3.997566230212995
 21
0.1395416226629987
 31
0.0
210
0.0
220
0.0
230
1.0
 40
0.0871006340741
 41
0.0
 42
3.141593657288646
  0
SPLINE
  5
A3C7
330
1F
100
AcDbEntity
  8
AM_0
 48
0.5
100
AcDbSpline
210
0.0
220
0.0
230
1.0
 70
     8
 71
     3
 72
    11
 73
     7
 74
     5
 42
0.0000000001
 43
0.0000000001
 44
0.0000000001
 40
0.0
 40
0.0
 40
0.0
 40
0.0
 40
1.894474214317627
 40
3.789759856630631
 40
5.682625649443856
 40
7.567669538106578
 40
7.567669538106578
 40
7.567669538106578
 40
7.567669538106578
 10
2.775547903758812
 20
-58.25643539706501
 30
0.0
 10
3.17684754999735
 20
-57.76464497430531
 30
0.0
 10
3.979618724342774
 20
-56.78085348853866
 30
0.0
 10
5.571586676512909
 20
-55.71586939451077
 30
0.0
 10
7.330747429163308
 20
-54.96744566775126
 30
0.0
 10
8.588949590359501
 20
-54.83040071775325
 30
0.0
 10
9.216748160106808
 20
-54.76202011386201
 30
0.0
 11
2.775547903758812
 21
-58.25643539706501
 31
0.0
 11
4.044148367626853
 21
-56.84942245761201
 31
0.0
 11
5.600651663524835
 21
-55.76803207675201
 31
0.0
 11
7.354947012645816
 21
-55.057125094331
 31
0.0
 11
9.216748160106808
 21
-54.76202011386201
 31
0.0
  0
ELLIPSE
  5
A3C8
330
1F
100
AcDbEntity
  8
AM_0
 48
0.5
100
AcDbEllipse
 10
-73.10665424467315
 20
10.44633483608901
 30
0.0
 11
0.1952819829299983
 21
-0.0692749054710049
 31
0.0
210
0.0
220
0.0
230
1.0
 40
0.0241538767149
 41
3.141596273000775
 42
4.812884089257828
  0
ELLIPSE
  5
A3C9
330
1F
100
AcDbEntity
  8
AM_0
 48
0.5
100
AcDbEllipse
 10
-71.89715870024321
 20
12.19162749966401
 30
0.0
 11
0.3588027896000058
 21
0.1668624805270014
 31
0.0
210
0.0
220
0.0
230
1.0
 40
0.0202275382108
 41
1.405675650468362
 42
3.141596975559462
  0
ELLIPSE
  5
A3CA
330
1F
100
AcDbEntity
  8
AM_0
 48
0.5
100
AcDbEllipse
 10
-55.25485523344315
 20
2.006530758941009
 30
0.0
 11
2.530265830839991
 21
-1.593063277170003
 31
0.0
210
0.0
220
0.0
230
1.0
 40
0.6246817031478999
 41
2.329964683244232
 42
2.523168176208899
  0
ELLIPSE
  5
A3CB
330
1F
100
AcDbEntity
  8
AM_0
 48
0.5
100
AcDbEllipse
 10
-71.58636005522321
 20
7.471427914703001
 30
0.0
 11
0.4582824263599996
 21
-2.735481168649995
 31
0.0
210
0.0
220
0.0
230
1.0
 40
0.5949995095991
 41
1.672771052966924
 42
1.683370104115201
  0
ELLIPSE
  5
A3CC
330
1F
100
AcDbEntity
  8
AM_0
 48
0.5
100
AcDbEllipse
 10
-58.66995533110316
 20
18.884933468902
 30
0.0
 11
1.76137545364
 21
1.001709019006993
 31
0.0
210
0.0
220
0.0
230
0.9999999999999998
 40
0.4442053315198001
 41
3.591299213025893
 42
3.601915590503371
  0
ELLIPSE
  5
A3CF
330
1F
100
AcDbEntity
  8
AM_0
 48
0.5
100
AcDbEllipse
 10
18.00008861420883
 20
19.33566283901898
 30
0.0
 11
1.196257598815997
 21
1.519393946891993
 31
0.0
210
0.0
220
0.0
230
1.0
 40
0.9781166295676998
 41
5.183064793114921
 42
7.533536277640285
  0
SPLINE
  5
A3D0
330
1F
100
AcDbEntity
  8
AM_0
 48
0.5
100
AcDbSpline
210
0.0
220
0.0
230
1.0
 70
     8
 71
     3
 72
    11
 73
     7
 74
     5
 42
0.0000000001
 43
0.0000000001
 44
0.0000000001
 40
0.0
 40
0.0
 40
0.0
 40
0.0
 40
1.371912380755247
 40
2.743920379660328
 40
4.115785380351054
 40
5.487697761107137
 40
5.487697761107137
 40
5.487697761107137
 40
5.487697761107137
 10
0.505124014598836
 20
11.42115783413599
 30
0.0
 10
0.7545115641819864
 20
11.03783954012309
 30
0.0
 10
1.253304044907355
 20
10.27117623596979
 30
0.0
 10
2.001467465060951
 20
9.121202670923789
 30
0.0
 10
2.749487353914979
 20
7.97113573554659
 30
0.0
 10
3.248272977691451
 20
7.204524835027399
 30
0.0
 10
3.497670096141804
 20
6.82121276577699
 30
0.0
 11
0.505124014598836
 21
11.42115783413599
 31
0.0
 11
1.253285330516804
 21
10.27120208462498
 31
0.0
 11
2.001469534618821
 21
9.121147152983994
 31
0.0
 11
2.749508780223834
 21
7.971168515288994
 31
0.0
 11
3.497670096141804
 21
6.82121276577699
 31
0.0
  0
ELLIPSE
  5
A3D1
330
1F
100
AcDbEntity
  8
AM_0
 48
0.5
100
AcDbEllipse
 10
18.00008861420883
 20
19.33566283901898
 30
0.0
 11
1.196257598815997
 21
1.519393946891993
 31
0.0
210
0.0
220
0.0
230
1.0
 40
0.9781166295676998
 41
4.391937916202516
 42
5.183079386128278
  0
ELLIPSE
  5
A3D2
330
1F
100
AcDbEntity
  8
AM_0
 48
0.5
100
AcDbEllipse
 10
2.475254935008821
 20
19.06373595913598
 30
0.0
 11
0.2002029365079991
 21
-0.0089569092170052
 31
0.0
210
0.0
220
0.0
230
1.0
 40
0.6711618281173002
 41
6.221955234190756
 42
7.828152084094242
  0
ELLIPSE
  5
A3D4
330
1F
100
AcDbEntity
  8
AM_0
 48
0.5
100
AcDbEllipse
 10
0.7983521640128423
 20
17.53393554409699
 30
0.0
 11
0.007400523061996
 21
-0.4001312203439939
 31
0.0
210
0.0
220
0.0
230
1.0
 40
0.4959771297881001
 41
2.999245005001321
 42
4.571220401065768
  0
ELLIPSE
  5
A3D5
330
1F
100
AcDbEntity
  8
AM_0
 48
0.5
100
AcDbEllipse
 10
0.8836487948728427
 20
19.16133117397999
 30
0.0
 11
0.1995239256090002
 21
-0.013671874518991
 31
0.0
210
0.0
220
0.0
230
1.0
 40
0.6725267639563999
 41
1.580106750490014
 42
3.147985290129438
  0
ELLIPSE
  5
A3D6
330
1F
100
AcDbEntity
  8
AM_0
 48
0.5
100
AcDbEllipse
 10
13.71084682343683
 20
2.006530758940994
 30
0.0
 11
22.76291801559
 21
-1.036514318022004
 31
0.0
210
0.0
220
0.0
230
1.0
 40
0.087424459208
 41
2.021089958578422
 42
2.214011816465303
  0
ELLIPSE
  5
A3D8
330
1F
100
AcDbEntity
  8
AM_0
 48
0.5
100
AcDbEllipse
 10
2.226254385692813
 20
17.14993285854998
 30
0.0
 11
0.0240783487269953
 21
0.3935699346159964
 31
0.0
210
0.0
220
0.0
230
1.0
 40
0.5036643166537002
 41
4.578749682617178
 42
6.180467389451183
  0
ELLIPSE
  5
A3D9
330
1F
100
AcDbEntity
  8
AM_0
 48
0.5
100
AcDbEllipse
 10
0.7983521640128423
 20
17.53393554409699
 30
0.0
 11
0.007400523061996
 21
-0.4001312203439939
 31
0.0
210
0.0
220
0.0
230
1.0
 40
0.4959771297881001
 41
4.571220497222538
 42
4.607305087275014
  0
ELLIPSE
  5
A3DA
330
1F
100
AcDbEntity
  8
AM_0
 48
0.5
100
AcDbEllipse
 10
0.0366486728018462
 20
2.522331235014988
 30
0.0
 11
0.075378377611998
 21
1.998573294137003
 31
0.0
210
0.0
220
0.0
230
1.0
 40
0.0316007184586
 41
4.528981034395917
 42
5.725548734699013
  0
ELLIPSE
  5
A3DB
330
1F
100
AcDbEntity
  8
AM_0
 48
0.5
100
AcDbEllipse
 10
1.966527903270844
 20
2.449737546049987
 30
0.0
 11
0.076187092876999
 21
-2.004257128009995
 31
0.0
210
0.0
220
0.0
230
1.0
 40
0.0318611750204
 41
3.838897101699101
 42
4.890847034822972
  0
ELLIPSE
  5
A3DC
330
1F
100
AcDbEntity
  8
AM_0
 48
0.5
100
AcDbEllipse
 10
2.741650503856817
 20
2.42033385952699
 30
0.0
 11
0.076187092876999
 21
-2.004257128011004
 31
0.0
210
0.0
220
0.0
230
1.0
 40
0.0318535710401
 41
3.671164031852522
 42
3.783125823251503
  0
ELLIPSE
  5
A3DD
330
1F
100
AcDbEntity
  8
AM_0
 48
0.5
100
AcDbEllipse
 10
-19.60165699126019
 20
20.16983031948798
 30
0.0
 11
28.693316943538
 21
-2.084026210655998
 31
0.0
210
0.0
220
0.0
230
1.0
 40
0.0602419645806
 41
5.593675483390195
 42
5.637674701861846
  0
ELLIPSE
  5
A3DE
330
1F
100
AcDbEntity
  8
AM_0
 48
0.5
100
AcDbEllipse
 10
-21.1785612881352
 20
20.22933959683199
 30
0.0
 11
28.583706375643
 21
-2.078930033382
 31
0.0
210
0.0
220
0.0
230
1.0
 40
0.060479920741
 41
5.742337026214587
 42
5.906656056532713
  0
ELLIPSE
  5
A3DF
330
1F
100
AcDbEntity
  8
AM_0
 48
0.5
100
AcDbEllipse
 10
14.45544521210882
 20
18.88493346890199
 30
0.0
 11
22.927347580682
 21
0.9496460560129889
 31
0.0
210
0.0
220
0.0
230
1.0
 40
0.0368196677248
 41
4.237992778938933
 42
4.302891632522912
  0
ELLIPSE
  5
A3E0
330
1F
100
AcDbEntity
  8
AM_0
 48
0.5
100
AcDbEllipse
 10
14.45554439423784
 20
18.88493346890199
 30
0.0
 11
22.92744494193699
 21
0.9496459819160001
 31
0.0
210
0.0
220
0.0
230
1.0
 40
0.0368195272279
 41
4.162462343461477
 42
4.237995687644401
  0
ELLIPSE
  5
A3E1
330
1F
100
AcDbEntity
  8
AM_0
 48
0.5
100
AcDbEllipse
 10
-48.89371021391617
 20
15.84957885464399
 30
0.0
 11
-0.5319365999870075
 21
-5.996623931331996
 31
0.0
210
0.0
220
0.0
230
1.0
 40
0.0346697046814
 41
1.570796109263959
 42
4.712473028651344
  0
ELLIPSE
  5
A3E2
330
1F
100
AcDbEntity
  8
AM_0
 48
0.5
100
AcDbEllipse
 10
-55.01401050688315
 20
16.38497161587501
 30
0.0
 11
-0.5319405534500009
 21
-5.996627889020998
 31
0.0
210
0.0
220
0.0
230
1.0
 40
0.0346702542141
 41
3.141636435622549
 42
5.323107059772802
  0
SPLINE
  5
A3E3
330
1F
100
AcDbEntity
  8
AM_0
 48
0.5
100
AcDbSpline
210
0.0
220
0.0
230
1.0
 70
     8
 71
     3
 72
    11
 73
     7
 74
     5
 42
0.0000000001
 43
0.0000000001
 44
0.0000000001
 40
0.0
 40
0.0
 40
0.0
 40
0.0
 40
1.270255311205067
 40
2.83245402599709
 40
4.597230086263541
 40
6.474630770674552
 40
6.474630770674552
 40
6.474630770674552
 40
6.474630770674552
 10
3.497670096141804
 20
6.82121276577699
 30
0.0
 10
3.911046659538612
 20
6.913112134759514
 30
0.0
 10
4.832806325424482
 20
7.118032149944654
 30
0.0
 10
6.311739877564365
 20
7.52092271153119
 30
0.0
 10
7.977933923647643
 20
8.004119014951333
 30
0.0
 10
9.134917373368921
 20
8.372192548939159
 30
0.0
 10
9.731297415477856
 20
8.561920163237983
 30
0.0
 11
3.497670096141804
 21
6.82121276577699
 31
0.0
 11
4.735676687938848
 21
7.105621335112984
 31
0.0
 11
6.24543468354483
 21
7.506988522612984
 31
0.0
 11
7.939747732860839
 21
8.000686642729984
 31
0.0
 11
9.731297415477856
 21
8.561920163237983
 31
0.0
  0
SPLINE
  5
A3E4
330
1F
100
AcDbEntity
  8
AM_0
 48
0.5
100
AcDbSpline
210
0.0
220
0.0
230
1.0
 70
     8
 71
     3
 72
    11
 73
     7
 74
     5
 42
0.0000000001
 43
0.0000000001
 44
0.0000000001
 40
0.0
 40
0.0
 40
0.0
 40
0.0
 40
1.866172295854403
 40
3.604833589768499
 40
5.127393569551612
 40
6.345223500094725
 40
6.345223500094725
 40
6.345223500094725
 40
6.345223500094725
 10
4.885792654735838
 20
16.01026916226099
 30
0.0
 10
4.465994056872922
 20
15.55120560575712
 30
0.0
 10
3.655080675575987
 20
14.66444518604674
 30
0.0
 10
2.482330999467388
 20
13.4211310100601
 30
0.0
 10
1.447440454578041
 20
12.34475708907999
 30
0.0
 10
0.7950475688189743
 20
11.70532265107832
 30
0.0
 10
0.505124014598836
 20
11.42115783413599
 30
0.0
 11
4.885792654735838
 21
16.01026916226099
 31
0.0
 11
3.622754019481818
 21
14.63646697720298
 31
0.0
 11
2.43074504731385
 21
13.37074279507399
 31
0.0
 11
1.371098440868821
 21
12.27742767056199
 31
0.0
 11
0.505124014598836
 21
11.42115783413599
 31
0.0
  0
ELLIPSE
  5
A3E5
330
1F
100
AcDbEntity
  8
AM_0
 48
0.5
100
AcDbEllipse
 10
12.8521775424308
 20
15.88896178921399
 30
0.0
 11
3.777702335581999
 21
4.798130240776996
 31
0.0
210
0.0
220
0.0
230
1.0
 40
0.9781381164624999
 41
5.640562499894588
 42
6.285027658026257
  0
SPLINE
  5
A3E6
330
1F
100
AcDbEntity
  8
AM_0
 48
0.5
100
AcDbSpline
210
0.0
220
0.0
230
1.0
 70
     8
 71
     3
 72
    11
 73
     7
 74
     0
 42
0.0000000001
 43
0.0000000001
 40
0.0
 40
0.0
 40
0.0
 40
0.0
 40
0.5448718683079817
 40
1.089746304544302
 40
1.634522973751603
 40
2.179387679091977
 40
2.179387679091977
 40
2.179387679091977
 40
2.179387679091977
 10
0.6272477328608304
 20
-57.88962936679102
 30
0.0
 10
0.8062817917149729
 20
-57.92019187978288
 30
0.0
 10
1.164350753193494
 20
-57.98131704980479
 30
0.0
 10
1.701419907396648
 20
-58.07301453917304
 30
0.0
 10
2.238481863927397
 20
-58.16473999379896
 30
0.0
 10
2.596514795674742
 20
-58.2258683683967
 30
0.0
 10
2.775545724950339
 20
-58.25643502506843
 30
0.0
  0
SPLINE
  5
A3E7
330
1F
100
AcDbEntity
  8
AM_0
 48
0.5
100
AcDbSpline
210
0.0
220
0.0
230
1.0
 70
     8
 71
     3
 72
    11
 73
     7
 74
     5
 42
0.0000000001
 43
0.0000000001
 44
0.0000000001
 40
0.0
 40
0.0
 40
0.0
 40
0.0
 40
1.525464285346554
 40
3.118888369634961
 40
4.796125299202514
 40
6.560515566719208
 40
6.560515566719208
 40
6.560515566719208
 40
6.560515566719208
 10
5.738247793895816
 20
-54.16811752597102
 30
0.0
 10
5.234585729935155
 20
-54.26039613843127
 30
0.0
 10
4.204823336542655
 20
-54.44906439761832
 30
0.0
 10
2.805051105396447
 20
-55.27319976363369
 30
0.0
 10
1.547229810945726
 20
-56.40839346155978
 30
0.0
 10
0.9390421968440966
 20
-57.38761833189592
 30
0.0
 10
0.6272477328608304
 20
-57.88962936679102
 30
0.0
 11
5.738247793895816
 21
-54.16811752597102
 31
0.0
 11
4.255848807079806
 21
-54.528026583588
 31
0.0
 11
2.862149161083827
 21
-55.30042648593201
 31
0.0
 11
1.628750723583826
 21
-56.43702316561999
 31
0.0
 11
0.6272477328608304
 21
-57.88962936679102
 31
0.0
  0
ELLIPSE
  5
A3E8
330
1F
100
AcDbEntity
  8
AM_0
 48
0.5
100
AcDbEllipse
 10
-21.92325122954116
 20
-61.38632583895901
 30
0.0
 11
28.64210450835599
 21
0.9051894426989921
 31
0.0
210
0.0
220
0.0
230
1.0
 40
0.069792372264
 41
5.740795926149245
 42
5.921476536621081
  0
ELLIPSE
  5
A3E9
330
1F
100
AcDbEntity
  8
AM_0
 48
0.5
100
AcDbEllipse
 10
-20.34635456206116
 20
-61.336429598725
 30
0.0
 11
28.75174715023299
 21
0.9086532423419928
 31
0.0
210
0.0
220
0.0
230
1.0
 40
0.0695262243595
 41
5.592148089639764
 42
5.636868878564745
  0
ELLIPSE
  5
A3EA
330
1F
100
AcDbEntity
  8
AM_0
 48
0.5
100
AcDbEllipse
 10
1.719349783641795
 20
-64.37012863437002
 30
0.0
 11
-0.0197219669460011
 21
0.3235015851639992
 31
0.0
210
0.0
220
0.0
230
1.0
 40
0.6124722013156
 41
4.557734235957548
 42
6.12391911416053
  0
ELLIPSE
  5
A3EB
330
1F
100
AcDbEntity
  8
AM_0
 48
0.5
100
AcDbEllipse
 10
1.719349783641795
 20
-64.37012863437002
 30
0.0
 11
-0.0197219669460011
 21
0.3235015851639992
 31
0.0
210
0.0
220
0.0
230
1.0
 40
0.6124722013156
 41
4.517733247756045
 42
4.557734235957548
  0
ELLIPSE
  5
A3EC
330
1F
100
AcDbEntity
  8
AM_0
 48
0.5
100
AcDbEllipse
 10
1.793950003368812
 20
-62.252620699799
 30
0.0
 11
0.2003250099429934
 21
0.0055847167319989
 31
0.0
210
0.0
220
0.0
230
1.0
 40
0.1885972674007
 41
0.0
 42
1.552885395445653
  0
ELLIPSE
  5
A3ED
330
1F
100
AcDbEntity
  8
AM_0
 48
0.5
100
AcDbEllipse
 10
0.1999482333488269
 20
-62.29253006259201
 30
0.0
 11
0.1999435450809983
 21
0.0048141480449999
 31
0.0
210
0.0
220
0.0
230
1.0
 40
0.1889959955663
 41
1.578533204360201
 42
3.141593116154126
  0
ELLIPSE
  5
A3EE
330
1F
100
AcDbEntity
  8
AM_0
 48
0.5
100
AcDbEllipse
 10
0.2623490512198066
 20
-64.08142471591301
 30
0.0
 11
-0.0564270135339981
 21
0.3267593508700006
 31
0.0
210
0.0
220
0.0
230
1.0
 40
0.5931950862553002
 41
1.343831916901639
 42
1.380622616392903
  0
ELLIPSE
  5
A3EF
330
1F
100
AcDbEntity
  8
AM_0
 48
0.5
100
AcDbEllipse
 10
0.2623490512198066
 20
-64.08142471591301
 30
0.0
 11
-0.0564270135339981
 21
0.3267593508700006
 31
0.0
210
0.0
220
0.0
230
1.0
 40
0.5931950862553002
 41
6.058138808679672
 42
7.627017224081224
  0
ELLIPSE
  5
A3F0
330
1F
100
AcDbEntity
  8
AM_0
 48
0.5
100
AcDbEllipse
 10
13.54895107148381
 20
-54.029827120698
 30
0.0
 11
5.996348180008996
 21
0.2093048114619996
 31
0.0
210
0.0
220
0.0
230
1.0
 40
0.0870993236701
 41
4.850850404162678
 42
6.283185307179585
  0
ELLIPSE
  5
A3F1
330
1F
100
AcDbEntity
  8
AM_0
 48
0.5
100
AcDbEllipse
 10
13.54895107148381
 20
-54.029827120698
 30
0.0
 11
5.996348180008996
 21
0.2093048114619996
 31
0.0
210
0.0
220
0.0
230
1.0
 40
0.0870993236701
 41
0.0
 42
2.229244687394212
  0
ELLIPSE
  5
A3F2
330
1F
100
AcDbEntity
  8
AM_0
 48
0.5
100
AcDbEllipse
 10
19.23074809907182
 20
-55.645427706635
 30
0.0
 11
-1.915167856076003
 21
0.4010008899820014
 31
0.0
210
0.0
220
0.0
230
1.0
 40
0.0155365378597
 41
3.141587026672943
 42
4.316163418471508
  0
ELLIPSE
  5
A3F3
330
1F
100
AcDbEntity
  8
AM_0
 48
0.5
100
AcDbEllipse
 10
13.54894725678683
 20
-54.029827120698
 30
0.0
 11
3.997566230212995
 21
0.1395416226629987
 31
0.0
210
0.0
220
0.0
230
1.0
 40
0.0871006340741
 41
3.141591649890937
 42
6.283185307179585
  0
ELLIPSE
  5
A3F4
330
1F
100
AcDbEntity
  8
AM_0
 48
0.5
100
AcDbEllipse
 10
13.54894725678683
 20
-54.029827120698
 30
0.0
 11
3.997566230212995
 21
0.1395416226629987
 31
0.0
210
0.0
220
0.0
230
1.0
 40
0.0871006340741
 41
0.0
 42
3.141593657288646
  0
CIRCLE
  5
A3F6
330
1F
100
AcDbEntity
  8
AM_0
 48
0.5
100
AcDbCircle
 10
12.84474651215782
 20
15.85292052944899
 30
0.0
 40
3.374989986419698
  0
ARC
  5
A3F8
330
1F
100
AcDbEntity
  8
AM_0
 48
0.5
100
AcDbCircle
 10
12.84474651215782
 20
15.85292052944899
 30
0.0
 40
3.999989986419698
100
AcDbArc
 50
101.7588561795728
 51
281.7588543583398
  0
ARC
  5
A3F9
330
1F
100
AcDbEntity
  8
AM_0
 48
0.5
100
AcDbCircle
 10
12.84474651215782
 20
15.85292052944899
 30
0.0
 40
3.999989986419698
100
AcDbArc
 50
281.7588511706139
 51
101.7588561795728
  0
ARC
  5
A3FA
330
1F
100
AcDbEntity
  8
AM_0
 48
0.5
100
AcDbCircle
 10
12.84474651215782
 20
15.85292052944899
 30
0.0
 40
3.999989986419698
100
AcDbArc
 50
101.7588561795728
 51
281.7588543583398
  0
ARC
  5
A3FB
330
1F
100
AcDbEntity
  8
AM_0
 48
0.5
100
AcDbCircle
 10
12.84474651215782
 20
15.85292052944899
 30
0.0
 40
3.999989986419698
100
AcDbArc
 50
281.7588511706139
 51
101.7588561795728
  0
ARC
  5
A3FC
330
1F
100
AcDbEntity
  8
AM_0
 48
0.5
100
AcDbCircle
 10
12.84474651215782
 20
15.85292052944899
 30
0.0
 40
5.993264675140399
100
AcDbArc
 50
348.2411437635851
 51
137.929400174748
  0
ARC
  5
A3FD
330
1F
100
AcDbEntity
  8
AM_0
 48
0.5
100
AcDbCircle
 10
12.96125499604483
 20
16.41297149380399
 30
0.0
 40
8.082375526428199
100
AcDbArc
 50
348.2410139899914
 51
32.79349356384673
  0
LINE
  5
A3FE
330
1F
100
AcDbEntity
  8
AM_0
 48
0.5
100
AcDbLine
 10
24.40950290559084
 20
4.791702267729985
 30
0.0
 11
24.19610301850582
 21
20.42910003384298
 31
0.0
  0
LINE
  5
A3FF
330
1F
100
AcDbEntity
  8
AM_0
 48
0.5
100
AcDbLine
 10
2.959080618602855
 20
14.21086120327699
 30
0.0
 11
8.48186199067385
 21
20.28191375454599
 31
0.0
  0
LINE
  5
A400
330
1F
100
AcDbEntity
  8
AM_0
 48
0.5
100
AcDbLine
 10
4.885796469432819
 20
16.01026916226099
 30
0.0
 11
8.395810049755823
 21
19.86869048794498
 31
0.0
  0
LINE
  5
A401
330
1F
100
AcDbEntity
  8
AM_0
 48
0.5
100
AcDbLine
 10
-53.93891437651318
 20
13.742362973296
 30
0.0
 11
-53.27301319242315
 21
18.76215362271001
 31
0.0
  0
LINE
  5
A402
330
1F
100
AcDbEntity
  8
AM_0
 48
0.5
100
AcDbLine
 10
-77.25004871489324
 20
3.996925351226012
 30
0.0
 11
-77.25004871489324
 21
26.995277402007
 31
0.0
  0
LINE
  5
A403
330
1F
100
AcDbEntity
  8
AM_0
 48
0.5
100
AcDbLine
 10
-60.06203754545317
 20
17.64251708706602
 30
0.0
 11
-55.32743366362314
 21
19.84851836880401
 31
0.0
  0
LINE
  5
A404
330
1F
100
AcDbEntity
  8
AM_0
 48
0.5
100
AcDbLine
 10
-55.56022937895311
 20
13.038253781402
 30
0.0
 11
-54.91116626860314
 21
20.35453033169501
 31
0.0
  0
LINE
  5
A405
330
1F
100
AcDbEntity
  8
AM_0
 48
0.5
100
AcDbLine
 10
-56.29615314604318
 20
19.16883086880401
 30
0.0
 11
-57.80585010649321
 21
17.88114165982001
 31
0.0
  0
LINE
  5
A407
330
1F
100
AcDbEntity
  8
AM_0
 48
0.5
100
AcDbLine
 10
-56.13195331694311
 20
19.29583739956601
 30
0.0
 11
-55.49725635649322
 21
17.93154906948799
 31
0.0
  0
LINE
  5
A408
330
1F
100
AcDbEntity
  8
AM_0
 48
0.5
100
AcDbLine
 10
5.326970022899844
 20
16.81381988247599
 30
0.0
 11
5.450566214305811
 21
20.35454559048399
 31
0.0
  0
LINE
  5
A409
330
1F
100
AcDbEntity
  8
AM_0
 48
0.5
100
AcDbLine
 10
24.9999493777588
 20
6.995277402006987
 30
0.0
 11
24.9999493777588
 21
26.99527740200699
 31
0.0
  0
LINE
  5
A40A
330
1F
100
AcDbEntity
  8
AM_0
 48
0.5
100
AcDbLine
 10
4.01674739716782
 20
17.69992828091399
 30
0.0
 11
3.943047445995833
 21
20.14402770718298
 31
0.0
  0
LINE
  5
A40B
330
1F
100
AcDbEntity
  8
AM_0
 48
0.5
100
AcDbLine
 10
4.034047049266805
 20
17.70034026821798
 30
0.0
 11
3.952343863231819
 21
20.41104125698798
 31
0.0
  0
LINE
  5
A40C
330
1F
100
AcDbEntity
  8
AM_0
 48
0.5
100
AcDbLine
 10
2.486153525096826
 20
19.19794463833498
 30
0.0
 11
2.270451468212798
 21
17.54024505337499
 31
0.0
  0
LINE
  5
A40D
330
1F
100
AcDbEntity
  8
AM_0
 48
0.5
100
AcDbLine
 10
0.8191308200188153
 20
17.93043517788598
 30
0.0
 11
0.8907326876948241
 21
19.29563140591399
 31
0.0
  0
LINE
  5
A40E
330
1F
100
AcDbEntity
  8
AM_0
 48
0.5
100
AcDbLine
 10
2.674733084423851
 20
19.04724883755399
 30
0.0
 11
2.419438284618822
 21
17.08504485806199
 31
0.0
  0
LINE
  5
A40F
330
1F
100
AcDbEntity
  8
AM_0
 48
0.5
100
AcDbLine
 10
0.6008423983878423
 20
17.58692168911699
 30
0.0
 11
0.6840409457518627
 21
19.17353057583498
 31
0.0
  0
CIRCLE
  5
A416
330
1F
100
AcDbEntity
  8
AM_0
 48
0.5
100
AcDbCircle
 10
-62.27959735990322
 20
9.960456845367005
 30
0.0
 40
4.0999999046326
  0
CIRCLE
  5
A417
330
1F
100
AcDbEntity
  8
AM_0
 48
0.5
100
AcDbCircle
 10
-62.27959735990322
 20
9.960456845367005
 30
0.0
 40
3.0
  0
CIRCLE
  5
A418
330
1F
100
AcDbEntity
  8
AM_0
 48
0.5
100
AcDbCircle
 10
-62.27959735990322
 20
9.960456845367005
 30
0.0
 40
3.5
  0
LINE
  5
A41B
330
1F
100
AcDbEntity
  8
AM_0
 48
0.5
100
AcDbLine
 10
-60.61172779203315
 20
1.432929989897998
 30
0.0
 11
-70.01354511381311
 21
8.020538327300004
 31
0.0
  0
LINE
  5
A41C
330
1F
100
AcDbEntity
  8
AM_0
 48
0.5
100
AcDbLine
 10
-70.66147144438315
 20
12.70383453091401
 30
0.0
 11
-60.0620756924232
 21
17.64253234585499
 31
0.0
  0
LINE
  5
A41D
330
1F
100
AcDbEntity
  8
AM_0
 48
0.5
100
AcDbLine
 10
-73.75005634428323
 20
0.496932980621013
 30
0.0
 11
-60.69475849272322
 21
0.4969329806210113
 31
0.0
  0
LINE
  5
A41E
330
1F
100
AcDbEntity
  8
AM_0
 48
0.5
100
AcDbLine
 10
-59.04827411772322
 20
0.3620300265190082
 30
0.0
 11
-70.02047260405316
 21
8.049728390777005
 31
0.0
  0
LINE
  5
A41F
330
1F
100
AcDbEntity
  8
AM_0
 48
0.5
100
AcDbLine
 10
-72.20585926176323
 20
11.97546386441
 30
0.0
 11
-60.0492659390132
 21
17.63966369351102
 31
0.0
  0
LINE
  5
A420
330
1F
100
AcDbEntity
  8
AM_7
 48
0.5
100
AcDbLine
 10
-57.27959735990322
 20
9.960456845367005
 30
0.0
 11
-67.27959735990322
 21
9.960456845367007
 31
0.0
  0
LINE
  5
A421
330
1F
100
AcDbEntity
  8
AM_0
 48
0.5
100
AcDbLine
 10
-77.25004871489324
 20
4.995277402007007
 30
0.0
 11
-65.69589527250315
 21
4.995277402007006
 31
0.0
  0
LINE
  5
A422
330
1F
100
AcDbEntity
  8
AM_0
 48
0.5
100
AcDbLine
 10
-77.2500639736732
 20
3.996940610015004
 30
0.0
 11
-73.75005634428323
 21
0.496932980621013
 31
0.0
  0
LINE
  5
A423
330
1F
100
AcDbEntity
  8
AM_0
 48
0.5
100
AcDbLine
 10
-71.01463611723312
 20
8.721923825347005
 30
0.0
 11
-73.39113910795315
 21
8.92982482632401
 31
0.0
  0
LINE
  5
A424
330
1F
100
AcDbEntity
  8
AM_0
 48
0.5
100
AcDbLine
 10
-70.66145618559318
 20
12.703849789703
 30
0.0
 11
-73.03795154692313
 21
12.91175079067901
 31
0.0
  0
LINE
  5
A425
330
1F
100
AcDbEntity
  8
AM_0
 48
0.5
100
AcDbLine
 10
-72.89396198393314
 20
12.73992156704601
 30
0.0
 11
-71.51306446196321
 21
12.619125363433
 31
0.0
  0
LINE
  5
A426
330
1F
100
AcDbEntity
  8
AM_0
 48
0.5
100
AcDbLine
 10
-73.21776111723313
 20
10.53314971646
 30
0.0
 11
-71.34905536772321
 21
9.871238705718001
 31
0.0
  0
LINE
  5
A427
330
1F
100
AcDbEntity
  8
AM_0
 48
0.5
100
AcDbLine
 10
-73.08676441313315
 20
10.43393706997601
 30
0.0
 11
-71.29124744535312
 21
9.802330014312007
 31
0.0
  0
ARC
  5
A428
330
1F
100
AcDbEntity
  8
AM_0
 48
0.5
100
AcDbCircle
 10
-73.21456440092315
 20
10.920730588042
 30
0.0
 40
1.9999824762344
100
AcDbArc
 50
84.93117568744231
 51
219.9676902203647
  0
ARC
  5
A429
330
1F
100
AcDbEntity
  8
AM_0
 48
0.5
100
AcDbCircle
 10
-73.07055194975311
 20
10.748931881988
 30
0.0
 40
2.000024318695099
100
AcDbArc
 50
84.93117568744231
 51
216.7512858383117
  0
ARC
  5
A42A
330
1F
100
AcDbEntity
  8
AM_0
 48
0.5
100
AcDbCircle
 10
-73.21456440092315
 20
10.920730588042
 30
0.0
 40
1.998717188835098
100
AcDbArc
 50
219.9676938628293
 51
264.9309247916741
  0
LINE
  5
A42B
330
1F
100
AcDbEntity
  8
AM_0
 48
0.5
100
AcDbLine
 10
-73.21775348783312
 20
10.533126828277
 30
0.0
 11
-72.20585926176323
 21
11.975418088042
 31
0.0
  0
LINE
  5
A42C
330
1F
100
AcDbEntity
  8
AM_0
 48
0.5
100
AcDbLine
 10
-73.40699298979321
 20
10.595130917632
 30
0.0
 11
-72.54288776518314
 21
11.826736447417
 31
0.0
  0
LINE
  5
A42D
330
1F
100
AcDbEntity
  8
AM_0
 48
0.5
100
AcDbLine
 10
-73.30155475737313
 20
10.51502990444901
 30
0.0
 11
-73.40655811430321
 21
10.59452819546401
 31
0.0
  0
LINE
  5
A42E
330
1F
100
AcDbEntity
  8
AM_0
 48
0.5
100
AcDbLine
 10
-72.25394733549315
 20
12.02680206021
 30
0.0
 11
-72.54085071684318
 21
11.82840728481999
 31
0.0
  0
LINE
  5
A42F
330
1F
100
AcDbEntity
  8
AM_0
 48
0.5
100
AcDbLine
 10
-72.89395435453315
 20
12.73994445523
 30
0.0
 11
-73.03795154692313
 21
12.911743161285
 31
0.0
  0
ARC
  5
A430
330
1F
100
AcDbEntity
  8
AM_0
 48
0.5
100
AcDbCircle
 10
-72.01854999662311
 20
7.987335202300004
 30
0.0
 40
1.9993273019791
100
AcDbArc
 50
39.96769545669539
 51
70.43581355156648
  0
ARC
  5
A431
330
1F
100
AcDbEntity
  8
AM_0
 48
0.5
100
AcDbCircle
 10
-72.01854999662311
 20
7.987335202300004
 30
0.0
 40
1.9999824762344
100
AcDbArc
 50
1.788748956944585
 51
39.96769545669539
  0
ARC
  5
A432
330
1F
100
AcDbEntity
  8
AM_0
 48
0.5
100
AcDbCircle
 10
-71.95775898100311
 20
7.914733883941011
 30
0.0
 40
2.001813173294098
100
AcDbArc
 50
42.06194073924643
 51
70.5521863146498
  0
LINE
  5
A433
330
1F
100
AcDbEntity
  8
AM_0
 48
0.5
100
AcDbLine
 10
-70.01356037260319
 20
8.020530697906012
 30
0.0
 11
-71.01467426420318
 21
8.721931454742005
 31
0.0
  0
LINE
  5
A434
330
1F
100
AcDbEntity
  8
AM_0
 48
0.5
100
AcDbLine
 10
-71.29123981596314
 20
9.802322384917006
 30
0.0
 11
-71.34904010893314
 21
9.871223446929008
 31
0.0
  0
LINE
  5
A435
330
1F
100
AcDbEntity
  8
AM_0
 48
0.5
100
AcDbLine
 10
-71.56035144926324
 20
12.675628659332
 30
0.0
 11
-71.51305683256309
 21
12.619125363433
 31
0.0
  0
LINE
  5
A436
330
1F
100
AcDbEntity
  8
AM_0
 48
0.5
100
AcDbLine
 10
-71.51303394438315
 20
12.619140622222
 30
0.0
 11
-71.41833789946321
 21
12.663246152007
 31
0.0
  0
LINE
  5
A437
330
1F
100
AcDbEntity
  8
AM_0
 48
0.5
100
AcDbLine
 10
-71.56033619047315
 20
12.675628659332
 30
0.0
 11
-71.09782703520323
 21
12.635124203765
 31
0.0
  0
LINE
  5
A438
330
1F
100
AcDbEntity
  8
AM_0
 48
0.5
100
AcDbLine
 10
-71.09784229399321
 20
12.635124203765
 30
0.0
 11
-70.88095386625315
 21
12.66932677944901
 31
0.0
  0
LINE
  5
A439
330
1F
100
AcDbEntity
  8
AM_0
 48
0.5
100
AcDbLine
 10
-70.88094623686315
 20
12.669334408843
 30
0.0
 11
-70.66144855619319
 21
12.703842160308
 31
0.0
  0
LINE
  5
A43A
330
1F
100
AcDbEntity
  8
AM_0
 48
0.5
100
AcDbLine
 10
-71.84624775053322
 20
12.224037167632
 30
0.0
 11
-70.88094623686315
 21
12.669334408843
 31
0.0
  0
ARC
  5
A43B
330
1F
100
AcDbEntity
  8
AM_0
 48
0.5
100
AcDbCircle
 10
-52.88249500395318
 20
11.27184295376499
 30
0.0
 40
4.467604637145998
100
AcDbArc
 50
265.0016650609095
 51
322.6581707697173
  0
LINE
  5
A43C
330
1F
100
AcDbEntity
  8
AM_0
 48
0.5
100
AcDbLine
 10
-55.67659290434317
 20
7.031555173002998
 30
0.0
 11
-56.09604175688314
 21
4.196937558257005
 31
0.0
  0
LINE
  5
A43D
330
1F
100
AcDbEntity
  8
AM_0
 48
0.5
100
AcDbLine
 10
-55.55385883451315
 20
17.57312774380401
 30
0.0
 11
-56.73836048246318
 21
4.221122738921009
 31
0.0
  0
LINE
  5
A43E
330
1F
100
AcDbEntity
  8
AM_0
 48
0.5
100
AcDbLine
 10
-56.02493579985314
 20
7.06202697476101
 30
0.0
 11
-56.27446277739313
 21
4.249633786285001
 31
0.0
  0
LINE
  5
A43F
330
1F
100
AcDbEntity
  8
AM_0
 48
0.5
100
AcDbLine
 10
-56.24283972791502
 20
4.211943293561475
 30
0.0
 11
-55.99022205473311
 21
7.058982846342999
 31
0.0
  0
LINE
  5
A440
330
1F
100
AcDbEntity
  8
AM_7
 48
0.5
100
AcDbLine
 10
-62.27959735990322
 20
4.960456845367006
 30
0.0
 11
-62.27959735990322
 21
14.960456845367
 31
0.0
  0
LINE
  5
A441
330
1F
100
AcDbEntity
  8
AM_0
 48
0.5
100
AcDbLine
 10
-60.69474323393315
 20
0.4969329806210113
 30
0.0
 11
-60.61174305082311
 21
1.432937619292005
 31
0.0
  0
LINE
  5
A442
330
1F
100
AcDbEntity
  8
AM_0
 48
0.5
100
AcDbLine
 10
-60.66395099760319
 20
0.4969329806210113
 30
0.0
 11
-60.59234912992319
 21
1.315132138335002
 31
0.0
  0
LINE
  5
A443
330
1F
100
AcDbEntity
  8
AM_0
 48
0.5
100
AcDbLine
 10
-57.29414661528318
 20
0.2085342379450024
 30
0.0
 11
-57.65323932768314
 21
2.158126828277005
 31
0.0
  0
LINE
  5
A446
330
1F
100
AcDbEntity
  8
AM_0
 48
0.5
100
AcDbLine
 10
-60.66395099760319
 20
0.4969329806210113
 30
0.0
 11
-60.69475849272322
 21
0.4969329806210113
 31
0.0
  0
LINE
  5
A448
330
1F
100
AcDbEntity
  8
AM_0
 48
0.5
100
AcDbLine
 10
-57.25004108549313
 20
-0.003089907562995
 30
0.0
 11
-58.74856668485003
 21
0.1280215594675765
 31
0.0
  0
LINE
  5
A449
330
1F
100
AcDbEntity
  8
AM_0
 48
0.5
100
AcDbLine
 10
-57.21003254057318
 20
-0.0063629178170007
 30
0.0
 11
-57.25002582670318
 21
-0.0030670193789891
 31
0.0
  0
LINE
  5
A44A
330
1F
100
AcDbEntity
  8
AM_0
 48
0.5
100
AcDbLine
 10
-58.75036542384973
 20
0.1281983007704993
 30
0.0
 11
-58.75078113676313
 21
0.1282348605029994
 31
0.0
  0
LINE
  5
A44B
330
1F
100
AcDbEntity
  8
AM_0
 48
0.5
100
AcDbLine
 10
-60.59236438871318
 20
1.315132138335002
 30
0.0
 11
-60.61175830961321
 21
1.432929989897998
 31
0.0
  0
ARC
  5
A44C
330
1F
100
AcDbEntity
  8
AM_0
 48
0.5
100
AcDbCircle
 10
-55.68725116850311
 20
2.522323605621003
 30
0.0
 40
1.9994493722916
100
AcDbArc
 50
121.7463597666728
 51
190.4950278007891
  0
LINE
  5
A44F
330
1F
100
AcDbEntity
  8
AM_0
 48
0.5
100
AcDbLine
 10
-56.0960646450631
 20
4.196929928862998
 30
0.0
 11
-56.24283972791502
 21
4.211943293561475
 31
0.0
  0
LINE
  5
A451
330
1F
100
AcDbEntity
  8
AM_0
 48
0.5
100
AcDbLine
 10
-56.24285419584322
 20
4.211944577300001
 30
0.0
 11
-56.27443988920315
 21
4.249641415679007
 31
0.0
  0
LINE
  5
A452
330
1F
100
AcDbEntity
  8
AM_0
 48
0.5
100
AcDbLine
 10
-53.27579029203315
 20
6.821586606109006
 30
0.0
 11
-56.05934436918317
 21
7.065032956207004
 31
0.0
  0
LINE
  5
A454
330
1F
100
AcDbEntity
  8
AM_0
 48
0.5
100
AcDbLine
 10
-56.05935199858318
 20
7.065032956207004
 30
0.0
 11
-55.72522266508321
 21
11.66507720669499
 31
0.0
  0
ARC
  5
A463
330
1F
100
AcDbEntity
  8
AM_0
 48
0.5
100
AcDbCircle
 10
-59.10225971342317
 20
19.40083312710499
 30
0.0
 40
1.997533798217799
100
AcDbArc
 50
241.7330068984245
 51
310.4662694408673
  0
ARC
  5
A464
330
1F
100
AcDbEntity
  8
AM_0
 48
0.5
100
AcDbCircle
 10
-54.30057056547314
 20
16.47256469448798
 30
0.0
 40
5.232038021087599
100
AcDbArc
 50
285.0999338257783
 51
354.9308564329394
  0
LINE
  5
A465
330
1F
100
AcDbEntity
  8
AM_0
 48
0.5
100
AcDbLine
 10
-48.68575580717815
 20
15.83164214810099
 30
0.0
 11
-49.33061512114318
 21
8.561935422027001
 31
0.0
  0
LINE
  5
A466
330
1F
100
AcDbEntity
  8
AM_0
 48
0.5
100
AcDbLine
 10
-55.72522266508321
 20
11.665046689117
 30
0.0
 11
-55.55791767240322
 21
12.92675018032799
 31
0.0
  0
LINE
  5
A467
330
1F
100
AcDbEntity
  8
AM_0
 48
0.5
100
AcDbLine
 10
-52.93760975004317
 20
11.42117309292499
 30
0.0
 11
-55.72521503569311
 21
11.66507720669499
 31
0.0
  0
LINE
  5
A468
330
1F
100
AcDbEntity
  8
AM_0
 48
0.5
100
AcDbLine
 10
-52.93761737944317
 20
11.42118072231999
 30
0.0
 11
-53.27175434233318
 21
6.821228024566009
 31
0.0
  0
LINE
  5
A469
330
1F
100
AcDbEntity
  8
AM_0
 48
0.5
100
AcDbLine
 10
-55.55789478422314
 20
12.926765439117
 30
0.0
 11
-53.93890674711321
 21
13.74235534390199
 31
0.0
  0
LINE
  5
A46C
330
1F
100
AcDbEntity
  8
AM_0
 48
0.5
100
AcDbLine
 10
24.40672580598084
 20
-60.04078197757002
 30
0.0
 11
11.99995509980378
 21
-61.10073375979701
 31
0.0
  0
LINE
  5
A46E
330
1F
100
AcDbEntity
  8
AM_0
 48
0.5
100
AcDbLine
 10
2.872937124950843
 20
-61.04404163638401
 30
0.0
 11
0.7246369540518384
 21
-60.677242281831
 31
0.0
  0
LINE
  5
A46F
330
1F
100
AcDbEntity
  8
AM_0
 48
0.5
100
AcDbLine
 10
1.795948904735829
 20
-62.21470737735099
 30
0.0
 11
0.1980523288078113
 21
-62.254708292878
 31
0.0
  0
LINE
  5
A470
330
1F
100
AcDbEntity
  8
AM_0
 48
0.5
100
AcDbLine
 10
1.731347006542811
 20
-64.04885196963601
 30
0.0
 11
0.2504471957518526
 21
-63.755452158845
 31
0.0
  0
LINE
  5
A471
330
1F
100
AcDbEntity
  8
AM_0
 48
0.5
100
AcDbLine
 10
3.661053580028855
 20
-70.09562158862332
 30
0.0
 11
1.199955862743811
 21
-69.6686201123355
 31
0.0
  0
LINE
  5
A472
330
1F
100
AcDbEntity
  8
AM_0
 48
0.5
100
AcDbLine
 10
0.250443381053791
 20
-63.75543976107899
 30
0.0
 11
0.1980446994138484
 21
-62.254736903107
 31
0.0
  0
LINE
  5
A473
330
1F
100
AcDbEntity
  8
AM_0
 48
0.5
100
AcDbLine
 10
0.0608452975578111
 20
-64.04063034335401
 30
0.0
 11
-0.0000563442872097
 21
-62.29732418338101
 31
0.0
  0
LINE
  5
A474
330
1F
100
AcDbEntity
  8
AM_0
 48
0.5
100
AcDbLine
 10
0.0614480197258367
 20
-64.05295181552201
 30
0.0
 11
0.5123490512198058
 21
-71.8210499314425
 31
0.0
  0
LINE
  5
A475
330
1F
100
AcDbEntity
  8
AM_0
 48
0.5
100
AcDbLine
 10
1.199948233348825
 20
-65.6686258343814
 30
0.0
 11
0.3187417208978251
 21
-65.699425700104
 31
0.0
  0
LINE
  5
A476
330
1F
100
AcDbEntity
  8
AM_0
 48
0.5
100
AcDbLine
 10
0.3187569796868308
 20
-65.69943714419583
 30
0.0
 11
0.3514565646478251
 21
-65.61644268313632
 31
0.0
  0
LINE
  5
A477
330
1F
100
AcDbEntity
  8
AM_0
 48
0.5
100
AcDbLine
 10
1.199948233348825
 20
-65.66862106600979
 30
0.0
 11
1.199948233348825
 21
-65.59702682772851
 31
0.0
  0
LINE
  5
A478
330
1F
100
AcDbEntity
  8
AM_0
 48
0.5
100
AcDbLine
 10
1.199952048046831
 20
-65.59703254977441
 30
0.0
 11
0.3514489352538054
 21
-65.61643028537011
 31
0.0
  0
LINE
  5
A479
330
1F
100
AcDbEntity
  8
AM_0
 48
0.5
100
AcDbLine
 10
0.627243918163849
 20
-57.88964271823201
 30
0.0
 11
0.7246445834468244
 21
-60.677225115693
 31
0.0
  0
LINE
  5
A47A
330
1F
100
AcDbEntity
  8
AM_0
 48
0.5
100
AcDbLine
 10
0.600254935008813
 20
-60.558533671296
 30
0.0
 11
0.1339539706538555
 21
-61.743034365571
 31
0.0
  0
LINE
  5
A47B
330
1F
100
AcDbEntity
  8
AM_0
 48
0.5
100
AcDbLine
 10
1.795945090038848
 20
-62.21474743167201
 30
0.0
 11
1.731347006542811
 21
-64.04884624758999
 31
0.0
  0
LINE
  5
A47C
330
1F
100
AcDbEntity
  8
AM_0
 48
0.5
100
AcDbLine
 10
1.994248312694813
 20
-62.24739170352201
 30
0.0
 11
1.918145102245821
 21
-64.40851307193101
 31
0.0
  0
LINE
  5
A47D
330
1F
100
AcDbEntity
  8
AM_0
 48
0.5
100
AcDbLine
 10
2.642346304637832
 20
-61.81510544101
 30
0.0
 11
2.394444388133811
 21
-69.60541343966702
 31
0.0
  0
LINE
  5
A47E
330
1F
100
AcDbEntity
  8
AM_0
 48
0.5
100
AcDbLine
 10
5.176743429882823
 20
-70.533738615906
 30
0.0
 11
4.886345785839799
 21
-61.349149706757
 31
0.0
  0
LINE
  5
A47F
330
1F
100
AcDbEntity
  8
AM_0
 48
0.5
100
AcDbLine
 10
1.917550009471815
 20
-64.42071342746001
 30
0.0
 11
1.621548575145815
 21
-69.43690538684112
 31
0.0
  0
LINE
  5
A480
330
1F
100
AcDbEntity
  8
AM_0
 48
0.5
100
AcDbLine
 10
2.394455832225836
 20
-69.6054124859927
 30
0.0
 11
1.621552389842852
 21
-69.43691349307281
 31
0.0
  0
LINE
  5
A481
330
1F
100
AcDbEntity
  8
AM_0
 48
0.5
100
AcDbLine
 10
4.163048666698832
 20
-70.15863657275421
 30
0.0
 11
2.384751242382824
 21
-69.7699384717105
 31
0.0
  0
LINE
  5
A482
330
1F
100
AcDbEntity
  8
AM_0
 48
0.5
100
AcDbLine
 10
5.167046469432809
 20
-70.22672272006253
 30
0.0
 11
4.163044852001851
 21
-70.15862274447662
 31
0.0
  0
LINE
  5
A483
330
1F
100
AcDbEntity
  8
AM_0
 48
0.5
100
AcDbLine
 10
4.183552664501851
 20
-70.51169348040801
 30
0.0
 11
4.163052481395814
 21
-70.1586046246646
 31
0.0
  0
LINE
  5
A484
330
1F
100
AcDbEntity
  8
AM_0
 48
0.5
100
AcDbLine
 10
2.394444388133811
 20
-69.60539722720361
 30
0.0
 11
2.384743612987838
 21
-69.7699065236209
 31
0.0
  0
LINE
  5
A485
330
1F
100
AcDbEntity
  8
AM_0
 48
0.5
100
AcDbLine
 10
3.673848074657818
 20
-70.50041008273344
 30
0.0
 11
3.661049765331815
 21
-70.09561348239159
 31
0.0
  0
LINE
  5
A486
330
1F
100
AcDbEntity
  8
AM_0
 48
0.5
100
AcDbLine
 10
3.673848074657818
 20
-70.50041771212803
 30
0.0
 11
5.176751059276787
 21
-70.53371620455959
 31
0.0
  0
LINE
  5
A487
330
1F
100
AcDbEntity
  8
AM_0
 48
0.5
100
AcDbLine
 10
3.684647482616801
 20
-70.5006251362918
 30
0.0
 11
3.661049765331815
 21
-70.0956263569949
 31
0.0
  0
LINE
  5
A488
330
1F
100
AcDbEntity
  8
AM_0
 48
0.5
100
AcDbLine
 10
6.404152792674827
 20
-59.38195038119602
 30
0.0
 11
14.55104534028281
 21
-58.99844742099102
 31
0.0
  0
LINE
  5
A489
330
1F
100
AcDbEntity
  8
AM_0
 48
0.5
100
AcDbLine
 10
9.216740530712788
 20
-54.76203728000001
 30
0.0
 11
14.39464275239179
 21
-54.518234255708
 31
0.0
  0
LINE
  5
A48A
330
1F
100
AcDbEntity
  8
AM_0
 48
0.5
100
AcDbLine
 10
5.738251608592856
 20
-54.16811943332001
 30
0.0
 11
9.86494533417879
 21
-53.74492073336901
 31
0.0
  0
LINE
  5
A48B
330
1F
100
AcDbEntity
  8
AM_0
 48
0.5
100
AcDbLine
 10
11.99994747040982
 20
-61.10074711123701
 30
0.0
 11
4.886345785839799
 21
-61.349144938386
 31
0.0
  0
LINE
  5
A48C
330
1F
100
AcDbEntity
  8
AM_0
 48
0.5
100
AcDbLine
 10
6.40413371918884
 20
-59.38193321505801
 30
0.0
 11
4.92053310273382
 21
-60.947637560761
 31
0.0
  0
LINE
  5
A48D
330
1F
100
AcDbEntity
  8
AM_0
 48
0.5
100
AcDbLine
 10
4.920548361522826
 20
-60.94762230197201
 30
0.0
 11
3.998249930126852
 21
-60.991022112763
 31
0.0
  0
LINE
  5
A48E
330
1F
100
AcDbEntity
  8
AM_0
 48
0.5
100
AcDbLine
 10
3.998238486034828
 20
-60.99104786196999
 30
0.0
 11
2.872937124950843
 21
-61.04404545108099
 31
0.0
  0
LINE
  5
A48F
330
1F
100
AcDbEntity
  8
AM_0
 48
0.5
100
AcDbLine
 10
2.775547903758812
 20
-58.25643539706501
 30
0.0
 11
2.872948569042811
 21
-61.044032099641
 31
0.0
  0
LINE
  5
A490
330
1F
100
AcDbEntity
  8
AM_0
 48
0.5
100
AcDbLine
 10
4.88684169648382
 20
-61.34781074801701
 30
0.0
 11
4.88374416230379
 21
-61.24750137606901
 31
0.0
  0
LINE
  5
A491
330
1F
100
AcDbEntity
  8
AM_0
 48
0.5
100
AcDbLine
 10
4.883755606395816
 20
-61.24752807895
 30
0.0
 11
3.884949606639842
 21
-61.27912521640102
 31
0.0
  0
LINE
  5
A492
330
1F
100
AcDbEntity
  8
AM_0
 48
0.5
100
AcDbLine
 10
3.998253744823833
 20
-60.99102783480901
 30
0.0
 11
3.884953421337789
 21
-61.27912044802901
 31
0.0
  0
LINE
  5
A493
330
1F
100
AcDbEntity
  8
AM_0
 48
0.5
100
AcDbLine
 10
4.88374416230379
 20
-61.24753761569301
 30
0.0
 11
5.059445303661838
 21
-60.80103588382001
 31
0.0
  0
LINE
  5
A494
330
1F
100
AcDbEntity
  8
AM_0
 48
0.5
100
AcDbLine
 10
5.085255545360829
 20
-60.77381897250401
 30
0.0
 11
5.090752524120823
 21
-60.829916003144
 31
0.0
  0
LINE
  5
A495
330
1F
100
AcDbEntity
  8
AM_0
 48
0.5
100
AcDbLine
 10
1.7884568393058
 20
-60.85891533175701
 30
0.0
 11
1.618946951610829
 21
-60.98862171450901
 31
0.0
  0
LINE
  5
A496
330
1F
100
AcDbEntity
  8
AM_0
 48
0.5
100
AcDbLine
 10
2.209042471630815
 20
-60.93072510043402
 30
0.0
 11
1.618943136913848
 21
-60.98862457553201
 31
0.0
  0
LINE
  5
A497
330
1F
100
AcDbEntity
  8
AM_0
 48
0.5
100
AcDbLine
 10
4.886357229930801
 20
-61.349119189179
 30
0.0
 11
4.886856955272826
 21
-61.34782409945801
 31
0.0
  0
LINE
  5
A498
330
1F
100
AcDbEntity
  8
AM_0
 48
0.5
100
AcDbLine
 10
4.88684169648382
 20
-61.34783649722399
 30
0.0
 11
5.090741080028856
 21
-60.82993316928201
 31
0.0
  0
LINE
  5
A499
330
1F
100
AcDbEntity
  8
AM_0
 48
0.5
100
AcDbLine
 10
5.090725821239792
 20
-60.82991791049301
 30
0.0
 11
5.132435721141795
 21
-60.72400284091301
 31
0.0
  0
LINE
  5
A49A
330
1F
100
AcDbEntity
  8
AM_0
 48
0.5
100
AcDbLine
 10
7.767952841503804
 20
-60.40811729708901
 30
0.0
 11
7.729954642040801
 21
-59.319523814118
 31
0.0
  0
LINE
  5
A49B
330
1F
100
AcDbEntity
  8
AM_0
 48
0.5
100
AcDbLine
 10
7.736248892528855
 20
-59.498319628632
 30
0.0
 11
6.245655935985831
 21
-59.54921913424801
 31
0.0
  0
LINE
  5
A49C
330
1F
100
AcDbEntity
  8
AM_0
 48
0.5
100
AcDbLine
 10
5.738236349803791
 20
-54.16814995089801
 30
0.0
 11
9.216732901317804
 21
-54.76205063144
 31
0.0
  0
LINE
  5
A49D
330
1F
100
AcDbEntity
  8
AM_0
 48
0.5
100
AcDbLine
 10
14.39465801118079
 20
-54.518232348359
 30
0.0
 11
14.55105678437478
 21
-58.99841499606401
 31
0.0
  0
LINE
  5
A49E
330
1F
100
AcDbEntity
  8
AM_0
 48
0.5
100
AcDbLine
 10
14.77175609467683
 20
-53.816719057954
 30
0.0
 11
12.46515743134681
 21
-53.88971710482899
 31
0.0
  0
LINE
  5
A49F
330
1F
100
AcDbEntity
  8
AM_0
 48
0.5
100
AcDbLine
 10
14.63264934418884
 20
-54.16992569247501
 30
0.0
 11
12.32605068085881
 21
-54.24292755404701
 31
0.0
  0
LINE
  5
A4A0
330
1F
100
AcDbEntity
  8
AM_0
 48
0.5
100
AcDbLine
 10
12.46514980195279
 20
-53.88971901217701
 30
0.0
 11
12.4772462069818
 21
-54.23810959140102
 31
0.0
  0
LINE
  5
A4A1
330
1F
100
AcDbEntity
  8
AM_0
 48
0.5
100
AcDbLine
 10
12.46514598725581
 20
-53.88974952975501
 30
0.0
 11
11.24224941132779
 21
-54.10275078097601
 31
0.0
  0
LINE
  5
A4A2
330
1F
100
AcDbEntity
  8
AM_0
 48
0.5
100
AcDbLine
 10
11.24224941132779
 20
-54.102729800141
 30
0.0
 11
12.32604686616183
 21
-54.242931368745
 31
0.0
  0
LINE
  5
A4A3
330
1F
100
AcDbEntity
  8
AM_0
 48
0.5
100
AcDbLine
 10
14.77172176240178
 20
-53.81671142855902
 30
0.0
 11
14.78312389252885
 21
-54.143720629609
 31
0.0
  0
LINE
  5
A4A4
330
1F
100
AcDbEntity
  8
AM_0
 48
0.5
100
AcDbLine
 10
14.63263790009681
 20
-54.169918063081
 30
0.0
 11
15.85554973481383
 21
-53.956918719208
 31
0.0
  0
LINE
  5
A4A5
330
1F
100
AcDbEntity
  8
AM_0
 48
0.5
100
AcDbLine
 10
15.85554210541982
 20
-53.95693970004301
 30
0.0
 11
14.77173702119085
 21
-53.81673813144001
 31
0.0
  0
LINE
  5
A4A6
330
1F
100
AcDbEntity
  8
AM_0
 48
0.5
100
AcDbLine
 10
19.97293369172284
 20
-55.77214622775301
 30
0.0
 11
20.1316346347168
 21
-60.31774044314601
 31
0.0
  0
LINE
  5
A4A7
330
1F
100
AcDbEntity
  8
AM_0
 48
0.5
100
AcDbLine
 10
21.14592639802179
 20
-56.046215060151
 30
0.0
 11
21.28752605317385
 21
-60.10201835910101
 31
0.0
  0
LINE
  5
A4A8
330
1F
100
AcDbEntity
  8
AM_0
 48
0.5
100
AcDbLine
 10
19.54526798127379
 20
-53.820440295136
 30
0.0
 11
19.77386562226485
 21
-60.36722374240202
 31
0.0
  0
LINE
  5
A4A9
330
1F
100
AcDbEntity
  8
AM_0
 48
0.5
100
AcDbLine
 10
21.25794498322681
 20
-59.25472641268999
 30
0.0
 11
24.19610301850581
 21
-59.25472641269002
 31
0.0
  0
LINE
  5
A4AA
330
1F
100
AcDbEntity
  8
AM_0
 48
0.5
100
AcDbLine
 10
24.99994937775879
 20
-62.25472641269002
 30
0.0
 11
24.19610301850581
 21
-59.25472545901603
 31
0.0
  0
LINE
  5
A4AB
330
1F
100
AcDbEntity
  8
AM_0
 48
0.5
100
AcDbLine
 10
19.97294132111783
 20
-55.772134783662
 30
0.0
 11
19.61064617036082
 21
-55.693834307587
 31
0.0
  0
ARC
  5
A4AC
330
1F
100
AcDbEntity
  8
AM_0
 48
0.5
100
AcDbCircle
 10
12.84474651215782
 20
15.85292052944899
 30
0.0
 40
5.999985218048099
100
AcDbArc
 50
288.1299696661312
 51
348.2411437635851
  0
ARC
  5
A4AD
330
1F
100
AcDbEntity
  8
AM_0
 48
0.5
100
AcDbCircle
 10
17.86261455414984
 20
12.90244292935099
 30
0.0
 40
1.9984176158905
100
AcDbArc
 50
234.4774608676571
 51
323.0189140409251
  0
ARC
  5
A4AE
330
1F
100
AcDbEntity
  8
AM_0
 48
0.5
100
AcDbCircle
 10
17.83011333344683
 20
12.74634551724199
 30
0.0
 40
1.9984176158905
100
AcDbArc
 50
231.6151471525623
 51
323.0189140409251
  0
LINE
  5
A4AF
330
1F
100
AcDbEntity
  8
AM_0
 48
0.5
100
AcDbLine
 10
4.886197012645824
 20
4.193679806791989
 30
0.0
 11
24.24926463959883
 21
4.193679806791987
 31
0.0
  0
LINE
  5
A4B4
330
1F
100
AcDbEntity
  8
AM_0
 48
0.5
100
AcDbLine
 10
0.5586823642088362
 20
11.67825317104998
 30
0.0
 11
1.946698111278864
 21
13.20416259487798
 31
0.0
  0
LINE
  5
A4B5
330
1F
100
AcDbEntity
  8
AM_0
 48
0.5
100
AcDbLine
 10
2.270459097606819
 20
17.54022979458498
 30
0.0
 11
0.8191613375968266
 21
17.93043517788598
 31
0.0
  0
LINE
  5
A4B6
330
1F
100
AcDbEntity
  8
AM_0
 48
0.5
100
AcDbLine
 10
1.793911645768615
 20
-0.00636632936606
 30
0.0
 11
0.1993981073990767
 21
-0.0030774403518381
 31
0.0
  0
LINE
  5
A4B7
330
1F
100
AcDbEntity
  8
AM_0
 48
0.5
100
AcDbLine
 10
1.911473196727854
 20
2.089233395659987
 30
0.0
 11
0.0850571811028547
 21
2.158134457670995
 31
0.0
  0
LINE
  5
A4B8
330
1F
100
AcDbEntity
  8
AM_0
 48
0.5
100
AcDbLine
 10
0.600258749706827
 20
17.57314300259298
 30
0.0
 11
0.133938711864801
 21
4.220642087065995
 31
0.0
  0
LINE
  5
A4B9
330
1F
100
AcDbEntity
  8
AM_0
 48
0.5
100
AcDbLine
 10
0.0000000000000001
 20
0.2056233556105196
 30
0.0
 11
0.0850266635248434
 21
2.158134457670995
 31
0.0
  0
LINE
  5
A4BA
330
1F
100
AcDbEntity
  8
AM_0
 48
0.5
100
AcDbLine
 10
0.5051278292968405
 20
11.42116546353099
 30
0.0
 11
0.5587014376948235
 21
11.67828368862798
 31
0.0
  0
LINE
  5
A4BB
330
1F
100
AcDbEntity
  8
AM_0
 48
0.5
100
AcDbLine
 10
4.886834067089807
 20
4.211936947905995
 30
0.0
 11
4.990147513133821
 21
7.169456479155995
 31
0.0
  0
LINE
  5
A4BC
330
1F
100
AcDbEntity
  8
AM_0
 48
0.5
100
AcDbLine
 10
3.97841731904282
 20
6.926795956694985
 30
0.0
 11
3.88496868012686
 21
4.249641415678992
 31
0.0
  0
LINE
  5
A4BD
330
1F
100
AcDbEntity
  8
AM_0
 48
0.5
100
AcDbLine
 10
4.883732718212797
 20
4.211936947905995
 30
0.0
 11
4.986939352733828
 21
7.168632504545994
 31
0.0
  0
LINE
  5
A4BE
330
1F
100
AcDbEntity
  8
AM_0
 48
0.5
100
AcDbLine
 10
2.000000373244801
 20
0.2023900796430663
 30
0.0
 11
1.917306864452825
 21
2.089241025053992
 31
0.0
  0
LINE
  5
A4BF
330
1F
100
AcDbEntity
  8
AM_0
 48
0.5
100
AcDbLine
 10
4.886345785839807
 20
4.196937558256989
 30
0.0
 11
4.886849325878814
 21
4.211936947905995
 31
0.0
  0
LINE
  5
A4C0
330
1F
100
AcDbEntity
  8
AM_0
 48
0.5
100
AcDbLine
 10
4.695553702098834
 20
4.196929928862983
 30
0.0
 11
4.886349600536846
 21
4.196929928862983
 31
0.0
  0
LINE
  5
A4C1
330
1F
100
AcDbEntity
  8
AM_0
 48
0.5
100
AcDbLine
 10
4.883751791698841
 20
4.211944577299987
 30
0.0
 11
3.88494960663985
 21
4.249649045073993
 31
0.0
  0
LINE
  5
A4C2
330
1F
100
AcDbEntity
  8
AM_0
 48
0.5
100
AcDbLine
 10
2.394455832225844
 20
4.00553130825699
 30
0.0
 11
1.861149710399843
 21
3.988731381499988
 31
0.0
  0
LINE
  5
A4C3
330
1F
100
AcDbEntity
  8
AM_0
 48
0.5
100
AcDbLine
 10
2.64233867524382
 20
4.022842404448994
 30
0.0
 11
2.3944367587398
 21
4.005538937651991
 31
0.0
  0
LINE
  5
A4C4
330
1F
100
AcDbEntity
  8
AM_0
 48
0.5
100
AcDbLine
 10
4.163052481395824
 20
4.179832455717984
 30
0.0
 11
2.643345755321831
 21
4.131431576811991
 31
0.0
  0
LINE
  5
A4C5
330
1F
100
AcDbEntity
  8
AM_0
 48
0.5
100
AcDbLine
 10
4.886540335399844
 20
4.203025815092984
 30
0.0
 11
4.163052481395824
 21
4.179824826323993
 31
0.0
  0
LINE
  5
A4C6
330
1F
100
AcDbEntity
  8
AM_0
 48
0.5
100
AcDbLine
 10
4.886853140575852
 20
4.211929318510994
 30
0.0
 11
4.883740347606817
 21
4.211929318510994
 31
0.0
  0
LINE
  5
A4C7
330
1F
100
AcDbEntity
  8
AM_0
 48
0.5
100
AcDbLine
 10
4.885781210643814
 20
16.01026153286699
 30
0.0
 11
9.731285971385831
 21
8.561920163237983
 31
0.0
  0
LINE
  5
A4C8
330
1F
100
AcDbEntity
  8
AM_0
 48
0.5
100
AcDbLine
 10
1.94670574067385
 20
13.20418548306199
 30
0.0
 11
2.959072989208836
 21
14.21087646206599
 31
0.0
  0
LINE
  5
A4C9
330
1F
100
AcDbEntity
  8
AM_0
 48
0.5
100
AcDbLine
 10
2.419346731883821
 20
17.08403014858899
 30
0.0
 11
1.903843802196832
 21
13.16156768520998
 31
0.0
  0
LINE
  5
A4CA
330
1F
100
AcDbEntity
  8
AM_0
 48
0.5
100
AcDbLine
 10
3.244236868602855
 20
17.46582793911699
 30
0.0
 11
2.798565787059829
 21
14.03440856655798
 31
0.0
  0
LINE
  5
A4CB
330
1F
100
AcDbEntity
  8
AM_0
 48
0.5
100
AcDbLine
 10
9.73130504487284
 20
8.561920163237983
 30
0.0
 11
14.70557491181585
 21
10.16971587856998
 31
0.0
  0
LINE
  5
A4E7
330
1F
100
AcDbEntity
  8
AM_0
 48
0.5
100
AcDbLine
 10
24.24926463959883
 20
4.193679806791987
 30
0.0
 11
24.99995128510681
 21
6.995277402006987
 31
0.0
  0
ARC
  5
A4E8
330
1F
100
AcDbEntity
  8
AM_0
 48
0.5
100
AcDbCircle
 10
12.96125499604483
 20
16.41297149380399
 30
0.0
 40
8.100014686584499
100
AcDbArc
 50
323.0178212106538
 51
348.2410139899914
  0
ARC
  5
A4E9
330
1F
100
AcDbEntity
  8
AM_0
 48
0.5
100
AcDbCircle
 10
12.99373332856385
 20
16.56908416470298
 30
0.0
 40
8.100029945373499
100
AcDbArc
 50
323.0178212106538
 51
347.7405591993139
  0
LINE
  5
A4EA
330
1F
100
AcDbEntity
  8
AM_0
 48
0.5
100
AcDbLine
 10
19.45901576874985
 20
11.70030212124599
 30
0.0
 11
19.42653362153282
 21
11.54418945034699
 31
0.0
  0
ARC
  5
A4EB
330
1F
100
AcDbEntity
  8
AM_0
 48
0.5
100
AcDbCircle
 10
12.97845928071279
 20
16.49561309536699
 30
0.0
 40
5.9960107803345
100
AcDbArc
 50
348.2411437635851
 51
10.94222686641907
  0
ARC
  5
A4EC
330
1F
100
AcDbEntity
  8
AM_0
 48
0.5
100
AcDbCircle
 10
13.03773967621981
 20
16.78023528774998
 30
0.0
 40
6.100021839141799
100
AcDbArc
 50
337.7860989227394
 51
347.2270314265647
  0
ARC
  5
A4ED
330
1F
100
AcDbEntity
  8
AM_0
 48
0.5
100
AcDbCircle
 10
12.99373332856385
 20
16.56908416470298
 30
0.0
 40
6.0960984230042
100
AcDbArc
 50
348.240973008858
 51
10.80267927148196
  0
ARC
  5
A4EE
330
1F
100
AcDbEntity
  8
AM_0
 48
0.5
100
AcDbCircle
 10
12.99373332856385
 20
16.56908416470298
 30
0.0
 40
6.100019454956099
100
AcDbArc
 50
337.0446955487117
 51
348.240973008858
  0
LINE
  5
A4EF
330
1F
100
AcDbEntity
  8
AM_0
 48
0.5
100
AcDbLine
 10
19.03393642304683
 20
17.74654388149998
 30
0.0
 11
18.68890849946279
 21
17.51551818569899
 31
0.0
  0
LINE
  5
A4F0
330
1F
100
AcDbEntity
  8
AM_0
 48
0.5
100
AcDbLine
 10
18.85252086518482
 20
15.27286529263199
 30
0.0
 11
18.71878902314381
 21
14.63018035610899
 31
0.0
  0
LINE
  5
A4F1
330
1F
100
AcDbEntity
  8
AM_0
 48
0.5
100
AcDbLine
 10
-54.7474318325631
 20
23.99527740200699
 30
0.0
 11
-77.25004871489324
 21
24.71889495571799
 31
0.0
  0
LINE
  5
A4F2
330
1F
100
AcDbEntity
  8
AM_0
 48
0.5
100
AcDbLine
 10
-77.25004871489324
 20
26.995277402007
 30
0.0
 11
-54.25005634428321
 21
26.995277402007
 31
0.0
  0
LINE
  5
A4F3
330
1F
100
AcDbEntity
  8
AM_0
 48
0.5
100
AcDbLine
 10
-54.48131092192311
 20
26.995277402007
 30
0.0
 11
-55.08456714750314
 21
20.19454955776899
 31
0.0
  0
LINE
  5
A4F4
330
1F
100
AcDbEntity
  8
AM_0
 48
0.5
100
AcDbLine
 10
-54.25005634428321
 20
26.995277402007
 30
0.0
 11
-54.25005634428321
 21
22.36129760464399
 31
0.0
  0
LINE
  5
A4F5
330
1F
100
AcDbEntity
  8
AM_0
 48
0.5
100
AcDbLine
 10
-54.48208149076315
 20
22.381599423492
 30
0.0
 11
-48.36178119780317
 21
21.846206662261
 31
0.0
  0
LINE
  5
A4F6
330
1F
100
AcDbEntity
  8
AM_0
 48
0.5
100
AcDbLine
 10
-55.20382984282315
 20
20.02474212368699
 30
0.0
 11
-55.08452900053321
 21
20.19454192837501
 31
0.0
  0
LINE
  5
A4F7
330
1F
100
AcDbEntity
  8
AM_0
 48
0.5
100
AcDbLine
 10
-55.20388324858315
 20
20.02474975308201
 30
0.0
 11
-55.32748706938314
 21
19.84854125698801
 31
0.0
  0
LINE
  5
A4F8
330
1F
100
AcDbEntity
  8
AM_0
 48
0.5
100
AcDbLine
 10
-55.00826557280316
 20
20.103652951324
 30
0.0
 11
-55.3274565518032
 21
19.848556515777
 31
0.0
  0
LINE
  5
A4F9
330
1F
100
AcDbEntity
  8
AM_0
 48
0.5
100
AcDbLine
 10
-55.0845442593232
 20
20.19454192837501
 30
0.0
 11
-55.00825031401318
 21
20.10364532192901
 31
0.0
  0
LINE
  5
A4FA
330
1F
100
AcDbEntity
  8
AM_0
 48
0.5
100
AcDbLine
 10
-54.96583850981317
 20
20.32910918911699
 30
0.0
 11
-54.91113575102321
 21
20.35450744351102
 31
0.0
  0
LINE
  5
A4FB
330
1F
100
AcDbEntity
  8
AM_0
 48
0.5
100
AcDbLine
 10
-54.95853717924314
 20
20.41102599819899
 30
0.0
 11
-54.91113575102321
 21
20.35453033169501
 31
0.0
  0
LINE
  5
A4FC
330
1F
100
AcDbEntity
  8
AM_0
 48
0.5
100
AcDbLine
 10
-54.95856769682319
 20
20.41102599819899
 30
0.0
 11
-54.98226459623317
 21
20.144027707183
 31
0.0
  0
LINE
  5
A4FD
330
1F
100
AcDbEntity
  8
AM_0
 48
0.5
100
AcDbLine
 10
-54.98225696684317
 20
20.144050595367
 30
0.0
 11
-55.00825794340318
 21
20.10364532192901
 31
0.0
  0
ARC
  5
A4FE
330
1F
100
AcDbEntity
  8
AM_0
 48
0.5
100
AcDbCircle
 10
18.09515087006781
 20
19.79220580776898
 30
0.0
 40
1.895782828330999
100
AcDbArc
 50
348.2428239901196
 51
123.0446148033484
  0
ARC
  5
A4FF
330
1F
100
AcDbEntity
  8
AM_0
 48
0.5
100
AcDbCircle
 10
18.07793132661083
 20
19.70964812954598
 30
0.0
 40
1.9954708814621
100
AcDbArc
 50
32.79257148830847
 51
123.0470326903159
  0
LINE
  5
A500
330
1F
100
AcDbEntity
  8
AM_0
 48
0.5
100
AcDbLine
 10
7.745362204296842
 20
26.99527740200699
 30
0.0
 11
24.19610301850582
 21
20.42910003384298
 31
0.0
  0
LINE
  5
A501
330
1F
100
AcDbEntity
  8
AM_0
 48
0.5
100
AcDbLine
 10
1.020470541698843
 20
23.99528503140199
 30
0.0
 11
4.020470541698845
 21
26.99527740200699
 31
0.0
  0
LINE
  5
A502
330
1F
100
AcDbEntity
  8
AM_0
 48
0.5
100
AcDbLine
 10
3.29856578705983
 20
20.10363769253499
 30
0.0
 11
0.8791588961908612
 21
19.84854125698798
 31
0.0
  0
LINE
  5
A503
330
1F
100
AcDbEntity
  8
AM_0
 48
0.5
100
AcDbLine
 10
0.887844961864803
 20
20.19455718716399
 30
0.0
 11
3.298546713573843
 21
20.10365295132399
 31
0.0
  0
LINE
  5
A504
330
1F
100
AcDbEntity
  8
AM_0
 48
0.5
100
AcDbLine
 10
2.486126822216819
 20
19.19792175015199
 30
0.0
 11
0.8907250582998381
 21
19.29562377651899
 31
0.0
  0
LINE
  5
A505
330
1F
100
AcDbEntity
  8
AM_0
 48
0.5
100
AcDbLine
 10
1.020470541698843
 20
23.99527740200699
 30
0.0
 11
0.8878411471678216
 21
20.19454192837498
 31
0.0
  0
LINE
  5
A506
330
1F
100
AcDbEntity
  8
AM_0
 48
0.5
100
AcDbLine
 10
0.8818253695798173
 20
20.02473449429199
 30
0.0
 11
0.8791321933098313
 21
19.84853362759298
 31
0.0
  0
LINE
  5
A507
330
1F
100
AcDbEntity
  8
AM_0
 48
0.5
100
AcDbLine
 10
0.8818329989738368
 20
20.02474212368699
 30
0.0
 11
0.887837332469817
 21
20.19454192837498
 31
0.0
  0
LINE
  5
A508
330
1F
100
AcDbEntity
  8
AM_0
 48
0.5
100
AcDbLine
 10
0.8958443820308183
 20
19.29534148892099
 30
0.0
 11
0.8791512667968415
 21
19.84854125698798
 31
0.0
  0
ARC
  5
A509
330
1F
100
AcDbEntity
  8
AM_0
 48
0.5
100
AcDbCircle
 10
12.97845928071279
 20
16.49561309536699
 30
0.0
 40
5.997186660766598
100
AcDbArc
 50
51.27868679771594
 51
149.3384935228244
  0
ARC
  5
A50A
330
1F
100
AcDbEntity
  8
AM_0
 48
0.5
100
AcDbCircle
 10
12.96125499604483
 20
16.41297149380399
 30
0.0
 40
6.097828865051299
100
AcDbArc
 50
51.95855699751181
 51
151.6964797299863
  0
LINE
  5
A50B
330
1F
100
AcDbEntity
  8
AM_0
 48
0.5
100
AcDbLine
 10
3.943039816600846
 20
20.14403533657798
 30
0.0
 11
3.298535269481819
 21
20.10363006313999
 31
0.0
  0
LINE
  5
A50C
330
1F
100
AcDbEntity
  8
AM_0
 48
0.5
100
AcDbLine
 10
3.952362936717864
 20
20.41104125698798
 30
0.0
 11
3.943062704784838
 21
20.14403533657798
 31
0.0
  0
LINE
  5
A50D
330
1F
100
AcDbEntity
  8
AM_0
 48
0.5
100
AcDbLine
 10
3.952366751415811
 20
20.41102599819899
 30
0.0
 11
5.450570029003816
 21
20.35452270229999
 31
0.0
  0
LINE
  5
A50E
330
1F
100
AcDbEntity
  8
AM_0
 48
0.5
100
AcDbLine
 10
8.395806235057818
 20
19.86869048794498
 30
0.0
 11
8.48186199067385
 21
20.28191375454599
 31
0.0
  0
LINE
  5
A50F
330
1F
100
AcDbEntity
  8
AM_0
 48
0.5
100
AcDbLine
 10
16.70696727631781
 20
21.20014190395998
 30
0.0
 11
16.98973552582981
 21
21.38230895718297
 31
0.0
  0
LINE
  5
A510
330
1F
100
AcDbEntity
  8
AM_0
 48
0.5
100
AcDbLine
 10
16.71852580903282
 20
21.16044616421399
 30
0.0
 11
16.62128917573181
 21
20.69376373013199
 31
0.0
  0
LINE
  5
A511
330
1F
100
AcDbEntity
  8
AM_0
 48
0.5
100
AcDbLine
 10
16.96632472871084
 20
20.92469024380398
 30
0.0
 11
17.06137172578081
 21
21.38133239468297
 31
0.0
  0
LINE
  5
A512
330
1F
100
AcDbEntity
  8
AM_0
 48
0.5
100
AcDbLine
 10
16.62129680512686
 20
20.69377135952699
 30
0.0
 11
16.9663323581048
 21
20.92469787319898
 31
0.0
  0
LINE
  5
A513
330
1F
100
AcDbEntity
  8
AM_0
 48
0.5
100
AcDbLine
 10
17.06138316987284
 20
21.38134765347198
 30
0.0
 11
16.71853343842684
 21
21.16045379360898
 31
0.0
  0
LINE
  5
A514
330
1F
100
AcDbEntity
  8
AM_0
 48
0.5
100
AcDbLine
 10
24.19610301850582
 20
26.99527740200699
 30
0.0
 11
24.19610301850582
 21
20.42910003384298
 31
0.0
  0
ARC
  5
A515
330
1F
100
AcDbEntity
  8
AM_0
 48
0.5
100
AcDbCircle
 10
18.11042491791982
 20
19.86566924770998
 30
0.0
 40
1.998677372932399
100
AcDbArc
 50
348.2411437635851
 51
10.95465098052019
  0
ARC
  5
A516
330
1F
100
AcDbEntity
  8
AM_0
 48
0.5
100
AcDbCircle
 10
18.11042491791982
 20
19.86566924770998
 30
0.0
 40
1.999994993209798
100
AcDbArc
 50
329.7496693170002
 51
348.2411437635851
  0
ARC
  5
A517
330
1F
100
AcDbEntity
  8
AM_0
 48
0.5
100
AcDbCircle
 10
18.15441600678684
 20
20.07691192349199
 30
0.0
 40
1.999978184699999
100
AcDbArc
 50
330.1199338719036
 51
345.1430186211622
  0
LINE
  5
A518
330
1F
100
AcDbEntity
  8
AM_0
 48
0.5
100
AcDbLine
 10
19.95534984467684
 20
19.40505218228098
 30
0.0
 11
19.86712352631781
 21
18.98169707974198
 31
0.0
  0
LINE
  5
A519
330
1F
100
AcDbEntity
  8
AM_0
 48
0.5
100
AcDbLine
 10
125.0000123202618
 20
-62.25472641269004
 30
0.0
 11
125.0000123202618
 21
-82.25472641268956
 31
0.0
  0
LINE
  5
A51B
330
1F
100
AcDbEntity
  8
AM_0
 48
0.5
100
AcDbLine
 10
125.0000123202618
 20
26.99527740200696
 30
0.0
 11
125.0000123202618
 21
6.995277402006961
 31
0.0
  0
ARC
  5
A71D
330
1F
100
AcDbEntity
  8
AM_0
  6
Continuous
 48
0.5
100
AcDbCircle
 10
-53.76762148594011
 20
18.83532676076013
 30
0.0
 40
0.5000000000000026
100
AcDbArc
 50
351.5852029900211
 51
81.58501979872907
  0
LINE
  5
A71E
330
1F
100
AcDbEntity
  8
AM_0
100
AcDbLine
 10
-53.69511038280598
 20
19.32606255966613
 30
0.0
 11
-54.91331717847535
 21
19.53313261954002
 31
0.0
  0
DIMENSION
  5
A71F
330
1F
100
AcDbEntity
  8
AM_5
100
AcDbDimension
  2
*D6
 10
145.3168562726676
 20
-62.25472641269004
 30
0.0
 11
141.9164822569195
 21
-72.25472641268978
 31
0.0
 70
    32
 71
     5
 42
19.99999999999953
  3
AM_JIS$0
100
AcDbAlignedDimension
 13
125.0000123202618
 23
-82.25472641268956
 33
0.0
 14
125.0000123202618
 24
-62.25472641269004
 34
0.0
 50
89.99999999999998
100
AcDbRotatedDimension
  0
DIMENSION
  5
A720
330
1F
100
AcDbEntity
  8
AM_5
100
AcDbDimension
  2
*D5
 10
142.0992575037038
 20
27.00026885708494
 30
0.0
 11
138.6988834879557
 21
16.99777312954597
 31
0.0
 70
    32
 71
     5
 42
20.00499145507799
  3
AM_JIS$0
100
AcDbAlignedDimension
 13
125.0000123202618
 23
6.995277402006961
 33
0.0
 14
125.0000123202618
 24
27.00026885708495
 34
0.0
 50
89.99999999999998
100
AcDbRotatedDimension
  0
DIMENSION
  5
A721
330
1F
100
AcDbEntity
  8
PV0001_1
100
AcDbDimension
  2
*D4
 10
125.0000123202618
 20
-22.89579590121502
 30
0.0
 11
62.50001232026182
 21
-22.89579590121502
 31
0.0
 70
   160
  1
<>
 71
     5
 42
125.0000123202618
  3
AM_JIS$0
100
AcDbAlignedDimension
 13
0.0000000000000001
 23
0.2056233556102354
 33
0.0
 14
125.0000123202618
 24
7.165277402006962
 34
0.0
100
AcDbRotatedDimension
1001
ACAD
1000
DSTYLE
1002
{
1070
   284
1070
     8
1070
   271
1070
     0
1070
    45
1040
0.1
1070
   173
1070
     1
1070
     6
1000
OPEN30
1070
     7
1000
OPEN30
1002
}
  0
DIMENSION
  5
A774
330
1F
100
AcDbEntity
  8
PV0001_1
100
AcDbDimension
  2
*D7
 10
-20.53580912601211
 20
0.0000000000000057
 30
0.0
 11
-20.53580912601211
 21
13.49763870100351
 31
0.0
 70
   160
  1
<>
 71
     5
 42
26.99527740200699
  3
AM_JIS$0
100
AcDbAlignedDimension
 13
4.020470541698845
 23
26.99527740200699
 33
0.0
 14
0.1641358454288593
 24
-0.0000000000000002
 34
0.0
 50
89.99999999999998
100
AcDbRotatedDimension
1001
ACAD
1000
DSTYLE
1002
{
1070
    45
1040
0.01
1070
   173
1070
     1
1070
   271
1070
     5
1070
     6
1000
OPEN30
1070
     7
1000
OPEN30
1002
}
  0
DIMENSION
  5
A7B7
330
1F
100
AcDbEntity
  8
AM_5
100
AcDbDimension
  2
*D8
 10
2.000000373244801
 20
-6.826587561283758
 30
0.0
 11
9.422360609465272
 21
-3.426213545535727
 31
0.0
 70
    32
 71
     5
 42
2.000000373244801
  3
AM_JIS$0
100
AcDbAlignedDimension
 13
0.0000000000000001
 23
0.2056233556101146
 33
0.0
 14
2.000000373244801
 24
0.2023900796430663
 34
0.0
 50
180.0
100
AcDbRotatedDimension
1001
ACAD
1000
DSTYLE
1002
{
1070
   271
1070
     6
1002
}
  0
ARC
  5
A7D8
330
1F
100
AcDbEntity
  8
AM_0
 48
0.5
100
AcDbCircle
 10
0.1998106322147919
 20
0.1969221342058984
 30
0.0
 40
0.2
100
AcDbArc
 50
177.5064966528334
 51
269.8818202617705
  0
ARC
  5
A7ED
330
1F
100
AcDbEntity
  8
AM_0
 48
0.5
100
AcDbCircle
 10
1.800192170584351
 20
0.1936332451916765
 30
0.0
 40
0.2
100
AcDbArc
 50
269.8818202617705
 51
2.509450507645558
  0
LINE
  5
A852
330
1F
100
AcDbEntity
  8
AM_1
100
AcDbLine
 10
125.0000123202618
 20
-62.25472641269004
 30
0.0
 11
125.0000123202618
 21
7.165277402006962
 31
0.0
  0
LINE
  5
A853
330
1F
100
AcDbEntity
  8
AM_1
100
AcDbLine
 10
0.0
 20
-0.0000000000000002
 30
0.0
 11
-0.0000563442872097
 21
-62.29732418338101
 31
0.0
  0
DIMENSION
  5
A854
330
1F
100
AcDbEntity
  8
AM_5
100
AcDbDimension
  2
*D9
 10
-21.18251675248968
 20
-82.25472450534089
 30
0.0
 11
-24.5828907682377
 21
-72.25659268852851
 31
0.0
 70
    32
 71
     5
 42
19.99626363362477
  3
AM_JIS$0
100
AcDbAlignedDimension
 13
0.1329553794660038
 23
-62.25846087171611
 33
0.0
 14
0.842305105907816
 24
-82.25472450534089
 34
0.0
 50
270.0
100
AcDbRotatedDimension
  0
DIMENSION
  5
A87C
330
1F
100
AcDbEntity
  8
AM_5
100
AcDbDimension
  2
*D10
 10
-0.0000563442872097
 20
-62.29732418338101
 30
0.0
 11
11.75500890282015
 21
43.5583605859722
 31
0.0
 70
    34
 71
     5
 42
0.0349087048995207
  3
AM_JIS$2
100
AcDb2LineAngularDimension
 13
0.600258749706827
 23
17.57314300259298
 33
0.0
 14
0.133938711864801
 24
4.220642087065995
 34
0.0
 15
0.0
 25
-0.0000000000000002
 35
0.0
 16
0.4780204157086713
 26
41.46073845202754
 36
0.0
1001
ACAD
1000
DSTYLE
1002
{
1070
   271
1070
     0
1002
}
  0
LINE
  5
A88F
330
1F
100
AcDbEntity
  8
AM_5
100
AcDbLine
 10
-57.25007159191321
 20
-0.0030059794059983
 30
0.0
 11
-57.2442503750431
 21
31.91743566600167
 31
0.0
  0
DIMENSION
  5
A892
330
1F
100
AcDbEntity
  8
AM_5
100
AcDbDimension
  2
*D11
 10
-57.2442503750431
 20
31.91743566600167
 30
0.0
 11
-43.32525342820279
 21
39.982061223046
 31
0.0
 70
    34
 71
     5
 42
0.0882993911843921
  3
AM_JIS$2
100
AcDb2LineAngularDimension
 13
-55.55385883451315
 23
17.57312774380401
 33
0.0
 14
-56.73836048246318
 24
4.221122738921009
 34
0.0
 15
-57.25007159191321
 25
-0.0030059794059983
 35
0.0
 16
-56.06182111979574
 26
38.57018874754555
 36
0.0
1001
ACAD
1000
DSTYLE
1002
{
1070
   271
1070
     0
1002
}
  0
DIMENSION
  5
A8A5
330
1F
100
AcDbEntity
  8
AM_5
100
AcDbDimension
  2
*D12
 10
-57.65323932768314
 20
2.158126828277005
 30
0.0
 11
-56.73227661693335
 21
-14.72002227707315
 31
0.0
 70
   162
 71
     5
 42
0.1823294614923254
  3
AM_JIS$2
100
AcDb2LineAngularDimension
 13
-57.25007159191321
 23
-0.0030059794059983
 33
0.0
 14
-57.2442503750431
 24
31.91743566600167
 34
0.0
 15
-57.29414661528318
 25
0.2085342379450024
 35
0.0
 16
-55.47049777656141
 26
-14.62101866309548
 36
0.0
1001
ACAD
1000
DSTYLE
1002
{
1070
   271
1070
     0
1002
}
  0
ENDSEC
  0
SECTION
  2
OBJECTS
  0
DICTIONARY
  5
C
330
0
100
AcDbDictionary
281
     1
  3
ACAD_COLOR
350
A9E2
  3
ACAD_GROUP
350
D
  3
ACAD_LAYOUT
350
1A
  3
ACAD_MATERIAL
350
A9E1
  3
ACAD_MLINESTYLE
350
17
  3
ACAD_PLOTSETTINGS
350
19
  3
ACAD_PLOTSTYLENAME
350
E
  3
ACAD_TABLESTYLE
350
A9E3
  3
ACDBHEADERROUNDTRIPXREC
350
AAD8
  3
ACDBVARIABLEDICTIONARY
350
30
  3
ACMDICTIONARY
350
4D
  3
AMG
350
3F
  3
AMGSNAPSETTINGS
350
73
  3
DWGPROPS
350
AAD7
  3
ENG_DATA
350
21C6
  3
FILENAME
350
21C9
  3
HOLD_DIC_DATA
350
21C4
  3
TABLE_DIC_DATA
350
1C0B
  3
ZWKSIZE
350
21CB
  0
DICTIONARY
  5
165
330
1F
100
AcDbDictionary
280
     1
281
     1
  3
ACAD_INDEX
360
A96C
  3
ACAD_LAYOUTSELFREF
360
A99D
  0
DICTIONARY
  5
A99B
330
1B
100
AcDbDictionary
280
     1
281
     1
  3
ACAD_LAYOUTSELFREF
360
A99C
  0
DICTIONARY
  5
A9E2
102
{ACAD_REACTORS
330
C
102
}
330
C
100
AcDbDictionary
281
     1
  0
DICTIONARY
  5
D
102
{ACAD_REACTORS
330
C
102
}
330
C
100
AcDbDictionary
281
     1
  3
*A1
350
7C0D
  3
*A2
350
7C0E
  3
*A3
350
7FE3
  3
*A4
350
8E0E
  3
*A5
350
96D0
  0
DICTIONARY
  5
1A
102
{ACAD_REACTORS
330
C
102
}
330
C
100
AcDbDictionary
281
     1
  3
Model
350
A9E5
  3
レイアウト1
350
A9E6
  0
DICTIONARY
  5
A9E1
102
{ACAD_REACTORS
330
C
102
}
330
C
100
AcDbDictionary
281
     1
  0
DICTIONARY
  5
17
102
{ACAD_REACTORS
330
C
102
}
330
C
100
AcDbDictionary
281
     1
  3
STANDARD
350
18
  0
DICTIONARY
  5
19
102
{ACAD_REACTORS
330
C
102
}
330
C
100
AcDbDictionary
281
     1
  0
ACDBDICTIONARYWDFLT
  5
E
102
{ACAD_REACTORS
330
C
102
}
330
C
100
AcDbDictionary
281
     1
  3
Normal
350
F
100
AcDbDictionaryWithDefault
340
F
  0
DICTIONARY
  5
A9E3
102
{ACAD_REACTORS
330
C
102
}
330
C
100
AcDbDictionary
281
     1
  3
Standard
350
A9E4
  0
DICTIONARY
  5
AAD8
102
{ACAD_REACTORS
330
C
102
}
330
C
100
AcDbDictionary
281
     1
  0
DICTIONARY
  5
30
102
{ACAD_REACTORS
330
C
102
}
330
C
100
AcDbDictionary
281
     1
  3
CTABLESTYLE
350
AAD3
  3
DIMASSOC
350
AAD4
  3
INDEXCTL
350
31
  3
PROJECTNAME
350
AAD5
  3
SORTENTS
350
42BE
  0
DICTIONARY
  5
4D
102
{ACAD_REACTORS
330
C
102
}
330
C
100
AcDbDictionary
281
     1
  3
ACMSTDDICTIONARY
350
17E
  3
AMDTSECTSYM_ARROWCOLOR
350
AA5E
  0
DICTIONARY
  5
3F
102
{ACAD_REACTORS
330
C
102
}
330
C
100
AcDbDictionary
281
     1
  0
DICTIONARY
  5
73
102
{ACAD_REACTORS
330
C
102
}
330
C
100
AcDbDictionary
281
     1
  0
XRECORD
  5
AAD7
102
{ACAD_REACTORS
330
C
102
}
330
C
100
AcDbXrecord
280
     1
  1
DWGPROPS COOKIE
  2

  3

  4

  6

  7

  8

  9

300
AmdtFileType=82
301
=
302
=
303
=
304
=
305
=
306
=
307
=
308
=
309
=
 40
0.7624228587962964
 41
2451943.610431666
 42
2455603.410045382
  1

 90
        1
  0
DICTIONARY
  5
21C6
102
{ACAD_REACTORS
330
C
102
}
330
C
100
AcDbDictionary
281
     1
  3
ENG_ID
350
21C7
  0
DICTIONARY
  5
21C9
102
{ACAD_REACTORS
330
C
102
}
330
C
100
AcDbDictionary
281
     1
  3
FILENAME
350
21CA
  0
DICTIONARY
  5
21C4
102
{ACAD_REACTORS
330
C
102
}
330
C
100
AcDbDictionary
281
     1
  3
HOLD_DATA
350
21C5
  0
DICTIONARY
  5
1C0B
102
{ACAD_REACTORS
330
C
102
}
330
C
100
AcDbDictionary
281
     1
  3
INPUT_DATA
350
1C0D
  3
TABLE_DATA
350
1C0C
  0
DICTIONARY
  5
21CB
102
{ACAD_REACTORS
330
C
102
}
330
C
100
AcDbDictionary
281
     1
  3
ZWKSIZE
350
21CC
  0
DICTIONARY
  5
A96C
102
{ACAD_REACTORS
330
165
102
}
330
165
100
AcDbDictionary
281
     1
  3
*A1
350
A96D
  0
XRECORD
  5
A99D
102
{ACAD_REACTORS
330
165
102
}
330
165
100
AcDbXrecord
280
     1
340
1F
  0
XRECORD
  5
A99C
102
{ACAD_REACTORS
330
A99B
102
}
330
A99B
100
AcDbXrecord
280
     1
340
1B
  0
GROUP
  5
7C0D
102
{ACAD_REACTORS
330
D
102
}
330
D
100
AcDbGroup
300

 70
     1
 71
     1
  0
GROUP
  5
7C0E
102
{ACAD_REACTORS
330
D
102
}
330
D
100
AcDbGroup
300

 70
     1
 71
     1
  0
GROUP
  5
7FE3
102
{ACAD_REACTORS
330
D
102
}
330
D
100
AcDbGroup
300

 70
     1
 71
     1
  0
GROUP
  5
8E0E
102
{ACAD_REACTORS
330
D
102
}
330
D
100
AcDbGroup
300

 70
     1
 71
     1
  0
GROUP
  5
96D0
102
{ACAD_REACTORS
330
D
102
}
330
D
100
AcDbGroup
300

 70
     1
 71
     1
  0
LAYOUT
  5
A9E5
102
{ACAD_XDICTIONARY
360
AAD9
102
}
102
{ACAD_REACTORS
330
1A
102
}
330
1A
100
AcDbPlotSettings
  1

  2
SII LP-1010 (C2 VR)2R
  4

  6

 40
0.0
 41
0.0
 42
0.0
 43
0.0
 44
0.0
 45
0.0
 46
0.0
 47
0.0
 48
0.0
 49
0.0
140
0.0
141
0.0
142
1.0
143
1.0
 70
  1712
 72
     0
 73
     0
 74
     0
  7
sei_cad.ctb
 75
     0
147
1.0
148
0.0
149
0.0
100
AcDbLayout
  1
Model
 70
     1
 71
     0
 10
0.0
 20
0.0
 11
12.0
 21
9.0
 12
0.0
 22
0.0
 32
0.0
 14
0.0
 24
0.0
 34
0.0
 15
0.0
 25
0.0
 35
0.0
146
0.0
 13
0.0
 23
0.0
 33
0.0
 16
1.0
 26
0.0
 36
0.0
 17
0.0
 27
1.0
 37
0.0
 76
     0
330
1F
  0
LAYOUT
  5
A9E6
102
{ACAD_XDICTIONARY
360
AADB
102
}
102
{ACAD_REACTORS
330
1A
102
}
330
1A
100
AcDbPlotSettings
  1

  2
SII LP-1010 (C2 VR)2R
  4

  6

 40
0.0
 41
0.0
 42
0.0
 43
0.0
 44
0.0
 45
0.0
 46
0.0
 47
0.0
 48
0.0
 49
0.0
140
0.0
141
0.0
142
1.0
143
1.0
 70
   688
 72
     0
 73
     0
 74
     5
  7
sei_cad.ctb
 75
    16
147
1.0
148
0.0
149
0.0
100
AcDbLayout
  1
レイアウト1
 70
     1
 71
     1
 10
0.0
 20
0.0
 11
420.0
 21
297.0
 12
0.0
 22
0.0
 32
0.0
 14
1.000000000000000E+20
 24
1.000000000000000E+20
 34
1.000000000000000E+20
 15
-1.000000000000000E+20
 25
-1.000000000000000E+20
 35
-1.000000000000000E+20
146
0.0
 13
0.0
 23
0.0
 33
0.0
 16
1.0
 26
0.0
 36
0.0
 17
0.0
 27
1.0
 37
0.0
 76
     0
330
1B
  0
MLINESTYLE
  5
18
102
{ACAD_REACTORS
330
17
102
}
330
17
100
AcDbMlineStyle
  2
STANDARD
 70
     0
  3

 62
   256
 51
90.0
 52
90.0
 71
     2
 49
0.5
 62
   256
  6
BYLAYER
 49
-0.5
 62
   256
  6
BYLAYER
  0
ACDBPLACEHOLDER
  5
F
102
{ACAD_REACTORS
330
E
102
}
330
E
  0
TABLESTYLE
  5
A9E4
102
{ACAD_REACTORS
330
A9E3
102
}
330
A9E3
100
AcDbTableStyle
  3
Standard
 70
     0
 71
     0
 40
1.5
 41
1.5
280
     0
281
     0
  7
STANDARD
140
4.5
170
     2
 62
     0
 63
     7
283
     0
274
    -2
284
     1
 64
     0
275
    -2
285
     1
 65
     0
276
    -2
286
     1
 66
     0
277
    -2
287
     1
 67
     0
278
    -2
288
     1
 68
     0
279
    -2
289
     1
 69
     0
  7
STANDARD
140
6.0
170
     5
 62
     0
 63
     7
283
     0
274
    -2
284
     1
 64
     0
275
    -2
285
     1
 65
     0
276
    -2
286
     1
 66
     0
277
    -2
287
     1
 67
     0
278
    -2
288
     1
 68
     0
279
    -2
289
     1
 69
     0
  7
STANDARD
140
4.5
170
     5
 62
     0
 63
     7
283
     0
274
    -2
284
     1
 64
     0
275
    -2
285
     1
 65
     0
276
    -2
286
     1
 66
     0
277
    -2
287
     1
 67
     0
278
    -2
288
     1
 68
     0
279
    -2
289
     1
 69
     0
  0
DICTIONARYVAR
  5
AAD3
102
{ACAD_REACTORS
330
30
102
}
330
30
100
DictionaryVariables
280
     0
  1
STANDARD
  0
DICTIONARYVAR
  5
AAD4
102
{ACAD_REACTORS
330
30
102
}
330
30
100
DictionaryVariables
280
     0
  1
1
  0
DICTIONARYVAR
  5
31
102
{ACAD_REACTORS
330
30
102
}
330
30
100
DictionaryVariables
280
     0
  1
1
  0
DICTIONARYVAR
  5
AAD5
102
{ACAD_REACTORS
330
30
102
}
330
30
100
DictionaryVariables
280
     0
  1

  0
DICTIONARYVAR
  5
42BE
102
{ACAD_REACTORS
330
30
102
}
330
30
100
DictionaryVariables
280
     0
  1
96
  0
DICTIONARY
  5
17E
102
{ACAD_REACTORS
330
4D
102
}
330
4D
100
AcDbDictionary
281
     1
  0
XRECORD
  5
AA5E
102
{ACAD_REACTORS
330
4D
102
}
330
4D
100
AcDbXrecord
280
     1
 90
-1023410169
  0
XRECORD
  5
21C7
102
{ACAD_REACTORS
330
21C6
102
}
330
21C6
100
AcDbXrecord
280
     1
  1
HOLD
  0
XRECORD
  5
21CA
102
{ACAD_REACTORS
330
21C9
102
}
330
21C9
100
AcDbXrecord
280
     1
  1
21000065__00___
  0
XRECORD
  5
21C5
102
{ACAD_REACTORS
330
21C4
102
}
330
21C4
100
AcDbXrecord
280
     1
  1
クランクシャフト加工用 ^M^J１コーナー型 ^M^J15.875 ^M^J20 ^M^Jクランプオン ^M^J９０° ^M^J1 ^M^J鋼 ^M^J ^M^J ^M^J ^M^J ^M^J
  0
XRECORD
  5
1C0D
102
{ACAD_REACTORS
330
1C0B
102
}
330
1C0B
100
AcDbXrecord
280
     1
  1
1,,,,,,,,,^M^J2,,,,,,,,,^M^J3,,,,,,,,,^M^J4,,,,,,,,,^M^J5,,,,,,,,,^M^J6,,,,,,,,,^M^J7,,,,,,,,,^M^J8,,,,,,,,,^M^J9,,,,,,,,,^M^J10,,,,,,,,,
  0
XRECORD
  5
1C0C
102
{ACAD_REACTORS
330
1C0B
102
}
330
1C0B
100
AcDbXrecord
280
     1
  1
10,10
  0
XRECORD
  5
21CC
102
{ACAD_REACTORS
330
21CB
102
}
330
21CB
100
AcDbXrecord
280
     1
  1
3
  0
LAYER_INDEX
  5
A96D
102
{ACAD_REACTORS
330
A96C
102
}
330
A96C
100
AcDbIndex
 40
2455603.410045382
100
AcDbLayerIndex
  8
0
360
A96E
 90
        0
  8
AM_5
360
A96F
 90
        8
  8
DEFPOINTS
360
A970
 90
        0
  8
AM_0
360
A971
 90
      301
  8
AM_6
360
A972
 90
        1
  8
AM_1
360
A973
 90
        2
  8
AM_7
360
A974
 90
        2
  8
PV0001_1
360
A975
 90
        2
  0
DICTIONARY
  5
AAD9
330
A9E5
100
AcDbDictionary
280
     1
281
     1
  3
ACAD_XREC_ROUNDTRIP
360
AADA
  0
DICTIONARY
  5
AADB
330
A9E6
100
AcDbDictionary
280
     1
281
     1
  3
ACAD_XREC_ROUNDTRIP
360
AADC
  0
IDBUFFER
  5
A96E
330
0
100
AcDbIdBuffer
  0
IDBUFFER
  5
A96F
330
0
100
AcDbIdBuffer
330
A71F
330
A720
330
A7B7
330
A854
330
A87C
330
A88F
330
A892
330
A8A5
  0
IDBUFFER
  5
A970
330
0
100
AcDbIdBuffer
  0
IDBUFFER
  5
A971
330
0
100
AcDbIdBuffer
330
A3A5
330
A3A6
330
A3A7
330
A3A8
330
A3AA
330
A3AB
330
A3AC
330
A3AD
330
A3AF
330
A3B0
330
A3B1
330
A3B2
330
A3B3
330
A3B4
330
A3B5
330
A3B6
330
A3B7
330
A3B8
330
A3B9
330
A3BB
330
A3BC
330
A3BF
330
A3C0
330
A3C1
330
A3C2
330
A3C3
330
A3C4
330
A3C5
330
A3C6
330
A3C7
330
A3C8
330
A3C9
330
A3CA
330
A3CB
330
A3CC
330
A3CF
330
A3D0
330
A3D1
330
A3D2
330
A3D4
330
A3D5
330
A3D6
330
A3D8
330
A3D9
330
A3DA
330
A3DB
330
A3DC
330
A3DD
330
A3DE
330
A3DF
330
A3E0
330
A3E1
330
A3E2
330
A3E3
330
A3E4
330
A3E5
330
A3E6
330
A3E7
330
A3E8
330
A3E9
330
A3EA
330
A3EB
330
A3EC
330
A3ED
330
A3EE
330
A3EF
330
A3F0
330
A3F1
330
A3F2
330
A3F3
330
A3F4
330
A3F6
330
A3F8
330
A3F9
330
A3FA
330
A3FB
330
A3FC
330
A3FD
330
A3FE
330
A3FF
330
A400
330
A401
330
A402
330
A403
330
A404
330
A405
330
A407
330
A408
330
A409
330
A40A
330
A40B
330
A40C
330
A40D
330
A40E
330
A40F
330
A416
330
A417
330
A418
330
A41B
330
A41C
330
A41D
330
A41E
330
A41F
330
A421
330
A422
330
A423
330
A424
330
A425
330
A426
330
A427
330
A428
330
A429
330
A42A
330
A42B
330
A42C
330
A42D
330
A42E
330
A42F
330
A430
330
A431
330
A432
330
A433
330
A434
330
A435
330
A436
330
A437
330
A438
330
A439
330
A43A
330
A43B
330
A43C
330
A43D
330
A43E
330
A43F
330
A441
330
A442
330
A443
330
A446
330
A448
330
A449
330
A44A
330
A44B
330
A44C
330
A44F
330
A451
330
A452
330
A454
330
A463
330
A464
330
A465
330
A466
330
A467
330
A468
330
A469
330
A46C
330
A46E
330
A46F
330
A470
330
A471
330
A472
330
A473
330
A474
330
A475
330
A476
330
A477
330
A478
330
A479
330
A47A
330
A47B
330
A47C
330
A47D
330
A47E
330
A47F
330
A480
330
A481
330
A482
330
A483
330
A484
330
A485
330
A486
330
A487
330
A488
330
A489
330
A48A
330
A48B
330
A48C
330
A48D
330
A48E
330
A48F
330
A490
330
A491
330
A492
330
A493
330
A494
330
A495
330
A496
330
A497
330
A498
330
A499
330
A49A
330
A49B
330
A49C
330
A49D
330
A49E
330
A49F
330
A4A0
330
A4A1
330
A4A2
330
A4A3
330
A4A4
330
A4A5
330
A4A6
330
A4A7
330
A4A8
330
A4A9
330
A4AA
330
A4AB
330
A4AC
330
A4AD
330
A4AE
330
A4AF
330
A4B4
330
A4B5
330
A4B6
330
A4B7
330
A4B8
330
A4B9
330
A4BA
330
A4BB
330
A4BC
330
A4BD
330
A4BE
330
A4BF
330
A4C0
330
A4C1
330
A4C2
330
A4C3
330
A4C4
330
A4C5
330
A4C6
330
A4C7
330
A4C8
330
A4C9
330
A4CA
330
A4CB
330
A4E7
330
A4E8
330
A4E9
330
A4EA
330
A4EB
330
A4EC
330
A4ED
330
A4EE
330
A4EF
330
A4F0
330
A4F1
330
A4F2
330
A4F3
330
A4F4
330
A4F5
330
A4F6
330
A4F7
330
A4F8
330
A4F9
330
A4FA
330
A4FB
330
A4FC
330
A4FD
330
A4FE
330
A4FF
330
A500
330
A501
330
A502
330
A503
330
A504
330
A505
330
A506
330
A507
330
A508
330
A509
330
A50A
330
A50B
330
A50C
330
A50D
330
A50E
330
A50F
330
A510
330
A511
330
A512
330
A513
330
A514
330
A515
330
A516
330
A517
330
A518
330
A519
330
A51B
330
A71D
330
A71E
330
A7D8
330
A7ED
  0
IDBUFFER
  5
A972
330
0
100
AcDbIdBuffer
330
83BD
  0
IDBUFFER
  5
A973
330
0
100
AcDbIdBuffer
330
A852
330
A853
  0
IDBUFFER
  5
A974
330
0
100
AcDbIdBuffer
330
A420
330
A440
  0
IDBUFFER
  5
A975
330
0
100
AcDbIdBuffer
330
A721
330
A774
  0
XRECORD
  5
AADA
102
{ACAD_REACTORS
330
AAD9
102
}
330
AAD9
100
AcDbXrecord
280
     1
102
SHADEPLOT
 70
     0
102
SHADEPLOTRESLEVEL
 70
     2
102
SHADEPLOTCUSTOMDPI
 70
   300
  0
XRECORD
  5
AADC
102
{ACAD_REACTORS
330
AADB
102
}
330
AADB
100
AcDbXrecord
280
     1
102
SHADEPLOT
 70
     0
102
SHADEPLOTRESLEVEL
 70
     2
102
SHADEPLOTCUSTOMDPI
 70
   300
  0
ENDSEC
  0
EOF
