  0
SECTION
  2
HEADER
  9
$ACADVER
  1
AC1015
  9
$ACADMAINTVER
 70
    20
  9
$DWGCODEPAGE
  3
ANSI_932
  9
$INSBASE
 10
0.0
 20
0.0
 30
0.0
  9
$EXTMIN
 10
-82.26112267057237
 20
-100.7510926952129
 30
-0.0000000000022887
  9
$EXTMAX
 10
171.34086451544
 20
48.34922432877647
 30
0.0000000000000001
  9
$LIMMIN
 10
-204.2077783123495
 20
-93.59193709377107
  9
$LIMMAX
 10
115.6855878175733
 20
119.4791135247362
  9
$ORTHOMODE
 70
     0
  9
$REGENMODE
 70
     1
  9
$FILLMODE
 70
     1
  9
$QTEXTMODE
 70
     0
  9
$MIRRTEXT
 70
     1
  9
$LTSCALE
 40
1.0
  9
$ATTMODE
 70
     1
  9
$TEXTSIZE
 40
2.5
  9
$TRACEWID
 40
1.0
  9
$TEXTSTYLE
  7
STANDARD
  9
$CLAYER
  8
AM_5
  9
$CELTYPE
  6
BYLAYER
  9
$CECOLOR
 62
   256
  9
$CELTSCALE
 40
1.0
  9
$DISPSILH
 70
     0
  9
$DIMSCALE
 40
1.0
  9
$DIMASZ
 40
2.5
  9
$DIMEXO
 40
0.0
  9
$DIMDLI
 40
10.0
  9
$DIMRND
 40
0.0
  9
$DIMDLE
 40
0.0
  9
$DIMEXE
 40
1.0
  9
$DIMTP
 40
0.1
  9
$DIMTM
 40
0.1000000001
  9
$DIMTXT
 40
3.799999999999998
  9
$DIMCEN
 40
0.0
  9
$DIMTSZ
 40
0.0
  9
$DIMTOL
 70
     0
  9
$DIMLIM
 70
     0
  9
$DIMTIH
 70
     0
  9
$DIMTOH
 70
     0
  9
$DIMSE1
 70
     0
  9
$DIMSE2
 70
     0
  9
$DIMTAD
 70
     3
  9
$DIMZIN
 70
     9
  9
$DIMBLK
  1
OPEN30
  9
$DIMASO
 70
     1
  9
$DIMSHO
 70
     1
  9
$DIMPOST
  1

  9
$DIMAPOST
  1
"
  9
$DIMALT
 70
     0
  9
$DIMALTD
 70
     2
  9
$DIMALTF
 40
0.0393701
  9
$DIMLFAC
 40
1.0
  9
$DIMTOFL
 70
     1
  9
$DIMTVP
 40
0.0
  9
$DIMTIX
 70
     0
  9
$DIMSOXD
 70
     0
  9
$DIMSAH
 70
     0
  9
$DIMBLK1
  1

  9
$DIMBLK2
  1

  9
$DIMSTYLE
  2
AM_JIS
  9
$DIMCLRD
 70
   256
  9
$DIMCLRE
 70
   256
  9
$DIMCLRT
 70
     2
  9
$DIMTFAC
 40
0.71
  9
$DIMGAP
 40
1.5
  9
$DIMJUST
 70
     0
  9
$DIMSD1
 70
     0
  9
$DIMSD2
 70
     0
  9
$DIMTOLJ
 70
     0
  9
$DIMTZIN
 70
     8
  9
$DIMALTZ
 70
     0
  9
$DIMALTTZ
 70
     0
  9
$DIMUPT
 70
     0
  9
$DIMDEC
 70
     2
  9
$DIMTDEC
 70
     2
  9
$DIMALTU
 70
     2
  9
$DIMALTTD
 70
     2
  9
$DIMTXSTY
  7
STANDARD
  9
$DIMAUNIT
 70
     1
  9
$DIMADEC
 70
     1
  9
$DIMALTRND
 40
0.0
  9
$DIMAZIN
 70
     2
  9
$DIMDSEP
 70
    46
  9
$DIMATFIT
 70
     3
  9
$DIMFRAC
 70
     0
  9
$DIMLDRBLK
  1
OPEN30
  9
$DIMLUNIT
 70
     2
  9
$DIMLWD
 70
    -1
  9
$DIMLWE
 70
    -1
  9
$DIMTMOVE
 70
     0
  9
$LUNITS
 70
     2
  9
$LUPREC
 70
     2
  9
$SKETCHINC
 40
1.0
  9
$FILLETRAD
 40
0.2
  9
$AUNITS
 70
     1
  9
$AUPREC
 70
     5
  9
$MENU
  1
.
  9
$ELEVATION
 40
0.0
  9
$PELEVATION
 40
0.0
  9
$THICKNESS
 40
0.0
  9
$LIMCHECK
 70
     0
  9
$CHAMFERA
 40
0.0
  9
$CHAMFERB
 40
0.0
  9
$CHAMFERC
 40
20.0
  9
$CHAMFERD
 40
0.0
  9
$SKPOLY
 70
     0
  9
$TDCREATE
 40
2451943.610431666
  9
$TDUCREATE
 40
2451943.235431667
  9
$TDUPDATE
 40
2455603.408897570
  9
$TDUUPDATE
 40
2455603.033897570
  9
$TDINDWG
 40
0.7622681481
  9
$TDUSRTIMER
 40
0.7622677894
  9
$USRTIMER
 70
     1
  9
$ANGBASE
 50
0.0
  9
$ANGDIR
 70
     0
  9
$PDMODE
 70
     0
  9
$PDSIZE
 40
0.0
  9
$PLINEWID
 40
0.0
  9
$SPLFRAME
 70
     0
  9
$SPLINETYPE
 70
     6
  9
$SPLINESEGS
 70
     8
  9
$HANDSEED
  5
B2B9
  9
$SURFTAB1
 70
     6
  9
$SURFTAB2
 70
     6
  9
$SURFTYPE
 70
     6
  9
$SURFU
 70
     6
  9
$SURFV
 70
     6
  9
$UCSBASE
  2

  9
$UCSNAME
  2

  9
$UCSORG
 10
0.0
 20
0.0
 30
0.0
  9
$UCSXDIR
 10
1.0
 20
0.0
 30
0.0
  9
$UCSYDIR
 10
0.0
 20
1.0
 30
0.0
  9
$UCSORTHOREF
  2

  9
$UCSORTHOVIEW
 70
     0
  9
$UCSORGTOP
 10
0.0
 20
0.0
 30
0.0
  9
$UCSORGBOTTOM
 10
0.0
 20
0.0
 30
0.0
  9
$UCSORGLEFT
 10
0.0
 20
0.0
 30
0.0
  9
$UCSORGRIGHT
 10
0.0
 20
0.0
 30
0.0
  9
$UCSORGFRONT
 10
0.0
 20
0.0
 30
0.0
  9
$UCSORGBACK
 10
0.0
 20
0.0
 30
0.0
  9
$PUCSBASE
  2

  9
$PUCSNAME
  2

  9
$PUCSORG
 10
0.0
 20
0.0
 30
0.0
  9
$PUCSXDIR
 10
1.0
 20
0.0
 30
0.0
  9
$PUCSYDIR
 10
0.0
 20
1.0
 30
0.0
  9
$PUCSORTHOREF
  2

  9
$PUCSORTHOVIEW
 70
     0
  9
$PUCSORGTOP
 10
0.0
 20
0.0
 30
0.0
  9
$PUCSORGBOTTOM
 10
0.0
 20
0.0
 30
0.0
  9
$PUCSORGLEFT
 10
0.0
 20
0.0
 30
0.0
  9
$PUCSORGRIGHT
 10
0.0
 20
0.0
 30
0.0
  9
$PUCSORGFRONT
 10
0.0
 20
0.0
 30
0.0
  9
$PUCSORGBACK
 10
0.0
 20
0.0
 30
0.0
  9
$USERI1
 70
     0
  9
$USERI2
 70
     0
  9
$USERI3
 70
     0
  9
$USERI4
 70
     0
  9
$USERI5
 70
     0
  9
$USERR1
 40
0.0
  9
$USERR2
 40
0.0
  9
$USERR3
 40
0.0
  9
$USERR4
 40
0.0
  9
$USERR5
 40
0.0
  9
$WORLDVIEW
 70
     1
  9
$SHADEDGE
 70
     3
  9
$SHADEDIF
 70
    70
  9
$TILEMODE
 70
     1
  9
$MAXACTVP
 70
    64
  9
$PINSBASE
 10
0.0
 20
0.0
 30
0.0
  9
$PLIMCHECK
 70
     0
  9
$PEXTMIN
 10
1.000000000000000E+20
 20
1.000000000000000E+20
 30
1.000000000000000E+20
  9
$PEXTMAX
 10
-1.000000000000000E+20
 20
-1.000000000000000E+20
 30
-1.000000000000000E+20
  9
$PLIMMIN
 10
0.0
 20
0.0
  9
$PLIMMAX
 10
420.0
 20
297.0
  9
$UNITMODE
 70
     0
  9
$VISRETAIN
 70
     1
  9
$PLINEGEN
 70
     0
  9
$PSLTSCALE
 70
     1
  9
$TREEDEPTH
 70
  3020
  9
$CMLSTYLE
  2
STANDARD
  9
$CMLJUST
 70
     0
  9
$CMLSCALE
 40
20.0
  9
$PROXYGRAPHICS
 70
     1
  9
$MEASUREMENT
 70
     1
  9
$CELWEIGHT
370
    -1
  9
$ENDCAPS
280
     0
  9
$JOINSTYLE
280
     0
  9
$LWDISPLAY
290
     0
  9
$INSUNITS
 70
     4
  9
$HYPERLINKBASE
  1

  9
$STYLESHEET
  1
sei_cad.ctb
  9
$XEDIT
290
     1
  9
$CEPSNTYPE
380
     0
  9
$PSTYLEMODE
290
     1
  9
$FINGERPRINTGUID
  2
{C77AB3BE-9CA2-11D3-BAF3-006094EB760E}
  9
$VERSIONGUID
  2
{AD6F6A93-532F-42B8-9979-06985D8C6775}
  9
$EXTNAMES
290
     1
  9
$PSVPSCALE
 40
0.0
  9
$OLESTARTUP
290
     0
  0
ENDSEC
  0
SECTION
  2
CLASSES
  0
CLASS
  1
ACDBDICTIONARYWDFLT
  2
AcDbDictionaryWithDefault
  3
ObjectDBX Classes
 90
        0
280
     0
281
     0
  0
CLASS
  1
ACDBPLACEHOLDER
  2
AcDbPlaceHolder
  3
ObjectDBX Classes
 90
        0
280
     0
281
     0
  0
CLASS
  1
LAYOUT
  2
AcDbLayout
  3
ObjectDBX Classes
 90
        0
280
     0
281
     0
  0
CLASS
  1
ACME_DOCUMENT
  2
AcMeDbDoc
  3
AcMeServices
 90
        0
280
     0
281
     0
  0
CLASS
  1
ACMESCOPE
  2
AcMeScope
  3
AcMeServices
 90
        0
280
     0
281
     0
  0
CLASS
  1
ACMECOMMANDHISTORY
  2
AcMeCommandHistory
  3
AcMeServices
 90
        0
280
     0
281
     0
  0
CLASS
  1
DICTIONARYVAR
  2
AcDbDictionaryVar
  3
ObjectDBX Classes
 90
        0
280
     0
281
     0
  0
CLASS
  1
ACIMSYSVARMAN
  2
AcImSysVarManager
  3
AcMeServices
 90
        0
280
     0
281
     0
  0
CLASS
  1
ACIMREALSYSVAR
  2
AcImRealSysVar
  3
AcMeServices
 90
        0
280
     0
281
     0
  0
CLASS
  1
ACIMINTSYSVAR
  2
AcImIntSysVar
  3
AcMeServices
 90
        0
280
     0
281
     0
  0
CLASS
  1
ACMEDRAWINGMAN
  2
AcMeDrawingMan
  3
AcMeServices
 90
        0
280
     0
281
     0
  0
CLASS
  1
ACMEVIEW
  2
AcMeView
  3
AcMeServices
 90
        0
280
     0
281
     0
  0
CLASS
  1
ACDBENTITYCACHE
  2
AcMeEntityCache
  3
AcMeServices
 90
        0
280
     0
281
     0
  0
CLASS
  1
GSMANAGER
  2
AcMeGSManager
  3
AcMeServices
 90
        0
280
     0
281
     0
  0
CLASS
  1
AMDTINTERNALREACTOR
  2
AmdtInternalReactor
  3
AcMeServices
 90
        0
280
     0
281
     0
  0
CLASS
  1
ACMESTATEMGR
  2
AcMeStateMgr
  3
AcMeServices
 90
        0
280
     0
281
     0
  0
CLASS
  1
ACME_DATABASE
  2
AcMeDbDatabase
  3
AcMeServices
 90
        0
280
     0
281
     0
  0
CLASS
  1
ACRFINSADJUSTERMGR
  2
AcRfInsAdjusterMgr
  3
AcMeServices
 90
        0
280
     0
281
     0
  0
CLASS
  1
AMGSETTINGSOBJ
  2
AmgSettingsObj
  3
"AcadM|Product Description: AutoCAD Mechanical 2000|Company: Autodesk"
 90
        0
280
     0
281
     0
  0
CLASS
  1
AMGOBJPROPCFG
  2
AmgObjPropCfg
  3
"AmgLay|Product Description: AutoCAD Mechanical 2000|Company: Autodesk"
 90
        1
280
     0
281
     0
  0
CLASS
  1
ACMDATADICTIONARY
  2
AcmDataDictionary
  3
"AcmSymBB|Product Description: AutoCAD Mechanical 2004 DX|Company: Autodesk"
 90
        0
280
     0
281
     0
  0
CLASS
  1
ACMDATAENTRYBLOCK
  2
AcmDataEntryBlock
  3
"AcmSymBB|Product Description: AutoCAD Mechanical 2004 DX|Company: Autodesk"
 90
    32768
280
     0
281
     0
  0
CLASS
  1
ACIMSTRSYSVAR
  2
AcImStrSysVar
  3
AcMeServices
 90
        0
280
     0
281
     0
  0
CLASS
  1
ACAMGFILTERDAT
  2
AcAmgFilterDat
  3
"AcadM|Product Description: AutoCAD Mechanical 2000|Company: Autodesk"
 90
    32768
280
     0
281
     0
  0
CLASS
  1
LAYER_INDEX
  2
AcDbLayerIndex
  3
ObjectDBX Classes
 90
        0
280
     0
281
     0
  0
CLASS
  1
IDBUFFER
  2
AcDbIdBuffer
  3
ObjectDBX Classes
 90
        0
280
     0
281
     0
  0
CLASS
  1
ACMSTANDARDJIS
  2
AcmStandardJIS
  3
"Amdt_StdImp|Product Description: AutoCAD Mechanical 2004 DX|Company: Autodesk"
 90
    32768
280
     0
281
     0
  0
CLASS
  1
ACMSURFSTANDARDJIS
  2
AcmSurfTextStdJIS
  3
"Amdt_StdImp|Product Description: AutoCAD Mechanical 2004 DX|Company: Autodesk"
 90
    32768
280
     0
281
     0
  0
CLASS
  1
ACMFCFSTANDARDJIS
  2
AcmFCFStdJIS
  3
"Amdt_StdImp|Product Description: AutoCAD Mechanical 2004 DX|Company: Autodesk"
 90
    32768
280
     0
281
     0
  0
CLASS
  1
ACMWELDSTANDARDJIS
  2
AcmWeldingStdJIS
  3
"Amdt_StdImp|Product Description: AutoCAD Mechanical 2004 DX|Company: Autodesk"
 90
    32768
280
     0
281
     0
  0
CLASS
  1
ACMIDSTANDARDJIS
  2
AcmIdStdJIS
  3
"Amdt_StdImp|Product Description: AutoCAD Mechanical 2004 DX|Company: Autodesk"
 90
    32768
280
     0
281
     0
  0
CLASS
  1
ACMDATUMSTANDARDJIS
  2
AcmDatumStdJIS
  3
"Amdt_StdImp|Product Description: AutoCAD Mechanical 2004 DX|Company: Autodesk"
 90
    32768
280
     0
281
     0
  0
CLASS
  1
ACMBOMSTANDARDJIS
  2
AcmBOMStdJIS
  3
"Amdt_StdImp|Product Description: AutoCAD Mechanical 2004 DX|Company: Autodesk"
 90
    32768
280
     0
281
     0
  0
CLASS
  1
AMDTNOTE
  2
AmdtNote
  3
"AcmSymBB|Product Description: AutoCAD Mechanical 2004 DX|Company: Autodesk"
 90
    33791
280
     0
281
     1
  0
CLASS
  1
ACMDATAENTRYPART
  2
AcmDataEntryPart
  3
"AcmSymBB|Product Description: AutoCAD Mechanical 2004 DX|Company: Autodesk"
 90
    32768
280
     0
281
     0
  0
CLASS
  1
ACMPARTREF
  2
AcmPartRef
  3
"AcmSymBB|Product Description: AutoCAD Mechanical 2004 DX|Company: Autodesk"
 90
    33791
280
     0
281
     1
  0
CLASS
  1
ACDB_PROXY_ENTITY_DATA
  2
AcDbProxyEntityData
  3
ObjectDBX Classes
 90
    32768
280
     0
281
     0
  0
CLASS
  1
TABLESTYLE
  2
AcDbTableStyle
  3
ObjectDBX Classes
 90
     2047
280
     0
281
     0
  0
CLASS
  1
ACGREFMASTER
  2
AcGrefMaster
  3
AcAttribServices
 90
        0
280
     0
281
     0
  0
CLASS
  1
AM_DRAWING_MGR
  2
AcDmDwgMgr
  3
AcMechDwgViewMgmt
 90
        0
280
     0
281
     0
  0
CLASS
  1
AM_DWG_DOCUMENT
  2
AcDmDwgDocument
  3
AcMechDwgViewMgmt
 90
        0
280
     0
281
     0
  0
CLASS
  1
AM_DWG_SHEET
  2
AcDmSheet
  3
AcMechDwgViewMgmt
 90
        0
280
     0
281
     0
  0
CLASS
  1
AM_VIEWDIMPARMAP
  2
AcDmViewDimParMap
  3
AcMechDwgViewMgmt
 90
        0
280
     0
281
     0
  0
CLASS
  1
AM_DWGMGR_NAME
  2
AcDmDwgMgrName
  3
AcMechDwgViewMgmt
 90
        0
280
     0
281
     0
  0
CLASS
  1
ACGREFACADMASTER
  2
AcGrefacadMaster
  3
AcGrefServices
 90
        0
280
     0
281
     0
  0
CLASS
  1
AMDTMENUSTATEMGR
  2
AmdtMenuStateMgr
  3
McadcomServices
 90
        0
280
     0
281
     0
  0
CLASS
  1
AMDTMCOMMENUSTATE
  2
AmdtMcomMenuState
  3
McadcomServices
 90
        0
280
     0
281
     0
  0
CLASS
  1
AMIMASTER
  2
AmiMaster
  3
AmiServices
 90
        0
280
     0
281
     0
  0
CLASS
  1
MAPIAMMOUDLE
  2
MApiAmModule
  3
MApiAmServices
 90
        0
280
     0
281
     0
  0
CLASS
  1
AMDTADMENUSTATE
  2
AmdtAdMenuState
  3
DesignerServices
 90
        0
280
     0
281
     0
  0
CLASS
  1
ADAPPL
  2
AcAdAppl
  3
DesignerServices
 90
        0
280
     0
281
     0
  0
CLASS
  1
DEPMGR
  2
AcAdDepMgr
  3
DesignerServices
 90
        0
280
     0
281
     0
  0
CLASS
  1
PARAMMGR
  2
AcAdParamMgr
  3
DesignerServices
 90
        0
280
     0
281
     0
  0
CLASS
  1
PARAMSCOPE
  2
AcAdParamScope
  3
DesignerServices
 90
        0
280
     0
281
     0
  0
CLASS
  1
NAMEDAPPL
  2
AcAdNamedAppl
  3
DesignerServices
 90
        0
280
     0
281
     0
  0
CLASS
  1
AMDTDMMENUSTATE
  2
AmdtDmMenuState
  3
AcMechDwgViewMgmt
 90
        0
280
     0
281
     0
  0
CLASS
  1
AMDTAMMENUSTATE
  2
AmdtAmMenuState
  3
DesignerAssemblies
 90
        0
280
     0
281
     0
  0
CLASS
  1
ACAMPROJECT
  2
AcAmProject
  3
DesignerAssemblies
 90
        0
280
     0
281
     0
  0
CLASS
  1
ACAMGRCOMPDEF
  2
AcAmGrCompDef
  3
DesignerAssemblies
 90
        0
280
     0
281
     0
  0
CLASS
  1
ACCMCONTEXT
  2
AcCmContext
  3
DesignerAssemblies
 90
        0
280
     0
281
     0
  0
CLASS
  1
ACAMCOMPDEF
  2
AcAmCompDef
  3
DesignerAssemblies
 90
        0
280
     0
281
     0
  0
CLASS
  1
ACAMCOMPDEFMGR
  2
AcAmCompDefMgr
  3
DesignerAssemblies
 90
        0
280
     0
281
     0
  0
CLASS
  1
AMCONTEXTMGR
  2
AcAmContextMgr
  3
DesignerAssemblies
 90
        0
280
     0
281
     0
  0
CLASS
  1
ACAMCONTEXTMODELER
  2
AcAmContextModeler
  3
DesignerAssemblies
 90
        0
280
     0
281
     0
  0
CLASS
  1
CATALOGSTATE
  2
AcAmCatalogState
  3
DesignerAssemblies
 90
        0
280
     0
281
     0
  0
CLASS
  1
ACAMGRCOMPDEFSET
  2
AcAmGrCompDefSet
  3
DesignerAssemblies
 90
        0
280
     0
281
     0
  0
CLASS
  1
AMDTBROWSERDBTAB
  2
AmdtBrowserDbTab
  3
McadcomServices
 90
        0
280
     0
281
     0
  0
CLASS
  1
CBROWSERAPPOBJECT
  2
CBrowserAppObject
  3
McadcomServices
 90
        0
280
     0
281
     0
  0
CLASS
  1
DM_PLACEHOLDER
  2
AcDmSelsetPlaceholder
  3
AcMechDwgViewMgmt
 90
        0
280
     0
281
     0
  0
CLASS
  1
ACMSTANDARDISO
  2
AcmStandardISO
  3
"Amdt_StdImp|Product Description: AutoCAD Mechanical 2004 DX|Company: Autodesk"
 90
        0
280
     0
281
     0
  0
CLASS
  1
AMDTEDGESTANDARDISO13715
  2
AmdtEdgeStdISO13715
  3
"Amdt_StdImp|Product Description: AutoCAD Mechanical 2004 DX|Company: Autodesk"
 90
        0
280
     0
281
     0
  0
CLASS
  1
ACMSURFSTANDARDISO
  2
AcmSurfTextStdISO
  3
"Amdt_StdImp|Product Description: AutoCAD Mechanical 2004 DX|Company: Autodesk"
 90
        0
280
     0
281
     0
  0
CLASS
  1
ACMFCFSTANDARDISO
  2
AcmFCFStdISO
  3
"Amdt_StdImp|Product Description: AutoCAD Mechanical 2004 DX|Company: Autodesk"
 90
        0
280
     0
281
     0
  0
CLASS
  1
ACMWELDSTANDARDISO
  2
AcmWeldingStdISO
  3
"Amdt_StdImp|Product Description: AutoCAD Mechanical 2004 DX|Company: Autodesk"
 90
        0
280
     0
281
     0
  0
CLASS
  1
ACMIDSTANDARDISO
  2
AcmIdStdISO
  3
"Amdt_StdImp|Product Description: AutoCAD Mechanical 2004 DX|Company: Autodesk"
 90
        0
280
     0
281
     0
  0
CLASS
  1
ACMDATUMSTANDARDISO
  2
AcmDatumStdISO
  3
"Amdt_StdImp|Product Description: AutoCAD Mechanical 2004 DX|Company: Autodesk"
 90
        0
280
     0
281
     0
  0
CLASS
  1
ACMBOMSTANDARDISO
  2
AcmBOMStdISO
  3
"Amdt_StdImp|Product Description: AutoCAD Mechanical 2004 DX|Company: Autodesk"
 90
        0
280
     0
281
     0
  0
CLASS
  1
ACMDETAILSTANDARDISO
  2
AmdtDetailSymStdISO
  3
"Amdt_StdImp|Product Description: AutoCAD Mechanical 2004 DX|Company: Autodesk"
 90
        0
280
     0
281
     0
  0
CLASS
  1
ACMSECTIONSTANDARDISO
  2
AmdtSectionSymStdISO
  3
"Amdt_StdImp|Product Description: AutoCAD Mechanical 2004 DX|Company: Autodesk"
 90
        0
280
     0
281
     0
  0
CLASS
  1
ACMCENTERLINESTANDARDISO
  2
AmdtCenterLineStdISO
  3
"Amdt_StdImp|Product Description: AutoCAD Mechanical 2004 DX|Company: Autodesk"
 90
        0
280
     0
281
     0
  0
CLASS
  1
ACMTHREADLINESTANDARDISO
  2
AmdtThreadLineStdISO
  3
"Amdt_StdImp|Product Description: AutoCAD Mechanical 2004 DX|Company: Autodesk"
 90
        0
280
     0
281
     0
  0
CLASS
  1
ACMNOTESTANDARDISO
  2
AmdtNoteStdISO
  3
"Amdt_StdImp|Product Description: AutoCAD Mechanical 2004 DX|Company: Autodesk"
 90
        0
280
     0
281
     0
  0
CLASS
  1
AMDTNOTETEMPLATEDB
  2
AmdtNoteTemplateDB
  3
AMDT_STDIMP_MODULE_NAME
 90
        0
280
     0
281
     0
  0
CLASS
  1
ACAMGLAYSTD
  2
AcAmgLayStd
  3
"AcAmgLayStd|Product Description: AutoCAD Mechanical 2000|Company: Autodesk"
 90
        0
280
     0
281
     0
  0
CLASS
  1
ACAMGDIMSTD
  2
AcAmgDimStd
  3
"AcAmgDimStd|Product Description: AutoCAD Mechanical 2000|Company: Autodesk"
 90
        0
280
     0
281
     0
  0
CLASS
  1
ACAMGHOLECHARTSTDISO
  2
AcAmgHoleChartStdISO
  3
ACMSYMBB_MODULE_NAME
 90
        0
280
     0
281
     0
  0
CLASS
  1
ACAMGTITLESTD
  2
AcAmgTitleStd
  3
"TITLEAPP"
 90
        0
280
     0
281
     0
  0
ENDSEC
  0
SECTION
  2
TABLES
  0
TABLE
  2
VPORT
  5
8
330
0
100
AcDbSymbolTable
 70
     3
  0
VPORT
  5
B2B2
330
8
100
AcDbSymbolTableRecord
100
AcDbViewportTableRecord
  2
*Active
 70
     0
 10
0.0
 20
0.0
 11
1.0
 21
1.0
 12
44.5398709224338
 22
-26.20093418321821
 13
0.0
 23
0.0
 14
2.5
 24
2.5
 15
10.0
 25
10.0
 16
0.0
 26
0.0
 36
1.0
 17
0.0
 27
0.0
 37
0.0
 40
150.1653192884464
 41
2.176400476758045
 42
50.0
 43
0.0
 44
0.0
 50
0.0
 51
0.0
 71
     0
 72
  2000
 73
     1
 74
     3
 75
     0
 76
     0
 77
     0
 78
     0
281
     0
 65
     0
110
0.0
120
0.0
130
0.0
111
1.0
121
0.0
131
0.0
112
0.0
122
1.0
132
0.0
 79
     0
146
0.0
  0
ENDTAB
  0
TABLE
  2
LTYPE
  5
5
330
0
100
AcDbSymbolTable
 70
    16
  0
LTYPE
  5
14
330
5
100
AcDbSymbolTableRecord
100
AcDbLinetypeTableRecord
  2
BYBLOCK
 70
     0
  3

 72
    65
 73
     0
 40
0.0
  0
LTYPE
  5
15
330
5
100
AcDbSymbolTableRecord
100
AcDbLinetypeTableRecord
  2
BYLAYER
 70
     0
  3

 72
    65
 73
     0
 40
0.0
  0
LTYPE
  5
16
330
5
100
AcDbSymbolTableRecord
100
AcDbLinetypeTableRecord
  2
CONTINUOUS
 70
     0
  3
Solid line
 72
    65
 73
     0
 40
0.0
  0
LTYPE
  5
43
330
5
100
AcDbSymbolTableRecord
100
AcDbLinetypeTableRecord
  2
AM_ISO02W050
 70
     0
  3
__ __ __ __ __ __ __ __ __ __ __ __ __ __ __
 72
    65
 73
     2
 40
7.5
 49
6.0
 74
     0
 49
-1.5
 74
     0
  0
LTYPE
  5
44
330
5
100
AcDbSymbolTableRecord
100
AcDbLinetypeTableRecord
  2
AM_ISO08W050
 70
     0
  3
____ . ____ . ____ . ____ . ____ . ____ . ____
 72
    65
 73
     4
 40
18.0
 49
12.0
 74
     0
 49
-1.5
 74
     0
 49
3.0
 74
     0
 49
-1.5
 74
     0
  0
LTYPE
  5
45
330
5
100
AcDbSymbolTableRecord
100
AcDbLinetypeTableRecord
  2
AM_ISO09W050
 70
     0
  3
_____ . . _____ . . _____ . . ____ .. ____
 72
    65
 73
     6
 40
22.5
 49
12.0
 74
     0
 49
-1.5
 74
     0
 49
3.0
 74
     0
 49
-1.5
 74
     0
 49
3.0
 74
     0
 49
-1.5
 74
     0
  0
LTYPE
  5
46
330
5
100
AcDbSymbolTableRecord
100
AcDbLinetypeTableRecord
  2
AMCONSTR
 70
     0
  3
_______________________
 72
    65
 73
     2
 40
9999.0
 49
9999.0
 74
     0
 49
0.0
 74
     0
  0
LTYPE
  5
47
330
5
100
AcDbSymbolTableRecord
100
AcDbLinetypeTableRecord
  2
AM_ISO02W050X2
 70
     0
  3
 _ _ _ _ _ _ _ _ _ _ _ _
 72
    65
 73
     2
 40
3.75
 49
3.0
 74
     0
 49
-0.75
 74
     0
  0
LTYPE
  5
48
330
5
100
AcDbSymbolTableRecord
100
AcDbLinetypeTableRecord
  2
AM_ISO08W050X2
 70
     0
  3
__ . __ . __ . __ . __ . __
 72
    65
 73
     4
 40
9.0
 49
6.0
 74
     0
 49
-0.75
 74
     0
 49
1.5
 74
     0
 49
-0.75
 74
     0
  0
LTYPE
  5
4B
330
5
100
AcDbSymbolTableRecord
100
AcDbLinetypeTableRecord
  2
AMZIGZAG
 70
     0
  3
/\/-/\/-/\/-/\/-/\/-/\/
 72
    65
 73
     2
 40
11.00009999999999
 49
0.0001
 74
     4
 75
   135
340
4A
 46
0.04
 50
0.0
 44
0.0
 45
0.0
 49
-11.0
 74
     0
  0
LTYPE
  5
B19A
330
5
100
AcDbSymbolTableRecord
100
AcDbLinetypeTableRecord
  2
HIDDEN
 70
     0
  3
Hidden __ __ __ __ __ __ __ __ __ __ __ __ __ _
 72
    65
 73
     2
 40
9.524999999999998
 49
6.349999999999999
 74
     0
 49
-3.174999999999999
 74
     0
  0
LTYPE
  5
B19B
330
5
100
AcDbSymbolTableRecord
100
AcDbLinetypeTableRecord
  2
PHANTOM2
 70
     0
  3
Phantom (.5x) ___ _ _ ___ _ _ ___ _ _ ___ _ _
 72
    65
 73
     6
 40
31.75
 49
15.875
 74
     0
 49
-3.174999999999999
 74
     0
 49
3.174999999999999
 74
     0
 49
-3.174999999999999
 74
     0
 49
3.174999999999999
 74
     0
 49
-3.174999999999999
 74
     0
  0
LTYPE
  5
B19C
330
5
100
AcDbSymbolTableRecord
100
AcDbLinetypeTableRecord
  2
CENTER
 70
     0
  3
Center ____ _ ____ _ ____ _ ____ _ ____ _ ____
 72
    65
 73
     4
 40
50.8
 49
31.75
 74
     0
 49
-6.349999999999999
 74
     0
 49
6.349999999999999
 74
     0
 49
-6.349999999999999
 74
     0
  0
LTYPE
  5
B1DC
330
5
100
AcDbSymbolTableRecord
100
AcDbLinetypeTableRecord
  2
ACISOWELD
 70
     0
  3
_ _ _ _ _
 72
    65
 73
     2
 40
2.0
 49
2.0
 74
     0
 49
-1.0
 74
     0
  0
LTYPE
  5
B1DD
330
5
100
AcDbSymbolTableRecord
100
AcDbLinetypeTableRecord
  2
ACISOTGB
 70
     0
  3
__ . . __ . .
 72
    65
 73
     6
 40
9.0
 49
4.0
 74
     0
 49
-1.0
 74
     0
 49
1.0
 74
     0
 49
-1.0
 74
     0
 49
1.0
 74
     0
 49
-1.0
 74
     0
  0
LTYPE
  5
B1DE
330
5
100
AcDbSymbolTableRecord
100
AcDbLinetypeTableRecord
  2
ACISOTGL
 70
     0
  3
_ _ _ _ _
 72
    65
 73
     2
 40
3.0
 49
2.0
 74
     0
 49
-1.0
 74
     0
  0
ENDTAB
  0
TABLE
  2
LAYER
  5
2
330
0
100
AcDbSymbolTable
 70
    11
  0
LAYER
  5
10
330
2
100
AcDbSymbolTableRecord
100
AcDbLayerTableRecord
  2
0
 70
     0
 62
     7
  6
CONTINUOUS
370
    -3
390
F
  0
LAYER
  5
7D
330
2
100
AcDbSymbolTableRecord
100
AcDbLayerTableRecord
  2
AM_5
 70
     0
 62
     3
  6
CONTINUOUS
370
    -3
390
F
  0
LAYER
  5
7F
330
2
100
AcDbSymbolTableRecord
100
AcDbLayerTableRecord
  2
DEFPOINTS
 70
     0
 62
     7
  6
CONTINUOUS
290
     0
370
    -3
390
F
  0
LAYER
  5
12B1
330
2
100
AcDbSymbolTableRecord
100
AcDbLayerTableRecord
  2
AM_0
 70
     0
 62
     7
  6
CONTINUOUS
370
    -3
390
F
  0
LAYER
  5
2222
330
2
100
AcDbSymbolTableRecord
100
AcDbLayerTableRecord
  2
AM_6
 70
     0
 62
     2
  6
CONTINUOUS
370
    -3
390
F
  0
LAYER
  5
4379
330
2
100
AcDbSymbolTableRecord
100
AcDbLayerTableRecord
  2
AM_1
 70
     0
 62
     3
  6
CONTINUOUS
370
    -3
390
F
  0
LAYER
  5
8B83
330
2
100
AcDbSymbolTableRecord
100
AcDbLayerTableRecord
  2
PV0001_1
 70
     0
 62
     7
  6
CONTINUOUS
370
    -3
390
F
  0
ENDTAB
  0
TABLE
  2
STYLE
  5
3
330
0
100
AcDbSymbolTable
 70
     6
  0
STYLE
  5
11
330
3
100
AcDbSymbolTableRecord
100
AcDbTextStyleTableRecord
  2
STANDARD
 70
     0
 40
0.0
 41
1.0
 50
0.0
 71
     0
 42
2.5
  3
ISOCP.SHX
  4
EXTFONT.SHX
  0
STYLE
  5
4A
330
3
100
AcDbSymbolTableRecord
100
AcDbTextStyleTableRecord
  2

 70
     1
 40
0.0
 41
1.0
 50
0.0
 71
     0
 42
2.5
  3
ltypeshp.shx
  4

  0
STYLE
  5
B1CE
330
3
100
AcDbSymbolTableRecord
100
AcDbTextStyleTableRecord
  2
ACISOTS
 70
     0
 40
1.0
 41
1.0
 50
0.0
 71
     0
 42
2.5
  3
isocp.shx
  4
extfont.shx
  0
STYLE
  5
B1DB
330
3
100
AcDbSymbolTableRecord
100
AcDbTextStyleTableRecord
  2
ACISOGDT
 70
     0
 40
0.0
 41
1.0
 50
0.0
 71
     0
 42
2.5
  3
amgdt.shx
  4

  0
ENDTAB
  0
TABLE
  2
VIEW
  5
6
330
0
100
AcDbSymbolTable
 70
     6
  0
VIEW
  5
A30
330
6
100
AcDbSymbolTableRecord
100
AcDbViewTableRecord
  2
AM_VIEW1
 70
     0
 40
148.5
 10
112.0719649561952
 20
222.75
 41
224.1439299123904
 11
0.0
 21
0.0
 31
1.0
 12
0.0
 22
0.0
 32
0.0
 42
50.0
 43
0.0
 44
0.0
 50
0.0
 71
     0
281
     0
 72
     0
  0
VIEW
  5
A31
330
6
100
AcDbSymbolTableRecord
100
AcDbViewTableRecord
  2
AM_VIEW2
 70
     0
 40
148.5
 10
307.9280350438047
 20
222.75
 41
224.1439299123904
 11
0.0
 21
0.0
 31
1.0
 12
0.0
 22
0.0
 32
0.0
 42
50.0
 43
0.0
 44
0.0
 50
0.0
 71
     0
281
     0
 72
     0
  0
VIEW
  5
A32
330
6
100
AcDbSymbolTableRecord
100
AcDbViewTableRecord
  2
AM_VIEW3
 70
     0
 40
148.5
 10
112.0719649561952
 20
74.25
 41
224.1439299123904
 11
0.0
 21
0.0
 31
1.0
 12
0.0
 22
0.0
 32
0.0
 42
50.0
 43
0.0
 44
0.0
 50
0.0
 71
     0
281
     0
 72
     0
  0
VIEW
  5
A33
330
6
100
AcDbSymbolTableRecord
100
AcDbViewTableRecord
  2
AM_VIEW4
 70
     0
 40
148.5
 10
307.9280350438047
 20
74.25
 41
224.1439299123904
 11
0.0
 21
0.0
 31
1.0
 12
0.0
 22
0.0
 32
0.0
 42
50.0
 43
0.0
 44
0.0
 50
0.0
 71
     0
281
     0
 72
     0
  0
VIEW
  5
A34
330
6
100
AcDbSymbolTableRecord
100
AcDbViewTableRecord
  2
AM_VIEW5
 70
     0
 40
148.5
 10
210.0
 20
148.5
 41
224.1439299123904
 11
0.0
 21
0.0
 31
1.0
 12
0.0
 22
0.0
 32
0.0
 42
50.0
 43
0.0
 44
0.0
 50
0.0
 71
     0
281
     0
 72
     0
  0
VIEW
  5
A35
330
6
100
AcDbSymbolTableRecord
100
AcDbViewTableRecord
  2
AM_VIEW6
 70
     0
 40
296.9970299999999
 10
210.0
 20
148.5
 41
448.2833769461826
 11
0.0
 21
0.0
 31
1.0
 12
0.0
 22
0.0
 32
0.0
 42
50.0
 43
0.0
 44
0.0
 50
0.0
 71
     0
281
     0
 72
     0
  0
ENDTAB
  0
TABLE
  2
UCS
  5
7
330
0
100
AcDbSymbolTable
 70
     0
  0
ENDTAB
  0
TABLE
  2
APPID
  5
9
330
0
100
AcDbSymbolTable
 70
    42
  0
APPID
  5
12
330
9
100
AcDbSymbolTableRecord
100
AcDbRegAppTableRecord
  2
ACAD
 70
     0
  0
APPID
  5
2C
330
9
100
AcDbSymbolTableRecord
100
AcDbRegAppTableRecord
  2
MCAD_NO_VIS
 70
     0
  0
APPID
  5
2D
330
9
100
AcDbSymbolTableRecord
100
AcDbRegAppTableRecord
  2
ACAD_TEMP_GRAPHIC
 70
     0
  0
APPID
  5
B9
330
9
100
AcDbSymbolTableRecord
100
AcDbRegAppTableRecord
  2
GENIUS_GENDTOL_13
 70
     0
  0
APPID
  5
359
330
9
100
AcDbSymbolTableRecord
100
AcDbRegAppTableRecord
  2
GENIUS_GENREC_14
 70
     0
  0
APPID
  5
35A
330
9
100
AcDbSymbolTableRecord
100
AcDbRegAppTableRecord
  2
GENIUS_GENODEF_13
 70
     0
  0
APPID
  5
35B
330
9
100
AcDbSymbolTableRecord
100
AcDbRegAppTableRecord
  2
GENIUS_GENOBJ-N-REC_13
 70
     0
  0
APPID
  5
667
330
9
100
AcDbSymbolTableRecord
100
AcDbRegAppTableRecord
  2
GENIUS_GENCFG_13
 70
     0
  0
APPID
  5
668
330
9
100
AcDbSymbolTableRecord
100
AcDbRegAppTableRecord
  2
GENIUS_GENCFG0_13
 70
     0
  0
APPID
  5
669
330
9
100
AcDbSymbolTableRecord
100
AcDbRegAppTableRecord
  2
GENIUS_GENCFG1_13
 70
     0
  0
APPID
  5
66A
330
9
100
AcDbSymbolTableRecord
100
AcDbRegAppTableRecord
  2
GENIUS_GENCFG2_13
 70
     0
  0
APPID
  5
66B
330
9
100
AcDbSymbolTableRecord
100
AcDbRegAppTableRecord
  2
GENIUS_GENCFG3_13
 70
     0
  0
APPID
  5
66C
330
9
100
AcDbSymbolTableRecord
100
AcDbRegAppTableRecord
  2
GENIUS_GENCFG4_13
 70
     0
  0
APPID
  5
A76
330
9
100
AcDbSymbolTableRecord
100
AcDbRegAppTableRecord
  2
GENIUS_GENBLLY_14
 70
     0
  0
APPID
  5
A77
330
9
100
AcDbSymbolTableRecord
100
AcDbRegAppTableRecord
  2
GENIUS_GENOBJ-N-CEN_13
 70
     0
  0
APPID
  5
A83
330
9
100
AcDbSymbolTableRecord
100
AcDbRegAppTableRecord
  2
GENIUS_GENTRA_14
 70
     0
  0
APPID
  5
A8D
330
9
100
AcDbSymbolTableRecord
100
AcDbRegAppTableRecord
  2
GENIUS_GENOBJ-N-TIT_13
 70
     0
  0
APPID
  5
A8E
330
9
100
AcDbSymbolTableRecord
100
AcDbRegAppTableRecord
  2
GENIUS_GENTITLE_13
 70
     0
  0
APPID
  5
A8F
330
9
100
AcDbSymbolTableRecord
100
AcDbRegAppTableRecord
  2
GENIUS_GENOENT_13
 70
     0
  0
APPID
  5
A90
330
9
100
AcDbSymbolTableRecord
100
AcDbRegAppTableRecord
  2
GENIUS_GENOREF_13
 70
     0
  0
APPID
  5
A91
330
9
100
AcDbSymbolTableRecord
100
AcDbRegAppTableRecord
  2
GENIUS_GENOLIS_13
 70
     0
  0
APPID
  5
A92
330
9
100
AcDbSymbolTableRecord
100
AcDbRegAppTableRecord
  2
GENIUS_GENZVEED_13
 70
     0
  0
APPID
  5
A93
330
9
100
AcDbSymbolTableRecord
100
AcDbRegAppTableRecord
  2
GENIUS_GENSCREG_15
 70
     0
  0
APPID
  5
A94
330
9
100
AcDbSymbolTableRecord
100
AcDbRegAppTableRecord
  2
GENIUS_GENOBJ-N-SDF_13
 70
     0
  0
APPID
  5
12B5
330
9
100
AcDbSymbolTableRecord
100
AcDbRegAppTableRecord
  2
GENIUS_GENOBJ-N-RSBK_13
 70
     0
  0
APPID
  5
12B6
330
9
100
AcDbSymbolTableRecord
100
AcDbRegAppTableRecord
  2
GENIUS_GENOBJ-N-LIB_13
 70
     0
  0
APPID
  5
12B7
330
9
100
AcDbSymbolTableRecord
100
AcDbRegAppTableRecord
  2
GENIUS_GENSCALE_13
 70
     0
  0
APPID
  5
12B8
330
9
100
AcDbSymbolTableRecord
100
AcDbRegAppTableRecord
  2
GENIUS_GENOBJ-N-HTC_13
 70
     0
  0
APPID
  5
12B9
330
9
100
AcDbSymbolTableRecord
100
AcDbRegAppTableRecord
  2
GENIUS_GENHATCH_13
 70
     0
  0
APPID
  5
1C0A
330
9
100
AcDbSymbolTableRecord
100
AcDbRegAppTableRecord
  2
BASE_TYPE
 70
     0
  0
APPID
  5
276B
330
9
100
AcDbSymbolTableRecord
100
AcDbRegAppTableRecord
  2
GENIUS_GENOBJ-N-FIL_13
 70
     0
  0
APPID
  5
3640
330
9
100
AcDbSymbolTableRecord
100
AcDbRegAppTableRecord
  2
GENIUS_GENBH_13
 70
     0
  0
APPID
  5
36D1
330
9
100
AcDbSymbolTableRecord
100
AcDbRegAppTableRecord
  2
GENIUS_GENOBJ-F-SPR_13
 70
     0
  0
APPID
  5
36DA
330
9
100
AcDbSymbolTableRecord
100
AcDbRegAppTableRecord
  2
GENIUS_GEFSPRING_13
 70
     0
  0
APPID
  5
36DB
330
9
100
AcDbSymbolTableRecord
100
AcDbRegAppTableRecord
  2
GENIUS_GEFSPRINGP_13
 70
     0
  0
APPID
  5
4D67
330
9
100
AcDbSymbolTableRecord
100
AcDbRegAppTableRecord
  2
GENIUS_GENFIL_13
 70
     0
  0
APPID
  5
4D68
330
9
100
AcDbSymbolTableRecord
100
AcDbRegAppTableRecord
  2
GENIUS_GENOBJ-N-CHA_13
 70
     0
  0
APPID
  5
B19E
330
9
100
AcDbSymbolTableRecord
100
AcDbRegAppTableRecord
  2
AD_DRAW
 70
     0
  0
APPID
  5
B1A1
330
9
100
AcDbSymbolTableRecord
100
AcDbRegAppTableRecord
  2
ACATTRIBSERVICES
 70
     0
  0
APPID
  5
B1BF
330
9
100
AcDbSymbolTableRecord
100
AcDbRegAppTableRecord
  2
DESIGNERASSEMBLIES
 70
     0
  0
APPID
  5
B1C4
330
9
100
AcDbSymbolTableRecord
100
AcDbRegAppTableRecord
  2
ACADM_DIM_EDIT
 70
     0
  0
APPID
  5
B1C5
330
9
100
AcDbSymbolTableRecord
100
AcDbRegAppTableRecord
  2
AMDT_DM_ADJ
 70
     0
  0
ENDTAB
  0
TABLE
  2
DIMSTYLE
  5
A
330
0
100
AcDbSymbolTable
 70
    19
100
AcDbDimStyleTable
 71
     0
  0
DIMSTYLE
105
58
330
A
100
AcDbSymbolTableRecord
100
AcDbDimStyleTableRecord
  2
AM_JIS
 70
     0
  4
"
 41
2.5
 42
0.0
 43
10.0
 44
1.0
 47
0.1
 48
0.1000000001
 73
     0
 74
     0
 77
     3
 78
     9
140
3.799999999999998
141
0.0
143
0.0393701
146
0.71
147
1.5
172
     1
176
   256
177
   256
178
     2
271
     2
272
     2
275
     1
283
     0
284
     8
340
11
341
59
342
59
  0
DIMSTYLE
105
65F
330
A
100
AcDbSymbolTableRecord
100
AcDbDimStyleTableRecord
  2
STANDARD
 70
     0
340
11
  0
DIMSTYLE
105
1761
102
{ACAD_REACTORS
330
AE6E
330
AE6F
330
AE6D
330
AF04
330
AF05
330
AFBF
102
}
330
A
100
AcDbSymbolTableRecord
100
AcDbDimStyleTableRecord
  2
AM_JIS$0
 70
     0
  4
"
 41
2.5
 42
0.0
 43
10.0
 44
1.0
 47
0.1
 48
0.1000000001
 73
     0
 74
     0
 77
     3
 78
     9
140
3.799999999999998
141
0.0
143
0.0393701
146
0.71
147
1.5
172
     1
176
     3
177
     3
178
     2
271
     2
272
     2
275
     1
283
     0
284
     8
340
11
341
59
342
59
  0
DIMSTYLE
105
1762
102
{ACAD_REACTORS
330
AEC2
330
AEC3
330
AF03
102
}
330
A
100
AcDbSymbolTableRecord
100
AcDbDimStyleTableRecord
  2
AM_JIS$2
 70
     0
  4
"
 41
2.5
 42
0.0
 43
10.0
 44
1.0
 47
0.1
 48
0.1000000001
 73
     0
 74
     0
 77
     3
 78
     9
140
3.799999999999998
141
0.0
143
0.0393701
146
0.71
147
1.5
172
     1
176
     3
177
     3
178
     2
271
     2
272
     2
275
     1
283
     0
284
     8
340
11
341
59
342
59
  0
DIMSTYLE
105
B1E7
330
A
100
AcDbSymbolTableRecord
100
AcDbDimStyleTableRecord
  2
AM_ISO
 70
     0
  4
"
 41
2.5
 42
1.0
 43
10.0
 44
1.0
 47
0.1
 48
0.1
 73
     0
 74
     0
 77
     1
 78
     8
 79
     2
140
3.5
141
0.0
143
0.0393701
146
0.71
147
1.5
172
     1
176
   256
177
   256
178
     2
271
     2
272
     3
274
     4
283
     0
284
     8
340
11
371
    -1
372
    -1
  0
DIMSTYLE
105
B1E8
330
A
100
AcDbSymbolTableRecord
100
AcDbDimStyleTableRecord
  2
AM_ISO$3
 70
     0
  4
"
 41
2.5
 42
1.0
 43
10.0
 44
1.0
 47
0.1
 48
0.1
 73
     0
 77
     1
 78
     8
 79
     2
140
3.5
141
0.0
143
0.0393701
146
0.71
147
1.5
176
   256
177
   256
178
     2
271
     2
272
     3
274
     4
283
     0
284
     8
288
     1
289
     0
340
11
371
    -1
372
    -1
  0
DIMSTYLE
105
B1E9
330
A
100
AcDbSymbolTableRecord
100
AcDbDimStyleTableRecord
  2
AM_ISO$4
 70
     0
  4
"
 41
2.5
 42
1.0
 43
10.0
 44
1.0
 47
0.1
 48
0.1
 73
     0
 77
     1
 78
     8
 79
     2
140
3.5
141
0.0
143
0.0393701
146
0.71
147
1.5
176
   256
177
   256
178
     2
271
     2
272
     3
274
     4
283
     0
284
     8
288
     1
289
     0
340
11
371
    -1
372
    -1
  0
DIMSTYLE
105
B1EA
330
A
100
AcDbSymbolTableRecord
100
AcDbDimStyleTableRecord
  2
AM_ISO$6
 70
     0
  4
"
 41
2.5
 42
1.0
 43
10.0
 44
1.0
 47
0.1
 48
0.1
 73
     0
 74
     0
 78
     8
 79
     2
140
3.5
141
0.0
143
0.0393701
146
0.71
147
1.5
172
     1
176
   256
177
   256
178
     2
271
     2
272
     3
274
     4
283
     0
284
     8
340
11
371
    -1
372
    -1
  0
DIMSTYLE
105
B1EB
330
A
100
AcDbSymbolTableRecord
100
AcDbDimStyleTableRecord
  2
AM_ISO$7
 70
     0
  4
"
 41
2.5
 42
1.0
 43
10.0
 44
1.0
 47
0.1
 48
0.1
 73
     0
 74
     0
 77
     1
 78
     8
 79
     2
140
5.0
141
0.0
143
0.0393701
146
0.71
147
1.5
172
     1
176
   256
177
   256
178
     2
271
     2
272
     3
274
     4
283
     0
284
     8
340
11
371
    -1
372
    -1
  0
DIMSTYLE
105
B1EC
330
A
100
AcDbSymbolTableRecord
100
AcDbDimStyleTableRecord
  2
AM_ISO$SF
 70
     0
  4
"
 41
2.5
 42
1.0
 43
10.0
 44
1.0
 47
0.1
 48
0.1
 73
     0
 74
     0
 75
     1
 76
     1
 77
     1
 78
     8
 79
     2
140
3.5
141
0.0
143
0.0393701
146
0.71
147
1.5
172
     1
176
   256
177
   256
178
     2
271
     2
272
     3
274
     4
283
     0
284
     8
340
11
371
    -1
372
    -1
  0
DIMSTYLE
105
B1ED
330
A
100
AcDbSymbolTableRecord
100
AcDbDimStyleTableRecord
  2
AM_ISO$SH
 70
     0
  4
"
 41
2.5
 42
1.0
 43
10.0
 44
1.0
 47
0.1
 48
0.1
 73
     0
 74
     0
 75
     1
 76
     1
 77
     1
 78
     8
 79
     2
140
3.5
141
0.0
143
0.0393701
144
2.0
146
0.71
147
1.5
172
     1
173
     1
176
   256
177
   256
178
     2
271
     2
272
     3
274
     4
283
     0
284
     8
340
11
343
64
371
    -1
372
    -1
  0
ENDTAB
  0
TABLE
  2
BLOCK_RECORD
  5
1
330
0
100
AcDbSymbolTable
 70
    16
  0
BLOCK_RECORD
  5
1F
102
{ACAD_XDICTIONARY
360
165
102
}
330
1
100
AcDbSymbolTableRecord
100
AcDbBlockTableRecord
  2
*MODEL_SPACE
340
B166
  0
BLOCK_RECORD
  5
1B
102
{ACAD_XDICTIONARY
360
B120
102
}
330
1
100
AcDbSymbolTableRecord
100
AcDbBlockTableRecord
  2
*PAPER_SPACE
340
B167
  0
BLOCK_RECORD
  5
59
330
1
100
AcDbSymbolTableRecord
100
AcDbBlockTableRecord
  2
_OPEN30
340
0
102
{BLKREFS
331
B253
331
B254
331
B25C
331
B25D
331
B265
331
B266
331
B270
331
B271
331
B27D
331
B27E
331
B28A
331
B28B
331
B295
331
B296
331
B2A0
331
B2A1
331
B2A9
331
B2AA
102
}
  0
BLOCK_RECORD
  5
64
330
1
100
AcDbSymbolTableRecord
100
AcDbBlockTableRecord
  2
GENAXEH
340
0
  0
BLOCK_RECORD
  5
AE70
330
1
100
AcDbSymbolTableRecord
100
AcDbBlockTableRecord
  2
*D6
340
0
  0
BLOCK_RECORD
  5
AE7C
330
1
100
AcDbSymbolTableRecord
100
AcDbBlockTableRecord
  2
*D7
340
0
  0
BLOCK_RECORD
  5
AE88
330
1
100
AcDbSymbolTableRecord
100
AcDbBlockTableRecord
  2
*D8
340
0
  0
BLOCK_RECORD
  5
AEC5
330
1
100
AcDbSymbolTableRecord
100
AcDbBlockTableRecord
  2
*D9
340
0
  0
BLOCK_RECORD
  5
AED7
330
1
100
AcDbSymbolTableRecord
100
AcDbBlockTableRecord
  2
*D10
340
0
  0
BLOCK_RECORD
  5
AF06
330
1
100
AcDbSymbolTableRecord
100
AcDbBlockTableRecord
  2
*D11
340
0
  0
BLOCK_RECORD
  5
AF12
330
1
100
AcDbSymbolTableRecord
100
AcDbBlockTableRecord
  2
*D12
340
0
  0
BLOCK_RECORD
  5
AF20
330
1
100
AcDbSymbolTableRecord
100
AcDbBlockTableRecord
  2
*D13
340
0
  0
BLOCK_RECORD
  5
AFC0
330
1
100
AcDbSymbolTableRecord
100
AcDbBlockTableRecord
  2
*D14
340
0
  0
ENDTAB
  0
ENDSEC
  0
SECTION
  2
BLOCKS
  0
BLOCK
  5
20
330
1F
100
AcDbEntity
  8
0
100
AcDbBlockBegin
  2
*MODEL_SPACE
 70
     0
 10
0.0
 20
0.0
 30
0.0
  3
*MODEL_SPACE
  1

  0
ENDBLK
  5
21
330
1F
100
AcDbEntity
  8
0
100
AcDbBlockEnd
  0
BLOCK
  5
1C
330
1B
100
AcDbEntity
 67
     1
  8
0
100
AcDbBlockBegin
  2
*PAPER_SPACE
 70
     0
 10
0.0
 20
0.0
 30
0.0
  3
*PAPER_SPACE
  1

  0
ENDBLK
  5
1D
330
1B
100
AcDbEntity
 67
     1
  8
0
100
AcDbBlockEnd
  0
BLOCK
  5
5D
330
59
100
AcDbEntity
  8
0
100
AcDbBlockBegin
  2
_OPEN30
 70
     0
 10
0.0
 20
0.0
 30
0.0
  3
_OPEN30
  1

  0
LINE
  5
5A
330
59
100
AcDbEntity
  8
0
 62
     0
100
AcDbLine
 10
-1.0
 20
0.26794919
 30
0.0
 11
0.0
 21
0.0
 31
0.0
  0
LINE
  5
5B
330
59
100
AcDbEntity
  8
0
 62
     0
100
AcDbLine
 10
0.0
 20
0.0
 30
0.0
 11
-1.0
 21
-0.26794919
 31
0.0
  0
LINE
  5
5C
330
59
100
AcDbEntity
  8
0
 62
     0
100
AcDbLine
 10
0.0
 20
0.0
 30
0.0
 11
-1.0
 21
0.0
 31
0.0
  0
ENDBLK
  5
5E
330
59
100
AcDbEntity
  8
0
100
AcDbBlockEnd
  0
BLOCK
  5
66
330
64
100
AcDbEntity
  8
0
100
AcDbBlockBegin
  2
GENAXEH
 70
     0
 10
0.0
 20
0.0
 30
0.0
  3
GENAXEH
  1

  0
LINE
  5
65
330
64
100
AcDbEntity
  8
0
100
AcDbLine
 10
-1.0
 20
0.0
 30
0.0
 11
1.0
 21
0.0
 31
0.0
  0
ENDBLK
  5
67
330
64
100
AcDbEntity
  8
0
100
AcDbBlockEnd
  0
BLOCK
  5
AE7A
330
AE70
100
AcDbEntity
  8
0
100
AcDbBlockBegin
  2
*D6
 70
     1
 10
0.0
 20
0.0
 30
0.0
  3
*D6
  1

  0
LINE
  5
B259
330
AE70
100
AcDbEntity
  8
AM_5
 62
     3
370
    -2
100
AcDbLine
 10
150.0002014143739
 20
-87.25169588410672
 30
0.0
 11
171.3170453667796
 21
-87.25169588410674
 31
0.0
  0
LINE
  5
B25A
330
AE70
100
AcDbEntity
  8
AM_5
 62
     3
370
    -2
100
AcDbLine
 10
150.0002014143739
 20
-62.25169588410773
 30
0.0
 11
171.3170453667797
 21
-62.25169588410773
 31
0.0
  0
LINE
  5
B25B
330
AE70
100
AcDbEntity
  8
AM_5
 62
     3
370
    -2
100
AcDbLine
 10
170.3170453667796
 20
-84.75169588410674
 30
0.0
 11
170.3170453667796
 21
-64.75169588410775
 31
0.0
  0
INSERT
  5
B25C
330
AE70
100
AcDbEntity
  8
AM_5
 62
     3
370
    -2
100
AcDbBlockReference
  2
_OPEN30
 10
170.3170453667796
 20
-87.25169588410674
 30
0.0
 41
2.5
 42
2.5
 43
2.5
 50
270.0
  0
INSERT
  5
B25D
330
AE70
100
AcDbEntity
  8
AM_5
 62
     3
370
    -2
100
AcDbBlockReference
  2
_OPEN30
 10
170.3170453667797
 20
-62.25169588410773
 30
0.0
 41
2.5
 42
2.5
 43
2.5
 50
90.0
  0
MTEXT
  5
B25E
330
AE70
100
AcDbEntity
  8
AM_5
 62
     2
100
AcDbMText
 10
166.9166713510316
 20
-74.75169588410721
 30
0.0
 40
3.799999999999998
 41
0.0
 71
     5
 72
     1
  1
25
 11
0.0000000000000001
 21
1.0
 31
0.0
 73
     1
 44
1.0
1001
ACAD
1000
MTEXTBEGIN
1070
    73
1070
     1
1070
    44
1040
1.0
1070
    74
1070
     0
1000
MTEXTEND
  0
POINT
  5
B25F
330
AE70
100
AcDbEntity
  8
DEFPOINTS
 62
     0
100
AcDbPoint
 10
150.0002014143739
 20
-87.25169588410672
 30
0.0
  0
POINT
  5
B260
330
AE70
100
AcDbEntity
  8
DEFPOINTS
 62
     0
100
AcDbPoint
 10
150.0002014143739
 20
-62.25169588410773
 30
0.0
  0
POINT
  5
B261
330
AE70
100
AcDbEntity
  8
DEFPOINTS
 62
     0
100
AcDbPoint
 10
170.3170453667797
 20
-62.25169588410773
 30
0.0
  0
ENDBLK
  5
AE7B
330
AE70
100
AcDbEntity
  8
0
100
AcDbBlockEnd
  0
BLOCK
  5
AE86
330
AE7C
100
AcDbEntity
  8
0
100
AcDbBlockBegin
  2
*D7
 70
     1
 10
0.0
 20
0.0
 30
0.0
  3
*D7
  1

  0
LINE
  5
B262
330
AE7C
100
AcDbEntity
  8
AM_5
 62
     3
370
    -2
100
AcDbLine
 10
150.0002014143739
 20
6.998307930589261
 30
0.0
 11
168.0994465978159
 21
6.998307930589256
 31
0.0
  0
LINE
  5
B263
330
AE7C
100
AcDbEntity
  8
AM_5
 62
     3
370
    -2
100
AcDbLine
 10
150.0002014143739
 20
31.99830793058924
 30
0.0
 11
168.0994465978159
 21
31.99830793058924
 31
0.0
  0
LINE
  5
B264
330
AE7C
100
AcDbEntity
  8
AM_5
 62
     3
370
    -2
100
AcDbLine
 10
167.0994465978159
 20
9.498307930589257
 30
0.0
 11
167.0994465978159
 21
29.49830793058924
 31
0.0
  0
INSERT
  5
B265
330
AE7C
100
AcDbEntity
  8
AM_5
 62
     3
370
    -2
100
AcDbBlockReference
  2
_OPEN30
 10
167.0994465978159
 20
6.998307930589256
 30
0.0
 41
2.5
 42
2.5
 43
2.5
 50
270.0
  0
INSERT
  5
B266
330
AE7C
100
AcDbEntity
  8
AM_5
 62
     3
370
    -2
100
AcDbBlockReference
  2
_OPEN30
 10
167.0994465978159
 20
31.99830793058924
 30
0.0
 41
2.5
 42
2.5
 43
2.5
 50
90.0
  0
MTEXT
  5
B267
330
AE7C
100
AcDbEntity
  8
AM_5
 62
     2
100
AcDbMText
 10
163.6990725820678
 20
19.49830793058927
 30
0.0
 40
3.799999999999998
 41
0.0
 71
     5
 72
     1
  1
25
 11
0.0000000000000001
 21
1.0
 31
0.0
 73
     1
 44
1.0
1001
ACAD
1000
MTEXTBEGIN
1070
    73
1070
     1
1070
    44
1040
1.0
1070
    74
1070
     0
1000
MTEXTEND
  0
POINT
  5
B268
330
AE7C
100
AcDbEntity
  8
DEFPOINTS
 62
     0
100
AcDbPoint
 10
150.0002014143739
 20
6.998307930589261
 30
0.0
  0
POINT
  5
B269
330
AE7C
100
AcDbEntity
  8
DEFPOINTS
 62
     0
100
AcDbPoint
 10
150.0002014143739
 20
31.99830793058924
 30
0.0
  0
POINT
  5
B26A
330
AE7C
100
AcDbEntity
  8
DEFPOINTS
 62
     0
100
AcDbPoint
 10
167.0994465978159
 20
31.99830793058924
 30
0.0
  0
ENDBLK
  5
AE87
330
AE7C
100
AcDbEntity
  8
0
100
AcDbBlockEnd
  0
BLOCK
  5
AE92
330
AE88
100
AcDbEntity
  8
0
100
AcDbBlockBegin
  2
*D8
 70
     1
 10
0.0
 20
0.0
 30
0.0
  3
*D8
  1

  0
LINE
  5
B250
330
AE88
100
AcDbEntity
  8
PV0001_1
 62
     3
370
    -2
100
AcDbLine
 10
0.0
 20
0.2002835240634618
 30
0.0
 11
-0.0000000000000015
 21
-23.89276537263272
 31
0.0
  0
LINE
  5
B251
330
AE88
100
AcDbEntity
  8
PV0001_1
 62
     3
370
    -2
100
AcDbLine
 10
150.0002014143739
 20
7.168307930589261
 30
0.0
 11
150.0002014143739
 21
-23.89276537263272
 31
0.0
  0
LINE
  5
B252
330
AE88
100
AcDbEntity
  8
PV0001_1
 62
     3
370
    -2
100
AcDbLine
 10
2.499999999999998
 20
-22.89276537263273
 30
0.0
 11
147.5002014143739
 21
-22.89276537263273
 31
0.0
  0
INSERT
  5
B253
330
AE88
100
AcDbEntity
  8
PV0001_1
 62
     3
370
    -2
100
AcDbBlockReference
  2
_OPEN30
 10
-0.0000000000000014
 20
-22.89276537263273
 30
0.0
 41
2.5
 42
2.5
 43
2.5
 50
180.0
  0
INSERT
  5
B254
330
AE88
100
AcDbEntity
  8
PV0001_1
 62
     3
370
    -2
100
AcDbBlockReference
  2
_OPEN30
 10
150.0002014143739
 20
-22.89276537263273
 30
0.0
 41
2.5
 42
2.5
 43
2.5
  0
MTEXT
  5
B255
330
AE88
100
AcDbEntity
  8
PV0001_1
 62
     2
100
AcDbMText
 10
87.50020141437387
 20
-19.49276537263272
 30
0.0
 40
3.799999999999998
 41
0.0
 71
     5
 72
     1
  1
150
 73
     1
 44
1.0
1001
ACAD
1000
MTEXTBEGIN
1070
    73
1070
     1
1070
    44
1040
1.0
1070
    74
1070
     0
1000
MTEXTEND
  0
POINT
  5
B256
330
AE88
100
AcDbEntity
  8
DEFPOINTS
 62
     0
100
AcDbPoint
 10
0.0
 20
0.2002835240634618
 30
0.0
  0
POINT
  5
B257
330
AE88
100
AcDbEntity
  8
DEFPOINTS
 62
     0
100
AcDbPoint
 10
150.0002014143739
 20
7.168307930589261
 30
0.0
  0
POINT
  5
B258
330
AE88
100
AcDbEntity
  8
DEFPOINTS
 62
     0
100
AcDbPoint
 10
150.0002014143739
 20
-22.89276537263273
 30
0.0
  0
ENDBLK
  5
AE93
330
AE88
100
AcDbEntity
  8
0
100
AcDbBlockEnd
  0
BLOCK
  5
AED5
330
AEC5
100
AcDbEntity
  8
0
100
AcDbBlockBegin
  2
*D9
 70
     1
 10
0.0
 20
0.0
 30
0.0
  3
*D9
  1

  0
LINE
  5
B26B
330
AEC5
100
AcDbEntity
  8
AM_5
 62
     3
370
    -2
100
AcDbLine
 10
-55.63780802885422
 20
17.79136977271679
 30
0.0
 11
-53.30642457767714
 21
44.07131928759668
 31
0.0
  0
LINE
  5
B26C
330
AEC5
100
AcDbEntity
  8
AM_5
 62
     3
370
    -2
100
AcDbLine
 10
-57.32819956938417
 20
32.13567769491445
 30
0.0
 11
-57.32599039087279
 21
44.24963175819987
 31
0.0
  0
ARC
  5
B26D
330
AEC5
100
AcDbEntity
  8
AM_5
 62
     3
370
    -2
100
AcDbCircle
 10
-57.33430294178138
 20
-1.331954038072823
 30
0.0
 40
44.58158655423779
100
AcDbArc
 50
78.50357979269673
 51
81.71697425890908
  0
ARC
  5
B26E
330
AEC5
100
AcDbEntity
  8
AM_5
 62
     3
370
    -2
100
AcDbCircle
 10
-57.33430294178138
 20
-1.331954038072823
 30
0.0
 40
44.58158655423779
100
AcDbArc
 50
93.20294563977402
 51
96.41634010598636
  0
ARC
  5
B26F
330
AEC5
100
AcDbEntity
  8
AM_5
 62
     3
370
    -2
100
AcDbCircle
 10
-57.33430294178138
 20
-1.331954038072823
 30
0.0
 40
44.58158655423779
100
AcDbArc
 50
84.93036872512142
 51
89.98955117356166
  0
INSERT
  5
B270
330
AEC5
100
AcDbEntity
  8
AM_5
 62
     3
370
    -2
100
AcDbBlockReference
  2
_OPEN30
 10
-53.39479092620937
 20
43.07523124507882
 30
0.0
 41
2.5
 42
2.5
 43
2.5
 50
173.3236714920152
  0
INSERT
  5
B271
330
AEC5
100
AcDbEntity
  8
AM_5
 62
     3
370
    -2
100
AcDbBlockReference
  2
_OPEN30
 10
-57.3261727572961
 20
43.24963177482863
 30
0.0
 41
2.5
 42
2.5
 43
2.5
 50
1.596248406667834
  0
MTEXT
  5
B272
330
AEC5
100
AcDbEntity
  8
AM_5
 62
     2
100
AcDbMText
 10
-50.64522692645187
 20
46.1810853334824
 30
0.0
 40
3.799999999999998
 41
0.0
 71
     5
 72
     1
  1
5°
 11
0.9902348543195225
 21
-0.1394092295753552
 31
0.0
 73
     1
 44
1.0
1001
ACAD
1000
MTEXTBEGIN
1070
    73
1070
     1
1070
    44
1040
1.0
1070
    74
1070
     0
1000
MTEXTEND
  0
POINT
  5
B273
330
AEC5
100
AcDbEntity
  8
DEFPOINTS
 62
     0
100
AcDbPoint
 10
-56.01419010031976
 20
43.23008318845896
 30
0.0
  0
POINT
  5
B274
330
AEC5
100
AcDbEntity
  8
DEFPOINTS
 62
     0
100
AcDbPoint
 10
-57.33402078625424
 20
0.2152360495067818
 30
0.0
  0
POINT
  5
B275
330
AEC5
100
AcDbEntity
  8
DEFPOINTS
 62
     0
100
AcDbPoint
 10
-55.63780802885422
 20
17.79136977271679
 30
0.0
  0
POINT
  5
B276
330
AEC5
100
AcDbEntity
  8
DEFPOINTS
 62
     0
100
AcDbPoint
 10
-56.82230967680424
 20
4.439364767833787
 30
0.0
  0
POINT
  5
B277
330
AEC5
100
AcDbEntity
  8
DEFPOINTS
 62
     0
100
AcDbPoint
 10
-57.32819956938417
 20
32.13567769491445
 30
0.0
  0
ENDBLK
  5
AED6
330
AEC5
100
AcDbEntity
  8
0
100
AcDbBlockEnd
  0
BLOCK
  5
AEE5
330
AED7
100
AcDbEntity
  8
0
100
AcDbBlockBegin
  2
*D10
 70
     1
 10
0.0
 20
0.0
 30
0.0
  3
*D10
  1

  0
LINE
  5
B278
330
AED7
100
AcDbEntity
  8
AM_5
 62
     3
370
    -2
100
AcDbLine
 10
-57.33402584240692
 20
0.187510810956852
 30
0.0
 11
-57.33688870611013
 21
-15.51090342384426
 31
0.0
  0
LINE
  5
B279
330
AED7
100
AcDbEntity
  8
AM_5
 62
     3
370
    -2
100
AcDbLine
 10
-57.33402584240692
 20
0.187510810956852
 30
0.0
 11
-54.49039047137507
 21
-15.25120531312586
 31
0.0
  0
ARC
  5
B27A
330
AED7
100
AcDbEntity
  8
AM_5
 62
     3
370
    -2
100
AcDbCircle
 10
-57.33402584240692
 20
0.187510810956852
 30
0.0
 40
14.69841449584622
100
AcDbArc
 50
250.4755181917106
 51
260.2325346826361
  0
ARC
  5
B27B
330
AED7
100
AcDbEntity
  8
AM_5
 62
     3
370
    -2
100
AcDbCircle
 10
-57.33402584240692
 20
0.187510810956852
 30
0.0
 40
14.69841449584622
100
AcDbArc
 50
290.1932762888902
 51
299.9502927798157
  0
ARC
  5
B27C
330
AED7
100
AcDbEntity
  8
AM_5
 62
     3
370
    -2
100
AcDbCircle
 10
-57.33402584240692
 20
0.187510810956852
 30
0.0
 40
14.69841449584622
100
AcDbArc
 50
269.9895511735616
 51
280.4362597979647
  0
INSERT
  5
B27D
330
AED7
100
AcDbEntity
  8
AM_5
 62
     3
370
    -2
100
AcDbBlockReference
  2
_OPEN30
 10
-57.33670633968682
 20
-14.51090344047302
 30
0.0
 41
2.5
 42
2.5
 43
2.5
 50
355.1110429280989
  0
INSERT
  5
B27E
330
AED7
100
AcDbEntity
  8
AM_5
 62
     3
370
    -2
100
AcDbBlockReference
  2
_OPEN30
 10
-54.67153203645378
 20
-14.26774828132384
 30
0.0
 41
2.5
 42
2.5
 43
2.5
 50
195.3147680434275
  0
MTEXT
  5
B27F
330
AED7
100
AcDbEntity
  8
AM_5
 62
     2
100
AcDbMText
 10
-56.93600200253285
 20
-11.1038906584286
 30
0.0
 40
3.799999999999998
 41
0.0
 71
     5
 72
     1
  1
10°
 11
0.9993792910975829
 21
0.0352282915466052
 31
0.0
 73
     1
 44
1.0
1001
ACAD
1000
MTEXTBEGIN
1070
    73
1070
     1
1070
    44
1040
1.0
1070
    74
1070
     0
1000
MTEXTEND
  0
POINT
  5
B280
330
AED7
100
AcDbEntity
  8
DEFPOINTS
 62
     0
100
AcDbPoint
 10
-55.55444697090247
 20
-14.40277663418272
 30
0.0
  0
POINT
  5
B281
330
AED7
100
AcDbEntity
  8
DEFPOINTS
 62
     0
100
AcDbPoint
 10
-57.37809580962423
 20
0.4267762668577824
 30
0.0
  0
POINT
  5
B282
330
AED7
100
AcDbEntity
  8
DEFPOINTS
 62
     0
100
AcDbPoint
 10
-57.33402078625424
 20
0.2152360495067813
 30
0.0
  0
POINT
  5
B283
330
AED7
100
AcDbEntity
  8
DEFPOINTS
 62
     0
100
AcDbPoint
 10
-57.32819956938417
 20
32.13567769491445
 30
0.0
  0
POINT
  5
B284
330
AED7
100
AcDbEntity
  8
DEFPOINTS
 62
     0
100
AcDbPoint
 10
-57.73718852202419
 20
2.376368857189784
 30
0.0
  0
ENDBLK
  5
AEE6
330
AED7
100
AcDbEntity
  8
0
100
AcDbBlockEnd
  0
BLOCK
  5
AF10
330
AF06
100
AcDbEntity
  8
0
100
AcDbBlockBegin
  2
*D11
 70
     1
 10
0.0
 20
0.0
 30
0.0
  3
*D11
  1

  0
LINE
  5
B292
330
AF06
100
AcDbEntity
  8
PV0001_1
 62
     3
370
    -2
100
AcDbLine
 10
9.020659635810797
 20
31.99830793058929
 30
0.0
 11
-21.53549327071921
 21
31.9983079305893
 31
0.0
  0
LINE
  5
B293
330
AF06
100
AcDbEntity
  8
PV0001_1
 62
     3
370
    -2
100
AcDbLine
 10
0.1990135094198064
 20
-0.0000000000000001
 30
0.0
 11
-21.53549327071922
 21
0.0000000000000061
 31
0.0
  0
LINE
  5
B294
330
AF06
100
AcDbEntity
  8
PV0001_1
 62
     3
370
    -2
100
AcDbLine
 10
-20.53549327071921
 20
29.4983079305893
 30
0.0
 11
-20.53549327071922
 21
2.500000000000005
 31
0.0
  0
INSERT
  5
B295
330
AF06
100
AcDbEntity
  8
PV0001_1
 62
     3
370
    -2
100
AcDbBlockReference
  2
_OPEN30
 10
-20.53549327071921
 20
31.9983079305893
 30
0.0
 41
2.5
 42
2.5
 43
2.5
 50
90.0
  0
INSERT
  5
B296
330
AF06
100
AcDbEntity
  8
PV0001_1
 62
     3
370
    -2
100
AcDbBlockReference
  2
_OPEN30
 10
-20.53549327071922
 20
0.0000000000000058
 30
0.0
 41
2.5
 42
2.5
 43
2.5
 50
270.0
  0
MTEXT
  5
B297
330
AF06
100
AcDbEntity
  8
PV0001_1
 62
     2
100
AcDbMText
 10
-23.93586728646726
 20
15.99915396529465
 30
0.0
 40
3.799999999999998
 41
0.0
 71
     5
 72
     1
  1
32
 11
0.0000000000000001
 21
1.0
 31
0.0
 73
     1
 44
1.0
1001
ACAD
1000
MTEXTBEGIN
1070
    73
1070
     1
1070
    44
1040
1.0
1070
    74
1070
     0
1000
MTEXTEND
  0
POINT
  5
B298
330
AF06
100
AcDbEntity
  8
DEFPOINTS
 62
     0
100
AcDbPoint
 10
9.020659635810797
 20
31.99830793058929
 30
0.0
  0
POINT
  5
B299
330
AF06
100
AcDbEntity
  8
DEFPOINTS
 62
     0
100
AcDbPoint
 10
0.1990135094198064
 20
-0.0000000000000001
 30
0.0
  0
POINT
  5
B29A
330
AF06
100
AcDbEntity
  8
DEFPOINTS
 62
     0
100
AcDbPoint
 10
-20.53549327071922
 20
0.0000000000000058
 30
0.0
  0
ENDBLK
  5
AF11
330
AF06
100
AcDbEntity
  8
0
100
AcDbBlockEnd
  0
BLOCK
  5
AF1E
330
AF12
100
AcDbEntity
  8
0
100
AcDbBlockBegin
  2
*D12
 70
     1
 10
0.0
 20
0.0
 30
0.0
  3
*D12
  1

  0
LINE
  5
B29B
330
AF12
100
AcDbEntity
  8
AM_5
 62
     3
370
    -2
100
AcDbLine
 10
-0.000000273673146
 20
0.1999526627882006
 30
0.0
 11
-0.0000002736731465
 21
-7.820646150366986
 31
0.0
  0
LINE
  5
B29C
330
AF12
100
AcDbEntity
  8
AM_5
 62
     3
370
    -2
100
AcDbLine
 10
1.250000113533157
 20
0.2073681606427053
 30
0.0
 11
1.250000113533156
 21
-7.820646150366986
 31
0.0
  0
LINE
  5
B29D
330
AF12
100
AcDbEntity
  8
AM_5
 62
     3
370
    -2
100
AcDbLine
 10
-2.500000273673146
 20
-6.820646150366986
 30
0.0
 11
-5.000000273673146
 21
-6.820646150366986
 31
0.0
  0
LINE
  5
B29E
330
AF12
100
AcDbEntity
  8
AM_5
 62
     3
370
    -2
100
AcDbLine
 10
3.750000113533156
 20
-6.820646150366986
 30
0.0
 11
16.62740126723493
 21
-6.820646150366986
 31
0.0
  0
LINE
  5
B29F
330
AF12
100
AcDbEntity
  8
AM_5
 62
     3
370
    -2
100
AcDbLine
 10
-0.0000002736731464
 20
-6.820646150366986
 30
0.0
 11
1.250000113533156
 21
-6.820646150366986
 31
0.0
  0
INSERT
  5
B2A0
330
AF12
100
AcDbEntity
  8
AM_5
 62
     3
370
    -2
100
AcDbBlockReference
  2
_OPEN30
 10
-0.0000002736731464
 20
-6.820646150366986
 30
0.0
 41
2.5
 42
2.5
 43
2.5
  0
INSERT
  5
B2A1
330
AF12
100
AcDbEntity
  8
AM_5
 62
     3
370
    -2
100
AcDbBlockReference
  2
_OPEN30
 10
1.250000113533156
 20
-6.820646150366986
 30
0.0
 41
2.5
 42
2.5
 43
2.5
 50
180.0
  0
MTEXT
  5
B2A2
330
AF12
100
AcDbEntity
  8
AM_5
 62
     2
100
AcDbMText
 10
11.43870069038404
 20
-3.420272134618955
 30
0.0
 40
3.799999999999998
 41
0.0
 71
     5
 72
     1
  1
1.25
 73
     1
 44
1.0
1001
ACAD
1000
MTEXTBEGIN
1070
    73
1070
     1
1070
    44
1040
1.0
1070
    74
1070
     0
1000
MTEXTEND
  0
POINT
  5
B2A3
330
AF12
100
AcDbEntity
  8
DEFPOINTS
 62
     0
100
AcDbPoint
 10
-0.000000273673146
 20
0.1999526627882006
 30
0.0
  0
POINT
  5
B2A4
330
AF12
100
AcDbEntity
  8
DEFPOINTS
 62
     0
100
AcDbPoint
 10
1.250000113533157
 20
0.2073681606427053
 30
0.0
  0
POINT
  5
B2A5
330
AF12
100
AcDbEntity
  8
DEFPOINTS
 62
     0
100
AcDbPoint
 10
1.250000113533156
 20
-6.820646150366986
 30
0.0
  0
ENDBLK
  5
AF1F
330
AF12
100
AcDbEntity
  8
0
100
AcDbBlockEnd
  0
BLOCK
  5
AF30
330
AF20
100
AcDbEntity
  8
0
100
AcDbBlockBegin
  2
*D13
 70
     1
 10
0.0
 20
0.0
 30
0.0
  3
*D13
  1

  0
LINE
  5
B285
330
AF20
100
AcDbEntity
  8
AM_5
 62
     3
370
    -2
100
AcDbLine
 10
0.6005746049997023
 20
17.57908441350975
 30
0.0
 11
1.518479322254528
 21
43.86215737393846
 31
0.0
  0
LINE
  5
B286
330
AF20
100
AcDbEntity
  8
AM_5
 62
     3
370
    -2
100
AcDbLine
 10
0.0003162039385711
 20
0.3914231523466149
 30
0.0
 11
0.0003555446454069
 21
43.88865930611325
 31
0.0
  0
ARC
  5
B287
330
AF20
100
AcDbEntity
  8
AM_5
 62
     3
370
    -2
100
AcDbCircle
 10
0.0003162039385711
 20
0.3914231523466149
 30
0.0
 40
42.49723615378442
100
AcDbArc
 50
81.25773598344713
 51
84.62878135187724
  0
ARC
  5
B288
330
AF20
100
AcDbEntity
  8
AM_5
 62
     3
370
    -2
100
AcDbCircle
 10
0.0003162039385711
 20
0.3914231523466149
 30
0.0
 40
42.49723615378442
100
AcDbArc
 50
93.37099354774759
 51
96.7420389161777
  0
ARC
  5
B289
330
AF20
100
AcDbEntity
  8
AM_5
 62
     3
370
    -2
100
AcDbCircle
 10
0.0003162039385711
 20
0.3914231523466149
 30
0.0
 40
42.49723615378442
100
AcDbArc
 50
87.99982672030733
 51
89.99994817931749
  0
INSERT
  5
B28A
330
AF20
100
AcDbEntity
  8
AM_5
 62
     3
370
    -2
100
AcDbBlockReference
  2
_OPEN30
 10
1.483576803093345
 20
42.86276665247052
 30
0.0
 41
2.5
 42
2.5
 43
2.5
 50
176.3143040360922
  0
INSERT
  5
B28B
330
AF20
100
AcDbEntity
  8
AM_5
 62
     3
370
    -2
100
AcDbBlockReference
  2
_OPEN30
 10
0.0003546402038763
 20
42.88865930611367
 30
0.0
 41
2.5
 42
2.5
 43
2.5
 50
1.685470863532539
  0
MTEXT
  5
B28C
330
AF20
100
AcDbEntity
  8
AM_5
 62
     2
100
AcDbMText
 10
6.924066848854423
 20
45.7637968645671
 30
0.0
 40
3.799999999999998
 41
0.0
 71
     5
 72
     1
  1
2°
 11
0.9885563441021895
 21
-0.1508520948986566
 31
0.0
 73
     1
 44
1.0
1001
ACAD
1000
MTEXTBEGIN
1070
    73
1070
     1
1070
    44
1040
1.0
1070
    74
1070
     0
1000
MTEXTEND
  0
POINT
  5
B28D
330
AF20
100
AcDbEntity
  8
DEFPOINTS
 62
     0
100
AcDbPoint
 10
0.4948513034344959
 20
42.88578178670994
 30
0.0
  0
POINT
  5
B28E
330
AF20
100
AcDbEntity
  8
DEFPOINTS
 62
     0
100
AcDbPoint
 10
0.0003158552928751
 20
0.0059414109167708
 30
0.0
  0
POINT
  5
B28F
330
AF20
100
AcDbEntity
  8
DEFPOINTS
 62
     0
100
AcDbPoint
 10
0.6005746049997023
 20
17.57908441350975
 30
0.0
  0
POINT
  5
B290
330
AF20
100
AcDbEntity
  8
DEFPOINTS
 62
     0
100
AcDbPoint
 10
0.1342545671576761
 20
4.226583497982765
 30
0.0
  0
POINT
  5
B291
330
AF20
100
AcDbEntity
  8
DEFPOINTS
 62
     0
100
AcDbPoint
 10
0.0002595110056642
 20
-62.29138277246422
 30
0.0
  0
ENDBLK
  5
AF31
330
AF20
100
AcDbEntity
  8
0
100
AcDbBlockEnd
  0
BLOCK
  5
AFCA
330
AFC0
100
AcDbEntity
  8
0
100
AcDbBlockBegin
  2
*D14
 70
     1
 10
0.0
 20
0.0
 30
0.0
  3
*D14
  1

  0
LINE
  5
B2A6
330
AFC0
100
AcDbEntity
  8
AM_5
 62
     3
370
    -2
100
AcDbLine
 10
0.2068425110631573
 20
-62.25155508123683
 30
0.0
 11
-22.02420464202064
 21
-62.25155508123682
 31
0.0
  0
LINE
  5
B2A7
330
AFC0
100
AcDbEntity
  8
AM_5
 62
     3
370
    -2
100
AcDbLine
 10
1.000617216376848
 20
-87.25169397675811
 30
0.0
 11
-22.02420464202065
 21
-87.25169397675811
 31
0.0
  0
LINE
  5
B2A8
330
AFC0
100
AcDbEntity
  8
AM_5
 62
     3
370
    -2
100
AcDbLine
 10
-21.02420464202064
 20
-64.75155508123683
 30
0.0
 11
-21.02420464202065
 21
-84.75169397675811
 31
0.0
  0
INSERT
  5
B2A9
330
AFC0
100
AcDbEntity
  8
AM_5
 62
     3
370
    -2
100
AcDbBlockReference
  2
_OPEN30
 10
-21.02420464202064
 20
-62.25155508123682
 30
0.0
 41
2.5
 42
2.5
 43
2.5
 50
90.0
  0
INSERT
  5
B2AA
330
AFC0
100
AcDbEntity
  8
AM_5
 62
     3
370
    -2
100
AcDbBlockReference
  2
_OPEN30
 10
-21.02420464202065
 20
-87.25169397675811
 30
0.0
 41
2.5
 42
2.5
 43
2.5
 50
270.0
  0
MTEXT
  5
B2AB
330
AFC0
100
AcDbEntity
  8
AM_5
 62
     2
100
AcDbMText
 10
-24.42457865776866
 20
-74.75162452899747
 30
0.0
 40
3.799999999999998
 41
0.0
 71
     5
 72
     1
  1
25
 11
0.0000000000000001
 21
1.0
 31
0.0
 73
     1
 44
1.0
1001
ACAD
1000
MTEXTBEGIN
1070
    73
1070
     1
1070
    44
1040
1.0
1070
    74
1070
     0
1000
MTEXTEND
  0
POINT
  5
B2AC
330
AFC0
100
AcDbEntity
  8
DEFPOINTS
 62
     0
100
AcDbPoint
 10
0.2068425110631573
 20
-62.25155508123683
 30
0.0
  0
POINT
  5
B2AD
330
AFC0
100
AcDbEntity
  8
DEFPOINTS
 62
     0
100
AcDbPoint
 10
1.000617216376848
 20
-87.25169397675811
 30
0.0
  0
POINT
  5
B2AE
330
AFC0
100
AcDbEntity
  8
DEFPOINTS
 62
     0
100
AcDbPoint
 10
-21.02420464202065
 20
-87.25169397675811
 30
0.0
  0
ENDBLK
  5
AFCB
330
AFC0
100
AcDbEntity
  8
0
100
AcDbBlockEnd
  0
ENDSEC
  0
SECTION
  2
ENTITIES
  0
TEXT
  5
83BD
330
1F
100
AcDbEntity
  8
AM_6
100
AcDbText
 10
58.15539024964289
 20
-100.7384703495071
 30
0.0
 40
5.0
  1
GWCSR2525-15
 72
     4
 11
80.37950190199458
 21
-98.23847034950716
 31
0.0
100
AcDbText
  0
LINE
  5
AB53
330
1F
100
AcDbEntity
  8
PV0001_1
  6
Continuous
100
AcDbLine
 10
9.020663450507834
 20
31.99830793058929
 30
0.0
 11
150.0002014143739
 21
31.99830793058924
 31
0.0
  0
LINE
  5
AB54
330
1F
100
AcDbEntity
  8
PV0001_1
  6
Continuous
100
AcDbLine
 10
1.000617216376848
 20
-87.2516958841067
 30
0.0
 11
150.0002014143739
 21
-87.25169588410672
 31
0.0
  0
LINE
  5
AB55
330
1F
100
AcDbEntity
  8
PV0001_1
  6
Continuous
100
AcDbLine
 10
25.0001384718708
 20
-62.2516958841077
 30
0.0
 11
150.0002014143739
 21
-62.25169588410775
 31
0.0
  0
LINE
  5
AB56
330
1F
100
AcDbEntity
  8
PV0001_1
  6
Continuous
100
AcDbLine
 10
25.00013847187081
 20
6.998307930589289
 30
0.0
 11
150.0002014143739
 21
6.998307930589261
 31
0.0
  0
LINE
  5
AB58
330
1F
100
AcDbEntity
  8
PV0001_1
  6
Continuous
 48
0.5
100
AcDbLine
 10
24.25043220355981
 20
-60.0511200555557
 30
0.0
 11
24.25043220355981
 21
-87.2516958841067
 31
0.0
  0
LINE
  5
AB59
330
1F
100
AcDbEntity
  8
PV0001_1
  6
Continuous
 48
0.5
100
AcDbLine
 10
25.0001384718708
 20
-62.2516958841077
 30
0.0
 11
25.0001384718708
 21
-87.2516958841067
 31
0.0
  0
LINE
  5
AB5A
330
1F
100
AcDbEntity
  8
PV0001_1
  6
Continuous
 48
0.5
100
AcDbLine
 10
1.200137327460832
 20
-87.2516958841067
 30
0.0
 11
1.200137327460835
 21
-65.6655905374275
 31
0.0
  0
LINE
  5
AB5B
330
1F
100
AcDbEntity
  8
PV0001_1
  6
Continuous
 48
0.5
100
AcDbLine
 10
1.000617216376848
 20
-87.2516958841067
 30
0.0
 11
0.3189308150097776
 21
-65.69638658845289
 31
0.0
  0
LINE
  5
AB5D
330
1F
100
AcDbEntity
  8
PV0001_1
  6
Continuous
 48
0.5
100
AcDbLine
 10
0.8899299605178152
 20
-83.75169588410718
 30
0.0
 11
1.200137327460832
 21
-83.75169588410718
 31
0.0
  0
ELLIPSE
  5
AB5E
330
1F
100
AcDbEntity
  8
PV0001_1
  6
Continuous
 48
0.5
100
AcDbEllipse
 10
-57.28766327068119
 20
0.2040650717033134
 30
0.0
 11
0.0377807728799979
 21
-0.2040405225270092
 31
0.0
210
0.0
220
0.0
230
1.0
 40
0.0231051099971
 41
4.669805269007901
 42
6.283185307179585
  0
ELLIPSE
  5
AB5F
330
1F
100
AcDbEntity
  8
PV0001_1
  6
Continuous
 48
0.5
100
AcDbEllipse
 10
-59.07657318279113
 20
0.3605592123283136
 30
0.0
 11
0.3282623168200017
 21
-0.2287445001270072
 31
0.0
210
0.0
220
0.0
230
1.0
 40
0.0499676735118
 41
6.205820967238187
 42
7.800911591653277
  0
ELLIPSE
  5
AB60
330
1F
100
AcDbEntity
  8
PV0001_1
  6
Continuous
 48
0.5
100
AcDbEllipse
 10
0.0368415816117955
 20
-60.6888983377207
 30
0.0
 11
-0.0631828566409989
 21
1.999000539834
 31
0.0
210
0.0
220
0.0
230
1.0
 40
0.0376986080102
 41
3.808794540500316
 42
4.157784129745544
  0
ELLIPSE
  5
AB61
330
1F
100
AcDbEntity
  8
PV0001_1
  6
Continuous
 48
0.5
100
AcDbEllipse
 10
1.9608375532908
 20
-60.6279928811777
 30
0.0
 11
0.0643273115209985
 21
2.003066956854999
 31
0.0
210
0.0
220
0.0
230
1.0
 40
0.0378734451367
 41
2.258273071386104
 42
2.492629886267571
  0
ELLIPSE
  5
AB62
330
1F
100
AcDbEntity
  8
PV0001_1
  6
Continuous
 48
0.5
100
AcDbEllipse
 10
-55.53266601726116
 20
17.5369660726793
 30
0.0
 11
0.033210768700002
 21
0.4001312331530044
 31
0.0
210
0.0
220
0.0
230
1.0
 40
0.0605360691529
 41
6.115372844148009
 42
6.206606377318701
  0
ELLIPSE
  5
AB63
330
1F
100
AcDbEntity
  8
PV0001_1
  6
Continuous
 48
0.5
100
AcDbEllipse
 10
-56.28966980144119
 20
19.16436170256229
 30
0.0
 11
0.1578598063899932
 21
0.1346740691679997
 31
0.0
210
0.0
220
0.0
230
1.0
 40
0.047178629335
 41
0.0
 42
1.570806131717414
  0
ELLIPSE
  5
AB64
330
1F
100
AcDbEntity
  8
PV0001_1
  6
Continuous
 48
0.5
100
AcDbEllipse
 10
-55.53266601726116
 20
17.5369660726793
 30
0.0
 11
0.033210768700002
 21
0.4001312331530044
 31
0.0
210
0.0
220
0.0
230
1.0
 40
0.0605360691529
 41
6.206393384355276
 42
7.757872647912702
  0
ELLIPSE
  5
AB65
330
1F
100
AcDbEntity
  8
PV0001_1
  6
Continuous
 48
0.5
100
AcDbEllipse
 10
-73.21117096111122
 20
10.52866529142931
 30
0.0
 11
0.1955261171899991
 21
-0.0694732612540037
 31
0.0
210
0.0
220
0.0
230
1.0
 40
0.0241193714493
 41
1.603191480102539
 42
3.141596278178718
  0
ELLIPSE
  5
AB66
330
1F
100
AcDbEntity
  8
PV0001_1
  6
Continuous
 48
0.5
100
AcDbEllipse
 10
-72.17927246257118
 20
11.99955915129231
 30
0.0
 11
0.3634719955099968
 21
0.1700973540449979
 31
0.0
210
0.0
220
0.0
230
1.0
 40
0.0199269744782
 41
3.141588266430731
 42
4.637724947558488
  0
ELLIPSE
  5
AB67
330
1F
100
AcDbEntity
  8
PV0001_1
  6
Continuous
 48
0.5
100
AcDbEllipse
 10
13.71103973224587
 20
-60.25649477326771
 30
0.0
 11
22.76291637556399
 21
2.714546237465991
 31
0.0
210
0.0
220
0.0
230
1.0
 40
0.0072888787365
 41
2.015016515914373
 42
2.206390740761499
  0
ELLIPSE
  5
AB69
330
1F
100
AcDbEntity
  8
PV0001_1
  6
Continuous
 48
0.5
100
AcDbEllipse
 10
2.741839597968875
 20
-60.6033957132087
 30
0.0
 11
0.0643311397199972
 21
2.003067072452
 31
0.0
210
0.0
220
0.0
230
1.0
 40
0.037871540902
 41
2.113798163422158
 42
2.21845701740996
  0
ELLIPSE
  5
AB6A
330
1F
100
AcDbEntity
  8
PV0001_1
  6
Continuous
 48
0.5
100
AcDbEllipse
 10
0.7985374434278608
 20
-60.53449465119769
 30
0.0
 11
0.1985359226789995
 21
0.0241622934399999
 31
0.0
210
0.0
220
0.0
230
1.0
 40
0.1675088892511999
 41
1.95484825887806
 42
3.035453929435925
  0
ELLIPSE
  5
AB6D
330
1F
100
AcDbEntity
  8
PV0001_1
  6
Continuous
 48
0.5
100
AcDbEllipse
 10
2.226443479804823
 20
17.15296338713228
 30
0.0
 11
-0.0000000173100005
 21
0.3960113525390057
 31
0.0
210
0.0
220
0.0
230
1.0
 40
0.5050283204254002
 41
4.583318381113549
 42
4.585577748165099
  0
ELLIPSE
  5
AB6E
330
1F
100
AcDbEntity
  8
PV0001_1
  6
Continuous
 48
0.5
100
AcDbEllipse
 10
13.76114196613282
 20
-60.09989382111971
 30
0.0
 11
8.09506917747
 21
0.2825698891719987
 31
0.0
210
0.0
220
0.0
230
1.0
 40
0.0870987724091
 41
5.458879626805464
 42
6.283185307179585
  0
ELLIPSE
  5
AB6F
330
1F
100
AcDbEntity
  8
PV0001_1
  6
Continuous
 48
0.5
100
AcDbEllipse
 10
13.76114196613282
 20
-60.09989382111971
 30
0.0
 11
8.09506917747
 21
0.2825698891719987
 31
0.0
210
0.0
220
0.0
230
1.0
 40
0.0870987724091
 41
0.0
 42
0.3797540455556434
  0
ELLIPSE
  5
AB70
330
1F
100
AcDbEntity
  8
PV0001_1
  6
Continuous
 48
0.5
100
AcDbEllipse
 10
13.76113815143579
 20
-60.09990145051371
 30
0.0
 11
6.096285586075999
 21
0.2127990537599997
 31
0.0
210
0.0
220
0.0
230
1.0
 40
0.0870981883779
 41
2.959505636873711
 42
3.141593657316831
  0
ELLIPSE
  5
AB71
330
1F
100
AcDbEntity
  8
PV0001_1
  6
Continuous
 48
0.5
100
AcDbEllipse
 10
13.76113815143579
 20
-60.09990145051371
 30
0.0
 11
6.096285586075999
 21
0.2127990537599997
 31
0.0
210
0.0
220
0.0
230
1.0
 40
0.0870981883779
 41
3.141591649862753
 42
5.130631574346979
  0
ELLIPSE
  5
AB72
330
1F
100
AcDbEntity
  8
PV0001_1
  6
Continuous
 48
0.5
100
AcDbEllipse
 10
17.91934127643578
 20
-60.3445990213147
 30
0.0
 11
1.998782160712995
 21
0.0697708152920007
 31
0.0
210
0.0
220
0.0
230
1.0
 40
0.0871006234528
 41
3.728858703420821
 42
5.458887912516037
  0
ELLIPSE
  5
AB73
330
1F
100
AcDbEntity
  8
PV0001_1
  6
Continuous
 48
0.5
100
AcDbEllipse
 10
13.54913635089878
 20
-54.02679659211571
 30
0.0
 11
3.997566230212995
 21
0.1395416226629987
 31
0.0
210
0.0
220
0.0
230
1.0
 40
0.0871006340741
 41
3.141591649890937
 42
6.283185307179585
  0
ELLIPSE
  5
AB74
330
1F
100
AcDbEntity
  8
PV0001_1
  6
Continuous
 48
0.5
100
AcDbEllipse
 10
13.54913635089878
 20
-54.02679659211571
 30
0.0
 11
3.997566230212995
 21
0.1395416226629987
 31
0.0
210
0.0
220
0.0
230
1.0
 40
0.0871006340741
 41
0.0
 42
3.141593657288646
  0
SPLINE
  5
AB75
330
1F
100
AcDbEntity
  8
PV0001_1
  6
Continuous
 48
0.5
100
AcDbSpline
210
0.0
220
0.0
230
1.0
 70
     8
 71
     3
 72
    11
 73
     7
 74
     5
 42
0.0000000001
 43
0.0000000001
 44
0.0000000001
 40
0.0
 40
0.0
 40
0.0
 40
0.0
 40
1.894474214317589
 40
3.78975985663059
 40
5.682625649443816
 40
7.567669538106596
 40
7.567669538106596
 40
7.567669538106596
 40
7.567669538106596
 10
2.775736997870878
 20
-58.2534048684827
 30
0.0
 10
3.177036644109395
 20
-57.761614445723
 30
0.0
 10
3.979807818454783
 20
-56.77782295995633
 30
0.0
 10
5.571775770624926
 20
-55.71283886592848
 30
0.0
 10
7.330936523275334
 20
-54.96441513916893
 30
0.0
 10
8.589138684471548
 20
-54.82737018917094
 30
0.0
 10
9.216937254218876
 20
-54.7589895852797
 30
0.0
 11
2.775736997870878
 21
-58.2534048684827
 31
0.0
 11
4.044337461738862
 21
-56.8463919290297
 31
0.0
 11
5.600840757636845
 21
-55.76500154816971
 31
0.0
 11
7.355136106757825
 21
-55.0540945657487
 31
0.0
 11
9.216937254218876
 21
-54.7589895852797
 31
0.0
  0
ELLIPSE
  5
AB76
330
1F
100
AcDbEntity
  8
PV0001_1
  6
Continuous
 48
0.5
100
AcDbEllipse
 10
-73.10646515056117
 20
10.4493653646713
 30
0.0
 11
0.1952819829299983
 21
-0.0692749054710049
 31
0.0
210
0.0
220
0.0
230
1.0
 40
0.0241538767149
 41
3.141596273000775
 42
4.812884089257828
  0
ELLIPSE
  5
AB77
330
1F
100
AcDbEntity
  8
PV0001_1
  6
Continuous
 48
0.5
100
AcDbEllipse
 10
-71.89696960613119
 20
12.19465802824632
 30
0.0
 11
0.3588027896000058
 21
0.1668624805270014
 31
0.0
210
0.0
220
0.0
230
1.0
 40
0.0202275382108
 41
1.405675650468362
 42
3.141596975559462
  0
ELLIPSE
  5
AB78
330
1F
100
AcDbEntity
  8
PV0001_1
  6
Continuous
 48
0.5
100
AcDbEllipse
 10
-55.25466613933114
 20
2.009561287523312
 30
0.0
 11
2.530265830839991
 21
-1.593063277170003
 31
0.0
210
0.0
220
0.0
230
1.0
 40
0.6246817031478999
 41
2.329964683244232
 42
2.523168176208899
  0
ELLIPSE
  5
AB79
330
1F
100
AcDbEntity
  8
PV0001_1
  6
Continuous
 48
0.5
100
AcDbEllipse
 10
-71.58617096111122
 20
7.474458443285296
 30
0.0
 11
0.4582824263599996
 21
-2.735481168649995
 31
0.0
210
0.0
220
0.0
230
1.0
 40
0.5949995095991
 41
1.672771052966924
 42
1.683370104115201
  0
ELLIPSE
  5
AB7A
330
1F
100
AcDbEntity
  8
PV0001_1
  6
Continuous
 48
0.5
100
AcDbEllipse
 10
-58.66976623699113
 20
18.8879639974843
 30
0.0
 11
1.76137545364
 21
1.001709019006993
 31
0.0
210
0.0
220
0.0
230
1.0
 40
0.4442053315198002
 41
3.591299213025893
 42
3.601915590503371
  0
ELLIPSE
  5
AB7D
330
1F
100
AcDbEntity
  8
PV0001_1
  6
Continuous
 48
0.5
100
AcDbEllipse
 10
18.00027770832078
 20
19.33869336760128
 30
0.0
 11
1.196257598815997
 21
1.519393946891993
 31
0.0
210
0.0
220
0.0
230
1.0
 40
0.9781166295676998
 41
5.183064793114921
 42
7.533536277640285
  0
SPLINE
  5
AB7E
330
1F
100
AcDbEntity
  8
PV0001_1
  6
Continuous
 48
0.5
100
AcDbSpline
210
0.0
220
0.0
230
1.0
 70
     8
 71
     3
 72
    11
 73
     7
 74
     5
 42
0.0000000001
 43
0.0000000001
 44
0.0000000001
 40
0.0
 40
0.0
 40
0.0
 40
0.0
 40
1.371912380755247
 40
2.743920379660334
 40
4.11578538035106
 40
5.487697761107153
 40
5.487697761107153
 40
5.487697761107153
 40
5.487697761107153
 10
0.5053131087108454
 20
11.42418836271831
 30
0.0
 10
0.7547006582939959
 20
11.0408700687054
 30
0.0
 10
1.253493139019366
 20
10.2742067645521
 30
0.0
 10
2.001656559172958
 20
9.124233199506106
 30
0.0
 10
2.749676448026991
 20
7.9741662641289
 30
0.0
 10
3.24846207180346
 20
7.207555363609706
 30
0.0
 10
3.497859190253812
 20
6.824243294359292
 30
0.0
 11
0.5053131087108454
 21
11.42418836271831
 31
0.0
 11
1.253474424628813
 21
10.2742326132073
 31
0.0
 11
2.00165862873083
 21
9.124177681566308
 31
0.0
 11
2.749697874335844
 21
7.974199043871308
 31
0.0
 11
3.497859190253812
 21
6.824243294359292
 31
0.0
  0
ELLIPSE
  5
AB7F
330
1F
100
AcDbEntity
  8
PV0001_1
  6
Continuous
 48
0.5
100
AcDbEllipse
 10
18.00027770832078
 20
19.33869336760128
 30
0.0
 11
1.196257598815997
 21
1.519393946891993
 31
0.0
210
0.0
220
0.0
230
1.0
 40
0.9781166295676998
 41
4.391937916202516
 42
5.183079386128278
  0
ELLIPSE
  5
AB80
330
1F
100
AcDbEntity
  8
PV0001_1
  6
Continuous
 48
0.5
100
AcDbEllipse
 10
2.475444029120888
 20
19.06676648771831
 30
0.0
 11
0.2002029365079991
 21
-0.0089569092170052
 31
0.0
210
0.0
220
0.0
230
1.0
 40
0.6711618281173002
 41
6.221955234190756
 42
7.828152084094242
  0
ELLIPSE
  5
AB82
330
1F
100
AcDbEntity
  8
PV0001_1
  6
Continuous
 48
0.5
100
AcDbEllipse
 10
0.7985412581247948
 20
17.5369660726793
 30
0.0
 11
0.007400523061996
 21
-0.4001312203439939
 31
0.0
210
0.0
220
0.0
230
1.0
 40
0.4959771297881001
 41
2.999245005001321
 42
4.571220401065768
  0
ELLIPSE
  5
AB83
330
1F
100
AcDbEntity
  8
PV0001_1
  6
Continuous
 48
0.5
100
AcDbEllipse
 10
0.883837888984852
 20
19.16436170256228
 30
0.0
 11
0.1995239256090002
 21
-0.013671874518991
 31
0.0
210
0.0
220
0.0
230
1.0
 40
0.6725267639563999
 41
1.580106750490014
 42
3.147985290129438
  0
ELLIPSE
  5
AB84
330
1F
100
AcDbEntity
  8
PV0001_1
  6
Continuous
 48
0.5
100
AcDbEllipse
 10
13.71103591754884
 20
2.009561287523296
 30
0.0
 11
22.76291801559
 21
-1.036514318022004
 31
0.0
210
0.0
220
0.0
230
1.0
 40
0.087424459208
 41
2.021089958578422
 42
2.214011816465303
  0
ELLIPSE
  5
AB86
330
1F
100
AcDbEntity
  8
PV0001_1
  6
Continuous
 48
0.5
100
AcDbEllipse
 10
2.226443479804823
 20
17.15296338713228
 30
0.0
 11
0.0240783487269953
 21
0.3935699346159964
 31
0.0
210
0.0
220
0.0
230
1.0
 40
0.5036643166537002
 41
4.578749682617178
 42
6.180467389451183
  0
ELLIPSE
  5
AB87
330
1F
100
AcDbEntity
  8
PV0001_1
  6
Continuous
 48
0.5
100
AcDbEllipse
 10
0.7985412581247948
 20
17.5369660726793
 30
0.0
 11
0.007400523061996
 21
-0.4001312203439939
 31
0.0
210
0.0
220
0.0
230
1.0
 40
0.4959771297881001
 41
4.571220497222538
 42
4.607305087275014
  0
ELLIPSE
  5
AB88
330
1F
100
AcDbEntity
  8
PV0001_1
  6
Continuous
 48
0.5
100
AcDbEllipse
 10
0.0368377669138555
 20
2.52536176359729
 30
0.0
 11
0.075378377611998
 21
1.998573294137003
 31
0.0
210
0.0
220
0.0
230
1.0
 40
0.0316007184586
 41
4.528981034395917
 42
5.725548734699013
  0
ELLIPSE
  5
AB89
330
1F
100
AcDbEntity
  8
PV0001_1
  6
Continuous
 48
0.5
100
AcDbEllipse
 10
1.216612997382833
 20
2.452768074632289
 30
0.0
 11
0.076187092876999
 21
-2.004257128009995
 31
0.0
210
0.0
220
0.0
230
0.9999999999999998
 40
0.0318611750204
 41
3.838897101699101
 42
4.890847034822972
  0
ELLIPSE
  5
AB8A
330
1F
100
AcDbEntity
  8
PV0001_1
  6
Continuous
 48
0.5
100
AcDbEllipse
 10
1.991839597968883
 20
2.423364388109292
 30
0.0
 11
0.076187092876999
 21
-2.004257128011004
 31
0.0
210
0.0
220
0.0
230
1.0
 40
0.0318535710401
 41
3.710552796226624
 42
3.783125823251503
  0
ELLIPSE
  5
AB8B
330
1F
100
AcDbEntity
  8
PV0001_1
  6
Continuous
 48
0.5
100
AcDbEllipse
 10
-19.60146789714818
 20
20.17286084807031
 30
0.0
 11
28.693316943538
 21
-2.084026210655999
 31
0.0
210
0.0
220
0.0
230
0.9999999999999998
 40
0.0602419645806
 41
5.593675483390195
 42
5.637674701861846
  0
ELLIPSE
  5
AB8C
330
1F
100
AcDbEntity
  8
PV0001_1
  6
Continuous
 48
0.5
100
AcDbEllipse
 10
-21.17837219402318
 20
20.2323701254143
 30
0.0
 11
28.583706375643
 21
-2.078930033382
 31
0.0
210
0.0
220
0.0
230
1.0
 40
0.060479920741
 41
5.742337026214587
 42
5.906656056532713
  0
ELLIPSE
  5
AB8D
330
1F
100
AcDbEntity
  8
PV0001_1
  6
Continuous
 48
0.5
100
AcDbEllipse
 10
14.45563430622083
 20
18.8879639974843
 30
0.0
 11
22.927347580682
 21
0.9496460560129889
 31
0.0
210
0.0
220
0.0
230
0.9999999999999998
 40
0.0368196677248
 41
4.237992778938933
 42
4.302891632522912
  0
ELLIPSE
  5
AB8E
330
1F
100
AcDbEntity
  8
PV0001_1
  6
Continuous
 48
0.5
100
AcDbEllipse
 10
14.45573348834985
 20
18.8879639974843
 30
0.0
 11
22.92744494193699
 21
0.9496459819160001
 31
0.0
210
0.0
220
0.0
230
1.0
 40
0.0368195272279
 41
4.162462343461477
 42
4.237995687644401
  0
ELLIPSE
  5
AB8F
330
1F
100
AcDbEntity
  8
PV0001_1
  6
Continuous
 48
0.5
100
AcDbEllipse
 10
-48.89352111980421
 20
15.85260938322629
 30
0.0
 11
-0.5319365999870075
 21
-5.996623931331996
 31
0.0
210
0.0
220
0.0
230
1.0
 40
0.0346697046814
 41
1.570796109263959
 42
4.712473028651344
  0
ELLIPSE
  5
AB90
330
1F
100
AcDbEntity
  8
PV0001_1
  6
Continuous
 48
0.5
100
AcDbEllipse
 10
-55.01382141277115
 20
16.38800214445731
 30
0.0
 11
-0.5319405534500009
 21
-5.996627889020998
 31
0.0
210
0.0
220
0.0
230
1.0
 40
0.0346702542141
 41
3.141636435622549
 42
5.323107059772802
  0
SPLINE
  5
AB91
330
1F
100
AcDbEntity
  8
PV0001_1
  6
Continuous
 48
0.5
100
AcDbSpline
210
0.0
220
0.0
230
1.0
 70
     8
 71
     3
 72
    11
 73
     7
 74
     5
 42
0.0000000001
 43
0.0000000001
 44
0.0000000001
 40
0.0
 40
0.0
 40
0.0
 40
0.0
 40
1.270255311205013
 40
2.832454025997093
 40
4.597230086263485
 40
6.474630770674556
 40
6.474630770674556
 40
6.474630770674556
 40
6.474630770674556
 10
3.497859190253812
 20
6.824243294359292
 30
0.0
 10
3.911235753650602
 20
6.916142663341818
 30
0.0
 10
4.832995419536469
 20
7.121062678526968
 30
0.0
 10
6.31192897167634
 20
7.523953240113494
 30
0.0
 10
7.978123017759632
 20
8.007149543533651
 30
0.0
 10
9.135106467480909
 20
8.375223077521468
 30
0.0
 10
9.731486509589865
 20
8.5649506918203
 30
0.0
 11
3.497859190253812
 21
6.824243294359292
 31
0.0
 11
4.735865782050802
 21
7.108651863695287
 31
0.0
 11
6.245623777656838
 21
7.5100190511953
 31
0.0
 11
7.939936826972791
 21
8.003717171312286
 31
0.0
 11
9.731486509589865
 21
8.5649506918203
 31
0.0
  0
SPLINE
  5
AB92
330
1F
100
AcDbEntity
  8
PV0001_1
  6
Continuous
 48
0.5
100
AcDbSpline
210
0.0
220
0.0
230
1.0
 70
     8
 71
     3
 72
    11
 73
     7
 74
     5
 42
0.0000000001
 43
0.0000000001
 44
0.0000000001
 40
0.0
 40
0.0
 40
0.0
 40
0.0
 40
1.866172295854343
 40
3.604833589768516
 40
5.127393569551591
 40
6.345223500094688
 40
6.345223500094688
 40
6.345223500094688
 40
6.345223500094688
 10
4.885981748847791
 20
16.01329969084331
 30
0.0
 10
4.466183150984929
 20
15.55423613433942
 30
0.0
 10
3.655269769688068
 20
14.66747571462897
 30
0.0
 10
2.482520093579331
 20
13.42416153864246
 30
0.0
 10
1.44762954869006
 20
12.34778761766227
 30
0.0
 10
0.7952366629309883
 20
11.70835317966063
 30
0.0
 10
0.5053131087108454
 20
11.42418836271831
 30
0.0
 11
4.885981748847791
 21
16.01329969084331
 31
0.0
 11
3.622943113593884
 21
14.63949750578528
 31
0.0
 11
2.430934141425803
 21
13.37377332365629
 31
0.0
 11
1.37128753498083
 21
12.28045819914429
 31
0.0
 11
0.5053131087108454
 21
11.42418836271831
 31
0.0
  0
ELLIPSE
  5
AB93
330
1F
100
AcDbEntity
  8
PV0001_1
  6
Continuous
 48
0.5
100
AcDbEllipse
 10
12.85236663654287
 20
15.89199231779629
 30
0.0
 11
3.777702335581999
 21
4.798130240776996
 31
0.0
210
0.0
220
0.0
230
1.0
 40
0.9781381164624999
 41
5.640562499894588
 42
6.285027658026257
  0
SPLINE
  5
AB94
330
1F
100
AcDbEntity
  8
PV0001_1
  6
Continuous
 48
0.5
100
AcDbSpline
210
0.0
220
0.0
230
1.0
 70
     8
 71
     3
 72
    11
 73
     7
 74
     0
 42
0.0000000001
 43
0.0000000001
 40
0.0
 40
0.0
 40
0.0
 40
0.0
 40
0.5448718683079817
 40
1.089746304544302
 40
1.634522973751603
 40
2.179387679091977
 40
2.179387679091977
 40
2.179387679091977
 40
2.179387679091977
 10
0.627436826972783
 20
-57.8865988382087
 30
0.0
 10
0.8064708858269822
 20
-57.91716135120058
 30
0.0
 10
1.164539847305448
 20
-57.97828652122249
 30
0.0
 10
1.701609001508656
 20
-58.06998401059075
 30
0.0
 10
2.238670958039462
 20
-58.16170946521665
 30
0.0
 10
2.596703889786751
 20
-58.2228378398144
 30
0.0
 10
2.775734819062406
 20
-58.25340449648614
 30
0.0
  0
SPLINE
  5
AB95
330
1F
100
AcDbEntity
  8
PV0001_1
  6
Continuous
 48
0.5
100
AcDbSpline
210
0.0
220
0.0
230
1.0
 70
     8
 71
     3
 72
    11
 73
     7
 74
     5
 42
0.0000000001
 43
0.0000000001
 44
0.0000000001
 40
0.0
 40
0.0
 40
0.0
 40
0.0
 40
1.525464285346505
 40
3.118888369635001
 40
4.796125299202568
 40
6.56051556671924
 40
6.56051556671924
 40
6.56051556671924
 40
6.56051556671924
 10
5.738436888007826
 20
-54.1650869973887
 30
0.0
 10
5.23477482404719
 20
-54.25736560984899
 30
0.0
 10
4.205012430654695
 20
-54.4460338690361
 30
0.0
 10
2.805240199508401
 20
-55.27016923505134
 30
0.0
 10
1.547418905057698
 20
-56.4053629329775
 30
0.0
 10
0.9392312909560537
 20
-57.38458780331361
 30
0.0
 10
0.627436826972783
 20
-57.8865988382087
 30
0.0
 11
5.738436888007826
 21
-54.1650869973887
 31
0.0
 11
4.256037901191873
 21
-54.52499605500571
 31
0.0
 11
2.86233825519578
 21
-55.29739595734969
 31
0.0
 11
1.62893981769578
 21
-56.4339926370377
 31
0.0
 11
0.627436826972783
 21
-57.8865988382087
 31
0.0
  0
ELLIPSE
  5
AB96
330
1F
100
AcDbEntity
  8
PV0001_1
  6
Continuous
 48
0.5
100
AcDbEllipse
 10
-21.92306213542921
 20
-61.3832953103767
 30
0.0
 11
28.64210450835599
 21
0.9051894426989921
 31
0.0
210
0.0
220
0.0
230
1.0
 40
0.069792372264
 41
5.740795926149245
 42
5.921476536621081
  0
ELLIPSE
  5
AB97
330
1F
100
AcDbEntity
  8
PV0001_1
  6
Continuous
 48
0.5
100
AcDbEllipse
 10
-20.3461654679492
 20
-61.33339907014271
 30
0.0
 11
28.75174715023299
 21
0.9086532423419928
 31
0.0
210
0.0
220
0.0
230
1.0
 40
0.0695262243595
 41
5.592148089639764
 42
5.636868878564745
  0
ELLIPSE
  5
AB98
330
1F
100
AcDbEntity
  8
PV0001_1
  6
Continuous
 48
0.5
100
AcDbEllipse
 10
1.719538877753804
 20
-64.3670981057877
 30
0.0
 11
-0.0197219669460011
 21
0.3235015851639992
 31
0.0
210
0.0
220
0.0
230
0.9999999999999998
 40
0.6124722013156001
 41
4.557734235957548
 42
6.12391911416053
  0
ELLIPSE
  5
AB99
330
1F
100
AcDbEntity
  8
PV0001_1
  6
Continuous
 48
0.5
100
AcDbEllipse
 10
1.719538877753804
 20
-64.3670981057877
 30
0.0
 11
-0.0197219669460011
 21
0.3235015851639992
 31
0.0
210
0.0
220
0.0
230
0.9999999999999998
 40
0.6124722013156001
 41
4.517733247756045
 42
4.557734235957548
  0
ELLIPSE
  5
AB9A
330
1F
100
AcDbEntity
  8
PV0001_1
  6
Continuous
 48
0.5
100
AcDbEllipse
 10
1.794139097480821
 20
-62.24959017121671
 30
0.0
 11
0.2003250099429934
 21
0.0055847167319989
 31
0.0
210
0.0
220
0.0
230
1.0
 40
0.1885972674007
 41
0.0
 42
1.552885395445653
  0
ELLIPSE
  5
AB9B
330
1F
100
AcDbEntity
  8
PV0001_1
  6
Continuous
 48
0.5
100
AcDbEllipse
 10
0.2001373274608362
 20
-62.2894995340097
 30
0.0
 11
0.1999435450809983
 21
0.0048141480449999
 31
0.0
210
0.0
220
0.0
230
1.0
 40
0.1889959955663
 41
1.578533204360201
 42
3.141593116154126
  0
ELLIPSE
  5
AB9C
330
1F
100
AcDbEntity
  8
PV0001_1
  6
Continuous
 48
0.5
100
AcDbEllipse
 10
0.262538145331816
 20
-64.0783941873307
 30
0.0
 11
-0.0564270135339981
 21
0.3267593508700006
 31
0.0
210
0.0
220
0.0
230
0.9999999999999998
 40
0.5931950862553003
 41
1.343831916901639
 42
1.380622616392903
  0
ELLIPSE
  5
AB9D
330
1F
100
AcDbEntity
  8
PV0001_1
  6
Continuous
 48
0.5
100
AcDbEllipse
 10
0.262538145331816
 20
-64.0783941873307
 30
0.0
 11
-0.0564270135339981
 21
0.3267593508700006
 31
0.0
210
0.0
220
0.0
230
0.9999999999999998
 40
0.5931950862553003
 41
6.058138808679672
 42
7.627017224081224
  0
ELLIPSE
  5
AB9E
330
1F
100
AcDbEntity
  8
PV0001_1
  6
Continuous
 48
0.5
100
AcDbEllipse
 10
13.54914016559582
 20
-54.02679659211571
 30
0.0
 11
5.996348180008996
 21
0.2093048114619996
 31
0.0
210
0.0
220
0.0
230
1.0
 40
0.0870993236701
 41
4.850850404162678
 42
6.283185307179585
  0
ELLIPSE
  5
AB9F
330
1F
100
AcDbEntity
  8
PV0001_1
  6
Continuous
 48
0.5
100
AcDbEllipse
 10
13.54914016559582
 20
-54.02679659211571
 30
0.0
 11
5.996348180008996
 21
0.2093048114619996
 31
0.0
210
0.0
220
0.0
230
1.0
 40
0.0870993236701
 41
0.0
 42
2.229244687394212
  0
ELLIPSE
  5
ABA0
330
1F
100
AcDbEntity
  8
PV0001_1
  6
Continuous
 48
0.5
100
AcDbEllipse
 10
19.23093719318383
 20
-55.6423971780527
 30
0.0
 11
-1.915167856076003
 21
0.4010008899820014
 31
0.0
210
0.0
220
0.0
230
0.9999999999999998
 40
0.0155365378597
 41
3.141587026672943
 42
4.316163418471508
  0
ELLIPSE
  5
ABA1
330
1F
100
AcDbEntity
  8
PV0001_1
  6
Continuous
 48
0.5
100
AcDbEllipse
 10
13.54913635089878
 20
-54.02679659211571
 30
0.0
 11
3.997566230212995
 21
0.1395416226629987
 31
0.0
210
0.0
220
0.0
230
1.0
 40
0.0871006340741
 41
3.141591649890937
 42
6.283185307179585
  0
ELLIPSE
  5
ABA2
330
1F
100
AcDbEntity
  8
PV0001_1
  6
Continuous
 48
0.5
100
AcDbEllipse
 10
13.54913635089878
 20
-54.02679659211571
 30
0.0
 11
3.997566230212995
 21
0.1395416226629987
 31
0.0
210
0.0
220
0.0
230
1.0
 40
0.0871006340741
 41
0.0
 42
3.141593657288646
  0
LINE
  5
ABA3
330
1F
100
AcDbEntity
  8
PV0001_1
  6
Continuous
 48
0.5
100
AcDbLine
 10
-54.74723510906112
 20
23.99831555998431
 30
0.0
 11
-82.24985962078122
 21
24.90281842863631
 31
0.0
  0
LINE
  5
ABA4
330
1F
100
AcDbEntity
  8
PV0001_1
  6
Continuous
 48
0.5
100
AcDbLine
 10
-82.24985962078122
 20
31.9983079305893
 30
0.0
 11
-54.2498672501712
 21
31.9983079305893
 31
0.0
  0
LINE
  5
ABA5
330
1F
100
AcDbEntity
  8
PV0001_1
  6
AM_ISO02W050
 48
0.5
100
AcDbLine
 10
-82.24985962078122
 20
4.998307930589316
 30
0.0
 11
-65.69570617839115
 21
4.998307930589314
 31
0.0
  0
LINE
  5
ABA6
330
1F
100
AcDbEntity
  8
PV0001_1
  6
Continuous
 48
0.5
100
AcDbLine
 10
-82.24985962078122
 20
3.999963509203323
 30
0.0
 11
-78.7498748795612
 21
0.4999635092033232
 31
0.0
  0
LINE
  5
ABA8
330
1F
100
AcDbEntity
  8
PV0001_1
  6
Continuous
 48
0.5
100
AcDbLine
 10
-82.24985962078122
 20
3.999955879808323
 30
0.0
 11
-82.24985962078122
 21
31.9983079305893
 31
0.0
  0
CIRCLE
  5
ABA9
330
1F
100
AcDbEntity
  8
PV0001_1
  6
Continuous
 48
0.5
100
AcDbCircle
 10
12.84493560626977
 20
15.85595105803128
 30
0.0
 40
3.374989986419698
  0
ARC
  5
ABAA
330
1F
100
AcDbEntity
  8
PV0001_1
  6
Continuous
 48
0.5
100
AcDbCircle
 10
12.84493560626977
 20
17.70007489836329
 30
0.0
 40
0.5269017815590002
100
AcDbArc
 50
9.999999709089788
 51
169.9999933470338
  0
ARC
  5
ABAB
330
1F
100
AcDbEntity
  8
PV0001_1
  6
Continuous
 48
0.5
100
AcDbCircle
 10
12.84493560626977
 20
15.85595105803128
 30
0.0
 40
3.999989986419698
100
AcDbArc
 50
101.7588561795728
 51
281.7588543583398
  0
ARC
  5
ABAC
330
1F
100
AcDbEntity
  8
PV0001_1
  6
Continuous
 48
0.5
100
AcDbCircle
 10
12.84493560626977
 20
15.85595105803128
 30
0.0
 40
3.999989986419698
100
AcDbArc
 50
281.7588511706139
 51
101.7588561795728
  0
ARC
  5
ABAD
330
1F
100
AcDbEntity
  8
PV0001_1
  6
Continuous
 48
0.5
100
AcDbCircle
 10
12.84493560626977
 20
15.85595105803128
 30
0.0
 40
3.999989986419698
100
AcDbArc
 50
101.7588561795728
 51
281.7588543583398
  0
ARC
  5
ABAE
330
1F
100
AcDbEntity
  8
PV0001_1
  6
Continuous
 48
0.5
100
AcDbCircle
 10
12.84493560626977
 20
15.85595105803128
 30
0.0
 40
3.999989986419698
100
AcDbArc
 50
281.7588511706139
 51
101.7588561795728
  0
ARC
  5
ABAF
330
1F
100
AcDbEntity
  8
PV0001_1
  6
Continuous
 48
0.5
100
AcDbCircle
 10
12.84493560626977
 20
15.85595105803128
 30
0.0
 40
5.993264675140399
100
AcDbArc
 50
348.2411437635851
 51
137.929400174748
  0
ARC
  5
ABB0
330
1F
100
AcDbEntity
  8
PV0001_1
  6
Continuous
 48
0.5
100
AcDbCircle
 10
12.96144409015683
 20
16.4160020223863
 30
0.0
 40
8.082375526428199
100
AcDbArc
 50
348.2410139899914
 51
32.79349356384673
  0
LINE
  5
ABB1
330
1F
100
AcDbEntity
  8
PV0001_1
  6
Continuous
 48
0.5
100
AcDbLine
 10
24.40691490009279
 20
4.998307930589289
 30
0.0
 11
24.19629211261789
 21
20.43213056242528
 31
0.0
  0
LINE
  5
ABB2
330
1F
100
AcDbEntity
  8
PV0001_1
  6
Continuous
 48
0.5
100
AcDbLine
 10
2.959269712714864
 20
14.2138917318593
 30
0.0
 11
8.482051084785858
 21
20.28494428312829
 31
0.0
  0
LINE
  5
ABB3
330
1F
100
AcDbEntity
  8
PV0001_1
  6
Continuous
 48
0.5
100
AcDbLine
 10
4.88598556354483
 20
16.01329969084331
 30
0.0
 11
8.395999143867889
 21
19.8717210165273
 31
0.0
  0
LINE
  5
ABB4
330
1F
100
AcDbEntity
  8
PV0001_1
  6
Continuous
 48
0.5
100
AcDbLine
 10
-53.9387252824012
 20
13.7453935018783
 30
0.0
 11
-53.2728240983112
 21
18.7651841512923
 31
0.0
  0
LINE
  5
ABB5
330
1F
100
AcDbEntity
  8
PV0001_1
  6
Continuous
 48
0.5
100
AcDbLine
 10
-60.06184845134114
 20
17.64554761564831
 30
0.0
 11
-55.32724456951113
 21
19.85154889738631
 31
0.0
  0
LINE
  5
ABB6
330
1F
100
AcDbEntity
  8
PV0001_1
  6
Continuous
 48
0.5
100
AcDbLine
 10
-55.56004028484122
 20
13.04128430998431
 30
0.0
 11
-54.91097717449115
 21
20.35756086027731
 31
0.0
  0
LINE
  5
ABB7
330
1F
100
AcDbEntity
  8
PV0001_1
  6
Continuous
 48
0.5
100
AcDbLine
 10
-56.29596405193119
 20
19.17186139738631
 30
0.0
 11
-57.80566101238119
 21
17.88417218840231
 31
0.0
  0
LINE
  5
ABB9
330
1F
100
AcDbEntity
  8
PV0001_1
  6
Continuous
 48
0.5
100
AcDbLine
 10
-56.1317642228311
 20
19.29886792814831
 30
0.0
 11
-55.49706726238119
 21
17.93457959807031
 31
0.0
  0
LINE
  5
ABBA
330
1F
100
AcDbEntity
  8
PV0001_1
  6
Continuous
 48
0.5
100
AcDbLine
 10
5.327159117011853
 20
16.81685041105829
 30
0.0
 11
5.450755308417877
 21
20.3575761190663
 31
0.0
  0
LINE
  5
ABBB
330
1F
100
AcDbEntity
  8
PV0001_1
  6
Continuous
 48
0.5
100
AcDbLine
 10
25.00013847187081
 20
6.998307930589289
 30
0.0
 11
25.00013847187082
 21
31.99830793058929
 31
0.0
  0
LINE
  5
ABBC
330
1F
100
AcDbEntity
  8
PV0001_1
  6
Continuous
 48
0.5
100
AcDbLine
 10
4.016936491279887
 20
17.7029588094963
 30
0.0
 11
3.943236540107899
 21
20.1470582357653
 31
0.0
  0
LINE
  5
ABBD
330
1F
100
AcDbEntity
  8
PV0001_1
  6
Continuous
 48
0.5
100
AcDbLine
 10
4.034236143378813
 20
17.70337079680028
 30
0.0
 11
3.952532957343885
 21
20.4140717855703
 31
0.0
  0
LINE
  5
ABBE
330
1F
100
AcDbEntity
  8
PV0001_1
  6
Continuous
 48
0.5
100
AcDbLine
 10
2.486342619208778
 20
19.2009751669173
 30
0.0
 11
2.270640562324809
 21
17.5432755819573
 31
0.0
  0
LINE
  5
ABBF
330
1F
100
AcDbEntity
  8
PV0001_1
  6
Continuous
 48
0.5
100
AcDbLine
 10
0.8193199141308816
 20
17.9334657064683
 30
0.0
 11
0.8909217818068903
 21
19.29866193449631
 31
0.0
  0
LINE
  5
ABC0
330
1F
100
AcDbEntity
  8
PV0001_1
  6
Continuous
 48
0.5
100
AcDbLine
 10
2.67492217853586
 20
19.0502793661363
 30
0.0
 11
2.41962737873083
 21
17.08807538664428
 31
0.0
  0
LINE
  5
ABC1
330
1F
100
AcDbEntity
  8
PV0001_1
  6
Continuous
 48
0.5
100
AcDbLine
 10
0.6010314924997948
 20
17.58995221769929
 30
0.0
 11
0.6842300398638721
 21
19.1765611044173
 31
0.0
  0
CIRCLE
  5
ABC8
330
1F
100
AcDbEntity
  8
PV0001_1
  6
Continuous
 48
0.5
100
AcDbCircle
 10
-62.27940826579121
 20
9.963487373949302
 30
0.0
 40
4.0999999046326
  0
CIRCLE
  5
ABC9
330
1F
100
AcDbEntity
  8
PV0001_1
  6
Continuous
 48
0.5
100
AcDbCircle
 10
-62.27940826579121
 20
9.963487373949302
 30
0.0
 40
3.0
  0
CIRCLE
  5
ABCA
330
1F
100
AcDbEntity
  8
PV0001_1
  6
Continuous
 48
0.5
100
AcDbCircle
 10
-62.27940826579121
 20
9.963487373949302
 30
0.0
 40
3.5
  0
CIRCLE
  5
ABCB
330
1F
100
AcDbEntity
  8
PV0001_1
  6
Continuous
 48
0.5
100
AcDbCircle
 10
-62.27940826579121
 20
9.963487373949302
 30
0.0
 40
1.9700000286102
  0
ARC
  5
ABCC
330
1F
100
AcDbEntity
  8
PV0001_1
  6
Continuous
 48
0.5
100
AcDbCircle
 10
-63.87591247722119
 20
9.963273750902313
 30
0.0
 40
0.3088708221912
100
AcDbArc
 50
105.0971794383113
 51
254.9033428437909
  0
LINE
  5
ABCD
330
1F
100
AcDbEntity
  8
PV0001_1
  6
Continuous
 48
0.5
100
AcDbLine
 10
-60.61153869792114
 20
1.435960518480302
 30
0.0
 11
-70.01335601970109
 21
8.023568855882297
 31
0.0
  0
LINE
  5
ABCE
330
1F
100
AcDbEntity
  8
PV0001_1
  6
Continuous
 48
0.5
100
AcDbLine
 10
-70.66128235027115
 20
12.70686505949632
 30
0.0
 11
-60.0618865983112
 21
17.64556287443729
 31
0.0
  0
LINE
  5
ABCF
330
1F
100
AcDbEntity
  8
PV0001_1
  6
Continuous
 48
0.5
100
AcDbLine
 10
-78.74985962078122
 20
0.4999635092033232
 30
0.0
 11
-60.69456939861122
 21
0.4999635092033138
 31
0.0
  0
LINE
  5
ABD0
330
1F
100
AcDbEntity
  8
PV0001_1
  6
Continuous
 48
0.5
100
AcDbLine
 10
-59.04808502361121
 20
0.3650605551013105
 30
0.0
 11
-70.02028350994116
 21
8.052758919359314
 31
0.0
  0
LINE
  5
ABD1
330
1F
100
AcDbEntity
  8
PV0001_1
  6
Continuous
 48
0.5
100
AcDbLine
 10
-72.20567016765123
 20
11.97849439299229
 30
0.0
 11
-60.04907684490119
 21
17.64269422209331
 31
0.0
  0
LINE
  5
ABD2
330
1F
100
AcDbEntity
  8
PV0001_1
  6
AM_ISO08W050
 48
0.5
100
AcDbLine
 10
-57.27940826579121
 20
9.963487373949302
 30
0.0
 11
-67.27940826579121
 21
9.963487373949304
 31
0.0
  0
LINE
  5
ABD3
330
1F
100
AcDbEntity
  8
PV0001_1
  6
Continuous
 48
0.5
100
AcDbLine
 10
-71.01444702312112
 20
8.724954353929316
 30
0.0
 11
-73.39095001384116
 21
8.932855354906303
 31
0.0
  0
LINE
  5
ABD4
330
1F
100
AcDbEntity
  8
PV0001_1
  6
Continuous
 48
0.5
100
AcDbLine
 10
-70.66126709148116
 20
12.70688031828529
 30
0.0
 11
-73.03776245281112
 21
12.91478131926132
 31
0.0
  0
LINE
  5
ABD5
330
1F
100
AcDbEntity
  8
PV0001_1
  6
Continuous
 48
0.5
100
AcDbLine
 10
-72.89377288982113
 20
12.7429520956283
 30
0.0
 11
-71.51287536785119
 21
12.62215589201531
 31
0.0
  0
LINE
  5
ABD6
330
1F
100
AcDbEntity
  8
PV0001_1
  6
Continuous
 48
0.5
100
AcDbLine
 10
-73.2175720231211
 20
10.53618024504231
 30
0.0
 11
-71.34886627361122
 21
9.874269234300294
 31
0.0
  0
LINE
  5
ABD7
330
1F
100
AcDbEntity
  8
PV0001_1
  6
Continuous
 48
0.5
100
AcDbLine
 10
-73.08657531902113
 20
10.4369675985583
 30
0.0
 11
-71.29105835124112
 21
9.805360542894304
 31
0.0
  0
ARC
  5
ABD8
330
1F
100
AcDbEntity
  8
PV0001_1
  6
Continuous
 48
0.5
100
AcDbCircle
 10
-73.21437530681116
 20
10.92376111662431
 30
0.0
 40
1.9999824762344
100
AcDbArc
 50
84.93117568744231
 51
219.9676902203647
  0
ARC
  5
ABD9
330
1F
100
AcDbEntity
  8
PV0001_1
  6
Continuous
 48
0.5
100
AcDbCircle
 10
-73.07036285564111
 20
10.75196241057031
 30
0.0
 40
2.000024318695099
100
AcDbArc
 50
84.93117568744231
 51
216.7512858383117
  0
ARC
  5
ABDA
330
1F
100
AcDbEntity
  8
PV0001_1
  6
Continuous
 48
0.5
100
AcDbCircle
 10
-73.21437530681116
 20
10.92376111662431
 30
0.0
 40
1.998717188835098
100
AcDbArc
 50
219.9676938628293
 51
264.9309247916741
  0
LINE
  5
ABDB
330
1F
100
AcDbEntity
  8
PV0001_1
  6
Continuous
 48
0.5
100
AcDbLine
 10
-73.21756439372113
 20
10.53615735685931
 30
0.0
 11
-72.20567016765123
 21
11.97844861662431
 31
0.0
  0
LINE
  5
ABDC
330
1F
100
AcDbEntity
  8
PV0001_1
  6
Continuous
 48
0.5
100
AcDbLine
 10
-73.40680389568119
 20
10.5981614462143
 30
0.0
 11
-72.54269867107113
 21
11.82976697599931
 31
0.0
  0
LINE
  5
ABDD
330
1F
100
AcDbEntity
  8
PV0001_1
  6
Continuous
 48
0.5
100
AcDbLine
 10
-73.30136566326114
 20
10.5180604330313
 30
0.0
 11
-73.4063690201912
 21
10.5975587240463
 31
0.0
  0
LINE
  5
ABDE
330
1F
100
AcDbEntity
  8
PV0001_1
  6
Continuous
 48
0.5
100
AcDbLine
 10
-72.25375824138113
 20
12.02983258879231
 30
0.0
 11
-72.54066162273116
 21
11.83143781340231
 31
0.0
  0
LINE
  5
ABDF
330
1F
100
AcDbEntity
  8
PV0001_1
  6
Continuous
 48
0.5
100
AcDbLine
 10
-72.89376526042115
 20
12.74297498381229
 30
0.0
 11
-73.03776245281112
 21
12.91477368986729
 31
0.0
  0
ARC
  5
ABE0
330
1F
100
AcDbEntity
  8
PV0001_1
  6
Continuous
 48
0.5
100
AcDbCircle
 10
-72.0183609025111
 20
7.990365730882297
 30
0.0
 40
1.9993273019791
100
AcDbArc
 50
39.96769545669539
 51
70.43581355156648
  0
ARC
  5
ABE1
330
1F
100
AcDbEntity
  8
PV0001_1
  6
Continuous
 48
0.5
100
AcDbCircle
 10
-72.0183609025111
 20
7.990365730882297
 30
0.0
 40
1.9999824762344
100
AcDbArc
 50
1.788748956944585
 51
39.96769545669539
  0
ARC
  5
ABE2
330
1F
100
AcDbEntity
  8
PV0001_1
  6
Continuous
 48
0.5
100
AcDbCircle
 10
-71.95756988689111
 20
7.917764412523322
 30
0.0
 40
2.001813173294098
100
AcDbArc
 50
42.06194073924643
 51
70.5521863146498
  0
LINE
  5
ABE3
330
1F
100
AcDbEntity
  8
PV0001_1
  6
Continuous
 48
0.5
100
AcDbLine
 10
-70.01337127849119
 20
8.023561226488308
 30
0.0
 11
-71.01448517009116
 21
8.7249619833243
 31
0.0
  0
LINE
  5
ABE4
330
1F
100
AcDbEntity
  8
PV0001_1
  6
Continuous
 48
0.5
100
AcDbLine
 10
-71.29105072185113
 20
9.805352913499316
 30
0.0
 11
-71.34885101482113
 21
9.874253975511317
 31
0.0
  0
LINE
  5
ABE5
330
1F
100
AcDbEntity
  8
PV0001_1
  6
Continuous
 48
0.5
100
AcDbLine
 10
-71.56016235515124
 20
12.67865918791431
 30
0.0
 11
-71.51286773845111
 21
12.62215589201531
 31
0.0
  0
LINE
  5
ABE6
330
1F
100
AcDbEntity
  8
PV0001_1
  6
Continuous
 48
0.5
100
AcDbLine
 10
-71.51284485027115
 20
12.62217115080431
 30
0.0
 11
-71.41814880535119
 21
12.6662766805893
 31
0.0
  0
LINE
  5
ABE7
330
1F
100
AcDbEntity
  8
PV0001_1
  6
Continuous
 48
0.5
100
AcDbLine
 10
-71.56014709636116
 20
12.67865918791431
 30
0.0
 11
-71.09763794109124
 21
12.63815473234731
 31
0.0
  0
LINE
  5
ABE8
330
1F
100
AcDbEntity
  8
PV0001_1
  6
Continuous
 48
0.5
100
AcDbLine
 10
-71.09765319988119
 20
12.63815473234731
 30
0.0
 11
-70.88076477214113
 21
12.6723573080313
 31
0.0
  0
LINE
  5
ABE9
330
1F
100
AcDbEntity
  8
PV0001_1
  6
Continuous
 48
0.5
100
AcDbLine
 10
-70.88075714275117
 20
12.67236493742529
 30
0.0
 11
-70.66125946208117
 21
12.70687268889031
 31
0.0
  0
LINE
  5
ABEA
330
1F
100
AcDbEntity
  8
PV0001_1
  6
Continuous
 48
0.5
100
AcDbLine
 10
-71.84605865642122
 20
12.2270676962143
 30
0.0
 11
-70.88075714275117
 21
12.67236493742529
 31
0.0
  0
ARC
  5
ABEB
330
1F
100
AcDbEntity
  8
PV0001_1
  6
Continuous
 48
0.5
100
AcDbCircle
 10
-52.88230590984112
 20
11.27487348234731
 30
0.0
 40
4.467604637145998
100
AcDbArc
 50
265.0016650609095
 51
322.6581707697173
  0
LINE
  5
ABEC
330
1F
100
AcDbEntity
  8
PV0001_1
  6
Continuous
 48
0.5
100
AcDbLine
 10
-55.67640381023117
 20
7.034585701585301
 30
0.0
 11
-56.09585266277115
 21
4.199968086839307
 31
0.0
  0
LINE
  5
ABED
330
1F
100
AcDbEntity
  8
PV0001_1
  6
Continuous
 48
0.5
100
AcDbLine
 10
-55.55366974040115
 20
17.57615827238631
 30
0.0
 11
-56.73817138835116
 21
4.224153267503313
 31
0.0
  0
LINE
  5
ABEE
330
1F
100
AcDbEntity
  8
PV0001_1
  6
Continuous
 48
0.5
100
AcDbLine
 10
-56.02474670574115
 20
7.065057503343312
 30
0.0
 11
-56.27427368328122
 21
4.252664314867304
 31
0.0
  0
LINE
  5
ABEF
330
1F
100
AcDbEntity
  8
PV0001_1
  6
Continuous
 48
0.5
100
AcDbLine
 10
-56.24264984294112
 20
4.214982735277303
 30
0.0
 11
-55.99003296062112
 21
7.062013374925301
 31
0.0
  0
LINE
  5
ABF0
330
1F
100
AcDbEntity
  8
PV0001_1
  6
AM_ISO08W050
 48
0.5
100
AcDbLine
 10
-62.27940826579121
 20
4.963487373949314
 30
0.0
 11
-62.27940826579121
 21
14.9634873739493
 31
0.0
  0
LINE
  5
ABF1
330
1F
100
AcDbEntity
  8
PV0001_1
  6
Continuous
 48
0.5
100
AcDbLine
 10
-60.69455413982112
 20
0.4999635092033138
 30
0.0
 11
-60.61155395671121
 21
1.435968147874307
 31
0.0
  0
LINE
  5
ABF2
330
1F
100
AcDbEntity
  8
PV0001_1
  6
Continuous
 48
0.5
100
AcDbLine
 10
-60.66376190349118
 20
0.4999635092033138
 30
0.0
 11
-60.5921600358112
 21
1.318162666917303
 31
0.0
  0
LINE
  5
ABF3
330
1F
100
AcDbEntity
  8
PV0001_1
  6
Continuous
 48
0.5
100
AcDbLine
 10
-57.29395752117118
 20
0.2115647665273047
 30
0.0
 11
-57.65305023357112
 21
2.161157356859306
 31
0.0
  0
LINE
  5
ABF6
330
1F
100
AcDbEntity
  8
PV0001_1
  6
Continuous
 48
0.5
100
AcDbLine
 10
-60.66376190349118
 20
0.4999635092033138
 30
0.0
 11
-60.69456939861122
 21
0.4999635092033138
 31
0.0
  0
LINE
  5
ABF8
330
1F
100
AcDbEntity
  8
PV0001_1
  6
Continuous
 48
0.5
100
AcDbLine
 10
-57.24985199138112
 20
-0.0000593789806925
 30
0.0
 11
-58.75055389568117
 21
0.1312425009023048
 31
0.0
  0
LINE
  5
ABFB
330
1F
100
AcDbEntity
  8
PV0001_1
  6
Continuous
 48
0.5
100
AcDbLine
 10
-60.59217529460116
 20
1.318162666917303
 30
0.0
 11
-60.61156921550119
 21
1.435960518480302
 31
0.0
  0
ARC
  5
ABFC
330
1F
100
AcDbEntity
  8
PV0001_1
  6
Continuous
 48
0.5
100
AcDbCircle
 10
-55.6870620743911
 20
2.525354134203312
 30
0.0
 40
1.9994493722916
100
AcDbArc
 50
121.7463597666728
 51
190.4950278007891
  0
LINE
  5
ABFF
330
1F
100
AcDbEntity
  8
PV0001_1
  6
Continuous
 48
0.5
100
AcDbLine
 10
-56.09587555095109
 20
4.199960457445301
 30
0.0
 11
-56.24266510173121
 21
4.214975105882303
 31
0.0
  0
LINE
  5
AC01
330
1F
100
AcDbEntity
  8
PV0001_1
  6
Continuous
 48
0.5
100
AcDbLine
 10
-56.24266510173121
 20
4.214975105882303
 30
0.0
 11
-56.27425079509116
 21
4.25267194426131
 31
0.0
  0
LINE
  5
AC02
330
1F
100
AcDbEntity
  8
PV0001_1
  6
Continuous
 48
0.5
100
AcDbLine
 10
-53.27560119792114
 20
6.824617134691308
 30
0.0
 11
-56.05915527507116
 21
7.068063484789306
 31
0.0
  0
LINE
  5
AC04
330
1F
100
AcDbEntity
  8
PV0001_1
  6
Continuous
 48
0.5
100
AcDbLine
 10
-56.05916290447115
 20
7.068063484789306
 30
0.0
 11
-55.72503357097119
 21
11.66810773527731
 31
0.0
  0
ARC
  5
AC05
330
1F
100
AcDbEntity
  8
PV0001_1
  6
Continuous
 48
0.5
100
AcDbCircle
 10
-63.07760315105114
 20
8.580842720628305
 30
0.0
 40
0.3088708221912
100
AcDbArc
 50
165.0971606173913
 51
314.9036040606301
  0
ARC
  5
AC06
330
1F
100
AcDbEntity
  8
PV0001_1
  6
Continuous
 48
0.5
100
AcDbCircle
 10
-64.17044525310112
 20
8.871713387132295
 30
0.0
 40
0.8213797211646999
100
AcDbArc
 50
345.097092429185
 51
74.90321489143031
  0
ARC
  5
AC07
330
1F
100
AcDbEntity
  8
PV0001_1
  6
Continuous
 48
0.5
100
AcDbCircle
 10
-64.17053680583119
 20
11.05516980803129
 30
0.0
 40
0.8213797211646999
100
AcDbArc
 50
285.0971061274605
 51
14.90359400482623
  0
ARC
  5
AC08
330
1F
100
AcDbEntity
  8
PV0001_1
  6
Continuous
 48
0.5
100
AcDbCircle
 10
-63.07772522136114
 20
11.34606336271832
 30
0.0
 40
0.3088708221912
100
AcDbArc
 50
45.09703091958697
 51
194.903505098679
  0
ARC
  5
AC09
330
1F
100
AcDbEntity
  8
PV0001_1
  6
Continuous
 48
0.5
100
AcDbCircle
 10
-62.27961425945117
 20
12.14686750090231
 30
0.0
 40
0.8213797211646999
100
AcDbArc
 50
225.0970566464816
 51
314.9036111181937
  0
ARC
  5
AC0A
330
1F
100
AcDbEntity
  8
PV0001_1
  6
Continuous
 48
0.5
100
AcDbCircle
 10
-61.48121338054116
 20
11.34588025724931
 30
0.0
 40
0.3088708221912
100
AcDbArc
 50
345.097092429185
 51
134.9033531648643
  0
ARC
  5
AC0B
330
1F
100
AcDbEntity
  8
PV0001_1
  6
Continuous
 48
0.5
100
AcDbCircle
 10
-60.38859253093112
 20
11.05512403166431
 30
0.0
 40
0.8213797211646999
100
AcDbArc
 50
165.0970513343672
 51
254.9031789192534
  0
ARC
  5
AC0C
330
1F
100
AcDbEntity
  8
PV0001_1
  6
Continuous
 48
0.5
100
AcDbCircle
 10
-60.6829040543711
 20
9.963433968187295
 30
0.0
 40
0.3088708221912
100
AcDbArc
 50
285.0971061274605
 51
74.9030236461327
  0
ARC
  5
AC0D
330
1F
100
AcDbEntity
  8
PV0001_1
  6
Continuous
 48
0.5
100
AcDbCircle
 10
-60.38850860759115
 20
8.871621834398318
 30
0.0
 40
0.8213797211646999
100
AcDbArc
 50
105.0968994005537
 51
194.903505098679
  0
ARC
  5
AC0E
330
1F
100
AcDbEntity
  8
PV0001_1
  6
Continuous
 48
0.5
100
AcDbCircle
 10
-61.48129730388112
 20
8.580758797289316
 30
0.0
 40
0.3088708221912
100
AcDbArc
 50
225.0972205710254
 51
14.90359400482623
  0
ARC
  5
AC0F
330
1F
100
AcDbEntity
  8
PV0001_1
  6
Continuous
 48
0.5
100
AcDbCircle
 10
-62.27942352458118
 20
7.779947029710308
 30
0.0
 40
0.8213797211646999
100
AcDbArc
 50
45.09703091958697
 51
134.9033531648643
  0
ARC
  5
AC13
330
1F
100
AcDbEntity
  8
PV0001_1
  6
Continuous
 48
0.5
100
AcDbCircle
 10
-59.10207061931115
 20
19.40386365568729
 30
0.0
 40
1.997533798217799
100
AcDbArc
 50
241.7330068984245
 51
310.4662694408673
  0
ARC
  5
AC14
330
1F
100
AcDbEntity
  8
PV0001_1
  6
Continuous
 48
0.5
100
AcDbCircle
 10
-54.30038147136114
 20
16.4755952230703
 30
0.0
 40
5.232038021087599
100
AcDbArc
 50
285.0999338257783
 51
354.9308564329394
  0
LINE
  5
AC15
330
1F
100
AcDbEntity
  8
PV0001_1
  6
Continuous
 48
0.5
100
AcDbLine
 10
-48.68556671306616
 20
15.8346726766833
 30
0.0
 11
-49.3304260270311
 21
8.564965950609311
 31
0.0
  0
LINE
  5
AC16
330
1F
100
AcDbEntity
  8
PV0001_1
  6
Continuous
 48
0.5
100
AcDbLine
 10
-55.72503357097119
 20
11.6680772176993
 30
0.0
 11
-55.5577285782912
 21
12.92978070891028
 31
0.0
  0
LINE
  5
AC17
330
1F
100
AcDbEntity
  8
PV0001_1
  6
Continuous
 48
0.5
100
AcDbLine
 10
-52.93742065593112
 20
11.42420362150729
 30
0.0
 11
-55.72502594158109
 21
11.66810773527731
 31
0.0
  0
LINE
  5
AC18
330
1F
100
AcDbEntity
  8
PV0001_1
  6
Continuous
 48
0.5
100
AcDbLine
 10
-52.93742828533109
 20
11.42421125090231
 30
0.0
 11
-53.27156524822115
 21
6.824258553148312
 31
0.0
  0
LINE
  5
AC19
330
1F
100
AcDbEntity
  8
PV0001_1
  6
Continuous
 48
0.5
100
AcDbLine
 10
-55.55770569011114
 20
12.9297959676993
 30
0.0
 11
-53.93871765300119
 21
13.74538587248431
 31
0.0
  0
LINE
  5
AC1C
330
1F
100
AcDbEntity
  8
PV0001_1
  6
Continuous
 48
0.5
100
AcDbLine
 10
24.40691490009279
 20
-60.03775144898771
 30
0.0
 11
12.00014419391579
 21
-61.09770323121471
 31
0.0
  0
LINE
  5
AC1E
330
1F
100
AcDbEntity
  8
PV0001_1
  6
Continuous
 48
0.5
100
AcDbLine
 10
2.873126219062852
 20
-61.0410111078017
 30
0.0
 11
0.7248260481638479
 21
-60.6742117532487
 31
0.0
  0
LINE
  5
AC1F
330
1F
100
AcDbEntity
  8
PV0001_1
  6
Continuous
 48
0.5
100
AcDbLine
 10
1.796137998847781
 20
-62.21167684876871
 30
0.0
 11
0.1982414229198205
 21
-62.25167776429572
 31
0.0
  0
LINE
  5
AC20
330
1F
100
AcDbEntity
  8
PV0001_1
  6
Continuous
 48
0.5
100
AcDbLine
 10
1.731536100654877
 20
-64.0458214410537
 30
0.0
 11
0.2506362898638618
 21
-63.7524216302627
 31
0.0
  0
LINE
  5
AC21
330
1F
100
AcDbEntity
  8
PV0001_1
  6
Continuous
 48
0.5
100
AcDbLine
 10
3.661242674140863
 20
-70.092591060041
 30
0.0
 11
1.20014495685582
 21
-69.6655895837532
 31
0.0
  0
LINE
  5
AC22
330
1F
100
AcDbEntity
  8
PV0001_1
  6
Continuous
 48
0.5
100
AcDbLine
 10
0.2506324751658004
 20
-63.7524092324967
 30
0.0
 11
0.1982337935258577
 21
-62.25170637452471
 31
0.0
  0
LINE
  5
AC23
330
1F
100
AcDbEntity
  8
PV0001_1
  6
Continuous
 48
0.5
100
AcDbLine
 10
0.0610343916698204
 20
-64.03759981477171
 30
0.0
 11
0.0001327498247996
 21
-62.2942936547987
 31
0.0
  0
LINE
  5
AC24
330
1F
100
AcDbEntity
  8
PV0001_1
  6
Continuous
 48
0.5
100
AcDbLine
 10
0.0616371138377891
 20
-64.04992128693971
 30
0.0
 11
0.5125381453318152
 21
-71.8180194028602
 31
0.0
  0
LINE
  5
AC25
330
1F
100
AcDbEntity
  8
PV0001_1
  6
Continuous
 48
0.5
100
AcDbLine
 10
1.200137327460835
 20
-65.6655953057991
 30
0.0
 11
0.3189308150097776
 21
-65.6963951715217
 31
0.0
  0
LINE
  5
AC26
330
1F
100
AcDbEntity
  8
PV0001_1
  6
Continuous
 48
0.5
100
AcDbLine
 10
0.3189460737988401
 20
-65.69640661561351
 30
0.0
 11
0.3516456587597776
 21
-65.61341215455399
 31
0.0
  0
LINE
  5
AC27
330
1F
100
AcDbEntity
  8
PV0001_1
  6
Continuous
 48
0.5
100
AcDbLine
 10
1.200137327460835
 20
-65.6655905374275
 30
0.0
 11
1.200137327460835
 21
-65.5939962991462
 31
0.0
  0
LINE
  5
AC28
330
1F
100
AcDbEntity
  8
PV0001_1
  6
Continuous
 48
0.5
100
AcDbLine
 10
1.200141142158783
 20
-65.5940020211921
 30
0.0
 11
0.3516380293658148
 21
-65.6133997567878
 31
0.0
  0
LINE
  5
AC29
330
1F
100
AcDbEntity
  8
PV0001_1
  6
Continuous
 48
0.5
100
AcDbLine
 10
0.6274330122758585
 20
-57.8866121896497
 30
0.0
 11
0.7248336775588338
 21
-60.67419458711071
 31
0.0
  0
LINE
  5
AC2A
330
1F
100
AcDbEntity
  8
PV0001_1
  6
Continuous
 48
0.5
100
AcDbLine
 10
0.6004440291208791
 20
-60.5555031427137
 30
0.0
 11
0.1341430647658648
 21
-61.74000383698871
 31
0.0
  0
LINE
  5
AC2B
330
1F
100
AcDbEntity
  8
PV0001_1
  6
Continuous
 48
0.5
100
AcDbLine
 10
1.796134184150857
 20
-62.2117169030897
 30
0.0
 11
1.731536100654877
 21
-64.0458157190077
 31
0.0
  0
LINE
  5
AC2C
330
1F
100
AcDbEntity
  8
PV0001_1
  6
Continuous
 48
0.5
100
AcDbLine
 10
1.994437406806879
 20
-62.24436117493969
 30
0.0
 11
1.918334196357888
 21
-64.40548254334871
 31
0.0
  0
LINE
  5
AC2D
330
1F
100
AcDbEntity
  8
PV0001_1
  6
Continuous
 48
0.5
100
AcDbLine
 10
2.642535398749784
 20
-61.8120749124277
 30
0.0
 11
2.394633482245877
 21
-69.60238291108471
 31
0.0
  0
LINE
  5
AC2E
330
1F
100
AcDbEntity
  8
PV0001_1
  6
Continuous
 48
0.5
100
AcDbLine
 10
5.176932523994833
 20
-70.5307080873237
 30
0.0
 11
4.886534879951866
 21
-61.34611917817472
 31
0.0
  0
LINE
  5
AC2F
330
1F
100
AcDbEntity
  8
PV0001_1
  6
Continuous
 48
0.5
100
AcDbLine
 10
1.917739103583768
 20
-64.4176828988777
 30
0.0
 11
1.621737669257823
 21
-69.4338748582588
 31
0.0
  0
LINE
  5
AC30
330
1F
100
AcDbEntity
  8
PV0001_1
  6
Continuous
 48
0.5
100
AcDbLine
 10
2.394644926337788
 20
-69.6023819574104
 30
0.0
 11
1.621741483954861
 21
-69.43388296449049
 31
0.0
  0
LINE
  5
AC31
330
1F
100
AcDbEntity
  8
PV0001_1
  6
Continuous
 48
0.5
100
AcDbLine
 10
4.163237760810785
 20
-70.15560604417188
 30
0.0
 11
2.384940336494833
 21
-69.7669079431282
 31
0.0
  0
LINE
  5
AC32
330
1F
100
AcDbEntity
  8
PV0001_1
  6
Continuous
 48
0.5
100
AcDbLine
 10
5.167235563544819
 20
-70.22369219148021
 30
0.0
 11
4.16323394611386
 21
-70.1555922158943
 31
0.0
  0
LINE
  5
AC33
330
1F
100
AcDbEntity
  8
PV0001_1
  6
Continuous
 48
0.5
100
AcDbLine
 10
4.18374175861386
 20
-70.5086629518257
 30
0.0
 11
4.163241575507822
 21
-70.15557409608232
 31
0.0
  0
LINE
  5
AC34
330
1F
100
AcDbEntity
  8
PV0001_1
  6
Continuous
 48
0.5
100
AcDbLine
 10
2.394633482245877
 20
-69.60236669862131
 30
0.0
 11
2.384932707099848
 21
-69.7668759950386
 31
0.0
  0
LINE
  5
AC35
330
1F
100
AcDbEntity
  8
PV0001_1
  6
Continuous
 48
0.5
100
AcDbLine
 10
3.674037168769769
 20
-70.4973795541511
 30
0.0
 11
3.661238859443824
 21
-70.0925829538093
 31
0.0
  0
LINE
  5
AC36
330
1F
100
AcDbEntity
  8
PV0001_1
  6
Continuous
 48
0.5
100
AcDbLine
 10
3.674037168769769
 20
-70.4973871835457
 30
0.0
 11
5.176940153388795
 21
-70.53068567597731
 31
0.0
  0
LINE
  5
AC37
330
1F
100
AcDbEntity
  8
PV0001_1
  6
Continuous
 48
0.5
100
AcDbLine
 10
3.684836576728867
 20
-70.4975946077095
 30
0.0
 11
3.661238859443824
 21
-70.09259582841258
 31
0.0
  0
LINE
  5
AC38
330
1F
100
AcDbEntity
  8
PV0001_1
  6
Continuous
 48
0.5
100
AcDbLine
 10
6.404341886786782
 20
-59.3789198526137
 30
0.0
 11
14.55123443439476
 21
-58.9954168924087
 31
0.0
  0
LINE
  5
AC39
330
1F
100
AcDbEntity
  8
PV0001_1
  6
Continuous
 48
0.5
100
AcDbLine
 10
9.2169296248248
 20
-54.75900675141772
 30
0.0
 11
14.3948318465038
 21
-54.51520372712571
 31
0.0
  0
LINE
  5
AC3A
330
1F
100
AcDbEntity
  8
PV0001_1
  6
Continuous
 48
0.5
100
AcDbLine
 10
5.738440702704864
 20
-54.16508890473771
 30
0.0
 11
9.865134428290799
 21
-53.7418902047867
 31
0.0
  0
LINE
  5
AC3B
330
1F
100
AcDbEntity
  8
PV0001_1
  6
Continuous
 48
0.5
100
AcDbLine
 10
12.00013656452183
 20
-61.0977165826547
 30
0.0
 11
4.886534879951866
 21
-61.3461144098037
 31
0.0
  0
LINE
  5
AC3C
330
1F
100
AcDbEntity
  8
PV0001_1
  6
Continuous
 48
0.5
100
AcDbLine
 10
6.404322813300794
 20
-59.37890268647572
 30
0.0
 11
4.920722196845829
 21
-60.94460703217871
 31
0.0
  0
LINE
  5
AC3D
330
1F
100
AcDbEntity
  8
PV0001_1
  6
Continuous
 48
0.5
100
AcDbLine
 10
4.920737455634778
 20
-60.94459177338971
 30
0.0
 11
3.998439024238861
 21
-60.98799158418071
 31
0.0
  0
LINE
  5
AC3E
330
1F
100
AcDbEntity
  8
PV0001_1
  6
Continuous
 48
0.5
100
AcDbLine
 10
3.998427580146837
 20
-60.9880173333877
 30
0.0
 11
2.873126219062852
 21
-61.04101492249871
 31
0.0
  0
LINE
  5
AC3F
330
1F
100
AcDbEntity
  8
PV0001_1
  6
Continuous
 48
0.5
100
AcDbLine
 10
2.775736997870878
 20
-58.2534048684827
 30
0.0
 11
2.873137663154877
 21
-61.04100157105872
 31
0.0
  0
LINE
  5
AC40
330
1F
100
AcDbEntity
  8
PV0001_1
  6
Continuous
 48
0.5
100
AcDbLine
 10
4.887030790595829
 20
-61.34478021943471
 30
0.0
 11
4.8839332564158
 21
-61.24447084748672
 31
0.0
  0
LINE
  5
AC41
330
1F
100
AcDbEntity
  8
PV0001_1
  6
Continuous
 48
0.5
100
AcDbLine
 10
4.883944700507825
 20
-61.24449755036771
 30
0.0
 11
3.885138700751851
 21
-61.27609468781869
 31
0.0
  0
LINE
  5
AC42
330
1F
100
AcDbEntity
  8
PV0001_1
  6
Continuous
 48
0.5
100
AcDbLine
 10
3.998442838935786
 20
-60.98799730622671
 30
0.0
 11
3.885142515449799
 21
-61.2760899194467
 31
0.0
  0
LINE
  5
AC43
330
1F
100
AcDbEntity
  8
PV0001_1
  6
Continuous
 48
0.5
100
AcDbLine
 10
4.8839332564158
 20
-61.24450708711069
 30
0.0
 11
5.059634397773791
 21
-60.7980053552377
 31
0.0
  0
LINE
  5
AC44
330
1F
100
AcDbEntity
  8
PV0001_1
  6
Continuous
 48
0.5
100
AcDbLine
 10
5.085444639472782
 20
-60.77078844392171
 30
0.0
 11
5.090941618232888
 21
-60.82688547456172
 31
0.0
  0
LINE
  5
AC45
330
1F
100
AcDbEntity
  8
PV0001_1
  6
Continuous
 48
0.5
100
AcDbLine
 10
1.788645933417866
 20
-60.85588480317472
 30
0.0
 11
1.619136045722781
 21
-60.98559118592671
 31
0.0
  0
LINE
  5
AC46
330
1F
100
AcDbEntity
  8
PV0001_1
  6
Continuous
 48
0.5
100
AcDbLine
 10
2.20923156574288
 20
-60.92769457185171
 30
0.0
 11
1.619132231025857
 21
-60.9855940469497
 31
0.0
  0
LINE
  5
AC47
330
1F
100
AcDbEntity
  8
PV0001_1
  6
Continuous
 48
0.5
100
AcDbLine
 10
4.886546324042867
 20
-61.34608866059672
 30
0.0
 11
4.887046049384778
 21
-61.3447935708757
 31
0.0
  0
LINE
  5
AC48
330
1F
100
AcDbEntity
  8
PV0001_1
  6
Continuous
 48
0.5
100
AcDbLine
 10
4.887030790595829
 20
-61.34480596864171
 30
0.0
 11
5.090930174140864
 21
-60.8269026406997
 31
0.0
  0
LINE
  5
AC49
330
1F
100
AcDbEntity
  8
PV0001_1
  6
Continuous
 48
0.5
100
AcDbLine
 10
5.090914915351802
 20
-60.82688738191071
 30
0.0
 11
5.132624815253804
 21
-60.72097231233072
 31
0.0
  0
LINE
  5
AC4A
330
1F
100
AcDbEntity
  8
PV0001_1
  6
Continuous
 48
0.5
100
AcDbLine
 10
7.768141935615815
 20
-60.4050867685067
 30
0.0
 11
7.730143736152809
 21
-59.31649328553571
 31
0.0
  0
LINE
  5
AC4B
330
1F
100
AcDbEntity
  8
PV0001_1
  6
Continuous
 48
0.5
100
AcDbLine
 10
7.736437986640864
 20
-59.49528910004971
 30
0.0
 11
6.245845030097783
 21
-59.5461886056657
 31
0.0
  0
LINE
  5
AC4C
330
1F
100
AcDbEntity
  8
PV0001_1
  6
Continuous
 48
0.5
100
AcDbLine
 10
5.738425443915802
 20
-54.1651194223157
 30
0.0
 11
9.216921995429814
 21
-54.7590201028577
 31
0.0
  0
LINE
  5
AC4D
330
1F
100
AcDbEntity
  8
PV0001_1
  6
Continuous
 48
0.5
100
AcDbLine
 10
14.39484710529286
 20
-54.5152018197767
 30
0.0
 11
14.5512458784868
 21
-58.9953844674817
 31
0.0
  0
LINE
  5
AC4E
330
1F
100
AcDbEntity
  8
PV0001_1
  6
Continuous
 48
0.5
100
AcDbLine
 10
14.77194518878884
 20
-53.8136885293717
 30
0.0
 11
12.46534652545876
 21
-53.8866865762467
 31
0.0
  0
LINE
  5
AC4F
330
1F
100
AcDbEntity
  8
PV0001_1
  6
Continuous
 48
0.5
100
AcDbLine
 10
14.63283843830078
 20
-54.16689516389271
 30
0.0
 11
12.32623977497082
 21
-54.23989702546471
 31
0.0
  0
LINE
  5
AC50
330
1F
100
AcDbEntity
  8
PV0001_1
  6
Continuous
 48
0.5
100
AcDbLine
 10
12.4653388960648
 20
-53.8866884835947
 30
0.0
 11
12.47743530109387
 21
-54.23507906281869
 31
0.0
  0
LINE
  5
AC51
330
1F
100
AcDbEntity
  8
PV0001_1
  6
Continuous
 48
0.5
100
AcDbLine
 10
12.46533508136787
 20
-53.8867190011727
 30
0.0
 11
11.2424385054398
 21
-54.09972025239372
 31
0.0
  0
LINE
  5
AC52
330
1F
100
AcDbEntity
  8
PV0001_1
  6
Continuous
 48
0.5
100
AcDbLine
 10
11.2424385054398
 20
-54.0996992715587
 30
0.0
 11
12.32623596027379
 21
-54.23990084016271
 31
0.0
  0
LINE
  5
AC53
330
1F
100
AcDbEntity
  8
PV0001_1
  6
Continuous
 48
0.5
100
AcDbLine
 10
14.77191085651379
 20
-53.81368089997671
 30
0.0
 11
14.78331298664086
 21
-54.14069010102671
 31
0.0
  0
LINE
  5
AC54
330
1F
100
AcDbEntity
  8
PV0001_1
  6
Continuous
 48
0.5
100
AcDbLine
 10
14.63282699420877
 20
-54.16688753449871
 30
0.0
 11
15.85573882892578
 21
-53.95388819062571
 31
0.0
  0
LINE
  5
AC55
330
1F
100
AcDbEntity
  8
PV0001_1
  6
Continuous
 48
0.5
100
AcDbLine
 10
15.85573119953182
 20
-53.9539091714607
 30
0.0
 11
14.77192611530286
 21
-53.8137076028577
 31
0.0
  0
LINE
  5
AC56
330
1F
100
AcDbEntity
  8
PV0001_1
  6
Continuous
 48
0.5
100
AcDbLine
 10
19.97312278583486
 20
-55.7691156991707
 30
0.0
 11
20.13182372882882
 21
-60.3147099145637
 31
0.0
  0
LINE
  5
AC57
330
1F
100
AcDbEntity
  8
PV0001_1
  6
Continuous
 48
0.5
100
AcDbLine
 10
21.1461154921338
 20
-56.04318453156871
 30
0.0
 11
21.28771514728585
 21
-60.09898783051871
 31
0.0
  0
LINE
  5
AC58
330
1F
100
AcDbEntity
  8
PV0001_1
  6
Continuous
 48
0.5
100
AcDbLine
 10
19.54545707538586
 20
-53.81740976655371
 30
0.0
 11
19.77405471637684
 21
-60.36419321381971
 31
0.0
  0
LINE
  5
AC59
330
1F
100
AcDbEntity
  8
PV0001_1
  6
Continuous
 48
0.5
100
AcDbLine
 10
21.25813407733888
 20
-59.25169588410771
 30
0.0
 11
24.19629211261788
 21
-59.25169588410771
 31
0.0
  0
LINE
  5
AC5A
330
1F
100
AcDbEntity
  8
PV0001_1
  6
Continuous
 48
0.5
100
AcDbLine
 10
25.0001384718708
 20
-62.2516958841077
 30
0.0
 11
24.19629211261788
 21
-59.2516949304337
 31
0.0
  0
LINE
  5
AC5B
330
1F
100
AcDbEntity
  8
PV0001_1
  6
Continuous
 48
0.5
100
AcDbLine
 10
19.97313041522984
 20
-55.7691042550797
 30
0.0
 11
19.61083526447277
 21
-55.69080377900471
 31
0.0
  0
ARC
  5
AC5C
330
1F
100
AcDbEntity
  8
PV0001_1
  6
Continuous
 48
0.5
100
AcDbCircle
 10
12.84493560626977
 20
15.85595105803128
 30
0.0
 40
5.999985218048099
100
AcDbArc
 50
288.1299696661313
 51
348.2411437635851
  0
ARC
  5
AC5D
330
1F
100
AcDbEntity
  8
PV0001_1
  6
Continuous
 48
0.5
100
AcDbCircle
 10
17.86280364826184
 20
12.90547345793329
 30
0.0
 40
1.9984176158905
100
AcDbArc
 50
234.4774608676571
 51
323.0189140409251
  0
ARC
  5
AC5E
330
1F
100
AcDbEntity
  8
PV0001_1
  6
Continuous
 48
0.5
100
AcDbCircle
 10
17.83030242755883
 20
12.74937604582428
 30
0.0
 40
1.9984176158905
100
AcDbArc
 50
231.6151471525623
 51
323.0189140409251
  0
LINE
  5
AC5F
330
1F
100
AcDbEntity
  8
PV0001_1
  6
Continuous
 48
0.5
100
AcDbLine
 10
4.886515806464864
 20
4.200364815355285
 30
0.0
 11
24.25043220355981
 21
4.200364815355284
 31
0.0
  0
LINE
  5
AC64
330
1F
100
AcDbEntity
  8
PV0001_1
  6
Continuous
 48
0.5
100
AcDbLine
 10
0.5588714583207889
 20
11.68128369963228
 30
0.0
 11
1.946887205390873
 21
13.2071931234603
 31
0.0
  0
LINE
  5
AC65
330
1F
100
AcDbEntity
  8
PV0001_1
  6
Continuous
 48
0.5
100
AcDbLine
 10
2.270648191718885
 20
17.5432603231673
 30
0.0
 11
0.8193504317087791
 21
17.9334657064683
 31
0.0
  0
LINE
  5
AC66
330
1F
100
AcDbEntity
  8
PV0001_1
  6
Continuous
 48
0.5
100
AcDbLine
 10
1.050043479210187
 20
-0.0018010870973051
 30
0.0
 11
0.1995872015111135
 21
-0.000046911769538
 31
0.0
  0
LINE
  5
AC67
330
1F
100
AcDbEntity
  8
PV0001_1
  6
Continuous
 48
0.5
100
AcDbLine
 10
1.165410649919267
 20
2.1204160703837
 30
0.0
 11
0.0852462752148641
 21
2.161164986253298
 31
0.0
  0
LINE
  5
AC68
330
1F
100
AcDbEntity
  8
PV0001_1
  6
Continuous
 48
0.5
100
AcDbLine
 10
0.6004478438188363
 20
17.57617353117528
 30
0.0
 11
0.1341278059768104
 21
4.223672615648299
 31
0.0
  0
LINE
  5
AC69
330
1F
100
AcDbEntity
  8
PV0001_1
  6
Continuous
 48
0.5
100
AcDbLine
 10
0.0001890941120796
 20
0.2086538841928159
 30
0.0
 11
0.0852157576368528
 21
2.161164986253298
 31
0.0
  0
LINE
  5
AC6A
330
1F
100
AcDbEntity
  8
PV0001_1
  6
Continuous
 48
0.5
100
AcDbLine
 10
0.5053169234087932
 20
11.42419599211329
 30
0.0
 11
0.5588905318068896
 21
11.6813142172103
 31
0.0
  0
LINE
  5
AC6B
330
1F
100
AcDbEntity
  8
PV0001_1
  6
Continuous
 48
0.5
100
AcDbLine
 10
4.887023161201874
 20
4.214967476488298
 30
0.0
 11
4.990336607245886
 21
7.172487007738299
 31
0.0
  0
LINE
  5
AC6C
330
1F
100
AcDbEntity
  8
PV0001_1
  6
Continuous
 48
0.5
100
AcDbLine
 10
3.978606413154886
 20
6.929826485277287
 30
0.0
 11
3.885157774238869
 21
4.252671944261295
 31
0.0
  0
LINE
  5
AC6D
330
1F
100
AcDbEntity
  8
PV0001_1
  6
Continuous
 48
0.5
100
AcDbLine
 10
4.883921812324808
 20
4.214967476488298
 30
0.0
 11
4.987128446845837
 21
7.171663033128298
 31
0.0
  0
LINE
  5
AC6E
330
1F
100
AcDbEntity
  8
PV0001_1
  6
Continuous
 48
0.5
100
AcDbLine
 10
1.250018206686357
 20
0.206955321911829
 30
0.0
 11
1.167391958564815
 21
2.092271553636295
 31
0.0
  0
LINE
  5
AC6F
330
1F
100
AcDbEntity
  8
PV0001_1
  6
Continuous
 48
0.5
100
AcDbLine
 10
4.886534879951874
 20
4.199968086839291
 30
0.0
 11
4.887038419990823
 21
4.214967476488298
 31
0.0
  0
LINE
  5
AC70
330
1F
100
AcDbEntity
  8
PV0001_1
  6
Continuous
 48
0.5
100
AcDbLine
 10
4.695742796210844
 20
4.199960457445286
 30
0.0
 11
4.886538694648799
 21
4.199960457445286
 31
0.0
  0
LINE
  5
AC71
330
1F
100
AcDbEntity
  8
PV0001_1
  6
Continuous
 48
0.5
100
AcDbLine
 10
4.883940885810795
 20
4.214975105882289
 30
0.0
 11
3.885138700751859
 21
4.252679573656294
 31
0.0
  0
LINE
  5
AC72
330
1F
100
AcDbEntity
  8
PV0001_1
  6
Continuous
 48
0.5
100
AcDbLine
 10
1.644644926337796
 20
4.008561836839292
 30
0.0
 11
1.111338804511852
 21
3.991761910082289
 31
0.0
  0
LINE
  5
AC73
330
1F
100
AcDbEntity
  8
PV0001_1
  6
Continuous
 48
0.5
100
AcDbLine
 10
1.892527769355829
 20
4.025872933031295
 30
0.0
 11
1.644625852851809
 21
4.008569466234292
 31
0.0
  0
LINE
  5
AC74
330
1F
100
AcDbEntity
  8
PV0001_1
  6
Continuous
 48
0.5
100
AcDbLine
 10
4.163241575507832
 20
4.182862984300285
 30
0.0
 11
1.893259211147966
 21
4.11056670525442
 31
0.0
  0
LINE
  5
AC75
330
1F
100
AcDbEntity
  8
PV0001_1
  6
Continuous
 48
0.5
100
AcDbLine
 10
4.886729429511852
 20
4.206056343675285
 30
0.0
 11
4.163241575507832
 21
4.182855354906294
 31
0.0
  0
LINE
  5
AC76
330
1F
100
AcDbEntity
  8
PV0001_1
  6
Continuous
 48
0.5
100
AcDbLine
 10
4.88704223468786
 20
4.214959847093297
 30
0.0
 11
4.883929441718883
 21
4.214959847093297
 31
0.0
  0
LINE
  5
AC77
330
1F
100
AcDbEntity
  8
PV0001_1
  6
Continuous
 48
0.5
100
AcDbLine
 10
4.885970304755881
 20
16.01329206144929
 30
0.0
 11
9.731475065497841
 21
8.5649506918203
 31
0.0
  0
LINE
  5
AC78
330
1F
100
AcDbEntity
  8
PV0001_1
  6
Continuous
 48
0.5
100
AcDbLine
 10
1.946894834785859
 20
13.20721601164429
 30
0.0
 11
2.959262083320789
 21
14.21390699064831
 31
0.0
  0
LINE
  5
AC79
330
1F
100
AcDbEntity
  8
PV0001_1
  6
Continuous
 48
0.5
100
AcDbLine
 10
2.419535825995888
 20
17.08706067717129
 30
0.0
 11
1.904032896308841
 21
13.1645982137923
 31
0.0
  0
LINE
  5
AC7A
330
1F
100
AcDbEntity
  8
PV0001_1
  6
Continuous
 48
0.5
100
AcDbLine
 10
3.244425962714864
 20
17.46885846769929
 30
0.0
 11
2.798754881171895
 21
14.0374390951403
 31
0.0
  0
LINE
  5
AC7B
330
1F
100
AcDbEntity
  8
PV0001_1
  6
Continuous
 48
0.5
100
AcDbLine
 10
9.731494138984851
 20
8.5649506918203
 30
0.0
 11
14.70576400592787
 21
10.1727464071523
 31
0.0
  0
ARC
  5
AC7C
330
1F
100
AcDbEntity
  8
PV0001_1
  6
Continuous
 48
0.5
100
AcDbCircle
 10
13.70876617267579
 20
14.3596589437733
 30
0.0
 40
0.2634508907795
100
AcDbArc
 50
69.99999967119588
 51
169.9999933470338
  0
ARC
  5
AC7D
330
1F
100
AcDbEntity
  8
PV0001_1
  6
Continuous
 48
0.5
100
AcDbCircle
 10
13.70882720783182
 20
17.35222028410527
 30
0.0
 40
0.2634508907795
100
AcDbArc
 50
190.0000066529661
 51
290.0000003288038
  0
ARC
  5
AC7E
330
1F
100
AcDbEntity
  8
PV0001_1
  6
Continuous
 48
0.5
100
AcDbCircle
 10
11.98098296955079
 20
14.35968183195729
 30
0.0
 40
0.2634508907795
100
AcDbArc
 50
9.999999709089788
 51
109.9999985075664
  0
ARC
  5
AC7F
330
1F
100
AcDbEntity
  8
PV0001_1
  6
Continuous
 48
0.5
100
AcDbCircle
 10
12.84487457111386
 20
14.01182721769928
 30
0.0
 40
0.5269017815590002
100
AcDbArc
 50
190.0000066529661
 51
350.0000002909101
  0
ARC
  5
AC80
330
1F
100
AcDbEntity
  8
PV0001_1
  6
Continuous
 48
0.5
100
AcDbCircle
 10
11.11715240314477
 20
15.85597394621428
 30
0.0
 40
0.2634508907795
100
AcDbArc
 50
309.9999997469852
 51
50.00000025301471
  0
ARC
  5
AC81
330
1F
100
AcDbEntity
  8
PV0001_1
  6
Continuous
 48
0.5
100
AcDbCircle
 10
11.24782867267579
 20
14.93390058195729
 30
0.0
 40
0.5269017815590002
100
AcDbArc
 50
130.0000013408505
 51
289.9999966863357
  0
ARC
  5
AC82
330
1F
100
AcDbEntity
  8
PV0001_1
  6
Continuous
 48
0.5
100
AcDbCircle
 10
11.98104400470682
 20
17.35224317228929
 30
0.0
 40
0.2634508907795
100
AcDbArc
 50
250.0000014924336
 51
350.0000002909101
  0
ARC
  5
AC83
330
1F
100
AcDbEntity
  8
PV0001_1
  6
Continuous
 48
0.5
100
AcDbCircle
 10
11.24782867267579
 20
16.77802442228929
 30
0.0
 40
0.5269017815590002
100
AcDbArc
 50
69.99999967119588
 51
230.0000086770655
  0
ARC
  5
AC84
330
1F
100
AcDbEntity
  8
PV0001_1
  6
Continuous
 48
0.5
100
AcDbCircle
 10
11.24782867267579
 20
16.77803205168329
 30
0.0
 40
0.5269017815590002
100
AcDbArc
 50
90.00037133469035
 51
209.999958032458
  0
ARC
  5
AC85
330
1F
100
AcDbEntity
  8
PV0001_1
  6
Continuous
 48
0.5
100
AcDbCircle
 10
11.24782867267579
 20
14.93390821135128
 30
0.0
 40
0.5269017815590002
100
AcDbArc
 50
150.0003661741583
 51
269.9999733624863
  0
LINE
  5
AC86
330
1F
100
AcDbEntity
  8
PV0001_1
  6
Continuous
 48
0.5
100
AcDbLine
 10
12.3260719282908
 20
13.92033551848028
 30
0.0
 11
12.2405349715038
 21
14.4054353109603
 31
0.0
  0
LINE
  5
AC87
330
1F
100
AcDbEntity
  8
PV0001_1
  6
Continuous
 48
0.5
100
AcDbLine
 10
11.28641433551782
 20
16.05774091398829
 30
0.0
 11
10.90909499957986
 21
16.3743531576403
 31
0.0
  0
LINE
  5
AC88
330
1F
100
AcDbEntity
  8
PV0001_1
  6
Continuous
 48
0.5
100
AcDbLine
 10
11.89083404376977
 20
14.6072556844963
 30
0.0
 11
11.42798538043981
 21
14.43879102385129
 31
0.0
  0
LINE
  5
AC89
330
1F
100
AcDbEntity
  8
PV0001_1
  6
Continuous
 48
0.5
100
AcDbLine
 10
11.42805023029287
 20
17.2731416097893
 30
0.0
 11
11.89089889362283
 21
17.10467694914429
 31
0.0
  0
LINE
  5
AC8A
330
1F
100
AcDbEntity
  8
PV0001_1
  6
Continuous
 48
0.5
100
AcDbLine
 10
12.24056548908182
 20
17.30650495207429
 30
0.0
 11
12.32609481647485
 21
17.79157422697629
 31
0.0
  0
LINE
  5
AC8B
330
1F
100
AcDbEntity
  8
PV0001_1
  6
Continuous
 48
0.5
100
AcDbLine
 10
13.44942779376977
 20
14.4053742758043
 30
0.0
 11
13.36389846637686
 21
13.9203050009023
 31
0.0
  0
LINE
  5
AC8C
330
1F
100
AcDbEntity
  8
PV0001_1
  6
Continuous
 48
0.5
100
AcDbLine
 10
10.90914459064477
 20
15.33756421721029
 30
0.0
 11
11.28646011188478
 21
15.65416883146831
 31
0.0
  0
LINE
  5
AC8D
330
1F
100
AcDbEntity
  8
PV0001_1
  6
Continuous
 48
0.5
100
AcDbLine
 10
13.36388320758779
 20
17.79157422697629
 30
0.0
 11
13.44941634967786
 21
17.3064820638903
 31
0.0
  0
ARC
  5
AC8E
330
1F
100
AcDbEntity
  8
PV0001_1
  6
Continuous
 48
0.5
100
AcDbCircle
 10
14.57265777423886
 20
15.85592816984729
 30
0.0
 40
0.2634508907795
100
AcDbArc
 50
130.0000013408505
 51
230.0000086770655
  0
ARC
  5
AC8F
330
1F
100
AcDbEntity
  8
PV0001_1
  6
Continuous
 48
0.5
100
AcDbCircle
 10
14.44198150470682
 20
16.77800153410528
 30
0.0
 40
0.5269017815590002
100
AcDbArc
 50
309.9999997469852
 51
89.99996152334015
  0
ARC
  5
AC90
330
1F
100
AcDbEntity
  8
PV0001_1
  6
Continuous
 48
0.5
100
AcDbCircle
 10
14.44198150470682
 20
14.9338776937733
 30
0.0
 40
0.5269017815590002
100
AcDbArc
 50
250.0000014924336
 51
50.00000025301471
  0
ARC
  5
AC91
330
1F
100
AcDbEntity
  8
PV0001_1
  6
Continuous
 48
0.5
100
AcDbCircle
 10
14.44198150470682
 20
16.77799390471029
 30
0.0
 40
0.5269017815590002
100
AcDbArc
 50
330.0003645802937
 51
109.9999985075664
  0
ARC
  5
AC92
330
1F
100
AcDbEntity
  8
PV0001_1
  6
Continuous
 48
0.5
100
AcDbCircle
 10
14.44198150470682
 20
14.93387006437829
 30
0.0
 40
0.5269017815590002
100
AcDbArc
 50
270.0003663257334
 51
29.99995643859701
  0
LINE
  5
AC93
330
1F
100
AcDbEntity
  8
PV0001_1
  6
Continuous
 48
0.5
100
AcDbLine
 10
14.40331191852586
 20
15.6540772787343
 30
0.0
 11
14.78062743976587
 21
15.3374650350823
 31
0.0
  0
LINE
  5
AC94
330
1F
100
AcDbEntity
  8
PV0001_1
  6
Continuous
 48
0.5
100
AcDbLine
 10
14.78067321613282
 20
16.37440656340229
 30
0.0
 11
14.40333099201184
 21
16.05777906096029
 31
0.0
  0
LINE
  5
AC95
330
1F
100
AcDbEntity
  8
PV0001_1
  6
Continuous
 48
0.5
100
AcDbLine
 10
13.79894943073289
 20
17.10469220793329
 30
0.0
 11
14.26179809406285
 21
17.27315686857831
 31
0.0
  0
LINE
  5
AC96
330
1F
100
AcDbEntity
  8
PV0001_1
  6
Continuous
 48
0.5
100
AcDbLine
 10
14.26172180011788
 20
14.4387452474843
 30
0.0
 11
13.79887313678678
 21
14.60720990812829
 31
0.0
  0
LINE
  5
AC97
330
1F
100
AcDbEntity
  8
PV0001_1
  6
Continuous
 48
0.5
100
AcDbLine
 10
24.25043220355981
 20
4.200364815355284
 30
0.0
 11
25.00014037921888
 21
6.998307930589289
 31
0.0
  0
ARC
  5
AC98
330
1F
100
AcDbEntity
  8
PV0001_1
  6
Continuous
 48
0.5
100
AcDbCircle
 10
12.96144409015683
 20
16.4160020223863
 30
0.0
 40
8.100014686584499
100
AcDbArc
 50
323.0178212106538
 51
348.2410139899914
  0
ARC
  5
AC99
330
1F
100
AcDbEntity
  8
PV0001_1
  6
Continuous
 48
0.5
100
AcDbCircle
 10
12.99392242267579
 20
16.57211469328528
 30
0.0
 40
8.100029945373499
100
AcDbArc
 50
323.0178212106538
 51
347.7405591993139
  0
LINE
  5
AC9A
330
1F
100
AcDbEntity
  8
PV0001_1
  6
Continuous
 48
0.5
100
AcDbLine
 10
19.4592048628618
 20
11.70333264982831
 30
0.0
 11
19.42672271564477
 21
11.5472199789293
 31
0.0
  0
ARC
  5
AC9B
330
1F
100
AcDbEntity
  8
PV0001_1
  6
Continuous
 48
0.5
100
AcDbCircle
 10
12.9786483748248
 20
16.49864362394928
 30
0.0
 40
5.9960107803345
100
AcDbArc
 50
348.2411437635851
 51
10.94222686641907
  0
ARC
  5
AC9C
330
1F
100
AcDbEntity
  8
PV0001_1
  6
Continuous
 48
0.5
100
AcDbCircle
 10
13.03792877033182
 20
16.78326581633229
 30
0.0
 40
6.100021839141799
100
AcDbArc
 50
337.7860989227394
 51
347.2270314265647
  0
ARC
  5
AC9D
330
1F
100
AcDbEntity
  8
PV0001_1
  6
Continuous
 48
0.5
100
AcDbCircle
 10
12.99392242267579
 20
16.57211469328528
 30
0.0
 40
6.0960984230042
100
AcDbArc
 50
348.240973008858
 51
10.80267927148196
  0
ARC
  5
AC9E
330
1F
100
AcDbEntity
  8
PV0001_1
  6
Continuous
 48
0.5
100
AcDbCircle
 10
12.99392242267579
 20
16.57211469328528
 30
0.0
 40
6.100019454956099
100
AcDbArc
 50
337.0446955487117
 51
348.240973008858
  0
LINE
  5
AC9F
330
1F
100
AcDbEntity
  8
PV0001_1
  6
Continuous
 48
0.5
100
AcDbLine
 10
19.03412551715878
 20
17.74957441008229
 30
0.0
 11
18.68909759357481
 21
17.51854871428129
 31
0.0
  0
LINE
  5
ACA0
330
1F
100
AcDbEntity
  8
PV0001_1
  6
Continuous
 48
0.5
100
AcDbLine
 10
18.8527099592969
 20
15.27589582121429
 30
0.0
 11
18.71897811725587
 21
14.63321088469131
 31
0.0
  0
LINE
  5
ACA1
330
1F
100
AcDbEntity
  8
PV0001_1
  6
Continuous
 48
0.5
100
AcDbLine
 10
-54.2498672501712
 20
31.9983079305893
 30
0.0
 11
-54.24986725017121
 21
22.3643281332263
 31
0.0
  0
LINE
  5
ACA2
330
1F
100
AcDbEntity
  8
PV0001_1
  6
Continuous
 48
0.5
100
AcDbLine
 10
-54.74723510906112
 20
23.99831555998431
 30
0.0
 11
-55.08437805339114
 21
20.1975800863513
 31
0.0
  0
LINE
  5
ACA3
330
1F
100
AcDbEntity
  8
PV0001_1
  6
Continuous
 48
0.5
100
AcDbLine
 10
-54.48189239665115
 20
22.38462995207429
 30
0.0
 11
-48.36159210369116
 21
21.84923719084332
 31
0.0
  0
LINE
  5
ACA4
330
1F
100
AcDbEntity
  8
PV0001_1
  6
Continuous
 48
0.5
100
AcDbLine
 10
-55.20364074871114
 20
20.0277726522693
 30
0.0
 11
-55.08433990642121
 21
20.19757245695731
 31
0.0
  0
LINE
  5
ACA5
330
1F
100
AcDbEntity
  8
PV0001_1
  6
Continuous
 48
0.5
100
AcDbLine
 10
-55.20369415447116
 20
20.02778028166431
 30
0.0
 11
-55.32729797527115
 21
19.85157178557031
 31
0.0
  0
LINE
  5
ACA6
330
1F
100
AcDbEntity
  8
PV0001_1
  6
Continuous
 48
0.5
100
AcDbLine
 10
-55.00807647869116
 20
20.1066834799063
 30
0.0
 11
-55.32726745769119
 21
19.8515870443593
 31
0.0
  0
LINE
  5
ACA7
330
1F
100
AcDbEntity
  8
PV0001_1
  6
Continuous
 48
0.5
100
AcDbLine
 10
-55.08435516521118
 20
20.19757245695731
 30
0.0
 11
-55.0080612199012
 21
20.10667585051131
 31
0.0
  0
LINE
  5
ACA8
330
1F
100
AcDbEntity
  8
PV0001_1
  6
Continuous
 48
0.5
100
AcDbLine
 10
-54.96564941570118
 20
20.3321397176993
 30
0.0
 11
-54.91094665691119
 21
20.35753797209332
 31
0.0
  0
LINE
  5
ACA9
330
1F
100
AcDbEntity
  8
PV0001_1
  6
Continuous
 48
0.5
100
AcDbLine
 10
-54.95834808513112
 20
20.4140565267813
 30
0.0
 11
-54.91094665691119
 21
20.35756086027731
 31
0.0
  0
LINE
  5
ACAA
330
1F
100
AcDbEntity
  8
PV0001_1
  6
Continuous
 48
0.5
100
AcDbLine
 10
-54.95837860271119
 20
20.4140565267813
 30
0.0
 11
-54.98207550212114
 21
20.14705823576531
 31
0.0
  0
LINE
  5
ACAB
330
1F
100
AcDbEntity
  8
PV0001_1
  6
Continuous
 48
0.5
100
AcDbLine
 10
-54.98206787273116
 20
20.14708112394929
 30
0.0
 11
-55.00806884929116
 21
20.10667585051131
 31
0.0
  0
LINE
  5
ACAC
330
1F
100
AcDbEntity
  8
PV0001_1
  6
Continuous
 48
0.5
100
AcDbLine
 10
-54.74723510906112
 20
23.9983079305893
 30
0.0
 11
-54.24986725017121
 21
28.0609300008993
 31
0.0
  0
ARC
  5
ACAD
330
1F
100
AcDbEntity
  8
PV0001_1
  6
Continuous
 48
0.5
100
AcDbCircle
 10
18.09533996417982
 20
19.79523633635128
 30
0.0
 40
1.895782828330999
100
AcDbArc
 50
348.2428239901196
 51
123.0446148033484
  0
ARC
  5
ACAE
330
1F
100
AcDbEntity
  8
PV0001_1
  6
Continuous
 48
0.5
100
AcDbCircle
 10
18.07812042072279
 20
19.71267865812828
 30
0.0
 40
1.9954708814621
100
AcDbArc
 50
32.79257148830847
 51
123.0470326903159
  0
LINE
  5
ACAF
330
1F
100
AcDbEntity
  8
PV0001_1
  6
Continuous
 48
0.5
100
AcDbLine
 10
5.083281706122842
 20
28.06093000089929
 30
0.0
 11
24.19629211261789
 21
20.43213056242528
 31
0.0
  0
LINE
  5
ACB0
330
1F
100
AcDbEntity
  8
PV0001_1
  6
Continuous
 48
0.5
100
AcDbLine
 10
1.020659635810796
 20
23.99830793058929
 30
0.0
 11
9.020659635810797
 21
31.99830793058929
 31
0.0
  0
LINE
  5
ACB1
330
1F
100
AcDbEntity
  8
PV0001_1
  6
Continuous
 48
0.5
100
AcDbLine
 10
3.298754881171896
 20
20.10666822111728
 30
0.0
 11
0.8793479903028705
 21
19.8515717855703
 31
0.0
  0
LINE
  5
ACB2
330
1F
100
AcDbEntity
  8
PV0001_1
  6
Continuous
 48
0.5
100
AcDbLine
 10
0.8880340559768123
 20
20.1975877157463
 30
0.0
 11
3.298735807685797
 21
20.10668347990629
 31
0.0
  0
LINE
  5
ACB3
330
1F
100
AcDbEntity
  8
PV0001_1
  6
Continuous
 48
0.5
100
AcDbLine
 10
2.486315916328828
 20
19.2009522787343
 30
0.0
 11
0.8909141524117906
 21
19.29865430510129
 31
0.0
  0
LINE
  5
ACB4
330
1F
100
AcDbEntity
  8
PV0001_1
  6
Continuous
 48
0.5
100
AcDbLine
 10
1.020659635810796
 20
23.99830793058929
 30
0.0
 11
0.8880302412798876
 21
20.1975724569573
 31
0.0
  0
LINE
  5
ACB5
330
1F
100
AcDbEntity
  8
PV0001_1
  6
Continuous
 48
0.5
100
AcDbLine
 10
0.8820144636918833
 20
20.0277650228743
 30
0.0
 11
0.8793212874218973
 21
19.85156415617528
 31
0.0
  0
LINE
  5
ACB6
330
1F
100
AcDbEntity
  8
PV0001_1
  6
Continuous
 48
0.5
100
AcDbLine
 10
0.8820220930858461
 20
20.02777265226929
 30
0.0
 11
0.8880264265818263
 21
20.1975724569573
 31
0.0
  0
LINE
  5
ACB7
330
1F
100
AcDbEntity
  8
PV0001_1
  6
Continuous
 48
0.5
100
AcDbLine
 10
0.8960334761428278
 20
19.29837201750329
 30
0.0
 11
0.879340360908794
 21
19.8515717855703
 31
0.0
  0
ARC
  5
ACB8
330
1F
100
AcDbEntity
  8
PV0001_1
  6
Continuous
 48
0.5
100
AcDbCircle
 10
12.9786483748248
 20
16.49864362394928
 30
0.0
 40
5.997186660766598
100
AcDbArc
 50
51.27868679771594
 51
149.3384935228244
  0
ARC
  5
ACB9
330
1F
100
AcDbEntity
  8
PV0001_1
  6
Continuous
 48
0.5
100
AcDbCircle
 10
12.96144409015683
 20
16.4160020223863
 30
0.0
 40
6.097828865051299
100
AcDbArc
 50
51.95855699751181
 51
151.6964797299863
  0
LINE
  5
ACBA
330
1F
100
AcDbEntity
  8
PV0001_1
  6
Continuous
 48
0.5
100
AcDbLine
 10
3.943228910712798
 20
20.14706586516028
 30
0.0
 11
3.298724363593885
 21
20.1066605917223
 31
0.0
  0
LINE
  5
ACBB
330
1F
100
AcDbEntity
  8
PV0001_1
  6
Continuous
 48
0.5
100
AcDbLine
 10
3.952552030829872
 20
20.4140717855703
 30
0.0
 11
3.943251798896847
 21
20.14706586516028
 31
0.0
  0
LINE
  5
ACBC
330
1F
100
AcDbEntity
  8
PV0001_1
  6
Continuous
 48
0.5
100
AcDbLine
 10
3.952555845527821
 20
20.41405652678129
 30
0.0
 11
5.450759123115824
 21
20.35755323088229
 31
0.0
  0
LINE
  5
ACBD
330
1F
100
AcDbEntity
  8
PV0001_1
  6
Continuous
 48
0.5
100
AcDbLine
 10
8.39599532916983
 20
19.8717210165273
 30
0.0
 11
8.482051084785858
 21
20.28494428312829
 31
0.0
  0
LINE
  5
ACBE
330
1F
100
AcDbEntity
  8
PV0001_1
  6
Continuous
 48
0.5
100
AcDbLine
 10
16.70715637042982
 20
21.2031724325423
 30
0.0
 11
16.98992461994188
 21
21.3853394857653
 31
0.0
  0
LINE
  5
ACBF
330
1F
100
AcDbEntity
  8
PV0001_1
  6
Continuous
 48
0.5
100
AcDbLine
 10
16.71871490314478
 20
21.16347669279629
 30
0.0
 11
16.62147826984389
 21
20.69679425871429
 31
0.0
  0
LINE
  5
ACC0
330
1F
100
AcDbEntity
  8
PV0001_1
  6
Continuous
 48
0.5
100
AcDbLine
 10
16.96651382282286
 20
20.92772077238631
 30
0.0
 11
17.06156081989282
 21
21.3843629232653
 31
0.0
  0
LINE
  5
ACC1
330
1F
100
AcDbEntity
  8
PV0001_1
  6
Continuous
 48
0.5
100
AcDbLine
 10
16.62148589923886
 20
20.69680188810929
 30
0.0
 11
16.96652145221682
 21
20.92772840178129
 31
0.0
  0
LINE
  5
ACC2
330
1F
100
AcDbEntity
  8
PV0001_1
  6
Continuous
 48
0.5
100
AcDbLine
 10
17.06157226398484
 20
21.3843781820543
 30
0.0
 11
16.71872253253886
 21
21.16348432219131
 31
0.0
  0
LINE
  5
ACC3
330
1F
100
AcDbEntity
  8
PV0001_1
  6
Continuous
 48
0.5
100
AcDbLine
 10
24.19629211261789
 20
31.99830793058929
 30
0.0
 11
24.19629211261789
 21
20.43213056242528
 31
0.0
  0
ARC
  5
ACC4
330
1F
100
AcDbEntity
  8
PV0001_1
  6
Continuous
 48
0.5
100
AcDbCircle
 10
18.11061401203183
 20
19.86869977629228
 30
0.0
 40
1.998677372932399
100
AcDbArc
 50
348.2411437635851
 51
10.95465098052019
  0
ARC
  5
ACC5
330
1F
100
AcDbEntity
  8
PV0001_1
  6
Continuous
 48
0.5
100
AcDbCircle
 10
18.11061401203183
 20
19.86869977629228
 30
0.0
 40
1.999994993209798
100
AcDbArc
 50
329.7496693170002
 51
348.2411437635851
  0
ARC
  5
ACC6
330
1F
100
AcDbEntity
  8
PV0001_1
  6
Continuous
 48
0.5
100
AcDbCircle
 10
18.1546051008988
 20
20.07994245207428
 30
0.0
 40
1.999978184699999
100
AcDbArc
 50
330.1199338719036
 51
345.1430186211622
  0
LINE
  5
ACC7
330
1F
100
AcDbEntity
  8
PV0001_1
  6
Continuous
 48
0.5
100
AcDbLine
 10
19.95553893878885
 20
19.40808271086329
 30
0.0
 11
19.86731262042981
 21
18.98472760832428
 31
0.0
  0
LINE
  5
ACC8
330
1F
100
AcDbEntity
  8
PV0001_1
  6
Continuous
 48
0.5
100
AcDbLine
 10
150.0002014143739
 20
-62.25169588410775
 30
0.0
 11
150.0002014143739
 21
-87.25169588410672
 31
0.0
  0
LINE
  5
ACCA
330
1F
100
AcDbEntity
  8
PV0001_1
  6
Continuous
 48
0.5
100
AcDbLine
 10
150.0002014143739
 20
31.99830793058924
 30
0.0
 11
150.0002014143739
 21
6.998307930589261
 31
0.0
  0
LINE
  5
AE6A
330
1F
100
AcDbEntity
  8
AM_0
100
AcDbLine
 10
-53.69492128869402
 20
19.32909308824843
 30
0.0
 11
-54.91312808436344
 21
19.53616314812231
 31
0.0
  0
ARC
  5
AE6B
330
1F
100
AcDbEntity
  8
AM_0
  6
Continuous
 48
0.5
100
AcDbCircle
 10
-53.76743239182818
 20
18.83835728934245
 30
0.0
 40
0.5000000000000026
100
AcDbArc
 50
351.5852029900211
 51
81.58501979872932
  0
LINE
  5
AE6C
330
1F
100
AcDbEntity
  8
AM_1
100
AcDbLine
 10
150.0002014143739
 20
-62.25169588410773
 30
0.0
 11
150.0002014143739
 21
7.168307930589261
 31
0.0
  0
DIMENSION
  5
AE6D
330
1F
100
AcDbEntity
  8
PV0001_1
100
AcDbDimension
  2
*D8
 10
150.0002014143739
 20
-22.89276537263273
 30
0.0
 11
87.50020141437387
 21
-22.89276537263273
 31
0.0
 70
   160
  1
<>
 71
     5
 42
150.0002014143739
  3
AM_JIS$0
100
AcDbAlignedDimension
 13
0.0
 23
0.2002835240634618
 33
0.0
 14
150.0002014143739
 24
7.168307930589261
 34
0.0
100
AcDbRotatedDimension
1001
ACAD
1000
DSTYLE
1002
{
1070
   284
1070
     8
1070
   271
1070
     0
1070
    45
1040
0.1
1070
   173
1070
     1
1070
     6
1000
OPEN30
1070
     7
1000
OPEN30
1002
}
  0
DIMENSION
  5
AE6E
330
1F
100
AcDbEntity
  8
AM_5
100
AcDbDimension
  2
*D6
 10
170.3170453667797
 20
-62.25169588410773
 30
0.0
 11
166.9166713510316
 21
-74.75169588410721
 31
0.0
 70
    32
 71
     5
 42
24.999999999999
  3
AM_JIS$0
100
AcDbAlignedDimension
 13
150.0002014143739
 23
-87.25169588410672
 33
0.0
 14
150.0002014143739
 24
-62.25169588410773
 34
0.0
 50
89.99999999999998
100
AcDbRotatedDimension
  0
DIMENSION
  5
AE6F
330
1F
100
AcDbEntity
  8
AM_5
100
AcDbDimension
  2
*D7
 10
167.0994465978159
 20
31.99830793058924
 30
0.0
 11
163.6990725820678
 21
19.49830793058927
 31
0.0
 70
    32
 71
     5
 42
24.99999999999998
  3
AM_JIS$0
100
AcDbAlignedDimension
 13
150.0002014143739
 23
6.998307930589261
 33
0.0
 14
150.0002014143739
 24
31.99830793058924
 34
0.0
 50
89.99999999999998
100
AcDbRotatedDimension
  0
DIMENSION
  5
AEC2
330
1F
100
AcDbEntity
  8
AM_5
100
AcDbDimension
  2
*D9
 10
-57.32819956938417
 20
32.13567769491445
 30
0.0
 11
-51.11921830700808
 21
42.81428682879602
 31
0.0
 70
   162
 71
     5
 42
0.0882993911843906
  3
AM_JIS$2
100
AcDb2LineAngularDimension
 13
-55.63780802885421
 23
17.79136977271679
 33
0.0
 14
-56.82230967680423
 24
4.439364767833787
 34
0.0
 15
-57.33402078625424
 25
0.2152360495067817
 35
0.0
 16
-56.01419010031976
 26
43.23008318845896
 36
0.0
1001
ACAD
1000
DSTYLE
1002
{
1070
   271
1070
     0
1002
}
  0
DIMENSION
  5
AEC3
330
1F
100
AcDbEntity
  8
AM_5
100
AcDbDimension
  2
*D10
 10
-57.73718852202418
 20
2.376368857189784
 30
0.0
 11
-56.81622581127439
 21
-14.50178024816038
 31
0.0
 70
   162
 71
     5
 42
0.1823294614923219
  3
AM_JIS$2
100
AcDb2LineAngularDimension
 13
-57.33402078625424
 23
0.2152360495067817
 33
0.0
 14
-57.32819956938417
 24
32.13567769491445
 34
0.0
 15
-57.37809580962423
 25
0.4267762668577823
 35
0.0
 16
-55.55444697090247
 26
-14.40277663418272
 36
0.0
1001
ACAD
1000
DSTYLE
1002
{
1070
   271
1070
     0
1002
}
  0
LINE
  5
AEC4
330
1F
100
AcDbEntity
  8
AM_5
100
AcDbLine
 10
-57.33402078625424
 20
0.2152360495067817
 30
0.0
 11
-57.32819956938417
 21
32.13567769491445
 31
0.0
  0
DIMENSION
  5
AF03
330
1F
100
AcDbEntity
  8
AM_5
100
AcDbDimension
  2
*D13
 10
0.0002595110056653
 20
-62.29138277246422
 30
0.0
 11
6.411113305139877
 21
42.40233555897915
 31
0.0
 70
   162
 71
     5
 42
0.0349087048995203
  3
AM_JIS$2
100
AcDb2LineAngularDimension
 13
0.6005746049997022
 23
17.57908441350975
 33
0.0
 14
0.1342545671576762
 24
4.226583497982766
 34
0.0
 15
0.0003158552928751
 25
0.0059414109167708
 35
0.0
 16
0.4948513034344959
 26
42.88578178670994
 36
0.0
1001
ACAD
1000
DSTYLE
1002
{
1070
   271
1070
     0
1002
}
  0
DIMENSION
  5
AF04
330
1F
100
AcDbEntity
  8
PV0001_1
100
AcDbDimension
  2
*D11
 10
-20.53549327071922
 20
0.0000000000000058
 30
0.0
 11
-20.53549327071922
 21
15.99915396529465
 31
0.0
 70
   160
  1
<>
 71
     5
 42
31.99830793058929
  3
AM_JIS$0
100
AcDbAlignedDimension
 13
9.020659635810797
 23
31.99830793058929
 33
0.0
 14
0.1990135094198064
 24
-0.0000000000000001
 34
0.0
 50
89.99999999999998
100
AcDbRotatedDimension
1001
ACAD
1000
DSTYLE
1002
{
1070
    45
1040
0.01
1070
   173
1070
     1
1070
   271
1070
     5
1070
     6
1000
OPEN30
1070
     7
1000
OPEN30
1002
}
  0
DIMENSION
  5
AF05
330
1F
100
AcDbEntity
  8
AM_5
100
AcDbDimension
  2
*D12
 10
1.250000113533156
 20
-6.820646150366986
 30
0.0
 11
11.43870069038404
 21
-3.420272134618955
 31
0.0
 70
    32
 71
     5
 42
1.250000387206303
  3
AM_JIS$0
100
AcDbAlignedDimension
 13
-0.000000273673146
 23
0.1999526627882006
 33
0.0
 14
1.250000113533157
 24
0.2073681606427053
 34
0.0
 50
180.0
100
AcDbRotatedDimension
1001
ACAD
1000
DSTYLE
1002
{
1070
   271
1070
     6
1002
}
  0
LINE
  5
AFBE
330
1F
100
AcDbEntity
  8
AM_1
100
AcDbLine
 10
-0.0000000000000077
 20
-62.30159794680911
 30
0.0
 11
0.0000000000000008
 21
7.176956743068849
 31
0.0
  0
DIMENSION
  5
AFBF
330
1F
100
AcDbEntity
  8
AM_5
100
AcDbDimension
  2
*D14
 10
-21.02420464202065
 20
-87.25169397675811
 30
0.0
 11
-24.42457865776866
 21
-74.75162452899747
 31
0.0
 70
    32
 71
     5
 42
25.00013889552129
  3
AM_JIS$0
100
AcDbAlignedDimension
 13
0.2068425110631573
 23
-62.25155508123683
 33
0.0
 14
1.000617216376848
 24
-87.25169397675811
 34
0.0
 50
270.0
100
AcDbRotatedDimension
  0
ARC
  5
B081
330
1F
100
AcDbEntity
  8
PV0001_1
  6
Continuous
 48
0.5
100
AcDbCircle
 10
1.050210004025929
 20
0.1981984874604335
 30
0.0
 40
0.2
100
AcDbArc
 50
269.8818202617705
 51
2.509450507647317
  0
ARC
  5
B082
330
1F
100
AcDbEntity
  8
PV0001_1
  6
Continuous
 48
0.5
100
AcDbCircle
 10
0.199999726326854
 20
0.1999526627882005
 30
0.0
 40
0.2
100
AcDbArc
 50
177.5064966528351
 51
269.8818202617705
  0
ENDSEC
  0
SECTION
  2
OBJECTS
  0
DICTIONARY
  5
C
330
0
100
AcDbDictionary
281
     1
  3
ACAD_COLOR
350
B163
  3
ACAD_GROUP
350
D
  3
ACAD_LAYOUT
350
1A
  3
ACAD_MATERIAL
350
B162
  3
ACAD_MLINESTYLE
350
17
  3
ACAD_PLOTSETTINGS
350
19
  3
ACAD_PLOTSTYLENAME
350
E
  3
ACAD_TABLESTYLE
350
B164
  3
ACDBHEADERROUNDTRIPXREC
350
B2B4
  3
ACDBVARIABLEDICTIONARY
350
30
  3
ACMDICTIONARY
350
4D
  3
AMG
350
3F
  3
AMGSNAPSETTINGS
350
73
  3
DWGPROPS
350
B2B3
  3
ENG_DATA
350
21C6
  3
FILENAME
350
21C9
  3
HOLD_DIC_DATA
350
21C4
  3
TABLE_DIC_DATA
350
1C0B
  3
ZWKSIZE
350
21CB
  0
DICTIONARY
  5
165
330
1F
100
AcDbDictionary
280
     1
281
     1
  3
ACAD_INDEX
360
B0F1
  3
ACAD_LAYOUTSELFREF
360
B122
  0
DICTIONARY
  5
B120
330
1B
100
AcDbDictionary
280
     1
281
     1
  3
ACAD_LAYOUTSELFREF
360
B121
  0
DICTIONARY
  5
B163
102
{ACAD_REACTORS
330
C
102
}
330
C
100
AcDbDictionary
281
     1
  0
DICTIONARY
  5
D
102
{ACAD_REACTORS
330
C
102
}
330
C
100
AcDbDictionary
281
     1
  3
*A1
350
7C0D
  3
*A2
350
7C0E
  3
*A3
350
7FE3
  3
*A4
350
8E0E
  3
*A5
350
96D0
  0
DICTIONARY
  5
1A
102
{ACAD_REACTORS
330
C
102
}
330
C
100
AcDbDictionary
281
     1
  3
Model
350
B166
  3
レイアウト1
350
B167
  0
DICTIONARY
  5
B162
102
{ACAD_REACTORS
330
C
102
}
330
C
100
AcDbDictionary
281
     1
  0
DICTIONARY
  5
17
102
{ACAD_REACTORS
330
C
102
}
330
C
100
AcDbDictionary
281
     1
  3
STANDARD
350
18
  0
DICTIONARY
  5
19
102
{ACAD_REACTORS
330
C
102
}
330
C
100
AcDbDictionary
281
     1
  0
ACDBDICTIONARYWDFLT
  5
E
102
{ACAD_REACTORS
330
C
102
}
330
C
100
AcDbDictionary
281
     1
  3
Normal
350
F
100
AcDbDictionaryWithDefault
340
F
  0
DICTIONARY
  5
B164
102
{ACAD_REACTORS
330
C
102
}
330
C
100
AcDbDictionary
281
     1
  3
Standard
350
B165
  0
DICTIONARY
  5
B2B4
102
{ACAD_REACTORS
330
C
102
}
330
C
100
AcDbDictionary
281
     1
  0
DICTIONARY
  5
30
102
{ACAD_REACTORS
330
C
102
}
330
C
100
AcDbDictionary
281
     1
  3
CTABLESTYLE
350
B2AF
  3
DIMASSOC
350
B2B0
  3
INDEXCTL
350
31
  3
PROJECTNAME
350
B2B1
  3
SORTENTS
350
42BE
  0
DICTIONARY
  5
4D
102
{ACAD_REACTORS
330
C
102
}
330
C
100
AcDbDictionary
281
     1
  3
ACMSTDDICTIONARY
350
17E
  3
AMDTSECTSYM_ARROWCOLOR
350
B1DF
  0
DICTIONARY
  5
3F
102
{ACAD_REACTORS
330
C
102
}
330
C
100
AcDbDictionary
281
     1
  0
DICTIONARY
  5
73
102
{ACAD_REACTORS
330
C
102
}
330
C
100
AcDbDictionary
281
     1
  0
XRECORD
  5
B2B3
102
{ACAD_REACTORS
330
C
102
}
330
C
100
AcDbXrecord
280
     1
  1
DWGPROPS COOKIE
  2

  3

  4

  6

  7

  8

  9

300
AmdtFileType=82
301
=
302
=
303
=
304
=
305
=
306
=
307
=
308
=
309
=
 40
0.7622674189814815
 41
2451943.610431666
 42
2455603.40889757
  1

 90
        1
  0
DICTIONARY
  5
21C6
102
{ACAD_REACTORS
330
C
102
}
330
C
100
AcDbDictionary
281
     1
  3
ENG_ID
350
21C7
  0
DICTIONARY
  5
21C9
102
{ACAD_REACTORS
330
C
102
}
330
C
100
AcDbDictionary
281
     1
  3
FILENAME
350
21CA
  0
DICTIONARY
  5
21C4
102
{ACAD_REACTORS
330
C
102
}
330
C
100
AcDbDictionary
281
     1
  3
HOLD_DATA
350
21C5
  0
DICTIONARY
  5
1C0B
102
{ACAD_REACTORS
330
C
102
}
330
C
100
AcDbDictionary
281
     1
  3
INPUT_DATA
350
1C0D
  3
TABLE_DATA
350
1C0C
  0
DICTIONARY
  5
21CB
102
{ACAD_REACTORS
330
C
102
}
330
C
100
AcDbDictionary
281
     1
  3
ZWKSIZE
350
21CC
  0
DICTIONARY
  5
B0F1
102
{ACAD_REACTORS
330
165
102
}
330
165
100
AcDbDictionary
281
     1
  3
*A1
350
B0F2
  0
XRECORD
  5
B122
102
{ACAD_REACTORS
330
165
102
}
330
165
100
AcDbXrecord
280
     1
340
1F
  0
XRECORD
  5
B121
102
{ACAD_REACTORS
330
B120
102
}
330
B120
100
AcDbXrecord
280
     1
340
1B
  0
GROUP
  5
7C0D
102
{ACAD_REACTORS
330
D
102
}
330
D
100
AcDbGroup
300

 70
     1
 71
     1
  0
GROUP
  5
7C0E
102
{ACAD_REACTORS
330
D
102
}
330
D
100
AcDbGroup
300

 70
     1
 71
     1
  0
GROUP
  5
7FE3
102
{ACAD_REACTORS
330
D
102
}
330
D
100
AcDbGroup
300

 70
     1
 71
     1
  0
GROUP
  5
8E0E
102
{ACAD_REACTORS
330
D
102
}
330
D
100
AcDbGroup
300

 70
     1
 71
     1
  0
GROUP
  5
96D0
102
{ACAD_REACTORS
330
D
102
}
330
D
100
AcDbGroup
300

 70
     1
 71
     1
  0
LAYOUT
  5
B166
102
{ACAD_XDICTIONARY
360
B2B5
102
}
102
{ACAD_REACTORS
330
1A
102
}
330
1A
100
AcDbPlotSettings
  1

  2
SII LP-1010 (C2 VR)2R
  4

  6

 40
0.0
 41
0.0
 42
0.0
 43
0.0
 44
0.0
 45
0.0
 46
0.0
 47
0.0
 48
0.0
 49
0.0
140
0.0
141
0.0
142
1.0
143
1.0
 70
  1712
 72
     0
 73
     0
 74
     0
  7
sei_cad.ctb
 75
     0
147
1.0
148
0.0
149
0.0
100
AcDbLayout
  1
Model
 70
     1
 71
     0
 10
0.0
 20
0.0
 11
12.0
 21
9.0
 12
0.0
 22
0.0
 32
0.0
 14
0.0
 24
0.0
 34
0.0
 15
0.0
 25
0.0
 35
0.0
146
0.0
 13
0.0
 23
0.0
 33
0.0
 16
1.0
 26
0.0
 36
0.0
 17
0.0
 27
1.0
 37
0.0
 76
     0
330
1F
  0
LAYOUT
  5
B167
102
{ACAD_XDICTIONARY
360
B2B7
102
}
102
{ACAD_REACTORS
330
1A
102
}
330
1A
100
AcDbPlotSettings
  1

  2
SII LP-1010 (C2 VR)2R
  4

  6

 40
0.0
 41
0.0
 42
0.0
 43
0.0
 44
0.0
 45
0.0
 46
0.0
 47
0.0
 48
0.0
 49
0.0
140
0.0
141
0.0
142
1.0
143
1.0
 70
   688
 72
     0
 73
     0
 74
     5
  7
sei_cad.ctb
 75
    16
147
1.0
148
0.0
149
0.0
100
AcDbLayout
  1
レイアウト1
 70
     1
 71
     1
 10
0.0
 20
0.0
 11
420.0
 21
297.0
 12
0.0
 22
0.0
 32
0.0
 14
1.000000000000000E+20
 24
1.000000000000000E+20
 34
1.000000000000000E+20
 15
-1.000000000000000E+20
 25
-1.000000000000000E+20
 35
-1.000000000000000E+20
146
0.0
 13
0.0
 23
0.0
 33
0.0
 16
1.0
 26
0.0
 36
0.0
 17
0.0
 27
1.0
 37
0.0
 76
     0
330
1B
  0
MLINESTYLE
  5
18
102
{ACAD_REACTORS
330
17
102
}
330
17
100
AcDbMlineStyle
  2
STANDARD
 70
     0
  3

 62
   256
 51
90.0
 52
90.0
 71
     2
 49
0.5
 62
   256
  6
BYLAYER
 49
-0.5
 62
   256
  6
BYLAYER
  0
ACDBPLACEHOLDER
  5
F
102
{ACAD_REACTORS
330
E
102
}
330
E
  0
TABLESTYLE
  5
B165
102
{ACAD_REACTORS
330
B164
102
}
330
B164
100
AcDbTableStyle
  3
Standard
 70
     0
 71
     0
 40
1.5
 41
1.5
280
     0
281
     0
  7
STANDARD
140
4.5
170
     2
 62
     0
 63
     7
283
     0
274
    -2
284
     1
 64
     0
275
    -2
285
     1
 65
     0
276
    -2
286
     1
 66
     0
277
    -2
287
     1
 67
     0
278
    -2
288
     1
 68
     0
279
    -2
289
     1
 69
     0
  7
STANDARD
140
6.0
170
     5
 62
     0
 63
     7
283
     0
274
    -2
284
     1
 64
     0
275
    -2
285
     1
 65
     0
276
    -2
286
     1
 66
     0
277
    -2
287
     1
 67
     0
278
    -2
288
     1
 68
     0
279
    -2
289
     1
 69
     0
  7
STANDARD
140
4.5
170
     5
 62
     0
 63
     7
283
     0
274
    -2
284
     1
 64
     0
275
    -2
285
     1
 65
     0
276
    -2
286
     1
 66
     0
277
    -2
287
     1
 67
     0
278
    -2
288
     1
 68
     0
279
    -2
289
     1
 69
     0
  0
DICTIONARYVAR
  5
B2AF
102
{ACAD_REACTORS
330
30
102
}
330
30
100
DictionaryVariables
280
     0
  1
STANDARD
  0
DICTIONARYVAR
  5
B2B0
102
{ACAD_REACTORS
330
30
102
}
330
30
100
DictionaryVariables
280
     0
  1
1
  0
DICTIONARYVAR
  5
31
102
{ACAD_REACTORS
330
30
102
}
330
30
100
DictionaryVariables
280
     0
  1
1
  0
DICTIONARYVAR
  5
B2B1
102
{ACAD_REACTORS
330
30
102
}
330
30
100
DictionaryVariables
280
     0
  1

  0
DICTIONARYVAR
  5
42BE
102
{ACAD_REACTORS
330
30
102
}
330
30
100
DictionaryVariables
280
     0
  1
96
  0
DICTIONARY
  5
17E
102
{ACAD_REACTORS
330
4D
102
}
330
4D
100
AcDbDictionary
281
     1
  0
XRECORD
  5
B1DF
102
{ACAD_REACTORS
330
4D
102
}
330
4D
100
AcDbXrecord
280
     1
 90
-1023410169
  0
XRECORD
  5
21C7
102
{ACAD_REACTORS
330
21C6
102
}
330
21C6
100
AcDbXrecord
280
     1
  1
HOLD
  0
XRECORD
  5
21CA
102
{ACAD_REACTORS
330
21C9
102
}
330
21C9
100
AcDbXrecord
280
     1
  1
21000065__00___
  0
XRECORD
  5
21C5
102
{ACAD_REACTORS
330
21C4
102
}
330
21C4
100
AcDbXrecord
280
     1
  1
クランクシャフト加工用 ^M^J１コーナー型 ^M^J15.875 ^M^J20 ^M^Jクランプオン ^M^J９０° ^M^J1 ^M^J鋼 ^M^J ^M^J ^M^J ^M^J ^M^J
  0
XRECORD
  5
1C0D
102
{ACAD_REACTORS
330
1C0B
102
}
330
1C0B
100
AcDbXrecord
280
     1
  1
1,,,,,,,,,^M^J2,,,,,,,,,^M^J3,,,,,,,,,^M^J4,,,,,,,,,^M^J5,,,,,,,,,^M^J6,,,,,,,,,^M^J7,,,,,,,,,^M^J8,,,,,,,,,^M^J9,,,,,,,,,^M^J10,,,,,,,,,
  0
XRECORD
  5
1C0C
102
{ACAD_REACTORS
330
1C0B
102
}
330
1C0B
100
AcDbXrecord
280
     1
  1
10,10
  0
XRECORD
  5
21CC
102
{ACAD_REACTORS
330
21CB
102
}
330
21CB
100
AcDbXrecord
280
     1
  1
3
  0
LAYER_INDEX
  5
B0F2
102
{ACAD_REACTORS
330
B0F1
102
}
330
B0F1
100
AcDbIndex
 40
2455603.40889757
100
AcDbLayerIndex
  8
0
360
B0F3
 90
        0
  8
AM_5
360
B0F4
 90
        8
  8
DEFPOINTS
360
B0F5
 90
        0
  8
AM_0
360
B0F6
 90
        2
  8
AM_6
360
B0F7
 90
        1
  8
AM_1
360
B0F8
 90
        2
  8
PV0001_1
360
B0F9
 90
      343
  0
DICTIONARY
  5
B2B5
330
B166
100
AcDbDictionary
280
     1
281
     1
  3
ACAD_XREC_ROUNDTRIP
360
B2B6
  0
DICTIONARY
  5
B2B7
330
B167
100
AcDbDictionary
280
     1
281
     1
  3
ACAD_XREC_ROUNDTRIP
360
B2B8
  0
IDBUFFER
  5
B0F3
330
0
100
AcDbIdBuffer
  0
IDBUFFER
  5
B0F4
330
0
100
AcDbIdBuffer
330
AE6E
330
AE6F
330
AEC2
330
AEC3
330
AEC4
330
AF03
330
AF05
330
AFBF
  0
IDBUFFER
  5
B0F5
330
0
100
AcDbIdBuffer
  0
IDBUFFER
  5
B0F6
330
0
100
AcDbIdBuffer
330
AE6A
330
AE6B
  0
IDBUFFER
  5
B0F7
330
0
100
AcDbIdBuffer
330
83BD
  0
IDBUFFER
  5
B0F8
330
0
100
AcDbIdBuffer
330
AE6C
330
AFBE
  0
IDBUFFER
  5
B0F9
330
0
100
AcDbIdBuffer
330
AC67
330
AC68
330
AC69
330
AC6A
330
AC6B
330
AC6C
330
AC6D
330
AC6E
330
AC6F
330
AC70
330
AC71
330
AC72
330
AC73
330
AC74
330
AC75
330
AC76
330
AC77
330
AC78
330
AC79
330
AC7A
330
AC7B
330
AC7C
330
AC7D
330
AC7E
330
AC7F
330
AC80
330
AC81
330
AC82
330
AC83
330
AC84
330
AC85
330
AC86
330
AC87
330
AC88
330
AC89
330
AC8A
330
AC8B
330
AC8C
330
AC8D
330
AC8E
330
AC8F
330
AC90
330
AC91
330
AC92
330
AC93
330
AC94
330
AC95
330
AC96
330
AC97
330
AC98
330
AC99
330
AC9A
330
AC9B
330
AC9C
330
AC9D
330
AC9E
330
AC9F
330
ACA0
330
ACA1
330
ACA2
330
ACA3
330
ACA4
330
ACA5
330
ACA6
330
ACA7
330
ACA8
330
ACA9
330
ACAA
330
ACAB
330
ACAC
330
ACAD
330
ACAE
330
ACAF
330
ACB0
330
ACB1
330
ACB2
330
ACB3
330
ACB4
330
ACB5
330
ACB6
330
ACB7
330
ACB8
330
ACB9
330
ACBA
330
ACBB
330
ACBC
330
ACBD
330
ACBE
330
ACBF
330
ACC0
330
ACC1
330
ACC2
330
ACC3
330
ACC4
330
ACC5
330
ACC6
330
ACC7
330
ACC8
330
ACCA
330
AE6D
330
AF04
330
B081
330
B082
330
AB53
330
AB54
330
AB55
330
AB56
330
AB58
330
AB59
330
AB5A
330
AB5B
330
AB5D
330
AB5E
330
AB5F
330
AB60
330
AB61
330
AB62
330
AB63
330
AB64
330
AB65
330
AB66
330
AB67
330
AB69
330
AB6A
330
AB6D
330
AB6E
330
AB6F
330
AB70
330
AB71
330
AB72
330
AB73
330
AB74
330
AB75
330
AB76
330
AB77
330
AB78
330
AB79
330
AB7A
330
AB7D
330
AB7E
330
AB7F
330
AB80
330
AB82
330
AB83
330
AB84
330
AB86
330
AB87
330
AB88
330
AB89
330
AB8A
330
AB8B
330
AB8C
330
AB8D
330
AB8E
330
AB8F
330
AB90
330
AB91
330
AB92
330
AB93
330
AB94
330
AB95
330
AB96
330
AB97
330
AB98
330
AB99
330
AB9A
330
AB9B
330
AB9C
330
AB9D
330
AB9E
330
AB9F
330
ABA0
330
ABA1
330
ABA2
330
ABA3
330
ABA4
330
ABA5
330
ABA6
330
ABA8
330
ABA9
330
ABAA
330
ABAB
330
ABAC
330
ABAD
330
ABAE
330
ABAF
330
ABB0
330
ABB1
330
ABB2
330
ABB3
330
ABB4
330
ABB5
330
ABB6
330
ABB7
330
ABB9
330
ABBA
330
ABBB
330
ABBC
330
ABBD
330
ABBE
330
ABBF
330
ABC0
330
ABC1
330
ABC8
330
ABC9
330
ABCA
330
ABCB
330
ABCC
330
ABCD
330
ABCE
330
ABCF
330
ABD0
330
ABD1
330
ABD2
330
ABD3
330
ABD4
330
ABD5
330
ABD6
330
ABD7
330
ABD8
330
ABD9
330
ABDA
330
ABDB
330
ABDC
330
ABDD
330
ABDE
330
ABDF
330
ABE0
330
ABE1
330
ABE2
330
ABE3
330
ABE4
330
ABE5
330
ABE6
330
ABE7
330
ABE8
330
ABE9
330
ABEA
330
ABEB
330
ABEC
330
ABED
330
ABEE
330
ABEF
330
ABF0
330
ABF1
330
ABF2
330
ABF3
330
ABF6
330
ABF8
330
ABFB
330
ABFC
330
ABFF
330
AC01
330
AC02
330
AC04
330
AC05
330
AC06
330
AC07
330
AC08
330
AC09
330
AC0A
330
AC0B
330
AC0C
330
AC0D
330
AC0E
330
AC0F
330
AC13
330
AC14
330
AC15
330
AC16
330
AC17
330
AC18
330
AC19
330
AC1C
330
AC1E
330
AC1F
330
AC20
330
AC21
330
AC22
330
AC23
330
AC24
330
AC25
330
AC26
330
AC27
330
AC28
330
AC29
330
AC2A
330
AC2B
330
AC2C
330
AC2D
330
AC2E
330
AC2F
330
AC30
330
AC31
330
AC32
330
AC33
330
AC34
330
AC35
330
AC36
330
AC37
330
AC38
330
AC39
330
AC3A
330
AC3B
330
AC3C
330
AC3D
330
AC3E
330
AC3F
330
AC40
330
AC41
330
AC42
330
AC43
330
AC44
330
AC45
330
AC46
330
AC47
330
AC48
330
AC49
330
AC4A
330
AC4B
330
AC4C
330
AC4D
330
AC4E
330
AC4F
330
AC50
330
AC51
330
AC52
330
AC53
330
AC54
330
AC55
330
AC56
330
AC57
330
AC58
330
AC59
330
AC5A
330
AC5B
330
AC5C
330
AC5D
330
AC5E
330
AC5F
330
AC64
330
AC65
330
AC66
  0
XRECORD
  5
B2B6
102
{ACAD_REACTORS
330
B2B5
102
}
330
B2B5
100
AcDbXrecord
280
     1
102
SHADEPLOT
 70
     0
102
SHADEPLOTRESLEVEL
 70
     2
102
SHADEPLOTCUSTOMDPI
 70
   300
  0
XRECORD
  5
B2B8
102
{ACAD_REACTORS
330
B2B7
102
}
330
B2B7
100
AcDbXrecord
280
     1
102
SHADEPLOT
 70
     0
102
SHADEPLOTRESLEVEL
 70
     2
102
SHADEPLOTCUSTOMDPI
 70
   300
  0
ENDSEC
  0
EOF
