  0
SECTION
  2
HEADER
  9
$ACADVER
  1
AC1014
  9
$ACADMAINTVER
 70
     9
  9
$DWGCODEPAGE
  3
ANSI_932
  9
$INSBASE
 10
0.0
 20
0.0
 30
0.0
  9
$EXTMIN
 10
-144.0605056762689
 20
-105.4692975476088
 30
0.0
  9
$EXTMAX
 10
54.68760103276853
 20
33.67487407883488
 30
0.0
  9
$LIMMIN
 10
-186.4955718157978
 20
-147.5337201879148
  9
$LIMMAX
 10
79.27723745407115
 20
62.52529261386235
  9
$ORTHOMODE
 70
     0
  9
$REGENMODE
 70
     1
  9
$FILLMODE
 70
     1
  9
$QTEXTMODE
 70
     0
  9
$MIRRTEXT
 70
     0
  9
$DRAGMODE
 70
     2
  9
$LTSCALE
 40
1.0
  9
$OSMODE
 70
    55
  9
$ATTMODE
 70
     1
  9
$TEXTSIZE
 40
2.5
  9
$TRACEWID
 40
1.0
  9
$TEXTSTYLE
  7
STANDARD
  9
$CLAYER
  8
AM_5
  9
$CELTYPE
  6
BYLAYER
  9
$CECOLOR
 62
   256
  9
$CELTSCALE
 40
1.0
  9
$DELOBJ
 70
     1
  9
$DISPSILH
 70
     0
  9
$DIMSCALE
 40
1.0
  9
$DIMASZ
 40
2.5
  9
$DIMEXO
 40
1.0
  9
$DIMDLI
 40
12.0
  9
$DIMRND
 40
0.0
  9
$DIMDLE
 40
0.0
  9
$DIMEXE
 40
1.0
  9
$DIMTP
 40
0.1
  9
$DIMTM
 40
0.1
  9
$DIMTXT
 40
3.2
  9
$DIMCEN
 40
0.0
  9
$DIMTSZ
 40
0.0
  9
$DIMTOL
 70
     0
  9
$DIMLIM
 70
     0
  9
$DIMTIH
 70
     0
  9
$DIMTOH
 70
     0
  9
$DIMSE1
 70
     0
  9
$DIMSE2
 70
     0
  9
$DIMTAD
 70
     3
  9
$DIMZIN
 70
     8
  9
$DIMBLK
  1
OPEN30
  9
$DIMASO
 70
     1
  9
$DIMSHO
 70
     1
  9
$DIMPOST
  1

  9
$DIMAPOST
  1
"
  9
$DIMALT
 70
     0
  9
$DIMALTD
 70
     2
  9
$DIMALTF
 40
0.0393701
  9
$DIMLFAC
 40
1.0
  9
$DIMTOFL
 70
     1
  9
$DIMTVP
 40
0.0
  9
$DIMTIX
 70
     0
  9
$DIMSOXD
 70
     0
  9
$DIMSAH
 70
     0
  9
$DIMBLK1
  1

  9
$DIMBLK2
  1

  9
$DIMSTYLE
  2
AM_JIS
  9
$DIMCLRD
 70
     3
  9
$DIMCLRE
 70
     3
  9
$DIMCLRT
 70
     2
  9
$DIMTFAC
 40
0.71
  9
$DIMGAP
 40
1.5
  9
$DIMJUST
 70
     0
  9
$DIMSD1
 70
     0
  9
$DIMSD2
 70
     0
  9
$DIMTOLJ
 70
     0
  9
$DIMTZIN
 70
     0
  9
$DIMALTZ
 70
     0
  9
$DIMALTTZ
 70
     0
  9
$DIMFIT
 70
     3
  9
$DIMUPT
 70
     0
  9
$DIMUNIT
 70
     2
  9
$DIMDEC
 70
     3
  9
$DIMTDEC
 70
     3
  9
$DIMALTU
 70
     2
  9
$DIMALTTD
 70
     2
  9
$DIMTXSTY
  7
ASAMI
  9
$DIMAUNIT
 70
     0
  9
$LUNITS
 70
     2
  9
$LUPREC
 70
     2
  9
$SKETCHINC
 40
1.0
  9
$FILLETRAD
 40
0.0
  9
$AUNITS
 70
     0
  9
$AUPREC
 70
     0
  9
$MENU
  1
.
  9
$ELEVATION
 40
0.0
  9
$PELEVATION
 40
0.0
  9
$THICKNESS
 40
0.0
  9
$LIMCHECK
 70
     0
  9
$BLIPMODE
 70
     0
  9
$CHAMFERA
 40
0.0
  9
$CHAMFERB
 40
0.0
  9
$CHAMFERC
 40
20.0
  9
$CHAMFERD
 40
0.0
  9
$SKPOLY
 70
     0
  9
$TDCREATE
 40
2452838.620506898
  9
$TDUPDATE
 40
2453151.538654861
  9
$TDINDWG
 40
1.0936028588
  9
$TDUSRTIMER
 40
1.0936028588
  9
$USRTIMER
 70
     1
  9
$ANGBASE
 50
0.0
  9
$ANGDIR
 70
     0
  9
$PDMODE
 70
     0
  9
$PDSIZE
 40
0.0
  9
$PLINEWID
 40
0.0
  9
$COORDS
 70
     1
  9
$SPLFRAME
 70
     0
  9
$SPLINETYPE
 70
     6
  9
$SPLINESEGS
 70
     8
  9
$ATTDIA
 70
     1
  9
$ATTREQ
 70
     1
  9
$HANDLING
 70
 12289
  9
$HANDSEED
  5
780D
  9
$SURFTAB1
 70
     6
  9
$SURFTAB2
 70
     6
  9
$SURFTYPE
 70
     6
  9
$SURFU
 70
     6
  9
$SURFV
 70
     6
  9
$UCSNAME
  2

  9
$UCSORG
 10
0.0
 20
0.0
 30
0.0
  9
$UCSXDIR
 10
1.0
 20
0.0
 30
0.0
  9
$UCSYDIR
 10
0.0
 20
1.0
 30
0.0
  9
$PUCSNAME
  2

  9
$PUCSORG
 10
0.0
 20
0.0
 30
0.0
  9
$PUCSXDIR
 10
1.0
 20
0.0
 30
0.0
  9
$PUCSYDIR
 10
0.0
 20
1.0
 30
0.0
  9
$USERI1
 70
     0
  9
$USERI2
 70
     0
  9
$USERI3
 70
     0
  9
$USERI4
 70
     0
  9
$USERI5
 70
     0
  9
$USERR1
 40
0.0
  9
$USERR2
 40
0.0
  9
$USERR3
 40
0.0
  9
$USERR4
 40
0.0
  9
$USERR5
 40
0.0
  9
$WORLDVIEW
 70
     1
  9
$SHADEDGE
 70
     3
  9
$SHADEDIF
 70
    70
  9
$TILEMODE
 70
     1
  9
$MAXACTVP
 70
    64
  9
$PINSBASE
 10
0.0
 20
0.0
 30
0.0
  9
$PLIMCHECK
 70
     0
  9
$PEXTMIN
 10
1.000000000000000E+20
 20
1.000000000000000E+20
 30
1.000000000000000E+20
  9
$PEXTMAX
 10
-1.000000000000000E+20
 20
-1.000000000000000E+20
 30
-1.000000000000000E+20
  9
$PLIMMIN
 10
0.0
 20
0.0
  9
$PLIMMAX
 10
841.0
 20
594.0
  9
$UNITMODE
 70
     0
  9
$VISRETAIN
 70
     1
  9
$PLINEGEN
 70
     0
  9
$PSLTSCALE
 70
     0
  9
$TREEDEPTH
 70
  3020
  9
$PICKSTYLE
 70
     0
  9
$CMLSTYLE
  2
STANDARD
  9
$CMLJUST
 70
     0
  9
$CMLSCALE
 40
20.0
  9
$PROXYGRAPHICS
 70
     1
  9
$MEASUREMENT
 70
     1
  0
ENDSEC
  0
SECTION
  2
CLASSES
  0
CLASS
  1
ACDBDICTIONARYWDFLT
  2
AcDbDictionaryWithDefault
  3
AutoCAD 2000
 90
        0
280
     0
281
     0
  0
CLASS
  1
ACDBPLACEHOLDER
  2
AcDbPlaceHolder
  3
AutoCAD 2000
 90
        0
280
     0
281
     0
  0
CLASS
  1
LAYOUT
  2
AcDbLayout
  3
AutoCAD 2000
 90
        0
280
     0
281
     0
  0
CLASS
  1
AMGSETTINGSOBJ
  2
AmgSettingsObj
  3
"AcadM|Product Description: AutoCAD Mechanical 2000|Company: Autodesk"
 90
        0
280
     0
281
     0
  0
CLASS
  1
ACME_DOCUMENT
  2
AcMeDbDoc
  3
AcMeServices
 90
        0
280
     0
281
     0
  0
CLASS
  1
ACMESCOPE
  2
AcMeScope
  3
AcMeServices
 90
        0
280
     0
281
     0
  0
CLASS
  1
ACMECOMMANDHISTORY
  2
AcMeCommandHistory
  3
AcMeServices
 90
        0
280
     0
281
     0
  0
CLASS
  1
DICTIONARYVAR
  2
AcDbDictionaryVar
  3
AutoCAD 2000
 90
        0
280
     0
281
     0
  0
CLASS
  1
ACIMSYSVARMAN
  2
AcImSysVarManager
  3
AcMeServices
 90
        0
280
     0
281
     0
  0
CLASS
  1
ACIMREALSYSVAR
  2
AcImRealSysVar
  3
AcMeServices
 90
        0
280
     0
281
     0
  0
CLASS
  1
ACIMINTSYSVAR
  2
AcImIntSysVar
  3
AcMeServices
 90
        0
280
     0
281
     0
  0
CLASS
  1
ACMEDRAWINGMAN
  2
AcMeDrawingMan
  3
AcMeServices
 90
        0
280
     0
281
     0
  0
CLASS
  1
ACMEVIEW
  2
AcMeView
  3
AcMeServices
 90
        0
280
     0
281
     0
  0
CLASS
  1
ACDBENTITYCACHE
  2
AcMeEntityCache
  3
AcMeServices
 90
        0
280
     0
281
     0
  0
CLASS
  1
GSMANAGER
  2
AcMeGSManager
  3
AcMeServices
 90
        0
280
     0
281
     0
  0
CLASS
  1
AmdtInternalReactor
  2
AmdtInternalReactor
  3
AcMeServices
 90
        0
280
     0
281
     0
  0
CLASS
  1
ACMESTATEMGR
  2
AcMeStateMgr
  3
AcMeServices
 90
        0
280
     0
281
     0
  0
CLASS
  1
ACME_DATABASE
  2
AcMeDbDatabase
  3
AcMeServices
 90
        0
280
     0
281
     0
  0
CLASS
  1
ACRFINSADJUSTERMGR
  2
AcRfInsAdjusterMgr
  3
AcMeServices
 90
        0
280
     0
281
     0
  0
CLASS
  1
ACMDATADICTIONARY
  2
AcmDataDictionary
  3
"AcmSymBB|Product Description: AutoCAD Mechanical 2000|Company: Autodesk"
 90
        0
280
     0
281
     0
  0
CLASS
  1
ACMDATAENTRYBLOCK
  2
AcmDataEntryBlock
  3
"AcmSymBB|Product Description: AutoCAD Mechanical 2000|Company: Autodesk"
 90
        0
280
     0
281
     0
  0
CLASS
  1
AMGOBJPROPCFG
  2
AmgObjPropCfg
  3
"AmgLay|Product Description: AutoCAD Mechanical 2000|Company: Autodesk"
 90
        1
280
     0
281
     0
  0
CLASS
  1
ACAMGFILTERDAT
  2
AcAmgFilterDat
  3
"AcadM|Product Description: AutoCAD Mechanical 2000|Company: Autodesk"
 90
        0
280
     0
281
     0
  0
CLASS
  1
LAYER_INDEX
  2
AcDbLayerIndex
  3
AutoCAD 2000
 90
        0
280
     0
281
     0
  0
CLASS
  1
IDBUFFER
  2
AcDbIdBuffer
  3
AutoCAD 2000
 90
        0
280
     0
281
     0
  0
CLASS
  1
ACIMSTRSYSVAR
  2
AcImStrSysVar
  3
AcMeServices
 90
        0
280
     0
281
     0
  0
CLASS
  1
ACMSTANDARDJIS
  2
AcmStandardJIS
  3
"AcmSymBB|Product Description: AutoCAD Mechanical 2000|Company: Autodesk"
 90
        0
280
     0
281
     0
  0
CLASS
  1
ACMSURFSTANDARDJIS
  2
AcmSurfTextStdJIS
  3
"AcmSymBB|Product Description: AutoCAD Mechanical 2000|Company: Autodesk"
 90
        0
280
     0
281
     0
  0
CLASS
  1
ACMFCFSTANDARDJIS
  2
AcmFCFStdJIS
  3
"AcmSymBB|Product Description: AutoCAD Mechanical 2000|Company: Autodesk"
 90
        0
280
     0
281
     0
  0
CLASS
  1
ACMWELDSTANDARDJIS
  2
AcmWeldingStdJIS
  3
"AcmSymBB|Product Description: AutoCAD Mechanical 2000|Company: Autodesk"
 90
        0
280
     0
281
     0
  0
CLASS
  1
ACMIDSTANDARDJIS
  2
AcmIdStdJIS
  3
"AcmSymBB|Product Description: AutoCAD Mechanical 2000|Company: Autodesk"
 90
        0
280
     0
281
     0
  0
CLASS
  1
ACMDATUMSTANDARDJIS
  2
AcmDatumStdJIS
  3
"AcmSymBB|Product Description: AutoCAD Mechanical 2000|Company: Autodesk"
 90
        0
280
     0
281
     0
  0
CLASS
  1
ACMBOMSTANDARDJIS
  2
AcmBOMStdJIS
  3
"AcmSymBB|Product Description: AutoCAD Mechanical 2000|Company: Autodesk"
 90
        0
280
     0
281
     0
  0
CLASS
  1
ACMSTANDARDANSI
  2
AcmStandardANSI
  3
"AcmSymBB|Product Description: AutoCAD Mechanical 2000|Company: Autodesk"
 90
        0
280
     0
281
     0
  0
CLASS
  1
ACMSURFSTANDARDANSI
  2
AcmSurfTextStdANSI
  3
"AcmSymBB|Product Description: AutoCAD Mechanical 2000|Company: Autodesk"
 90
        0
280
     0
281
     0
  0
CLASS
  1
ACMFCFSTANDARDANSI
  2
AcmFCFStdANSI
  3
"AcmSymBB|Product Description: AutoCAD Mechanical 2000|Company: Autodesk"
 90
        0
280
     0
281
     0
  0
CLASS
  1
ACMWELDSTANDARDANSI
  2
AcmWeldingStdANSI
  3
"AcmSymBB|Product Description: AutoCAD Mechanical 2000|Company: Autodesk"
 90
        0
280
     0
281
     0
  0
CLASS
  1
ACMIDSTANDARDANSI
  2
AcmIdStdANSI
  3
"AcmSymBB|Product Description: AutoCAD Mechanical 2000|Company: Autodesk"
 90
        0
280
     0
281
     0
  0
CLASS
  1
ACMDATUMSTANDARDANSI
  2
AcmDatumStdANSI
  3
"AcmSymBB|Product Description: AutoCAD Mechanical 2000|Company: Autodesk"
 90
        0
280
     0
281
     0
  0
CLASS
  1
ACMBOMSTANDARDANSI
  2
AcmBOMStdANSI
  3
"AcmSymBB|Product Description: AutoCAD Mechanical 2000|Company: Autodesk"
 90
        0
280
     0
281
     0
  0
CLASS
  1
ACMSTANDARDBSI
  2
AcmStandardBSI
  3
"AcmSymBB|Product Description: AutoCAD Mechanical 2000|Company: Autodesk"
 90
        0
280
     0
281
     0
  0
CLASS
  1
ACMSURFSTANDARDBSI
  2
AcmSurfTextStdBSI
  3
"AcmSymBB|Product Description: AutoCAD Mechanical 2000|Company: Autodesk"
 90
        0
280
     0
281
     0
  0
CLASS
  1
ACMFCFSTANDARDBSI
  2
AcmFCFStdBSI
  3
"AcmSymBB|Product Description: AutoCAD Mechanical 2000|Company: Autodesk"
 90
        0
280
     0
281
     0
  0
CLASS
  1
ACMWELDSTANDARDBSI
  2
AcmWeldingStdBSI
  3
"AcmSymBB|Product Description: AutoCAD Mechanical 2000|Company: Autodesk"
 90
        0
280
     0
281
     0
  0
CLASS
  1
ACMIDSTANDARDBSI
  2
AcmIdStdBSI
  3
"AcmSymBB|Product Description: AutoCAD Mechanical 2000|Company: Autodesk"
 90
        0
280
     0
281
     0
  0
CLASS
  1
ACMDATUMSTANDARDBSI
  2
AcmDatumStdBSI
  3
"AcmSymBB|Product Description: AutoCAD Mechanical 2000|Company: Autodesk"
 90
        0
280
     0
281
     0
  0
CLASS
  1
ACMBOMSTANDARDBSI
  2
AcmBOMStdBSI
  3
"AcmSymBB|Product Description: AutoCAD Mechanical 2000|Company: Autodesk"
 90
        0
280
     0
281
     0
  0
CLASS
  1
LONG_TRANSACTION
  2
AcDbLongTransaction
  3
AutoCAD 2000
 90
        0
280
     0
281
     0
  0
CLASS
  1
LWPOLYLINE
  2
AcDbPolyline
  3
AutoCAD 2000
 90
        0
280
     0
281
     1
  0
CLASS
  1
HATCH
  2
AcDbHatch
  3
AutoCAD 2000
 90
        0
280
     0
281
     1
  0
CLASS
  1
XRECORD
  2
AcDbXrecord
  3
AutoCAD 2000
 90
        0
280
     0
281
     0
  0
ENDSEC
  0
SECTION
  2
TABLES
  0
TABLE
  2
VPORT
  5
8
330
0
100
AcDbSymbolTable
 70
     3
  0
VPORT
  5
77AD
330
8
100
AcDbSymbolTableRecord
100
AcDbViewportTableRecord
  2
*ACTIVE
 70
     0
 10
0.0
 20
0.0
 11
1.0
 21
1.0
 12
-19.45581784920022
 22
-25.82034929423213
 13
0.0
 23
0.0
 14
2.5
 24
2.5
 15
10.0
 25
10.0
 16
0.0
 26
0.0
 36
1.0
 17
0.0
 27
0.0
 37
0.0
 40
233.5903359533573
 41
1.56570841889117
 42
50.0
 43
0.0
 44
0.0
 50
0.0
 51
0.0
 71
     0
 72
   100
 73
     1
 74
     3
 75
     0
 76
     0
 77
     0
 78
     0
  0
ENDTAB
  0
TABLE
  2
LTYPE
  5
5
330
0
100
AcDbSymbolTable
 70
    10
  0
LTYPE
  5
14
330
5
100
AcDbSymbolTableRecord
100
AcDbLinetypeTableRecord
  2
BYBLOCK
 70
     0
  3

 72
    65
 73
     0
 40
0.0
  0
LTYPE
  5
15
330
5
100
AcDbSymbolTableRecord
100
AcDbLinetypeTableRecord
  2
BYLAYER
 70
     0
  3

 72
    65
 73
     0
 40
0.0
  0
LTYPE
  5
16
330
5
100
AcDbSymbolTableRecord
100
AcDbLinetypeTableRecord
  2
CONTINUOUS
 70
     0
  3
Solid line
 72
    65
 73
     0
 40
0.0
  0
LTYPE
  5
4B
330
5
100
AcDbSymbolTableRecord
100
AcDbLinetypeTableRecord
  2
AM_ISO02W050
 70
     0
  3
__ __ __ __ __ __ __ __ __ __ __ __ __ __ __
 72
    65
 73
     2
 40
7.5
 49
6.0
 74
     0
 49
-1.5
 74
     0
  0
LTYPE
  5
4C
330
5
100
AcDbSymbolTableRecord
100
AcDbLinetypeTableRecord
  2
AM_ISO08W050
 70
     0
  3
____ . ____ . ____ . ____ . ____ . ____ . ____
 72
    65
 73
     4
 40
18.0
 49
12.0
 74
     0
 49
-1.5
 74
     0
 49
3.0
 74
     0
 49
-1.5
 74
     0
  0
LTYPE
  5
4D
330
5
100
AcDbSymbolTableRecord
100
AcDbLinetypeTableRecord
  2
AM_ISO09W050
 70
     0
  3
_____ . . _____ . . _____ . . ____ .. ____
 72
    65
 73
     6
 40
22.5
 49
12.0
 74
     0
 49
-1.5
 74
     0
 49
3.0
 74
     0
 49
-1.5
 74
     0
 49
3.0
 74
     0
 49
-1.5
 74
     0
  0
LTYPE
  5
4E
330
5
100
AcDbSymbolTableRecord
100
AcDbLinetypeTableRecord
  2
AMCONSTR
 70
     0
  3
_______________________
 72
    65
 73
     2
 40
9999.0
 49
9999.0
 74
     0
 49
0.0
 74
     0
  0
LTYPE
  5
4F
330
5
100
AcDbSymbolTableRecord
100
AcDbLinetypeTableRecord
  2
AM_ISO02W050X2
 70
     0
  3
 _ _ _ _ _ _ _ _ _ _ _ _
 72
    65
 73
     2
 40
3.75
 49
3.0
 74
     0
 49
-0.75
 74
     0
  0
LTYPE
  5
50
330
5
100
AcDbSymbolTableRecord
100
AcDbLinetypeTableRecord
  2
AM_ISO08W050X2
 70
     0
  3
__ . __ . __ . __ . __ . __
 72
    65
 73
     4
 40
9.0
 49
6.0
 74
     0
 49
-0.75
 74
     0
 49
1.5
 74
     0
 49
-0.75
 74
     0
  0
LTYPE
  5
53
330
5
100
AcDbSymbolTableRecord
100
AcDbLinetypeTableRecord
  2
AMZIGZAG
 70
     0
  3
/\/-/\/-/\/-/\/-/\/-/\/
 72
    65
 73
     2
 40
11.00009999999999
 49
0.0001
 74
     4
 75
   135
340
52
 46
0.04
 50
0.0
 44
0.0
 45
0.0
 49
-11.0
 74
     0
  0
LTYPE
  5
166
330
5
100
AcDbSymbolTableRecord
100
AcDbLinetypeTableRecord
  2
ACJISTGL
 70
     0
  3
_ _ _ _ _
 72
    65
 73
     2
 40
3.0
 49
2.0
 74
     0
 49
-1.0
 74
     0
  0
LTYPE
  5
26A
330
5
100
AcDbSymbolTableRecord
100
AcDbLinetypeTableRecord
  2
ACJISTGB
 70
     0
  3
__ . . __ . .
 72
    65
 73
     6
 40
9.0
 49
4.0
 74
     0
 49
-1.0
 74
     0
 49
1.0
 74
     0
 49
-1.0
 74
     0
 49
1.0
 74
     0
 49
-1.0
 74
     0
  0
ENDTAB
  0
TABLE
  2
LAYER
  5
2
330
0
100
AcDbSymbolTable
 70
    10
  0
LAYER
  5
10
330
2
100
AcDbSymbolTableRecord
100
AcDbLayerTableRecord
  2
0
 70
     0
 62
     7
  6
CONTINUOUS
  0
LAYER
  5
3F9
330
2
100
AcDbSymbolTableRecord
100
AcDbLayerTableRecord
  2
AM_0
 70
     0
 62
     7
  6
CONTINUOUS
  0
LAYER
  5
BD6
330
2
100
AcDbSymbolTableRecord
100
AcDbLayerTableRecord
  2
AM_11
 70
     0
 62
     3
  6
AM_ISO09W050
  0
LAYER
  5
BD7
330
2
100
AcDbSymbolTableRecord
100
AcDbLayerTableRecord
  2
AM_7
 70
     0
 62
     4
  6
AM_ISO08W050
  0
LAYER
  5
BD8
330
2
100
AcDbSymbolTableRecord
100
AcDbLayerTableRecord
  2
AM_5
 70
     0
 62
     3
  6
CONTINUOUS
  0
LAYER
  5
BD9
330
2
100
AcDbSymbolTableRecord
100
AcDbLayerTableRecord
  2
DEFPOINTS
 70
     0
 62
     7
  6
CONTINUOUS
  0
LAYER
  5
BDA
330
2
100
AcDbSymbolTableRecord
100
AcDbLayerTableRecord
  2
AM_6
 70
     0
 62
     2
  6
CONTINUOUS
  0
LAYER
  5
1E2E
330
2
100
AcDbSymbolTableRecord
100
AcDbLayerTableRecord
  2
AM_CL
 70
     0
 62
     1
  6
AMCONSTR
  0
LAYER
  5
6375
330
2
100
AcDbSymbolTableRecord
100
AcDbLayerTableRecord
  2
PV0001_1
 70
     0
 62
     7
  6
CONTINUOUS
  0
LAYER
  5
68A0
330
2
100
AcDbSymbolTableRecord
100
AcDbLayerTableRecord
  2
AM_1
 70
     0
 62
     3
  6
CONTINUOUS
  0
ENDTAB
  0
TABLE
  2
STYLE
  5
3
330
0
100
AcDbSymbolTable
 70
     5
  0
STYLE
  5
11
330
3
100
AcDbSymbolTableRecord
100
AcDbTextStyleTableRecord
  2
STANDARD
 70
     0
 40
0.0
 41
1.0
 50
0.0
 71
     0
 42
2.5
  3
simplex.shx
  4
EXTFONT.SHX
  0
STYLE
  5
52
330
3
100
AcDbSymbolTableRecord
100
AcDbTextStyleTableRecord
  2

 70
     1
 40
0.0
 41
1.0
 50
0.0
 71
     0
 42
2.5
  3
ltypeshp.shx
  4

  0
STYLE
  5
6B
330
3
100
AcDbSymbolTableRecord
100
AcDbTextStyleTableRecord
  2
ASAMI
 70
     0
 40
0.0
 41
1.0
 50
0.0
 71
     0
 42
2.5
  3
simplex.shx
  4
EXTFONT.SHX
  0
STYLE
  5
262
330
3
100
AcDbSymbolTableRecord
100
AcDbTextStyleTableRecord
  2
ACJISTS
 70
     0
 40
1.0
 41
1.0
 50
0.0
 71
     0
 42
2.5
  3
simplex.shx
  4
bigfont.shx
  0
STYLE
  5
269
330
3
100
AcDbSymbolTableRecord
100
AcDbTextStyleTableRecord
  2
ACJISGDT
 70
     0
 40
0.0
 41
1.0
 50
0.0
 71
     0
 42
2.5
  3
amgdtans.shx
  4

  0
ENDTAB
  0
TABLE
  2
VIEW
  5
6
330
0
100
AcDbSymbolTable
 70
     0
  0
ENDTAB
  0
TABLE
  2
UCS
  5
7
330
0
100
AcDbSymbolTable
 70
     0
  0
ENDTAB
  0
TABLE
  2
APPID
  5
9
330
0
100
AcDbSymbolTable
 70
    13
  0
APPID
  5
12
330
9
100
AcDbSymbolTableRecord
100
AcDbRegAppTableRecord
  2
ACAD
 70
     0
  0
APPID
  5
30
330
9
100
AcDbSymbolTableRecord
100
AcDbRegAppTableRecord
  2
MCAD_NO_VIS
 70
     0
  0
APPID
  5
31
330
9
100
AcDbSymbolTableRecord
100
AcDbRegAppTableRecord
  2
ACAD_TEMP_GRAPHIC
 70
     0
  0
APPID
  5
2C2
330
9
100
AcDbSymbolTableRecord
100
AcDbRegAppTableRecord
  2
GENIUS_GENDTOL_13
 70
     0
  0
APPID
  5
339
330
9
100
AcDbSymbolTableRecord
100
AcDbRegAppTableRecord
  2
GENIUS_GENODEF_13
 70
     0
  0
APPID
  5
33A
330
9
100
AcDbSymbolTableRecord
100
AcDbRegAppTableRecord
  2
GENIUS_GENOBJ-N-RSBK_13
 70
     0
  0
APPID
  5
33B
330
9
100
AcDbSymbolTableRecord
100
AcDbRegAppTableRecord
  2
GENIUS_GENOBJ-N-LIB_13
 70
     0
  0
APPID
  5
33C
330
9
100
AcDbSymbolTableRecord
100
AcDbRegAppTableRecord
  2
GENIUS_GENSCALE_13
 70
     0
  0
APPID
  5
378
330
9
100
AcDbSymbolTableRecord
100
AcDbRegAppTableRecord
  2
GENIUS_GENDIMSH_14
 70
     0
  0
APPID
  5
BDB
330
9
100
AcDbSymbolTableRecord
100
AcDbRegAppTableRecord
  2
GENIUS_GENOBJ-N-CEN_13
 70
     0
  0
APPID
  5
BDC
330
9
100
AcDbSymbolTableRecord
100
AcDbRegAppTableRecord
  2
GENIUS_GENFIL_13
 70
     0
  0
APPID
  5
BDD
330
9
100
AcDbSymbolTableRecord
100
AcDbRegAppTableRecord
  2
GENIUS_GENOBJ-N-FIL_13
 70
     0
  0
APPID
  5
12AD
330
9
100
AcDbSymbolTableRecord
100
AcDbRegAppTableRecord
  2
GENIUS_GENOREF_13
 70
     0
  0
ENDTAB
  0
TABLE
  2
DIMSTYLE
  5
A
330
0
100
AcDbSymbolTable
 70
    10
  0
DIMSTYLE
105
58
330
A
100
AcDbSymbolTableRecord
100
AcDbDimStyleTableRecord
  2
AM_JIS
 70
     0
  3

  4
"
  5
OPEN30
  6

  7

 40
1.0
 41
2.5
 42
1.0
 43
12.0
 44
1.0
 45
0.0
 46
0.0
 47
0.1
 48
0.1
140
3.2
141
0.0
142
0.0
143
0.0393701
144
1.0
145
0.0
146
0.71
147
1.5
 71
     0
 72
     0
 73
     0
 74
     0
 75
     0
 76
     0
 77
     3
 78
     8
170
     0
171
     2
172
     1
173
     0
174
     0
175
     0
176
     3
177
     3
178
     2
270
     2
271
     3
272
     3
273
     2
274
     2
340
6B
275
     0
280
     0
281
     0
282
     0
283
     0
284
     0
285
     0
286
     0
287
     3
288
     0
  0
DIMSTYLE
105
5F
330
A
100
AcDbSymbolTableRecord
100
AcDbDimStyleTableRecord
  2
AM_JIS$3
 70
     0
  3

  4
"
  5
OPEN30
  6

  7

 40
1.0
 41
2.5
 42
1.0
 43
10.0
 44
1.0
 45
0.0
 46
0.0
 47
0.1
 48
0.1
140
3.2
141
0.0
142
0.0
143
0.0393701
144
1.0
145
0.0
146
0.71
147
1.5
 71
     0
 72
     0
 73
     0
 74
     1
 75
     0
 76
     0
 77
     3
 78
     8
170
     0
171
     2
172
     0
173
     0
174
     0
175
     0
176
     3
177
     3
178
     2
270
     2
271
     2
272
     3
273
     2
274
     2
340
6B
275
     0
280
     0
281
     0
282
     0
283
     0
284
     0
285
     0
286
     0
287
     0
288
     1
  0
DIMSTYLE
105
60
330
A
100
AcDbSymbolTableRecord
100
AcDbDimStyleTableRecord
  2
AM_JIS$4
 70
     0
  3

  4
"
  5
OPEN30
  6

  7

 40
1.0
 41
2.5
 42
1.0
 43
10.0
 44
1.0
 45
0.0
 46
0.0
 47
0.1
 48
0.1
140
3.2
141
0.0
142
0.0
143
0.0393701
144
1.0
145
0.0
146
0.71
147
1.5
 71
     0
 72
     0
 73
     0
 74
     1
 75
     0
 76
     0
 77
     3
 78
     8
170
     0
171
     2
172
     0
173
     0
174
     0
175
     0
176
     3
177
     3
178
     2
270
     2
271
     2
272
     3
273
     2
274
     2
340
6B
275
     0
280
     0
281
     0
282
     0
283
     0
284
     0
285
     0
286
     0
287
     0
288
     1
  0
DIMSTYLE
105
61
330
A
100
AcDbSymbolTableRecord
100
AcDbDimStyleTableRecord
  2
AM_JIS$6
 70
     0
  3

  4
"
  5
OPEN30
  6

  7

 40
1.0
 41
2.5
 42
1.0
 43
10.0
 44
1.0
 45
0.0
 46
0.0
 47
0.1
 48
0.1
140
3.2
141
0.0
142
0.0
143
0.0393701
144
1.0
145
0.0
146
0.71
147
1.5
 71
     0
 72
     0
 73
     0
 74
     0
 75
     0
 76
     0
 77
     0
 78
     8
170
     0
171
     2
172
     1
173
     0
174
     0
175
     0
176
     3
177
     3
178
     2
270
     2
271
     2
272
     2
273
     2
274
     2
340
6B
275
     0
280
     0
281
     0
282
     0
283
     0
284
     0
285
     0
286
     0
287
     3
288
     0
  0
DIMSTYLE
105
62
330
A
100
AcDbSymbolTableRecord
100
AcDbDimStyleTableRecord
  2
AM_JIS$7
 70
     0
  3

  4
"
  5
OPEN30
  6

  7

 40
1.0
 41
2.5
 42
1.0
 43
10.0
 44
1.0
 45
0.0
 46
0.0
 47
0.1
 48
0.1
140
3.2
141
0.0
142
0.0
143
0.0393701
144
1.0
145
0.0
146
0.71
147
1.5
 71
     0
 72
     0
 73
     0
 74
     0
 75
     0
 76
     0
 77
     3
 78
     8
170
     0
171
     2
172
     1
173
     0
174
     0
175
     0
176
     3
177
     3
178
     2
270
     2
271
     2
272
     3
273
     2
274
     2
340
6B
275
     0
280
     0
281
     0
282
     0
283
     0
284
     0
285
     0
286
     0
287
     3
288
     0
  0
DIMSTYLE
105
63
330
A
100
AcDbSymbolTableRecord
100
AcDbDimStyleTableRecord
  2
AM_JIS$SF
 70
     0
  3

  4
"
  5
OPEN30
  6

  7

 40
1.0
 41
2.5
 42
1.0
 43
10.0
 44
1.0
 45
0.0
 46
0.0
 47
0.1
 48
0.1
140
3.2
141
0.0
142
0.0
143
0.0393701
144
1.0
145
0.0
146
0.71
147
1.5
 71
     0
 72
     0
 73
     0
 74
     0
 75
     1
 76
     1
 77
     3
 78
     8
170
     0
171
     2
172
     1
173
     0
174
     0
175
     0
176
   256
177
   256
178
     2
270
     2
271
     2
272
     2
273
     2
274
     2
340
6B
275
     0
280
     0
281
     0
282
     0
283
     0
284
     0
285
     0
286
     0
287
     3
288
     0
  0
DIMSTYLE
105
68
330
A
100
AcDbSymbolTableRecord
100
AcDbDimStyleTableRecord
  2
AM_JIS$SH
 70
     0
  3

  4
"
  5

  6
GENAXEH
  7
OPEN30
 40
1.0
 41
2.5
 42
1.0
 43
10.0
 44
1.0
 45
0.0
 46
0.0
 47
0.1
 48
0.1
140
3.2
141
0.0
142
0.0
143
0.0393701
144
2.0
145
0.0
146
0.71
147
1.5
 71
     0
 72
     0
 73
     0
 74
     0
 75
     1
 76
     1
 77
     3
 78
     8
170
     0
171
     2
172
     1
173
     1
174
     0
175
     0
176
   256
177
   256
178
     2
270
     2
271
     2
272
     2
273
     2
274
     2
340
6B
275
     0
280
     0
281
     0
282
     0
283
     0
284
     0
285
     0
286
     0
287
     3
288
     0
  0
DIMSTYLE
105
B34
102
{ACAD_REACTORS
330
70FA
102
}
330
A
100
AcDbSymbolTableRecord
100
AcDbDimStyleTableRecord
  2
AM_JIS$2
 70
     0
  3

  4
"
  5
OPEN30
  6

  7

 40
1.0
 41
2.5
 42
1.0
 43
12.0
 44
1.0
 45
0.0
 46
0.0
 47
0.1
 48
0.1
140
3.2
141
0.0
142
0.0
143
0.0393701
144
1.0
145
0.0
146
0.71
147
1.5
 71
     0
 72
     0
 73
     0
 74
     0
 75
     0
 76
     0
 77
     3
 78
     8
170
     0
171
     2
172
     1
173
     0
174
     0
175
     0
176
     3
177
     3
178
     2
270
     2
271
     3
272
     3
273
     2
274
     2
340
6B
275
     0
280
     0
281
     0
282
     0
283
     0
284
     0
285
     0
286
     0
287
     3
288
     0
  0
DIMSTYLE
105
6376
102
{ACAD_REACTORS
330
740A
330
70F9
330
770D
102
}
330
A
100
AcDbSymbolTableRecord
100
AcDbDimStyleTableRecord
  2
AM_JIS$0
 70
     0
  3

  4
"
  5
OPEN30
  6

  7

 40
1.0
 41
2.5
 42
0.0
 43
10.0
 44
1.0
 45
0.0
 46
0.0
 47
0.1
 48
0.1000000001
140
3.799999999999999
141
0.0
142
0.0
143
0.0393701
144
1.0
145
0.0
146
0.71
147
1.5
 71
     0
 72
     0
 73
     0
 74
     0
 75
     0
 76
     0
 77
     3
 78
     9
170
     0
171
     2
172
     1
173
     0
174
     0
175
     0
176
     3
177
     3
178
     2
270
     2
271
     2
272
     2
273
     2
274
     2
340
11
275
     1
280
     0
281
     0
282
     0
283
     0
284
     8
285
     0
286
     0
287
     0
288
     0
  0
DIMSTYLE
105
6377
330
A
100
AcDbSymbolTableRecord
100
AcDbDimStyleTableRecord
  2
AM_JISORG-1P0$2
 70
     0
  3

  4
"
  5
OPEN30
  6

  7

 40
1.0
 41
2.5
 42
0.0
 43
10.0
 44
1.0
 45
0.0
 46
0.0
 47
0.1
 48
0.1000000001
140
3.799999999999999
141
0.0
142
0.0
143
0.0393701
144
-1.000041583175977
145
0.0
146
0.71
147
1.5
 71
     0
 72
     0
 73
     0
 74
     0
 75
     0
 76
     0
 77
     3
 78
     1
170
     0
171
     2
172
     1
173
     0
174
     0
175
     0
176
     3
177
     3
178
     2
270
     2
271
     2
272
     2
273
     2
274
     2
340
11
275
     1
280
     0
281
     0
282
     0
283
     0
284
     8
285
     0
286
     0
287
     0
288
     0
  0
ENDTAB
  0
TABLE
  2
BLOCK_RECORD
  5
1
330
0
100
AcDbSymbolTable
 70
    18
  0
BLOCK_RECORD
  5
1F
102
{ACAD_XDICTIONARY
360
74
102
}
330
1
100
AcDbSymbolTableRecord
100
AcDbBlockTableRecord
  2
*MODEL_SPACE
  0
BLOCK_RECORD
  5
101
102
{ACAD_XDICTIONARY
360
77D6
102
}
330
1
100
AcDbSymbolTableRecord
100
AcDbBlockTableRecord
  2
*PAPER_SPACE
  0
BLOCK_RECORD
  5
59
330
1
100
AcDbSymbolTableRecord
100
AcDbBlockTableRecord
  2
_OPEN30
  0
BLOCK_RECORD
  5
64
330
1
100
AcDbSymbolTableRecord
100
AcDbBlockTableRecord
  2
GENAXEH
  0
BLOCK_RECORD
  5
62FE
330
1
100
AcDbSymbolTableRecord
100
AcDbBlockTableRecord
  2
_NONE
  0
BLOCK_RECORD
  5
67EB
330
1
100
AcDbSymbolTableRecord
100
AcDbBlockTableRecord
  2
_DOTSMALL
  0
BLOCK_RECORD
  5
70FB
330
1
100
AcDbSymbolTableRecord
100
AcDbBlockTableRecord
  2
*D7
  0
BLOCK_RECORD
  5
7109
330
1
100
AcDbSymbolTableRecord
100
AcDbBlockTableRecord
  2
*D8
  0
BLOCK_RECORD
  5
730B
330
1
100
AcDbSymbolTableRecord
100
AcDbBlockTableRecord
  2
*U9
  0
BLOCK_RECORD
  5
730F
330
1
100
AcDbSymbolTableRecord
100
AcDbBlockTableRecord
  2
*U10
  0
BLOCK_RECORD
  5
7415
330
1
100
AcDbSymbolTableRecord
100
AcDbBlockTableRecord
  2
*D11
  0
BLOCK_RECORD
  5
7441
330
1
100
AcDbSymbolTableRecord
100
AcDbBlockTableRecord
  2
*D12
  0
BLOCK_RECORD
  5
744E
330
1
100
AcDbSymbolTableRecord
100
AcDbBlockTableRecord
  2
*D13
  0
BLOCK_RECORD
  5
7465
330
1
100
AcDbSymbolTableRecord
100
AcDbBlockTableRecord
  2
*D14
  0
BLOCK_RECORD
  5
747B
330
1
100
AcDbSymbolTableRecord
100
AcDbBlockTableRecord
  2
*D15
  0
BLOCK_RECORD
  5
7489
330
1
100
AcDbSymbolTableRecord
100
AcDbBlockTableRecord
  2
*D16
  0
BLOCK_RECORD
  5
770E
330
1
100
AcDbSymbolTableRecord
100
AcDbBlockTableRecord
  2
*D17
  0
ENDTAB
  0
ENDSEC
  0
SECTION
  2
BLOCKS
  0
BLOCK
  5
20
330
1F
100
AcDbEntity
  8
0
100
AcDbBlockBegin
  2
*MODEL_SPACE
 70
     0
 10
0.0
 20
0.0
 30
0.0
  3
*MODEL_SPACE
  1

  0
ENDBLK
  5
21
330
1F
100
AcDbEntity
  8
0
100
AcDbBlockEnd
  0
BLOCK
  5
103
330
101
100
AcDbEntity
 67
     1
  8
0
100
AcDbBlockBegin
  2
*PAPER_SPACE
 70
     0
 10
0.0
 20
0.0
 30
0.0
  3
*PAPER_SPACE
  1

  0
ENDBLK
  5
104
330
101
100
AcDbEntity
 67
     1
  8
0
100
AcDbBlockEnd
  0
BLOCK
  5
5D
330
59
100
AcDbEntity
  8
0
100
AcDbBlockBegin
  2
_OPEN30
 70
     0
 10
0.0
 20
0.0
 30
0.0
  3
_OPEN30
  1

  0
LINE
  5
5A
330
59
100
AcDbEntity
  8
0
 62
     0
100
AcDbLine
 10
-1.0
 20
0.26794919
 30
0.0
 11
0.0
 21
0.0
 31
0.0
  0
LINE
  5
5B
330
59
100
AcDbEntity
  8
0
 62
     0
100
AcDbLine
 10
0.0
 20
0.0
 30
0.0
 11
-1.0
 21
-0.26794919
 31
0.0
  0
LINE
  5
5C
330
59
100
AcDbEntity
  8
0
 62
     0
100
AcDbLine
 10
0.0
 20
0.0
 30
0.0
 11
-1.0
 21
0.0
 31
0.0
  0
ENDBLK
  5
5E
330
59
100
AcDbEntity
  8
0
100
AcDbBlockEnd
  0
BLOCK
  5
66
330
64
100
AcDbEntity
  8
0
100
AcDbBlockBegin
  2
GENAXEH
 70
     0
 10
0.0
 20
0.0
 30
0.0
  3
GENAXEH
  1

  0
LINE
  5
65
330
64
100
AcDbEntity
  8
0
100
AcDbLine
 10
-1.0
 20
0.0
 30
0.0
 11
1.0
 21
0.0
 31
0.0
  0
ENDBLK
  5
67
330
64
100
AcDbEntity
  8
0
100
AcDbBlockEnd
  0
BLOCK
  5
62FF
330
62FE
100
AcDbEntity
  8
0
100
AcDbBlockBegin
  2
_NONE
 70
     0
 10
0.0
 20
0.0
 30
0.0
  3
_NONE
  1

  0
ENDBLK
  5
6300
330
62FE
100
AcDbEntity
  8
0
100
AcDbBlockEnd
  0
BLOCK
  5
67ED
330
67EB
100
AcDbEntity
  8
0
100
AcDbBlockBegin
  2
_DOTSMALL
 70
     0
 10
0.0
 20
0.0
 30
0.0
  3
_DOTSMALL
  1

  0
LWPOLYLINE
  5
67EC
330
67EB
100
AcDbEntity
  8
AM_0
 62
     0
100
AcDbPolyline
 90
        2
 70
     1
 43
0.5
 10
-0.0625
 20
0.0
 42
1.0
 10
0.0625
 20
0.0
 42
1.0
  0
ENDBLK
  5
67EE
330
67EB
100
AcDbEntity
  8
0
100
AcDbBlockEnd
  0
BLOCK
  5
7107
330
70FB
100
AcDbEntity
  8
0
100
AcDbBlockBegin
  2
*D7
 70
     1
 10
0.0
 20
0.0
 30
0.0
  3
*D7
  1

  0
LINE
  5
77D8
330
70FB
100
AcDbEntity
  8
AM_5
 62
     3
100
AcDbLine
 10
-4.99530792236402
 20
-75.88772201538091
 30
0.0
 11
27.03563976287794
 21
-75.88772201538091
 31
0.0
  0
LINE
  5
77D9
330
70FB
100
AcDbEntity
  8
AM_5
 62
     3
100
AcDbLine
 10
0.0001248871975577
 20
-65.88772786440063
 30
0.0
 11
27.03563976287795
 21
-65.88772786440063
 31
0.0
  0
LINE
  5
77DA
330
70FB
100
AcDbEntity
  8
AM_5
 62
     3
100
AcDbLine
 10
26.03563976287794
 20
-78.38772201538091
 30
0.0
 11
26.03563976287794
 21
-80.88772201538091
 31
0.0
  0
LINE
  5
77DB
330
70FB
100
AcDbEntity
  8
AM_5
 62
     3
100
AcDbLine
 10
26.03563976287795
 20
-65.88772786440063
 30
0.0
 11
26.03563976287795
 21
-63.38772786440063
 31
0.0
  0
LINE
  5
77DC
330
70FB
100
AcDbEntity
  8
AM_5
 62
     3
100
AcDbLine
 10
26.03563976287794
 20
-75.88772201538091
 30
0.0
 11
26.03563976287795
 21
-65.88772786440063
 31
0.0
  0
INSERT
  5
77DD
330
70FB
100
AcDbEntity
  8
AM_5
 62
     3
100
AcDbBlockReference
  2
_OPEN30
 10
26.03563976287794
 20
-75.88772201538091
 30
0.0
 41
2.5
 42
2.5
 43
2.5
 50
90.0
  0
INSERT
  5
77DE
330
70FB
100
AcDbEntity
  8
AM_5
 62
     3
100
AcDbBlockReference
  2
_DOTSMALL
 10
26.03563976287795
 20
-65.88772786440063
 30
0.0
 41
2.5
 42
2.5
 43
2.5
 50
270.0
  0
MTEXT
  5
77DF
330
70FB
100
AcDbEntity
  8
AM_5
 62
     2
100
AcDbMText
 10
22.63563976287796
 20
-70.88772493989068
 30
0.0
 40
3.799999999999999
 41
0.0
 71
     5
 72
     1
  1
10
 11
0.0000000000000001
 21
1.0
 31
0.0
  0
POINT
  5
77E0
330
70FB
100
AcDbEntity
  8
DEFPOINTS
 62
     0
100
AcDbPoint
 10
-4.99530792236402
 20
-75.88772201538091
 30
0.0
  0
POINT
  5
77E1
330
70FB
100
AcDbEntity
  8
DEFPOINTS
 62
     0
100
AcDbPoint
 10
0.0001248871975577
 20
-65.88772786440063
 30
0.0
  0
POINT
  5
77E2
330
70FB
100
AcDbEntity
  8
DEFPOINTS
 62
     0
100
AcDbPoint
 10
26.03563976287795
 20
-65.88772786440063
 30
0.0
  0
ENDBLK
  5
7108
330
70FB
100
AcDbEntity
  8
0
100
AcDbBlockEnd
  0
BLOCK
  5
7114
330
7109
100
AcDbEntity
  8
0
100
AcDbBlockBegin
  2
*D8
 70
     1
 10
0.0
 20
0.0
 30
0.0
  3
*D8
  1

  0
LINE
  5
77E3
330
7109
100
AcDbEntity
  8
AM_5
 62
     3
100
AcDbLine
 10
20.621868133544
 20
-65.89211654663093
 30
0.0
 11
27.03664071954248
 21
-65.8921165466309
 31
0.0
  0
LINE
  5
77E4
330
7109
100
AcDbEntity
  8
AM_5
 62
     3
100
AcDbLine
 10
0.9996807606678327
 20
-65.86157361336873
 30
0.0
 11
27.02733338651229
 21
-65.18056052054091
 31
0.0
  0
ARC
  5
77E5
330
7109
100
AcDbEntity
  8
AM_5
 62
     3
100
AcDbCircle
 10
-0.1676401990838892
 20
-65.89211654663097
 30
0.0
 40
26.20428091862637
100
AcDbArc
 50
6.96713771860917
 51
12.43547429789741
  0
ARC
  5
77E6
330
7109
100
AcDbEntity
  8
AM_5
 62
     3
100
AcDbCircle
 10
-0.1676401990838892
 20
-65.89211654663097
 30
0.0
 40
26.20428091862637
100
AcDbArc
 50
0.0000000000001145
 51
1.498801139320928
  0
INSERT
  5
77E7
330
7109
100
AcDbEntity
  8
AM_5
 62
     3
100
AcDbBlockReference
  2
_OPEN30
 10
26.02767551402736
 20
-65.20671655194708
 30
0.0
 41
2.5
 42
2.5
 43
2.5
 50
274.232969428965
  0
POINT
  5
77E8
330
7109
100
AcDbEntity
  8
DEFPOINTS
 62
     0
100
AcDbPoint
 10
26.03564453510227
 20
-65.66362671873375
 30
0.0
  0
POINT
  5
77E9
330
7109
100
AcDbEntity
  8
DEFPOINTS
 62
     0
100
AcDbPoint
 10
12.144404411315
 20
-65.89211654663094
 30
0.0
  0
POINT
  5
77EA
330
7109
100
AcDbEntity
  8
DEFPOINTS
 62
     0
100
AcDbPoint
 10
-27.08995819091904
 20
-66.59653854369992
 30
0.0
  0
POINT
  5
77EB
330
7109
100
AcDbEntity
  8
DEFPOINTS
 62
     0
100
AcDbPoint
 10
0.0000228881829117
 20
-65.88772964477493
 30
0.0
  0
POINT
  5
77EC
330
7109
100
AcDbEntity
  8
DEFPOINTS
 62
     0
100
AcDbPoint
 10
19.621868133544
 20
-65.89211654663094
 30
0.0
  0
ENDBLK
  5
7115
330
7109
100
AcDbEntity
  8
0
100
AcDbBlockEnd
  0
BLOCK
  5
730D
330
730B
100
AcDbEntity
  8
0
100
AcDbBlockBegin
  2
*U9
 70
     1
 10
0.0
 20
0.0
 30
0.0
  3
*U9
  1

  0
LEADER
  5
730C
330
730B
100
AcDbEntity
  8
0
  6
CONTINUOUS
 48
0.5
100
AcDbLeader
  3
AM_JIS$7
 76
     2
 10
-90.09840393066401
 20
46.086547851562
 30
0.0
 10
-90.09840393066401
 20
36.086547851562
 30
0.0
1001
ACAD
1000
DSTYLE
1002
{
1070
     6
1000
OPEN30
1070
   173
1070
     1
1070
   176
1070
     0
1070
   341
1005
59
1002
}
  0
ENDBLK
  5
730E
330
730B
100
AcDbEntity
  8
0
100
AcDbBlockEnd
  0
BLOCK
  5
7311
330
730F
100
AcDbEntity
  8
0
100
AcDbBlockBegin
  2
*U10
 70
     1
 10
0.0
 20
0.0
 30
0.0
  3
*U10
  1

  0
LEADER
  5
7310
330
730F
100
AcDbEntity
  8
0
  6
CONTINUOUS
 48
0.5
100
AcDbLeader
  3
AM_JIS$7
 76
     2
 10
-80.09840393066401
 20
36.086547851562
 30
0.0
 10
-90.09840393066401
 20
36.086547851562
 30
0.0
1001
ACAD
1000
DSTYLE
1002
{
1070
     6
1000
OPEN30
1070
   173
1070
     1
1070
   176
1070
     0
1070
   341
1005
59
1002
}
  0
ENDBLK
  5
7312
330
730F
100
AcDbEntity
  8
0
100
AcDbBlockEnd
  0
BLOCK
  5
741E
330
7415
100
AcDbEntity
  8
0
100
AcDbBlockBegin
  2
*D11
 70
     1
 10
0.0
 20
0.0
 30
0.0
  3
*D11
  1

  0
LINE
  5
76E4
330
7415
100
AcDbEntity
  8
AM_5
 62
     3
100
AcDbLine
 10
0.0000228881829117
 20
-64.88772964477494
 30
0.0
 11
0.0000228881829129
 21
-45.35329818725592
 31
0.0
  0
LINE
  5
76E5
330
7415
100
AcDbEntity
  8
AM_5
 62
     3
100
AcDbLine
 10
-119.999977111816
 20
-64.99773025512689
 30
0.0
 11
-119.999977111816
 21
-45.35329818725592
 31
0.0
  0
LINE
  5
76E6
330
7415
100
AcDbEntity
  8
AM_5
 62
     3
100
AcDbLine
 10
-2.499977111817087
 20
-46.35329818725591
 30
0.0
 11
-117.499977111816
 21
-46.35329818725591
 31
0.0
  0
INSERT
  5
76E7
330
7415
100
AcDbEntity
  8
AM_5
 62
     3
100
AcDbBlockReference
  2
_OPEN30
 10
0.0000228881829128
 20
-46.35329818725591
 30
0.0
 41
2.5
 42
2.5
 43
2.5
  0
INSERT
  5
76E8
330
7415
100
AcDbEntity
  8
AM_5
 62
     3
100
AcDbBlockReference
  2
_OPEN30
 10
-119.999977111816
 20
-46.35329818725591
 30
0.0
 41
2.5
 42
2.5
 43
2.5
 50
180.0
  0
MTEXT
  5
76E9
330
7415
100
AcDbEntity
  8
AM_5
 62
     2
100
AcDbMText
 10
-59.99997711181601
 20
-43.25329818725591
 30
0.0
 40
3.2
 41
0.0
 71
     5
 72
     1
  1
120
  7
ASAMI
1001
ACAD
1000
MTEXTBEGIN
1070
    73
1070
     1
1070
    44
1040
1.0
1070
    74
1070
     0
1000
MTEXTEND
  0
POINT
  5
76EA
330
7415
100
AcDbEntity
  8
DEFPOINTS
 62
     0
100
AcDbPoint
 10
0.0000228881829116
 20
-65.88772964477493
 30
0.0
  0
POINT
  5
76EB
330
7415
100
AcDbEntity
  8
DEFPOINTS
 62
     0
100
AcDbPoint
 10
-119.999977111816
 20
-65.99773025512689
 30
0.0
  0
POINT
  5
76EC
330
7415
100
AcDbEntity
  8
DEFPOINTS
 62
     0
100
AcDbPoint
 10
-119.999977111816
 20
-46.35329818725591
 30
0.0
  0
ENDBLK
  5
741F
330
7415
100
AcDbEntity
  8
0
100
AcDbBlockEnd
  0
BLOCK
  5
744C
330
7441
100
AcDbEntity
  8
0
100
AcDbBlockBegin
  2
*D12
 70
     1
 10
0.0
 20
0.0
 30
0.0
  3
*D12
  1

  0
LINE
  5
77ED
330
7441
100
AcDbEntity
  8
PV0001_1
 62
     3
100
AcDbLine
 10
-16.99997711181703
 20
9.999999523162784
 30
0.0
 11
17.94043904220643
 21
9.999999523162776
 31
0.0
  0
LINE
  5
77EE
330
7441
100
AcDbEntity
  8
PV0001_1
 62
     3
100
AcDbLine
 10
1.000022888182911
 20
-0.0000000000000003
 30
0.0
 11
17.94043904220643
 21
-0.0000000000000051
 31
0.0
  0
LINE
  5
77EF
330
7441
100
AcDbEntity
  8
PV0001_1
 62
     3
100
AcDbLine
 10
16.94043904220643
 20
9.999999523162776
 30
0.0
 11
16.94043904220643
 21
12.49999952316277
 31
0.0
  0
LINE
  5
77F0
330
7441
100
AcDbEntity
  8
PV0001_1
 62
     3
100
AcDbLine
 10
16.94043904220643
 20
-2.500000000000004
 30
0.0
 11
16.94043904220643
 21
-5.000000000000004
 31
0.0
  0
LINE
  5
77F1
330
7441
100
AcDbEntity
  8
PV0001_1
 62
     3
100
AcDbLine
 10
16.94043904220643
 20
9.999999523162776
 30
0.0
 11
16.94043904220643
 21
-0.0000000000000048
 31
0.0
  0
INSERT
  5
77F2
330
7441
100
AcDbEntity
  8
PV0001_1
 62
     3
100
AcDbBlockReference
  2
_OPEN30
 10
16.94043904220643
 20
-0.0000000000000048
 30
0.0
 41
2.5
 42
2.5
 43
2.5
 50
90.0
  0
MTEXT
  5
77F3
330
7441
100
AcDbEntity
  8
PV0001_1
 62
     2
100
AcDbMText
 10
13.84043904220643
 20
5.0
 30
0.0
 40
3.2
 41
0.0
 71
     5
 72
     1
  1
10
  7
ASAMI
 11
0.0000000000000001
 21
1.0
 31
0.0
  0
POINT
  5
77F4
330
7441
100
AcDbEntity
  8
DEFPOINTS
 62
     0
100
AcDbPoint
 10
-17.99997711181703
 20
9.999999523162784
 30
0.0
  0
POINT
  5
77F5
330
7441
100
AcDbEntity
  8
DEFPOINTS
 62
     0
100
AcDbPoint
 10
0.0000228881829116
 20
0.0
 30
0.0
  0
POINT
  5
77F6
330
7441
100
AcDbEntity
  8
DEFPOINTS
 62
     0
100
AcDbPoint
 10
16.94043904220643
 20
-0.0000000000000048
 30
0.0
  0
ENDBLK
  5
744D
330
7441
100
AcDbEntity
  8
0
100
AcDbBlockEnd
  0
BLOCK
  5
7458
330
744E
100
AcDbEntity
  8
0
100
AcDbBlockBegin
  2
*D13
 70
     1
 10
0.0
 20
0.0
 30
0.0
  3
*D13
  1

  0
LINE
  5
76BD
330
744E
100
AcDbEntity
  8
PV0001_1
 62
     3
100
AcDbLine
 10
0.0000228881829117
 20
1.0
 30
0.0
 11
0.0000228881829135
 21
29.97487407883488
 31
0.0
  0
LINE
  5
76BE
330
744E
100
AcDbEntity
  8
PV0001_1
 62
     3
100
AcDbLine
 10
-17.99997711181703
 20
11.0
 30
0.0
 11
-17.99997711181703
 21
29.97487407883488
 31
0.0
  0
LINE
  5
76BF
330
744E
100
AcDbEntity
  8
PV0001_1
 62
     3
100
AcDbLine
 10
-2.499977111817086
 20
28.97487407883488
 30
0.0
 11
-15.49997711181703
 21
28.97487407883488
 31
0.0
  0
INSERT
  5
76C0
330
744E
100
AcDbEntity
  8
PV0001_1
 62
     3
100
AcDbBlockReference
  2
_OPEN30
 10
0.0000228881829134
 20
28.97487407883488
 30
0.0
 41
2.5
 42
2.5
 43
2.5
  0
INSERT
  5
76C1
330
744E
100
AcDbEntity
  8
PV0001_1
 62
     3
100
AcDbBlockReference
  2
_OPEN30
 10
-17.99997711181703
 20
28.97487407883488
 30
0.0
 41
2.5
 42
2.5
 43
2.5
 50
180.0
  0
MTEXT
  5
76C2
330
744E
100
AcDbEntity
  8
PV0001_1
 62
     2
100
AcDbMText
 10
-9.026033401489826
 20
32.07487407883489
 30
0.0
 40
3.2
 41
0.0
 71
     5
 72
     1
  1
18
  7
ASAMI
1001
ACAD
1000
MTEXTBEGIN
1070
    73
1070
     1
1070
    44
1040
1.0
1070
    74
1070
     0
1000
MTEXTEND
  0
POINT
  5
76C3
330
744E
100
AcDbEntity
  8
DEFPOINTS
 62
     0
100
AcDbPoint
 10
0.0000228881829116
 20
0.0
 30
0.0
  0
POINT
  5
76C4
330
744E
100
AcDbEntity
  8
DEFPOINTS
 62
     0
100
AcDbPoint
 10
-17.99997711181703
 20
10.0
 30
0.0
  0
POINT
  5
76C5
330
744E
100
AcDbEntity
  8
DEFPOINTS
 62
     0
100
AcDbPoint
 10
-17.99997711181703
 20
28.97487407883488
 30
0.0
  0
ENDBLK
  5
7459
330
744E
100
AcDbEntity
  8
0
100
AcDbBlockEnd
  0
BLOCK
  5
746E
330
7465
100
AcDbEntity
  8
0
100
AcDbBlockBegin
  2
*D14
 70
     1
 10
0.0
 20
0.0
 30
0.0
  3
*D14
  1

  0
LINE
  5
76D0
330
7465
100
AcDbEntity
  8
PV0001_1
 62
     3
100
AcDbLine
 10
-17.99997711181703
 20
-0.8899955749512287
 30
0.0
 11
-17.99997711181703
 21
-23.2447380172415
 31
0.0
  0
LINE
  5
76D1
330
7465
100
AcDbEntity
  8
PV0001_1
 62
     3
100
AcDbLine
 10
0.0000228881829116
 20
-0.9999961853028196
 30
0.0
 11
0.0000228881829102
 21
-23.2447380172415
 31
0.0
  0
LINE
  5
76D2
330
7465
100
AcDbEntity
  8
PV0001_1
 62
     3
100
AcDbLine
 10
-15.49997711181703
 20
-22.2447380172415
 30
0.0
 11
-2.499977111817089
 21
-22.2447380172415
 31
0.0
  0
INSERT
  5
76D3
330
7465
100
AcDbEntity
  8
PV0001_1
 62
     3
100
AcDbBlockReference
  2
_OPEN30
 10
-17.99997711181703
 20
-22.2447380172415
 30
0.0
 41
2.5
 42
2.5
 43
2.5
 50
180.0
  0
INSERT
  5
76D4
330
7465
100
AcDbEntity
  8
PV0001_1
 62
     3
100
AcDbBlockReference
  2
_OPEN30
 10
0.0000228881829103
 20
-22.2447380172415
 30
0.0
 41
2.5
 42
2.5
 43
2.5
  0
MTEXT
  5
76D5
330
7465
100
AcDbEntity
  8
PV0001_1
 62
     2
100
AcDbMText
 10
-8.999977111817031
 20
-19.1447380172415
 30
0.0
 40
3.2
 41
0.0
 71
     5
 72
     1
  1
18
  7
ASAMI
1001
ACAD
1000
MTEXTBEGIN
1070
    73
1070
     1
1070
    44
1040
1.0
1070
    74
1070
     0
1000
MTEXTEND
  0
POINT
  5
76D6
330
7465
100
AcDbEntity
  8
DEFPOINTS
 62
     0
100
AcDbPoint
 10
-17.99997711181703
 20
0.1100044250487713
 30
0.0
  0
POINT
  5
76D7
330
7465
100
AcDbEntity
  8
DEFPOINTS
 62
     0
100
AcDbPoint
 10
0.0000228881829116
 20
0.0000038146971804
 30
0.0
  0
POINT
  5
76D8
330
7465
100
AcDbEntity
  8
DEFPOINTS
 62
     0
100
AcDbPoint
 10
0.0000228881829103
 20
-22.2447380172415
 30
0.0
  0
ENDBLK
  5
746F
330
7465
100
AcDbEntity
  8
0
100
AcDbBlockEnd
  0
BLOCK
  5
7487
330
747B
100
AcDbEntity
  8
0
100
AcDbBlockBegin
  2
*D15
 70
     1
 10
0.0
 20
0.0
 30
0.0
  3
*D15
  1

  0
LINE
  5
7785
330
747B
100
AcDbEntity
  8
PV0001_1
 62
     3
100
AcDbLine
 10
-120.999977111816
 20
-0.0000003896485229
 30
0.0
 11
-139.7605056762689
 21
-0.0000003896485176
 31
0.0
  0
LINE
  5
7786
330
747B
100
AcDbEntity
  8
PV0001_1
 62
     3
100
AcDbLine
 10
-120.999977111816
 20
10.0
 30
0.0
 11
-139.7605056762689
 21
10.0
 31
0.0
  0
LINE
  5
7787
330
747B
100
AcDbEntity
  8
PV0001_1
 62
     3
100
AcDbLine
 10
-138.7605056762689
 20
-2.500000389648517
 30
0.0
 11
-138.7605056762689
 21
-5.000000389648517
 31
0.0
  0
LINE
  5
7788
330
747B
100
AcDbEntity
  8
PV0001_1
 62
     3
100
AcDbLine
 10
-138.7605056762689
 20
12.5
 30
0.0
 11
-138.7605056762689
 21
15.0
 31
0.0
  0
LINE
  5
7789
330
747B
100
AcDbEntity
  8
PV0001_1
 62
     3
100
AcDbLine
 10
-138.7605056762689
 20
-0.0000003896485179
 30
0.0
 11
-138.7605056762689
 21
10.0
 31
0.0
  0
INSERT
  5
778A
330
747B
100
AcDbEntity
  8
PV0001_1
 62
     3
100
AcDbBlockReference
  2
_OPEN30
 10
-138.7605056762689
 20
-0.0000003896485179
 30
0.0
 41
2.5
 42
2.5
 43
2.5
 50
90.0
  0
INSERT
  5
778B
330
747B
100
AcDbEntity
  8
PV0001_1
 62
     3
100
AcDbBlockReference
  2
_OPEN30
 10
-138.7605056762689
 20
10.0
 30
0.0
 41
2.5
 42
2.5
 43
2.5
 50
270.0
  0
MTEXT
  5
778C
330
747B
100
AcDbEntity
  8
PV0001_1
 62
     2
100
AcDbMText
 10
-141.8605056762689
 20
5.055000305175722
 30
0.0
 40
3.2
 41
0.0
 71
     5
 72
     1
  1
10
  7
ASAMI
 11
0.0000000000000001
 21
1.0
 31
0.0
1001
ACAD
1000
MTEXTBEGIN
1070
    73
1070
     1
1070
    44
1040
1.0
1070
    74
1070
     0
1000
MTEXTEND
  0
POINT
  5
778D
330
747B
100
AcDbEntity
  8
DEFPOINTS
 62
     0
100
AcDbPoint
 10
-119.999977111816
 20
-0.0000003896485232
 30
0.0
  0
POINT
  5
778E
330
747B
100
AcDbEntity
  8
DEFPOINTS
 62
     0
100
AcDbPoint
 10
-119.999977111816
 20
10.0
 30
0.0
  0
POINT
  5
778F
330
747B
100
AcDbEntity
  8
DEFPOINTS
 62
     0
100
AcDbPoint
 10
-138.7605056762689
 20
10.0
 30
0.0
  0
ENDBLK
  5
7488
330
747B
100
AcDbEntity
  8
0
100
AcDbBlockEnd
  0
BLOCK
  5
7495
330
7489
100
AcDbEntity
  8
0
100
AcDbBlockBegin
  2
*D16
 70
     1
 10
0.0
 20
0.0
 30
0.0
  3
*D16
  1

  0
LINE
  5
77F7
330
7489
100
AcDbEntity
  8
AM_5
 62
     3
100
AcDbLine
 10
-119.999977111816
 20
-65.99773025512689
 30
0.0
 11
-139.7605056762689
 21
-65.99773025512689
 31
0.0
  0
LINE
  5
77F8
330
7489
100
AcDbEntity
  8
AM_5
 62
     3
100
AcDbLine
 10
-119.999977111816
 20
-75.88772201538091
 30
0.0
 11
-139.7605056762689
 21
-75.88772201538091
 31
0.0
  0
LINE
  5
77F9
330
7489
100
AcDbEntity
  8
AM_5
 62
     3
100
AcDbLine
 10
-138.7605056762689
 20
-63.49773025512689
 30
0.0
 11
-138.7605056762689
 21
-60.99773025512689
 31
0.0
  0
LINE
  5
77FA
330
7489
100
AcDbEntity
  8
AM_5
 62
     3
100
AcDbLine
 10
-138.7605056762689
 20
-78.38772201538091
 30
0.0
 11
-138.7605056762689
 21
-80.88772201538091
 31
0.0
  0
LINE
  5
77FB
330
7489
100
AcDbEntity
  8
AM_5
 62
     3
100
AcDbLine
 10
-138.7605056762689
 20
-65.99773025512689
 30
0.0
 11
-138.7605056762689
 21
-75.88772201538091
 31
0.0
  0
INSERT
  5
77FC
330
7489
100
AcDbEntity
  8
AM_5
 62
     3
100
AcDbBlockReference
  2
_OPEN30
 10
-138.7605056762689
 20
-65.99773025512689
 30
0.0
 41
2.5
 42
2.5
 43
2.5
 50
270.0
  0
INSERT
  5
77FD
330
7489
100
AcDbEntity
  8
AM_5
 62
     3
100
AcDbBlockReference
  2
_OPEN30
 10
-138.7605056762689
 20
-75.88772201538091
 30
0.0
 41
2.5
 42
2.5
 43
2.5
 50
90.0
  0
MTEXT
  5
77FE
330
7489
100
AcDbEntity
  8
AM_5
 62
     2
100
AcDbMText
 10
-142.1605056762689
 20
-70.9427223205559
 30
0.0
 40
3.799999999999999
 41
0.0
 71
     5
 72
     1
  1
10
 11
0.0000000000000001
 21
1.0
 31
0.0
  0
POINT
  5
77FF
330
7489
100
AcDbEntity
  8
DEFPOINTS
 62
     0
100
AcDbPoint
 10
-119.999977111816
 20
-65.99773025512689
 30
0.0
  0
POINT
  5
7800
330
7489
100
AcDbEntity
  8
DEFPOINTS
 62
     0
100
AcDbPoint
 10
-119.999977111816
 20
-75.88772201538091
 30
0.0
  0
POINT
  5
7801
330
7489
100
AcDbEntity
  8
DEFPOINTS
 62
     0
100
AcDbPoint
 10
-138.7605056762689
 20
-75.88772201538091
 30
0.0
  0
ENDBLK
  5
7496
330
7489
100
AcDbEntity
  8
0
100
AcDbBlockEnd
  0
BLOCK
  5
771A
330
770E
100
AcDbEntity
  8
0
100
AcDbBlockBegin
  2
*D17
 70
     1
 10
0.0
 20
0.0
 30
0.0
  3
*D17
  1

  0
LINE
  5
7802
330
770E
100
AcDbEntity
  8
AM_5
 62
     3
100
AcDbLine
 10
-17.99997711181703
 20
9.999999523162784
 30
0.0
 11
17.94043904220643
 21
9.999999523162776
 31
0.0
  0
LINE
  5
7803
330
770E
100
AcDbEntity
  8
AM_5
 62
     3
100
AcDbLine
 10
-7.912521362305028
 20
12.0
 30
0.0
 11
17.94043904220643
 21
11.99999999999999
 31
0.0
  0
LINE
  5
7804
330
770E
100
AcDbEntity
  8
AM_5
 62
     3
100
AcDbLine
 10
16.94043904220643
 20
9.999999523162776
 30
0.0
 11
16.94043904220643
 21
7.499999523162776
 31
0.0
  0
LINE
  5
7805
330
770E
100
AcDbEntity
  8
AM_5
 62
     3
100
AcDbLine
 10
16.94043904220643
 20
14.49999999999999
 30
0.0
 11
16.94043904220643
 21
22.53333333333332
 31
0.0
  0
LINE
  5
7806
330
770E
100
AcDbEntity
  8
AM_5
 62
     3
100
AcDbLine
 10
16.94043904220643
 20
9.999999523162776
 30
0.0
 11
16.94043904220643
 21
11.99999999999999
 31
0.0
  0
INSERT
  5
7807
330
770E
100
AcDbEntity
  8
AM_5
 62
     3
100
AcDbBlockReference
  2
_DOTSMALL
 10
16.94043904220643
 20
9.999999523162776
 30
0.0
 41
2.5
 42
2.5
 43
2.5
 50
90.0
  0
INSERT
  5
7808
330
770E
100
AcDbEntity
  8
AM_5
 62
     3
100
AcDbBlockReference
  2
_OPEN30
 10
16.94043904220643
 20
11.99999999999999
 30
0.0
 41
2.5
 42
2.5
 43
2.5
 50
270.0
  0
MTEXT
  5
7809
330
770E
100
AcDbEntity
  8
AM_5
 62
     2
100
AcDbMText
 10
13.54043904220643
 20
19.76666666666666
 30
0.0
 40
3.799999999999999
 41
0.0
 71
     5
 72
     1
  1
2
 11
0.0000000000000001
 21
1.0
 31
0.0
  0
POINT
  5
780A
330
770E
100
AcDbEntity
  8
DEFPOINTS
 62
     0
100
AcDbPoint
 10
-17.99997711181703
 20
9.999999523162784
 30
0.0
  0
POINT
  5
780B
330
770E
100
AcDbEntity
  8
DEFPOINTS
 62
     0
100
AcDbPoint
 10
-7.912521362305028
 20
12.0
 30
0.0
  0
POINT
  5
780C
330
770E
100
AcDbEntity
  8
DEFPOINTS
 62
     0
100
AcDbPoint
 10
16.94043904220643
 20
11.99999999999999
 30
0.0
  0
ENDBLK
  5
771B
330
770E
100
AcDbEntity
  8
0
100
AcDbBlockEnd
  0
ENDSEC
  0
SECTION
  2
ENTITIES
  0
TEXT
  5
C58
330
1F
100
AcDbEntity
  8
AM_6
100
AcDbText
 10
-94.21359563554622
 20
-97.49491608580264
 30
0.0
 40
4.0
  1
使用チップ：CTR161500N
 50
0.0000000000002036
 72
     4
 11
-62.0993099212605
 21
-95.49491608580252
 31
0.0
100
AcDbText
  0
MTEXT
  5
6574
330
1F
100
AcDbEntity
  8
AM_5
 62
     2
100
AcDbMText
 10
22.82713154535929
 20
-63.54282429007034
 30
0.0
 40
3.2
 41
0.0
 71
     4
 72
     5
  1
\T1.4;\W0.59;1°30'
 11
-0.0174524064372832
 21
0.9998476951563912
 31
0.0
1001
ACAD
1000
MTEXTBEGIN
1070
    73
1070
     1
1070
    44
1040
1.0
1070
    74
1070
     0
1000
MTEXTEND
  0
TEXT
  5
6B28
330
1F
100
AcDbEntity
  8
AM_6
100
AcDbText
 10
-86.74216706411762
 20
-105.4692975476088
 30
0.0
 40
5.0
  1
SCTR1010-16
 50
0.0000000000002036
 72
     4
 11
-62.0993099212605
 21
-102.9692975476087
 31
0.0
100
AcDbText
  0
DIMENSION
  5
70F9
330
1F
100
AcDbEntity
  8
AM_5
100
AcDbDimension
  2
*D7
 10
26.03563976287795
 20
-65.88772786440063
 30
0.0
 11
26.03563976287796
 21
-70.88772493989068
 31
0.0
 70
   160
  1
<>
  3
AM_JIS$0
100
AcDbAlignedDimension
 13
-4.99530792236402
 23
-75.88772201538091
 33
0.0
 14
0.0001248871975577
 24
-65.88772786440063
 34
0.0
 50
270.0
100
AcDbRotatedDimension
1001
ACAD
1000
DSTYLE
1002
{
1070
   173
1070
     1
1070
     5
1000

1070
     6
1000
OPEN30
1070
     7
1000
DOTSMALL
1002
}
  0
DIMENSION
  5
70FA
330
1F
100
AcDbEntity
  8
AM_5
100
AcDbDimension
  2
*D8
 10
19.62186813354401
 20
-65.89211654663094
 30
0.0
 11
65.99853384011253
 21
25.17459416099744
 31
0.0
 70
    34
  1
 
  3
AM_JIS$2
100
AcDb2LineAngularDimension
 13
-27.08995819091905
 23
-66.59653854369992
 33
0.0
 14
0.0000228881829116
 24
-65.88772964477493
 34
0.0
 15
12.144404411315
 25
-65.89211654663094
 35
0.0
 16
26.03564453510227
 26
-65.66362671873375
 36
0.0
1001
ACAD
1000
DSTYLE
1002
{
1070
   271
1070
     0
1070
   281
1070
     1
1070
   282
1070
     0
1070
    76
1070
     0
1070
     7
1000
OPEN30
1070
     5
1000

1070
   173
1070
     1
1070
     6
1000
NONE
1002
}
  0
LINE
  5
7396
330
1F
100
AcDbEntity
  8
AM_0
100
AcDbLine
 10
-17.99538088285021
 20
-0.0000003896485232
 30
0.0
 11
-119.999977111816
 21
-0.0000003896485232
 31
0.0
  0
LINE
  5
7397
330
1F
100
AcDbEntity
  8
AM_0
100
AcDbLine
 10
-17.99997711181703
 20
10.0
 30
0.0
 11
-119.999977111816
 21
10.0
 31
0.0
  0
LINE
  5
7398
330
1F
100
AcDbEntity
  8
AM_0
100
AcDbLine
 10
-25.12286376953204
 20
-65.99773025512689
 30
0.0
 11
-119.999977111816
 21
-65.99773025512689
 31
0.0
  0
LINE
  5
7399
330
1F
100
AcDbEntity
  8
AM_0
100
AcDbLine
 10
-4.99530792236402
 20
-75.88772201538091
 30
0.0
 11
-119.999977111816
 21
-75.88772201538091
 31
0.0
  0
DIMENSION
  5
739A
330
1F
100
AcDbEntity
  8
AM_5
100
AcDbDimension
  2
*D11
 10
-119.999977111816
 20
-46.35329818725591
 30
0.0
 11
-59.99997711181601
 21
-46.35329818725591
 31
0.0
 70
   160
  1
<>
  3
AM_JIS
100
AcDbAlignedDimension
 13
0.0000228881829116
 23
-65.88772964477493
 33
0.0
 14
-119.999977111816
 24
-65.99773025512689
 34
0.0
 50
180.0
100
AcDbRotatedDimension
  0
LINE
  5
739E
330
1F
100
AcDbEntity
  8
AM_0
 48
0.5
100
AcDbLine
 10
-0.1041526794440415
 20
0.8484978675841716
 30
0.0
 11
-7.912521362305028
 21
12.0
 31
0.0
  0
LINE
  5
739F
330
1F
100
AcDbEntity
  8
AM_0
 48
0.5
100
AcDbLine
 10
-25.12093847627705
 20
0.0000331172873622
 30
0.0
 11
-25.295492172242
 21
10.0
 31
0.0
  0
LINE
  5
73A0
330
1F
100
AcDbEntity
  8
AM_0
 48
0.5
100
AcDbLine
 10
-24.79998016357501
 20
-0.0000003896485232
 30
0.0
 11
-24.79998016357501
 21
10.0
 31
0.0
  0
LINE
  5
73A1
330
1F
100
AcDbEntity
  8
AM_0
 48
0.5
100
AcDbLine
 10
-17.99538088285021
 20
-0.0000003896485232
 30
0.0
 11
-21.196058273316
 21
4.571039497852268
 31
0.0
  0
DIMENSION
  5
73A6
330
1F
100
AcDbEntity
  8
PV0001_1
100
AcDbDimension
  2
*D12
 10
16.94043904220643
 20
-0.0000000000000048
 30
0.0
 11
16.94043904220643
 21
5.0
 31
0.0
 70
   160
  1
<>
  3
AM_JIS
100
AcDbAlignedDimension
 13
-17.99997711181703
 23
9.999999523162784
 33
0.0
 14
0.0000228881829116
 24
0.0
 34
0.0
 50
270.0
100
AcDbRotatedDimension
1001
ACAD
1000
DSTYLE
1002
{
1070
     7
1000
OPEN30
1070
     5
1000

1070
   173
1070
     1
1070
     6
1000
NONE
1002
}
  0
ARC
  5
73A9
330
1F
100
AcDbEntity
  8
AM_0
 48
0.5
100
AcDbCircle
 10
-9.299983978272052
 20
10.10000610351556
 30
0.0
 40
3.200000047683699
100
AcDbArc
 50
235.000029989637
 51
305.0000160004529
  0
LINE
  5
73AB
330
1F
100
AcDbEntity
  8
AM_0
 48
0.5
100
AcDbLine
 10
-7.912521362305028
 20
12.0
 30
0.0
 11
-16.84527587890704
 21
12.0
 31
0.0
  0
LINE
  5
73AC
330
1F
100
AcDbEntity
  8
AM_0
 48
0.5
100
AcDbLine
 10
-4.99530792236402
 20
7.833770751953068
 30
0.0
 11
-19.911302566529
 21
7.833770751953068
 31
0.0
  0
DIMENSION
  5
73AD
330
1F
100
AcDbEntity
  8
PV0001_1
100
AcDbDimension
  2
*D13
 10
-17.99997711181703
 20
28.97487407883488
 30
0.0
 11
-9.026033401489826
 21
28.97487407883488
 31
0.0
 70
   160
  1
<>
  3
AM_JIS
100
AcDbAlignedDimension
 13
0.0000228881829116
 23
0.0
 33
0.0
 14
-17.99997711181703
 24
10.0
 34
0.0
 50
180.0
100
AcDbRotatedDimension
  0
LINE
  5
73B7
330
1F
100
AcDbEntity
  8
AM_0
 48
0.5
100
AcDbLine
 10
-6.957462310791015
 20
7.833778142928991
 30
0.0
 11
-7.464534759522052
 21
7.478721380233679
 31
0.0
  0
LINE
  5
73B8
330
1F
100
AcDbEntity
  8
AM_0
 48
0.5
100
AcDbLine
 10
-16.84527587890704
 20
12.0000004768371
 30
0.0
 11
-17.99997711181703
 21
9.999999523162784
 31
0.0
  0
LINE
  5
73BA
330
1F
100
AcDbEntity
  8
AM_0
 48
0.5
100
AcDbLine
 10
-11.64249801635799
 20
7.833775043487491
 30
0.0
 11
-11.135423660279
 21
7.478718519210787
 31
0.0
  0
ARC
  5
73BB
330
1F
100
AcDbEntity
  8
AM_0
 48
0.5
100
AcDbCircle
 10
-22.34998893737804
 20
7.040037155151281
 30
0.0
 40
1.75
100
AcDbArc
 50
64.9999956614696
 51
244.6230698508887
  0
ARC
  5
73BC
330
1F
100
AcDbEntity
  8
AM_0
 48
0.5
100
AcDbCircle
 10
-22.625595092774
 20
9.228057861328068
 30
0.0
 40
1.6000000238419
100
AcDbArc
 50
252.7529347369244
 51
309.8668399727922
  0
LINE
  5
73BD
330
1F
100
AcDbEntity
  8
AM_0
 48
0.5
100
AcDbLine
 10
-21.196058273316
 20
4.571039944887075
 30
0.0
 11
-23.08956909179698
 21
5.453998565673771
 31
0.0
  0
LINE
  5
73BE
330
1F
100
AcDbEntity
  8
AM_0
 48
0.5
100
AcDbLine
 10
-21.497367858887
 20
4.711542189121189
 30
0.0
 11
-22.99579429626498
 21
6.851516723632784
 31
0.0
  0
LINE
  5
73BF
330
1F
100
AcDbEntity
  8
AM_0
 48
0.5
100
AcDbLine
 10
-19.91130447387701
 20
7.833771467208777
 30
0.0
 11
-21.61040687561103
 21
8.626075744628877
 31
0.0
  0
LINE
  5
73C0
330
1F
100
AcDbEntity
  8
AM_0
 48
0.5
100
AcDbLine
 10
-20.26778221130405
 20
8.0
 30
0.0
 11
-21.59998703003003
 21
8.0
 31
0.0
  0
LINE
  5
73C1
330
1F
100
AcDbEntity
  8
AM_0
 48
0.5
100
AcDbLine
 10
-22.99580574035701
 20
6.851507902145272
 30
0.0
 11
-23.09998893737804
 21
7.700001955032291
 31
0.0
  0
LINE
  5
73C4
330
1F
100
AcDbEntity
  8
AM_1
100
AcDbLine
 10
0.0000228881829116
 20
-65.88772964477493
 30
0.0
 11
0.0000228881829116
 21
0.0000038146971804
 31
0.0
  0
ARC
  5
73C5
330
1F
100
AcDbEntity
  8
AM_0
 48
0.5
100
AcDbCircle
 10
-13.799976348877
 20
-2.399993896484431
 30
0.0
 40
2.9000000953674
100
AcDbArc
 50
223.6028177556191
 51
31.14738883188514
  0
LINE
  5
73C6
330
1F
100
AcDbEntity
  8
AM_0
 48
0.5
100
AcDbLine
 10
-1.499977111817088
 20
-0.2999954223633097
 30
0.0
 11
-11.94795227050803
 21
-0.2999954223633097
 31
0.0
  0
DIMENSION
  5
73C7
330
1F
100
AcDbEntity
  8
PV0001_1
100
AcDbDimension
  2
*D14
 10
0.0000228881829103
 20
-22.2447380172415
 30
0.0
 11
-8.999977111817031
 21
-22.2447380172415
 31
0.0
 70
   160
  1
<>
  3
AM_JIS
100
AcDbAlignedDimension
 13
-17.99997711181703
 23
0.1100044250487713
 33
0.0
 14
0.0000228881829116
 24
0.0000038146971804
 34
0.0
 50
180.0
100
AcDbRotatedDimension
  0
ARC
  5
73C9
330
1F
100
AcDbEntity
  8
AM_0
 48
0.5
100
AcDbCircle
 10
-0.474365234375
 20
-1.528053283691406
 30
0.0
 40
1.6000000238419
100
AcDbArc
 50
72.75292972797368
 51
129.8669579072397
  0
LINE
  5
73CA
330
1F
100
AcDbEntity
  8
AM_0
 48
0.5
100
AcDbLine
 10
0.0
 20
0.0
 30
0.0
 11
-0.1041793823250146
 21
0.8484902381896972
 31
0.0
  0
LINE
  5
73CB
330
1F
100
AcDbEntity
  8
AM_0
 48
0.5
100
AcDbLine
 10
-17.98825454712005
 20
-0.2999897003174112
 30
0.0
 11
-18.19830993494872
 21
-0.0000003896485232
 31
0.0
  0
CIRCLE
  5
73CE
330
1F
100
AcDbEntity
  8
AM_0
 48
0.5
100
AcDbCircle
 10
-13.799976348877
 20
-2.399993896484431
 30
0.0
 40
2.0
  0
CIRCLE
  5
73CF
330
1F
100
AcDbEntity
  8
AM_0
 48
0.5
100
AcDbCircle
 10
-13.799976348877
 20
-2.399993896484431
 30
0.0
 40
2.7999999523163
  0
LINE
  5
73D0
330
1F
100
AcDbEntity
  8
AM_0
 48
0.5
100
AcDbLine
 10
-16.36280822754002
 20
-5.999997138976908
 30
0.0
 11
-17.89011955261304
 21
-0.2999982833863157
 31
0.0
  0
LINE
  5
73D1
330
1F
100
AcDbEntity
  8
AM_0
 48
0.5
100
AcDbLine
 10
-9.999977111817031
 20
-0.4988451004029173
 30
0.0
 11
-10.96997833252004
 21
-5.999994277953931
 31
0.0
  0
ARC
  5
73D2
330
1F
100
AcDbEntity
  8
AM_0
 48
0.5
100
AcDbCircle
 10
-13.799976348877
 20
-2.399993896484431
 30
0.0
 40
3.200000047683699
100
AcDbArc
 50
55.0000249806794
 51
125.0000144065922
  0
LINE
  5
73DA
330
1F
100
AcDbEntity
  8
AM_0
 48
0.5
100
AcDbLine
 10
-9.999977111817031
 20
-0.4988441467286294
 30
0.0
 11
-9.999977111817031
 21
-0.2999954223633097
 31
0.0
  0
LINE
  5
73DB
330
1F
100
AcDbEntity
  8
AM_0
 48
0.5
100
AcDbLine
 10
-11.220064163208
 20
-0.3000087738038246
 30
0.0
 11
-11.96454238891601
 21
0.2212805747984703
 31
0.0
  0
LINE
  5
73DC
330
1F
100
AcDbEntity
  8
AM_0
 48
0.5
100
AcDbLine
 10
-10.07070922851602
 20
-0.8999938964844318
 30
0.0
 11
-11.31804275512701
 21
-0.8999938964844318
 31
0.0
  0
LINE
  5
73E1
330
1F
100
AcDbEntity
  8
AM_0
 48
0.5
100
AcDbLine
 10
-15.652000427247
 20
-0.2999954223633097
 30
0.0
 11
-17.98825836181703
 21
-0.2999954223633097
 31
0.0
  0
LINE
  5
73E2
330
1F
100
AcDbEntity
  8
AM_0
 48
0.5
100
AcDbLine
 10
-16.37989425659202
 20
-0.2999906539916992
 30
0.0
 11
-15.63542175293003
 21
0.2212946414946941
 31
0.0
  0
LINE
  5
73E9
330
1F
100
AcDbEntity
  8
AM_0
 48
0.5
100
AcDbLine
 10
-10.96997833252004
 20
-5.99999618530191
 30
0.0
 11
-16.36280822754002
 21
-5.99999618530191
 31
0.0
  0
LINE
  5
73ED
330
1F
100
AcDbEntity
  8
AM_0
 48
0.5
100
AcDbLine
 10
-15.89997863769599
 20
-4.399993896484431
 30
0.0
 11
-16.79152679443404
 21
-4.399993896484431
 31
0.0
  0
LINE
  5
73EE
330
1F
100
AcDbEntity
  8
AM_0
 48
0.5
100
AcDbLine
 10
-9.33280944824304
 20
-65.99773025512693
 30
0.0
 11
-16.79152679443404
 21
-65.99773025512689
 31
0.0
  0
LINE
  5
73EF
330
1F
100
AcDbEntity
  8
AM_0
 48
0.5
100
AcDbLine
 10
0.0000228881829116
 20
-67.38774490356394
 30
0.0
 11
-9.33280944824304
 21
-67.22483444213793
 31
0.0
  0
LINE
  5
73F0
330
1F
100
AcDbEntity
  8
AM_0
 48
0.5
100
AcDbLine
 10
0.0000228881829116
 20
-65.88772964477493
 30
0.0
 11
-9.332805633545035
 21
-66.05063247680593
 31
0.0
  0
LINE
  5
73F1
330
1F
100
AcDbEntity
  8
AM_0
 48
0.5
100
AcDbLine
 10
-1.499977111817088
 20
-67.36154556274391
 30
0.0
 11
-1.499977111817088
 21
-65.91390609741194
 31
0.0
  0
LINE
  5
73F2
330
1F
100
AcDbEntity
  8
AM_0
 48
0.5
100
AcDbLine
 10
0.0000228881829116
 20
-67.38772964477494
 30
0.0
 11
0.0000228881829116
 21
-65.88772964477493
 31
0.0
  0
LINE
  5
73F3
330
1F
100
AcDbEntity
  8
AM_0
 48
0.5
100
AcDbLine
 10
-4.99530792236402
 20
-75.88772201538091
 30
0.0
 11
-4.99530792236402
 21
-68.47529983520494
 31
0.0
  0
LINE
  5
73F4
330
1F
100
AcDbEntity
  8
AM_0
 48
0.5
100
AcDbLine
 10
-9.33280944824304
 20
-75.88772201538091
 30
0.0
 11
-9.33280944824304
 21
-65.99773025512693
 31
0.0
  0
LINE
  5
73F5
330
1F
100
AcDbEntity
  8
AM_0
 48
0.5
100
AcDbLine
 10
-7.999977111817031
 20
-75.88772201538091
 30
0.0
 11
-7.999977111817031
 21
-68.52774429321295
 31
0.0
  0
LINE
  5
73F6
330
1F
100
AcDbEntity
  8
AM_0
 48
0.5
100
AcDbLine
 10
-4.99530792236402
 20
-68.47531509399392
 30
0.0
 11
-9.332805633545035
 21
-68.55102920532193
 31
0.0
  0
ARC
  5
73F7
330
1F
100
AcDbEntity
  8
AM_0
 48
0.5
100
AcDbCircle
 10
-4.680088043213004
 20
-67.60608291625891
 30
0.0
 40
0.3000000119209
100
AcDbArc
 50
88.99963432930164
 51
178.9996424900318
  0
LINE
  5
73F8
330
1F
100
AcDbEntity
  8
AM_0
 48
0.5
100
AcDbLine
 10
-4.995304107666015
 20
-68.47529983520494
 30
0.0
 11
-4.980037689209041
 21
-67.60084915161093
 31
0.0
  0
LINE
  5
73F9
330
1F
100
AcDbEntity
  8
AM_0
 48
0.5
100
AcDbLine
 10
-16.80024719238303
 20
-68.18130111694291
 30
0.0
 11
-18.53742980957099
 21
-68.21162033080992
 31
0.0
  0
LINE
  5
73FA
330
1F
100
AcDbEntity
  8
AM_0
 48
0.5
100
AcDbLine
 10
-16.79152488708501
 20
-68.68122482299793
 30
0.0
 11
-18.52870178222701
 21
-68.71154403686492
 31
0.0
  0
LINE
  5
73FB
330
1F
100
AcDbEntity
  8
AM_0
 48
0.5
100
AcDbLine
 10
-16.79152297973701
 20
-66.18082809448191
 30
0.0
 11
-24.79998207092302
 21
-66.32061386108393
 31
0.0
  0
LINE
  5
73FC
330
1F
100
AcDbEntity
  8
AM_0
 48
0.5
100
AcDbLine
 10
-10.96997833252004
 20
-75.88772201538091
 30
0.0
 11
-10.96997833252004
 21
-65.99773025512689
 31
0.0
  0
LINE
  5
73FD
330
1F
100
AcDbEntity
  8
AM_0
 48
0.5
100
AcDbLine
 10
-16.36280822754002
 20
-75.88772201538091
 30
0.0
 11
-16.36280822754002
 21
-65.99773025512689
 31
0.0
  0
LINE
  5
73FE
330
1F
100
AcDbEntity
  8
AM_0
 48
0.5
100
AcDbLine
 10
-17.99997711181703
 20
-75.88772201538091
 30
0.0
 11
-17.99997711181703
 21
-68.7022972106929
 31
0.0
  0
LINE
  5
73FF
330
1F
100
AcDbEntity
  8
AM_0
 48
0.5
100
AcDbLine
 10
-16.79152679443404
 20
-68.68120193481392
 30
0.0
 11
-16.79152679443404
 21
-65.99773025512689
 31
0.0
  0
LINE
  5
7400
330
1F
100
AcDbEntity
  8
AM_0
 48
0.5
100
AcDbLine
 10
-18.23895072937102
 20
-68.70647048950189
 30
0.0
 11
-18.24767684936603
 21
-68.20654678344692
 31
0.0
  0
LINE
  5
7401
330
1F
100
AcDbEntity
  8
AM_0
 48
0.5
100
AcDbLine
 10
-18.52869987487804
 20
-68.71152877807592
 30
0.0
 11
-18.54266166687102
 21
-67.91164779663091
 31
0.0
  0
LINE
  5
7402
330
1F
100
AcDbEntity
  8
AM_0
 48
0.5
100
AcDbLine
 10
-18.24768829345703
 20
-68.20654678344692
 30
0.0
 11
-18.07241630554199
 21
-66.20318222045892
 31
0.0
  0
LINE
  5
7403
330
1F
100
AcDbEntity
  8
AM_0
 48
0.5
100
AcDbLine
 10
-18.22138786316003
 20
-67.90604782104492
 30
0.0
 11
-18.54266738891601
 21
-67.91165542602493
 31
0.0
  0
LINE
  5
7404
330
1F
100
AcDbEntity
  8
AM_0
 48
0.5
100
AcDbLine
 10
-24.79998397827205
 20
-66.32061386108393
 30
0.0
 11
-25.122869491578
 21
-65.99773025512689
 31
0.0
  0
LINE
  5
7406
330
1F
100
AcDbEntity
  8
AM_0
 48
0.5
100
AcDbLine
 10
-119.999977111816
 20
0.1100044250487713
 30
0.0
 11
-119.999977111816
 21
10.00000381469718
 31
0.0
  0
DIMENSION
  5
7407
330
1F
100
AcDbEntity
  8
PV0001_1
100
AcDbDimension
  2
*D15
 10
-138.7605056762689
 20
10.0
 30
0.0
 11
-138.7605056762689
 21
5.055000305175722
 31
0.0
 70
   160
  1
<>
  3
AM_JIS
100
AcDbAlignedDimension
 13
-119.999977111816
 23
-0.0000003896485232
 33
0.0
 14
-119.999977111816
 24
10.0
 34
0.0
 50
270.0
100
AcDbRotatedDimension
1001
ACAD
1000
DSTYLE
1002
{
1070
   271
1070
     6
1002
}
  0
DIMENSION
  5
740A
330
1F
100
AcDbEntity
  8
AM_5
100
AcDbDimension
  2
*D16
 10
-138.7605056762689
 20
-75.88772201538091
 30
0.0
 11
-138.7605056762689
 21
-70.9427223205559
 31
0.0
 70
   160
  1
<>
  3
AM_JIS$0
100
AcDbAlignedDimension
 13
-119.999977111816
 23
-65.99773025512689
 33
0.0
 14
-119.999977111816
 24
-75.88772201538091
 34
0.0
 50
270.0
100
AcDbRotatedDimension
1001
ACAD
1000
DSTYLE
1002
{
1070
   284
1070
     8
1070
   271
1070
     0
1070
    45
1040
0.1
1070
   173
1070
     1
1070
     6
1000
OPEN30
1070
     7
1000
OPEN30
1002
}
  0
LINE
  5
740B
330
1F
100
AcDbEntity
  8
AM_0
 48
0.5
100
AcDbLine
 10
-119.999977111816
 20
-75.88772201538091
 30
0.0
 11
-119.999977111816
 21
-65.99773025512689
 31
0.0
  0
INSERT
  5
740D
330
1F
100
AcDbEntity
  8
PV0001_1
100
AcDbBlockReference
  2
*U10
 10
-38.51353126187404
 20
-26.4654595835907
 30
0.0
 50
180.0
  0
INSERT
  5
740E
330
1F
100
AcDbEntity
  8
PV0001_1
100
AcDbBlockReference
  2
*U9
 10
-38.51353126187404
 20
-26.4654595835907
 30
0.0
 50
180.0
  0
MTEXT
  5
740F
330
1F
100
AcDbEntity
  8
PV0001_1
 62
     2
100
AcDbMText
 10
36.21404899638469
 20
-62.33189387272455
 30
0.0
 40
3.479999999999999
 41
0.0
 71
     4
 72
     5
  1
\T1.40;\W0.59;０°
1001
ACAD
1000
MTEXTBEGIN
1070
    73
1070
     1
1070
    44
1040
1.0
1070
    74
1070
     0
1000
MTEXTEND
  0
MTEXT
  5
7410
330
1F
100
AcDbEntity
  8
PV0001_1
 62
     2
100
AcDbMText
 10
47.27066046133995
 20
-76.17325097210971
 30
0.0
 40
3.479999999999999
 41
0.0
 71
     4
 72
     5
  1
\T1.40;\W0.59;－２°
1001
ACAD
1000
MTEXTBEGIN
1070
    73
1070
     1
1070
    44
1040
1.0
1070
    74
1070
     0
1000
MTEXTEND
  0
LINE
  5
763F
330
1F
100
AcDbEntity
  8
AM_1
100
AcDbLine
 10
-119.999977111816
 20
0.1100044250487713
 30
0.0
 11
-119.999977111816
 21
-65.99773025512689
 31
0.0
  0
DIMENSION
  5
770D
330
1F
100
AcDbEntity
  8
AM_5
100
AcDbDimension
  2
*D17
 10
16.94043904220643
 20
11.99999999999999
 30
0.0
 11
13.54043904220643
 21
19.76666666666666
 31
0.0
 70
    32
  3
AM_JIS$0
100
AcDbAlignedDimension
 13
-17.99997711181703
 23
9.999999523162784
 33
0.0
 14
-7.912521362305028
 24
12.0
 34
0.0
 50
90.0
100
AcDbRotatedDimension
1001
ACAD
1000
DSTYLE
1002
{
1070
     6
1000
DOTSMALL
1070
     5
1000

1070
   173
1070
     1
1070
     7
1000
OPEN30
1002
}
  0
VIEWPORT
  5
110
330
101
100
AcDbEntity
 67
     1
  8
0
100
AcDbViewport
 10
420.5
 20
297.0
 30
0.0
 40
948.9782706766916
 41
628.452
 68
     1
 69
     1
1001
ACAD
1000
MVIEW
1002
{
1070
    16
1010
0.0
1020
0.0
1030
0.0
1010
0.0
1020
0.0
1030
1.0
1040
0.0
1040
628.452
1040
420.5
1040
297.0
1040
50.0
1040
0.0
1040
0.0
1070
     0
1070
   100
1070
     1
1070
     1
1070
     0
1070
     0
1070
     0
1070
     0
1040
0.0
1040
0.0
1040
0.0
1040
10.0
1040
10.0
1040
10.0
1040
10.0
1070
     0
1002
{
1002
}
1002
}
  0
ENDSEC
  0
SECTION
  2
OBJECTS
  0
DICTIONARY
  5
C
330
0
100
AcDbDictionary
  3
ACAD_GROUP
350
D
  3
ACAD_LAYOUT
350
1A
  3
ACAD_MLINESTYLE
350
17
  3
ACAD_PLOTSETTINGS
350
19
  3
ACAD_PLOTSTYLENAME
350
E
  3
ACDBVARIABLEDICTIONARY
350
34
  3
ACMDICTIONARY
350
43
  3
AMG
350
2B
  3
AMGSNAPSETTINGS
350
6E
  3
DWGPROPS
350
779F
  3
ACDBHEADERROUNDTRIPXREC
350
77AE
  0
DICTIONARY
  5
74
330
1F
100
AcDbDictionary
280
     1
  3
ACAD_INDEX
360
77A1
  3
ACAD_LAYOUTSELFREF
360
77D1
  0
DICTIONARY
  5
77D6
330
101
100
AcDbDictionary
280
     1
  3
ACAD_LAYOUTSELFREF
360
77D7
  0
DICTIONARY
  5
D
102
{ACAD_REACTORS
330
C
102
}
330
C
100
AcDbDictionary
  0
DICTIONARY
  5
1A
102
{ACAD_REACTORS
330
C
102
}
330
C
100
AcDbDictionary
  0
DICTIONARY
  5
17
102
{ACAD_REACTORS
330
C
102
}
330
C
100
AcDbDictionary
  3
STANDARD
350
18
  0
DICTIONARY
  5
19
102
{ACAD_REACTORS
330
C
102
}
330
C
100
AcDbDictionary
  0
ACDBDICTIONARYWDFLT
  5
E
102
{ACAD_REACTORS
330
C
102
}
330
C
100
AcDbDictionary
281
     1
  3
Normal
350
F
100
AcDbDictionaryWithDefault
340
F
  0
DICTIONARY
  5
34
102
{ACAD_REACTORS
330
C
102
}
330
C
100
AcDbDictionary
  3
INDEXCTL
350
35
  3
SORTENTS
350
B5E
  0
DICTIONARY
  5
43
102
{ACAD_REACTORS
330
C
102
}
330
C
100
AcDbDictionary
  3
ACMSTDDICTIONARY
350
260
  0
DICTIONARY
  5
2B
102
{ACAD_REACTORS
330
C
102
}
330
C
100
AcDbDictionary
  3
ACMGSETTINGS
350
2C
  0
DICTIONARY
  5
6E
102
{ACAD_REACTORS
330
C
102
}
330
C
100
AcDbDictionary
  0
XRECORD
  5
779F
102
{ACAD_REACTORS
330
C
102
}
330
C
100
AcDbXrecord
  1
DWGPROPS COOKIE
  2

  3

  4

  6

  7

  8

  9

300
AmdtFileType=82
301
=
302
=
303
=
304
=
305
=
306
=
307
=
308
=
309
=
 40
1.093552407407407
 41
2452838.620506898
 42
2453022.767233796
  1

 90
        1
  0
DICTIONARY
  5
77AE
102
{ACAD_REACTORS
330
C
102
}
330
C
100
AcDbDictionary
  3
TSTACKALIGN
350
77AF
  3
TSTACKSIZE
350
77B0
  3
HYPERLINKBASE
350
77B1
  3
STYLESHEET
350
77B2
  3
LAYOUTDICT
350
77B3
  3
PLOTSETDICT
350
77B4
  3
PLOTSTYLNAMDICT
350
77B5
  3
LWETCUNION
350
77B6
  3
INSUNITS
350
77B7
  3
CEPSNTYPE
350
77B8
  3
FINGERPRINTGUID
350
77B9
  3
VERSIONGUID
350
77BA
  3
PSVPSCALE
350
77BB
  3
DIMSTYLEDATA
350
77BC
  3
PUCSORTHOREF
350
77BD
  3
PUCSORTHOVIEW
350
77BE
  3
PUCSBASE
350
77BF
  3
PUCSORGTOP
350
77C0
  3
PUCSORGBOTTOM
350
77C1
  3
PUCSORGLEFT
350
77C2
  3
PUCSORGRIGHT
350
77C3
  3
PUCSORGFRONT
350
77C4
  3
PUCSORGBACK
350
77C5
  3
UCSORTHOREF
350
77C6
  3
UCSORTHOVIEW
350
77C7
  3
UCSBASE
350
77C8
  3
UCSORGTOP
350
77C9
  3
UCSORGBOTTOM
350
77CA
  3
UCSORGLEFT
350
77CB
  3
UCSORGRIGHT
350
77CC
  3
UCSORGFRONT
350
77CD
  3
UCSORGBACK
350
77CE
  0
DICTIONARY
  5
77A1
102
{ACAD_REACTORS
330
74
102
}
330
74
100
AcDbDictionary
  3
*A1
350
77A2
  0
XRECORD
  5
77D1
102
{ACAD_REACTORS
330
74
102
}
330
74
100
AcDbXrecord
340
1F
  0
XRECORD
  5
77D7
102
{ACAD_REACTORS
330
77D6
102
}
330
77D6
100
AcDbXrecord
340
101
  0
MLINESTYLE
  5
18
102
{ACAD_REACTORS
330
17
102
}
330
17
100
AcDbMlineStyle
  2
STANDARD
 70
     0
  3

 62
   256
 51
90.0
 52
90.0
 71
     2
 49
0.5
 62
   256
  6
BYLAYER
 49
-0.5
 62
   256
  6
BYLAYER
  0
ACDBPLACEHOLDER
  5
F
102
{ACAD_REACTORS
330
E
102
}
330
E
100
AcDbPlaceHolder
280
     0
  0
DICTIONARYVAR
  5
35
102
{ACAD_REACTORS
330
34
102
}
330
34
100
DictionaryVariables
280
     0
  1
1
  0
DICTIONARYVAR
  5
B5E
102
{ACAD_REACTORS
330
34
102
}
330
34
100
DictionaryVariables
280
     0
  1
96
  0
DICTIONARY
  5
260
102
{ACAD_REACTORS
330
43
102
}
330
43
100
AcDbDictionary
  0
DICTIONARY
  5
2C
102
{ACAD_REACTORS
330
2B
102
}
330
2B
100
AcDbDictionary
  3
DWGSETTINGS
350
2D
  0
XRECORD
  5
77AF
102
{ACAD_REACTORS
330
77AE
102
}
330
77AE
100
AcDbXrecord
 90
        1
  0
XRECORD
  5
77B0
102
{ACAD_REACTORS
330
77AE
102
}
330
77AE
100
AcDbXrecord
 90
       70
  0
XRECORD
  5
77B1
102
{ACAD_REACTORS
330
77AE
102
}
330
77AE
100
AcDbXrecord
  1

  0
XRECORD
  5
77B2
102
{ACAD_REACTORS
330
77AE
102
}
330
77AE
100
AcDbXrecord
  1
ASAMI.ctb
  0
XRECORD
  5
77B3
102
{ACAD_REACTORS
330
77AE
102
}
330
77AE
100
AcDbXrecord
340
1A
  0
XRECORD
  5
77B4
102
{ACAD_REACTORS
330
77AE
102
}
330
77AE
100
AcDbXrecord
340
19
  0
XRECORD
  5
77B5
102
{ACAD_REACTORS
330
77AE
102
}
330
77AE
100
AcDbXrecord
340
E
  0
XRECORD
  5
77B6
102
{ACAD_REACTORS
330
77AE
102
}
330
77AE
100
AcDbXrecord
 90
    10781
  0
XRECORD
  5
77B7
102
{ACAD_REACTORS
330
77AE
102
}
330
77AE
100
AcDbXrecord
 90
        4
  0
XRECORD
  5
77B8
102
{ACAD_REACTORS
330
77AE
102
}
330
77AE
100
AcDbXrecord
 90
        0
  0
XRECORD
  5
77B9
102
{ACAD_REACTORS
330
77AE
102
}
330
77AE
100
AcDbXrecord
  1
{AFB28963-8C59-40AE-9337-C84526B81ACE}
  0
XRECORD
  5
77BA
102
{ACAD_REACTORS
330
77AE
102
}
330
77AE
100
AcDbXrecord
  1
{EEBDB3A1-50BE-4B86-96DC-50935850A3BE}
  0
XRECORD
  5
77BB
102
{ACAD_REACTORS
330
77AE
102
}
330
77AE
100
AcDbXrecord
 40
0.0
  0
XRECORD
  5
77BC
102
{ACAD_REACTORS
330
77AE
102
}
330
77AE
100
AcDbXrecord
1000
DSTYLE
1002
{
1070
    79
 70
     2
1070
   341
340
59
1070
   342
340
59
1070
   371
 70
    -1
1070
   372
 70
    -1
1002
}
  0
XRECORD
  5
77BD
102
{ACAD_REACTORS
330
77AE
102
}
330
77AE
100
AcDbXrecord
340
0
  0
XRECORD
  5
77BE
102
{ACAD_REACTORS
330
77AE
102
}
330
77AE
100
AcDbXrecord
 70
     0
  0
XRECORD
  5
77BF
102
{ACAD_REACTORS
330
77AE
102
}
330
77AE
100
AcDbXrecord
340
0
  0
XRECORD
  5
77C0
102
{ACAD_REACTORS
330
77AE
102
}
330
77AE
100
AcDbXrecord
 10
0.0
 20
0.0
 30
0.0
  0
XRECORD
  5
77C1
102
{ACAD_REACTORS
330
77AE
102
}
330
77AE
100
AcDbXrecord
 10
0.0
 20
0.0
 30
0.0
  0
XRECORD
  5
77C2
102
{ACAD_REACTORS
330
77AE
102
}
330
77AE
100
AcDbXrecord
 10
0.0
 20
0.0
 30
0.0
  0
XRECORD
  5
77C3
102
{ACAD_REACTORS
330
77AE
102
}
330
77AE
100
AcDbXrecord
 10
0.0
 20
0.0
 30
0.0
  0
XRECORD
  5
77C4
102
{ACAD_REACTORS
330
77AE
102
}
330
77AE
100
AcDbXrecord
 10
0.0
 20
0.0
 30
0.0
  0
XRECORD
  5
77C5
102
{ACAD_REACTORS
330
77AE
102
}
330
77AE
100
AcDbXrecord
 10
0.0
 20
0.0
 30
0.0
  0
XRECORD
  5
77C6
102
{ACAD_REACTORS
330
77AE
102
}
330
77AE
100
AcDbXrecord
340
0
  0
XRECORD
  5
77C7
102
{ACAD_REACTORS
330
77AE
102
}
330
77AE
100
AcDbXrecord
 70
     0
  0
XRECORD
  5
77C8
102
{ACAD_REACTORS
330
77AE
102
}
330
77AE
100
AcDbXrecord
340
0
  0
XRECORD
  5
77C9
102
{ACAD_REACTORS
330
77AE
102
}
330
77AE
100
AcDbXrecord
 10
0.0
 20
0.0
 30
0.0
  0
XRECORD
  5
77CA
102
{ACAD_REACTORS
330
77AE
102
}
330
77AE
100
AcDbXrecord
 10
0.0
 20
0.0
 30
0.0
  0
XRECORD
  5
77CB
102
{ACAD_REACTORS
330
77AE
102
}
330
77AE
100
AcDbXrecord
 10
0.0
 20
0.0
 30
0.0
  0
XRECORD
  5
77CC
102
{ACAD_REACTORS
330
77AE
102
}
330
77AE
100
AcDbXrecord
 10
0.0
 20
0.0
 30
0.0
  0
XRECORD
  5
77CD
102
{ACAD_REACTORS
330
77AE
102
}
330
77AE
100
AcDbXrecord
 10
0.0
 20
0.0
 30
0.0
  0
XRECORD
  5
77CE
102
{ACAD_REACTORS
330
77AE
102
}
330
77AE
100
AcDbXrecord
 10
0.0
 20
0.0
 30
0.0
  0
LAYER_INDEX
  5
77A2
102
{ACAD_REACTORS
330
77A1
102
}
330
77A1
100
AcDbIndex
 40
2453151.538654861
100
AcDbLayerIndex
  8
0
360
77A3
 90
        0
  8
AM_0
360
77A4
 90
       63
  8
AM_11
360
77A5
 90
        0
  8
AM_7
360
77A6
 90
        0
  8
AM_5
360
77A7
 90
        6
  8
Defpoints
360
77A8
 90
        0
  8
AM_6
360
77A9
 90
        2
  8
AM_CL
360
77AA
 90
        0
  8
PV0001_1
360
77AB
 90
        8
  8
AM_1
360
77AC
 90
        2
  0
XRECORD
  5
2D
102
{ACAD_REACTORS
330
2C
102
}
330
2C
100
AcDbXrecord
  1
VERSION
140
15.0
  1
PRODUCT
  2
AutoCAD Mechanical 2000
  0
IDBUFFER
  5
77A3
330
0
100
AcDbIdBuffer
  0
IDBUFFER
  5
77A4
330
0
100
AcDbIdBuffer
330
73F8
330
73F9
330
73FA
330
73FB
330
73FC
330
73FD
330
73FE
330
73FF
330
7400
330
7401
330
7402
330
7403
330
7404
330
7406
330
740B
330
7396
330
7397
330
7398
330
7399
330
739E
330
739F
330
73A0
330
73A1
330
73A9
330
73AB
330
73AC
330
73B7
330
73B8
330
73BA
330
73BB
330
73BC
330
73BD
330
73BE
330
73BF
330
73C0
330
73C1
330
73C5
330
73C6
330
73C9
330
73CA
330
73CB
330
73CE
330
73CF
330
73D0
330
73D1
330
73D2
330
73DA
330
73DB
330
73DC
330
73E1
330
73E2
330
73E9
330
73ED
330
73EE
330
73EF
330
73F0
330
73F1
330
73F2
330
73F3
330
73F4
330
73F5
330
73F6
330
73F7
  0
IDBUFFER
  5
77A5
330
0
100
AcDbIdBuffer
  0
IDBUFFER
  5
77A6
330
0
100
AcDbIdBuffer
  0
IDBUFFER
  5
77A7
330
0
100
AcDbIdBuffer
330
6574
330
70F9
330
70FA
330
739A
330
740A
330
770D
  0
IDBUFFER
  5
77A8
330
0
100
AcDbIdBuffer
  0
IDBUFFER
  5
77A9
330
0
100
AcDbIdBuffer
330
C58
330
6B28
  0
IDBUFFER
  5
77AA
330
0
100
AcDbIdBuffer
  0
IDBUFFER
  5
77AB
330
0
100
AcDbIdBuffer
330
73A6
330
73AD
330
73C7
330
7407
330
740D
330
740E
330
740F
330
7410
  0
IDBUFFER
  5
77AC
330
0
100
AcDbIdBuffer
330
73C4
330
763F
  0
ENDSEC
  0
EOF
