  0
SECTION
  2
HEADER
  9
$ACADVER
  1
AC1014
  9
$ACADMAINTVER
 70
     9
  9
$DWGCODEPAGE
  3
ANSI_932
  9
$INSBASE
 10
0.0
 20
0.0
 30
0.0
  9
$EXTMIN
 10
-148.866307067869
 20
-88.70163079445731
 30
-0.00000001
  9
$EXTMAX
 10
55.4811751627874
 20
15.00000000000002
 30
0.00000001
  9
$LIMMIN
 10
-185.068227958778
 20
-126.6108803498086
  9
$LIMMAX
 10
66.68475841082932
 20
60.19983459007187
  9
$ORTHOMODE
 70
     0
  9
$REGENMODE
 70
     1
  9
$FILLMODE
 70
     1
  9
$QTEXTMODE
 70
     0
  9
$MIRRTEXT
 70
     0
  9
$DRAGMODE
 70
     2
  9
$LTSCALE
 40
1.0
  9
$OSMODE
 70
    55
  9
$ATTMODE
 70
     1
  9
$TEXTSIZE
 40
2.5
  9
$TRACEWID
 40
1.0
  9
$TEXTSTYLE
  7
STANDARD
  9
$CLAYER
  8
AM_5
  9
$CELTYPE
  6
BYLAYER
  9
$CECOLOR
 62
   256
  9
$CELTSCALE
 40
1.0
  9
$DELOBJ
 70
     1
  9
$DISPSILH
 70
     0
  9
$DIMSCALE
 40
1.0
  9
$DIMASZ
 40
2.5
  9
$DIMEXO
 40
1.0
  9
$DIMDLI
 40
12.0
  9
$DIMRND
 40
0.0
  9
$DIMDLE
 40
0.0
  9
$DIMEXE
 40
1.0
  9
$DIMTP
 40
0.1
  9
$DIMTM
 40
0.1
  9
$DIMTXT
 40
3.2
  9
$DIMCEN
 40
0.0
  9
$DIMTSZ
 40
0.0
  9
$DIMTOL
 70
     0
  9
$DIMLIM
 70
     0
  9
$DIMTIH
 70
     0
  9
$DIMTOH
 70
     0
  9
$DIMSE1
 70
     0
  9
$DIMSE2
 70
     0
  9
$DIMTAD
 70
     3
  9
$DIMZIN
 70
     8
  9
$DIMBLK
  1
OPEN30
  9
$DIMASO
 70
     1
  9
$DIMSHO
 70
     1
  9
$DIMPOST
  1

  9
$DIMAPOST
  1
"
  9
$DIMALT
 70
     0
  9
$DIMALTD
 70
     2
  9
$DIMALTF
 40
0.0393701
  9
$DIMLFAC
 40
1.0
  9
$DIMTOFL
 70
     1
  9
$DIMTVP
 40
0.0
  9
$DIMTIX
 70
     0
  9
$DIMSOXD
 70
     0
  9
$DIMSAH
 70
     0
  9
$DIMBLK1
  1

  9
$DIMBLK2
  1

  9
$DIMSTYLE
  2
AM_JIS
  9
$DIMCLRD
 70
     3
  9
$DIMCLRE
 70
     3
  9
$DIMCLRT
 70
     2
  9
$DIMTFAC
 40
0.71
  9
$DIMGAP
 40
1.5
  9
$DIMJUST
 70
     0
  9
$DIMSD1
 70
     0
  9
$DIMSD2
 70
     0
  9
$DIMTOLJ
 70
     0
  9
$DIMTZIN
 70
     0
  9
$DIMALTZ
 70
     0
  9
$DIMALTTZ
 70
     0
  9
$DIMFIT
 70
     3
  9
$DIMUPT
 70
     0
  9
$DIMUNIT
 70
     2
  9
$DIMDEC
 70
     3
  9
$DIMTDEC
 70
     3
  9
$DIMALTU
 70
     2
  9
$DIMALTTD
 70
     2
  9
$DIMTXSTY
  7
ASAMI
  9
$DIMAUNIT
 70
     0
  9
$LUNITS
 70
     2
  9
$LUPREC
 70
     2
  9
$SKETCHINC
 40
1.0
  9
$FILLETRAD
 40
0.3
  9
$AUNITS
 70
     0
  9
$AUPREC
 70
     0
  9
$MENU
  1
.
  9
$ELEVATION
 40
0.0
  9
$PELEVATION
 40
0.0
  9
$THICKNESS
 40
0.0
  9
$LIMCHECK
 70
     0
  9
$BLIPMODE
 70
     0
  9
$CHAMFERA
 40
0.0
  9
$CHAMFERB
 40
0.0
  9
$CHAMFERC
 40
20.0
  9
$CHAMFERD
 40
0.0
  9
$SKPOLY
 70
     0
  9
$TDCREATE
 40
2452838.620506898
  9
$TDUPDATE
 40
2453151.538736423
  9
$TDINDWG
 40
1.0834024537
  9
$TDUSRTIMER
 40
1.0834024537
  9
$USRTIMER
 70
     1
  9
$ANGBASE
 50
0.0
  9
$ANGDIR
 70
     0
  9
$PDMODE
 70
     0
  9
$PDSIZE
 40
0.0
  9
$PLINEWID
 40
0.0
  9
$COORDS
 70
     1
  9
$SPLFRAME
 70
     0
  9
$SPLINETYPE
 70
     6
  9
$SPLINESEGS
 70
     8
  9
$ATTDIA
 70
     1
  9
$ATTREQ
 70
     1
  9
$HANDLING
 70
 12289
  9
$HANDSEED
  5
6C5F
  9
$SURFTAB1
 70
     6
  9
$SURFTAB2
 70
     6
  9
$SURFTYPE
 70
     6
  9
$SURFU
 70
     6
  9
$SURFV
 70
     6
  9
$UCSNAME
  2

  9
$UCSORG
 10
0.0
 20
0.0
 30
0.0
  9
$UCSXDIR
 10
1.0
 20
0.0
 30
0.0
  9
$UCSYDIR
 10
0.0
 20
1.0
 30
0.0
  9
$PUCSNAME
  2

  9
$PUCSORG
 10
0.0
 20
0.0
 30
0.0
  9
$PUCSXDIR
 10
1.0
 20
0.0
 30
0.0
  9
$PUCSYDIR
 10
0.0
 20
1.0
 30
0.0
  9
$USERI1
 70
     0
  9
$USERI2
 70
     0
  9
$USERI3
 70
     0
  9
$USERI4
 70
     0
  9
$USERI5
 70
     0
  9
$USERR1
 40
0.0
  9
$USERR2
 40
0.0
  9
$USERR3
 40
0.0
  9
$USERR4
 40
0.0
  9
$USERR5
 40
0.0
  9
$WORLDVIEW
 70
     1
  9
$SHADEDGE
 70
     3
  9
$SHADEDIF
 70
    70
  9
$TILEMODE
 70
     1
  9
$MAXACTVP
 70
    64
  9
$PINSBASE
 10
0.0
 20
0.0
 30
0.0
  9
$PLIMCHECK
 70
     0
  9
$PEXTMIN
 10
1.000000000000000E+20
 20
1.000000000000000E+20
 30
1.000000000000000E+20
  9
$PEXTMAX
 10
-1.000000000000000E+20
 20
-1.000000000000000E+20
 30
-1.000000000000000E+20
  9
$PLIMMIN
 10
0.0
 20
0.0
  9
$PLIMMAX
 10
841.0
 20
594.0
  9
$UNITMODE
 70
     0
  9
$VISRETAIN
 70
     1
  9
$PLINEGEN
 70
     0
  9
$PSLTSCALE
 70
     0
  9
$TREEDEPTH
 70
  3020
  9
$PICKSTYLE
 70
     0
  9
$CMLSTYLE
  2
STANDARD
  9
$CMLJUST
 70
     0
  9
$CMLSCALE
 40
20.0
  9
$PROXYGRAPHICS
 70
     1
  9
$MEASUREMENT
 70
     1
  0
ENDSEC
  0
SECTION
  2
CLASSES
  0
CLASS
  1
ACDBDICTIONARYWDFLT
  2
AcDbDictionaryWithDefault
  3
AutoCAD 2000
 90
        0
280
     0
281
     0
  0
CLASS
  1
ACDBPLACEHOLDER
  2
AcDbPlaceHolder
  3
AutoCAD 2000
 90
        0
280
     0
281
     0
  0
CLASS
  1
LAYOUT
  2
AcDbLayout
  3
AutoCAD 2000
 90
        0
280
     0
281
     0
  0
CLASS
  1
AMGSETTINGSOBJ
  2
AmgSettingsObj
  3
"AcadM|Product Description: AutoCAD Mechanical 2000|Company: Autodesk"
 90
        0
280
     0
281
     0
  0
CLASS
  1
ACME_DOCUMENT
  2
AcMeDbDoc
  3
AcMeServices
 90
        0
280
     0
281
     0
  0
CLASS
  1
ACMESCOPE
  2
AcMeScope
  3
AcMeServices
 90
        0
280
     0
281
     0
  0
CLASS
  1
ACMECOMMANDHISTORY
  2
AcMeCommandHistory
  3
AcMeServices
 90
        0
280
     0
281
     0
  0
CLASS
  1
DICTIONARYVAR
  2
AcDbDictionaryVar
  3
AutoCAD 2000
 90
        0
280
     0
281
     0
  0
CLASS
  1
ACIMSYSVARMAN
  2
AcImSysVarManager
  3
AcMeServices
 90
        0
280
     0
281
     0
  0
CLASS
  1
ACIMREALSYSVAR
  2
AcImRealSysVar
  3
AcMeServices
 90
        0
280
     0
281
     0
  0
CLASS
  1
ACIMINTSYSVAR
  2
AcImIntSysVar
  3
AcMeServices
 90
        0
280
     0
281
     0
  0
CLASS
  1
ACMEDRAWINGMAN
  2
AcMeDrawingMan
  3
AcMeServices
 90
        0
280
     0
281
     0
  0
CLASS
  1
ACMEVIEW
  2
AcMeView
  3
AcMeServices
 90
        0
280
     0
281
     0
  0
CLASS
  1
ACDBENTITYCACHE
  2
AcMeEntityCache
  3
AcMeServices
 90
        0
280
     0
281
     0
  0
CLASS
  1
GSMANAGER
  2
AcMeGSManager
  3
AcMeServices
 90
        0
280
     0
281
     0
  0
CLASS
  1
AmdtInternalReactor
  2
AmdtInternalReactor
  3
AcMeServices
 90
        0
280
     0
281
     0
  0
CLASS
  1
ACMESTATEMGR
  2
AcMeStateMgr
  3
AcMeServices
 90
        0
280
     0
281
     0
  0
CLASS
  1
ACME_DATABASE
  2
AcMeDbDatabase
  3
AcMeServices
 90
        0
280
     0
281
     0
  0
CLASS
  1
ACRFINSADJUSTERMGR
  2
AcRfInsAdjusterMgr
  3
AcMeServices
 90
        0
280
     0
281
     0
  0
CLASS
  1
ACMDATADICTIONARY
  2
AcmDataDictionary
  3
"AcmSymBB|Product Description: AutoCAD Mechanical 2000|Company: Autodesk"
 90
        0
280
     0
281
     0
  0
CLASS
  1
ACMDATAENTRYBLOCK
  2
AcmDataEntryBlock
  3
"AcmSymBB|Product Description: AutoCAD Mechanical 2000|Company: Autodesk"
 90
        0
280
     0
281
     0
  0
CLASS
  1
AMGOBJPROPCFG
  2
AmgObjPropCfg
  3
"AmgLay|Product Description: AutoCAD Mechanical 2000|Company: Autodesk"
 90
        1
280
     0
281
     0
  0
CLASS
  1
ACAMGFILTERDAT
  2
AcAmgFilterDat
  3
"AcadM|Product Description: AutoCAD Mechanical 2000|Company: Autodesk"
 90
        0
280
     0
281
     0
  0
CLASS
  1
LAYER_INDEX
  2
AcDbLayerIndex
  3
AutoCAD 2000
 90
        0
280
     0
281
     0
  0
CLASS
  1
IDBUFFER
  2
AcDbIdBuffer
  3
AutoCAD 2000
 90
        0
280
     0
281
     0
  0
CLASS
  1
ACIMSTRSYSVAR
  2
AcImStrSysVar
  3
AcMeServices
 90
        0
280
     0
281
     0
  0
CLASS
  1
ACMSTANDARDJIS
  2
AcmStandardJIS
  3
"AcmSymBB|Product Description: AutoCAD Mechanical 2000|Company: Autodesk"
 90
        0
280
     0
281
     0
  0
CLASS
  1
ACMSURFSTANDARDJIS
  2
AcmSurfTextStdJIS
  3
"AcmSymBB|Product Description: AutoCAD Mechanical 2000|Company: Autodesk"
 90
        0
280
     0
281
     0
  0
CLASS
  1
ACMFCFSTANDARDJIS
  2
AcmFCFStdJIS
  3
"AcmSymBB|Product Description: AutoCAD Mechanical 2000|Company: Autodesk"
 90
        0
280
     0
281
     0
  0
CLASS
  1
ACMWELDSTANDARDJIS
  2
AcmWeldingStdJIS
  3
"AcmSymBB|Product Description: AutoCAD Mechanical 2000|Company: Autodesk"
 90
        0
280
     0
281
     0
  0
CLASS
  1
ACMIDSTANDARDJIS
  2
AcmIdStdJIS
  3
"AcmSymBB|Product Description: AutoCAD Mechanical 2000|Company: Autodesk"
 90
        0
280
     0
281
     0
  0
CLASS
  1
ACMDATUMSTANDARDJIS
  2
AcmDatumStdJIS
  3
"AcmSymBB|Product Description: AutoCAD Mechanical 2000|Company: Autodesk"
 90
        0
280
     0
281
     0
  0
CLASS
  1
ACMBOMSTANDARDJIS
  2
AcmBOMStdJIS
  3
"AcmSymBB|Product Description: AutoCAD Mechanical 2000|Company: Autodesk"
 90
        0
280
     0
281
     0
  0
CLASS
  1
ACMSTANDARDANSI
  2
AcmStandardANSI
  3
"AcmSymBB|Product Description: AutoCAD Mechanical 2000|Company: Autodesk"
 90
        0
280
     0
281
     0
  0
CLASS
  1
ACMSURFSTANDARDANSI
  2
AcmSurfTextStdANSI
  3
"AcmSymBB|Product Description: AutoCAD Mechanical 2000|Company: Autodesk"
 90
        0
280
     0
281
     0
  0
CLASS
  1
ACMFCFSTANDARDANSI
  2
AcmFCFStdANSI
  3
"AcmSymBB|Product Description: AutoCAD Mechanical 2000|Company: Autodesk"
 90
        0
280
     0
281
     0
  0
CLASS
  1
ACMWELDSTANDARDANSI
  2
AcmWeldingStdANSI
  3
"AcmSymBB|Product Description: AutoCAD Mechanical 2000|Company: Autodesk"
 90
        0
280
     0
281
     0
  0
CLASS
  1
ACMIDSTANDARDANSI
  2
AcmIdStdANSI
  3
"AcmSymBB|Product Description: AutoCAD Mechanical 2000|Company: Autodesk"
 90
        0
280
     0
281
     0
  0
CLASS
  1
ACMDATUMSTANDARDANSI
  2
AcmDatumStdANSI
  3
"AcmSymBB|Product Description: AutoCAD Mechanical 2000|Company: Autodesk"
 90
        0
280
     0
281
     0
  0
CLASS
  1
ACMBOMSTANDARDANSI
  2
AcmBOMStdANSI
  3
"AcmSymBB|Product Description: AutoCAD Mechanical 2000|Company: Autodesk"
 90
        0
280
     0
281
     0
  0
CLASS
  1
ACMSTANDARDBSI
  2
AcmStandardBSI
  3
"AcmSymBB|Product Description: AutoCAD Mechanical 2000|Company: Autodesk"
 90
        0
280
     0
281
     0
  0
CLASS
  1
ACMSURFSTANDARDBSI
  2
AcmSurfTextStdBSI
  3
"AcmSymBB|Product Description: AutoCAD Mechanical 2000|Company: Autodesk"
 90
        0
280
     0
281
     0
  0
CLASS
  1
ACMFCFSTANDARDBSI
  2
AcmFCFStdBSI
  3
"AcmSymBB|Product Description: AutoCAD Mechanical 2000|Company: Autodesk"
 90
        0
280
     0
281
     0
  0
CLASS
  1
ACMWELDSTANDARDBSI
  2
AcmWeldingStdBSI
  3
"AcmSymBB|Product Description: AutoCAD Mechanical 2000|Company: Autodesk"
 90
        0
280
     0
281
     0
  0
CLASS
  1
ACMIDSTANDARDBSI
  2
AcmIdStdBSI
  3
"AcmSymBB|Product Description: AutoCAD Mechanical 2000|Company: Autodesk"
 90
        0
280
     0
281
     0
  0
CLASS
  1
ACMDATUMSTANDARDBSI
  2
AcmDatumStdBSI
  3
"AcmSymBB|Product Description: AutoCAD Mechanical 2000|Company: Autodesk"
 90
        0
280
     0
281
     0
  0
CLASS
  1
ACMBOMSTANDARDBSI
  2
AcmBOMStdBSI
  3
"AcmSymBB|Product Description: AutoCAD Mechanical 2000|Company: Autodesk"
 90
        0
280
     0
281
     0
  0
CLASS
  1
LONG_TRANSACTION
  2
AcDbLongTransaction
  3
AutoCAD 2000
 90
        0
280
     0
281
     0
  0
CLASS
  1
LWPOLYLINE
  2
AcDbPolyline
  3
AutoCAD 2000
 90
        0
280
     0
281
     1
  0
CLASS
  1
HATCH
  2
AcDbHatch
  3
AutoCAD 2000
 90
        0
280
     0
281
     1
  0
CLASS
  1
XRECORD
  2
AcDbXrecord
  3
AutoCAD 2000
 90
        0
280
     0
281
     0
  0
ENDSEC
  0
SECTION
  2
TABLES
  0
TABLE
  2
VPORT
  5
8
330
0
100
AcDbSymbolTable
 70
     3
  0
VPORT
  5
6C1F
330
8
100
AcDbSymbolTableRecord
100
AcDbViewportTableRecord
  2
*ACTIVE
 70
     0
 10
0.0
 20
0.0
 11
1.0
 21
1.0
 12
75.37688105872667
 22
0.4021090052153227
 13
0.0
 23
0.0
 14
2.5
 24
2.5
 15
10.0
 25
10.0
 16
0.0
 26
0.0
 36
1.0
 17
0.0
 27
0.0
 37
0.0
 40
484.7445235657393
 41
1.56570841889117
 42
50.0
 43
0.0
 44
0.0
 50
0.0
 51
0.0
 71
     0
 72
   100
 73
     1
 74
     3
 75
     0
 76
     0
 77
     0
 78
     0
  0
ENDTAB
  0
TABLE
  2
LTYPE
  5
5
330
0
100
AcDbSymbolTable
 70
    10
  0
LTYPE
  5
14
330
5
100
AcDbSymbolTableRecord
100
AcDbLinetypeTableRecord
  2
BYBLOCK
 70
     0
  3

 72
    65
 73
     0
 40
0.0
  0
LTYPE
  5
15
330
5
100
AcDbSymbolTableRecord
100
AcDbLinetypeTableRecord
  2
BYLAYER
 70
     0
  3

 72
    65
 73
     0
 40
0.0
  0
LTYPE
  5
16
330
5
100
AcDbSymbolTableRecord
100
AcDbLinetypeTableRecord
  2
CONTINUOUS
 70
     0
  3
Solid line
 72
    65
 73
     0
 40
0.0
  0
LTYPE
  5
4B
330
5
100
AcDbSymbolTableRecord
100
AcDbLinetypeTableRecord
  2
AM_ISO02W050
 70
     0
  3
__ __ __ __ __ __ __ __ __ __ __ __ __ __ __
 72
    65
 73
     2
 40
7.5
 49
6.0
 74
     0
 49
-1.5
 74
     0
  0
LTYPE
  5
4C
330
5
100
AcDbSymbolTableRecord
100
AcDbLinetypeTableRecord
  2
AM_ISO08W050
 70
     0
  3
____ . ____ . ____ . ____ . ____ . ____ . ____
 72
    65
 73
     4
 40
18.0
 49
12.0
 74
     0
 49
-1.5
 74
     0
 49
3.0
 74
     0
 49
-1.5
 74
     0
  0
LTYPE
  5
4D
330
5
100
AcDbSymbolTableRecord
100
AcDbLinetypeTableRecord
  2
AM_ISO09W050
 70
     0
  3
_____ . . _____ . . _____ . . ____ .. ____
 72
    65
 73
     6
 40
22.5
 49
12.0
 74
     0
 49
-1.5
 74
     0
 49
3.0
 74
     0
 49
-1.5
 74
     0
 49
3.0
 74
     0
 49
-1.5
 74
     0
  0
LTYPE
  5
4E
330
5
100
AcDbSymbolTableRecord
100
AcDbLinetypeTableRecord
  2
AMCONSTR
 70
     0
  3
_______________________
 72
    65
 73
     2
 40
9999.0
 49
9999.0
 74
     0
 49
0.0
 74
     0
  0
LTYPE
  5
4F
330
5
100
AcDbSymbolTableRecord
100
AcDbLinetypeTableRecord
  2
AM_ISO02W050X2
 70
     0
  3
 _ _ _ _ _ _ _ _ _ _ _ _
 72
    65
 73
     2
 40
3.75
 49
3.0
 74
     0
 49
-0.75
 74
     0
  0
LTYPE
  5
50
330
5
100
AcDbSymbolTableRecord
100
AcDbLinetypeTableRecord
  2
AM_ISO08W050X2
 70
     0
  3
__ . __ . __ . __ . __ . __
 72
    65
 73
     4
 40
9.0
 49
6.0
 74
     0
 49
-0.75
 74
     0
 49
1.5
 74
     0
 49
-0.75
 74
     0
  0
LTYPE
  5
53
330
5
100
AcDbSymbolTableRecord
100
AcDbLinetypeTableRecord
  2
AMZIGZAG
 70
     0
  3
/\/-/\/-/\/-/\/-/\/-/\/
 72
    65
 73
     2
 40
11.00009999999999
 49
0.0001
 74
     4
 75
   135
340
52
 46
0.04
 50
0.0
 44
0.0
 45
0.0
 49
-11.0
 74
     0
  0
LTYPE
  5
166
330
5
100
AcDbSymbolTableRecord
100
AcDbLinetypeTableRecord
  2
ACJISTGL
 70
     0
  3
_ _ _ _ _
 72
    65
 73
     2
 40
3.0
 49
2.0
 74
     0
 49
-1.0
 74
     0
  0
LTYPE
  5
26A
330
5
100
AcDbSymbolTableRecord
100
AcDbLinetypeTableRecord
  2
ACJISTGB
 70
     0
  3
__ . . __ . .
 72
    65
 73
     6
 40
9.0
 49
4.0
 74
     0
 49
-1.0
 74
     0
 49
1.0
 74
     0
 49
-1.0
 74
     0
 49
1.0
 74
     0
 49
-1.0
 74
     0
  0
ENDTAB
  0
TABLE
  2
LAYER
  5
2
330
0
100
AcDbSymbolTable
 70
    10
  0
LAYER
  5
10
330
2
100
AcDbSymbolTableRecord
100
AcDbLayerTableRecord
  2
0
 70
     0
 62
     7
  6
CONTINUOUS
  0
LAYER
  5
3F9
330
2
100
AcDbSymbolTableRecord
100
AcDbLayerTableRecord
  2
AM_0
 70
     0
 62
     7
  6
CONTINUOUS
  0
LAYER
  5
BD6
330
2
100
AcDbSymbolTableRecord
100
AcDbLayerTableRecord
  2
AM_11
 70
     0
 62
     3
  6
AM_ISO09W050
  0
LAYER
  5
BD7
330
2
100
AcDbSymbolTableRecord
100
AcDbLayerTableRecord
  2
AM_7
 70
     0
 62
     4
  6
AM_ISO08W050
  0
LAYER
  5
BD8
330
2
100
AcDbSymbolTableRecord
100
AcDbLayerTableRecord
  2
AM_5
 70
     0
 62
     3
  6
CONTINUOUS
  0
LAYER
  5
BD9
330
2
100
AcDbSymbolTableRecord
100
AcDbLayerTableRecord
  2
DEFPOINTS
 70
     0
 62
     7
  6
CONTINUOUS
  0
LAYER
  5
BDA
330
2
100
AcDbSymbolTableRecord
100
AcDbLayerTableRecord
  2
AM_6
 70
     0
 62
     2
  6
CONTINUOUS
  0
LAYER
  5
1E2E
330
2
100
AcDbSymbolTableRecord
100
AcDbLayerTableRecord
  2
AM_CL
 70
     0
 62
     1
  6
AMCONSTR
  0
LAYER
  5
6375
330
2
100
AcDbSymbolTableRecord
100
AcDbLayerTableRecord
  2
PV0001_1
 70
     0
 62
     7
  6
CONTINUOUS
  0
LAYER
  5
68A0
330
2
100
AcDbSymbolTableRecord
100
AcDbLayerTableRecord
  2
AM_1
 70
     0
 62
     3
  6
CONTINUOUS
  0
ENDTAB
  0
TABLE
  2
STYLE
  5
3
330
0
100
AcDbSymbolTable
 70
     5
  0
STYLE
  5
11
330
3
100
AcDbSymbolTableRecord
100
AcDbTextStyleTableRecord
  2
STANDARD
 70
     0
 40
0.0
 41
1.0
 50
0.0
 71
     0
 42
2.5
  3
simplex.shx
  4
EXTFONT.SHX
  0
STYLE
  5
52
330
3
100
AcDbSymbolTableRecord
100
AcDbTextStyleTableRecord
  2

 70
     1
 40
0.0
 41
1.0
 50
0.0
 71
     0
 42
2.5
  3
ltypeshp.shx
  4

  0
STYLE
  5
6B
330
3
100
AcDbSymbolTableRecord
100
AcDbTextStyleTableRecord
  2
ASAMI
 70
     0
 40
0.0
 41
1.0
 50
0.0
 71
     0
 42
2.5
  3
simplex.shx
  4
EXTFONT.SHX
  0
STYLE
  5
262
330
3
100
AcDbSymbolTableRecord
100
AcDbTextStyleTableRecord
  2
ACJISTS
 70
     0
 40
1.0
 41
1.0
 50
0.0
 71
     0
 42
2.5
  3
simplex.shx
  4
bigfont.shx
  0
STYLE
  5
269
330
3
100
AcDbSymbolTableRecord
100
AcDbTextStyleTableRecord
  2
ACJISGDT
 70
     0
 40
0.0
 41
1.0
 50
0.0
 71
     0
 42
2.5
  3
amgdtans.shx
  4

  0
ENDTAB
  0
TABLE
  2
VIEW
  5
6
330
0
100
AcDbSymbolTable
 70
     0
  0
ENDTAB
  0
TABLE
  2
UCS
  5
7
330
0
100
AcDbSymbolTable
 70
     0
  0
ENDTAB
  0
TABLE
  2
APPID
  5
9
330
0
100
AcDbSymbolTable
 70
    13
  0
APPID
  5
12
330
9
100
AcDbSymbolTableRecord
100
AcDbRegAppTableRecord
  2
ACAD
 70
     0
  0
APPID
  5
30
330
9
100
AcDbSymbolTableRecord
100
AcDbRegAppTableRecord
  2
MCAD_NO_VIS
 70
     0
  0
APPID
  5
31
330
9
100
AcDbSymbolTableRecord
100
AcDbRegAppTableRecord
  2
ACAD_TEMP_GRAPHIC
 70
     0
  0
APPID
  5
2C2
330
9
100
AcDbSymbolTableRecord
100
AcDbRegAppTableRecord
  2
GENIUS_GENDTOL_13
 70
     0
  0
APPID
  5
339
330
9
100
AcDbSymbolTableRecord
100
AcDbRegAppTableRecord
  2
GENIUS_GENODEF_13
 70
     0
  0
APPID
  5
33A
330
9
100
AcDbSymbolTableRecord
100
AcDbRegAppTableRecord
  2
GENIUS_GENOBJ-N-RSBK_13
 70
     0
  0
APPID
  5
33B
330
9
100
AcDbSymbolTableRecord
100
AcDbRegAppTableRecord
  2
GENIUS_GENOBJ-N-LIB_13
 70
     0
  0
APPID
  5
33C
330
9
100
AcDbSymbolTableRecord
100
AcDbRegAppTableRecord
  2
GENIUS_GENSCALE_13
 70
     0
  0
APPID
  5
378
330
9
100
AcDbSymbolTableRecord
100
AcDbRegAppTableRecord
  2
GENIUS_GENDIMSH_14
 70
     0
  0
APPID
  5
BDB
330
9
100
AcDbSymbolTableRecord
100
AcDbRegAppTableRecord
  2
GENIUS_GENOBJ-N-CEN_13
 70
     0
  0
APPID
  5
BDC
330
9
100
AcDbSymbolTableRecord
100
AcDbRegAppTableRecord
  2
GENIUS_GENFIL_13
 70
     0
  0
APPID
  5
BDD
330
9
100
AcDbSymbolTableRecord
100
AcDbRegAppTableRecord
  2
GENIUS_GENOBJ-N-FIL_13
 70
     0
  0
APPID
  5
12AD
330
9
100
AcDbSymbolTableRecord
100
AcDbRegAppTableRecord
  2
GENIUS_GENOREF_13
 70
     0
  0
ENDTAB
  0
TABLE
  2
DIMSTYLE
  5
A
330
0
100
AcDbSymbolTable
 70
    10
  0
DIMSTYLE
105
58
330
A
100
AcDbSymbolTableRecord
100
AcDbDimStyleTableRecord
  2
AM_JIS
 70
     0
  3

  4
"
  5
OPEN30
  6

  7

 40
1.0
 41
2.5
 42
1.0
 43
12.0
 44
1.0
 45
0.0
 46
0.0
 47
0.1
 48
0.1
140
3.2
141
0.0
142
0.0
143
0.0393701
144
1.0
145
0.0
146
0.71
147
1.5
 71
     0
 72
     0
 73
     0
 74
     0
 75
     0
 76
     0
 77
     3
 78
     8
170
     0
171
     2
172
     1
173
     0
174
     0
175
     0
176
     3
177
     3
178
     2
270
     2
271
     3
272
     3
273
     2
274
     2
340
6B
275
     0
280
     0
281
     0
282
     0
283
     0
284
     0
285
     0
286
     0
287
     3
288
     0
  0
DIMSTYLE
105
5F
330
A
100
AcDbSymbolTableRecord
100
AcDbDimStyleTableRecord
  2
AM_JIS$3
 70
     0
  3

  4
"
  5
OPEN30
  6

  7

 40
1.0
 41
2.5
 42
1.0
 43
10.0
 44
1.0
 45
0.0
 46
0.0
 47
0.1
 48
0.1
140
3.2
141
0.0
142
0.0
143
0.0393701
144
1.0
145
0.0
146
0.71
147
1.5
 71
     0
 72
     0
 73
     0
 74
     1
 75
     0
 76
     0
 77
     3
 78
     8
170
     0
171
     2
172
     0
173
     0
174
     0
175
     0
176
     3
177
     3
178
     2
270
     2
271
     2
272
     3
273
     2
274
     2
340
6B
275
     0
280
     0
281
     0
282
     0
283
     0
284
     0
285
     0
286
     0
287
     0
288
     1
  0
DIMSTYLE
105
60
330
A
100
AcDbSymbolTableRecord
100
AcDbDimStyleTableRecord
  2
AM_JIS$4
 70
     0
  3

  4
"
  5
OPEN30
  6

  7

 40
1.0
 41
2.5
 42
1.0
 43
10.0
 44
1.0
 45
0.0
 46
0.0
 47
0.1
 48
0.1
140
3.2
141
0.0
142
0.0
143
0.0393701
144
1.0
145
0.0
146
0.71
147
1.5
 71
     0
 72
     0
 73
     0
 74
     1
 75
     0
 76
     0
 77
     3
 78
     8
170
     0
171
     2
172
     0
173
     0
174
     0
175
     0
176
     3
177
     3
178
     2
270
     2
271
     2
272
     3
273
     2
274
     2
340
6B
275
     0
280
     0
281
     0
282
     0
283
     0
284
     0
285
     0
286
     0
287
     0
288
     1
  0
DIMSTYLE
105
61
330
A
100
AcDbSymbolTableRecord
100
AcDbDimStyleTableRecord
  2
AM_JIS$6
 70
     0
  3

  4
"
  5
OPEN30
  6

  7

 40
1.0
 41
2.5
 42
1.0
 43
10.0
 44
1.0
 45
0.0
 46
0.0
 47
0.1
 48
0.1
140
3.2
141
0.0
142
0.0
143
0.0393701
144
1.0
145
0.0
146
0.71
147
1.5
 71
     0
 72
     0
 73
     0
 74
     0
 75
     0
 76
     0
 77
     0
 78
     8
170
     0
171
     2
172
     1
173
     0
174
     0
175
     0
176
     3
177
     3
178
     2
270
     2
271
     2
272
     2
273
     2
274
     2
340
6B
275
     0
280
     0
281
     0
282
     0
283
     0
284
     0
285
     0
286
     0
287
     3
288
     0
  0
DIMSTYLE
105
62
330
A
100
AcDbSymbolTableRecord
100
AcDbDimStyleTableRecord
  2
AM_JIS$7
 70
     0
  3

  4
"
  5
OPEN30
  6

  7

 40
1.0
 41
2.5
 42
1.0
 43
10.0
 44
1.0
 45
0.0
 46
0.0
 47
0.1
 48
0.1
140
3.2
141
0.0
142
0.0
143
0.0393701
144
1.0
145
0.0
146
0.71
147
1.5
 71
     0
 72
     0
 73
     0
 74
     0
 75
     0
 76
     0
 77
     3
 78
     8
170
     0
171
     2
172
     1
173
     0
174
     0
175
     0
176
     3
177
     3
178
     2
270
     2
271
     2
272
     3
273
     2
274
     2
340
6B
275
     0
280
     0
281
     0
282
     0
283
     0
284
     0
285
     0
286
     0
287
     3
288
     0
  0
DIMSTYLE
105
63
330
A
100
AcDbSymbolTableRecord
100
AcDbDimStyleTableRecord
  2
AM_JIS$SF
 70
     0
  3

  4
"
  5
OPEN30
  6

  7

 40
1.0
 41
2.5
 42
1.0
 43
10.0
 44
1.0
 45
0.0
 46
0.0
 47
0.1
 48
0.1
140
3.2
141
0.0
142
0.0
143
0.0393701
144
1.0
145
0.0
146
0.71
147
1.5
 71
     0
 72
     0
 73
     0
 74
     0
 75
     1
 76
     1
 77
     3
 78
     8
170
     0
171
     2
172
     1
173
     0
174
     0
175
     0
176
   256
177
   256
178
     2
270
     2
271
     2
272
     2
273
     2
274
     2
340
6B
275
     0
280
     0
281
     0
282
     0
283
     0
284
     0
285
     0
286
     0
287
     3
288
     0
  0
DIMSTYLE
105
68
330
A
100
AcDbSymbolTableRecord
100
AcDbDimStyleTableRecord
  2
AM_JIS$SH
 70
     0
  3

  4
"
  5

  6
GENAXEH
  7
OPEN30
 40
1.0
 41
2.5
 42
1.0
 43
10.0
 44
1.0
 45
0.0
 46
0.0
 47
0.1
 48
0.1
140
3.2
141
0.0
142
0.0
143
0.0393701
144
2.0
145
0.0
146
0.71
147
1.5
 71
     0
 72
     0
 73
     0
 74
     0
 75
     1
 76
     1
 77
     3
 78
     8
170
     0
171
     2
172
     1
173
     1
174
     0
175
     0
176
   256
177
   256
178
     2
270
     2
271
     2
272
     2
273
     2
274
     2
340
6B
275
     0
280
     0
281
     0
282
     0
283
     0
284
     0
285
     0
286
     0
287
     3
288
     0
  0
DIMSTYLE
105
B34
102
{ACAD_REACTORS
330
6573
102
}
330
A
100
AcDbSymbolTableRecord
100
AcDbDimStyleTableRecord
  2
AM_JIS$2
 70
     0
  3

  4
"
  5
OPEN30
  6

  7

 40
1.0
 41
2.5
 42
1.0
 43
12.0
 44
1.0
 45
0.0
 46
0.0
 47
0.1
 48
0.1
140
3.2
141
0.0
142
0.0
143
0.0393701
144
1.0
145
0.0
146
0.71
147
1.5
 71
     0
 72
     0
 73
     0
 74
     0
 75
     0
 76
     0
 77
     3
 78
     8
170
     0
171
     2
172
     1
173
     0
174
     0
175
     0
176
     3
177
     3
178
     2
270
     2
271
     3
272
     3
273
     2
274
     2
340
6B
275
     0
280
     0
281
     0
282
     0
283
     0
284
     0
285
     0
286
     0
287
     3
288
     0
  0
DIMSTYLE
105
6376
102
{ACAD_REACTORS
330
64E5
330
64F4
330
6572
330
6593
330
663C
330
663D
102
}
330
A
100
AcDbSymbolTableRecord
100
AcDbDimStyleTableRecord
  2
AM_JIS$0
 70
     0
  3

  4
"
  5
OPEN30
  6

  7

 40
1.0
 41
2.5
 42
0.0
 43
10.0
 44
1.0
 45
0.0
 46
0.0
 47
0.1
 48
0.1000000001
140
3.799999999999999
141
0.0
142
0.0
143
0.0393701
144
1.0
145
0.0
146
0.71
147
1.5
 71
     0
 72
     0
 73
     0
 74
     0
 75
     0
 76
     0
 77
     3
 78
     9
170
     0
171
     2
172
     1
173
     0
174
     0
175
     0
176
     3
177
     3
178
     2
270
     2
271
     2
272
     2
273
     2
274
     2
340
11
275
     1
280
     0
281
     0
282
     0
283
     0
284
     8
285
     0
286
     0
287
     0
288
     0
  0
DIMSTYLE
105
6377
330
A
100
AcDbSymbolTableRecord
100
AcDbDimStyleTableRecord
  2
AM_JISORG-1P0$2
 70
     0
  3

  4
"
  5
OPEN30
  6

  7

 40
1.0
 41
2.5
 42
0.0
 43
10.0
 44
1.0
 45
0.0
 46
0.0
 47
0.1
 48
0.1000000001
140
3.799999999999999
141
0.0
142
0.0
143
0.0393701
144
-1.000041583175977
145
0.0
146
0.71
147
1.5
 71
     0
 72
     0
 73
     0
 74
     0
 75
     0
 76
     0
 77
     3
 78
     1
170
     0
171
     2
172
     1
173
     0
174
     0
175
     0
176
     3
177
     3
178
     2
270
     2
271
     2
272
     2
273
     2
274
     2
340
11
275
     1
280
     0
281
     0
282
     0
283
     0
284
     8
285
     0
286
     0
287
     0
288
     0
  0
ENDTAB
  0
TABLE
  2
BLOCK_RECORD
  5
1
330
0
100
AcDbSymbolTable
 70
    18
  0
BLOCK_RECORD
  5
1F
102
{ACAD_XDICTIONARY
360
74
102
}
330
1
100
AcDbSymbolTableRecord
100
AcDbBlockTableRecord
  2
*MODEL_SPACE
  0
BLOCK_RECORD
  5
101
102
{ACAD_XDICTIONARY
360
6C48
102
}
330
1
100
AcDbSymbolTableRecord
100
AcDbBlockTableRecord
  2
*PAPER_SPACE
  0
BLOCK_RECORD
  5
59
330
1
100
AcDbSymbolTableRecord
100
AcDbBlockTableRecord
  2
_OPEN30
  0
BLOCK_RECORD
  5
64
330
1
100
AcDbSymbolTableRecord
100
AcDbBlockTableRecord
  2
GENAXEH
  0
BLOCK_RECORD
  5
62FE
330
1
100
AcDbSymbolTableRecord
100
AcDbBlockTableRecord
  2
_NONE
  0
BLOCK_RECORD
  5
664C
330
1
100
AcDbSymbolTableRecord
100
AcDbBlockTableRecord
  2
*D6
  0
BLOCK_RECORD
  5
6666
330
1
100
AcDbSymbolTableRecord
100
AcDbBlockTableRecord
  2
*D7
  0
BLOCK_RECORD
  5
6682
330
1
100
AcDbSymbolTableRecord
100
AcDbBlockTableRecord
  2
*D9
  0
BLOCK_RECORD
  5
6690
330
1
100
AcDbSymbolTableRecord
100
AcDbBlockTableRecord
  2
*D10
  0
BLOCK_RECORD
  5
66AA
330
1
100
AcDbSymbolTableRecord
100
AcDbBlockTableRecord
  2
*D11
  0
BLOCK_RECORD
  5
66B6
330
1
100
AcDbSymbolTableRecord
100
AcDbBlockTableRecord
  2
*D12
  0
BLOCK_RECORD
  5
66C2
330
1
100
AcDbSymbolTableRecord
100
AcDbBlockTableRecord
  2
*D13
  0
BLOCK_RECORD
  5
67EB
330
1
100
AcDbSymbolTableRecord
100
AcDbBlockTableRecord
  2
_DOTSMALL
  0
BLOCK_RECORD
  5
6B48
330
1
100
AcDbSymbolTableRecord
100
AcDbBlockTableRecord
  2
*U15
  0
BLOCK_RECORD
  5
6B4C
330
1
100
AcDbSymbolTableRecord
100
AcDbBlockTableRecord
  2
*U16
  0
ENDTAB
  0
ENDSEC
  0
SECTION
  2
BLOCKS
  0
BLOCK
  5
20
330
1F
100
AcDbEntity
  8
0
100
AcDbBlockBegin
  2
*MODEL_SPACE
 70
     0
 10
0.0
 20
0.0
 30
0.0
  3
*MODEL_SPACE
  1

  0
ENDBLK
  5
21
330
1F
100
AcDbEntity
  8
0
100
AcDbBlockEnd
  0
BLOCK
  5
103
330
101
100
AcDbEntity
 67
     1
  8
0
100
AcDbBlockBegin
  2
*PAPER_SPACE
 70
     0
 10
0.0
 20
0.0
 30
0.0
  3
*PAPER_SPACE
  1

  0
ENDBLK
  5
104
330
101
100
AcDbEntity
 67
     1
  8
0
100
AcDbBlockEnd
  0
BLOCK
  5
5D
330
59
100
AcDbEntity
  8
0
100
AcDbBlockBegin
  2
_OPEN30
 70
     0
 10
0.0
 20
0.0
 30
0.0
  3
_OPEN30
  1

  0
LINE
  5
5A
330
59
100
AcDbEntity
  8
0
 62
     0
100
AcDbLine
 10
-1.0
 20
0.26794919
 30
0.0
 11
0.0
 21
0.0
 31
0.0
  0
LINE
  5
5B
330
59
100
AcDbEntity
  8
0
 62
     0
100
AcDbLine
 10
0.0
 20
0.0
 30
0.0
 11
-1.0
 21
-0.26794919
 31
0.0
  0
LINE
  5
5C
330
59
100
AcDbEntity
  8
0
 62
     0
100
AcDbLine
 10
0.0
 20
0.0
 30
0.0
 11
-1.0
 21
0.0
 31
0.0
  0
ENDBLK
  5
5E
330
59
100
AcDbEntity
  8
0
100
AcDbBlockEnd
  0
BLOCK
  5
66
330
64
100
AcDbEntity
  8
0
100
AcDbBlockBegin
  2
GENAXEH
 70
     0
 10
0.0
 20
0.0
 30
0.0
  3
GENAXEH
  1

  0
LINE
  5
65
330
64
100
AcDbEntity
  8
0
100
AcDbLine
 10
-1.0
 20
0.0
 30
0.0
 11
1.0
 21
0.0
 31
0.0
  0
ENDBLK
  5
67
330
64
100
AcDbEntity
  8
0
100
AcDbBlockEnd
  0
BLOCK
  5
62FF
330
62FE
100
AcDbEntity
  8
0
100
AcDbBlockBegin
  2
_NONE
 70
     0
 10
0.0
 20
0.0
 30
0.0
  3
_NONE
  1

  0
ENDBLK
  5
6300
330
62FE
100
AcDbEntity
  8
0
100
AcDbBlockEnd
  0
BLOCK
  5
6656
330
664C
100
AcDbEntity
  8
0
100
AcDbBlockBegin
  2
*D6
 70
     1
 10
0.0
 20
0.0
 30
0.0
  3
*D6
  1

  0
LINE
  5
6AD3
330
664C
100
AcDbEntity
  8
AM_5
 62
     3
100
AcDbLine
 10
0.0
 20
0.0
 30
0.0
 11
-0.0000000000000017
 21
-27.71408462524399
 31
0.0
  0
LINE
  5
6AD4
330
664C
100
AcDbEntity
  8
AM_5
 62
     3
100
AcDbLine
 10
-119.999992370599
 20
0.1349983215340149
 30
0.0
 11
-119.999992370599
 21
-27.71408462524399
 31
0.0
  0
LINE
  5
6AD5
330
664C
100
AcDbEntity
  8
AM_5
 62
     3
100
AcDbLine
 10
-2.500000000000001
 20
-26.71408462524399
 30
0.0
 11
-117.499992370599
 21
-26.71408462524399
 31
0.0
  0
INSERT
  5
6AD6
330
664C
100
AcDbEntity
  8
AM_5
 62
     3
100
AcDbBlockReference
  2
_OPEN30
 10
-0.0000000000000016
 20
-26.71408462524399
 30
0.0
 41
2.5
 42
2.5
 43
2.5
  0
INSERT
  5
6AD7
330
664C
100
AcDbEntity
  8
AM_5
 62
     3
100
AcDbBlockReference
  2
_OPEN30
 10
-119.999992370599
 20
-26.71408462524399
 30
0.0
 41
2.5
 42
2.5
 43
2.5
 50
180.0
  0
MTEXT
  5
6AD8
330
664C
100
AcDbEntity
  8
AM_5
 62
     2
100
AcDbMText
 10
-59.487396240229
 20
-23.31408462524399
 30
0.0
 40
3.799999999999999
 41
0.0
 71
     5
 72
     1
  1
120
1001
ACAD
1000
MTEXTBEGIN
1070
    73
1070
     1
1070
    44
1040
1.0
1070
    74
1070
     0
1000
MTEXTEND
  0
POINT
  5
6AD9
330
664C
100
AcDbEntity
  8
DEFPOINTS
 62
     0
100
AcDbPoint
 10
0.0
 20
0.0
 30
0.0
  0
POINT
  5
6ADA
330
664C
100
AcDbEntity
  8
DEFPOINTS
 62
     0
100
AcDbPoint
 10
-119.999992370599
 20
0.1349983215340149
 30
0.0
  0
POINT
  5
6ADB
330
664C
100
AcDbEntity
  8
DEFPOINTS
 62
     0
100
AcDbPoint
 10
-119.999992370599
 20
-26.71408462524399
 30
0.0
  0
ENDBLK
  5
6657
330
664C
100
AcDbEntity
  8
0
100
AcDbBlockEnd
  0
BLOCK
  5
6670
330
6666
100
AcDbEntity
  8
0
100
AcDbBlockBegin
  2
*D7
 70
     1
 10
0.0
 20
0.0
 30
0.0
  3
*D7
  1

  0
LINE
  5
6B14
330
6666
100
AcDbEntity
  8
AM_5
 62
     3
100
AcDbLine
 10
0.0
 20
0.0
 30
0.0
 11
24.97544048234667
 21
-0.0000000000000071
 31
0.0
  0
LINE
  5
6B15
330
6666
100
AcDbEntity
  8
AM_5
 62
     3
100
AcDbLine
 10
-6.601692199707002
 20
10.0
 30
0.0
 11
24.97544048234667
 21
9.999999999999992
 31
0.0
  0
LINE
  5
6B16
330
6666
100
AcDbEntity
  8
AM_5
 62
     3
100
AcDbLine
 10
23.97544048234667
 20
-2.500000000000006
 30
0.0
 11
23.97544048234667
 21
-5.000000000000007
 31
0.0
  0
LINE
  5
6B17
330
6666
100
AcDbEntity
  8
AM_5
 62
     3
100
AcDbLine
 10
23.97544048234667
 20
12.49999999999999
 30
0.0
 11
23.97544048234667
 21
14.99999999999999
 31
0.0
  0
LINE
  5
6B18
330
6666
100
AcDbEntity
  8
AM_5
 62
     3
100
AcDbLine
 10
23.97544048234667
 20
-0.0000000000000068
 30
0.0
 11
23.97544048234667
 21
9.999999999999992
 31
0.0
  0
INSERT
  5
6B19
330
6666
100
AcDbEntity
  8
AM_5
 62
     3
100
AcDbBlockReference
  2
_OPEN30
 10
23.97544048234667
 20
-0.0000000000000068
 30
0.0
 41
2.5
 42
2.5
 43
2.5
 50
90.0
  0
INSERT
  5
6B1A
330
6666
100
AcDbEntity
  8
AM_5
 62
     3
100
AcDbBlockReference
  2
_OPEN30
 10
23.97544048234667
 20
9.999999999999992
 30
0.0
 41
2.5
 42
2.5
 43
2.5
 50
270.0
  0
MTEXT
  5
6B1B
330
6666
100
AcDbEntity
  8
AM_5
 62
     2
100
AcDbMText
 10
20.57544048234667
 20
5.316749572753995
 30
0.0
 40
3.799999999999999
 41
0.0
 71
     5
 72
     1
  1
10
 11
0.0000000000000001
 21
1.0
 31
0.0
1001
ACAD
1000
MTEXTBEGIN
1070
    73
1070
     1
1070
    44
1040
1.0
1070
    74
1070
     0
1000
MTEXTEND
  0
POINT
  5
6B1C
330
6666
100
AcDbEntity
  8
DEFPOINTS
 62
     0
100
AcDbPoint
 10
0.0
 20
0.0
 30
0.0
  0
POINT
  5
6B1D
330
6666
100
AcDbEntity
  8
DEFPOINTS
 62
     0
100
AcDbPoint
 10
-6.601692199707002
 20
10.0
 30
0.0
  0
POINT
  5
6B1E
330
6666
100
AcDbEntity
  8
DEFPOINTS
 62
     0
100
AcDbPoint
 10
23.97544048234667
 20
9.999999999999992
 30
0.0
  0
ENDBLK
  5
6671
330
6666
100
AcDbEntity
  8
0
100
AcDbBlockEnd
  0
BLOCK
  5
668E
330
6682
100
AcDbEntity
  8
0
100
AcDbBlockBegin
  2
*D9
 70
     1
 10
0.0
 20
0.0
 30
0.0
  3
*D9
  1

  0
LINE
  5
6C4A
330
6682
100
AcDbEntity
  8
AM_5
 62
     3
100
AcDbLine
 10
-4.19931411743201
 20
-55.00000381469699
 30
0.0
 11
27.03561687469499
 21
-55.000003814697
 31
0.0
  0
LINE
  5
6C4B
330
6682
100
AcDbEntity
  8
AM_5
 62
     3
100
AcDbLine
 10
-0.0000114440919958
 20
-45.00000381469699
 30
0.0
 11
27.03561687469498
 21
-45.000003814697
 31
0.0
  0
LINE
  5
6C4C
330
6682
100
AcDbEntity
  8
AM_5
 62
     3
100
AcDbLine
 10
26.03561687469498
 20
-57.500003814697
 30
0.0
 11
26.03561687469498
 21
-60.000003814697
 31
0.0
  0
LINE
  5
6C4D
330
6682
100
AcDbEntity
  8
AM_5
 62
     3
100
AcDbLine
 10
26.03561687469499
 20
-45.000003814697
 30
0.0
 11
26.03561687469499
 21
-42.500003814697
 31
0.0
  0
LINE
  5
6C4E
330
6682
100
AcDbEntity
  8
AM_5
 62
     3
100
AcDbLine
 10
26.03561687469499
 20
-55.000003814697
 30
0.0
 11
26.03561687469499
 21
-45.000003814697
 31
0.0
  0
INSERT
  5
6C4F
330
6682
100
AcDbEntity
  8
AM_5
 62
     3
100
AcDbBlockReference
  2
_OPEN30
 10
26.03561687469499
 20
-55.000003814697
 30
0.0
 41
2.5
 42
2.5
 43
2.5
 50
90.0
  0
INSERT
  5
6C50
330
6682
100
AcDbEntity
  8
AM_5
 62
     3
100
AcDbBlockReference
  2
_DOTSMALL
 10
26.03561687469499
 20
-45.000003814697
 30
0.0
 41
2.5
 42
2.5
 43
2.5
 50
270.0
  0
MTEXT
  5
6C51
330
6682
100
AcDbEntity
  8
AM_5
 62
     2
100
AcDbMText
 10
22.63561687469499
 20
-50.00000381469701
 30
0.0
 40
3.799999999999999
 41
0.0
 71
     5
 72
     1
  1
10
 11
0.0000000000000001
 21
1.0
 31
0.0
  0
POINT
  5
6C52
330
6682
100
AcDbEntity
  8
DEFPOINTS
 62
     0
100
AcDbPoint
 10
-4.19931411743201
 20
-55.00000381469699
 30
0.0
  0
POINT
  5
6C53
330
6682
100
AcDbEntity
  8
DEFPOINTS
 62
     0
100
AcDbPoint
 10
-0.0000114440919958
 20
-45.00000381469699
 30
0.0
  0
POINT
  5
6C54
330
6682
100
AcDbEntity
  8
DEFPOINTS
 62
     0
100
AcDbPoint
 10
26.03561687469499
 20
-45.000003814697
 30
0.0
  0
ENDBLK
  5
668F
330
6682
100
AcDbEntity
  8
0
100
AcDbBlockEnd
  0
BLOCK
  5
669C
330
6690
100
AcDbEntity
  8
0
100
AcDbBlockBegin
  2
*D10
 70
     1
 10
0.0
 20
0.0
 30
0.0
  3
*D10
  1

  0
LINE
  5
6C55
330
6690
100
AcDbEntity
  8
AM_5
 62
     3
100
AcDbLine
 10
20.62184524536098
 20
-45.00000381469699
 30
0.0
 11
27.09930748505105
 21
-45.00000381469698
 31
0.0
  0
LINE
  5
6C56
330
6690
100
AcDbEntity
  8
AM_5
 62
     3
100
AcDbLine
 10
0.9996578724849213
 20
-44.96946088143483
 30
0.0
 11
27.08997870416542
 21
-44.28680807605618
 31
0.0
  0
ARC
  5
6C57
330
6690
100
AcDbEntity
  8
AM_5
 62
     3
100
AcDbCircle
 10
-0.1676630872649423
 20
-45.00000381469699
 30
0.0
 40
26.26697057231599
100
AcDbArc
 50
6.954076918680967
 51
12.40935269804097
  0
ARC
  5
6C58
330
6690
100
AcDbEntity
  8
AM_5
 62
     3
100
AcDbCircle
 10
-0.1676630872649423
 20
-45.00000381469699
 30
0.0
 40
26.26697057231599
100
AcDbArc
 50
0.0000000000000254
 51
1.498801139320966
  0
INSERT
  5
6C59
330
6690
100
AcDbEntity
  8
AM_5
 62
     3
100
AcDbBlockReference
  2
_OPEN30
 10
26.09032083168049
 20
-44.31296410746235
 30
0.0
 41
2.5
 42
2.5
 43
2.5
 50
274.2264390290009
  0
POINT
  5
6C5A
330
6690
100
AcDbEntity
  8
DEFPOINTS
 62
     0
100
AcDbPoint
 10
26.09830891739499
 20
-44.77096736053568
 30
0.0
  0
POINT
  5
6C5B
330
6690
100
AcDbEntity
  8
DEFPOINTS
 62
     0
100
AcDbPoint
 10
12.14438152313198
 20
-45.00000381469699
 30
0.0
  0
POINT
  5
6C5C
330
6690
100
AcDbEntity
  8
DEFPOINTS
 62
     0
100
AcDbPoint
 10
-27.08998107910202
 20
-45.704425811766
 30
0.0
  0
POINT
  5
6C5D
330
6690
100
AcDbEntity
  8
DEFPOINTS
 62
     0
100
AcDbPoint
 10
0.0
 20
-44.995616912841
 30
0.0
  0
POINT
  5
6C5E
330
6690
100
AcDbEntity
  8
DEFPOINTS
 62
     0
100
AcDbPoint
 10
19.62184524536098
 20
-45.00000381469699
 30
0.0
  0
ENDBLK
  5
669D
330
6690
100
AcDbEntity
  8
0
100
AcDbBlockEnd
  0
BLOCK
  5
66B4
330
66AA
100
AcDbEntity
  8
0
100
AcDbBlockBegin
  2
*D11
 70
     1
 10
0.0
 20
0.0
 30
0.0
  3
*D11
  1

  0
LINE
  5
6B1F
330
66AA
100
AcDbEntity
  8
PV0001_1
 62
     3
100
AcDbLine
 10
-15.000301177978
 20
0.0000000000000018
 30
0.0
 11
-15.000301177978
 21
-16.73438621747556
 31
0.0
  0
LINE
  5
6B20
330
66AA
100
AcDbEntity
  8
PV0001_1
 62
     3
100
AcDbLine
 10
0.0
 20
0.0
 30
0.0
 11
-0.000000000000001
 21
-16.73438621747556
 31
0.0
  0
LINE
  5
6B21
330
66AA
100
AcDbEntity
  8
PV0001_1
 62
     3
100
AcDbLine
 10
-12.500301177978
 20
-15.73438621747556
 30
0.0
 11
-2.5
 21
-15.73438621747556
 31
0.0
  0
INSERT
  5
6B22
330
66AA
100
AcDbEntity
  8
PV0001_1
 62
     3
100
AcDbBlockReference
  2
_OPEN30
 10
-15.000301177978
 20
-15.73438621747556
 30
0.0
 41
2.5
 42
2.5
 43
2.5
 50
180.0
  0
INSERT
  5
6B23
330
66AA
100
AcDbEntity
  8
PV0001_1
 62
     3
100
AcDbBlockReference
  2
_OPEN30
 10
-0.000000000000001
 20
-15.73438621747556
 30
0.0
 41
2.5
 42
2.5
 43
2.5
  0
MTEXT
  5
6B24
330
66AA
100
AcDbEntity
  8
PV0001_1
 62
     2
100
AcDbMText
 10
-7.499650588988998
 20
-12.33438621747556
 30
0.0
 40
3.799999999999999
 41
0.0
 71
     5
 72
     1
  1
15
1001
ACAD
1000
MTEXTBEGIN
1070
    73
1070
     1
1070
    44
1040
1.0
1070
    74
1070
     0
1000
MTEXTEND
  0
POINT
  5
6B25
330
66AA
100
AcDbEntity
  8
DEFPOINTS
 62
     0
100
AcDbPoint
 10
-15.000301177978
 20
0.0000000000000018
 30
0.0
  0
POINT
  5
6B26
330
66AA
100
AcDbEntity
  8
DEFPOINTS
 62
     0
100
AcDbPoint
 10
0.0
 20
0.0
 30
0.0
  0
POINT
  5
6B27
330
66AA
100
AcDbEntity
  8
DEFPOINTS
 62
     0
100
AcDbPoint
 10
-0.000000000000001
 20
-15.73438621747556
 30
0.0
  0
ENDBLK
  5
66B5
330
66AA
100
AcDbEntity
  8
0
100
AcDbBlockEnd
  0
BLOCK
  5
66C0
330
66B6
100
AcDbEntity
  8
0
100
AcDbBlockBegin
  2
*D12
 70
     1
 10
0.0
 20
0.0
 30
0.0
  3
*D12
  1

  0
LINE
  5
6AE7
330
66B6
100
AcDbEntity
  8
AM_5
 62
     3
100
AcDbLine
 10
-119.999992370599
 20
0.000000000000016
 30
0.0
 11
-144.566307067869
 21
0.0000000000000229
 31
0.0
  0
LINE
  5
6AE8
330
66B6
100
AcDbEntity
  8
AM_5
 62
     3
100
AcDbLine
 10
-119.999992370599
 20
10.00000000000001
 30
0.0
 11
-144.566307067869
 21
10.00000000000002
 31
0.0
  0
LINE
  5
6AE9
330
66B6
100
AcDbEntity
  8
AM_5
 62
     3
100
AcDbLine
 10
-143.566307067869
 20
-2.499999999999977
 30
0.0
 11
-143.566307067869
 21
-4.999999999999976
 31
0.0
  0
LINE
  5
6AEA
330
66B6
100
AcDbEntity
  8
AM_5
 62
     3
100
AcDbLine
 10
-143.566307067869
 20
12.50000000000002
 30
0.0
 11
-143.566307067869
 21
15.00000000000002
 31
0.0
  0
LINE
  5
6AEB
330
66B6
100
AcDbEntity
  8
AM_5
 62
     3
100
AcDbLine
 10
-143.566307067869
 20
0.0000000000000227
 30
0.0
 11
-143.566307067869
 21
10.00000000000002
 31
0.0
  0
INSERT
  5
6AEC
330
66B6
100
AcDbEntity
  8
AM_5
 62
     3
100
AcDbBlockReference
  2
_OPEN30
 10
-143.566307067869
 20
0.0000000000000227
 30
0.0
 41
2.5
 42
2.5
 43
2.5
 50
90.0
  0
INSERT
  5
6AED
330
66B6
100
AcDbEntity
  8
AM_5
 62
     3
100
AcDbBlockReference
  2
_OPEN30
 10
-143.566307067869
 20
10.00000000000002
 30
0.0
 41
2.5
 42
2.5
 43
2.5
 50
270.0
  0
MTEXT
  5
6AEE
330
66B6
100
AcDbEntity
  8
AM_5
 62
     2
100
AcDbMText
 10
-146.966307067869
 20
5.067499160766972
 30
0.0
 40
3.799999999999999
 41
0.0
 71
     5
 72
     1
  1
10
 11
0.0000000000000001
 21
1.0
 31
0.0
1001
ACAD
1000
MTEXTBEGIN
1070
    73
1070
     1
1070
    44
1040
1.0
1070
    74
1070
     0
1000
MTEXTEND
  0
POINT
  5
6AEF
330
66B6
100
AcDbEntity
  8
DEFPOINTS
 62
     0
100
AcDbPoint
 10
-119.999992370599
 20
0.000000000000016
 30
0.0
  0
POINT
  5
6AF0
330
66B6
100
AcDbEntity
  8
DEFPOINTS
 62
     0
100
AcDbPoint
 10
-119.999992370599
 20
10.00000000000001
 30
0.0
  0
POINT
  5
6AF1
330
66B6
100
AcDbEntity
  8
DEFPOINTS
 62
     0
100
AcDbPoint
 10
-143.566307067869
 20
10.00000000000002
 30
0.0
  0
ENDBLK
  5
66C1
330
66B6
100
AcDbEntity
  8
0
100
AcDbBlockEnd
  0
BLOCK
  5
66CC
330
66C2
100
AcDbEntity
  8
0
100
AcDbBlockBegin
  2
*D13
 70
     1
 10
0.0
 20
0.0
 30
0.0
  3
*D13
  1

  0
LINE
  5
6ADC
330
66C2
100
AcDbEntity
  8
AM_5
 62
     3
100
AcDbLine
 10
-119.9993057250889
 20
-55.00000381469697
 30
0.0
 11
-144.566307067869
 21
-55.00000381469696
 31
0.0
  0
LINE
  5
6ADD
330
66C2
100
AcDbEntity
  8
AM_5
 62
     3
100
AcDbLine
 10
-119.9993057250889
 20
-45.00000381469698
 30
0.0
 11
-144.566307067869
 21
-45.00000381469697
 31
0.0
  0
LINE
  5
6ADE
330
66C2
100
AcDbEntity
  8
AM_5
 62
     3
100
AcDbLine
 10
-143.566307067869
 20
-57.50000381469697
 30
0.0
 11
-143.566307067869
 21
-60.00000381469697
 31
0.0
  0
LINE
  5
6ADF
330
66C2
100
AcDbEntity
  8
AM_5
 62
     3
100
AcDbLine
 10
-143.566307067869
 20
-42.50000381469698
 30
0.0
 11
-143.566307067869
 21
-40.00000381469698
 31
0.0
  0
LINE
  5
6AE0
330
66C2
100
AcDbEntity
  8
AM_5
 62
     3
100
AcDbLine
 10
-143.566307067869
 20
-55.00000381469697
 30
0.0
 11
-143.566307067869
 21
-45.00000381469698
 31
0.0
  0
INSERT
  5
6AE1
330
66C2
100
AcDbEntity
  8
AM_5
 62
     3
100
AcDbBlockReference
  2
_OPEN30
 10
-143.566307067869
 20
-55.00000381469697
 30
0.0
 41
2.5
 42
2.5
 43
2.5
 50
90.0
  0
INSERT
  5
6AE2
330
66C2
100
AcDbEntity
  8
AM_5
 62
     3
100
AcDbBlockReference
  2
_OPEN30
 10
-143.566307067869
 20
-45.00000381469698
 30
0.0
 41
2.5
 42
2.5
 43
2.5
 50
270.0
  0
MTEXT
  5
6AE3
330
66C2
100
AcDbEntity
  8
AM_5
 62
     2
100
AcDbMText
 10
-146.966307067869
 20
-50.06750488281202
 30
0.0
 40
3.799999999999999
 41
0.0
 71
     5
 72
     1
  1
10
 11
0.0000000000000001
 21
1.0
 31
0.0
1001
ACAD
1000
MTEXTBEGIN
1070
    73
1070
     1
1070
    44
1040
1.0
1070
    74
1070
     0
1000
MTEXTEND
  0
POINT
  5
6AE4
330
66C2
100
AcDbEntity
  8
DEFPOINTS
 62
     0
100
AcDbPoint
 10
-119.9993057250889
 20
-55.00000381469697
 30
0.0
  0
POINT
  5
6AE5
330
66C2
100
AcDbEntity
  8
DEFPOINTS
 62
     0
100
AcDbPoint
 10
-119.9993057250889
 20
-45.00000381469698
 30
0.0
  0
POINT
  5
6AE6
330
66C2
100
AcDbEntity
  8
DEFPOINTS
 62
     0
100
AcDbPoint
 10
-143.566307067869
 20
-45.00000381469698
 30
0.0
  0
ENDBLK
  5
66CD
330
66C2
100
AcDbEntity
  8
0
100
AcDbBlockEnd
  0
BLOCK
  5
67ED
330
67EB
100
AcDbEntity
  8
0
100
AcDbBlockBegin
  2
_DOTSMALL
 70
     0
 10
0.0
 20
0.0
 30
0.0
  3
_DOTSMALL
  1

  0
LWPOLYLINE
  5
67EC
330
67EB
100
AcDbEntity
  8
AM_0
 62
     0
100
AcDbPolyline
 90
        2
 70
     1
 43
0.5
 10
-0.0625
 20
0.0
 42
1.0
 10
0.0625
 20
0.0
 42
1.0
  0
ENDBLK
  5
67EE
330
67EB
100
AcDbEntity
  8
0
100
AcDbBlockEnd
  0
BLOCK
  5
6B4A
330
6B48
100
AcDbEntity
  8
0
100
AcDbBlockBegin
  2
*U15
 70
     1
 10
0.0
 20
0.0
 30
0.0
  3
*U15
  1

  0
LEADER
  5
6B49
330
6B48
100
AcDbEntity
  8
0
  6
CONTINUOUS
 48
0.5
100
AcDbLeader
  3
AM_JIS$7
 76
     2
 10
-43.14281082153299
 20
101.45578765869
 30
0.0
 10
-43.14281082153299
 20
91.455787658691
 30
0.0
1001
ACAD
1000
DSTYLE
1002
{
1070
     6
1000
OPEN30
1070
   173
1070
     1
1070
   176
1070
     0
1070
   341
1005
59
1002
}
  0
ENDBLK
  5
6B4B
330
6B48
100
AcDbEntity
  8
0
100
AcDbBlockEnd
  0
BLOCK
  5
6B4E
330
6B4C
100
AcDbEntity
  8
0
100
AcDbBlockBegin
  2
*U16
 70
     1
 10
0.0
 20
0.0
 30
0.0
  3
*U16
  1

  0
LEADER
  5
6B4D
330
6B4C
100
AcDbEntity
  8
0
  6
CONTINUOUS
 48
0.5
100
AcDbLeader
  3
AM_JIS$7
 76
     2
 10
-33.14281082153299
 20
91.455787658691
 30
0.0
 10
-43.14281082153299
 20
91.455787658691
 30
0.0
1001
ACAD
1000
DSTYLE
1002
{
1070
     6
1000
OPEN30
1070
   173
1070
     1
1070
   176
1070
     0
1070
   341
1005
59
1002
}
  0
ENDBLK
  5
6B4F
330
6B4C
100
AcDbEntity
  8
0
100
AcDbBlockEnd
  0
ENDSEC
  0
SECTION
  2
ENTITIES
  0
TEXT
  5
C58
330
1F
100
AcDbEntity
  8
AM_6
100
AcDbText
 10
-94.97550039745098
 20
-80.72724933265112
 30
0.0
 40
4.0
  1
使用チップ：CTR050500N
 50
0.0000000000002036
 72
     4
 11
-62.0993099212605
 21
-78.72724933265101
 31
0.0
100
AcDbText
  0
LINE
  5
64DF
330
1F
100
AcDbEntity
  8
AM_0
  6
CONTINUOUS
100
AcDbLine
 10
-119.9993057250889
 20
-55.00000381469697
 30
0.0
 11
-4.19931411743201
 21
-55.00000381469699
 31
0.0
  0
LINE
  5
64E0
330
1F
100
AcDbEntity
  8
AM_0
  6
CONTINUOUS
100
AcDbLine
 10
-6.601692199707002
 20
10.0
 30
0.0
 11
-119.999992370599
 21
10.00000000000001
 31
0.0
  0
DIMENSION
  5
64E5
330
1F
100
AcDbEntity
  8
AM_5
100
AcDbDimension
  2
*D6
 10
-119.999992370599
 20
-26.71408462524399
 30
0.0
 11
-59.487396240229
 21
-26.71408462524399
 31
0.0
 70
   160
  1
<>
  3
AM_JIS$0
100
AcDbAlignedDimension
 13
0.0
 23
0.0
 33
0.0
 14
-119.999992370599
 24
0.1349983215340149
 34
0.0
 50
180.0
100
AcDbRotatedDimension
  0
LINE
  5
64E7
330
1F
100
AcDbEntity
  8
AM_0
  6
CONTINUOUS
 48
0.5
100
AcDbLine
 10
-20.39039993286101
 20
0.0000000000000178
 30
0.0
 11
-20.39039993286101
 21
10.0
 31
0.0
  0
LINE
  5
64E8
330
1F
100
AcDbEntity
  8
AM_0
  6
CONTINUOUS
 48
0.5
100
AcDbLine
 10
-17.59469285088073
 20
3.999268036147919
 30
0.0
 11
-14.76790729006447
 21
-0.0000000000034284
 31
0.0
  0
LINE
  5
64E9
330
1F
100
AcDbEntity
  8
AM_0
  6
CONTINUOUS
 48
0.5
100
AcDbLine
 10
-21.28405761718701
 20
10.0
 30
0.0
 11
-20.91634535440286
 21
0.0001822945081784
 31
0.0
  0
LINE
  5
64EA
330
1F
100
AcDbEntity
  8
AM_0
  6
CONTINUOUS
 48
0.5
100
AcDbLine
 10
-3.781200408936001
 20
6.003398895263999
 30
0.0
 11
-0.1133003234860155
 21
0.8551979064950003
 31
0.0
  0
LINE
  5
64EB
330
1F
100
AcDbEntity
  8
AM_0
  6
CONTINUOUS
 48
0.5
100
AcDbLine
 10
-14.60301571131876
 20
-0.2202020895997041
 30
0.0
 11
-18.94270001220701
 21
5.900501251221004
 31
0.0
  0
DIMENSION
  5
64F4
330
1F
100
AcDbEntity
  8
AM_5
100
AcDbDimension
  2
*D7
 10
23.97544048234667
 20
9.999999999999992
 30
0.0
 11
23.97544048234667
 21
5.316749572753995
 31
0.0
 70
   160
  1
<>
  3
AM_JIS$0
100
AcDbAlignedDimension
 13
0.0
 23
0.0
 33
0.0
 14
-6.601692199707002
 24
10.0
 34
0.0
 50
270.0
100
AcDbRotatedDimension
  0
ELLIPSE
  5
64F6
330
1F
100
AcDbEntity
  8
AM_0
  6
CONTINUOUS
 48
0.5
100
AcDbEllipse
 10
-17.661399658203
 20
7.536399841309008
 30
0.0
 11
-2.070940064852002
 21
-0.4855518556889994
 31
0.0
210
0.0
220
0.0
230
1.0
 40
0.5305348653727
 41
1.693726643782383
 42
1.840065955755845
  0
SPLINE
  5
64F7
330
1F
100
AcDbEntity
  8
AM_0
  6
CONTINUOUS
 48
0.5
100
AcDbSpline
210
0.0
220
0.0
230
1.0
 70
     8
 71
     3
 72
    11
 73
     7
 74
     5
 42
0.0000000001
 43
0.0000000001
 44
0.0000000001
 40
0.0
 40
0.0
 40
0.0
 40
0.0
 40
0.0334305598074721
 40
0.1085793462617511
 40
0.2135014392493937
 40
0.3324401473029293
 40
0.3324401473029293
 40
0.3324401473029293
 40
0.3324401473029293
 10
-3.951099395752009
 20
6.287700653076996
 30
0.0
 10
-3.948089859614472
 20
6.276931926663041
 30
0.0
 10
-3.938315166392261
 20
6.241956105712612
 30
0.0
 10
-3.898980761318626
 20
6.181599293140865
 30
0.0
 10
-3.847080758873906
 20
6.096919975582601
 30
0.0
 10
-3.804058445484602
 20
6.035848485051677
 30
0.0
 10
-3.781200408936001
 20
6.003400802613001
 30
0.0
 11
-3.951099395752009
 21
6.287700653076996
 31
0.0
 11
-3.941101074219005
 21
6.255800247193001
 31
0.0
 11
-3.904800415039005
 21
6.190000534058001
 31
0.0
 11
-3.848598480225007
 21
6.101400375367
 31
0.0
 11
-3.781200408936001
 21
6.003400802613001
 31
0.0
  0
LINE
  5
6513
330
1F
100
AcDbEntity
  8
AM_0
  6
CONTINUOUS
 48
0.5
100
AcDbLine
 10
-15.92649841308602
 20
6.511697769164998
 30
0.0
 11
-9.935794830322009
 21
6.517198562623002
 31
0.0
  0
LINE
  5
6514
330
1F
100
AcDbEntity
  8
AM_0
  6
CONTINUOUS
 48
0.5
100
AcDbLine
 10
-10.026599884033
 20
6.511898040772004
 30
0.0
 11
-17.19410324096699
 21
6.505298614502005
 31
0.0
  0
LINE
  5
6515
330
1F
100
AcDbEntity
  8
AM_0
  6
CONTINUOUS
 48
0.5
100
AcDbLine
 10
-5.453598022461022
 20
6.521299362183002
 30
0.0
 11
-4.353500366211022
 21
6.522300720215
 31
0.0
  0
LINE
  5
6516
330
1F
100
AcDbEntity
  8
AM_0
  6
CONTINUOUS
 48
0.5
100
AcDbLine
 10
-6.601692199707002
 20
10.0
 30
0.0
 11
-4.199996948241988
 21
6.569999694825001
 31
0.0
  0
LINE
  5
6517
330
1F
100
AcDbEntity
  8
AM_0
  6
CONTINUOUS
 48
0.5
100
AcDbLine
 10
-5.368103027344005
 20
6.516099929809997
 30
0.0
 11
-4.350961517775377
 21
6.517104457216295
 31
0.0
  0
ARC
  5
6518
330
1F
100
AcDbEntity
  8
AM_0
  6
CONTINUOUS
 48
0.5
100
AcDbCircle
 10
-4.290699005127009
 20
6.304899215699003
 30
0.0
 40
0.3000355362892
100
AcDbArc
 50
35.02487720578716
 51
36.88517484888736
  0
ARC
  5
6519
330
1F
100
AcDbEntity
  8
AM_0
  6
CONTINUOUS
 48
0.5
100
AcDbCircle
 10
-4.303798675536995
 20
6.322299957276002
 30
0.0
 40
0.3000600039959
100
AcDbArc
 50
36.88517484888736
 51
75.77847130385437
  0
ARC
  5
651A
330
1F
100
AcDbEntity
  8
AM_0
  6
CONTINUOUS
 48
0.5
100
AcDbCircle
 10
-4.303798675536995
 20
6.322299957276002
 30
0.0
 40
0.3000355362892
100
AcDbArc
 50
35.02487720578716
 51
36.88517484888736
  0
ARC
  5
651B
330
1F
100
AcDbEntity
  8
AM_0
  6
CONTINUOUS
 48
0.5
100
AcDbCircle
 10
-4.352478975139873
 20
6.39166825991076
 30
0.0
 40
0.1254348567396544
100
AcDbArc
 50
35.4639978957469
 51
89.94945979461492
  0
LINE
  5
651C
330
1F
100
AcDbEntity
  8
AM_0
  6
CONTINUOUS
 48
0.5
100
AcDbLine
 10
-4.353496551514012
 20
6.522300720215
 30
0.0
 11
-4.222198486328011
 21
6.522399902344006
 31
0.0
  0
LINE
  5
651D
330
1F
100
AcDbEntity
  8
AM_0
  6
CONTINUOUS
 48
0.5
100
AcDbLine
 10
-4.200000762938998
 20
6.570001602173001
 30
0.0
 11
-4.222198486328011
 21
6.522401809693001
 31
0.0
  0
LINE
  5
651E
330
1F
100
AcDbEntity
  8
AM_0
  6
CONTINUOUS
 48
0.5
100
AcDbLine
 10
-4.050701141356995
 20
6.484998703003001
 30
0.0
 11
-4.063800811768004
 21
6.502395629882998
 31
0.0
  0
LINE
  5
651F
330
1F
100
AcDbEntity
  8
AM_0
  6
CONTINUOUS
 48
0.5
100
AcDbLine
 10
-3.937900543213004
 20
6.323097229004006
 30
0.0
 11
-3.940601348877009
 21
6.327997207642
 31
0.0
  0
LINE
  5
6520
330
1F
100
AcDbEntity
  8
AM_0
  6
CONTINUOUS
 48
0.5
100
AcDbLine
 10
-3.940601348877009
 20
6.327997207642
 30
0.0
 11
-4.044998168944999
 21
6.477098464966005
 31
0.0
  0
LINE
  5
6521
330
1F
100
AcDbEntity
  8
AM_0
  6
CONTINUOUS
 48
0.5
100
AcDbLine
 10
-4.05810165405299
 20
6.494499206542998
 30
0.0
 11
-4.045001983643004
 21
6.477098464966005
 31
0.0
  0
LINE
  5
6522
330
1F
100
AcDbEntity
  8
AM_0
  6
CONTINUOUS
 48
0.5
100
AcDbLine
 10
-4.349770521108589
 20
6.522304407572736
 30
0.0
 11
-4.352368329946565
 21
6.517103067850737
 31
0.0
  0
LINE
  5
6523
330
1F
100
AcDbEntity
  8
AM_0
  6
CONTINUOUS
 48
0.5
100
AcDbLine
 10
-3.937900543213004
 20
6.323097229004006
 30
0.0
 11
-3.951099395752009
 21
6.287700653076996
 31
0.0
  0
LINE
  5
6524
330
1F
100
AcDbEntity
  8
AM_0
  6
CONTINUOUS
 48
0.5
100
AcDbLine
 10
-3.937904357910014
 20
6.323097229004006
 30
0.0
 11
-4.05810165405299
 21
6.494497299195004
 31
0.0
  0
LINE
  5
6525
330
1F
100
AcDbEntity
  8
AM_0
  6
CONTINUOUS
 48
0.5
100
AcDbLine
 10
-4.058097839355014
 20
6.494499206542998
 30
0.0
 11
-4.250314762244801
 21
6.464444470919771
 31
0.0
  0
ARC
  5
6529
330
1F
100
AcDbEntity
  8
AM_0
  6
CONTINUOUS
 48
0.5
100
AcDbCircle
 10
-7.697399139404012
 20
8.787599563599004
 30
0.0
 40
3.199723243713399
100
AcDbArc
 50
235.0106201979433
 51
305.0257931343831
  0
LINE
  5
652A
330
1F
100
AcDbEntity
  8
AM_0
  6
CONTINUOUS
 48
0.5
100
AcDbLine
 10
-9.935798645018991
 20
6.517200469971003
 30
0.0
 11
-5.453601837158004
 21
6.521299362183002
 31
0.0
  0
LINE
  5
6534
330
1F
100
AcDbEntity
  8
AM_0
  6
CONTINUOUS
 48
0.5
100
AcDbLine
 10
-6.10720062255902
 20
6.520700454712001
 30
0.0
 11
-5.862499237061001
 21
6.169599533080998
 31
0.0
  0
LINE
  5
6535
330
1F
100
AcDbEntity
  8
AM_0
  6
CONTINUOUS
 48
0.5
100
AcDbLine
 10
-5.453598022461022
 20
6.521299362183002
 30
0.0
 11
-5.368099212646001
 21
6.516099929809997
 31
0.0
  0
LINE
  5
6539
330
1F
100
AcDbEntity
  8
AM_0
  6
CONTINUOUS
 48
0.5
100
AcDbLine
 10
-5.862499237061001
 20
6.169597625733005
 30
0.0
 11
-5.368103027344005
 21
6.516098022461002
 31
0.0
  0
LINE
  5
6545
330
1F
100
AcDbEntity
  8
AM_0
  6
CONTINUOUS
 48
0.5
100
AcDbLine
 10
-10.026599884033
 20
6.511898040772004
 30
0.0
 11
-9.935798645018991
 21
6.517198562623002
 31
0.0
  0
LINE
  5
6546
330
1F
100
AcDbEntity
  8
AM_0
  6
CONTINUOUS
 48
0.5
100
AcDbLine
 10
-9.245502471923998
 20
6.517898559571003
 30
0.0
 11
-9.532199859618998
 21
6.166198730469007
 31
0.0
  0
LINE
  5
6548
330
1F
100
AcDbEntity
  8
AM_0
  6
CONTINUOUS
 48
0.5
100
AcDbLine
 10
-9.532199859618998
 20
6.166200637818002
 30
0.0
 11
-10.026599884033
 21
6.511899948121
 31
0.0
  0
LINE
  5
6549
330
1F
100
AcDbEntity
  8
AM_0
  6
CONTINUOUS
 48
0.5
100
AcDbLine
 10
-16.893600280762
 20
6.926700592041004
 30
0.0
 11
-17.746204193115
 21
7.323400497437009
 31
0.0
  0
LINE
  5
654A
330
1F
100
AcDbEntity
  8
AM_0
  6
CONTINUOUS
 48
0.5
100
AcDbLine
 10
-15.88449841308602
 20
6.511701583863002
 30
0.0
 11
-17.809001739502
 21
7.407201766968003
 31
0.0
  0
LINE
  5
654B
330
1F
100
AcDbEntity
  8
AM_0
  6
CONTINUOUS
 48
0.5
100
AcDbLine
 10
-15.88449841308602
 20
6.511701583863002
 30
0.0
 11
-16.142700012207
 21
6.595502853394004
 31
0.0
  0
LINE
  5
654C
330
1F
100
AcDbEntity
  8
AM_0
  6
CONTINUOUS
 48
0.5
100
AcDbLine
 10
-16.14269619751001
 20
6.595502853394004
 30
0.0
 11
-16.914493377686
 21
6.954601287842005
 31
0.0
  0
LINE
  5
654D
330
1F
100
AcDbEntity
  8
AM_0
  6
CONTINUOUS
 48
0.5
100
AcDbLine
 10
-16.91449719238301
 20
6.954601287842005
 30
0.0
 11
-16.89359646606399
 21
6.926700592041004
 31
0.0
  0
LINE
  5
654E
330
1F
100
AcDbEntity
  8
AM_0
  6
CONTINUOUS
 48
0.5
100
AcDbLine
 10
-16.893600280762
 20
6.926698684693003
 30
0.0
 11
-16.85459881591799
 21
6.926797866822002
 31
0.0
  0
LINE
  5
654F
330
1F
100
AcDbEntity
  8
AM_0
  6
CONTINUOUS
 48
0.5
100
AcDbLine
 10
-16.16309719848601
 20
6.604997634888002
 30
0.0
 11
-16.862197692871
 21
6.606298446656
 31
0.0
  0
ARC
  5
6550
330
1F
100
AcDbEntity
  8
AM_0
  6
CONTINUOUS
 48
0.5
100
AcDbCircle
 10
-18.37990170288099
 20
5.964199066163007
 30
0.0
 40
1.4996666908264
100
AcDbArc
 50
65.00364298248641
 51
214.9741817205375
  0
ARC
  5
6551
330
1F
100
AcDbEntity
  8
AM_0
  6
CONTINUOUS
 48
0.5
100
AcDbCircle
 10
-18.442699249268
 20
6.047899246216007
 30
0.0
 40
1.499757409095799
100
AcDbArc
 50
65.00526856750844
 51
216.8805933858199
  0
ARC
  5
6552
330
1F
100
AcDbEntity
  8
AM_0
  6
CONTINUOUS
 48
0.5
100
AcDbCircle
 10
-18.442699249268
 20
6.047899246216007
 30
0.0
 40
1.499960064888
100
AcDbArc
 50
216.8805933858199
 51
245.0036479914445
  0
ARC
  5
6553
330
1F
100
AcDbEntity
  8
AM_0
  6
CONTINUOUS
 48
0.5
100
AcDbCircle
 10
-18.17539959716799
 20
8.221500396729002
 30
0.0
 40
1.999560713768
100
AcDbArc
 50
245.5336113077262
 51
300.8058973594708
  0
LINE
  5
6554
330
1F
100
AcDbEntity
  8
AM_0
  6
CONTINUOUS
 48
0.5
100
AcDbLine
 10
-17.74620037841799
 20
7.323400497437009
 30
0.0
 11
-17.809001739502
 21
7.407197952271007
 31
0.0
  0
LINE
  5
6555
330
1F
100
AcDbEntity
  8
AM_0
  6
CONTINUOUS
 48
0.5
100
AcDbLine
 10
-19.07640057373001
 20
4.688701629639001
 30
0.0
 11
-17.59469285088073
 21
3.999268036147917
 31
0.0
  0
LINE
  5
6556
330
1F
100
AcDbEntity
  8
AM_0
  6
CONTINUOUS
 48
0.5
100
AcDbLine
 10
-17.87320004272501
 20
4.105697631836004
 30
0.0
 11
-18.787098510742
 21
5.388797760010002
 31
0.0
  0
LINE
  5
6557
330
1F
100
AcDbEntity
  8
AM_0
  6
CONTINUOUS
 48
0.5
100
AcDbLine
 10
-18.787098510742
 20
5.388801574707005
 30
0.0
 11
-18.94269619751003
 21
5.900501251221004
 31
0.0
  0
LINE
  5
6558
330
1F
100
AcDbEntity
  8
AM_0
  6
CONTINUOUS
 48
0.5
100
AcDbLine
 10
-19.00413926473967
 20
6.400166515252553
 30
0.0
 11
-18.94270001220701
 21
5.900501251221004
 31
0.0
  0
SPLINE
  5
6559
330
1F
100
AcDbEntity
  8
AM_0
  6
CONTINUOUS
 48
0.5
100
AcDbSpline
210
0.0
220
0.0
230
1.0
 70
     8
 71
     3
 72
    11
 73
     7
 74
     5
 42
0.0000000001
 43
0.0000000001
 44
0.0000000001
 40
0.0
 40
0.0
 40
0.0
 40
0.0
 40
0.0732247591143862
 40
0.1409500337246986
 40
0.2007894845578725
 40
0.2528519417757463
 40
0.2528519417757463
 40
0.2528519417757463
 40
0.2528519417757463
 10
-14.95531463623001
 20
-47.04300308227499
 30
0.0
 10
-14.95675545619981
 20
-47.01857058429587
 30
0.0
 10
-14.95952888455643
 20
-46.97154057073508
 30
0.0
 10
-14.9770888203875
 20
-46.90664832646932
 30
0.0
 10
-15.00296013914492
 20
-46.85161938510765
 30
0.0
 10
-15.0293408735237
 20
-46.8249239079759
 30
0.0
 10
-15.04161453247101
 20
-46.81250381469699
 30
0.0
 11
-14.95531463623001
 21
-47.04300308227499
 31
0.0
 11
-14.96221542358401
 21
-46.97010421752899
 31
0.0
 11
-14.97981262207
 21
-46.90470504760699
 31
0.0
 11
-15.007015228271
 21
-46.85140609741199
 31
0.0
 11
-15.04161453247101
 21
-46.81250381469699
 31
0.0
  0
ELLIPSE
  5
655A
330
1F
100
AcDbEntity
  8
AM_0
  6
CONTINUOUS
 48
0.5
100
AcDbEllipse
 10
-4.290016174316008
 20
-47.835002899169
 30
0.0
 11
-0.2998981466729944
 21
-0.0078582762850061
 31
0.0
210
0.0
220
0.0
230
1.0
 40
0.0350055043449
 41
1.89964652571705
 42
2.600880870053041
  0
SPLINE
  5
655B
330
1F
100
AcDbEntity
  8
AM_0
  6
CONTINUOUS
 48
0.5
100
AcDbSpline
210
0.0
220
0.0
230
1.0
 70
     8
 71
     3
 72
    11
 73
     7
 74
     5
 42
0.0000000001
 43
0.0000000001
 44
0.0000000001
 40
0.0
 40
0.0
 40
0.0
 40
0.0
 40
0.017397629809449
 40
0.0346045536902721
 40
0.0517207836316446
 40
0.0686862606343315
 40
0.0686862606343315
 40
0.0686862606343315
 40
0.0686862606343315
 10
-3.950412750243998
 20
-46.97510147094699
 30
0.0
 10
-3.950559731916147
 20
-46.96930322414877
 30
0.0
 10
-3.950852084105559
 20
-46.95777028863768
 30
0.0
 10
-3.95046366123139
 20
-46.94053124013366
 30
0.0
 10
-3.949779832855817
 20
-46.92344310445974
 30
0.0
 10
-3.948666628141823
 20
-46.91213475129245
 30
0.0
 10
-3.948112487792997
 20
-46.906505584716
 30
0.0
 11
-3.950412750243998
 21
-46.97510147094699
 31
0.0
 11
-3.950714111328011
 21
-46.957706451416
 31
0.0
 11
-3.950412750243998
 21
-46.940502166748
 31
0.0
 11
-3.949611663817989
 21
-46.923404693603
 31
0.0
 11
-3.948112487792997
 21
-46.906505584716
 31
0.0
  0
ELLIPSE
  5
655E
330
1F
100
AcDbEntity
  8
AM_0
  6
CONTINUOUS
 48
0.5
100
AcDbEllipse
 10
-0.7754135131840201
 20
-44.95600509643499
 30
0.0
 11
1.995044070977642
 21
0.0523842154452261
 31
0.0
210
0.0
220
0.0
230
1.0
 40
0.0349744773420869
 41
4.167407540447124
 42
5.110657988107562
  0
ELLIPSE
  5
655F
330
1F
100
AcDbEntity
  8
AM_0
  6
CONTINUOUS
 48
0.5
100
AcDbEllipse
 10
-0.2613143920900143
 20
-64.57600021361898
 30
0.0
 11
0.5990343326619981
 21
-22.76852075066002
 31
0.0
210
0.0
220
0.0
230
1.0
 40
0.087810170053
 41
3.679632916929364
 42
3.721101553390137
  0
ELLIPSE
  5
6560
330
1F
100
AcDbEntity
  8
AM_0
  6
CONTINUOUS
 48
0.5
100
AcDbEllipse
 10
-14.63671112060501
 20
-45.38309860229399
 30
0.0
 11
-0.1249561330069966
 21
-0.0032768249949981
 31
0.0
210
0.0
220
0.0
230
1.0
 40
0.0351993318986
 41
4.709971338694058
 42
5.497713095249745
  0
ELLIPSE
  5
6561
330
1F
100
AcDbEntity
  8
AM_0
  6
CONTINUOUS
 48
0.5
100
AcDbEllipse
 10
-14.58431243896501
 20
-47.38120651245099
 30
0.0
 11
-0.2998981466730015
 21
-0.0078582762839971
 31
0.0
210
0.0
220
0.0
230
1.0
 40
0.0349800824349
 41
4.709989841460098
 42
5.742244615138281
  0
SPLINE
  5
6562
330
1F
100
AcDbEntity
  8
AM_0
  6
CONTINUOUS
 48
0.5
100
AcDbSpline
210
0.0
220
0.0
230
1.0
 70
     8
 71
     3
 72
    11
 73
     7
 74
     5
 42
0.0000000001
 43
0.0000000001
 44
0.0000000001
 40
0.0
 40
0.0
 40
0.0
 40
0.0
 40
0.7237280575915508
 40
1.630355558784335
 40
2.538912824312036
 40
3.268031898848219
 40
3.268031898848219
 40
3.268031898848219
 40
3.268031898848219
 10
-9.754112243652002
 20
-45.144306182861
 30
0.0
 10
-9.995349672399946
 20
-45.1409581441139
 30
0.0
 10
-10.53878968252598
 20
-45.13341595540767
 30
0.0
 10
-11.38499009223464
 20
-45.15202853314806
 30
0.0
 10
-12.23281071713759
 20
-45.17735373880568
 30
0.0
 10
-12.77757661561577
 20
-45.21302119920234
 30
0.0
 10
-13.02011489868201
 20
-45.228900909423
 30
0.0
 11
-9.754112243652002
 21
-45.144306182861
 31
0.0
 11
-10.47781372070301
 21
-45.13810348510699
 31
0.0
 11
-11.38431549072299
 21
-45.15320205688399
 31
0.0
 11
-12.29231262207
 21
-45.18510055541899
 31
0.0
 11
-13.02011489868201
 21
-45.228900909423
 31
0.0
  0
ELLIPSE
  5
6563
330
1F
100
AcDbEntity
  8
AM_0
  6
CONTINUOUS
 48
0.5
100
AcDbEllipse
 10
-11.390213012695
 20
-45.416004180908
 30
0.0
 11
-2.799037867236002
 21
-0.0733489947479878
 31
0.0
210
0.0
220
0.0
230
1.0
 40
0.0348919491843
 41
5.747100072726812
 42
6.18950924006413
  0
ELLIPSE
  5
6564
330
1F
100
AcDbEntity
  8
AM_0
  6
CONTINUOUS
 48
0.5
100
AcDbEllipse
 10
-11.390213012695
 20
-45.416004180908
 30
0.0
 11
-2.799037867236002
 21
-0.0733489947479878
 31
0.0
210
0.0
220
0.0
230
1.0
 40
0.0348919491843
 41
6.18950924006413
 42
6.283185307179586
  0
ELLIPSE
  5
6565
330
1F
100
AcDbEntity
  8
AM_0
  6
CONTINUOUS
 48
0.5
100
AcDbEllipse
 10
-11.37971496582
 20
-45.81570053100499
 30
0.0
 11
-2.799039913622998
 21
-0.0733528151920094
 31
0.0
210
0.0
220
0.0
230
1.0
 40
0.03489326621
 41
5.751021408544756
 42
6.283185307179586
  0
SPLINE
  5
6566
330
1F
100
AcDbEntity
  8
AM_0
  6
CONTINUOUS
 48
0.5
100
AcDbSpline
210
0.0
220
0.0
230
1.0
 70
     8
 71
     3
 72
    11
 73
     7
 74
     5
 42
0.0000000001
 43
0.0000000001
 44
0.0000000001
 40
0.0
 40
0.0
 40
0.0
 40
0.0
 40
0.0220104799304059
 40
0.0613624239643647
 40
0.1158427968688396
 40
0.1813285533203078
 40
0.1813285533203078
 40
0.1813285533203078
 40
0.1813285533203078
 10
-14.91400128173799
 20
-0.1591987609870049
 30
0.0
 10
-14.91612653361738
 20
-0.1521613396191333
 30
0.0
 10
-14.92205146607078
 20
-0.1325419021985674
 30
0.0
 10
-14.94094050198758
 20
-0.098607277031521
 30
0.0
 10
-14.96716534046885
 20
-0.0525247644761901
 30
0.0
 10
-14.98860043211881
 20
-0.0187397362252783
 30
0.0
 10
-15.000301177978
 20
-0.0002975463870047
 30
0.0
 11
-14.91400128173799
 21
-0.1591987609870049
 31
0.0
 11
-14.92090206909199
 21
-0.138298034668006
 31
0.0
 11
-14.93849926757801
 21
-0.1030998229990079
 31
0.0
 11
-14.96570187377901
 21
-0.0558967590340078
 31
0.0
 11
-15.000301177978
 21
-0.0002975463870047
 31
0.0
  0
SPLINE
  5
6567
330
1F
100
AcDbEntity
  8
AM_0
  6
CONTINUOUS
 48
0.5
100
AcDbSpline
210
0.0
220
0.0
230
1.0
 70
     8
 71
     3
 72
    11
 73
     7
 74
     5
 42
0.0000000001
 43
0.0000000001
 44
0.0000000001
 40
0.0
 40
0.0
 40
0.0
 40
0.0
 40
0.0335170080074111
 40
0.1051473686689671
 40
0.2065263556908239
 40
0.3236467306390756
 40
0.3236467306390756
 40
0.3236467306390756
 40
0.3236467306390756
 10
-7.069999694824019
 20
-0.3702011108389964
 30
0.0
 10
-7.059977918842128
 20
-0.3651093094229893
 30
0.0
 10
-7.028538257710899
 20
-0.3491356425443798
 30
0.0
 10
-6.958412174831869
 20
-0.3443334309836996
 30
0.0
 10
-6.862699013669566
 20
-0.3354125273347127
 30
0.0
 10
-6.789718199412141
 20
-0.3352104168701381
 30
0.0
 10
-6.750598907471015
 20
-0.335102081297995
 30
0.0
 11
-7.069999694824019
 21
-0.3702011108389964
 31
0.0
 11
-7.039501190186001
 21
-0.356300354002995
 31
0.0
 11
-6.968799591063998
 21
-0.3448028564449981
 31
0.0
 11
-6.86769866943402
 21
-0.337299346922995
 31
0.0
 11
-6.750598907471015
 21
-0.335102081297995
 31
0.0
  0
ELLIPSE
  5
6568
330
1F
100
AcDbEntity
  8
AM_0
  6
CONTINUOUS
 48
0.5
100
AcDbEllipse
 10
0.226200103759993
 20
-3.178600311278998
 30
0.0
 11
0.1618269868990008
 21
-3.538301585097996
 31
0.0
210
0.0
220
0.0
230
1.0
 40
0.0521743207191
 41
3.593939295309006
 42
3.624914168152086
  0
ELLIPSE
  5
6569
330
1F
100
AcDbEntity
  8
AM_0
  6
CONTINUOUS
 48
0.5
100
AcDbEllipse
 10
-0.2620010375979973
 20
-2.527900695799999
 30
0.0
 11
1.090448257356001
 21
-2.702602437511998
 31
0.0
210
0.0
220
0.0
230
0.9999999999999998
 40
0.6583746575743002
 41
3.419781936909806
 42
3.566485568511719
  0
DIMENSION
  5
6572
330
1F
100
AcDbEntity
  8
AM_5
100
AcDbDimension
  2
*D9
 10
26.03561687469499
 20
-45.000003814697
 30
0.0
 11
26.03561687469499
 21
-50.00000381469701
 31
0.0
 70
   160
  1
<>
  3
AM_JIS$0
100
AcDbAlignedDimension
 13
-4.19931411743201
 23
-55.00000381469699
 33
0.0
 14
-0.0000114440919958
 24
-45.00000381469699
 34
0.0
 50
270.0
100
AcDbRotatedDimension
1001
ACAD
1000
DSTYLE
1002
{
1070
   173
1070
     1
1070
   271
1070
     5
1070
     5
1000

1070
     6
1000
OPEN30
1070
     7
1000
DOTSMALL
1002
}
  0
DIMENSION
  5
6573
330
1F
100
AcDbEntity
  8
AM_5
100
AcDbDimension
  2
*D10
 10
19.62184524536098
 20
-45.00000381469699
 30
0.0
 11
26.08245944976786
 21
-44.05936050415002
 31
0.0
 70
   162
  1
 
  3
AM_JIS$2
100
AcDb2LineAngularDimension
 13
-27.08998107910201
 23
-45.70442581176599
 33
0.0
 14
0.0
 24
-44.995616912841
 34
0.0
 15
12.14438152313198
 25
-45.00000381469699
 35
0.0
 16
26.09830891739499
 26
-44.77096736053568
 36
0.0
1001
ACAD
1000
DSTYLE
1002
{
1070
   271
1070
     0
1070
   281
1070
     1
1070
   282
1070
     0
1070
    76
1070
     0
1070
     7
1000
OPEN30
1070
     5
1000

1070
   173
1070
     1
1070
     6
1000
NONE
1002
}
  0
MTEXT
  5
6574
330
1F
100
AcDbEntity
  8
AM_5
 62
     2
100
AcDbMText
 10
21.8010055296364
 20
-41.85165758561492
 30
0.0
 40
3.2
 41
0.0
 71
     4
 72
     5
  1
\T1.4;\W0.59;1°30'
 11
-0.0174524064372832
 21
0.9998476951563912
 31
0.0
1001
ACAD
1000
MTEXTBEGIN
1070
    73
1070
     1
1070
    44
1040
1.0
1070
    74
1070
     0
1000
MTEXTEND
  0
ARC
  5
6584
330
1F
100
AcDbEntity
  8
AM_0
  6
CONTINUOUS
 48
0.5
100
AcDbCircle
 10
-11.39350128173799
 20
-2.362499237059997
 30
0.0
 40
2.8999760150909
100
AcDbArc
 50
223.6223725872138
 51
31.17958634363047
  0
ARC
  5
6586
330
1F
100
AcDbEntity
  8
AM_0
  6
CONTINUOUS
 48
0.5
100
AcDbCircle
 10
-11.29610061645499
 20
-2.408897399901993
 30
0.0
 40
3.199723243713399
100
AcDbArc
 50
55.01062543427224
 51
125.0232916912849
  0
ARC
  5
658B
330
1F
100
AcDbEntity
  8
AM_0
  6
CONTINUOUS
 48
0.5
100
AcDbCircle
 10
-11.39089965820301
 20
-2.365997314452995
 30
0.0
 40
2.799920082092299
100
AcDbArc
 50
216.881358367005
 51
36.88176977221697
  0
ARC
  5
658C
330
1F
100
AcDbEntity
  8
AM_0
  6
CONTINUOUS
 48
0.5
100
AcDbCircle
 10
-11.39089965820301
 20
-2.365997314452995
 30
0.0
 40
2.8000600337982
100
AcDbArc
 50
36.88175975430703
 51
216.881358367005
  0
ARC
  5
658D
330
1F
100
AcDbEntity
  8
AM_0
  6
CONTINUOUS
 48
0.5
100
AcDbCircle
 10
-11.38040161132801
 20
-2.379898071288996
 30
0.0
 40
2.7999801635742
100
AcDbArc
 50
216.8829941973149
 51
36.88013052681524
  0
LINE
  5
658F
330
1F
100
AcDbEntity
  8
AM_0
  6
CONTINUOUS
 48
0.5
100
AcDbLine
 10
-9.328701019286995
 20
-6.0
 30
0.0
 11
-13.356101989746
 21
-5.999999999999997
 31
0.0
  0
DIMENSION
  5
6593
330
1F
100
AcDbEntity
  8
PV0001_1
100
AcDbDimension
  2
*D11
 10
-0.000000000000001
 20
-15.73438621747556
 30
0.0
 11
-7.499650588988998
 21
-15.73438621747556
 31
0.0
 70
   160
  1
<>
  3
AM_JIS$0
100
AcDbAlignedDimension
 13
-15.000301177978
 23
0.0000000000000018
 33
0.0
 14
0.0
 24
0.0
 34
0.0
 50
180.0
100
AcDbRotatedDimension
  0
LINE
  5
6594
330
1F
100
AcDbEntity
  8
AM_0
  6
CONTINUOUS
 48
0.5
100
AcDbLine
 10
-6.750602722167997
 20
-0.335102081297995
 30
0.0
 11
-1.988899230957002
 21
-0.3614006042479971
 31
0.0
  0
LINE
  5
6595
330
1F
100
AcDbEntity
  8
AM_0
  6
CONTINUOUS
 48
0.5
100
AcDbLine
 10
-8.966899871826001
 20
-0.1330986022939964
 30
0.0
 11
-1.799400329590014
 21
-0.1265983581539984
 31
0.0
  0
ARC
  5
6596
330
1F
100
AcDbEntity
  8
AM_0
  6
CONTINUOUS
 48
0.5
100
AcDbCircle
 10
-0.7212982177730112
 20
-1.915802001952996
 30
0.0
 40
2.0016386508942
100
AcDbArc
 50
68.96084285172519
 51
129.1969505006048
  0
ARC
  5
6597
330
1F
100
AcDbEntity
  8
AM_0
  6
CONTINUOUS
 48
0.5
100
AcDbCircle
 10
-0.7761001586910084
 20
-1.842800140379998
 30
0.0
 40
1.999560713768
100
AcDbArc
 50
67.1614841564001
 51
120.8058991807095
  0
LINE
  5
6598
330
1F
100
AcDbEntity
  8
AM_0
  6
CONTINUOUS
 48
0.5
100
AcDbLine
 10
-0.1132965087890057
 20
0.8552017211920031
 30
0.0
 11
-0.0586967468260014
 21
0.4781990051270029
 31
0.0
  0
LINE
  5
6599
330
1F
100
AcDbEntity
  8
AM_0
  6
CONTINUOUS
 48
0.5
100
AcDbLine
 10
0.0
 20
-0.0000038146969956
 30
0.0
 11
-0.0587005615230112
 21
0.4781990051270029
 31
0.0
  0
LINE
  5
659D
330
1F
100
AcDbEntity
  8
AM_0
  6
CONTINUOUS
 48
0.5
100
AcDbLine
 10
-7.562198638916015
 20
-0.859897613524998
 30
0.0
 11
-8.33739852905299
 21
-5.256198883055998
 31
0.0
  0
LINE
  5
659E
330
1F
100
AcDbEntity
  8
AM_0
  6
CONTINUOUS
 48
0.5
100
AcDbLine
 10
-7.562202453612997
 20
-0.859897613524998
 30
0.0
 11
-8.912399291991988
 21
-0.8610992431639967
 31
0.0
  0
LINE
  5
659F
330
1F
100
AcDbEntity
  8
AM_0
  6
CONTINUOUS
 48
0.5
100
AcDbLine
 10
-7.447299957275021
 20
-0.3939018249509996
 30
0.0
 11
-9.401397705078011
 21
-0.395702362059998
 31
0.0
  0
LINE
  5
65A0
330
1F
100
AcDbEntity
  8
AM_0
  6
CONTINUOUS
 48
0.5
100
AcDbLine
 10
-9.418899536133011
 20
-0.3782005310049978
 30
0.0
 11
-7.073200225829992
 21
-0.3760986328119937
 31
0.0
  0
LINE
  5
65A1
330
1F
100
AcDbEntity
  8
AM_0
  6
CONTINUOUS
 48
0.5
100
AcDbLine
 10
-7.5
 20
-0.5069007873529952
 30
0.0
 11
-7.562198638916015
 21
-0.8599014282219936
 31
0.0
  0
LINE
  5
65A2
330
1F
100
AcDbEntity
  8
AM_0
  6
CONTINUOUS
 48
0.5
100
AcDbLine
 10
-7.447299957275021
 20
-0.3939018249509996
 30
0.0
 11
-7.5
 21
-0.5069007873529952
 31
0.0
  0
LINE
  5
65A3
330
1F
100
AcDbEntity
  8
AM_0
  6
CONTINUOUS
 48
0.5
100
AcDbLine
 10
-7.073200225829992
 20
-0.3761024475089965
 30
0.0
 11
-7.086299896240007
 21
-0.3936004638669939
 31
0.0
  0
LINE
  5
65A4
330
1F
100
AcDbEntity
  8
AM_0
  6
CONTINUOUS
 48
0.5
100
AcDbLine
 10
-7.086299896240007
 20
-0.3936004638669939
 30
0.0
 11
-7.447299957275021
 21
-0.3939018249509996
 31
0.0
  0
LINE
  5
65A5
330
1F
100
AcDbEntity
  8
AM_0
  6
CONTINUOUS
 48
0.5
100
AcDbLine
 10
-7.073200225829992
 20
-0.3761062622069939
 30
0.0
 11
-7.069999694824019
 21
-0.3702011108389964
 31
0.0
  0
LINE
  5
65C0
330
1F
100
AcDbEntity
  8
AM_0
  6
CONTINUOUS
 48
0.5
100
AcDbLine
 10
-9.679096221923998
 20
-0.1502990722649979
 30
0.0
 11
-9.461299896240007
 21
0.2124977111820048
 31
0.0
  0
LINE
  5
65C1
330
1F
100
AcDbEntity
  8
AM_0
  6
CONTINUOUS
 48
0.5
100
AcDbLine
 10
-9.589199066161995
 20
-0.2227020263669939
 30
0.0
 11
-8.966899871826001
 21
-0.1331024169919939
 31
0.0
  0
LINE
  5
65C2
330
1F
100
AcDbEntity
  8
AM_0
  6
CONTINUOUS
 48
0.5
100
AcDbLine
 10
-9.461299896240007
 20
0.2124977111820048
 30
0.0
 11
-8.966899871826001
 21
-0.1331024169919939
 31
0.0
  0
LINE
  5
65CC
330
1F
100
AcDbEntity
  8
AM_0
  6
CONTINUOUS
 48
0.5
100
AcDbLine
 10
-9.140701293944999
 20
-0.6995010375969937
 30
0.0
 11
-9.151203155518004
 21
-0.6855010986319936
 31
0.0
  0
LINE
  5
65CE
330
1F
100
AcDbEntity
  8
AM_0
  6
CONTINUOUS
 48
0.5
100
AcDbLine
 10
-9.328701019286995
 20
-6.000003814696996
 30
0.0
 11
-8.33740234375
 21
-5.256202697752994
 31
0.0
  0
LINE
  5
65CF
330
1F
100
AcDbEntity
  8
AM_0
  6
CONTINUOUS
 48
0.5
100
AcDbLine
 10
-8.46860122680701
 20
-6.0
 30
0.0
 11
-9.328701019286995
 21
-6.0
 31
0.0
  0
LINE
  5
65D0
330
1F
100
AcDbEntity
  8
AM_0
  6
CONTINUOUS
 48
0.5
100
AcDbLine
 10
-8.33740234375
 20
-5.256198883055998
 30
0.0
 11
-8.46860122680701
 21
-6.0
 31
0.0
  0
LINE
  5
65DB
330
1F
100
AcDbEntity
  8
AM_0
  6
CONTINUOUS
 48
0.5
100
AcDbLine
 10
-15.05854330745438
 20
0.0000000000000018
 30
0.0
 11
-13.88928857174912
 21
-4.363399505614997
 31
0.0
  0
ARC
  5
65DD
330
1F
100
AcDbEntity
  8
AM_0
  6
CONTINUOUS
 48
0.5
100
AcDbCircle
 10
-14.52989941406201
 20
-0.2356986999520041
 30
0.0
 40
0.3000000119209
100
AcDbArc
 50
216.8698973095755
 51
270.0000025044784
  0
ARC
  5
65DE
330
1F
100
AcDbEntity
  8
AM_0
  6
CONTINUOUS
 48
0.5
100
AcDbCircle
 10
-14.54302048515171
 20
-0.2183905204654753
 30
0.0
 40
0.2999093579429065
100
AcDbArc
 50
214.9973113856193
 51
268.8553720910422
  0
ARC
  5
65E3
330
1F
100
AcDbEntity
  8
AM_0
  6
CONTINUOUS
 48
0.5
100
AcDbCircle
 10
-14.50071063479387
 20
-0.1484985351570041
 30
0.0
 40
0.1249246969819
100
AcDbArc
 50
215.0258350261345
 51
270.0000025044784
  0
LINE
  5
65E8
330
1F
100
AcDbEntity
  8
AM_0
  6
CONTINUOUS
 48
0.5
100
AcDbLine
 10
-14.85340609988088
 20
-0.0370979309090078
 30
0.0
 11
-14.86330905398287
 21
-0.0000991821290075
 31
0.0
  0
LINE
  5
65E9
330
1F
100
AcDbEntity
  8
AM_0
  6
CONTINUOUS
 48
0.5
100
AcDbLine
 10
-14.85340609988088
 20
-0.0370979309090078
 30
0.0
 11
-14.76790729006688
 21
-0.0000000000000018
 31
0.0
  0
LINE
  5
65EA
330
1F
100
AcDbEntity
  8
AM_0
  6
CONTINUOUS
 48
0.5
100
AcDbLine
 10
-14.76790729006688
 20
-0.0000000000000018
 30
0.0
 11
-14.86330905398287
 21
-0.0000991821290075
 31
0.0
  0
LINE
  5
65EC
330
1F
100
AcDbEntity
  8
AM_0
  6
CONTINUOUS
 48
0.5
100
AcDbLine
 10
-13.45158707140905
 20
-0.5345895440271669
 30
0.0
 11
-14.52989950413663
 21
-0.5355871791880608
 31
0.0
  0
LINE
  5
65ED
330
1F
100
AcDbEntity
  8
AM_0
  6
CONTINUOUS
 48
0.5
100
AcDbLine
 10
-14.44830813845587
 20
-0.5180969238290079
 30
0.0
 11
-14.43520846804489
 21
-0.5354995727540075
 31
0.0
  0
LINE
  5
65EE
330
1F
100
AcDbEntity
  8
AM_0
  6
CONTINUOUS
 48
0.5
100
AcDbLine
 10
-14.90879803466799
 20
-0.2189979553230064
 30
0.0
 11
-14.91399746704101
 21
-0.1591987609870049
 31
0.0
  0
LINE
  5
65EF
330
1F
100
AcDbEntity
  8
AM_0
  6
CONTINUOUS
 48
0.5
100
AcDbLine
 10
-14.90879803466799
 20
-0.2189979553230064
 30
0.0
 11
-14.78869992065401
 21
-0.3903999328620049
 31
0.0
  0
LINE
  5
65F0
330
1F
100
AcDbEntity
  8
AM_0
  6
CONTINUOUS
 48
0.5
100
AcDbLine
 10
-14.78869992065401
 20
-0.3903999328620049
 30
0.0
 11
-14.60300937136588
 21
-0.2201995849610032
 31
0.0
  0
LINE
  5
65F1
330
1F
100
AcDbEntity
  8
AM_0
  6
CONTINUOUS
 48
0.5
100
AcDbLine
 10
-14.44830813845587
 20
-0.5180969238290079
 30
0.0
 11
-14.50070682009587
 21
-0.2733993530280063
 31
0.0
  0
LINE
  5
65F2
330
1F
100
AcDbEntity
  8
AM_0
  6
CONTINUOUS
 48
0.5
100
AcDbLine
 10
-14.5490115808102
 20
-0.5181874457549282
 30
0.0
 11
-13.45160270191215
 21
-0.517200989255354
 31
0.0
  0
LINE
  5
65F3
330
1F
100
AcDbEntity
  8
AM_0
  6
CONTINUOUS
 48
0.5
100
AcDbLine
 10
-12.952098846436
 20
-0.0447998046869938
 30
0.0
 11
-13.13090133667
 21
0.2091979980470047
 31
0.0
  0
LINE
  5
65F4
330
1F
100
AcDbEntity
  8
AM_0
  6
CONTINUOUS
 48
0.5
100
AcDbLine
 10
-13.28651639362803
 20
-0.3051786942803023
 30
0.0
 11
-13.53046054385723
 21
-0.2725324144994552
 31
0.0
  0
LINE
  5
65F8
330
1F
100
AcDbEntity
  8
AM_0
  6
CONTINUOUS
 48
0.5
100
AcDbLine
 10
-13.48870578249886
 20
-0.2724952697760035
 30
0.0
 11
-14.50070682009587
 21
-0.2733955383310036
 31
0.0
  0
LINE
  5
65F9
330
1F
100
AcDbEntity
  8
AM_0
  6
CONTINUOUS
 48
0.5
100
AcDbLine
 10
-13.13089752197299
 20
0.2092018127450022
 30
0.0
 11
-13.53046054385726
 21
-0.2725324144994357
 31
0.0
  0
LINE
  5
65FF
330
1F
100
AcDbEntity
  8
AM_0
  6
CONTINUOUS
 48
0.5
100
AcDbLine
 10
-13.49280166626002
 20
-4.363201141356992
 30
0.0
 11
-13.79460144043
 21
-4.363399505614997
 31
0.0
  0
LINE
  5
6600
330
1F
100
AcDbEntity
  8
AM_0
  6
CONTINUOUS
 48
0.5
100
AcDbLine
 10
-13.79459762573199
 20
-4.363403320311992
 30
0.0
 11
-13.356098175049
 21
-5.999999999999997
 31
0.0
  0
LINE
  5
6601
330
1F
100
AcDbEntity
  8
AM_0
  6
CONTINUOUS
 48
0.5
100
AcDbLine
 10
-13.630500793457
 20
-4.046401977538995
 30
0.0
 11
-13.61999893188502
 21
-4.060401916502994
 31
0.0
  0
LINE
  5
6602
330
1F
100
AcDbEntity
  8
AM_0
  6
CONTINUOUS
 48
0.5
100
AcDbLine
 10
-13.583099365234
 20
-4.042903900145998
 30
0.0
 11
-13.56989669799801
 21
-4.060504913329997
 31
0.0
  0
LINE
  5
6603
330
1F
100
AcDbEntity
  8
AM_0
  6
CONTINUOUS
 48
0.5
100
AcDbLine
 10
-9.328014373779012
 20
-45.135005950927
 30
0.0
 11
-13.35541534423799
 21
-45.24050521850499
 31
0.0
  0
LINE
  5
6604
330
1F
100
AcDbEntity
  8
AM_0
  6
CONTINUOUS
 48
0.5
100
AcDbLine
 10
-4.199310302734005
 20
-47.841899871826
 30
0.0
 11
-7.446613311768004
 21
-47.68380355834899
 31
0.0
  0
LINE
  5
6605
330
1F
100
AcDbEntity
  8
AM_0
  6
CONTINUOUS
 48
0.5
100
AcDbLine
 10
-3.939914703368998
 20
-47.826602935791
 30
0.0
 11
-7.085613250731995
 21
-47.674304962158
 31
0.0
  0
LINE
  5
6606
330
1F
100
AcDbEntity
  8
AM_0
  6
CONTINUOUS
 48
0.5
100
AcDbLine
 10
-3.950412750243998
 20
-46.97510147094699
 30
0.0
 11
-7.069313049316008
 21
-47.126201629638
 31
0.0
  0
LINE
  5
6608
330
1F
100
AcDbEntity
  8
AM_0
  6
CONTINUOUS
 48
0.5
100
AcDbLine
 10
-7.938713073730014
 20
-45.20339584350499
 30
0.0
 11
-1.798713684082002
 21
-45.042690277099
 31
0.0
  0
LINE
  5
6609
330
1F
100
AcDbEntity
  8
AM_0
  6
CONTINUOUS
 48
0.5
100
AcDbLine
 10
-4.19931411743201
 20
-55.00000381469699
 30
0.0
 11
-4.19931411743201
 21
-47.84190750121999
 31
0.0
  0
LINE
  5
660A
330
1F
100
AcDbEntity
  8
AM_0
  6
CONTINUOUS
 48
0.5
100
AcDbLine
 10
-3.939914703368998
 20
-47.826602935791
 30
0.0
 11
-4.044311523437016
 21
-47.834598541259
 31
0.0
  0
LINE
  5
660B
330
1F
100
AcDbEntity
  8
AM_0
  6
CONTINUOUS
 48
0.5
100
AcDbLine
 10
-3.950412750243998
 20
-46.97510147094699
 30
0.0
 11
-3.939910888672017
 21
-47.826602935791
 31
0.0
  0
LINE
  5
660C
330
1F
100
AcDbEntity
  8
AM_0
  6
CONTINUOUS
 48
0.5
100
AcDbLine
 10
-3.990559389231911
 20
-45.90798132040358
 30
0.0
 11
-3.949475196912583
 21
-46.99991840875708
 31
0.0
  0
LINE
  5
660D
330
1F
100
AcDbEntity
  8
AM_0
  6
CONTINUOUS
 48
0.5
100
AcDbLine
 10
-7.499313354491988
 20
-55.00000381469699
 30
0.0
 11
-7.499313354491988
 21
-47.681201934814
 31
0.0
  0
LINE
  5
660E
330
1F
100
AcDbEntity
  8
AM_0
  6
CONTINUOUS
 48
0.5
100
AcDbLine
 10
-8.467914581298998
 20
-55.00000381469699
 30
0.0
 11
-8.467914581298998
 21
-45.135005950927
 31
0.0
  0
LINE
  5
660F
330
1F
100
AcDbEntity
  8
AM_0
  6
CONTINUOUS
 48
0.5
100
AcDbLine
 10
-8.467914581298998
 20
-45.135005950927
 30
0.0
 11
-9.328014373779012
 21
-45.135005950927
 31
0.0
  0
LINE
  5
6610
330
1F
100
AcDbEntity
  8
AM_0
  6
CONTINUOUS
 48
0.5
100
AcDbLine
 10
-7.446613311768004
 20
-47.68380355834899
 30
0.0
 11
-7.499313354491988
 21
-47.681201934814
 31
0.0
  0
LINE
  5
6611
330
1F
100
AcDbEntity
  8
AM_0
  6
CONTINUOUS
 48
0.5
100
AcDbLine
 10
-8.336715698241988
 20
-45.135005950927
 30
0.0
 11
-8.467914581298998
 21
-45.135005950927
 31
0.0
  0
LINE
  5
6612
330
1F
100
AcDbEntity
  8
AM_0
  6
CONTINUOUS
 48
0.5
100
AcDbLine
 10
-7.576313018798998
 20
-47.66800308227499
 30
0.0
 11
-7.561515808105014
 21
-45.268199920654
 31
0.0
  0
LINE
  5
6613
330
1F
100
AcDbEntity
  8
AM_0
  6
CONTINUOUS
 48
0.5
100
AcDbLine
 10
-7.561511993408004
 20
-45.268199920654
 30
0.0
 11
-8.336711883545007
 21
-45.134998321533
 31
0.0
  0
LINE
  5
6614
330
1F
100
AcDbEntity
  8
AM_0
  6
CONTINUOUS
 48
0.5
100
AcDbLine
 10
-7.499313354491988
 20
-47.681194305419
 30
0.0
 11
-7.576313018798998
 21
-47.66799545287999
 31
0.0
  0
LINE
  5
6616
330
1F
100
AcDbEntity
  8
AM_0
  6
CONTINUOUS
 48
0.5
100
AcDbLine
 10
-7.072509765625
 20
-47.17409896850499
 30
0.0
 11
-7.069313049316008
 21
-47.126201629638
 31
0.0
  0
LINE
  5
6617
330
1F
100
AcDbEntity
  8
AM_0
  6
CONTINUOUS
 48
0.5
100
AcDbLine
 10
-7.08561706543
 20
-47.674297332763
 30
0.0
 11
-7.446613311768004
 21
-47.68379592895499
 31
0.0
  0
LINE
  5
6619
330
1F
100
AcDbEntity
  8
AM_0
  6
CONTINUOUS
 48
0.5
100
AcDbLine
 10
-7.573413848877009
 20
-47.187198638916
 30
0.0
 11
-7.0680880768794
 21
-47.17398323162054
 31
0.0
  0
LINE
  5
661A
330
1F
100
AcDbEntity
  8
AM_0
  6
CONTINUOUS
 48
0.5
100
AcDbLine
 10
-14.99931335449199
 20
-47.90010452270499
 30
0.0
 11
-14.99931335449199
 21
-55.00000381469699
 31
0.0
  0
LINE
  5
661B
330
1F
100
AcDbEntity
  8
AM_0
  6
CONTINUOUS
 48
0.5
100
AcDbLine
 10
-13.35541534423799
 20
-55.00000381469699
 30
0.0
 11
-13.35541534423799
 21
-45.24050521850499
 31
0.0
  0
LINE
  5
661C
330
1F
100
AcDbEntity
  8
AM_0
  6
CONTINUOUS
 48
0.5
100
AcDbLine
 10
-20.389713287353
 20
-45.639102935791
 30
0.0
 11
-14.99931335449199
 21
-45.49779891967699
 31
0.0
  0
LINE
  5
661D
330
1F
100
AcDbEntity
  8
AM_0
  6
CONTINUOUS
 48
0.5
100
AcDbLine
 10
-15.51161193847699
 20
-47.134700775146
 30
0.0
 11
-15.072010040283
 21
-47.101299285888
 31
0.0
  0
LINE
  5
661E
330
1F
100
AcDbEntity
  8
AM_0
  6
CONTINUOUS
 48
0.5
100
AcDbLine
 10
-14.989414215088
 20
-46.55810165405199
 30
0.0
 11
-14.903911590576
 21
-45.495304107666
 31
0.0
  0
LINE
  5
661F
330
1F
100
AcDbEntity
  8
AM_0
  6
CONTINUOUS
 48
0.5
100
AcDbLine
 10
-14.903911590576
 20
-45.495304107666
 30
0.0
 11
-14.99931335449199
 21
-45.49779891967699
 31
0.0
  0
LINE
  5
6620
330
1F
100
AcDbEntity
  8
AM_0
  6
CONTINUOUS
 48
0.5
100
AcDbLine
 10
-15.51031112670901
 20
-47.91350173950199
 30
0.0
 11
-14.99931335449199
 21
-47.90010452270499
 31
0.0
  0
LINE
  5
6621
330
1F
100
AcDbEntity
  8
AM_0
  6
CONTINUOUS
 48
0.5
100
AcDbLine
 10
-15.51031112670901
 20
-47.91350173950199
 30
0.0
 11
-15.51161193847699
 21
-47.112804412841
 31
0.0
  0
LINE
  5
6622
330
1F
100
AcDbEntity
  8
AM_0
  6
CONTINUOUS
 48
0.5
100
AcDbLine
 10
-15.072010040283
 20
-47.101299285888
 30
0.0
 11
-15.51161193847699
 21
-47.11279678344699
 31
0.0
  0
LINE
  5
6623
330
1F
100
AcDbEntity
  8
AM_0
  6
CONTINUOUS
 48
0.5
100
AcDbLine
 10
-15.04181671142601
 20
-46.81299209594699
 30
0.0
 11
-14.99931716918899
 21
-46.406993865966
 31
0.0
  0
LINE
  5
6624
330
1F
100
AcDbEntity
  8
AM_0
  6
CONTINUOUS
 48
0.5
100
AcDbLine
 10
-15.07201385498001
 20
-47.101306915283
 30
0.0
 11
-15.041812896728
 21
-46.813007354736
 31
0.0
  0
LINE
  5
6625
330
1F
100
AcDbEntity
  8
AM_0
  6
CONTINUOUS
 48
0.5
100
AcDbLine
 10
-14.99931335449199
 20
-45.49780654907199
 30
0.0
 11
-14.99931335449199
 21
-46.407001495361
 31
0.0
  0
LINE
  5
6626
330
1F
100
AcDbEntity
  8
AM_0
  6
CONTINUOUS
 48
0.5
100
AcDbLine
 10
-14.99931716918899
 20
-46.407001495361
 30
0.0
 11
-14.989414215088
 21
-46.55810928344699
 31
0.0
  0
LINE
  5
6627
330
1F
100
AcDbEntity
  8
AM_0
  6
CONTINUOUS
 48
0.5
100
AcDbLine
 10
-14.98941040039099
 20
-46.55810165405199
 30
0.0
 11
-14.999309539795
 21
-45.49779891967699
 31
0.0
  0
LINE
  5
6628
330
1F
100
AcDbEntity
  8
AM_0
  6
CONTINUOUS
 48
0.5
100
AcDbLine
 10
-13.771511077881
 20
-47.707897186279
 30
0.0
 11
-13.793910980225
 21
-45.30920028686499
 31
0.0
  0
LINE
  5
6629
330
1F
100
AcDbEntity
  8
AM_0
  6
CONTINUOUS
 48
0.5
100
AcDbLine
 10
-13.79391479492201
 20
-45.30920028686499
 30
0.0
 11
-13.35541534423799
 21
-45.24049758911099
 31
0.0
  0
LINE
  5
662A
330
1F
100
AcDbEntity
  8
AM_0
  6
CONTINUOUS
 48
0.5
100
AcDbLine
 10
-14.999309539795
 20
-47.90010452270499
 30
0.0
 11
-13.771511077881
 21
-47.707904815673
 31
0.0
  0
LINE
  5
662B
330
1F
100
AcDbEntity
  8
AM_0
  6
CONTINUOUS
 48
0.5
100
AcDbLine
 10
-14.94741058349601
 20
-47.43850326537999
 30
0.0
 11
-15.51100921630902
 21
-47.48310470580999
 31
0.0
  0
LINE
  5
662C
330
1F
100
AcDbEntity
  8
AM_0
  6
CONTINUOUS
 48
0.5
100
AcDbLine
 10
-14.95011138916001
 20
-47.390697479248
 30
0.0
 11
-14.955310821533
 21
-47.04300308227499
 31
0.0
  0
LINE
  5
662D
330
1F
100
AcDbEntity
  8
AM_0
  6
CONTINUOUS
 48
0.5
100
AcDbLine
 10
-14.739013671875
 20
-45.383197784423
 30
0.0
 11
-16.90221405029299
 21
-45.54769515991199
 31
0.0
  0
LINE
  5
662E
330
1F
100
AcDbEntity
  8
AM_0
  6
CONTINUOUS
 48
0.5
100
AcDbLine
 10
-14.95011520385699
 20
-47.390697479248
 30
0.0
 11
-14.830013275146
 21
-47.38159561157199
 31
0.0
  0
LINE
  5
662F
330
1F
100
AcDbEntity
  8
AM_0
  6
CONTINUOUS
 48
0.5
100
AcDbLine
 10
-14.95011138916001
 20
-47.390697479248
 30
0.0
 11
-14.92140960693402
 21
-47.88789749145499
 31
0.0
  0
LINE
  5
6630
330
1F
100
AcDbEntity
  8
AM_0
  6
CONTINUOUS
 48
0.5
100
AcDbLine
 10
-13.806411743164
 20
-45.357006072998
 30
0.0
 11
-14.63671112060501
 21
-45.37870407104399
 31
0.0
  0
LINE
  5
6631
330
1F
100
AcDbEntity
  8
AM_0
  6
CONTINUOUS
 48
0.5
100
AcDbLine
 10
-14.58431243896501
 20
-47.370700836181
 30
0.0
 11
-14.63671112060501
 21
-45.37869644164999
 31
0.0
  0
LINE
  5
6632
330
1F
100
AcDbEntity
  8
AM_0
  6
CONTINUOUS
 48
0.5
100
AcDbLine
 10
-14.83000946044902
 20
-47.38160324096599
 30
0.0
 11
-14.73900985717799
 21
-45.383197784423
 31
0.0
  0
LINE
  5
6633
330
1F
100
AcDbEntity
  8
AM_0
  6
CONTINUOUS
 48
0.5
100
AcDbLine
 10
-14.830013275146
 20
-47.38160324096599
 30
0.0
 11
-14.81711196899399
 21
-47.871601104736
 31
0.0
  0
LINE
  5
6634
330
1F
100
AcDbEntity
  8
AM_0
  6
CONTINUOUS
 48
0.5
100
AcDbLine
 10
-14.58431243896501
 20
-47.370700836181
 30
0.0
 11
-13.77491378784199
 21
-47.349498748779
 31
0.0
  0
LINE
  5
6635
330
1F
100
AcDbEntity
  8
AM_0
  6
CONTINUOUS
 48
0.5
100
AcDbLine
 10
-14.58431243896501
 20
-47.370700836181
 30
0.0
 11
-14.57221221923799
 21
-47.833301544189
 31
0.0
  0
LINE
  5
6636
330
1F
100
AcDbEntity
  8
AM_0
  6
CONTINUOUS
 48
0.5
100
AcDbLine
 10
-13.79431533813502
 20
-45.35029983520499
 30
0.0
 11
-14.177917480469
 21
-45.480197906494
 31
0.0
  0
LINE
  5
6637
330
1F
100
AcDbEntity
  8
AM_0
  6
CONTINUOUS
 48
0.5
100
AcDbLine
 10
-14.189208984375
 20
-45.489398956298
 30
0.0
 11
-14.1787109375
 21
-45.888996124267
 31
0.0
  0
LINE
  5
6638
330
1F
100
AcDbEntity
  8
AM_0
  6
CONTINUOUS
 48
0.5
100
AcDbLine
 10
-14.17811203002901
 20
-45.89090347289999
 30
0.0
 11
-13.782512664795
 21
-46.53599929809499
 31
0.0
  0
LINE
  5
6639
330
1F
100
AcDbEntity
  8
AM_0
  6
CONTINUOUS
 48
0.5
100
AcDbLine
 10
-21.06278214106953
 20
-45.00000381469699
 30
0.0
 11
-20.389713287353
 21
-45.639102935791
 31
0.0
  0
LINE
  5
663B
330
1F
100
AcDbEntity
  8
AM_0
  6
CONTINUOUS
 48
0.5
100
AcDbLine
 10
-119.999992370599
 20
10.00000000000001
 30
0.0
 11
-119.999992370599
 21
0.000000000000016
 31
0.0
  0
DIMENSION
  5
663C
330
1F
100
AcDbEntity
  8
AM_5
100
AcDbDimension
  2
*D12
 10
-143.566307067869
 20
10.00000000000002
 30
0.0
 11
-143.566307067869
 21
5.067499160766972
 31
0.0
 70
   160
  1
<>
  3
AM_JIS$0
100
AcDbAlignedDimension
 13
-119.999992370599
 23
0.000000000000016
 33
0.0
 14
-119.999992370599
 24
10.00000000000001
 34
0.0
 50
270.0
100
AcDbRotatedDimension
1001
ACAD
1000
DSTYLE
1002
{
1070
   271
1070
     5
1002
}
  0
DIMENSION
  5
663D
330
1F
100
AcDbEntity
  8
AM_5
100
AcDbDimension
  2
*D13
 10
-143.566307067869
 20
-45.00000381469698
 30
0.0
 11
-143.566307067869
 21
-50.06750488281202
 31
0.0
 70
   160
  1
<>
  3
AM_JIS$0
100
AcDbAlignedDimension
 13
-119.9993057250889
 23
-55.00000381469697
 33
0.0
 14
-119.9993057250889
 24
-45.00000381469698
 34
0.0
 50
270.0
100
AcDbRotatedDimension
1001
ACAD
1000
DSTYLE
1002
{
1070
   271
1070
     5
1002
}
  0
LINE
  5
663E
330
1F
100
AcDbEntity
  8
AM_0
  6
CONTINUOUS
 48
0.5
100
AcDbLine
 10
-119.9993057250889
 20
-55.00000381469697
 30
0.0
 11
-119.9993057250889
 21
-45.00000381469698
 31
0.0
  0
LINE
  5
68A1
330
1F
100
AcDbEntity
  8
AM_0
100
AcDbLine
 10
-0.0000000000000004
 20
-45.00000381469699
 30
0.0
 11
-0.0002805681208209
 21
-45.5010768380425
 31
0.0
  0
LINE
  5
68C8
330
1F
100
AcDbEntity
  8
AM_0
  6
CONTINUOUS
100
AcDbLine
 10
-119.9993057250889
 20
-45.00000381469698
 30
0.0
 11
-21.0627821410695
 21
-45.00000381469699
 31
0.0
  0
LINE
  5
68D5
330
1F
100
AcDbEntity
  8
AM_0
  6
CONTINUOUS
100
AcDbLine
 10
-14.76790729006688
 20
0.0000000000000018
 30
0.0
 11
-119.999992370599
 21
0.000000000000016
 31
0.0
  0
TEXT
  5
6B28
330
1F
100
AcDbEntity
  8
AM_6
100
AcDbText
 10
-79.48026230221286
 20
-88.70163079445729
 30
0.0
 40
5.0
  1
SCTR1010
 50
0.0000000000002036
 72
     4
 11
-62.0993099212605
 21
-86.20163079445722
 31
0.0
100
AcDbText
  0
LINE
  5
6B46
330
1F
100
AcDbEntity
  8
AM_0
  6
CONTINUOUS
100
AcDbLine
 10
-0.0587005615230112
 20
0.4781990051270029
 30
0.0
 11
-4.250314762244801
 21
6.464444470919771
 31
0.0
  0
MTEXT
  5
6B58
330
1F
100
AcDbEntity
  8
PV0001_1
 62
     2
100
AcDbMText
 10
37.97850264951931
 20
-42.095958714826
 30
0.0
 40
3.479999999999999
 41
0.0
 71
     4
 72
     5
  1
\T1.40;\W0.59;０°
1001
ACAD
1000
MTEXTBEGIN
1070
    73
1070
     1
1070
    44
1040
1.0
1070
    74
1070
     0
1000
MTEXTEND
  0
MTEXT
  5
6B59
330
1F
100
AcDbEntity
  8
PV0001_1
 62
     2
100
AcDbMText
 10
48.06423459135883
 20
-54.78624671117783
 30
0.0
 40
3.479999999999999
 41
0.0
 71
     4
 72
     5
  1
\T1.40;\W0.59;－２°
1001
ACAD
1000
MTEXTBEGIN
1070
    73
1070
     1
1070
    44
1040
1.0
1070
    74
1070
     0
1000
MTEXTEND
  0
INSERT
  5
6B5A
330
1F
100
AcDbEntity
  8
PV0001_1
100
AcDbBlockReference
  2
*U15
 10
9.286660338050509
 20
49.26349151364108
 30
0.0
 50
180.0
  0
INSERT
  5
6B5B
330
1F
100
AcDbEntity
  8
PV0001_1
100
AcDbBlockReference
  2
*U16
 10
9.286660338050509
 20
49.26349151364108
 30
0.0
 50
180.0
  0
LINE
  5
6BE7
330
1F
100
AcDbEntity
  8
AM_0
  6
CONTINUOUS
 48
0.5
100
AcDbLine
 10
-7.560125986093101
 20
-45.69787377819475
 30
0.0
 11
-0.0000115762949164
 21
-45.4999987636843
 31
0.0
  0
LINE
  5
6BED
330
1F
100
AcDbEntity
  8
AM_5
100
AcDbLine
 10
-119.9993057250889
 20
-45.00000381469698
 30
0.0
 11
-119.999992370599
 21
0.1349983215340149
 31
0.0
  0
LINE
  5
6BEE
330
1F
100
AcDbEntity
  8
AM_5
100
AcDbLine
 10
-0.0000466864061227
 20
0.0000194536657576
 30
0.0
 11
0.0
 21
-44.995616912841
 31
0.0
  0
ARC
  5
6C01
330
1F
100
AcDbEntity
  8
AM_0
  6
CONTINUOUS
 48
0.5
100
AcDbCircle
 10
-3.690771510749399
 20
-45.89670178517582
 30
0.0
 40
0.3
100
AcDbArc
 50
91.49929151046574
 51
182.1547404206841
  0
VIEWPORT
  5
110
330
101
100
AcDbEntity
 67
     1
  8
0
100
AcDbViewport
 10
420.5
 20
297.0
 30
0.0
 40
948.9782706766916
 41
628.452
 68
     1
 69
     1
1001
ACAD
1000
MVIEW
1002
{
1070
    16
1010
0.0
1020
0.0
1030
0.0
1010
0.0
1020
0.0
1030
1.0
1040
0.0
1040
628.452
1040
420.5
1040
297.0
1040
50.0
1040
0.0
1040
0.0
1070
     0
1070
   100
1070
     1
1070
     1
1070
     0
1070
     0
1070
     0
1070
     0
1040
0.0
1040
0.0
1040
0.0
1040
10.0
1040
10.0
1040
10.0
1040
10.0
1070
     0
1002
{
1002
}
1002
}
  0
ENDSEC
  0
SECTION
  2
OBJECTS
  0
DICTIONARY
  5
C
330
0
100
AcDbDictionary
  3
ACAD_GROUP
350
D
  3
ACAD_LAYOUT
350
1A
  3
ACAD_MLINESTYLE
350
17
  3
ACAD_PLOTSETTINGS
350
19
  3
ACAD_PLOTSTYLENAME
350
E
  3
ACDBVARIABLEDICTIONARY
350
34
  3
ACMDICTIONARY
350
43
  3
AMG
350
2B
  3
AMGSNAPSETTINGS
350
6E
  3
DWGPROPS
350
6C11
  3
ACDBHEADERROUNDTRIPXREC
350
6C20
  0
DICTIONARY
  5
74
330
1F
100
AcDbDictionary
280
     1
  3
ACAD_INDEX
360
6C13
  3
ACAD_LAYOUTSELFREF
360
6C43
  0
DICTIONARY
  5
6C48
330
101
100
AcDbDictionary
280
     1
  3
ACAD_LAYOUTSELFREF
360
6C49
  0
DICTIONARY
  5
D
102
{ACAD_REACTORS
330
C
102
}
330
C
100
AcDbDictionary
  0
DICTIONARY
  5
1A
102
{ACAD_REACTORS
330
C
102
}
330
C
100
AcDbDictionary
  0
DICTIONARY
  5
17
102
{ACAD_REACTORS
330
C
102
}
330
C
100
AcDbDictionary
  3
STANDARD
350
18
  0
DICTIONARY
  5
19
102
{ACAD_REACTORS
330
C
102
}
330
C
100
AcDbDictionary
  0
ACDBDICTIONARYWDFLT
  5
E
102
{ACAD_REACTORS
330
C
102
}
330
C
100
AcDbDictionary
281
     1
  3
Normal
350
F
100
AcDbDictionaryWithDefault
340
F
  0
DICTIONARY
  5
34
102
{ACAD_REACTORS
330
C
102
}
330
C
100
AcDbDictionary
  3
INDEXCTL
350
35
  3
SORTENTS
350
B5E
  0
DICTIONARY
  5
43
102
{ACAD_REACTORS
330
C
102
}
330
C
100
AcDbDictionary
  3
ACMSTDDICTIONARY
350
260
  0
DICTIONARY
  5
2B
102
{ACAD_REACTORS
330
C
102
}
330
C
100
AcDbDictionary
  3
ACMGSETTINGS
350
2C
  0
DICTIONARY
  5
6E
102
{ACAD_REACTORS
330
C
102
}
330
C
100
AcDbDictionary
  0
XRECORD
  5
6C11
102
{ACAD_REACTORS
330
C
102
}
330
C
100
AcDbXrecord
  1
DWGPROPS COOKIE
  2

  3

  4

  6

  7

  8

  9

300
AmdtFileType=82
301
=
302
=
303
=
304
=
305
=
306
=
307
=
308
=
309
=
 40
1.083352175925925
 41
2452838.620506898
 42
2453022.75811037
  1

 90
        1
  0
DICTIONARY
  5
6C20
102
{ACAD_REACTORS
330
C
102
}
330
C
100
AcDbDictionary
  3
TSTACKALIGN
350
6C21
  3
TSTACKSIZE
350
6C22
  3
HYPERLINKBASE
350
6C23
  3
STYLESHEET
350
6C24
  3
LAYOUTDICT
350
6C25
  3
PLOTSETDICT
350
6C26
  3
PLOTSTYLNAMDICT
350
6C27
  3
LWETCUNION
350
6C28
  3
INSUNITS
350
6C29
  3
CEPSNTYPE
350
6C2A
  3
FINGERPRINTGUID
350
6C2B
  3
VERSIONGUID
350
6C2C
  3
PSVPSCALE
350
6C2D
  3
DIMSTYLEDATA
350
6C2E
  3
PUCSORTHOREF
350
6C2F
  3
PUCSORTHOVIEW
350
6C30
  3
PUCSBASE
350
6C31
  3
PUCSORGTOP
350
6C32
  3
PUCSORGBOTTOM
350
6C33
  3
PUCSORGLEFT
350
6C34
  3
PUCSORGRIGHT
350
6C35
  3
PUCSORGFRONT
350
6C36
  3
PUCSORGBACK
350
6C37
  3
UCSORTHOREF
350
6C38
  3
UCSORTHOVIEW
350
6C39
  3
UCSBASE
350
6C3A
  3
UCSORGTOP
350
6C3B
  3
UCSORGBOTTOM
350
6C3C
  3
UCSORGLEFT
350
6C3D
  3
UCSORGRIGHT
350
6C3E
  3
UCSORGFRONT
350
6C3F
  3
UCSORGBACK
350
6C40
  0
DICTIONARY
  5
6C13
102
{ACAD_REACTORS
330
74
102
}
330
74
100
AcDbDictionary
  3
*A1
350
6C14
  0
XRECORD
  5
6C43
102
{ACAD_REACTORS
330
74
102
}
330
74
100
AcDbXrecord
340
1F
  0
XRECORD
  5
6C49
102
{ACAD_REACTORS
330
6C48
102
}
330
6C48
100
AcDbXrecord
340
101
  0
MLINESTYLE
  5
18
102
{ACAD_REACTORS
330
17
102
}
330
17
100
AcDbMlineStyle
  2
STANDARD
 70
     0
  3

 62
   256
 51
90.0
 52
90.0
 71
     2
 49
0.5
 62
   256
  6
BYLAYER
 49
-0.5
 62
   256
  6
BYLAYER
  0
ACDBPLACEHOLDER
  5
F
102
{ACAD_REACTORS
330
E
102
}
330
E
100
AcDbPlaceHolder
280
     0
  0
DICTIONARYVAR
  5
35
102
{ACAD_REACTORS
330
34
102
}
330
34
100
DictionaryVariables
280
     0
  1
1
  0
DICTIONARYVAR
  5
B5E
102
{ACAD_REACTORS
330
34
102
}
330
34
100
DictionaryVariables
280
     0
  1
96
  0
DICTIONARY
  5
260
102
{ACAD_REACTORS
330
43
102
}
330
43
100
AcDbDictionary
  0
DICTIONARY
  5
2C
102
{ACAD_REACTORS
330
2B
102
}
330
2B
100
AcDbDictionary
  3
DWGSETTINGS
350
2D
  0
XRECORD
  5
6C21
102
{ACAD_REACTORS
330
6C20
102
}
330
6C20
100
AcDbXrecord
 90
        1
  0
XRECORD
  5
6C22
102
{ACAD_REACTORS
330
6C20
102
}
330
6C20
100
AcDbXrecord
 90
       70
  0
XRECORD
  5
6C23
102
{ACAD_REACTORS
330
6C20
102
}
330
6C20
100
AcDbXrecord
  1

  0
XRECORD
  5
6C24
102
{ACAD_REACTORS
330
6C20
102
}
330
6C20
100
AcDbXrecord
  1
ASAMI.ctb
  0
XRECORD
  5
6C25
102
{ACAD_REACTORS
330
6C20
102
}
330
6C20
100
AcDbXrecord
340
1A
  0
XRECORD
  5
6C26
102
{ACAD_REACTORS
330
6C20
102
}
330
6C20
100
AcDbXrecord
340
19
  0
XRECORD
  5
6C27
102
{ACAD_REACTORS
330
6C20
102
}
330
6C20
100
AcDbXrecord
340
E
  0
XRECORD
  5
6C28
102
{ACAD_REACTORS
330
6C20
102
}
330
6C20
100
AcDbXrecord
 90
    10781
  0
XRECORD
  5
6C29
102
{ACAD_REACTORS
330
6C20
102
}
330
6C20
100
AcDbXrecord
 90
        4
  0
XRECORD
  5
6C2A
102
{ACAD_REACTORS
330
6C20
102
}
330
6C20
100
AcDbXrecord
 90
        0
  0
XRECORD
  5
6C2B
102
{ACAD_REACTORS
330
6C20
102
}
330
6C20
100
AcDbXrecord
  1
{AFB28963-8C59-40AE-9337-C84526B81ACE}
  0
XRECORD
  5
6C2C
102
{ACAD_REACTORS
330
6C20
102
}
330
6C20
100
AcDbXrecord
  1
{97F89187-AB00-45F1-8C78-0F9E8E99A06A}
  0
XRECORD
  5
6C2D
102
{ACAD_REACTORS
330
6C20
102
}
330
6C20
100
AcDbXrecord
 40
0.0
  0
XRECORD
  5
6C2E
102
{ACAD_REACTORS
330
6C20
102
}
330
6C20
100
AcDbXrecord
1000
DSTYLE
1002
{
1070
    79
 70
     2
1070
   341
340
59
1070
   342
340
59
1070
   371
 70
    -1
1070
   372
 70
    -1
1002
}
  0
XRECORD
  5
6C2F
102
{ACAD_REACTORS
330
6C20
102
}
330
6C20
100
AcDbXrecord
340
0
  0
XRECORD
  5
6C30
102
{ACAD_REACTORS
330
6C20
102
}
330
6C20
100
AcDbXrecord
 70
     0
  0
XRECORD
  5
6C31
102
{ACAD_REACTORS
330
6C20
102
}
330
6C20
100
AcDbXrecord
340
0
  0
XRECORD
  5
6C32
102
{ACAD_REACTORS
330
6C20
102
}
330
6C20
100
AcDbXrecord
 10
0.0
 20
0.0
 30
0.0
  0
XRECORD
  5
6C33
102
{ACAD_REACTORS
330
6C20
102
}
330
6C20
100
AcDbXrecord
 10
0.0
 20
0.0
 30
0.0
  0
XRECORD
  5
6C34
102
{ACAD_REACTORS
330
6C20
102
}
330
6C20
100
AcDbXrecord
 10
0.0
 20
0.0
 30
0.0
  0
XRECORD
  5
6C35
102
{ACAD_REACTORS
330
6C20
102
}
330
6C20
100
AcDbXrecord
 10
0.0
 20
0.0
 30
0.0
  0
XRECORD
  5
6C36
102
{ACAD_REACTORS
330
6C20
102
}
330
6C20
100
AcDbXrecord
 10
0.0
 20
0.0
 30
0.0
  0
XRECORD
  5
6C37
102
{ACAD_REACTORS
330
6C20
102
}
330
6C20
100
AcDbXrecord
 10
0.0
 20
0.0
 30
0.0
  0
XRECORD
  5
6C38
102
{ACAD_REACTORS
330
6C20
102
}
330
6C20
100
AcDbXrecord
340
0
  0
XRECORD
  5
6C39
102
{ACAD_REACTORS
330
6C20
102
}
330
6C20
100
AcDbXrecord
 70
     0
  0
XRECORD
  5
6C3A
102
{ACAD_REACTORS
330
6C20
102
}
330
6C20
100
AcDbXrecord
340
0
  0
XRECORD
  5
6C3B
102
{ACAD_REACTORS
330
6C20
102
}
330
6C20
100
AcDbXrecord
 10
0.0
 20
0.0
 30
0.0
  0
XRECORD
  5
6C3C
102
{ACAD_REACTORS
330
6C20
102
}
330
6C20
100
AcDbXrecord
 10
0.0
 20
0.0
 30
0.0
  0
XRECORD
  5
6C3D
102
{ACAD_REACTORS
330
6C20
102
}
330
6C20
100
AcDbXrecord
 10
0.0
 20
0.0
 30
0.0
  0
XRECORD
  5
6C3E
102
{ACAD_REACTORS
330
6C20
102
}
330
6C20
100
AcDbXrecord
 10
0.0
 20
0.0
 30
0.0
  0
XRECORD
  5
6C3F
102
{ACAD_REACTORS
330
6C20
102
}
330
6C20
100
AcDbXrecord
 10
0.0
 20
0.0
 30
0.0
  0
XRECORD
  5
6C40
102
{ACAD_REACTORS
330
6C20
102
}
330
6C20
100
AcDbXrecord
 10
0.0
 20
0.0
 30
0.0
  0
LAYER_INDEX
  5
6C14
102
{ACAD_REACTORS
330
6C13
102
}
330
6C13
100
AcDbIndex
 40
2453151.538736423
100
AcDbLayerIndex
  8
0
360
6C15
 90
        0
  8
AM_0
360
6C16
 90
      177
  8
AM_11
360
6C17
 90
        0
  8
AM_7
360
6C18
 90
        0
  8
AM_5
360
6C19
 90
        9
  8
Defpoints
360
6C1A
 90
        0
  8
AM_6
360
6C1B
 90
        2
  8
AM_CL
360
6C1C
 90
        0
  8
PV0001_1
360
6C1D
 90
        5
  8
AM_1
360
6C1E
 90
        0
  0
XRECORD
  5
2D
102
{ACAD_REACTORS
330
2C
102
}
330
2C
100
AcDbXrecord
  1
VERSION
140
15.0
  1
PRODUCT
  2
AutoCAD Mechanical 2000
  0
IDBUFFER
  5
6C15
330
0
100
AcDbIdBuffer
  0
IDBUFFER
  5
6C16
330
0
100
AcDbIdBuffer
330
65F9
330
65FF
330
6600
330
6601
330
6602
330
6603
330
6604
330
6605
330
6606
330
6608
330
6609
330
660A
330
660B
330
660C
330
660D
330
660E
330
660F
330
6610
330
6611
330
6612
330
6613
330
6614
330
6616
330
6617
330
6619
330
661A
330
661B
330
661C
330
661D
330
661E
330
661F
330
6620
330
6621
330
6622
330
6623
330
6624
330
6625
330
6626
330
6627
330
6628
330
6629
330
662A
330
662B
330
662C
330
662D
330
662E
330
662F
330
6630
330
6631
330
6632
330
6633
330
6634
330
6635
330
6636
330
6637
330
6638
330
6639
330
663B
330
663E
330
68A1
330
68C8
330
68D5
330
6B46
330
6BE7
330
6C01
330
64DF
330
64E0
330
64E7
330
64E8
330
64E9
330
64EA
330
64EB
330
64F6
330
64F7
330
6513
330
6514
330
6515
330
6516
330
6517
330
6518
330
6519
330
651A
330
651B
330
651C
330
651D
330
651E
330
651F
330
6520
330
6521
330
6522
330
6523
330
6524
330
6525
330
6529
330
652A
330
6534
330
6535
330
6539
330
6545
330
6546
330
6548
330
6549
330
654A
330
654B
330
654C
330
654D
330
654E
330
654F
330
6550
330
6551
330
6552
330
6553
330
6554
330
6555
330
6556
330
6557
330
6558
330
6559
330
655A
330
655B
330
655E
330
655F
330
6560
330
6561
330
6562
330
6563
330
6564
330
6565
330
6566
330
6567
330
6568
330
6569
330
6584
330
6586
330
658B
330
658C
330
658D
330
658F
330
6594
330
6595
330
6596
330
6597
330
6598
330
6599
330
659D
330
659E
330
659F
330
65A0
330
65A1
330
65A2
330
65A3
330
65A4
330
65A5
330
65C0
330
65C1
330
65C2
330
65CC
330
65CE
330
65CF
330
65D0
330
65DB
330
65DD
330
65DE
330
65E3
330
65E8
330
65E9
330
65EA
330
65EC
330
65ED
330
65EE
330
65EF
330
65F0
330
65F1
330
65F2
330
65F3
330
65F4
330
65F8
  0
IDBUFFER
  5
6C17
330
0
100
AcDbIdBuffer
  0
IDBUFFER
  5
6C18
330
0
100
AcDbIdBuffer
  0
IDBUFFER
  5
6C19
330
0
100
AcDbIdBuffer
330
64E5
330
64F4
330
6572
330
6573
330
6574
330
663C
330
663D
330
6BED
330
6BEE
  0
IDBUFFER
  5
6C1A
330
0
100
AcDbIdBuffer
  0
IDBUFFER
  5
6C1B
330
0
100
AcDbIdBuffer
330
C58
330
6B28
  0
IDBUFFER
  5
6C1C
330
0
100
AcDbIdBuffer
  0
IDBUFFER
  5
6C1D
330
0
100
AcDbIdBuffer
330
6593
330
6B58
330
6B59
330
6B5A
330
6B5B
  0
IDBUFFER
  5
6C1E
330
0
100
AcDbIdBuffer
  0
ENDSEC
  0
EOF
