  0
SECTION
  2
HEADER
  9
$ACADVER
  1
AC1014
  9
$ACADMAINTVER
 70
     9
  9
$DWGCODEPAGE
  3
ANSI_932
  9
$INSBASE
 10
0.0
 20
0.0
 30
0.0
  9
$EXTMIN
 10
-137.487810279742
 20
-88.70163079445731
 30
-0.00000001
  9
$EXTMAX
 10
56.74991876188514
 20
16.99985758176731
 30
0.00000001
  9
$LIMMIN
 10
-185.068227958778
 20
-126.6108803498086
  9
$LIMMAX
 10
66.68475841082932
 20
60.19983459007187
  9
$ORTHOMODE
 70
     0
  9
$REGENMODE
 70
     1
  9
$FILLMODE
 70
     1
  9
$QTEXTMODE
 70
     0
  9
$MIRRTEXT
 70
     0
  9
$DRAGMODE
 70
     2
  9
$LTSCALE
 40
1.0
  9
$OSMODE
 70
    55
  9
$ATTMODE
 70
     1
  9
$TEXTSIZE
 40
2.5
  9
$TRACEWID
 40
1.0
  9
$TEXTSTYLE
  7
STANDARD
  9
$CLAYER
  8
AM_5
  9
$CELTYPE
  6
BYLAYER
  9
$CECOLOR
 62
   256
  9
$CELTSCALE
 40
1.0
  9
$DELOBJ
 70
     1
  9
$DISPSILH
 70
     0
  9
$DIMSCALE
 40
1.0
  9
$DIMASZ
 40
2.5
  9
$DIMEXO
 40
1.0
  9
$DIMDLI
 40
12.0
  9
$DIMRND
 40
0.0
  9
$DIMDLE
 40
0.0
  9
$DIMEXE
 40
1.0
  9
$DIMTP
 40
0.1
  9
$DIMTM
 40
0.1
  9
$DIMTXT
 40
3.2
  9
$DIMCEN
 40
0.0
  9
$DIMTSZ
 40
0.0
  9
$DIMTOL
 70
     0
  9
$DIMLIM
 70
     0
  9
$DIMTIH
 70
     0
  9
$DIMTOH
 70
     0
  9
$DIMSE1
 70
     0
  9
$DIMSE2
 70
     0
  9
$DIMTAD
 70
     3
  9
$DIMZIN
 70
     8
  9
$DIMBLK
  1
OPEN30
  9
$DIMASO
 70
     1
  9
$DIMSHO
 70
     1
  9
$DIMPOST
  1

  9
$DIMAPOST
  1
"
  9
$DIMALT
 70
     0
  9
$DIMALTD
 70
     2
  9
$DIMALTF
 40
0.0393701
  9
$DIMLFAC
 40
1.0
  9
$DIMTOFL
 70
     1
  9
$DIMTVP
 40
0.0
  9
$DIMTIX
 70
     0
  9
$DIMSOXD
 70
     0
  9
$DIMSAH
 70
     0
  9
$DIMBLK1
  1

  9
$DIMBLK2
  1

  9
$DIMSTYLE
  2
AM_JIS
  9
$DIMCLRD
 70
     3
  9
$DIMCLRE
 70
     3
  9
$DIMCLRT
 70
     2
  9
$DIMTFAC
 40
0.71
  9
$DIMGAP
 40
1.5
  9
$DIMJUST
 70
     0
  9
$DIMSD1
 70
     0
  9
$DIMSD2
 70
     0
  9
$DIMTOLJ
 70
     0
  9
$DIMTZIN
 70
     0
  9
$DIMALTZ
 70
     0
  9
$DIMALTTZ
 70
     0
  9
$DIMFIT
 70
     3
  9
$DIMUPT
 70
     0
  9
$DIMUNIT
 70
     2
  9
$DIMDEC
 70
     3
  9
$DIMTDEC
 70
     3
  9
$DIMALTU
 70
     2
  9
$DIMALTTD
 70
     2
  9
$DIMTXSTY
  7
ASAMI
  9
$DIMAUNIT
 70
     0
  9
$LUNITS
 70
     2
  9
$LUPREC
 70
     2
  9
$SKETCHINC
 40
1.0
  9
$FILLETRAD
 40
0.0
  9
$AUNITS
 70
     0
  9
$AUPREC
 70
     0
  9
$MENU
  1
.
  9
$ELEVATION
 40
0.0
  9
$PELEVATION
 40
0.0
  9
$THICKNESS
 40
0.0
  9
$LIMCHECK
 70
     0
  9
$BLIPMODE
 70
     0
  9
$CHAMFERA
 40
0.0
  9
$CHAMFERB
 40
0.0
  9
$CHAMFERC
 40
20.0
  9
$CHAMFERD
 40
0.0
  9
$SKPOLY
 70
     0
  9
$TDCREATE
 40
2452838.620506898
  9
$TDUPDATE
 40
2453151.538895382
  9
$TDINDWG
 40
1.0878573148
  9
$TDUSRTIMER
 40
1.0878573148
  9
$USRTIMER
 70
     1
  9
$ANGBASE
 50
0.0
  9
$ANGDIR
 70
     0
  9
$PDMODE
 70
     0
  9
$PDSIZE
 40
0.0
  9
$PLINEWID
 40
0.0
  9
$COORDS
 70
     1
  9
$SPLFRAME
 70
     0
  9
$SPLINETYPE
 70
     6
  9
$SPLINESEGS
 70
     8
  9
$ATTDIA
 70
     1
  9
$ATTREQ
 70
     1
  9
$HANDLING
 70
 12289
  9
$HANDSEED
  5
7276
  9
$SURFTAB1
 70
     6
  9
$SURFTAB2
 70
     6
  9
$SURFTYPE
 70
     6
  9
$SURFU
 70
     6
  9
$SURFV
 70
     6
  9
$UCSNAME
  2

  9
$UCSORG
 10
0.0
 20
0.0
 30
0.0
  9
$UCSXDIR
 10
1.0
 20
0.0
 30
0.0
  9
$UCSYDIR
 10
0.0
 20
1.0
 30
0.0
  9
$PUCSNAME
  2

  9
$PUCSORG
 10
0.0
 20
0.0
 30
0.0
  9
$PUCSXDIR
 10
1.0
 20
0.0
 30
0.0
  9
$PUCSYDIR
 10
0.0
 20
1.0
 30
0.0
  9
$USERI1
 70
     0
  9
$USERI2
 70
     0
  9
$USERI3
 70
     0
  9
$USERI4
 70
     0
  9
$USERI5
 70
     0
  9
$USERR1
 40
0.0
  9
$USERR2
 40
0.0
  9
$USERR3
 40
0.0
  9
$USERR4
 40
0.0
  9
$USERR5
 40
0.0
  9
$WORLDVIEW
 70
     1
  9
$SHADEDGE
 70
     3
  9
$SHADEDIF
 70
    70
  9
$TILEMODE
 70
     1
  9
$MAXACTVP
 70
    64
  9
$PINSBASE
 10
0.0
 20
0.0
 30
0.0
  9
$PLIMCHECK
 70
     0
  9
$PEXTMIN
 10
1.000000000000000E+20
 20
1.000000000000000E+20
 30
1.000000000000000E+20
  9
$PEXTMAX
 10
-1.000000000000000E+20
 20
-1.000000000000000E+20
 30
-1.000000000000000E+20
  9
$PLIMMIN
 10
0.0
 20
0.0
  9
$PLIMMAX
 10
841.0
 20
594.0
  9
$UNITMODE
 70
     0
  9
$VISRETAIN
 70
     1
  9
$PLINEGEN
 70
     0
  9
$PSLTSCALE
 70
     0
  9
$TREEDEPTH
 70
  3020
  9
$PICKSTYLE
 70
     0
  9
$CMLSTYLE
  2
STANDARD
  9
$CMLJUST
 70
     0
  9
$CMLSCALE
 40
20.0
  9
$PROXYGRAPHICS
 70
     1
  9
$MEASUREMENT
 70
     1
  0
ENDSEC
  0
SECTION
  2
CLASSES
  0
CLASS
  1
ACDBDICTIONARYWDFLT
  2
AcDbDictionaryWithDefault
  3
AutoCAD 2000
 90
        0
280
     0
281
     0
  0
CLASS
  1
ACDBPLACEHOLDER
  2
AcDbPlaceHolder
  3
AutoCAD 2000
 90
        0
280
     0
281
     0
  0
CLASS
  1
LAYOUT
  2
AcDbLayout
  3
AutoCAD 2000
 90
        0
280
     0
281
     0
  0
CLASS
  1
AMGSETTINGSOBJ
  2
AmgSettingsObj
  3
"AcadM|Product Description: AutoCAD Mechanical 2000|Company: Autodesk"
 90
        0
280
     0
281
     0
  0
CLASS
  1
ACME_DOCUMENT
  2
AcMeDbDoc
  3
AcMeServices
 90
        0
280
     0
281
     0
  0
CLASS
  1
ACMESCOPE
  2
AcMeScope
  3
AcMeServices
 90
        0
280
     0
281
     0
  0
CLASS
  1
ACMECOMMANDHISTORY
  2
AcMeCommandHistory
  3
AcMeServices
 90
        0
280
     0
281
     0
  0
CLASS
  1
DICTIONARYVAR
  2
AcDbDictionaryVar
  3
AutoCAD 2000
 90
        0
280
     0
281
     0
  0
CLASS
  1
ACIMSYSVARMAN
  2
AcImSysVarManager
  3
AcMeServices
 90
        0
280
     0
281
     0
  0
CLASS
  1
ACIMREALSYSVAR
  2
AcImRealSysVar
  3
AcMeServices
 90
        0
280
     0
281
     0
  0
CLASS
  1
ACIMINTSYSVAR
  2
AcImIntSysVar
  3
AcMeServices
 90
        0
280
     0
281
     0
  0
CLASS
  1
ACMEDRAWINGMAN
  2
AcMeDrawingMan
  3
AcMeServices
 90
        0
280
     0
281
     0
  0
CLASS
  1
ACMEVIEW
  2
AcMeView
  3
AcMeServices
 90
        0
280
     0
281
     0
  0
CLASS
  1
ACDBENTITYCACHE
  2
AcMeEntityCache
  3
AcMeServices
 90
        0
280
     0
281
     0
  0
CLASS
  1
GSMANAGER
  2
AcMeGSManager
  3
AcMeServices
 90
        0
280
     0
281
     0
  0
CLASS
  1
AmdtInternalReactor
  2
AmdtInternalReactor
  3
AcMeServices
 90
        0
280
     0
281
     0
  0
CLASS
  1
ACMESTATEMGR
  2
AcMeStateMgr
  3
AcMeServices
 90
        0
280
     0
281
     0
  0
CLASS
  1
ACME_DATABASE
  2
AcMeDbDatabase
  3
AcMeServices
 90
        0
280
     0
281
     0
  0
CLASS
  1
ACRFINSADJUSTERMGR
  2
AcRfInsAdjusterMgr
  3
AcMeServices
 90
        0
280
     0
281
     0
  0
CLASS
  1
ACMDATADICTIONARY
  2
AcmDataDictionary
  3
"AcmSymBB|Product Description: AutoCAD Mechanical 2000|Company: Autodesk"
 90
        0
280
     0
281
     0
  0
CLASS
  1
ACMDATAENTRYBLOCK
  2
AcmDataEntryBlock
  3
"AcmSymBB|Product Description: AutoCAD Mechanical 2000|Company: Autodesk"
 90
        0
280
     0
281
     0
  0
CLASS
  1
AMGOBJPROPCFG
  2
AmgObjPropCfg
  3
"AmgLay|Product Description: AutoCAD Mechanical 2000|Company: Autodesk"
 90
        1
280
     0
281
     0
  0
CLASS
  1
ACAMGFILTERDAT
  2
AcAmgFilterDat
  3
"AcadM|Product Description: AutoCAD Mechanical 2000|Company: Autodesk"
 90
        0
280
     0
281
     0
  0
CLASS
  1
LAYER_INDEX
  2
AcDbLayerIndex
  3
AutoCAD 2000
 90
        0
280
     0
281
     0
  0
CLASS
  1
IDBUFFER
  2
AcDbIdBuffer
  3
AutoCAD 2000
 90
        0
280
     0
281
     0
  0
CLASS
  1
ACIMSTRSYSVAR
  2
AcImStrSysVar
  3
AcMeServices
 90
        0
280
     0
281
     0
  0
CLASS
  1
ACMSTANDARDJIS
  2
AcmStandardJIS
  3
"AcmSymBB|Product Description: AutoCAD Mechanical 2000|Company: Autodesk"
 90
        0
280
     0
281
     0
  0
CLASS
  1
ACMSURFSTANDARDJIS
  2
AcmSurfTextStdJIS
  3
"AcmSymBB|Product Description: AutoCAD Mechanical 2000|Company: Autodesk"
 90
        0
280
     0
281
     0
  0
CLASS
  1
ACMFCFSTANDARDJIS
  2
AcmFCFStdJIS
  3
"AcmSymBB|Product Description: AutoCAD Mechanical 2000|Company: Autodesk"
 90
        0
280
     0
281
     0
  0
CLASS
  1
ACMWELDSTANDARDJIS
  2
AcmWeldingStdJIS
  3
"AcmSymBB|Product Description: AutoCAD Mechanical 2000|Company: Autodesk"
 90
        0
280
     0
281
     0
  0
CLASS
  1
ACMIDSTANDARDJIS
  2
AcmIdStdJIS
  3
"AcmSymBB|Product Description: AutoCAD Mechanical 2000|Company: Autodesk"
 90
        0
280
     0
281
     0
  0
CLASS
  1
ACMDATUMSTANDARDJIS
  2
AcmDatumStdJIS
  3
"AcmSymBB|Product Description: AutoCAD Mechanical 2000|Company: Autodesk"
 90
        0
280
     0
281
     0
  0
CLASS
  1
ACMBOMSTANDARDJIS
  2
AcmBOMStdJIS
  3
"AcmSymBB|Product Description: AutoCAD Mechanical 2000|Company: Autodesk"
 90
        0
280
     0
281
     0
  0
CLASS
  1
ACMSTANDARDANSI
  2
AcmStandardANSI
  3
"AcmSymBB|Product Description: AutoCAD Mechanical 2000|Company: Autodesk"
 90
        0
280
     0
281
     0
  0
CLASS
  1
ACMSURFSTANDARDANSI
  2
AcmSurfTextStdANSI
  3
"AcmSymBB|Product Description: AutoCAD Mechanical 2000|Company: Autodesk"
 90
        0
280
     0
281
     0
  0
CLASS
  1
ACMFCFSTANDARDANSI
  2
AcmFCFStdANSI
  3
"AcmSymBB|Product Description: AutoCAD Mechanical 2000|Company: Autodesk"
 90
        0
280
     0
281
     0
  0
CLASS
  1
ACMWELDSTANDARDANSI
  2
AcmWeldingStdANSI
  3
"AcmSymBB|Product Description: AutoCAD Mechanical 2000|Company: Autodesk"
 90
        0
280
     0
281
     0
  0
CLASS
  1
ACMIDSTANDARDANSI
  2
AcmIdStdANSI
  3
"AcmSymBB|Product Description: AutoCAD Mechanical 2000|Company: Autodesk"
 90
        0
280
     0
281
     0
  0
CLASS
  1
ACMDATUMSTANDARDANSI
  2
AcmDatumStdANSI
  3
"AcmSymBB|Product Description: AutoCAD Mechanical 2000|Company: Autodesk"
 90
        0
280
     0
281
     0
  0
CLASS
  1
ACMBOMSTANDARDANSI
  2
AcmBOMStdANSI
  3
"AcmSymBB|Product Description: AutoCAD Mechanical 2000|Company: Autodesk"
 90
        0
280
     0
281
     0
  0
CLASS
  1
ACMSTANDARDBSI
  2
AcmStandardBSI
  3
"AcmSymBB|Product Description: AutoCAD Mechanical 2000|Company: Autodesk"
 90
        0
280
     0
281
     0
  0
CLASS
  1
ACMSURFSTANDARDBSI
  2
AcmSurfTextStdBSI
  3
"AcmSymBB|Product Description: AutoCAD Mechanical 2000|Company: Autodesk"
 90
        0
280
     0
281
     0
  0
CLASS
  1
ACMFCFSTANDARDBSI
  2
AcmFCFStdBSI
  3
"AcmSymBB|Product Description: AutoCAD Mechanical 2000|Company: Autodesk"
 90
        0
280
     0
281
     0
  0
CLASS
  1
ACMWELDSTANDARDBSI
  2
AcmWeldingStdBSI
  3
"AcmSymBB|Product Description: AutoCAD Mechanical 2000|Company: Autodesk"
 90
        0
280
     0
281
     0
  0
CLASS
  1
ACMIDSTANDARDBSI
  2
AcmIdStdBSI
  3
"AcmSymBB|Product Description: AutoCAD Mechanical 2000|Company: Autodesk"
 90
        0
280
     0
281
     0
  0
CLASS
  1
ACMDATUMSTANDARDBSI
  2
AcmDatumStdBSI
  3
"AcmSymBB|Product Description: AutoCAD Mechanical 2000|Company: Autodesk"
 90
        0
280
     0
281
     0
  0
CLASS
  1
ACMBOMSTANDARDBSI
  2
AcmBOMStdBSI
  3
"AcmSymBB|Product Description: AutoCAD Mechanical 2000|Company: Autodesk"
 90
        0
280
     0
281
     0
  0
CLASS
  1
LONG_TRANSACTION
  2
AcDbLongTransaction
  3
AutoCAD 2000
 90
        0
280
     0
281
     0
  0
CLASS
  1
LWPOLYLINE
  2
AcDbPolyline
  3
AutoCAD 2000
 90
        0
280
     0
281
     1
  0
CLASS
  1
HATCH
  2
AcDbHatch
  3
AutoCAD 2000
 90
        0
280
     0
281
     1
  0
CLASS
  1
XRECORD
  2
AcDbXrecord
  3
AutoCAD 2000
 90
        0
280
     0
281
     0
  0
ENDSEC
  0
SECTION
  2
TABLES
  0
TABLE
  2
VPORT
  5
8
330
0
100
AcDbSymbolTable
 70
     3
  0
VPORT
  5
7238
330
8
100
AcDbSymbolTableRecord
100
AcDbViewportTableRecord
  2
*ACTIVE
 70
     0
 10
0.0
 20
0.0
 11
1.0
 21
1.0
 12
-36.07480520973541
 22
-26.45021031600464
 13
0.0
 23
0.0
 14
2.5
 24
2.5
 15
10.0
 25
10.0
 16
0.0
 26
0.0
 36
1.0
 17
0.0
 27
0.0
 37
0.0
 40
166.8896668281187
 41
1.56570841889117
 42
50.0
 43
0.0
 44
0.0
 50
0.0
 51
0.0
 71
     0
 72
   100
 73
     1
 74
     3
 75
     0
 76
     0
 77
     0
 78
     0
  0
ENDTAB
  0
TABLE
  2
LTYPE
  5
5
330
0
100
AcDbSymbolTable
 70
    10
  0
LTYPE
  5
14
330
5
100
AcDbSymbolTableRecord
100
AcDbLinetypeTableRecord
  2
BYBLOCK
 70
     0
  3

 72
    65
 73
     0
 40
0.0
  0
LTYPE
  5
15
330
5
100
AcDbSymbolTableRecord
100
AcDbLinetypeTableRecord
  2
BYLAYER
 70
     0
  3

 72
    65
 73
     0
 40
0.0
  0
LTYPE
  5
16
330
5
100
AcDbSymbolTableRecord
100
AcDbLinetypeTableRecord
  2
CONTINUOUS
 70
     0
  3
Solid line
 72
    65
 73
     0
 40
0.0
  0
LTYPE
  5
4B
330
5
100
AcDbSymbolTableRecord
100
AcDbLinetypeTableRecord
  2
AM_ISO02W050
 70
     0
  3
__ __ __ __ __ __ __ __ __ __ __ __ __ __ __
 72
    65
 73
     2
 40
7.5
 49
6.0
 74
     0
 49
-1.5
 74
     0
  0
LTYPE
  5
4C
330
5
100
AcDbSymbolTableRecord
100
AcDbLinetypeTableRecord
  2
AM_ISO08W050
 70
     0
  3
____ . ____ . ____ . ____ . ____ . ____ . ____
 72
    65
 73
     4
 40
18.0
 49
12.0
 74
     0
 49
-1.5
 74
     0
 49
3.0
 74
     0
 49
-1.5
 74
     0
  0
LTYPE
  5
4D
330
5
100
AcDbSymbolTableRecord
100
AcDbLinetypeTableRecord
  2
AM_ISO09W050
 70
     0
  3
_____ . . _____ . . _____ . . ____ .. ____
 72
    65
 73
     6
 40
22.5
 49
12.0
 74
     0
 49
-1.5
 74
     0
 49
3.0
 74
     0
 49
-1.5
 74
     0
 49
3.0
 74
     0
 49
-1.5
 74
     0
  0
LTYPE
  5
4E
330
5
100
AcDbSymbolTableRecord
100
AcDbLinetypeTableRecord
  2
AMCONSTR
 70
     0
  3
_______________________
 72
    65
 73
     2
 40
9999.0
 49
9999.0
 74
     0
 49
0.0
 74
     0
  0
LTYPE
  5
4F
330
5
100
AcDbSymbolTableRecord
100
AcDbLinetypeTableRecord
  2
AM_ISO02W050X2
 70
     0
  3
 _ _ _ _ _ _ _ _ _ _ _ _
 72
    65
 73
     2
 40
3.75
 49
3.0
 74
     0
 49
-0.75
 74
     0
  0
LTYPE
  5
50
330
5
100
AcDbSymbolTableRecord
100
AcDbLinetypeTableRecord
  2
AM_ISO08W050X2
 70
     0
  3
__ . __ . __ . __ . __ . __
 72
    65
 73
     4
 40
9.0
 49
6.0
 74
     0
 49
-0.75
 74
     0
 49
1.5
 74
     0
 49
-0.75
 74
     0
  0
LTYPE
  5
53
330
5
100
AcDbSymbolTableRecord
100
AcDbLinetypeTableRecord
  2
AMZIGZAG
 70
     0
  3
/\/-/\/-/\/-/\/-/\/-/\/
 72
    65
 73
     2
 40
11.00009999999999
 49
0.0001
 74
     4
 75
   135
340
52
 46
0.04
 50
0.0
 44
0.0
 45
0.0
 49
-11.0
 74
     0
  0
LTYPE
  5
166
330
5
100
AcDbSymbolTableRecord
100
AcDbLinetypeTableRecord
  2
ACJISTGL
 70
     0
  3
_ _ _ _ _
 72
    65
 73
     2
 40
3.0
 49
2.0
 74
     0
 49
-1.0
 74
     0
  0
LTYPE
  5
26A
330
5
100
AcDbSymbolTableRecord
100
AcDbLinetypeTableRecord
  2
ACJISTGB
 70
     0
  3
__ . . __ . .
 72
    65
 73
     6
 40
9.0
 49
4.0
 74
     0
 49
-1.0
 74
     0
 49
1.0
 74
     0
 49
-1.0
 74
     0
 49
1.0
 74
     0
 49
-1.0
 74
     0
  0
ENDTAB
  0
TABLE
  2
LAYER
  5
2
330
0
100
AcDbSymbolTable
 70
    10
  0
LAYER
  5
10
330
2
100
AcDbSymbolTableRecord
100
AcDbLayerTableRecord
  2
0
 70
     0
 62
     7
  6
CONTINUOUS
  0
LAYER
  5
3F9
330
2
100
AcDbSymbolTableRecord
100
AcDbLayerTableRecord
  2
AM_0
 70
     0
 62
     7
  6
CONTINUOUS
  0
LAYER
  5
BD6
330
2
100
AcDbSymbolTableRecord
100
AcDbLayerTableRecord
  2
AM_11
 70
     0
 62
     3
  6
AM_ISO09W050
  0
LAYER
  5
BD7
330
2
100
AcDbSymbolTableRecord
100
AcDbLayerTableRecord
  2
AM_7
 70
     0
 62
     4
  6
AM_ISO08W050
  0
LAYER
  5
BD8
330
2
100
AcDbSymbolTableRecord
100
AcDbLayerTableRecord
  2
AM_5
 70
     0
 62
     3
  6
CONTINUOUS
  0
LAYER
  5
BD9
330
2
100
AcDbSymbolTableRecord
100
AcDbLayerTableRecord
  2
DEFPOINTS
 70
     0
 62
     7
  6
CONTINUOUS
  0
LAYER
  5
BDA
330
2
100
AcDbSymbolTableRecord
100
AcDbLayerTableRecord
  2
AM_6
 70
     0
 62
     2
  6
CONTINUOUS
  0
LAYER
  5
1E2E
330
2
100
AcDbSymbolTableRecord
100
AcDbLayerTableRecord
  2
AM_CL
 70
     0
 62
     1
  6
AMCONSTR
  0
LAYER
  5
6375
330
2
100
AcDbSymbolTableRecord
100
AcDbLayerTableRecord
  2
PV0001_1
 70
     0
 62
     7
  6
CONTINUOUS
  0
LAYER
  5
68A0
330
2
100
AcDbSymbolTableRecord
100
AcDbLayerTableRecord
  2
AM_1
 70
     0
 62
     3
  6
CONTINUOUS
  0
ENDTAB
  0
TABLE
  2
STYLE
  5
3
330
0
100
AcDbSymbolTable
 70
     5
  0
STYLE
  5
11
330
3
100
AcDbSymbolTableRecord
100
AcDbTextStyleTableRecord
  2
STANDARD
 70
     0
 40
0.0
 41
1.0
 50
0.0
 71
     0
 42
2.5
  3
simplex.shx
  4
EXTFONT.SHX
  0
STYLE
  5
52
330
3
100
AcDbSymbolTableRecord
100
AcDbTextStyleTableRecord
  2

 70
     1
 40
0.0
 41
1.0
 50
0.0
 71
     0
 42
2.5
  3
ltypeshp.shx
  4

  0
STYLE
  5
6B
330
3
100
AcDbSymbolTableRecord
100
AcDbTextStyleTableRecord
  2
ASAMI
 70
     0
 40
0.0
 41
1.0
 50
0.0
 71
     0
 42
2.5
  3
simplex.shx
  4
EXTFONT.SHX
  0
STYLE
  5
262
330
3
100
AcDbSymbolTableRecord
100
AcDbTextStyleTableRecord
  2
ACJISTS
 70
     0
 40
1.0
 41
1.0
 50
0.0
 71
     0
 42
2.5
  3
simplex.shx
  4
bigfont.shx
  0
STYLE
  5
269
330
3
100
AcDbSymbolTableRecord
100
AcDbTextStyleTableRecord
  2
ACJISGDT
 70
     0
 40
0.0
 41
1.0
 50
0.0
 71
     0
 42
2.5
  3
amgdtans.shx
  4

  0
ENDTAB
  0
TABLE
  2
VIEW
  5
6
330
0
100
AcDbSymbolTable
 70
     0
  0
ENDTAB
  0
TABLE
  2
UCS
  5
7
330
0
100
AcDbSymbolTable
 70
     0
  0
ENDTAB
  0
TABLE
  2
APPID
  5
9
330
0
100
AcDbSymbolTable
 70
    13
  0
APPID
  5
12
330
9
100
AcDbSymbolTableRecord
100
AcDbRegAppTableRecord
  2
ACAD
 70
     0
  0
APPID
  5
30
330
9
100
AcDbSymbolTableRecord
100
AcDbRegAppTableRecord
  2
MCAD_NO_VIS
 70
     0
  0
APPID
  5
31
330
9
100
AcDbSymbolTableRecord
100
AcDbRegAppTableRecord
  2
ACAD_TEMP_GRAPHIC
 70
     0
  0
APPID
  5
2C2
330
9
100
AcDbSymbolTableRecord
100
AcDbRegAppTableRecord
  2
GENIUS_GENDTOL_13
 70
     0
  0
APPID
  5
339
330
9
100
AcDbSymbolTableRecord
100
AcDbRegAppTableRecord
  2
GENIUS_GENODEF_13
 70
     0
  0
APPID
  5
33A
330
9
100
AcDbSymbolTableRecord
100
AcDbRegAppTableRecord
  2
GENIUS_GENOBJ-N-RSBK_13
 70
     0
  0
APPID
  5
33B
330
9
100
AcDbSymbolTableRecord
100
AcDbRegAppTableRecord
  2
GENIUS_GENOBJ-N-LIB_13
 70
     0
  0
APPID
  5
33C
330
9
100
AcDbSymbolTableRecord
100
AcDbRegAppTableRecord
  2
GENIUS_GENSCALE_13
 70
     0
  0
APPID
  5
378
330
9
100
AcDbSymbolTableRecord
100
AcDbRegAppTableRecord
  2
GENIUS_GENDIMSH_14
 70
     0
  0
APPID
  5
BDB
330
9
100
AcDbSymbolTableRecord
100
AcDbRegAppTableRecord
  2
GENIUS_GENOBJ-N-CEN_13
 70
     0
  0
APPID
  5
BDC
330
9
100
AcDbSymbolTableRecord
100
AcDbRegAppTableRecord
  2
GENIUS_GENFIL_13
 70
     0
  0
APPID
  5
BDD
330
9
100
AcDbSymbolTableRecord
100
AcDbRegAppTableRecord
  2
GENIUS_GENOBJ-N-FIL_13
 70
     0
  0
APPID
  5
12AD
330
9
100
AcDbSymbolTableRecord
100
AcDbRegAppTableRecord
  2
GENIUS_GENOREF_13
 70
     0
  0
ENDTAB
  0
TABLE
  2
DIMSTYLE
  5
A
330
0
100
AcDbSymbolTable
 70
    10
  0
DIMSTYLE
105
58
330
A
100
AcDbSymbolTableRecord
100
AcDbDimStyleTableRecord
  2
AM_JIS
 70
     0
  3

  4
"
  5
OPEN30
  6

  7

 40
1.0
 41
2.5
 42
1.0
 43
12.0
 44
1.0
 45
0.0
 46
0.0
 47
0.1
 48
0.1
140
3.2
141
0.0
142
0.0
143
0.0393701
144
1.0
145
0.0
146
0.71
147
1.5
 71
     0
 72
     0
 73
     0
 74
     0
 75
     0
 76
     0
 77
     3
 78
     8
170
     0
171
     2
172
     1
173
     0
174
     0
175
     0
176
     3
177
     3
178
     2
270
     2
271
     3
272
     3
273
     2
274
     2
340
6B
275
     0
280
     0
281
     0
282
     0
283
     0
284
     0
285
     0
286
     0
287
     3
288
     0
  0
DIMSTYLE
105
5F
330
A
100
AcDbSymbolTableRecord
100
AcDbDimStyleTableRecord
  2
AM_JIS$3
 70
     0
  3

  4
"
  5
OPEN30
  6

  7

 40
1.0
 41
2.5
 42
1.0
 43
10.0
 44
1.0
 45
0.0
 46
0.0
 47
0.1
 48
0.1
140
3.2
141
0.0
142
0.0
143
0.0393701
144
1.0
145
0.0
146
0.71
147
1.5
 71
     0
 72
     0
 73
     0
 74
     1
 75
     0
 76
     0
 77
     3
 78
     8
170
     0
171
     2
172
     0
173
     0
174
     0
175
     0
176
     3
177
     3
178
     2
270
     2
271
     2
272
     3
273
     2
274
     2
340
6B
275
     0
280
     0
281
     0
282
     0
283
     0
284
     0
285
     0
286
     0
287
     0
288
     1
  0
DIMSTYLE
105
60
330
A
100
AcDbSymbolTableRecord
100
AcDbDimStyleTableRecord
  2
AM_JIS$4
 70
     0
  3

  4
"
  5
OPEN30
  6

  7

 40
1.0
 41
2.5
 42
1.0
 43
10.0
 44
1.0
 45
0.0
 46
0.0
 47
0.1
 48
0.1
140
3.2
141
0.0
142
0.0
143
0.0393701
144
1.0
145
0.0
146
0.71
147
1.5
 71
     0
 72
     0
 73
     0
 74
     1
 75
     0
 76
     0
 77
     3
 78
     8
170
     0
171
     2
172
     0
173
     0
174
     0
175
     0
176
     3
177
     3
178
     2
270
     2
271
     2
272
     3
273
     2
274
     2
340
6B
275
     0
280
     0
281
     0
282
     0
283
     0
284
     0
285
     0
286
     0
287
     0
288
     1
  0
DIMSTYLE
105
61
330
A
100
AcDbSymbolTableRecord
100
AcDbDimStyleTableRecord
  2
AM_JIS$6
 70
     0
  3

  4
"
  5
OPEN30
  6

  7

 40
1.0
 41
2.5
 42
1.0
 43
10.0
 44
1.0
 45
0.0
 46
0.0
 47
0.1
 48
0.1
140
3.2
141
0.0
142
0.0
143
0.0393701
144
1.0
145
0.0
146
0.71
147
1.5
 71
     0
 72
     0
 73
     0
 74
     0
 75
     0
 76
     0
 77
     0
 78
     8
170
     0
171
     2
172
     1
173
     0
174
     0
175
     0
176
     3
177
     3
178
     2
270
     2
271
     2
272
     2
273
     2
274
     2
340
6B
275
     0
280
     0
281
     0
282
     0
283
     0
284
     0
285
     0
286
     0
287
     3
288
     0
  0
DIMSTYLE
105
62
330
A
100
AcDbSymbolTableRecord
100
AcDbDimStyleTableRecord
  2
AM_JIS$7
 70
     0
  3

  4
"
  5
OPEN30
  6

  7

 40
1.0
 41
2.5
 42
1.0
 43
10.0
 44
1.0
 45
0.0
 46
0.0
 47
0.1
 48
0.1
140
3.2
141
0.0
142
0.0
143
0.0393701
144
1.0
145
0.0
146
0.71
147
1.5
 71
     0
 72
     0
 73
     0
 74
     0
 75
     0
 76
     0
 77
     3
 78
     8
170
     0
171
     2
172
     1
173
     0
174
     0
175
     0
176
     3
177
     3
178
     2
270
     2
271
     2
272
     3
273
     2
274
     2
340
6B
275
     0
280
     0
281
     0
282
     0
283
     0
284
     0
285
     0
286
     0
287
     3
288
     0
  0
DIMSTYLE
105
63
330
A
100
AcDbSymbolTableRecord
100
AcDbDimStyleTableRecord
  2
AM_JIS$SF
 70
     0
  3

  4
"
  5
OPEN30
  6

  7

 40
1.0
 41
2.5
 42
1.0
 43
10.0
 44
1.0
 45
0.0
 46
0.0
 47
0.1
 48
0.1
140
3.2
141
0.0
142
0.0
143
0.0393701
144
1.0
145
0.0
146
0.71
147
1.5
 71
     0
 72
     0
 73
     0
 74
     0
 75
     1
 76
     1
 77
     3
 78
     8
170
     0
171
     2
172
     1
173
     0
174
     0
175
     0
176
   256
177
   256
178
     2
270
     2
271
     2
272
     2
273
     2
274
     2
340
6B
275
     0
280
     0
281
     0
282
     0
283
     0
284
     0
285
     0
286
     0
287
     3
288
     0
  0
DIMSTYLE
105
68
330
A
100
AcDbSymbolTableRecord
100
AcDbDimStyleTableRecord
  2
AM_JIS$SH
 70
     0
  3

  4
"
  5

  6
GENAXEH
  7
OPEN30
 40
1.0
 41
2.5
 42
1.0
 43
10.0
 44
1.0
 45
0.0
 46
0.0
 47
0.1
 48
0.1
140
3.2
141
0.0
142
0.0
143
0.0393701
144
2.0
145
0.0
146
0.71
147
1.5
 71
     0
 72
     0
 73
     0
 74
     0
 75
     1
 76
     1
 77
     3
 78
     8
170
     0
171
     2
172
     1
173
     1
174
     0
175
     0
176
   256
177
   256
178
     2
270
     2
271
     2
272
     2
273
     2
274
     2
340
6B
275
     0
280
     0
281
     0
282
     0
283
     0
284
     0
285
     0
286
     0
287
     3
288
     0
  0
DIMSTYLE
105
B34
102
{ACAD_REACTORS
330
70FA
102
}
330
A
100
AcDbSymbolTableRecord
100
AcDbDimStyleTableRecord
  2
AM_JIS$2
 70
     0
  3

  4
"
  5
OPEN30
  6

  7

 40
1.0
 41
2.5
 42
1.0
 43
12.0
 44
1.0
 45
0.0
 46
0.0
 47
0.1
 48
0.1
140
3.2
141
0.0
142
0.0
143
0.0393701
144
1.0
145
0.0
146
0.71
147
1.5
 71
     0
 72
     0
 73
     0
 74
     0
 75
     0
 76
     0
 77
     3
 78
     8
170
     0
171
     2
172
     1
173
     0
174
     0
175
     0
176
     3
177
     3
178
     2
270
     2
271
     3
272
     3
273
     2
274
     2
340
6B
275
     0
280
     0
281
     0
282
     0
283
     0
284
     0
285
     0
286
     0
287
     3
288
     0
  0
DIMSTYLE
105
6376
102
{ACAD_REACTORS
330
70F9
102
}
330
A
100
AcDbSymbolTableRecord
100
AcDbDimStyleTableRecord
  2
AM_JIS$0
 70
     0
  3

  4
"
  5
OPEN30
  6

  7

 40
1.0
 41
2.5
 42
0.0
 43
10.0
 44
1.0
 45
0.0
 46
0.0
 47
0.1
 48
0.1000000001
140
3.799999999999999
141
0.0
142
0.0
143
0.0393701
144
1.0
145
0.0
146
0.71
147
1.5
 71
     0
 72
     0
 73
     0
 74
     0
 75
     0
 76
     0
 77
     3
 78
     9
170
     0
171
     2
172
     1
173
     0
174
     0
175
     0
176
     3
177
     3
178
     2
270
     2
271
     2
272
     2
273
     2
274
     2
340
11
275
     1
280
     0
281
     0
282
     0
283
     0
284
     8
285
     0
286
     0
287
     0
288
     0
  0
DIMSTYLE
105
6377
330
A
100
AcDbSymbolTableRecord
100
AcDbDimStyleTableRecord
  2
AM_JISORG-1P0$2
 70
     0
  3

  4
"
  5
OPEN30
  6

  7

 40
1.0
 41
2.5
 42
0.0
 43
10.0
 44
1.0
 45
0.0
 46
0.0
 47
0.1
 48
0.1000000001
140
3.799999999999999
141
0.0
142
0.0
143
0.0393701
144
-1.000041583175977
145
0.0
146
0.71
147
1.5
 71
     0
 72
     0
 73
     0
 74
     0
 75
     0
 76
     0
 77
     3
 78
     1
170
     0
171
     2
172
     1
173
     0
174
     0
175
     0
176
     3
177
     3
178
     2
270
     2
271
     2
272
     2
273
     2
274
     2
340
11
275
     1
280
     0
281
     0
282
     0
283
     0
284
     8
285
     0
286
     0
287
     0
288
     0
  0
ENDTAB
  0
TABLE
  2
BLOCK_RECORD
  5
1
330
0
100
AcDbSymbolTable
 70
    16
  0
BLOCK_RECORD
  5
1F
102
{ACAD_XDICTIONARY
360
74
102
}
330
1
100
AcDbSymbolTableRecord
100
AcDbBlockTableRecord
  2
*MODEL_SPACE
  0
BLOCK_RECORD
  5
101
102
{ACAD_XDICTIONARY
360
7261
102
}
330
1
100
AcDbSymbolTableRecord
100
AcDbBlockTableRecord
  2
*PAPER_SPACE
  0
BLOCK_RECORD
  5
59
330
1
100
AcDbSymbolTableRecord
100
AcDbBlockTableRecord
  2
_OPEN30
  0
BLOCK_RECORD
  5
64
330
1
100
AcDbSymbolTableRecord
100
AcDbBlockTableRecord
  2
GENAXEH
  0
BLOCK_RECORD
  5
62FE
330
1
100
AcDbSymbolTableRecord
100
AcDbBlockTableRecord
  2
_NONE
  0
BLOCK_RECORD
  5
67EB
330
1
100
AcDbSymbolTableRecord
100
AcDbBlockTableRecord
  2
_DOTSMALL
  0
BLOCK_RECORD
  5
6BEF
330
1
100
AcDbSymbolTableRecord
100
AcDbBlockTableRecord
  2
*U7
  0
BLOCK_RECORD
  5
6BF3
330
1
100
AcDbSymbolTableRecord
100
AcDbBlockTableRecord
  2
*U8
  0
BLOCK_RECORD
  5
6E63
330
1
100
AcDbSymbolTableRecord
100
AcDbBlockTableRecord
  2
*D9
  0
BLOCK_RECORD
  5
6E8B
330
1
100
AcDbSymbolTableRecord
100
AcDbBlockTableRecord
  2
*D10
  0
BLOCK_RECORD
  5
6E97
330
1
100
AcDbSymbolTableRecord
100
AcDbBlockTableRecord
  2
*D11
  0
BLOCK_RECORD
  5
6EA3
330
1
100
AcDbSymbolTableRecord
100
AcDbBlockTableRecord
  2
*D12
  0
BLOCK_RECORD
  5
6EC9
330
1
100
AcDbSymbolTableRecord
100
AcDbBlockTableRecord
  2
*D13
  0
BLOCK_RECORD
  5
70FB
330
1
100
AcDbSymbolTableRecord
100
AcDbBlockTableRecord
  2
*D14
  0
BLOCK_RECORD
  5
7109
330
1
100
AcDbSymbolTableRecord
100
AcDbBlockTableRecord
  2
*D15
  0
ENDTAB
  0
ENDSEC
  0
SECTION
  2
BLOCKS
  0
BLOCK
  5
20
330
1F
100
AcDbEntity
  8
0
100
AcDbBlockBegin
  2
*MODEL_SPACE
 70
     0
 10
0.0
 20
0.0
 30
0.0
  3
*MODEL_SPACE
  1

  0
ENDBLK
  5
21
330
1F
100
AcDbEntity
  8
0
100
AcDbBlockEnd
  0
BLOCK
  5
103
330
101
100
AcDbEntity
 67
     1
  8
0
100
AcDbBlockBegin
  2
*PAPER_SPACE
 70
     0
 10
0.0
 20
0.0
 30
0.0
  3
*PAPER_SPACE
  1

  0
ENDBLK
  5
104
330
101
100
AcDbEntity
 67
     1
  8
0
100
AcDbBlockEnd
  0
BLOCK
  5
5D
330
59
100
AcDbEntity
  8
0
100
AcDbBlockBegin
  2
_OPEN30
 70
     0
 10
0.0
 20
0.0
 30
0.0
  3
_OPEN30
  1

  0
LINE
  5
5A
330
59
100
AcDbEntity
  8
0
 62
     0
100
AcDbLine
 10
-1.0
 20
0.26794919
 30
0.0
 11
0.0
 21
0.0
 31
0.0
  0
LINE
  5
5B
330
59
100
AcDbEntity
  8
0
 62
     0
100
AcDbLine
 10
0.0
 20
0.0
 30
0.0
 11
-1.0
 21
-0.26794919
 31
0.0
  0
LINE
  5
5C
330
59
100
AcDbEntity
  8
0
 62
     0
100
AcDbLine
 10
0.0
 20
0.0
 30
0.0
 11
-1.0
 21
0.0
 31
0.0
  0
ENDBLK
  5
5E
330
59
100
AcDbEntity
  8
0
100
AcDbBlockEnd
  0
BLOCK
  5
66
330
64
100
AcDbEntity
  8
0
100
AcDbBlockBegin
  2
GENAXEH
 70
     0
 10
0.0
 20
0.0
 30
0.0
  3
GENAXEH
  1

  0
LINE
  5
65
330
64
100
AcDbEntity
  8
0
100
AcDbLine
 10
-1.0
 20
0.0
 30
0.0
 11
1.0
 21
0.0
 31
0.0
  0
ENDBLK
  5
67
330
64
100
AcDbEntity
  8
0
100
AcDbBlockEnd
  0
BLOCK
  5
62FF
330
62FE
100
AcDbEntity
  8
0
100
AcDbBlockBegin
  2
_NONE
 70
     0
 10
0.0
 20
0.0
 30
0.0
  3
_NONE
  1

  0
ENDBLK
  5
6300
330
62FE
100
AcDbEntity
  8
0
100
AcDbBlockEnd
  0
BLOCK
  5
67ED
330
67EB
100
AcDbEntity
  8
0
100
AcDbBlockBegin
  2
_DOTSMALL
 70
     0
 10
0.0
 20
0.0
 30
0.0
  3
_DOTSMALL
  1

  0
LWPOLYLINE
  5
67EC
330
67EB
100
AcDbEntity
  8
AM_0
 62
     0
100
AcDbPolyline
 90
        2
 70
     1
 43
0.5
 10
-0.0625
 20
0.0
 42
1.0
 10
0.0625
 20
0.0
 42
1.0
  0
ENDBLK
  5
67EE
330
67EB
100
AcDbEntity
  8
0
100
AcDbBlockEnd
  0
BLOCK
  5
6BF1
330
6BEF
100
AcDbEntity
  8
0
100
AcDbBlockBegin
  2
*U7
 70
     1
 10
0.0
 20
0.0
 30
0.0
  3
*U7
  1

  0
LEADER
  5
6BF0
330
6BEF
100
AcDbEntity
  8
0
  6
CONTINUOUS
 48
0.5
100
AcDbLeader
  3
AM_JIS$7
 76
     2
 10
-43.14281082153299
 20
101.45578765869
 30
0.0
 10
-43.14281082153299
 20
91.455787658691
 30
0.0
1001
ACAD
1000
DSTYLE
1002
{
1070
     6
1000
OPEN30
1070
   173
1070
     1
1070
   176
1070
     0
1070
   341
1005
59
1002
}
  0
ENDBLK
  5
6BF2
330
6BEF
100
AcDbEntity
  8
0
100
AcDbBlockEnd
  0
BLOCK
  5
6BF5
330
6BF3
100
AcDbEntity
  8
0
100
AcDbBlockBegin
  2
*U8
 70
     1
 10
0.0
 20
0.0
 30
0.0
  3
*U8
  1

  0
LEADER
  5
6BF4
330
6BF3
100
AcDbEntity
  8
0
  6
CONTINUOUS
 48
0.5
100
AcDbLeader
  3
AM_JIS$7
 76
     2
 10
-33.14281082153299
 20
91.455787658691
 30
0.0
 10
-43.14281082153299
 20
91.455787658691
 30
0.0
1001
ACAD
1000
DSTYLE
1002
{
1070
     6
1000
OPEN30
1070
   173
1070
     1
1070
   176
1070
     0
1070
   341
1005
59
1002
}
  0
ENDBLK
  5
6BF6
330
6BF3
100
AcDbEntity
  8
0
100
AcDbBlockEnd
  0
BLOCK
  5
6E6D
330
6E63
100
AcDbEntity
  8
0
100
AcDbBlockBegin
  2
*D9
 70
     1
 10
0.0
 20
0.0
 30
0.0
  3
*D9
  1

  0
LINE
  5
71B3
330
6E63
100
AcDbEntity
  8
PV0001_1
 62
     3
100
AcDbLine
 10
0.0000391465269728
 20
-1.000142418232684
 30
0.0
 11
0.0000391465269712
 21
-27.71422704347671
 31
0.0
  0
LINE
  5
71B4
330
6E63
100
AcDbEntity
  8
PV0001_1
 62
     3
100
AcDbLine
 10
-119.999953224072
 20
-0.8651440966986854
 30
0.0
 11
-119.999953224072
 21
-27.71422704347671
 31
0.0
  0
LINE
  5
71B5
330
6E63
100
AcDbEntity
  8
PV0001_1
 62
     3
100
AcDbLine
 10
-2.499960853473028
 20
-26.71422704347671
 30
0.0
 11
-117.499953224072
 21
-26.71422704347671
 31
0.0
  0
INSERT
  5
71B6
330
6E63
100
AcDbEntity
  8
PV0001_1
 62
     3
100
AcDbBlockReference
  2
_OPEN30
 10
0.0000391465269713
 20
-26.71422704347671
 30
0.0
 41
2.5
 42
2.5
 43
2.5
  0
INSERT
  5
71B7
330
6E63
100
AcDbEntity
  8
PV0001_1
 62
     3
100
AcDbBlockReference
  2
_OPEN30
 10
-119.999953224072
 20
-26.71422704347671
 30
0.0
 41
2.5
 42
2.5
 43
2.5
 50
180.0
  0
MTEXT
  5
71B8
330
6E63
100
AcDbEntity
  8
PV0001_1
 62
     2
100
AcDbMText
 10
-59.48735709370203
 20
-23.6142270434767
 30
0.0
 40
3.2
 41
0.0
 71
     5
 72
     1
  1
120
  7
ASAMI
1001
ACAD
1000
MTEXTBEGIN
1070
    73
1070
     1
1070
    44
1040
1.0
1070
    74
1070
     0
1000
MTEXTEND
  0
POINT
  5
71B9
330
6E63
100
AcDbEntity
  8
DEFPOINTS
 62
     0
100
AcDbPoint
 10
0.0000391465269729
 20
-0.0001424182326843
 30
0.0
  0
POINT
  5
71BA
330
6E63
100
AcDbEntity
  8
DEFPOINTS
 62
     0
100
AcDbPoint
 10
-119.999953224072
 20
0.1348559033013146
 30
0.0
  0
POINT
  5
71BB
330
6E63
100
AcDbEntity
  8
DEFPOINTS
 62
     0
100
AcDbPoint
 10
-119.999953224072
 20
-26.71422704347671
 30
0.0
  0
ENDBLK
  5
6E6E
330
6E63
100
AcDbEntity
  8
0
100
AcDbBlockEnd
  0
BLOCK
  5
6E95
330
6E8B
100
AcDbEntity
  8
0
100
AcDbBlockBegin
  2
*D10
 70
     1
 10
0.0
 20
0.0
 30
0.0
  3
*D10
  1

  0
LINE
  5
71FD
330
6E8B
100
AcDbEntity
  8
PV0001_1
 62
     3
100
AcDbLine
 10
-15.00030799092502
 20
-1.134942375508614
 30
0.0
 11
-15.00030799092502
 21
-16.54519068886716
 31
0.0
  0
LINE
  5
71FE
330
6E8B
100
AcDbEntity
  8
PV0001_1
 62
     3
100
AcDbLine
 10
0.0000391465269728
 20
-1.000146232929722
 30
0.0
 11
0.0000391465269719
 21
-16.54519068886716
 31
0.0
  0
LINE
  5
71FF
330
6E8B
100
AcDbEntity
  8
PV0001_1
 62
     3
100
AcDbLine
 10
-12.50030799092502
 20
-15.54519068886716
 30
0.0
 11
-2.499960853473027
 21
-15.54519068886716
 31
0.0
  0
INSERT
  5
7200
330
6E8B
100
AcDbEntity
  8
PV0001_1
 62
     3
100
AcDbBlockReference
  2
_OPEN30
 10
-15.00030799092502
 20
-15.54519068886716
 30
0.0
 41
2.5
 42
2.5
 43
2.5
 50
180.0
  0
INSERT
  5
7201
330
6E8B
100
AcDbEntity
  8
PV0001_1
 62
     3
100
AcDbBlockReference
  2
_OPEN30
 10
0.0000391465269719
 20
-15.54519068886716
 30
0.0
 41
2.5
 42
2.5
 43
2.5
  0
MTEXT
  5
7202
330
6E8B
100
AcDbEntity
  8
PV0001_1
 62
     2
100
AcDbMText
 10
-7.501575611181806
 20
-12.44519068886716
 30
0.0
 40
3.2
 41
0.0
 71
     5
 72
     1
  1
15
  7
ASAMI
1001
ACAD
1000
MTEXTBEGIN
1070
    73
1070
     1
1070
    44
1040
1.0
1070
    74
1070
     0
1000
MTEXTEND
  0
POINT
  5
7203
330
6E8B
100
AcDbEntity
  8
DEFPOINTS
 62
     0
100
AcDbPoint
 10
-15.00030799092502
 20
-0.134942375508615
 30
0.0
  0
POINT
  5
7204
330
6E8B
100
AcDbEntity
  8
DEFPOINTS
 62
     0
100
AcDbPoint
 10
0.0000391465269729
 20
-0.0001462329297226
 30
0.0
  0
POINT
  5
7205
330
6E8B
100
AcDbEntity
  8
DEFPOINTS
 62
     0
100
AcDbPoint
 10
0.0000391465269719
 20
-15.54519068886716
 30
0.0
  0
ENDBLK
  5
6E96
330
6E8B
100
AcDbEntity
  8
0
100
AcDbBlockEnd
  0
BLOCK
  5
6EA1
330
6E97
100
AcDbEntity
  8
0
100
AcDbBlockBegin
  2
*D11
 70
     1
 10
0.0
 20
0.0
 30
0.0
  3
*D11
  1

  0
LINE
  5
71C7
330
6E97
100
AcDbEntity
  8
PV0001_1
 62
     3
100
AcDbLine
 10
-120.999953224072
 20
-0.0001424182326556
 30
0.0
 11
-133.787810279742
 21
-0.000142418232652
 31
0.0
  0
LINE
  5
71C8
330
6E97
100
AcDbEntity
  8
PV0001_1
 62
     3
100
AcDbLine
 10
-120.999953224072
 20
11.99985758176731
 30
0.0
 11
-133.787810279742
 21
11.99985758176731
 31
0.0
  0
LINE
  5
71C9
330
6E97
100
AcDbEntity
  8
PV0001_1
 62
     3
100
AcDbLine
 10
-132.787810279742
 20
-2.500142418232652
 30
0.0
 11
-132.787810279742
 21
-5.000142418232652
 31
0.0
  0
LINE
  5
71CA
330
6E97
100
AcDbEntity
  8
PV0001_1
 62
     3
100
AcDbLine
 10
-132.787810279742
 20
14.49985758176731
 30
0.0
 11
-132.787810279742
 21
16.99985758176731
 31
0.0
  0
LINE
  5
71CB
330
6E97
100
AcDbEntity
  8
PV0001_1
 62
     3
100
AcDbLine
 10
-132.787810279742
 20
-0.0001424182326523
 30
0.0
 11
-132.787810279742
 21
11.99985758176731
 31
0.0
  0
INSERT
  5
71CC
330
6E97
100
AcDbEntity
  8
PV0001_1
 62
     3
100
AcDbBlockReference
  2
_OPEN30
 10
-132.787810279742
 20
-0.0001424182326523
 30
0.0
 41
2.5
 42
2.5
 43
2.5
 50
90.0
  0
INSERT
  5
71CD
330
6E97
100
AcDbEntity
  8
PV0001_1
 62
     3
100
AcDbBlockReference
  2
_OPEN30
 10
-132.787810279742
 20
11.99985758176731
 30
0.0
 41
2.5
 42
2.5
 43
2.5
 50
270.0
  0
MTEXT
  5
71CE
330
6E97
100
AcDbEntity
  8
PV0001_1
 62
     2
100
AcDbMText
 10
-135.887810279742
 20
6.067356742534315
 30
0.0
 40
3.2
 41
0.0
 71
     5
 72
     1
  1
12
  7
ASAMI
 11
0.0000000000000001
 21
1.0
 31
0.0
1001
ACAD
1000
MTEXTBEGIN
1070
    73
1070
     1
1070
    44
1040
1.0
1070
    74
1070
     0
1000
MTEXTEND
  0
POINT
  5
71CF
330
6E97
100
AcDbEntity
  8
DEFPOINTS
 62
     0
100
AcDbPoint
 10
-119.999953224072
 20
-0.0001424182326559
 30
0.0
  0
POINT
  5
71D0
330
6E97
100
AcDbEntity
  8
DEFPOINTS
 62
     0
100
AcDbPoint
 10
-119.999953224072
 20
11.99985758176731
 30
0.0
  0
POINT
  5
71D1
330
6E97
100
AcDbEntity
  8
DEFPOINTS
 62
     0
100
AcDbPoint
 10
-132.787810279742
 20
11.99985758176731
 30
0.0
  0
ENDBLK
  5
6EA2
330
6E97
100
AcDbEntity
  8
0
100
AcDbBlockEnd
  0
BLOCK
  5
6EAD
330
6EA3
100
AcDbEntity
  8
0
100
AcDbBlockBegin
  2
*D12
 70
     1
 10
0.0
 20
0.0
 30
0.0
  3
*D12
  1

  0
LINE
  5
71BC
330
6EA3
100
AcDbEntity
  8
PV0001_1
 62
     3
100
AcDbLine
 10
-120.999953224072
 20
-57.13514836915968
 30
0.0
 11
-133.787810279742
 21
-57.13514836915968
 31
0.0
  0
LINE
  5
71BD
330
6EA3
100
AcDbEntity
  8
PV0001_1
 62
     3
100
AcDbLine
 10
-120.999953224072
 20
-45.13514073976568
 30
0.0
 11
-133.787810279742
 21
-45.13514073976568
 31
0.0
  0
LINE
  5
71BE
330
6EA3
100
AcDbEntity
  8
PV0001_1
 62
     3
100
AcDbLine
 10
-132.787810279742
 20
-59.63514836915968
 30
0.0
 11
-132.787810279742
 21
-62.13514836915968
 31
0.0
  0
LINE
  5
71BF
330
6EA3
100
AcDbEntity
  8
PV0001_1
 62
     3
100
AcDbLine
 10
-132.787810279742
 20
-42.63514073976568
 30
0.0
 11
-132.787810279742
 21
-40.13514073976568
 31
0.0
  0
LINE
  5
71C0
330
6EA3
100
AcDbEntity
  8
PV0001_1
 62
     3
100
AcDbLine
 10
-132.787810279742
 20
-57.13514836915968
 30
0.0
 11
-132.787810279742
 21
-45.13514073976568
 31
0.0
  0
INSERT
  5
71C1
330
6EA3
100
AcDbEntity
  8
PV0001_1
 62
     3
100
AcDbBlockReference
  2
_OPEN30
 10
-132.787810279742
 20
-57.13514836915968
 30
0.0
 41
2.5
 42
2.5
 43
2.5
 50
90.0
  0
INSERT
  5
71C2
330
6EA3
100
AcDbEntity
  8
PV0001_1
 62
     3
100
AcDbBlockReference
  2
_OPEN30
 10
-132.787810279742
 20
-45.13514073976568
 30
0.0
 41
2.5
 42
2.5
 43
2.5
 50
270.0
  0
MTEXT
  5
71C3
330
6EA3
100
AcDbEntity
  8
PV0001_1
 62
     2
100
AcDbMText
 10
-135.887810279742
 20
-51.06764348634769
 30
0.0
 40
3.2
 41
0.0
 71
     5
 72
     1
  1
12
  7
ASAMI
 11
0.0000000000000001
 21
1.0
 31
0.0
1001
ACAD
1000
MTEXTBEGIN
1070
    73
1070
     1
1070
    44
1040
1.0
1070
    74
1070
     0
1000
MTEXTEND
  0
POINT
  5
71C4
330
6EA3
100
AcDbEntity
  8
DEFPOINTS
 62
     0
100
AcDbPoint
 10
-119.999953224072
 20
-57.13514836915968
 30
0.0
  0
POINT
  5
71C5
330
6EA3
100
AcDbEntity
  8
DEFPOINTS
 62
     0
100
AcDbPoint
 10
-119.999953224072
 20
-45.13514073976568
 30
0.0
  0
POINT
  5
71C6
330
6EA3
100
AcDbEntity
  8
DEFPOINTS
 62
     0
100
AcDbPoint
 10
-132.787810279742
 20
-45.13514073976568
 30
0.0
  0
ENDBLK
  5
6EAE
330
6EA3
100
AcDbEntity
  8
0
100
AcDbBlockEnd
  0
BLOCK
  5
6ED3
330
6EC9
100
AcDbEntity
  8
0
100
AcDbBlockBegin
  2
*D13
 70
     1
 10
0.0
 20
0.0
 30
0.0
  3
*D13
  1

  0
LINE
  5
71E5
330
6EC9
100
AcDbEntity
  8
PV0001_1
 62
     3
100
AcDbLine
 10
1.000039146526972
 20
-0.0001424182326846
 30
0.0
 11
22.93396584769436
 21
-0.0001424182326908
 31
0.0
  0
LINE
  5
71E6
330
6EC9
100
AcDbEntity
  8
PV0001_1
 62
     3
100
AcDbLine
 10
-7.000952674762031
 20
11.99985758176731
 30
0.0
 11
22.93396584769437
 21
11.9998575817673
 31
0.0
  0
LINE
  5
71E7
330
6EC9
100
AcDbEntity
  8
PV0001_1
 62
     3
100
AcDbLine
 10
21.93396584769436
 20
-2.50014241823269
 30
0.0
 11
21.93396584769436
 21
-5.00014241823269
 31
0.0
  0
LINE
  5
71E8
330
6EC9
100
AcDbEntity
  8
PV0001_1
 62
     3
100
AcDbLine
 10
21.93396584769437
 20
14.4998575817673
 30
0.0
 11
21.93396584769437
 21
16.99985758176731
 31
0.0
  0
LINE
  5
71E9
330
6EC9
100
AcDbEntity
  8
PV0001_1
 62
     3
100
AcDbLine
 10
21.93396584769436
 20
-0.0001424182326906
 30
0.0
 11
21.93396584769437
 21
11.9998575817673
 31
0.0
  0
INSERT
  5
71EA
330
6EC9
100
AcDbEntity
  8
PV0001_1
 62
     3
100
AcDbBlockReference
  2
_OPEN30
 10
21.93396584769436
 20
-0.0001424182326906
 30
0.0
 41
2.5
 42
2.5
 43
2.5
 50
90.0
  0
INSERT
  5
71EB
330
6EC9
100
AcDbEntity
  8
PV0001_1
 62
     3
100
AcDbBlockReference
  2
_OPEN30
 10
21.93396584769437
 20
11.9998575817673
 30
0.0
 41
2.5
 42
2.5
 43
2.5
 50
270.0
  0
MTEXT
  5
71EC
330
6EC9
100
AcDbEntity
  8
PV0001_1
 62
     2
100
AcDbMText
 10
18.83396584769436
 20
5.999857581767316
 30
0.0
 40
3.2
 41
0.0
 71
     5
 72
     1
  1
12
  7
ASAMI
 11
0.0000000000000001
 21
1.0
 31
0.0
1001
ACAD
1000
MTEXTBEGIN
1070
    73
1070
     1
1070
    44
1040
1.0
1070
    74
1070
     0
1000
MTEXTEND
  0
POINT
  5
71ED
330
6EC9
100
AcDbEntity
  8
DEFPOINTS
 62
     0
100
AcDbPoint
 10
0.0000391465269729
 20
-0.0001424182326843
 30
0.0
  0
POINT
  5
71EE
330
6EC9
100
AcDbEntity
  8
DEFPOINTS
 62
     0
100
AcDbPoint
 10
-8.000952674762032
 20
11.99985758176731
 30
0.0
  0
POINT
  5
71EF
330
6EC9
100
AcDbEntity
  8
DEFPOINTS
 62
     0
100
AcDbPoint
 10
21.93396584769437
 20
11.9998575817673
 30
0.0
  0
ENDBLK
  5
6ED4
330
6EC9
100
AcDbEntity
  8
0
100
AcDbBlockEnd
  0
BLOCK
  5
7107
330
70FB
100
AcDbEntity
  8
0
100
AcDbBlockBegin
  2
*D14
 70
     1
 10
0.0
 20
0.0
 30
0.0
  3
*D14
  1

  0
LINE
  5
7263
330
70FB
100
AcDbEntity
  8
AM_5
 62
     3
100
AcDbLine
 10
-4.199453438472602
 20
-57.00042623292969
 30
0.0
 11
27.0304083095143
 21
-57.0004262329297
 31
0.0
  0
LINE
  5
7264
330
70FB
100
AcDbEntity
  8
AM_5
 62
     3
100
AcDbLine
 10
-0.0050300976131155
 20
-45.00042274669834
 30
0.0
 11
27.0304083095143
 21
-45.00042274669835
 31
0.0
  0
LINE
  5
7265
330
70FB
100
AcDbEntity
  8
AM_5
 62
     3
100
AcDbLine
 10
26.0304083095143
 20
-54.5004262329297
 30
0.0
 11
26.0304083095143
 21
-45.00042274669835
 31
0.0
  0
INSERT
  5
7266
330
70FB
100
AcDbEntity
  8
AM_5
 62
     3
100
AcDbBlockReference
  2
_OPEN30
 10
26.0304083095143
 20
-57.0004262329297
 30
0.0
 41
2.5
 42
2.5
 43
2.5
 50
270.0
  0
INSERT
  5
7267
330
70FB
100
AcDbEntity
  8
AM_5
 62
     3
100
AcDbBlockReference
  2
_DOTSMALL
 10
26.0304083095143
 20
-45.00042274669835
 30
0.0
 41
2.5
 42
2.5
 43
2.5
 50
90.0
  0
MTEXT
  5
7268
330
70FB
100
AcDbEntity
  8
AM_5
 62
     2
100
AcDbMText
 10
22.63040830951431
 20
-49.75028448981399
 30
0.0
 40
3.799999999999999
 41
0.0
 71
     5
 72
     1
  1
12
 11
0.0000000000000001
 21
1.0
 31
0.0
  0
POINT
  5
7269
330
70FB
100
AcDbEntity
  8
DEFPOINTS
 62
     0
100
AcDbPoint
 10
-4.199453438472602
 20
-57.00042623292969
 30
0.0
  0
POINT
  5
726A
330
70FB
100
AcDbEntity
  8
DEFPOINTS
 62
     0
100
AcDbPoint
 10
-0.0050300976131155
 20
-45.00042274669834
 30
0.0
  0
POINT
  5
726B
330
70FB
100
AcDbEntity
  8
DEFPOINTS
 62
     0
100
AcDbPoint
 10
26.0304083095143
 20
-45.00042274669835
 30
0.0
  0
ENDBLK
  5
7108
330
70FB
100
AcDbEntity
  8
0
100
AcDbBlockEnd
  0
BLOCK
  5
7114
330
7109
100
AcDbEntity
  8
0
100
AcDbBlockBegin
  2
*D15
 70
     1
 10
0.0
 20
0.0
 30
0.0
  3
*D15
  1

  0
LINE
  5
726C
330
7109
100
AcDbEntity
  8
AM_5
 62
     3
100
AcDbLine
 10
20.6166366801803
 20
-45.00043048672458
 30
0.0
 11
27.09409891987035
 21
-45.00043048672463
 31
0.0
  0
LINE
  5
726D
330
7109
100
AcDbEntity
  8
AM_5
 62
     3
100
AcDbLine
 10
0.9944493073042407
 20
-44.96988755346239
 30
0.0
 11
27.08477013898471
 21
-44.28723474808376
 31
0.0
  0
ARC
  5
726E
330
7109
100
AcDbEntity
  8
AM_5
 62
     3
100
AcDbCircle
 10
-0.1728716524457687
 20
-45.00043048672456
 30
0.0
 40
26.26697057231612
100
AcDbArc
 50
6.954076918680915
 51
12.4093526980409
  0
ARC
  5
726F
330
7109
100
AcDbEntity
  8
AM_5
 62
     3
100
AcDbCircle
 10
-0.1728716524457687
 20
-45.00043048672456
 30
0.0
 40
26.26697057231612
100
AcDbArc
 50
359.9999999999998
 51
1.498801139320941
  0
INSERT
  5
7270
330
7109
100
AcDbEntity
  8
AM_5
 62
     3
100
AcDbBlockReference
  2
_OPEN30
 10
26.0851122664998
 20
-44.31339077948994
 30
0.0
 41
2.5
 42
2.5
 43
2.5
 50
274.2264390290009
  0
POINT
  5
7271
330
7109
100
AcDbEntity
  8
DEFPOINTS
 62
     0
100
AcDbPoint
 10
26.0931003522143
 20
-44.77139403256329
 30
0.0
  0
POINT
  5
7272
330
7109
100
AcDbEntity
  8
DEFPOINTS
 62
     0
100
AcDbPoint
 10
12.1391729579513
 20
-45.00043048672458
 30
0.0
  0
POINT
  5
7273
330
7109
100
AcDbEntity
  8
DEFPOINTS
 62
     0
100
AcDbPoint
 10
-27.0951896442827
 20
-45.70485248379355
 30
0.0
  0
POINT
  5
7274
330
7109
100
AcDbEntity
  8
DEFPOINTS
 62
     0
100
AcDbPoint
 10
-0.0052085651806806
 20
-44.99604358486857
 30
0.0
  0
POINT
  5
7275
330
7109
100
AcDbEntity
  8
DEFPOINTS
 62
     0
100
AcDbPoint
 10
19.61663668018031
 20
-45.00043048672458
 30
0.0
  0
ENDBLK
  5
7115
330
7109
100
AcDbEntity
  8
0
100
AcDbBlockEnd
  0
ENDSEC
  0
SECTION
  2
ENTITIES
  0
TEXT
  5
C58
330
1F
100
AcDbEntity
  8
AM_6
100
AcDbText
 10
-94.59454801649858
 20
-80.72724933265112
 30
0.0
 40
4.0
  1
使用チップ：CTR122000N
 50
0.0000000000002036
 72
     4
 11
-62.0993099212605
 21
-78.72724933265101
 31
0.0
100
AcDbText
  0
MTEXT
  5
6574
330
1F
100
AcDbEntity
  8
AM_5
 62
     2
100
AcDbMText
 10
22.82190009199567
 20
-42.65113823016398
 30
0.0
 40
3.2
 41
0.0
 71
     4
 72
     5
  1
\T1.4;\W0.59;1°30'
 11
-0.0174524064372832
 21
0.9998476951563912
 31
0.0
1001
ACAD
1000
MTEXTBEGIN
1070
    73
1070
     1
1070
    44
1040
1.0
1070
    74
1070
     0
1000
MTEXTEND
  0
TEXT
  5
6B28
330
1F
100
AcDbEntity
  8
AM_6
100
AcDbText
 10
-79.48026230221286
 20
-88.70163079445729
 30
0.0
 40
5.0
  1
SCTR1212
 50
0.0000000000002036
 72
     4
 11
-62.0993099212605
 21
-86.20163079445722
 31
0.0
100
AcDbText
  0
LINE
  5
6D30
330
1F
100
AcDbEntity
  8
PV0001_1
  6
CONTINUOUS
100
AcDbLine
 10
-119.999266578562
 20
-45.13514836915968
 30
0.0
 11
-20.92057700337503
 21
-45.1351483691597
 31
0.0
  0
LINE
  5
6D33
330
1F
100
AcDbEntity
  8
PV0001_1
  6
CONTINUOUS
100
AcDbLine
 10
-21.35756201924402
 20
11.99985758176731
 30
0.0
 11
-119.999953224072
 21
11.99985758176731
 31
0.0
  0
DIMENSION
  5
6D35
330
1F
100
AcDbEntity
  8
PV0001_1
100
AcDbDimension
  2
*D9
 10
-119.999953224072
 20
-26.71422704347671
 30
0.0
 11
-59.48735709370203
 21
-26.71422704347671
 31
0.0
 70
   160
  1
<>
  3
AM_JIS
100
AcDbAlignedDimension
 13
0.0000391465269729
 23
-0.0001424182326843
 33
0.0
 14
-119.999953224072
 24
0.1348559033013146
 34
0.0
 50
180.0
100
AcDbRotatedDimension
  0
LINE
  5
6D36
330
1F
100
AcDbEntity
  8
PV0001_1
  6
CONTINUOUS
 48
0.5
100
AcDbLine
 10
-20.39036078633404
 20
0.1348559033013146
 30
0.0
 11
-20.39036078633404
 21
11.99985758176731
 31
0.0
  0
LINE
  5
6D37
330
1F
100
AcDbEntity
  8
PV0001_1
  6
CONTINUOUS
 48
0.5
100
AcDbLine
 10
-17.60125632466403
 20
3.982660926494276
 30
0.0
 11
-14.90455527486003
 21
0.1349589001272591
 31
0.0
  0
LINE
  5
6D38
330
1F
100
AcDbEntity
  8
PV0001_1
  6
CONTINUOUS
 48
0.5
100
AcDbLine
 10
-21.35756201924402
 20
11.99985376707027
 30
0.0
 11
-20.92126364888304
 21
0.1348559033013146
 31
0.0
  0
LINE
  5
6D39
330
1F
100
AcDbEntity
  8
PV0001_1
  6
CONTINUOUS
 48
0.5
100
AcDbLine
 10
-3.781161262409028
 20
6.003256477031271
 30
0.0
 11
-0.1132611769590426
 21
0.8550554882623089
 31
0.0
  0
LINE
  5
6D3A
330
1F
100
AcDbEntity
  8
PV0001_1
  6
CONTINUOUS
 48
0.5
100
AcDbLine
 10
-14.73966117085604
 20
-0.0852444995307167
 30
0.0
 11
-18.93466086568002
 21
5.900358832988302
 31
0.0
  0
LINE
  5
6D3B
330
1F
100
AcDbEntity
  8
PV0001_1
  6
CONTINUOUS
 48
0.5
100
AcDbLine
 10
-4.253760291950015
 20
6.463755286846293
 30
0.0
 11
-0.0586614149960383
 21
0.4780565868942688
 31
0.0
  0
ELLIPSE
  5
6D3D
330
1F
100
AcDbEntity
  8
PV0001_1
  6
CONTINUOUS
 48
0.5
100
AcDbEllipse
 10
-17.70336051167603
 20
7.536257423076307
 30
0.0
 11
-2.070940064852002
 21
-0.4855518556889994
 31
0.0
210
0.0
220
0.0
230
1.0
 40
0.5305348653727
 41
1.693726643782383
 42
1.840065955755845
  0
SPLINE
  5
6D3E
330
1F
100
AcDbEntity
  8
PV0001_1
  6
CONTINUOUS
 48
0.5
100
AcDbSpline
210
0.0
220
0.0
230
1.0
 70
     8
 71
     3
 72
    11
 73
     7
 74
     5
 42
0.0000000001
 43
0.0000000001
 44
0.0000000001
 40
0.0
 40
0.0
 40
0.0
 40
0.0
 40
0.0334305598074839
 40
0.1085793462617567
 40
0.2135014392494053
 40
0.3324401473029116
 40
0.3324401473029116
 40
0.3324401473029116
 40
0.3324401473029116
 10
-3.951060249225008
 20
6.287558234844283
 30
0.0
 10
-3.948050713087484
 20
6.276789508430322
 30
0.0
 10
-3.938276019865313
 20
6.241813687479876
 30
0.0
 10
-3.898941614791638
 20
6.18145687490814
 30
0.0
 10
-3.847041612346948
 20
6.09677755734987
 30
0.0
 10
-3.804019298957632
 20
6.035706066818964
 30
0.0
 10
-3.781161262409028
 20
6.003258384380302
 30
0.0
 11
-3.951060249225008
 21
6.287558234844283
 31
0.0
 11
-3.941061927692032
 21
6.255657828960266
 31
0.0
 11
-3.904761268512032
 21
6.189858115825273
 31
0.0
 11
-3.848559333698034
 21
6.101257957134265
 31
0.0
 11
-3.781161262409028
 21
6.003258384380302
 31
0.0
  0
LINE
  5
6D3F
330
1F
100
AcDbEntity
  8
PV0001_1
  6
CONTINUOUS
 48
0.5
100
AcDbLine
 10
-15.92645926655904
 20
6.511555350932297
 30
0.0
 11
-9.935755683795036
 21
6.517056144390295
 31
0.0
  0
LINE
  5
6D40
330
1F
100
AcDbEntity
  8
PV0001_1
  6
CONTINUOUS
 48
0.5
100
AcDbLine
 10
-20.39036078633404
 20
11.99985758176731
 30
0.0
 11
-8.002062751666016
 21
11.99985758176731
 31
0.0
  0
LINE
  5
6D41
330
1F
100
AcDbEntity
  8
PV0001_1
  6
CONTINUOUS
 48
0.5
100
AcDbLine
 10
-10.02656073750603
 20
6.511755622539311
 30
0.0
 11
-17.19406409444002
 21
6.505156196269268
 31
0.0
  0
LINE
  5
6D42
330
1F
100
AcDbEntity
  8
PV0001_1
  6
CONTINUOUS
 48
0.5
100
AcDbLine
 10
-5.453558875934021
 20
6.521156943950273
 30
0.0
 11
-4.353461219684021
 21
6.522158301982273
 31
0.0
  0
LINE
  5
6D43
330
1F
100
AcDbEntity
  8
PV0001_1
  6
CONTINUOUS
 48
0.5
100
AcDbLine
 10
-8.002058936969035
 20
11.99985758176731
 30
0.0
 11
-4.199957801715015
 21
6.569857276592273
 31
0.0
  0
LINE
  5
6D44
330
1F
100
AcDbEntity
  8
PV0001_1
  6
CONTINUOUS
 48
0.5
100
AcDbLine
 10
-5.368063880817032
 20
6.515957511577283
 30
0.0
 11
-4.356062843219035
 21
6.516956962261275
 31
0.0
  0
ARC
  5
6D45
330
1F
100
AcDbEntity
  8
PV0001_1
  6
CONTINUOUS
 48
0.5
100
AcDbCircle
 10
-4.290659858600037
 20
6.304756797466268
 30
0.0
 40
0.3000355362892
100
AcDbArc
 50
35.02487720578756
 51
36.88517484888792
  0
ARC
  5
6D46
330
1F
100
AcDbEntity
  8
PV0001_1
  6
CONTINUOUS
 48
0.5
100
AcDbCircle
 10
-4.303759529010022
 20
6.322157539043246
 30
0.0
 40
0.3000600039959
100
AcDbArc
 50
36.88517484888792
 51
75.77847130385414
  0
ARC
  5
6D47
330
1F
100
AcDbEntity
  8
PV0001_1
  6
CONTINUOUS
 48
0.5
100
AcDbCircle
 10
-4.303759529010022
 20
6.322157539043246
 30
0.0
 40
0.3000355362892
100
AcDbArc
 50
35.02487720578756
 51
36.88517484888792
  0
ARC
  5
6D48
330
1F
100
AcDbEntity
  8
PV0001_1
  6
CONTINUOUS
 48
0.5
100
AcDbCircle
 10
-4.356062843219035
 20
6.391956962261247
 30
0.0
 40
0.1249821186066
100
AcDbArc
 50
35.06337215194811
 51
89.99999749552088
  0
LINE
  5
6D49
330
1F
100
AcDbEntity
  8
PV0001_1
  6
CONTINUOUS
 48
0.5
100
AcDbLine
 10
-4.353457404987011
 20
6.522158301982273
 30
0.0
 11
-4.222159339801009
 21
6.522257484111293
 31
0.0
  0
LINE
  5
6D4A
330
1F
100
AcDbEntity
  8
PV0001_1
  6
CONTINUOUS
 48
0.5
100
AcDbLine
 10
-4.199961616412025
 20
6.56985918394028
 30
0.0
 11
-4.222159339801009
 21
6.522259391460266
 31
0.0
  0
LINE
  5
6D4B
330
1F
100
AcDbEntity
  8
PV0001_1
  6
CONTINUOUS
 48
0.5
100
AcDbLine
 10
-4.050661994830022
 20
6.484856284770302
 30
0.0
 11
-4.063761665241031
 21
6.502253211650298
 31
0.0
  0
LINE
  5
6D4C
330
1F
100
AcDbEntity
  8
PV0001_1
  6
CONTINUOUS
 48
0.5
100
AcDbLine
 10
-3.937861396686031
 20
6.322954810771278
 30
0.0
 11
-3.940562202350008
 21
6.327854789409258
 31
0.0
  0
LINE
  5
6D4D
330
1F
100
AcDbEntity
  8
PV0001_1
  6
CONTINUOUS
 48
0.5
100
AcDbLine
 10
-3.940562202350008
 20
6.327854789409258
 30
0.0
 11
-4.044959022418026
 21
6.476956046733306
 31
0.0
  0
LINE
  5
6D4E
330
1F
100
AcDbEntity
  8
PV0001_1
  6
CONTINUOUS
 48
0.5
100
AcDbLine
 10
-4.058062507526017
 20
6.494356788310284
 30
0.0
 11
-4.044962837116031
 21
6.476956046733306
 31
0.0
  0
LINE
  5
6D4F
330
1F
100
AcDbEntity
  8
PV0001_1
  6
CONTINUOUS
 48
0.5
100
AcDbLine
 10
-4.353461219684021
 20
6.522156394634265
 30
0.0
 11
-4.356059028522025
 21
6.516955054912301
 31
0.0
  0
LINE
  5
6D50
330
1F
100
AcDbEntity
  8
PV0001_1
  6
CONTINUOUS
 48
0.5
100
AcDbLine
 10
-3.937861396686031
 20
6.322954810771278
 30
0.0
 11
-3.951060249225008
 21
6.287558234844283
 31
0.0
  0
LINE
  5
6D51
330
1F
100
AcDbEntity
  8
PV0001_1
  6
CONTINUOUS
 48
0.5
100
AcDbLine
 10
-3.937865211383041
 20
6.322954810771278
 30
0.0
 11
-4.058062507526017
 21
6.494354880962276
 31
0.0
  0
LINE
  5
6D52
330
1F
100
AcDbEntity
  8
PV0001_1
  6
CONTINUOUS
 48
0.5
100
AcDbLine
 10
-4.058058692828012
 20
6.494356788310284
 30
0.0
 11
-4.253760291950015
 21
6.4637571941943
 31
0.0
  0
ARC
  5
6D53
330
1F
100
AcDbEntity
  8
PV0001_1
  6
CONTINUOUS
 48
0.5
100
AcDbCircle
 10
-7.689459754840044
 20
8.776957191142287
 30
0.0
 40
4.2992825508118
100
AcDbArc
 50
241.9364490918081
 51
292.7432825160025
  0
ARC
  5
6D54
330
1F
100
AcDbEntity
  8
PV0001_1
  6
CONTINUOUS
 48
0.5
100
AcDbCircle
 10
-7.697359992877039
 20
8.787457145366261
 30
0.0
 40
4.599194049835199
100
AcDbArc
 50
241.9377741485082
 51
293.9169207512751
  0
ARC
  5
6D55
330
1F
100
AcDbEntity
  8
PV0001_1
  6
CONTINUOUS
 48
0.5
100
AcDbCircle
 10
-7.697359992877039
 20
8.787457145366261
 30
0.0
 40
4.2992353439331
100
AcDbArc
 50
241.9376238843448
 51
292.7432825160025
  0
ARC
  5
6D56
330
1F
100
AcDbEntity
  8
PV0001_1
  6
CONTINUOUS
 48
0.5
100
AcDbCircle
 10
-7.697359992877039
 20
8.787457145366261
 30
0.0
 40
3.199723243713399
100
AcDbArc
 50
235.0106201979433
 51
305.0257931343829
  0
LINE
  5
6D57
330
1F
100
AcDbEntity
  8
PV0001_1
  6
CONTINUOUS
 48
0.5
100
AcDbLine
 10
-9.935759498492018
 20
6.517058051738302
 30
0.0
 11
-5.453562690631031
 21
6.521156943950273
 31
0.0
  0
ARC
  5
6D58
330
1F
100
AcDbEntity
  8
PV0001_1
  6
CONTINUOUS
 48
0.5
100
AcDbCircle
 10
-6.368861152545036
 20
5.060858405742237
 30
0.0
 40
0.1500048339367
100
AcDbArc
 50
75.00953543728518
 51
214.0185597084764
  0
ARC
  5
6D59
330
1F
100
AcDbEntity
  8
PV0001_1
  6
CONTINUOUS
 48
0.5
100
AcDbCircle
 10
-6.376662208453041
 20
5.071356452617237
 30
0.0
 40
0.1499082446098
100
AcDbArc
 50
74.99964532336527
 51
216.8698973095759
  0
ARC
  5
6D5A
330
1F
100
AcDbEntity
  8
PV0001_1
  6
CONTINUOUS
 48
0.5
100
AcDbCircle
 10
-6.376662208453041
 20
5.071356452617237
 30
0.0
 40
0.1500000059605
100
AcDbArc
 50
216.8698973095759
 51
254.9996435021335
  0
ARC
  5
6D5B
330
1F
100
AcDbEntity
  8
PV0001_1
  6
CONTINUOUS
 48
0.5
100
AcDbCircle
 10
-5.604159309284028
 20
4.865156806621257
 30
0.0
 40
0.1498823910952
100
AcDbArc
 50
345.0365768394544
 51
36.89283467867381
  0
ARC
  5
6D5C
330
1F
100
AcDbEntity
  8
PV0001_1
  6
CONTINUOUS
 48
0.5
100
AcDbCircle
 10
-5.596362068073034
 20
4.854654945049276
 30
0.0
 40
0.1500000357628
100
AcDbArc
 50
39.34584612003783
 51
75.00953543728518
  0
ARC
  5
6D5D
330
1F
100
AcDbEntity
  8
PV0001_1
  6
CONTINUOUS
 48
0.5
100
AcDbCircle
 10
-5.604159309284028
 20
4.865156806621257
 30
0.0
 40
0.1499200165272
100
AcDbArc
 50
36.89282466075804
 51
74.99964532336527
  0
ARC
  5
6D5E
330
1F
100
AcDbEntity
  8
PV0001_1
  6
CONTINUOUS
 48
0.5
100
AcDbCircle
 10
-5.803362800494028
 20
4.082255042705241
 30
0.0
 40
0.1498565971851
100
AcDbArc
 50
165.0735077859827
 51
214.3786848475592
  0
ARC
  5
6D5F
330
1F
100
AcDbEntity
  8
PV0001_1
  6
CONTINUOUS
 48
0.5
100
AcDbCircle
 10
-5.811160041705022
 20
4.09265772214826
 30
0.0
 40
0.1499789953232
100
AcDbArc
 50
165.0464346236576
 51
216.8698973095759
  0
ARC
  5
6D60
330
1F
100
AcDbEntity
  8
PV0001_1
  6
CONTINUOUS
 48
0.5
100
AcDbCircle
 10
-5.811160041705022
 20
4.09265772214826
 30
0.0
 40
0.1500000059605
100
AcDbArc
 50
216.8698973095759
 51
345.0735145024858
  0
LINE
  5
6D61
330
1F
100
AcDbEntity
  8
PV0001_1
  6
CONTINUOUS
 48
0.5
100
AcDbLine
 10
-6.107161476032018
 20
6.520558036479286
 30
0.0
 11
-5.862460090534028
 21
6.169457114848256
 31
0.0
  0
LINE
  5
6D62
330
1F
100
AcDbEntity
  8
PV0001_1
  6
CONTINUOUS
 48
0.5
100
AcDbLine
 10
-5.453558875934021
 20
6.521156943950273
 30
0.0
 11
-5.368060066119028
 21
6.515957511577283
 31
0.0
  0
LINE
  5
6D63
330
1F
100
AcDbEntity
  8
PV0001_1
  6
CONTINUOUS
 48
0.5
100
AcDbLine
 10
-6.028559638873019
 20
4.8148562084763
 30
0.0
 11
-6.036459876910015
 21
4.825358070049304
 31
0.0
  0
LINE
  5
6D64
330
1F
100
AcDbEntity
  8
PV0001_1
  6
CONTINUOUS
 48
0.5
100
AcDbLine
 10
-5.459361030475008
 20
4.826456702861293
 30
0.0
 11
-5.666357948200015
 21
4.054056800517315
 31
0.0
  0
LINE
  5
6D65
330
1F
100
AcDbEntity
  8
PV0001_1
  6
CONTINUOUS
 48
0.5
100
AcDbLine
 10
-6.415461494342025
 20
4.926558173808274
 30
0.0
 11
-6.036459876910015
 21
4.825358070049304
 31
0.0
  0
LINE
  5
6D66
330
1F
100
AcDbEntity
  8
PV0001_1
  6
CONTINUOUS
 48
0.5
100
AcDbLine
 10
-5.862460090534028
 20
6.169455207500305
 30
0.0
 11
-5.368063880817032
 21
6.515955604228309
 31
0.0
  0
LINE
  5
6D67
330
1F
100
AcDbEntity
  8
PV0001_1
  6
CONTINUOUS
 48
0.5
100
AcDbLine
 10
-6.330061866657018
 20
5.205755866680277
 30
0.0
 11
-6.337862922565022
 21
5.216154731426314
 31
0.0
  0
LINE
  5
6D68
330
1F
100
AcDbEntity
  8
PV0001_1
  6
CONTINUOUS
 48
0.5
100
AcDbLine
 10
-6.330058051959042
 20
5.205759681377259
 30
0.0
 11
-5.557558967487011
 21
4.999560035381279
 31
0.0
  0
LINE
  5
6D69
330
1F
100
AcDbEntity
  8
PV0001_1
  6
CONTINUOUS
 48
0.5
100
AcDbLine
 10
-6.337859107867018
 20
5.216154731426314
 30
0.0
 11
-5.565360023395015
 21
5.009955085430277
 31
0.0
  0
LINE
  5
6D6A
330
1F
100
AcDbEntity
  8
PV0001_1
  6
CONTINUOUS
 48
0.5
100
AcDbLine
 10
-5.557558967487011
 20
4.999556220683274
 30
0.0
 11
-5.565360023395015
 21
5.009955085430277
 31
0.0
  0
LINE
  5
6D6B
330
1F
100
AcDbEntity
  8
PV0001_1
  6
CONTINUOUS
 48
0.5
100
AcDbLine
 10
-5.82625861348302
 20
4.575758613262308
 30
0.0
 11
-5.948161079303019
 21
4.120859779033281
 31
0.0
  0
LINE
  5
6D6C
330
1F
100
AcDbEntity
  8
PV0001_1
  6
CONTINUOUS
 48
0.5
100
AcDbLine
 10
-5.82625861348302
 20
4.575754798564304
 30
0.0
 11
-5.834158851520015
 21
4.586256660137308
 31
0.0
  0
LINE
  5
6D6D
330
1F
100
AcDbEntity
  8
PV0001_1
  6
CONTINUOUS
 48
0.5
100
AcDbLine
 10
-5.834158851520015
 20
4.586256660137308
 30
0.0
 11
-5.956061317340015
 21
4.131357825908281
 31
0.0
  0
LINE
  5
6D6E
330
1F
100
AcDbEntity
  8
PV0001_1
  6
CONTINUOUS
 48
0.5
100
AcDbLine
 10
-5.948161079303019
 20
4.1208559643363
 30
0.0
 11
-5.956061317340015
 21
4.131357825908281
 31
0.0
  0
ARC
  5
6D6F
330
1F
100
AcDbEntity
  8
PV0001_1
  6
CONTINUOUS
 48
0.5
100
AcDbCircle
 10
-9.782561256305029
 20
4.850855506572258
 30
0.0
 40
0.149911776185
100
AcDbArc
 50
61.94774804593151
 51
214.3786848475592
  0
ARC
  5
6D70
330
1F
100
AcDbEntity
  8
PV0001_1
  6
CONTINUOUS
 48
0.5
100
AcDbCircle
 10
-9.790461494342025
 20
4.86135736814424
 30
0.0
 40
0.1500600278378
100
AcDbArc
 50
216.9004419155459
 51
241.9657096222162
  0
ARC
  5
6D71
330
1F
100
AcDbEntity
  8
PV0001_1
  6
CONTINUOUS
 48
0.5
100
AcDbCircle
 10
-9.790461494342025
 20
4.86135736814424
 30
0.0
 40
0.1499588340521
100
AcDbArc
 50
61.91403423218439
 51
216.9004419155459
  0
LINE
  5
6D72
330
1F
100
AcDbEntity
  8
PV0001_1
  6
CONTINUOUS
 48
0.5
100
AcDbLine
 10
-10.02656073750603
 20
6.511755622539311
 30
0.0
 11
-9.935759498492018
 21
6.517056144390295
 31
0.0
  0
LINE
  5
6D73
330
1F
100
AcDbEntity
  8
PV0001_1
  6
CONTINUOUS
 48
0.5
100
AcDbLine
 10
-9.245463325397025
 20
6.51775614133831
 30
0.0
 11
-9.532160713092025
 21
6.166056312236293
 31
0.0
  0
LINE
  5
6D74
330
1F
100
AcDbEntity
  8
PV0001_1
  6
CONTINUOUS
 48
0.5
100
AcDbLine
 10
-9.712058021442032
 20
4.983156837139318
 30
0.0
 11
-9.719859077350037
 21
4.9936586987113
 31
0.0
  0
LINE
  5
6D75
330
1F
100
AcDbEntity
  8
PV0001_1
  6
CONTINUOUS
 48
0.5
100
AcDbLine
 10
-9.532160713092025
 20
6.166058219585266
 30
0.0
 11
-10.02656073750603
 21
6.511757529888285
 31
0.0
  0
LINE
  5
6D76
330
1F
100
AcDbEntity
  8
PV0001_1
  6
CONTINUOUS
 48
0.5
100
AcDbLine
 10
-21.35756201924402
 20
11.99985758176731
 30
0.0
 11
-20.39036078633404
 21
11.99985758176731
 31
0.0
  0
LINE
  5
6D77
330
1F
100
AcDbEntity
  8
PV0001_1
  6
CONTINUOUS
 48
0.5
100
AcDbLine
 10
-16.93556113423503
 20
6.926558173808274
 30
0.0
 11
-17.78816504658803
 21
7.323258079204293
 31
0.0
  0
LINE
  5
6D78
330
1F
100
AcDbEntity
  8
PV0001_1
  6
CONTINUOUS
 48
0.5
100
AcDbLine
 10
-15.92645926655904
 20
6.511559165630302
 30
0.0
 11
-17.85096259297503
 21
7.407059348735316
 31
0.0
  0
LINE
  5
6D79
330
1F
100
AcDbEntity
  8
PV0001_1
  6
CONTINUOUS
 48
0.5
100
AcDbLine
 10
-15.92645926655904
 20
6.511559165630302
 30
0.0
 11
-16.18466086568003
 21
6.595360435161268
 31
0.0
  0
LINE
  5
6D7A
330
1F
100
AcDbEntity
  8
PV0001_1
  6
CONTINUOUS
 48
0.5
100
AcDbLine
 10
-16.18465705098304
 20
6.595360435161268
 30
0.0
 11
-16.95645423115903
 21
6.954458869609283
 31
0.0
  0
LINE
  5
6D7B
330
1F
100
AcDbEntity
  8
PV0001_1
  6
CONTINUOUS
 48
0.5
100
AcDbLine
 10
-16.95645804585604
 20
6.954458869609283
 30
0.0
 11
-16.93555731953702
 21
6.926558173808274
 31
0.0
  0
LINE
  5
6D7C
330
1F
100
AcDbEntity
  8
PV0001_1
  6
CONTINUOUS
 48
0.5
100
AcDbLine
 10
-16.93556113423503
 20
6.926556266460266
 30
0.0
 11
-16.89655966939102
 21
6.926655448589286
 31
0.0
  0
LINE
  5
6D7D
330
1F
100
AcDbEntity
  8
PV0001_1
  6
CONTINUOUS
 48
0.5
100
AcDbLine
 10
-16.20505805195904
 20
6.604855216655295
 30
0.0
 11
-16.90415854634403
 21
6.606156028423271
 31
0.0
  0
ARC
  5
6D7E
330
1F
100
AcDbEntity
  8
PV0001_1
  6
CONTINUOUS
 48
0.5
100
AcDbCircle
 10
-18.42186255635402
 20
5.964056647930249
 30
0.0
 40
1.4996666908264
100
AcDbArc
 50
65.00364298248641
 51
214.9741817205374
  0
ARC
  5
6D7F
330
1F
100
AcDbEntity
  8
PV0001_1
  6
CONTINUOUS
 48
0.5
100
AcDbCircle
 10
-18.48466010274103
 20
6.047756827983278
 30
0.0
 40
1.499757409095799
100
AcDbArc
 50
65.00526856750788
 51
216.8805933858195
  0
ARC
  5
6D80
330
1F
100
AcDbEntity
  8
PV0001_1
  6
CONTINUOUS
 48
0.5
100
AcDbCircle
 10
-18.48466010274103
 20
6.047756827983278
 30
0.0
 40
1.499960064888
100
AcDbArc
 50
216.8805933858195
 51
245.003647991444
  0
ARC
  5
6D81
330
1F
100
AcDbEntity
  8
PV0001_1
  6
CONTINUOUS
 48
0.5
100
AcDbCircle
 10
-18.21736045064102
 20
8.221357978496257
 30
0.0
 40
1.999560713768
100
AcDbArc
 50
247.1614823351687
 51
300.8058973594711
  0
LINE
  5
6D82
330
1F
100
AcDbEntity
  8
PV0001_1
  6
CONTINUOUS
 48
0.5
100
AcDbLine
 10
-17.78816123189102
 20
7.323258079204293
 30
0.0
 11
-17.85096259297503
 21
7.407055534038278
 31
0.0
  0
LINE
  5
6D83
330
1F
100
AcDbEntity
  8
PV0001_1
  6
CONTINUOUS
 48
0.5
100
AcDbLine
 10
-19.11836142720304
 20
4.688559211406271
 30
0.0
 11
-17.60126013936204
 21
3.982657111797294
 31
0.0
  0
LINE
  5
6D84
330
1F
100
AcDbEntity
  8
PV0001_1
  6
CONTINUOUS
 48
0.5
100
AcDbLine
 10
-17.86516089619803
 20
4.105555213603309
 30
0.0
 11
-18.77905936421501
 21
5.388655341777308
 31
0.0
  0
LINE
  5
6D85
330
1F
100
AcDbEntity
  8
PV0001_1
  6
CONTINUOUS
 48
0.5
100
AcDbLine
 10
-18.77905936421501
 20
5.38865915647429
 30
0.0
 11
-18.93465705098305
 21
5.900358832988302
 31
0.0
  0
LINE
  5
6D86
330
1F
100
AcDbEntity
  8
PV0001_1
  6
CONTINUOUS
 48
0.5
100
AcDbLine
 10
-18.99346060933203
 20
6.378557838115312
 30
0.0
 11
-18.93466086568002
 21
5.900358832988302
 31
0.0
  0
SPLINE
  5
6D87
330
1F
100
AcDbEntity
  8
PV0001_1
  6
CONTINUOUS
 48
0.5
100
AcDbSpline
210
0.0
220
0.0
230
1.0
 70
     8
 71
     3
 72
    11
 73
     7
 74
     5
 42
0.0000000001
 43
0.0000000001
 44
0.0000000001
 40
0.0
 40
0.0
 40
0.0
 40
0.0
 40
0.0732247591144003
 40
0.140950033724699
 40
0.2007894845578729
 40
0.2528519417757361
 40
0.2528519417757361
 40
0.2528519417757361
 40
0.2528519417757361
 10
-14.95527548970304
 20
-47.0431455005077
 30
0.0
 10
-14.95671630967283
 20
-47.01871300252857
 30
0.0
 10
-14.95948973802946
 20
-46.97168298896779
 30
0.0
 10
-14.97704967386053
 20
-46.90679074470203
 30
0.0
 10
-15.00292099261794
 20
-46.85176180334036
 30
0.0
 10
-15.02930172699673
 20
-46.82506632620863
 30
0.0
 10
-15.04157538594404
 20
-46.81264623292972
 30
0.0
 11
-14.95527548970304
 21
-47.0431455005077
 31
0.0
 11
-14.96217627705703
 21
-46.97024663576169
 31
0.0
 11
-14.97977347554302
 21
-46.90484746583971
 31
0.0
 11
-15.00697608174403
 21
-46.85154851564471
 31
0.0
 11
-15.04157538594404
 21
-46.81264623292972
 31
0.0
  0
ELLIPSE
  5
6D88
330
1F
100
AcDbEntity
  8
PV0001_1
  6
CONTINUOUS
 48
0.5
100
AcDbEllipse
 10
-4.289977027789035
 20
-47.83514531740169
 30
0.0
 11
-0.2998981466729944
 21
-0.0078582762850061
 31
0.0
210
0.0
220
0.0
230
1.0
 40
0.0350055043449
 41
1.89964652571705
 42
2.600880870053041
  0
SPLINE
  5
6D89
330
1F
100
AcDbEntity
  8
PV0001_1
  6
CONTINUOUS
 48
0.5
100
AcDbSpline
210
0.0
220
0.0
230
1.0
 70
     8
 71
     3
 72
    11
 73
     7
 74
     5
 42
0.0000000001
 43
0.0000000001
 44
0.0000000001
 40
0.0
 40
0.0
 40
0.0
 40
0.0
 40
0.0173976298094774
 40
0.0346045536902721
 40
0.0517207836316588
 40
0.0686862606343457
 40
0.0686862606343457
 40
0.0686862606343457
 40
0.0686862606343457
 10
-3.950373603717025
 20
-46.97524388917972
 30
0.0
 10
-3.950520585389174
 20
-46.96944564238149
 30
0.0
 10
-3.950812937578585
 20
-46.9579127068704
 30
0.0
 10
-3.950424514704418
 20
-46.94067365836638
 30
0.0
 10
-3.949740686328844
 20
-46.92358552269246
 30
0.0
 10
-3.948627481614849
 20
-46.91227716952516
 30
0.0
 10
-3.948073341266024
 20
-46.90664800294871
 30
0.0
 11
-3.950373603717025
 21
-46.97524388917972
 31
0.0
 11
-3.950674964801038
 21
-46.9578488696487
 31
0.0
 11
-3.950373603717025
 21
-46.94064458498073
 31
0.0
 11
-3.949572517291016
 21
-46.92354711183571
 31
0.0
 11
-3.948073341266024
 21
-46.90664800294871
 31
0.0
  0
SPLINE
  5
6D8A
330
1F
100
AcDbEntity
  8
PV0001_1
  6
CONTINUOUS
 48
0.5
100
AcDbSpline
210
0.0
220
0.0
230
1.0
 70
     8
 71
     3
 72
    11
 73
     7
 74
     5
 42
0.0000000001
 43
0.0000000001
 44
0.0000000001
 40
0.0
 40
0.0
 40
0.0
 40
0.0
 40
0.1127567878303113
 40
0.2258091900396932
 40
0.3392004263909449
 40
0.4527367630410266
 40
0.4527367630410266
 40
0.4527367630410266
 40
0.4527367630410266
 10
-7.069273902789035
 20
-47.12634404787073
 30
0.0
 10
-7.062610186831172
 20
-47.08889138120183
 30
0.0
 10
-7.049265284656733
 20
-47.01388785823826
 30
0.0
 10
-6.98037399926205
 20
-46.92024880496418
 30
0.0
 10
-6.885624228942397
 20
-46.85231638720828
 30
0.0
 10
-6.810006750332054
 20
-46.84020528821077
 30
0.0
 10
-6.772173835651017
 20
-46.83414586671872
 30
0.0
 11
-7.069273902789035
 21
-47.12634404787073
 31
0.0
 11
-7.041174842731038
 21
-47.01714452394472
 31
0.0
 11
-6.976176216022025
 21
-46.9246457446487
 31
0.0
 11
-6.882574989215015
 21
-46.8606427539257
 31
0.0
 11
-6.772173835651017
 21
-46.83414586671872
 31
0.0
  0
ELLIPSE
  5
6D8B
330
1F
100
AcDbEntity
  8
PV0001_1
  6
CONTINUOUS
 48
0.5
100
AcDbEllipse
 10
-0.7205724257390216
 20
-47.04674657472671
 30
0.0
 11
2.002107577496005
 21
-0.0526505862220008
 31
0.0
210
0.0
220
0.0
230
1.0
 40
0.0349515752377
 41
1.206837669143326
 42
2.258534604654156
  0
ELLIPSE
  5
6D8C
330
1F
100
AcDbEntity
  8
PV0001_1
  6
CONTINUOUS
 48
0.5
100
AcDbEllipse
 10
-0.7753743666570472
 20
-44.95614751466772
 30
0.0
 11
-1.999313338179
 21
-0.052394867139
 31
0.0
210
0.0
220
0.0
230
1.0
 40
0.0349031430367
 41
1.027109849537239
 42
1.965419158017459
  0
ELLIPSE
  5
6D8D
330
1F
100
AcDbEntity
  8
PV0001_1
  6
CONTINUOUS
 48
0.5
100
AcDbEllipse
 10
-0.2612752455630414
 20
-64.5761426318517
 30
0.0
 11
0.5990343326619981
 21
-22.76852075066002
 31
0.0
210
0.0
220
0.0
230
1.0
 40
0.087810170053
 41
3.679632916929364
 42
3.825321299309257
  0
ELLIPSE
  5
6D8E
330
1F
100
AcDbEntity
  8
PV0001_1
  6
CONTINUOUS
 48
0.5
100
AcDbEllipse
 10
-14.63667197407804
 20
-45.38324102052669
 30
0.0
 11
-0.1249561330069966
 21
-0.0032768249949981
 31
0.0
210
0.0
220
0.0
230
1.0
 40
0.0351993318986
 41
4.709971338694058
 42
5.497713095249745
  0
ELLIPSE
  5
6D8F
330
1F
100
AcDbEntity
  8
PV0001_1
  6
CONTINUOUS
 48
0.5
100
AcDbEllipse
 10
-14.58427329243804
 20
-47.38134893068371
 30
0.0
 11
-0.2998981466730015
 21
-0.0078582762839971
 31
0.0
210
0.0
220
0.0
230
1.0
 40
0.0349800824349
 41
4.709989841460098
 42
5.742244615138281
  0
SPLINE
  5
6D90
330
1F
100
AcDbEntity
  8
PV0001_1
  6
CONTINUOUS
 48
0.5
100
AcDbSpline
210
0.0
220
0.0
230
1.0
 70
     8
 71
     3
 72
    11
 73
     7
 74
     5
 42
0.0000000001
 43
0.0000000001
 44
0.0000000001
 40
0.0
 40
0.0
 40
0.0
 40
0.0
 40
0.723728057591551
 40
1.630355558784335
 40
2.538912824312035
 40
3.26803189884822
 40
3.26803189884822
 40
3.26803189884822
 40
3.26803189884822
 10
-9.754073097125029
 20
-45.14444860109373
 30
0.0
 10
-9.995310525872973
 20
-45.14110056234661
 30
0.0
 10
-10.53875053599901
 20
-45.13355837364037
 30
0.0
 10
-11.38495094570767
 20
-45.15217095138081
 30
0.0
 10
-12.23277157061062
 20
-45.17749615703836
 30
0.0
 10
-12.7775374690888
 20
-45.21316361743504
 30
0.0
 10
-13.02007575215503
 20
-45.22904332765572
 30
0.0
 11
-9.754073097125029
 21
-45.14444860109373
 31
0.0
 11
-10.47777457417603
 21
-45.1382459033397
 31
0.0
 11
-11.38427634419602
 21
-45.15334447511671
 31
0.0
 11
-12.29227347554302
 21
-45.1852429736517
 31
0.0
 11
-13.02007575215503
 21
-45.22904332765572
 31
0.0
  0
ELLIPSE
  5
6D91
330
1F
100
AcDbEntity
  8
PV0001_1
  6
CONTINUOUS
 48
0.5
100
AcDbEllipse
 10
-11.39017386616802
 20
-45.41614659914071
 30
0.0
 11
-2.799037867236002
 21
-0.0733489947479878
 31
0.0
210
0.0
220
0.0
230
1.0
 40
0.0348919491843
 41
5.747100072726812
 42
6.18950924006413
  0
ELLIPSE
  5
6D92
330
1F
100
AcDbEntity
  8
PV0001_1
  6
CONTINUOUS
 48
0.5
100
AcDbEllipse
 10
-11.39017386616802
 20
-45.41614659914071
 30
0.0
 11
-2.799037867236002
 21
-0.0733489947479878
 31
0.0
210
0.0
220
0.0
230
1.0
 40
0.0348919491843
 41
6.18950924006413
 42
6.283185307179586
  0
ELLIPSE
  5
6D93
330
1F
100
AcDbEntity
  8
PV0001_1
  6
CONTINUOUS
 48
0.5
100
AcDbEllipse
 10
-11.37967581929302
 20
-45.81584294923769
 30
0.0
 11
-2.799039913622998
 21
-0.0733528151920094
 31
0.0
210
0.0
220
0.0
230
1.0
 40
0.03489326621
 41
5.751021408544756
 42
6.283185307179586
  0
SPLINE
  5
6D94
330
1F
100
AcDbEntity
  8
PV0001_1
  6
CONTINUOUS
 48
0.5
100
AcDbSpline
210
0.0
220
0.0
230
1.0
 70
     8
 71
     3
 72
    11
 73
     7
 74
     5
 42
0.0000000001
 43
0.0000000001
 44
0.0000000001
 40
0.0
 40
0.0
 40
0.0
 40
0.0
 40
0.0220104799304464
 40
0.0613624239643671
 40
0.1158427968688543
 40
0.1813285533203164
 40
0.1813285533203164
 40
0.1813285533203164
 40
0.1813285533203164
 10
-14.91366095723302
 20
-0.1590436328326916
 30
0.0
 10
-14.91578620911241
 20
-0.1520062114648049
 30
0.0
 10
-14.92171114156579
 20
-0.1323867740442322
 30
0.0
 10
-14.94060017748263
 20
-0.0984521488771993
 30
0.0
 10
-14.96682501596387
 20
-0.052369636321864
 30
0.0
 10
-14.98826010761383
 20
-0.0185846080709542
 30
0.0
 10
-14.99996085347302
 20
-0.0001424182326843
 30
0.0
 11
-14.91366095723302
 21
-0.1590436328326916
 31
0.0
 11
-14.92056174458701
 21
-0.1381429065136501
 31
0.0
 11
-14.93815894307303
 21
-0.1029446948446946
 31
0.0
 11
-14.96536154927403
 21
-0.0557416308796803
 31
0.0
 11
-14.99996085347302
 21
-0.0001424182326843
 31
0.0
  0
SPLINE
  5
6D95
330
1F
100
AcDbEntity
  8
PV0001_1
  6
CONTINUOUS
 48
0.5
100
AcDbSpline
210
0.0
220
0.0
230
1.0
 70
     8
 71
     3
 72
    11
 73
     7
 74
     5
 42
0.0000000001
 43
0.0000000001
 44
0.0000000001
 40
0.0
 40
0.0
 40
0.0
 40
0.0
 40
0.0335170080074317
 40
0.1051473686689832
 40
0.2065263556908394
 40
0.3236467306390912
 40
0.3236467306390912
 40
0.3236467306390912
 40
0.3236467306390912
 10
-7.069960548297046
 20
-0.3703435290717323
 30
0.0
 10
-7.059938772315158
 20
-0.3652517276557049
 30
0.0
 10
-7.028499111183946
 20
-0.3492780607770391
 30
0.0
 10
-6.958373028304888
 20
-0.3444758492164401
 30
0.0
 10
-6.862659867142593
 20
-0.3355549455674279
 30
0.0
 10
-6.789679052885169
 20
-0.3353528351028575
 30
0.0
 10
-6.750559760944042
 20
-0.3352444995307167
 30
0.0
 11
-7.069960548297046
 21
-0.3703435290717323
 31
0.0
 11
-7.039462043659028
 21
-0.3564427722356811
 31
0.0
 11
-6.968760444537025
 21
-0.3449452746777126
 31
0.0
 11
-6.867659522907047
 21
-0.3374417651557167
 31
0.0
 11
-6.750559760944042
 21
-0.3352444995307167
 31
0.0
  0
ELLIPSE
  5
6D96
330
1F
100
AcDbEntity
  8
PV0001_1
  6
CONTINUOUS
 48
0.5
100
AcDbEllipse
 10
0.2262392502869659
 20
-3.178742729511697
 30
0.0
 11
-0.1826472138430337
 21
3.408407795939743
 31
0.0
210
0.0
220
0.0
230
1.0
 40
0.0455646203834129
 41
0.3668800768787384
 42
0.4033331303400633
  0
ELLIPSE
  5
6D97
330
1F
100
AcDbEntity
  8
PV0001_1
  6
CONTINUOUS
 48
0.5
100
AcDbEllipse
 10
-0.2619618910710244
 20
-2.528043114032726
 30
0.0
 11
1.090448257356001
 21
-2.702602437511998
 31
0.0
210
0.0
220
0.0
230
0.9999999999999998
 40
0.6583746575743002
 41
3.419781936909806
 42
3.566485568511719
  0
ARC
  5
6D99
330
1F
100
AcDbEntity
  8
PV0001_1
  6
CONTINUOUS
 48
0.5
100
AcDbCircle
 10
-11.39346213521102
 20
-2.362641655292748
 30
0.0
 40
2.8999760150909
100
AcDbArc
 50
223.6223725872141
 51
31.17958634362967
  0
ARC
  5
6D9A
330
1F
100
AcDbEntity
  8
PV0001_1
  6
CONTINUOUS
 48
0.5
100
AcDbCircle
 10
-11.29606146992804
 20
-2.409039818134715
 30
0.0
 40
4.2992353439331
100
AcDbArc
 50
61.93762570558279
 51
112.7427652428577
  0
ARC
  5
6D9B
330
1F
100
AcDbEntity
  8
PV0001_1
  6
CONTINUOUS
 48
0.5
100
AcDbCircle
 10
-11.29606146992804
 20
-2.409039818134715
 30
0.0
 40
3.199723243713399
100
AcDbArc
 50
55.01062543427224
 51
125.0232916912845
  0
ARC
  5
6D9C
330
1F
100
AcDbEntity
  8
PV0001_1
  6
CONTINUOUS
 48
0.5
100
AcDbCircle
 10
-11.29606146992804
 20
-2.409039818134715
 30
0.0
 40
4.599194049835199
100
AcDbArc
 50
61.93777596974054
 51
113.9164171385098
  0
ARC
  5
6D9D
330
1F
100
AcDbEntity
  8
PV0001_1
  6
CONTINUOUS
 48
0.5
100
AcDbCircle
 10
-11.28826041402001
 20
-2.419442497577733
 30
0.0
 40
4.5992412567139
100
AcDbArc
 50
61.93666947909488
 51
113.9169225725067
  0
ARC
  5
6D9E
330
1F
100
AcDbEntity
  8
PV0001_1
  6
CONTINUOUS
 48
0.5
100
AcDbCircle
 10
-12.44676108540701
 20
-1.77734502443377
 30
0.0
 40
0.3998878002167
100
AcDbArc
 50
68.63227660170385
 51
212.867754795601
  0
ARC
  5
6D9F
330
1F
100
AcDbEntity
  8
PV0001_1
  6
CONTINUOUS
 48
0.5
100
AcDbCircle
 10
-12.47826285542603
 20
-1.735543571796711
 30
0.0
 40
0.399924248457
100
AcDbArc
 50
68.61893724225402
 51
216.8784931026469
  0
ARC
  5
6DA0
330
1F
100
AcDbEntity
  8
PV0001_1
  6
CONTINUOUS
 48
0.5
100
AcDbCircle
 10
-11.39086051167603
 20
-2.366139732685724
 30
0.0
 40
2.799920082092299
100
AcDbArc
 50
216.8813583670048
 51
36.88176977221697
  0
ARC
  5
6DA1
330
1F
100
AcDbEntity
  8
PV0001_1
  6
CONTINUOUS
 48
0.5
100
AcDbCircle
 10
-11.39086051167603
 20
-2.366139732685724
 30
0.0
 40
2.8000600337982
100
AcDbArc
 50
36.88175975430703
 51
216.8813583670048
  0
ARC
  5
6DA2
330
1F
100
AcDbEntity
  8
PV0001_1
  6
CONTINUOUS
 48
0.5
100
AcDbCircle
 10
-11.38036246480103
 20
-2.380040489521718
 30
0.0
 40
2.7999801635742
100
AcDbArc
 50
216.8829941973148
 51
36.88013052681555
  0
CIRCLE
  5
6DA3
330
1F
100
AcDbEntity
  8
PV0001_1
  6
CONTINUOUS
 48
0.5
100
AcDbCircle
 10
-11.39605994404902
 20
-2.359143577900738
 30
0.0
 40
1.791000008583099
  0
LINE
  5
6DA4
330
1F
100
AcDbEntity
  8
PV0001_1
  6
CONTINUOUS
 48
0.5
100
AcDbLine
 10
-9.328661872760022
 20
-6.000142418232712
 30
0.0
 11
-13.35606284321903
 21
-6.000142418232712
 31
0.0
  0
LINE
  5
6DA5
330
1F
100
AcDbEntity
  8
PV0001_1
  6
CONTINUOUS
 48
0.5
100
AcDbLine
 10
-12.65555854024103
 20
1.162256873760298
 30
0.0
 11
-13.42806143941004
 21
1.368460334453317
 31
0.0
  0
LINE
  5
6DA6
330
1F
100
AcDbEntity
  8
PV0001_1
  6
CONTINUOUS
 48
0.5
100
AcDbLine
 10
-12.57005973042603
 20
1.441458381328317
 30
0.0
 11
-12.94906134785804
 21
1.54265848508831
 31
0.0
  0
LINE
  5
6DA7
330
1F
100
AcDbEntity
  8
PV0001_1
  6
CONTINUOUS
 48
0.5
100
AcDbLine
 10
-12.57795996846303
 20
1.451956428203317
 30
0.0
 11
-12.95696158589504
 21
1.55315653196331
 31
0.0
  0
DIMENSION
  5
6DA8
330
1F
100
AcDbEntity
  8
PV0001_1
100
AcDbDimension
  2
*D10
 10
0.0000391465269719
 20
-15.54519068886716
 30
0.0
 11
-7.501575611181806
 21
-15.54519068886716
 31
0.0
 70
   160
  1
<>
  3
AM_JIS
100
AcDbAlignedDimension
 13
-15.00030799092502
 23
-0.134942375508615
 33
0.0
 14
0.0000391465269729
 24
-0.0001462329297226
 34
0.0
 50
180.0
100
AcDbRotatedDimension
  0
LINE
  5
6DA9
330
1F
100
AcDbEntity
  8
PV0001_1
  6
CONTINUOUS
 48
0.5
100
AcDbLine
 10
-6.750563575641024
 20
-0.3352444995307167
 30
0.0
 11
-1.988860084430029
 21
-0.3615430224807312
 31
0.0
  0
LINE
  5
6DAA
330
1F
100
AcDbEntity
  8
PV0001_1
  6
CONTINUOUS
 48
0.5
100
AcDbLine
 10
-8.966860725299028
 20
-0.1332410205266967
 30
0.0
 11
-1.799361183063041
 21
-0.126740776386697
 31
0.0
  0
ARC
  5
6DAB
330
1F
100
AcDbEntity
  8
PV0001_1
  6
CONTINUOUS
 48
0.5
100
AcDbCircle
 10
-0.7212590712460383
 20
-1.915944420185724
 30
0.0
 40
2.0016386508942
100
AcDbArc
 50
68.96084285172462
 51
129.1969505006043
  0
ARC
  5
6DAC
330
1F
100
AcDbEntity
  8
PV0001_1
  6
CONTINUOUS
 48
0.5
100
AcDbCircle
 10
-0.7760610121640355
 20
-1.842942558612719
 30
0.0
 40
1.999560713768
100
AcDbArc
 50
67.16148415640026
 51
120.8058991807092
  0
LINE
  5
6DAD
330
1F
100
AcDbEntity
  8
PV0001_1
  6
CONTINUOUS
 48
0.5
100
AcDbLine
 10
-0.1132573622620328
 20
0.8550593029592903
 30
0.0
 11
-0.0586576002990285
 21
0.4780565868942688
 31
0.0
  0
LINE
  5
6DAE
330
1F
100
AcDbEntity
  8
PV0001_1
  6
CONTINUOUS
 48
0.5
100
AcDbLine
 10
0.0000391465269729
 20
-0.0001462329297226
 30
0.0
 11
-0.0586614149960383
 21
0.4780565868942688
 31
0.0
  0
ARC
  5
6DAF
330
1F
100
AcDbEntity
  8
PV0001_1
  6
CONTINUOUS
 48
0.5
100
AcDbCircle
 10
-12.44676108540701
 20
-3.026643120136725
 30
0.0
 40
0.3996330499649
100
AcDbArc
 50
128.6508529708001
 51
213.0424846949432
  0
ARC
  5
6DB0
330
1F
100
AcDbEntity
  8
PV0001_1
  6
CONTINUOUS
 48
0.5
100
AcDbCircle
 10
-12.47826285542603
 20
-2.984742485370759
 30
0.0
 40
0.3996330499649
100
AcDbArc
 50
128.6508529708001
 51
216.8899507449835
  0
ARC
  5
6DB1
330
1F
100
AcDbEntity
  8
PV0001_1
  6
CONTINUOUS
 48
0.5
100
AcDbCircle
 10
-10.31386084736902
 20
-2.98273976930676
 30
0.0
 40
0.399924248457
100
AcDbArc
 50
248.6189354210224
 51
36.8899523388442
  0
LINE
  5
6DB2
330
1F
100
AcDbEntity
  8
PV0001_1
  6
CONTINUOUS
 48
0.5
100
AcDbLine
 10
-7.562159492389042
 20
-0.8600400317577339
 30
0.0
 11
-8.337359382526017
 21
-5.256341301288699
 31
0.0
  0
LINE
  5
6DB3
330
1F
100
AcDbEntity
  8
PV0001_1
  6
CONTINUOUS
 48
0.5
100
AcDbLine
 10
-7.562163307086024
 20
-0.8600400317577339
 30
0.0
 11
-8.912360145465015
 21
-0.86124166139669
 31
0.0
  0
LINE
  5
6DB4
330
1F
100
AcDbEntity
  8
PV0001_1
  6
CONTINUOUS
 48
0.5
100
AcDbLine
 10
-7.447260810748048
 20
-0.3940442431837425
 30
0.0
 11
-9.401358558551038
 21
-0.3958447802927196
 31
0.0
  0
LINE
  5
6DB5
330
1F
100
AcDbEntity
  8
PV0001_1
  6
CONTINUOUS
 48
0.5
100
AcDbLine
 10
-9.418860389606038
 20
-0.3783429492376911
 30
0.0
 11
-7.073161079303019
 21
-0.3762410510447296
 31
0.0
  0
LINE
  5
6DB6
330
1F
100
AcDbEntity
  8
PV0001_1
  6
CONTINUOUS
 48
0.5
100
AcDbLine
 10
-7.499960853473027
 20
-0.5070432055856884
 30
0.0
 11
-7.562159492389042
 21
-0.8600438464547153
 31
0.0
  0
LINE
  5
6DB7
330
1F
100
AcDbEntity
  8
PV0001_1
  6
CONTINUOUS
 48
0.5
100
AcDbLine
 10
-7.447260810748048
 20
-0.3940442431837425
 30
0.0
 11
-7.499960853473027
 21
-0.5070432055856884
 31
0.0
  0
LINE
  5
6DB8
330
1F
100
AcDbEntity
  8
PV0001_1
  6
CONTINUOUS
 48
0.5
100
AcDbLine
 10
-7.073161079303019
 20
-0.376244865741711
 30
0.0
 11
-7.086260749713034
 21
-0.3937428820997013
 31
0.0
  0
LINE
  5
6DB9
330
1F
100
AcDbEntity
  8
PV0001_1
  6
CONTINUOUS
 48
0.5
100
AcDbLine
 10
-7.086260749713034
 20
-0.3937428820997013
 30
0.0
 11
-7.447260810748048
 21
-0.3940442431837425
 31
0.0
  0
LINE
  5
6DBA
330
1F
100
AcDbEntity
  8
PV0001_1
  6
CONTINUOUS
 48
0.5
100
AcDbLine
 10
-7.073161079303019
 20
-0.3762486804397156
 30
0.0
 11
-7.069960548297046
 21
-0.3703435290717323
 31
0.0
  0
ARC
  5
6DBB
330
1F
100
AcDbEntity
  8
PV0001_1
  6
CONTINUOUS
 48
0.5
100
AcDbCircle
 10
-12.61676306904902
 20
1.307055152568239
 30
0.0
 40
0.1499082446098
100
AcDbArc
 50
254.9996435021335
 51
36.90044350940625
  0
ARC
  5
6DBC
330
1F
100
AcDbEntity
  8
PV0001_1
  6
CONTINUOUS
 48
0.5
100
AcDbCircle
 10
-12.60886283101203
 20
1.296656287822258
 30
0.0
 40
0.1499453634024
100
AcDbArc
 50
39.01786043608923
 51
74.99964532336527
  0
ARC
  5
6DBD
330
1F
100
AcDbEntity
  8
PV0001_1
  6
CONTINUOUS
 48
0.5
100
AcDbCircle
 10
-12.61676306904902
 20
1.307055152568239
 30
0.0
 40
0.1500600278378
100
AcDbArc
 50
36.90044715187513
 51
75.00953543728518
  0
ARC
  5
6DBE
330
1F
100
AcDbEntity
  8
PV0001_1
  6
CONTINUOUS
 48
0.5
100
AcDbCircle
 10
-9.202959968463034
 20
1.517157233867237
 30
0.0
 40
0.1500470638275
100
AcDbArc
 50
241.9320026386582
 51
36.86989890344205
  0
ARC
  5
6DBF
330
1F
100
AcDbEntity
  8
PV0001_1
  6
CONTINUOUS
 48
0.5
100
AcDbCircle
 10
-9.195162727252039
 20
1.506655372295256
 30
0.0
 40
0.1500634551048
100
AcDbArc
 50
39.3753661976279
 51
61.93201129007988
  0
ARC
  5
6DC0
330
1F
100
AcDbEntity
  8
PV0001_1
  6
CONTINUOUS
 48
0.5
100
AcDbCircle
 10
-9.202959968463034
 20
1.517157233867237
 30
0.0
 40
0.1500000059605
100
AcDbArc
 50
36.86990254590542
 51
61.94774804593151
  0
ARC
  5
6DC1
330
1F
100
AcDbEntity
  8
PV0001_1
  6
CONTINUOUS
 48
0.5
100
AcDbCircle
 10
-12.47826285542603
 20
-1.735543571796711
 30
0.0
 40
0.3999200165272
100
AcDbArc
 50
216.8784931026469
 51
231.3849372204475
  0
ARC
  5
6DC2
330
1F
100
AcDbEntity
  8
PV0001_1
  6
CONTINUOUS
 48
0.5
100
AcDbCircle
 10
-11.36466117085603
 20
-1.151742302265745
 30
0.0
 40
0.3999771475792
100
AcDbArc
 50
40.48786740963836
 51
171.4260046245012
  0
ARC
  5
6DC3
330
1F
100
AcDbEntity
  8
PV0001_1
  6
CONTINUOUS
 48
0.5
100
AcDbCircle
 10
-11.39605994404902
 20
-1.109841667499722
 30
0.0
 40
0.4000000059605
100
AcDbArc
 50
36.86990254590542
 51
171.440177267028
  0
ARC
  5
6DC4
330
1F
100
AcDbEntity
  8
PV0001_1
  6
CONTINUOUS
 48
0.5
100
AcDbCircle
 10
-11.39605994404902
 20
-1.109841667499722
 30
0.0
 40
0.3998726904392
100
AcDbArc
 50
8.67317410480032
 51
36.86990254590542
  0
ARC
  5
6DC5
330
1F
100
AcDbEntity
  8
PV0001_1
  6
CONTINUOUS
 48
0.5
100
AcDbCircle
 10
-12.15536017598302
 20
-1.03254445680676
 30
0.0
 40
0.3998878002167
100
AcDbArc
 50
248.6322816106618
 51
351.4281449213461
  0
ARC
  5
6DC6
330
1F
100
AcDbEntity
  8
PV0001_1
  6
CONTINUOUS
 48
0.5
100
AcDbCircle
 10
-12.94595999898104
 20
-2.402440391864729
 30
0.0
 40
0.3996330499649
100
AcDbArc
 50
308.6508477344764
 51
36.8899523388442
  0
ARC
  5
6DC7
330
1F
100
AcDbEntity
  8
PV0001_1
  6
CONTINUOUS
 48
0.5
100
AcDbCircle
 10
-12.97746176900003
 20
-2.360539757099729
 30
0.0
 40
0.4000000059605
100
AcDbArc
 50
36.86990254590542
 51
51.38494245677791
  0
ARC
  5
6DC8
330
1F
100
AcDbEntity
  8
PV0001_1
  6
CONTINUOUS
 48
0.5
100
AcDbCircle
 10
-12.97746176900003
 20
-2.360539757099729
 30
0.0
 40
0.3996330499649
100
AcDbArc
 50
308.6508477344764
 51
36.86989890344205
  0
ARC
  5
6DC9
330
1F
100
AcDbEntity
  8
PV0001_1
  6
CONTINUOUS
 48
0.5
100
AcDbCircle
 10
-10.57396216572902
 20
-1.031144462909765
 30
0.0
 40
0.3999800384045
100
AcDbArc
 50
216.8899507449835
 51
291.3833918522504
  0
ARC
  5
6DCA
330
1F
100
AcDbEntity
  8
PV0001_1
  6
CONTINUOUS
 48
0.5
100
AcDbCircle
 10
-10.60536093892201
 20
-0.9892438281447084
 30
0.0
 40
0.4000599980354
100
AcDbArc
 50
216.8813549519125
 51
291.3833918522504
  0
ARC
  5
6DCB
330
1F
100
AcDbEntity
  8
PV0001_1
  6
CONTINUOUS
 48
0.5
100
AcDbCircle
 10
-10.60536093892201
 20
-0.9892438281447084
 30
0.0
 40
0.3999715745449
100
AcDbArc
 50
188.6710139437918
 51
216.8813549519125
  0
ARC
  5
6DCC
330
1F
100
AcDbEntity
  8
PV0001_1
  6
CONTINUOUS
 48
0.5
100
AcDbCircle
 10
-10.28246207417603
 20
-1.775342308368749
 30
0.0
 40
0.3999330699444
100
AcDbArc
 50
40.56866854752052
 51
111.3967466933116
  0
ARC
  5
6DCD
330
1F
100
AcDbEntity
  8
PV0001_1
  6
CONTINUOUS
 48
0.5
100
AcDbCircle
 10
-10.31386084736902
 20
-1.733544670429751
 30
0.0
 40
0.3999800384045
100
AcDbArc
 50
36.88995598130725
 51
111.3915147684071
  0
ARC
  5
6DCE
330
1F
100
AcDbEntity
  8
PV0001_1
  6
CONTINUOUS
 48
0.5
100
AcDbCircle
 10
-10.31386084736902
 20
-1.733544670429751
 30
0.0
 40
0.3996330499649
100
AcDbArc
 50
308.6508477344764
 51
36.8899523388442
  0
ARC
  5
6DCF
330
1F
100
AcDbEntity
  8
PV0001_1
  6
CONTINUOUS
 48
0.5
100
AcDbCircle
 10
-9.783263160602047
 20
-2.399541221943763
 30
0.0
 40
0.4000599980354
100
AcDbArc
 50
216.8813549519125
 51
231.3849372204475
  0
ARC
  5
6DD0
330
1F
100
AcDbEntity
  8
PV0001_1
  6
CONTINUOUS
 48
0.5
100
AcDbCircle
 10
-9.814661933795036
 20
-2.357640587177741
 30
0.0
 40
0.4000599980354
100
AcDbArc
 50
216.8813549519125
 51
231.3938779380703
  0
ARC
  5
6DD1
330
1F
100
AcDbEntity
  8
PV0001_1
  6
CONTINUOUS
 48
0.5
100
AcDbCircle
 10
-9.814661933795036
 20
-2.357640587177741
 30
0.0
 40
0.3995549380779
100
AcDbArc
 50
128.6598073488017
 51
216.8813549519125
  0
ARC
  5
6DD2
330
1F
100
AcDbEntity
  8
PV0001_1
  6
CONTINUOUS
 48
0.5
100
AcDbCircle
 10
-10.28246207417603
 20
-3.02464040407176
 30
0.0
 40
0.4000334143639
100
AcDbArc
 50
40.38690355332878
 51
51.39387634421016
  0
ARC
  5
6DD3
330
1F
100
AcDbEntity
  8
PV0001_1
  6
CONTINUOUS
 48
0.5
100
AcDbCircle
 10
-12.18676276387302
 20
-0.990743004169758
 30
0.0
 40
0.3998878002167
100
AcDbArc
 50
248.6322816106618
 51
351.4281449213461
  0
ARC
  5
6DD4
330
1F
100
AcDbEntity
  8
PV0001_1
  6
CONTINUOUS
 48
0.5
100
AcDbCircle
 10
-10.31386084736902
 20
-2.98273976930676
 30
0.0
 40
0.3999800384045
100
AcDbArc
 50
36.88995598130725
 51
51.38494245677791
  0
LINE
  5
6DD5
330
1F
100
AcDbEntity
  8
PV0001_1
  6
CONTINUOUS
 48
0.5
100
AcDbLine
 10
-9.679057075397025
 20
-0.1504414904977409
 30
0.0
 11
-9.461260749713034
 21
0.2123552929492973
 31
0.0
  0
LINE
  5
6DD6
330
1F
100
AcDbEntity
  8
PV0001_1
  6
CONTINUOUS
 48
0.5
100
AcDbLine
 10
-9.589159919635022
 20
-0.2228444445997013
 30
0.0
 11
-8.966860725299028
 21
-0.1332448352247013
 31
0.0
  0
LINE
  5
6DD7
330
1F
100
AcDbEntity
  8
PV0001_1
  6
CONTINUOUS
 48
0.5
100
AcDbLine
 10
-9.461260749713034
 20
0.2123552929492973
 30
0.0
 11
-8.966860725299028
 21
-0.1332448352247013
 31
0.0
  0
LINE
  5
6DD8
330
1F
100
AcDbEntity
  8
PV0001_1
  6
CONTINUOUS
 48
0.5
100
AcDbLine
 10
-12.57006354512304
 20
1.441454566631279
 30
0.0
 11
-12.57796378316004
 21
1.451956428203317
 31
0.0
  0
LINE
  5
6DD9
330
1F
100
AcDbEntity
  8
PV0001_1
  6
CONTINUOUS
 48
0.5
100
AcDbLine
 10
-9.124560310260022
 20
1.639055884990312
 30
0.0
 11
-9.132460548297018
 21
1.649454749736293
 31
0.0
  0
LINE
  5
6DDA
330
1F
100
AcDbEntity
  8
PV0001_1
  6
CONTINUOUS
 48
0.5
100
AcDbLine
 10
-12.33246512593405
 20
-1.363145195331725
 30
0.0
 11
-12.30106635274103
 21
-1.40494283327169
 31
0.0
  0
LINE
  5
6DDB
330
1F
100
AcDbEntity
  8
PV0001_1
  6
CONTINUOUS
 48
0.5
100
AcDbLine
 10
-11.79136176289702
 20
-1.050340019550702
 30
0.0
 11
-11.75995917500603
 21
-1.092141472187705
 31
0.0
  0
LINE
  5
6DDC
330
1F
100
AcDbEntity
  8
PV0001_1
  6
CONTINUOUS
 48
0.5
100
AcDbLine
 10
-12.62606330098305
 20
-2.162347160663699
 30
0.0
 11
-12.65746588887304
 21
-2.120545708026696
 31
0.0
  0
LINE
  5
6DDD
330
1F
100
AcDbEntity
  8
PV0001_1
  6
CONTINUOUS
 48
0.5
100
AcDbLine
 10
-10.92536063374603
 20
-1.229344688739701
 30
0.0
 11
-10.89385886372701
 21
-1.271241508808742
 31
0.0
  0
LINE
  5
6DDE
330
1F
100
AcDbEntity
  8
PV0001_1
  6
CONTINUOUS
 48
0.5
100
AcDbLine
 10
-12.72786612691004
 20
-2.672646843280716
 30
0.0
 11
-12.69636435689102
 21
-2.714543663349701
 31
0.0
  0
LINE
  5
6DDF
330
1F
100
AcDbEntity
  8
PV0001_1
  6
CONTINUOUS
 48
0.5
100
AcDbLine
 10
-10.45966239155905
 20
-1.361344658222691
 30
0.0
 11
-10.42826361836603
 21
-1.403245292987691
 31
0.0
  0
LINE
  5
6DE0
330
1F
100
AcDbEntity
  8
PV0001_1
  6
CONTINUOUS
 48
0.5
100
AcDbLine
 10
-10.13466162861902
 20
-2.597745262470738
 30
0.0
 11
-10.10326285542603
 21
-2.639642082538699
 31
0.0
  0
LINE
  5
6DE1
330
1F
100
AcDbEntity
  8
PV0001_1
  6
CONTINUOUS
 48
0.5
100
AcDbLine
 10
-9.140662147418026
 20
-0.6996434558297154
 30
0.0
 11
-9.151164008991031
 21
-0.6856435168647011
 31
0.0
  0
LINE
  5
6DE2
330
1F
100
AcDbEntity
  8
PV0001_1
  6
CONTINUOUS
 48
0.5
100
AcDbLine
 10
-10.06426139058203
 20
-2.670243584003713
 30
0.0
 11
-10.03286261738904
 21
-2.712045036640716
 31
0.0
  0
LINE
  5
6DE3
330
1F
100
AcDbEntity
  8
PV0001_1
  6
CONTINUOUS
 48
0.5
100
AcDbLine
 10
-9.328661872760022
 20
-6.000146232929722
 30
0.0
 11
-8.337363197223027
 21
-5.256345115985709
 31
0.0
  0
LINE
  5
6DE4
330
1F
100
AcDbEntity
  8
PV0001_1
  6
CONTINUOUS
 48
0.5
100
AcDbLine
 10
-8.468562080280037
 20
-6.000142418232712
 30
0.0
 11
-9.328661872760022
 21
-6.000142418232712
 31
0.0
  0
LINE
  5
6DE5
330
1F
100
AcDbEntity
  8
PV0001_1
  6
CONTINUOUS
 48
0.5
100
AcDbLine
 10
-8.337363197223027
 20
-5.256341301288699
 30
0.0
 11
-8.468562080280037
 21
-6.000142418232712
 31
0.0
  0
ARC
  5
6DE6
330
1F
100
AcDbEntity
  8
PV0001_1
  6
CONTINUOUS
 48
0.5
100
AcDbCircle
 10
-12.47826285542603
 20
-2.984742485370759
 30
0.0
 40
0.3999800384045
100
AcDbArc
 50
216.8899507449835
 51
291.3967448720796
  0
ARC
  5
6DE7
330
1F
100
AcDbEntity
  8
PV0001_1
  6
CONTINUOUS
 48
0.5
100
AcDbCircle
 10
-12.15536017598302
 20
-3.770840965595766
 30
0.0
 40
0.3999715745449
100
AcDbArc
 50
8.671015765022218
 51
36.88134994295506
  0
ARC
  5
6DE8
330
1F
100
AcDbEntity
  8
PV0001_1
  6
CONTINUOUS
 48
0.5
100
AcDbCircle
 10
-12.18676276387302
 20
-3.728940330829743
 30
0.0
 40
0.4000000059605
100
AcDbArc
 50
36.86990254590542
 51
111.3833936734881
  0
ARC
  5
6DE9
330
1F
100
AcDbEntity
  8
PV0001_1
  6
CONTINUOUS
 48
0.5
100
AcDbCircle
 10
-12.18676276387302
 20
-3.728940330829743
 30
0.0
 40
0.3999715745449
100
AcDbArc
 50
8.671015765022218
 51
36.86990254590542
  0
ARC
  5
6DEA
330
1F
100
AcDbEntity
  8
PV0001_1
  6
CONTINUOUS
 48
0.5
100
AcDbCircle
 10
-11.36466117085603
 20
-3.650243126239729
 30
0.0
 40
0.3998726904392
100
AcDbArc
 50
188.6731739911149
 51
212.990841634634
  0
ARC
  5
6DEB
330
1F
100
AcDbEntity
  8
PV0001_1
  6
CONTINUOUS
 48
0.5
100
AcDbCircle
 10
-11.39605994404902
 20
-3.608342491474729
 30
0.0
 40
0.3999800384045
100
AcDbArc
 50
216.8899507449835
 51
351.426000241948
  0
ARC
  5
6DEC
330
1F
100
AcDbEntity
  8
PV0001_1
  6
CONTINUOUS
 48
0.5
100
AcDbCircle
 10
-10.60536093892201
 20
-3.727544151630752
 30
0.0
 40
0.3998878002167
100
AcDbArc
 50
68.63227660170385
 51
171.4281407661639
  0
ARC
  5
6DED
330
1F
100
AcDbEntity
  8
PV0001_1
  6
CONTINUOUS
 48
0.5
100
AcDbCircle
 10
-11.39605994404902
 20
-3.608342491474729
 30
0.0
 40
0.3998726904392
100
AcDbArc
 50
188.6731739911149
 51
216.8899507449835
  0
LINE
  5
6DEE
330
1F
100
AcDbEntity
  8
PV0001_1
  6
CONTINUOUS
 48
0.5
100
AcDbLine
 10
-11.83536429585603
 20
-3.530743919696732
 30
0.0
 11
-11.86676306904902
 21
-3.488946281757733
 31
0.0
  0
LINE
  5
6DEF
330
1F
100
AcDbEntity
  8
PV0001_1
  6
CONTINUOUS
 48
0.5
100
AcDbLine
 10
-11.79135794820001
 20
-3.668645225849701
 30
0.0
 11
-11.75995917500603
 21
-3.710542045917719
 31
0.0
  0
LINE
  5
6DF0
330
1F
100
AcDbEntity
  8
PV0001_1
  6
CONTINUOUS
 48
0.5
100
AcDbLine
 10
-14.89974796666672
 20
-0.2392197244661816
 30
0.0
 11
-13.79455847920502
 21
-4.363541923847691
 31
0.0
  0
ARC
  5
6DF2
330
1F
100
AcDbEntity
  8
PV0001_1
  6
CONTINUOUS
 48
0.5
100
AcDbCircle
 10
-14.52955908955701
 20
-0.2355435717976775
 30
0.0
 40
0.3000000119209
100
AcDbArc
 50
216.8698973095759
 51
270.0000025044788
  0
ARC
  5
6DF3
330
1F
100
AcDbEntity
  8
PV0001_1
  6
CONTINUOUS
 48
0.5
100
AcDbCircle
 10
-14.54265875996802
 20
-0.2181447375687071
 30
0.0
 40
0.3000000119209
100
AcDbArc
 50
215.0091511226107
 51
270.0000025044788
  0
ARC
  5
6DF5
330
1F
100
AcDbEntity
  8
PV0001_1
  6
CONTINUOUS
 48
0.5
100
AcDbCircle
 10
-13.17436118306304
 20
2.275255836162273
 30
0.0
 40
0.1500634551048
100
AcDbArc
 50
39.3753661976279
 51
165.0365718304963
  0
ARC
  5
6DF6
330
1F
100
AcDbEntity
  8
PV0001_1
  6
CONTINUOUS
 48
0.5
100
AcDbCircle
 10
-13.18226142110003
 20
2.285757697734254
 30
0.0
 40
0.1500000059605
100
AcDbArc
 50
36.86990254590542
 51
165.0365718304963
  0
ARC
  5
6DF7
330
1F
100
AcDbEntity
  8
PV0001_1
  6
CONTINUOUS
 48
0.5
100
AcDbCircle
 10
-13.18226142110003
 20
2.285757697734254
 30
0.0
 40
0.1499789953232
100
AcDbArc
 50
345.0464396326147
 51
36.86989890344205
  0
ARC
  5
6DF8
330
1F
100
AcDbEntity
  8
PV0001_1
  6
CONTINUOUS
 48
0.5
100
AcDbCircle
 10
-14.63736243428402
 20
-0.0135434497267397
 30
0.0
 40
0.1249246969819
100
AcDbArc
 50
215.0258350261343
 51
270.0000025044788
  0
ARC
  5
6DF9
330
1F
100
AcDbEntity
  8
PV0001_1
  6
CONTINUOUS
 48
0.5
100
AcDbCircle
 10
-13.38136191548503
 20
1.502855933818239
 30
0.0
 40
0.1498823910952
100
AcDbArc
 50
165.0365718304963
 51
214.3786848475592
  0
ARC
  5
6DFA
330
1F
100
AcDbEntity
  8
PV0001_1
  6
CONTINUOUS
 48
0.5
100
AcDbCircle
 10
-13.38916297139303
 20
1.513357795390277
 30
0.0
 40
0.1499532312155
100
AcDbArc
 50
165.0833500885734
 51
216.9004419155459
  0
ARC
  5
6DFB
330
1F
100
AcDbEntity
  8
PV0001_1
  6
CONTINUOUS
 48
0.5
100
AcDbCircle
 10
-13.38916297139303
 20
1.513357795390277
 30
0.0
 40
0.1500600278378
100
AcDbArc
 50
216.9004419155459
 51
254.9726437643442
  0
LINE
  5
6DFC
330
1F
100
AcDbEntity
  8
PV0001_1
  6
CONTINUOUS
 48
0.5
100
AcDbLine
 10
-14.91895957173503
 20
-0.14444478639669
 30
0.0
 11
-14.91306204976302
 21
-0.166543327656683
 31
0.0
  0
LINE
  5
6DFD
330
1F
100
AcDbEntity
  8
PV0001_1
  6
CONTINUOUS
 48
0.5
100
AcDbLine
 10
-14.94775672139303
 20
-0.0369428027546803
 30
0.0
 11
-14.95765967549502
 21
0.0000559460253555
 31
0.0
  0
LINE
  5
6DFE
330
1F
100
AcDbEntity
  8
PV0001_1
  6
CONTINUOUS
 48
0.5
100
AcDbLine
 10
-14.94775672139303
 20
-0.0369428027546803
 30
0.0
 11
-14.86225791157903
 21
0.0001551281543186
 31
0.0
  0
LINE
  5
6DFF
330
1F
100
AcDbEntity
  8
PV0001_1
  6
CONTINUOUS
 48
0.5
100
AcDbLine
 10
-14.86225791157903
 20
0.0001551281543186
 30
0.0
 11
-14.95765967549502
 21
0.0000559460253555
 31
0.0
  0
LINE
  5
6E01
330
1F
100
AcDbEntity
  8
PV0001_1
  6
CONTINUOUS
 48
0.5
100
AcDbLine
 10
-13.33795828999703
 20
-0.5342419970906747
 30
0.0
 11
-14.52955908955703
 21
-0.5353444445996445
 31
0.0
  0
LINE
  5
6E03
330
1F
100
AcDbEntity
  8
PV0001_1
  6
CONTINUOUS
 48
0.5
100
AcDbLine
 10
-14.90845771016302
 20
-0.218842827168686
 30
0.0
 11
-14.91365714253603
 21
-0.1590436328326916
 31
0.0
  0
LINE
  5
6E04
330
1F
100
AcDbEntity
  8
PV0001_1
  6
CONTINUOUS
 48
0.5
100
AcDbLine
 10
-14.90845771016302
 20
-0.218842827168686
 30
0.0
 11
-14.78835959614903
 21
-0.3902448047076916
 31
0.0
  0
LINE
  5
6E05
330
1F
100
AcDbEntity
  8
PV0001_1
  6
CONTINUOUS
 48
0.5
100
AcDbLine
 10
-14.85502168817714
 20
-0.3010080795500869
 30
0.0
 11
-14.73966117085604
 21
-0.0852444995307167
 31
0.0
  0
LINE
  5
6E06
330
1F
100
AcDbEntity
  8
PV0001_1
  6
CONTINUOUS
 48
0.5
100
AcDbLine
 10
-14.55550527689226
 20
-0.5206927038601919
 30
0.0
 11
-14.63735861958602
 21
-0.1384442675976913
 31
0.0
  0
LINE
  5
6E07
330
1F
100
AcDbEntity
  8
PV0001_1
  6
CONTINUOUS
 48
0.5
100
AcDbLine
 10
-14.54265875996802
 20
-0.5179417956746591
 30
0.0
 11
-13.32045645894203
 21
-0.5168431628616475
 31
0.0
  0
LINE
  5
6E08
330
1F
100
AcDbEntity
  8
PV0001_1
  6
CONTINUOUS
 48
0.5
100
AcDbLine
 10
-12.95205969990902
 20
-0.0449422229197296
 30
0.0
 11
-13.13086219014303
 21
0.2090555798143043
 31
0.0
  0
LINE
  5
6E09
330
1F
100
AcDbEntity
  8
PV0001_1
  6
CONTINUOUS
 48
0.5
100
AcDbLine
 10
-13.16056342305301
 20
-0.1997464526557167
 30
0.0
 11
-13.62536139668603
 21
-0.1375439990427196
 31
0.0
  0
LINE
  5
6E0A
330
1F
100
AcDbEntity
  8
PV0001_1
  6
CONTINUOUS
 48
0.5
100
AcDbLine
 10
-13.52616019429302
 20
1.541559852275298
 30
0.0
 11
-13.31915946187103
 21
2.313955939922294
 31
0.0
  0
LINE
  5
6E0B
330
1F
100
AcDbEntity
  8
PV0001_1
  6
CONTINUOUS
 48
0.5
100
AcDbLine
 10
-13.31916327656904
 20
2.313955939922294
 30
0.0
 11
-13.32706351460603
 21
2.324453986797294
 31
0.0
  0
LINE
  5
6E0C
330
1F
100
AcDbEntity
  8
PV0001_1
  6
CONTINUOUS
 48
0.5
100
AcDbLine
 10
-13.15926261128504
 20
1.792257941875305
 30
0.0
 11
-13.03736396016202
 21
2.247061408672294
 31
0.0
  0
LINE
  5
6E0D
330
1F
100
AcDbEntity
  8
PV0001_1
  6
CONTINUOUS
 48
0.5
100
AcDbLine
 10
-13.62535758198902
 20
-0.1375401843457382
 30
0.0
 11
-14.63735861958602
 21
-0.1384404529007099
 31
0.0
  0
LINE
  5
6E0E
330
1F
100
AcDbEntity
  8
PV0001_1
  6
CONTINUOUS
 48
0.5
100
AcDbLine
 10
-13.13085837544602
 20
0.2090593945123089
 30
0.0
 11
-13.62536139668603
 21
-0.1375439990427196
 31
0.0
  0
LINE
  5
6E0F
330
1F
100
AcDbEntity
  8
PV0001_1
  6
CONTINUOUS
 48
0.5
100
AcDbLine
 10
-13.53406043233002
 20
1.551958717021278
 30
0.0
 11
-13.32705969990902
 21
2.324461616191257
 31
0.0
  0
LINE
  5
6E10
330
1F
100
AcDbEntity
  8
PV0001_1
  6
CONTINUOUS
 48
0.5
100
AcDbLine
 10
-13.52616019429302
 20
1.541559852275298
 30
0.0
 11
-13.53405661763304
 21
1.551958717021278
 31
0.0
  0
LINE
  5
6E11
330
1F
100
AcDbEntity
  8
PV0001_1
  6
CONTINUOUS
 48
0.5
100
AcDbLine
 10
-13.15146155537703
 20
1.781756080303267
 30
0.0
 11
-13.15926261128504
 21
1.792254127178267
 31
0.0
  0
LINE
  5
6E12
330
1F
100
AcDbEntity
  8
PV0001_1
  6
CONTINUOUS
 48
0.5
100
AcDbLine
 10
-12.94906134785804
 20
1.542654670390305
 30
0.0
 11
-12.95696540059202
 21
1.55315653196331
 31
0.0
  0
LINE
  5
6E13
330
1F
100
AcDbEntity
  8
PV0001_1
  6
CONTINUOUS
 48
0.5
100
AcDbLine
 10
-20.92126364888304
 20
0.1348559033013146
 30
0.0
 11
-20.39036078633404
 21
0.1348559033013146
 31
0.0
  0
LINE
  5
6E14
330
1F
100
AcDbEntity
  8
PV0001_1
  6
CONTINUOUS
 48
0.5
100
AcDbLine
 10
-13.49276251973305
 20
-4.363343559589708
 30
0.0
 11
-13.79456229390302
 21
-4.363541923847691
 31
0.0
  0
LINE
  5
6E15
330
1F
100
AcDbEntity
  8
PV0001_1
  6
CONTINUOUS
 48
0.5
100
AcDbLine
 10
-13.79455847920502
 20
-4.363545738544729
 30
0.0
 11
-13.35605902852202
 21
-6.000142418232712
 31
0.0
  0
LINE
  5
6E16
330
1F
100
AcDbEntity
  8
PV0001_1
  6
CONTINUOUS
 48
0.5
100
AcDbLine
 10
-13.63046164693002
 20
-4.04654439577169
 30
0.0
 11
-13.61995978535804
 21
-4.060544334735681
 31
0.0
  0
LINE
  5
6E17
330
1F
100
AcDbEntity
  8
PV0001_1
  6
CONTINUOUS
 48
0.5
100
AcDbLine
 10
-13.58306021870703
 20
-4.043046318378713
 30
0.0
 11
-13.56985755147104
 21
-4.060647331562705
 31
0.0
  0
LINE
  5
6E18
330
1F
100
AcDbEntity
  8
PV0001_1
  6
CONTINUOUS
 48
0.5
100
AcDbLine
 10
-9.327975227252039
 20
-45.1351483691597
 30
0.0
 11
-13.35537619771102
 21
-45.24064763673769
 31
0.0
  0
LINE
  5
6E1A
330
1F
100
AcDbEntity
  8
PV0001_1
  6
CONTINUOUS
 48
0.5
100
AcDbLine
 10
-4.199274970905037
 20
-57.00042623292969
 30
0.0
 11
-4.199274970905037
 21
-47.8420499194527
 31
0.0
  0
LINE
  5
6E1B
330
1F
100
AcDbEntity
  8
PV0001_1
  6
CONTINUOUS
 48
0.5
100
AcDbLine
 10
-7.499274207965015
 20
-57.00014623292972
 30
0.0
 11
-7.499274207965015
 21
-47.68134435304671
 31
0.0
  0
LINE
  5
6E1C
330
1F
100
AcDbEntity
  8
PV0001_1
  6
CONTINUOUS
 48
0.5
100
AcDbLine
 10
-8.467875434772025
 20
-57.00014623292972
 30
0.0
 11
-8.467875434772025
 21
-45.1351483691597
 31
0.0
  0
LINE
  5
6E1D
330
1F
100
AcDbEntity
  8
PV0001_1
  6
CONTINUOUS
 48
0.5
100
AcDbLine
 10
-4.199271156207032
 20
-47.84204229005871
 30
0.0
 11
-7.446574165241031
 21
-47.68394597658172
 31
0.0
  0
LINE
  5
6E1E
330
1F
100
AcDbEntity
  8
PV0001_1
  6
CONTINUOUS
 48
0.5
100
AcDbLine
 10
-3.939875556842025
 20
-47.8267453540237
 30
0.0
 11
-7.085574104205022
 21
-47.67444738039071
 31
0.0
  0
LINE
  5
6E1F
330
1F
100
AcDbEntity
  8
PV0001_1
  6
CONTINUOUS
 48
0.5
100
AcDbLine
 10
-3.950373603717025
 20
-46.97524388917972
 30
0.0
 11
-7.069273902789035
 21
-47.12634404787073
 31
0.0
  0
LINE
  5
6E20
330
1F
100
AcDbEntity
  8
PV0001_1
  6
CONTINUOUS
 48
0.5
100
AcDbLine
 10
-6.749873115436031
 20
-46.83393987306672
 30
0.0
 11
-1.988173438922046
 21
-46.95924504884769
 31
0.0
  0
LINE
  5
6E21
330
1F
100
AcDbEntity
  8
PV0001_1
  6
CONTINUOUS
 48
0.5
100
AcDbLine
 10
-7.938673927203041
 20
-45.20353826173769
 30
0.0
 11
-1.798674537555029
 21
-45.04283269533172
 31
0.0
  0
LINE
  5
6E22
330
1F
100
AcDbEntity
  8
PV0001_1
  6
CONTINUOUS
 48
0.5
100
AcDbLine
 10
-3.939875556842025
 20
-47.8267453540237
 30
0.0
 11
-4.044272376910043
 21
-47.83474095949171
 31
0.0
  0
LINE
  5
6E23
330
1F
100
AcDbEntity
  8
PV0001_1
  6
CONTINUOUS
 48
0.5
100
AcDbLine
 10
-3.937170936481038
 20
-47.32604344972671
 30
0.0
 11
-3.939871742145044
 21
-47.8267453540237
 31
0.0
  0
LINE
  5
6E24
330
1F
100
AcDbEntity
  8
PV0001_1
  6
CONTINUOUS
 48
0.5
100
AcDbLine
 10
-3.937170936481038
 20
-47.32604344972671
 30
0.0
 11
-3.950369789020044
 21
-46.97524388917972
 31
0.0
  0
LINE
  5
6E25
330
1F
100
AcDbEntity
  8
PV0001_1
  6
CONTINUOUS
 48
0.5
100
AcDbLine
 10
-8.467875434772025
 20
-45.1351483691597
 30
0.0
 11
-9.327975227252039
 21
-45.1351483691597
 31
0.0
  0
LINE
  5
6E26
330
1F
100
AcDbEntity
  8
PV0001_1
  6
CONTINUOUS
 48
0.5
100
AcDbLine
 10
-7.446574165241031
 20
-47.68394597658172
 30
0.0
 11
-7.499274207965015
 21
-47.68134435304671
 31
0.0
  0
LINE
  5
6E27
330
1F
100
AcDbEntity
  8
PV0001_1
  6
CONTINUOUS
 48
0.5
100
AcDbLine
 10
-8.336676551715015
 20
-45.1351483691597
 30
0.0
 11
-8.467875434772025
 21
-45.1351483691597
 31
0.0
  0
LINE
  5
6E28
330
1F
100
AcDbEntity
  8
PV0001_1
  6
CONTINUOUS
 48
0.5
100
AcDbLine
 10
-7.576273872272025
 20
-47.6681455005077
 30
0.0
 11
-7.561476661578041
 21
-45.2683423388867
 31
0.0
  0
LINE
  5
6E29
330
1F
100
AcDbEntity
  8
PV0001_1
  6
CONTINUOUS
 48
0.5
100
AcDbLine
 10
-7.561472846881031
 20
-45.2683423388867
 30
0.0
 11
-8.336672737018034
 21
-45.13514073976572
 31
0.0
  0
LINE
  5
6E2A
330
1F
100
AcDbEntity
  8
PV0001_1
  6
CONTINUOUS
 48
0.5
100
AcDbLine
 10
-7.499274207965015
 20
-47.68133672365169
 30
0.0
 11
-7.576273872272025
 21
-47.66813787111269
 31
0.0
  0
LINE
  5
6E2B
330
1F
100
AcDbEntity
  8
PV0001_1
  6
CONTINUOUS
 48
0.5
100
AcDbLine
 10
-6.772173835651017
 20
-46.83413823732371
 30
0.0
 11
-6.749873115436031
 21
-46.83393987306672
 31
0.0
  0
LINE
  5
6E2C
330
1F
100
AcDbEntity
  8
PV0001_1
  6
CONTINUOUS
 48
0.5
100
AcDbLine
 10
-7.072470619098027
 20
-47.17424138673769
 30
0.0
 11
-7.069273902789035
 21
-47.12634404787073
 31
0.0
  0
LINE
  5
6E2D
330
1F
100
AcDbEntity
  8
PV0001_1
  6
CONTINUOUS
 48
0.5
100
AcDbLine
 10
-7.085577918903027
 20
-47.67443975099573
 30
0.0
 11
-7.446574165241031
 21
-47.68393834718771
 31
0.0
  0
LINE
  5
6E2E
330
1F
100
AcDbEntity
  8
PV0001_1
  6
CONTINUOUS
 48
0.5
100
AcDbLine
 10
-7.072474433795036
 20
-47.17424138673769
 30
0.0
 11
-7.085574104205022
 21
-47.67444738039071
 31
0.0
  0
LINE
  5
6E2F
330
1F
100
AcDbEntity
  8
PV0001_1
  6
CONTINUOUS
 48
0.5
100
AcDbLine
 10
-7.573374702350037
 20
-47.1873410571487
 30
0.0
 11
-7.072474433795036
 21
-47.17424138673769
 31
0.0
  0
LINE
  5
6E30
330
1F
100
AcDbEntity
  8
PV0001_1
  6
CONTINUOUS
 48
0.5
100
AcDbLine
 10
-14.99927420796501
 20
-57.00042623292969
 30
0.0
 11
-4.199274970905037
 21
-57.00042623292969
 31
0.0
  0
LINE
  5
6E32
330
1F
100
AcDbEntity
  8
PV0001_1
  6
CONTINUOUS
 48
0.5
100
AcDbLine
 10
-14.99927420796501
 20
-47.9002469409377
 30
0.0
 11
-14.99927420796501
 21
-57.13514836915973
 31
0.0
  0
LINE
  5
6E33
330
1F
100
AcDbEntity
  8
PV0001_1
  6
CONTINUOUS
 48
0.5
100
AcDbLine
 10
-13.35537619771102
 20
-57.00014623292972
 30
0.0
 11
-13.35537619771102
 21
-45.24064763673769
 31
0.0
  0
LINE
  5
6E34
330
1F
100
AcDbEntity
  8
PV0001_1
  6
CONTINUOUS
 48
0.5
100
AcDbLine
 10
-20.38967414082603
 20
-45.6392453540237
 30
0.0
 11
-14.99927420796501
 21
-45.4979413379097
 31
0.0
  0
LINE
  5
6E35
330
1F
100
AcDbEntity
  8
PV0001_1
  6
CONTINUOUS
 48
0.5
100
AcDbLine
 10
-15.51157279195001
 20
-47.13484319337871
 30
0.0
 11
-15.07197089375603
 21
-47.10144170412073
 31
0.0
  0
LINE
  5
6E36
330
1F
100
AcDbEntity
  8
PV0001_1
  6
CONTINUOUS
 48
0.5
100
AcDbLine
 10
-14.98937506856103
 20
-46.55824407228471
 30
0.0
 11
-14.90387244404902
 21
-45.4954465258987
 31
0.0
  0
LINE
  5
6E37
330
1F
100
AcDbEntity
  8
PV0001_1
  6
CONTINUOUS
 48
0.5
100
AcDbLine
 10
-14.90387244404902
 20
-45.4954465258987
 30
0.0
 11
-14.99927420796501
 21
-45.4979413379097
 31
0.0
  0
LINE
  5
6E38
330
1F
100
AcDbEntity
  8
PV0001_1
  6
CONTINUOUS
 48
0.5
100
AcDbLine
 10
-15.51027198018203
 20
-47.91364415773469
 30
0.0
 11
-14.99927420796501
 21
-47.9002469409377
 31
0.0
  0
LINE
  5
6E39
330
1F
100
AcDbEntity
  8
PV0001_1
  6
CONTINUOUS
 48
0.5
100
AcDbLine
 10
-15.51027198018203
 20
-47.91364415773469
 30
0.0
 11
-15.51157279195001
 21
-47.11294683107371
 31
0.0
  0
LINE
  5
6E3A
330
1F
100
AcDbEntity
  8
PV0001_1
  6
CONTINUOUS
 48
0.5
100
AcDbLine
 10
-15.07197089375603
 20
-47.10144170412073
 30
0.0
 11
-15.51157279195001
 21
-47.11293920167972
 31
0.0
  0
LINE
  5
6E3B
330
1F
100
AcDbEntity
  8
PV0001_1
  6
CONTINUOUS
 48
0.5
100
AcDbLine
 10
-15.04177756489903
 20
-46.81313451417972
 30
0.0
 11
-14.99927802266202
 21
-46.40713628419871
 31
0.0
  0
LINE
  5
6E3C
330
1F
100
AcDbEntity
  8
PV0001_1
  6
CONTINUOUS
 48
0.5
100
AcDbLine
 10
-15.07197470845304
 20
-47.10144933351571
 30
0.0
 11
-15.04177375020103
 21
-46.81314977296873
 31
0.0
  0
LINE
  5
6E3D
330
1F
100
AcDbEntity
  8
PV0001_1
  6
CONTINUOUS
 48
0.5
100
AcDbLine
 10
-14.99927420796501
 20
-45.49794896730472
 30
0.0
 11
-14.99927420796501
 21
-46.40714391359373
 31
0.0
  0
LINE
  5
6E3E
330
1F
100
AcDbEntity
  8
PV0001_1
  6
CONTINUOUS
 48
0.5
100
AcDbLine
 10
-14.99927802266202
 20
-46.40714391359373
 30
0.0
 11
-14.98937506856103
 21
-46.55825170167972
 31
0.0
  0
LINE
  5
6E3F
330
1F
100
AcDbEntity
  8
PV0001_1
  6
CONTINUOUS
 48
0.5
100
AcDbLine
 10
-14.98937125386402
 20
-46.55824407228471
 30
0.0
 11
-14.99927039326803
 21
-45.4979413379097
 31
0.0
  0
LINE
  5
6E40
330
1F
100
AcDbEntity
  8
PV0001_1
  6
CONTINUOUS
 48
0.5
100
AcDbLine
 10
-13.77147193135402
 20
-47.7080396045117
 30
0.0
 11
-13.79387183369803
 21
-45.30934270509769
 31
0.0
  0
LINE
  5
6E41
330
1F
100
AcDbEntity
  8
PV0001_1
  6
CONTINUOUS
 48
0.5
100
AcDbLine
 10
-13.79387564839504
 20
-45.30934270509769
 30
0.0
 11
-13.35537619771102
 21
-45.24064000734372
 31
0.0
  0
LINE
  5
6E42
330
1F
100
AcDbEntity
  8
PV0001_1
  6
CONTINUOUS
 48
0.5
100
AcDbLine
 10
-14.99927039326803
 20
-47.9002469409377
 30
0.0
 11
-13.77147193135402
 21
-47.70804723390571
 31
0.0
  0
LINE
  5
6E43
330
1F
100
AcDbEntity
  8
PV0001_1
  6
CONTINUOUS
 48
0.5
100
AcDbLine
 10
-14.94737143696903
 20
-47.43864568361269
 30
0.0
 11
-15.51097006978204
 21
-47.48324712404271
 31
0.0
  0
LINE
  5
6E44
330
1F
100
AcDbEntity
  8
PV0001_1
  6
CONTINUOUS
 48
0.5
100
AcDbLine
 10
-14.95007224263304
 20
-47.39083989748073
 30
0.0
 11
-14.95527167500603
 21
-47.0431455005077
 31
0.0
  0
LINE
  5
6E45
330
1F
100
AcDbEntity
  8
PV0001_1
  6
CONTINUOUS
 48
0.5
100
AcDbLine
 10
-14.73897452534802
 20
-45.38334020265572
 30
0.0
 11
-16.90217490376602
 21
-45.54783757814471
 31
0.0
  0
LINE
  5
6E46
330
1F
100
AcDbEntity
  8
PV0001_1
  6
CONTINUOUS
 48
0.5
100
AcDbLine
 10
-14.95007605733002
 20
-47.39083989748073
 30
0.0
 11
-14.82997412861903
 21
-47.38173802980472
 31
0.0
  0
LINE
  5
6E47
330
1F
100
AcDbEntity
  8
PV0001_1
  6
CONTINUOUS
 48
0.5
100
AcDbLine
 10
-14.95007224263304
 20
-47.39083989748073
 30
0.0
 11
-14.92137046040704
 21
-47.8880399096877
 31
0.0
  0
LINE
  5
6E48
330
1F
100
AcDbEntity
  8
PV0001_1
  6
CONTINUOUS
 48
0.5
100
AcDbLine
 10
-13.80637259663703
 20
-45.35714849123073
 30
0.0
 11
-14.63667197407804
 21
-45.37884648927669
 31
0.0
  0
LINE
  5
6E49
330
1F
100
AcDbEntity
  8
PV0001_1
  6
CONTINUOUS
 48
0.5
100
AcDbLine
 10
-14.58427329243804
 20
-47.3708432544137
 30
0.0
 11
-14.63667197407804
 21
-45.37883885988271
 31
0.0
  0
LINE
  5
6E4A
330
1F
100
AcDbEntity
  8
PV0001_1
  6
CONTINUOUS
 48
0.5
100
AcDbLine
 10
-14.82997031392204
 20
-47.38174565919871
 30
0.0
 11
-14.73897071065101
 21
-45.38334020265572
 31
0.0
  0
LINE
  5
6E4B
330
1F
100
AcDbEntity
  8
PV0001_1
  6
CONTINUOUS
 48
0.5
100
AcDbLine
 10
-14.82997412861903
 20
-47.38174565919871
 30
0.0
 11
-14.81707282246702
 21
-47.87174352296872
 31
0.0
  0
LINE
  5
6E4C
330
1F
100
AcDbEntity
  8
PV0001_1
  6
CONTINUOUS
 48
0.5
100
AcDbLine
 10
-14.58427329243804
 20
-47.3708432544137
 30
0.0
 11
-13.77487464131502
 21
-47.3496411670117
 31
0.0
  0
LINE
  5
6E4D
330
1F
100
AcDbEntity
  8
PV0001_1
  6
CONTINUOUS
 48
0.5
100
AcDbLine
 10
-14.58427329243804
 20
-47.3708432544137
 30
0.0
 11
-14.57217307271102
 21
-47.83344396242171
 31
0.0
  0
LINE
  5
6E4E
330
1F
100
AcDbEntity
  8
PV0001_1
  6
CONTINUOUS
 48
0.5
100
AcDbLine
 10
-13.79427619160805
 20
-45.3504422534377
 30
0.0
 11
-14.17787833394203
 21
-45.48034032472671
 31
0.0
  0
LINE
  5
6E4F
330
1F
100
AcDbEntity
  8
PV0001_1
  6
CONTINUOUS
 48
0.5
100
AcDbLine
 10
-14.18916983784802
 20
-45.48954137453072
 30
0.0
 11
-14.17867179097302
 21
-45.88913854249969
 31
0.0
  0
LINE
  5
6E50
330
1F
100
AcDbEntity
  8
PV0001_1
  6
CONTINUOUS
 48
0.5
100
AcDbLine
 10
-14.17807288350203
 20
-45.8910458911327
 30
0.0
 11
-13.78247351826803
 21
-46.5361417163277
 31
0.0
  0
LINE
  5
6E51
330
1F
100
AcDbEntity
  8
PV0001_1
  6
CONTINUOUS
 48
0.5
100
AcDbLine
 10
-20.92057318867801
 20
-45.13514073976572
 30
0.0
 11
-20.38967414082603
 21
-45.6392453540237
 31
0.0
  0
LINE
  5
6E53
330
1F
100
AcDbEntity
  8
PV0001_1
  6
CONTINUOUS
 48
0.5
100
AcDbLine
 10
-119.999953224072
 20
11.99985758176731
 30
0.0
 11
-119.999953224072
 21
-0.0001424182326559
 31
0.0
  0
DIMENSION
  5
6E54
330
1F
100
AcDbEntity
  8
PV0001_1
100
AcDbDimension
  2
*D11
 10
-132.787810279742
 20
11.99985758176731
 30
0.0
 11
-132.787810279742
 21
6.067356742534315
 31
0.0
 70
   160
  1
<>
  3
AM_JIS
100
AcDbAlignedDimension
 13
-119.999953224072
 23
-0.0001424182326559
 33
0.0
 14
-119.999953224072
 24
11.99985758176731
 34
0.0
 50
270.0
100
AcDbRotatedDimension
  0
DIMENSION
  5
6E55
330
1F
100
AcDbEntity
  8
PV0001_1
100
AcDbDimension
  2
*D12
 10
-132.787810279742
 20
-45.13514073976568
 30
0.0
 11
-132.787810279742
 21
-51.06764348634769
 31
0.0
 70
   160
  1
<>
  3
AM_JIS
100
AcDbAlignedDimension
 13
-119.999953224072
 23
-57.13514836915968
 33
0.0
 14
-119.999953224072
 24
-45.13514073976568
 34
0.0
 50
270.0
100
AcDbRotatedDimension
  0
LINE
  5
6E56
330
1F
100
AcDbEntity
  8
PV0001_1
  6
CONTINUOUS
 48
0.5
100
AcDbLine
 10
-119.999266578562
 20
-57.13514836915968
 30
0.0
 11
-119.999266578562
 21
-45.13514836915968
 31
0.0
  0
DIMENSION
  5
6E5A
330
1F
100
AcDbEntity
  8
PV0001_1
100
AcDbDimension
  2
*D13
 10
21.93396584769437
 20
11.9998575817673
 30
0.0
 11
21.93396584769436
 21
5.999857581767315
 31
0.0
 70
   160
  1
<>
  3
AM_JIS
100
AcDbAlignedDimension
 13
0.0000391465269729
 23
-0.0001424182326843
 33
0.0
 14
-8.000952674762032
 24
11.99985758176731
 34
0.0
 50
270.0
100
AcDbRotatedDimension
  0
MTEXT
  5
6E5E
330
1F
100
AcDbEntity
  8
PV0001_1
 62
     2
100
AcDbMText
 10
39.58772322106364
 20
-44.53827931340279
 30
0.0
 40
3.479999999999999
 41
0.0
 71
     4
 72
     5
  1
\T1.40;\W0.59;０°
1001
ACAD
1000
MTEXTBEGIN
1070
    73
1070
     1
1070
    44
1040
1.0
1070
    74
1070
     0
1000
MTEXTEND
  0
MTEXT
  5
6E5F
330
1F
100
AcDbEntity
  8
PV0001_1
 62
     2
100
AcDbMText
 10
49.33297819045658
 20
-57.6733273025674
 30
0.0
 40
3.479999999999999
 41
0.0
 71
     4
 72
     5
  1
\T1.40;\W0.59;－２°
1001
ACAD
1000
MTEXTBEGIN
1070
    73
1070
     1
1070
    44
1040
1.0
1070
    74
1070
     0
1000
MTEXTEND
  0
INSERT
  5
6E60
330
1F
100
AcDbEntity
  8
PV0001_1
100
AcDbBlockReference
  2
*U7
 10
11.24807364671767
 20
47.5699784546199
 30
0.0
 50
180.0
  0
INSERT
  5
6E61
330
1F
100
AcDbEntity
  8
PV0001_1
100
AcDbBlockReference
  2
*U8
 10
11.24807364671767
 20
47.5699784546199
 30
0.0
 50
180.0
  0
LINE
  5
6F5A
330
1F
100
AcDbEntity
  8
AM_0
100
AcDbLine
 10
-0.0050300976131155
 20
-45.00042274669834
 30
0.0
 11
-0.0061497838250943
 21
-47.00009595895667
 31
0.0
  0
LINE
  5
709D
330
1F
100
AcDbEntity
  8
PV0001_1
  6
CONTINUOUS
100
AcDbLine
 10
-14.86225791157903
 20
-0.0001424182326843
 30
0.0
 11
-119.999953224072
 21
-0.0001424182326843
 31
0.0
  0
DIMENSION
  5
70F9
330
1F
100
AcDbEntity
  8
AM_5
100
AcDbDimension
  2
*D14
 10
26.0304083095143
 20
-45.00042274669835
 30
0.0
 11
26.03040830951431
 21
-49.75028448981399
 31
0.0
 70
   160
  1
<>
  3
AM_JIS$0
100
AcDbAlignedDimension
 13
-4.199453438472602
 23
-57.00042623292969
 33
0.0
 14
-0.0050300976131155
 24
-45.00042274669834
 34
0.0
 50
270.0
100
AcDbRotatedDimension
1001
ACAD
1000
DSTYLE
1002
{
1070
   173
1070
     1
1070
   271
1070
     5
1070
     5
1000

1070
     6
1000
OPEN30
1070
     7
1000
DOTSMALL
1002
}
  0
DIMENSION
  5
70FA
330
1F
100
AcDbEntity
  8
AM_5
100
AcDbDimension
  2
*D15
 10
19.6166366801803
 20
-45.00043048672458
 30
0.0
 11
26.07725088458716
 21
-44.05978717617751
 31
0.0
 70
   162
  1
 
  3
AM_JIS$2
100
AcDb2LineAngularDimension
 13
-27.09518964428269
 23
-45.70485248379355
 33
0.0
 14
-0.0052085651806806
 24
-44.99604358486857
 34
0.0
 15
12.1391729579513
 25
-45.00043048672458
 35
0.0
 16
26.0931003522143
 26
-44.77139403256329
 36
0.0
1001
ACAD
1000
DSTYLE
1002
{
1070
   271
1070
     0
1070
   281
1070
     1
1070
   282
1070
     0
1070
    76
1070
     0
1070
     7
1000
OPEN30
1070
     5
1000

1070
   173
1070
     1
1070
     6
1000
NONE
1002
}
  0
LINE
  5
71A7
330
1F
100
AcDbEntity
  8
PV0001_1
  6
CONTINUOUS
100
AcDbLine
 10
-119.999266578562
 20
-57.13514836915968
 30
0.0
 11
-14.99927420796501
 21
-57.13514836915973
 31
0.0
  0
LINE
  5
720F
330
1F
100
AcDbEntity
  8
AM_5
100
AcDbLine
 10
0.000038888052768
 20
-0.0001425171193778
 30
0.0
 11
-0.0052085651806806
 21
-44.99604358486857
 31
0.0
  0
LINE
  5
7211
330
1F
100
AcDbEntity
  8
AM_5
100
AcDbLine
 10
-119.999266578562
 20
-45.13514836915968
 30
0.0
 11
-119.999953224072
 21
-0.0001424182326559
 31
0.0
  0
VIEWPORT
  5
110
330
101
100
AcDbEntity
 67
     1
  8
0
100
AcDbViewport
 10
420.5
 20
297.0
 30
0.0
 40
948.9782706766916
 41
628.452
 68
     1
 69
     1
1001
ACAD
1000
MVIEW
1002
{
1070
    16
1010
0.0
1020
0.0
1030
0.0
1010
0.0
1020
0.0
1030
1.0
1040
0.0
1040
628.452
1040
420.5
1040
297.0
1040
50.0
1040
0.0
1040
0.0
1070
     0
1070
   100
1070
     1
1070
     1
1070
     0
1070
     0
1070
     0
1070
     0
1040
0.0
1040
0.0
1040
0.0
1040
10.0
1040
10.0
1040
10.0
1040
10.0
1070
     0
1002
{
1002
}
1002
}
  0
ENDSEC
  0
SECTION
  2
OBJECTS
  0
DICTIONARY
  5
C
330
0
100
AcDbDictionary
  3
ACAD_GROUP
350
D
  3
ACAD_LAYOUT
350
1A
  3
ACAD_MLINESTYLE
350
17
  3
ACAD_PLOTSETTINGS
350
19
  3
ACAD_PLOTSTYLENAME
350
E
  3
ACDBVARIABLEDICTIONARY
350
34
  3
ACMDICTIONARY
350
43
  3
AMG
350
2B
  3
AMGSNAPSETTINGS
350
6E
  3
DWGPROPS
350
722A
  3
ACDBHEADERROUNDTRIPXREC
350
7239
  0
DICTIONARY
  5
74
330
1F
100
AcDbDictionary
280
     1
  3
ACAD_INDEX
360
722C
  3
ACAD_LAYOUTSELFREF
360
725C
  0
DICTIONARY
  5
7261
330
101
100
AcDbDictionary
280
     1
  3
ACAD_LAYOUTSELFREF
360
7262
  0
DICTIONARY
  5
D
102
{ACAD_REACTORS
330
C
102
}
330
C
100
AcDbDictionary
  0
DICTIONARY
  5
1A
102
{ACAD_REACTORS
330
C
102
}
330
C
100
AcDbDictionary
  0
DICTIONARY
  5
17
102
{ACAD_REACTORS
330
C
102
}
330
C
100
AcDbDictionary
  3
STANDARD
350
18
  0
DICTIONARY
  5
19
102
{ACAD_REACTORS
330
C
102
}
330
C
100
AcDbDictionary
  0
ACDBDICTIONARYWDFLT
  5
E
102
{ACAD_REACTORS
330
C
102
}
330
C
100
AcDbDictionary
281
     1
  3
Normal
350
F
100
AcDbDictionaryWithDefault
340
F
  0
DICTIONARY
  5
34
102
{ACAD_REACTORS
330
C
102
}
330
C
100
AcDbDictionary
  3
INDEXCTL
350
35
  3
SORTENTS
350
B5E
  0
DICTIONARY
  5
43
102
{ACAD_REACTORS
330
C
102
}
330
C
100
AcDbDictionary
  3
ACMSTDDICTIONARY
350
260
  0
DICTIONARY
  5
2B
102
{ACAD_REACTORS
330
C
102
}
330
C
100
AcDbDictionary
  3
ACMGSETTINGS
350
2C
  0
DICTIONARY
  5
6E
102
{ACAD_REACTORS
330
C
102
}
330
C
100
AcDbDictionary
  0
XRECORD
  5
722A
102
{ACAD_REACTORS
330
C
102
}
330
C
100
AcDbXrecord
  1
DWGPROPS COOKIE
  2

  3

  4

  6

  7

  8

  9

300
AmdtFileType=82
301
=
302
=
303
=
304
=
305
=
306
=
307
=
308
=
309
=
 40
1.087807222222222
 41
2452838.620506898
 42
2453025.577750092
  1

 90
        1
  0
DICTIONARY
  5
7239
102
{ACAD_REACTORS
330
C
102
}
330
C
100
AcDbDictionary
  3
TSTACKALIGN
350
723A
  3
TSTACKSIZE
350
723B
  3
HYPERLINKBASE
350
723C
  3
STYLESHEET
350
723D
  3
LAYOUTDICT
350
723E
  3
PLOTSETDICT
350
723F
  3
PLOTSTYLNAMDICT
350
7240
  3
LWETCUNION
350
7241
  3
INSUNITS
350
7242
  3
CEPSNTYPE
350
7243
  3
FINGERPRINTGUID
350
7244
  3
VERSIONGUID
350
7245
  3
PSVPSCALE
350
7246
  3
DIMSTYLEDATA
350
7247
  3
PUCSORTHOREF
350
7248
  3
PUCSORTHOVIEW
350
7249
  3
PUCSBASE
350
724A
  3
PUCSORGTOP
350
724B
  3
PUCSORGBOTTOM
350
724C
  3
PUCSORGLEFT
350
724D
  3
PUCSORGRIGHT
350
724E
  3
PUCSORGFRONT
350
724F
  3
PUCSORGBACK
350
7250
  3
UCSORTHOREF
350
7251
  3
UCSORTHOVIEW
350
7252
  3
UCSBASE
350
7253
  3
UCSORGTOP
350
7254
  3
UCSORGBOTTOM
350
7255
  3
UCSORGLEFT
350
7256
  3
UCSORGRIGHT
350
7257
  3
UCSORGFRONT
350
7258
  3
UCSORGBACK
350
7259
  0
DICTIONARY
  5
722C
102
{ACAD_REACTORS
330
74
102
}
330
74
100
AcDbDictionary
  3
*A1
350
722D
  0
XRECORD
  5
725C
102
{ACAD_REACTORS
330
74
102
}
330
74
100
AcDbXrecord
340
1F
  0
XRECORD
  5
7262
102
{ACAD_REACTORS
330
7261
102
}
330
7261
100
AcDbXrecord
340
101
  0
MLINESTYLE
  5
18
102
{ACAD_REACTORS
330
17
102
}
330
17
100
AcDbMlineStyle
  2
STANDARD
 70
     0
  3

 62
   256
 51
90.0
 52
90.0
 71
     2
 49
0.5
 62
   256
  6
BYLAYER
 49
-0.5
 62
   256
  6
BYLAYER
  0
ACDBPLACEHOLDER
  5
F
102
{ACAD_REACTORS
330
E
102
}
330
E
100
AcDbPlaceHolder
280
     0
  0
DICTIONARYVAR
  5
35
102
{ACAD_REACTORS
330
34
102
}
330
34
100
DictionaryVariables
280
     0
  1
1
  0
DICTIONARYVAR
  5
B5E
102
{ACAD_REACTORS
330
34
102
}
330
34
100
DictionaryVariables
280
     0
  1
96
  0
DICTIONARY
  5
260
102
{ACAD_REACTORS
330
43
102
}
330
43
100
AcDbDictionary
  0
DICTIONARY
  5
2C
102
{ACAD_REACTORS
330
2B
102
}
330
2B
100
AcDbDictionary
  3
DWGSETTINGS
350
2D
  0
XRECORD
  5
723A
102
{ACAD_REACTORS
330
7239
102
}
330
7239
100
AcDbXrecord
 90
        1
  0
XRECORD
  5
723B
102
{ACAD_REACTORS
330
7239
102
}
330
7239
100
AcDbXrecord
 90
       70
  0
XRECORD
  5
723C
102
{ACAD_REACTORS
330
7239
102
}
330
7239
100
AcDbXrecord
  1

  0
XRECORD
  5
723D
102
{ACAD_REACTORS
330
7239
102
}
330
7239
100
AcDbXrecord
  1
ASAMI.ctb
  0
XRECORD
  5
723E
102
{ACAD_REACTORS
330
7239
102
}
330
7239
100
AcDbXrecord
340
1A
  0
XRECORD
  5
723F
102
{ACAD_REACTORS
330
7239
102
}
330
7239
100
AcDbXrecord
340
19
  0
XRECORD
  5
7240
102
{ACAD_REACTORS
330
7239
102
}
330
7239
100
AcDbXrecord
340
E
  0
XRECORD
  5
7241
102
{ACAD_REACTORS
330
7239
102
}
330
7239
100
AcDbXrecord
 90
    10781
  0
XRECORD
  5
7242
102
{ACAD_REACTORS
330
7239
102
}
330
7239
100
AcDbXrecord
 90
        4
  0
XRECORD
  5
7243
102
{ACAD_REACTORS
330
7239
102
}
330
7239
100
AcDbXrecord
 90
        0
  0
XRECORD
  5
7244
102
{ACAD_REACTORS
330
7239
102
}
330
7239
100
AcDbXrecord
  1
{AFB28963-8C59-40AE-9337-C84526B81ACE}
  0
XRECORD
  5
7245
102
{ACAD_REACTORS
330
7239
102
}
330
7239
100
AcDbXrecord
  1
{11291D28-8092-4DEF-B30A-AC20A22FF353}
  0
XRECORD
  5
7246
102
{ACAD_REACTORS
330
7239
102
}
330
7239
100
AcDbXrecord
 40
0.0
  0
XRECORD
  5
7247
102
{ACAD_REACTORS
330
7239
102
}
330
7239
100
AcDbXrecord
1000
DSTYLE
1002
{
1070
    79
 70
     2
1070
   341
340
59
1070
   342
340
59
1070
   371
 70
    -1
1070
   372
 70
    -1
1002
}
  0
XRECORD
  5
7248
102
{ACAD_REACTORS
330
7239
102
}
330
7239
100
AcDbXrecord
340
0
  0
XRECORD
  5
7249
102
{ACAD_REACTORS
330
7239
102
}
330
7239
100
AcDbXrecord
 70
     0
  0
XRECORD
  5
724A
102
{ACAD_REACTORS
330
7239
102
}
330
7239
100
AcDbXrecord
340
0
  0
XRECORD
  5
724B
102
{ACAD_REACTORS
330
7239
102
}
330
7239
100
AcDbXrecord
 10
0.0
 20
0.0
 30
0.0
  0
XRECORD
  5
724C
102
{ACAD_REACTORS
330
7239
102
}
330
7239
100
AcDbXrecord
 10
0.0
 20
0.0
 30
0.0
  0
XRECORD
  5
724D
102
{ACAD_REACTORS
330
7239
102
}
330
7239
100
AcDbXrecord
 10
0.0
 20
0.0
 30
0.0
  0
XRECORD
  5
724E
102
{ACAD_REACTORS
330
7239
102
}
330
7239
100
AcDbXrecord
 10
0.0
 20
0.0
 30
0.0
  0
XRECORD
  5
724F
102
{ACAD_REACTORS
330
7239
102
}
330
7239
100
AcDbXrecord
 10
0.0
 20
0.0
 30
0.0
  0
XRECORD
  5
7250
102
{ACAD_REACTORS
330
7239
102
}
330
7239
100
AcDbXrecord
 10
0.0
 20
0.0
 30
0.0
  0
XRECORD
  5
7251
102
{ACAD_REACTORS
330
7239
102
}
330
7239
100
AcDbXrecord
340
0
  0
XRECORD
  5
7252
102
{ACAD_REACTORS
330
7239
102
}
330
7239
100
AcDbXrecord
 70
     0
  0
XRECORD
  5
7253
102
{ACAD_REACTORS
330
7239
102
}
330
7239
100
AcDbXrecord
340
0
  0
XRECORD
  5
7254
102
{ACAD_REACTORS
330
7239
102
}
330
7239
100
AcDbXrecord
 10
0.0
 20
0.0
 30
0.0
  0
XRECORD
  5
7255
102
{ACAD_REACTORS
330
7239
102
}
330
7239
100
AcDbXrecord
 10
0.0
 20
0.0
 30
0.0
  0
XRECORD
  5
7256
102
{ACAD_REACTORS
330
7239
102
}
330
7239
100
AcDbXrecord
 10
0.0
 20
0.0
 30
0.0
  0
XRECORD
  5
7257
102
{ACAD_REACTORS
330
7239
102
}
330
7239
100
AcDbXrecord
 10
0.0
 20
0.0
 30
0.0
  0
XRECORD
  5
7258
102
{ACAD_REACTORS
330
7239
102
}
330
7239
100
AcDbXrecord
 10
0.0
 20
0.0
 30
0.0
  0
XRECORD
  5
7259
102
{ACAD_REACTORS
330
7239
102
}
330
7239
100
AcDbXrecord
 10
0.0
 20
0.0
 30
0.0
  0
LAYER_INDEX
  5
722D
102
{ACAD_REACTORS
330
722C
102
}
330
722C
100
AcDbIndex
 40
2453151.538895382
100
AcDbLayerIndex
  8
0
360
722E
 90
        0
  8
AM_0
360
722F
 90
        1
  8
AM_11
360
7230
 90
        0
  8
AM_7
360
7231
 90
        0
  8
AM_5
360
7232
 90
        5
  8
Defpoints
360
7233
 90
        0
  8
AM_6
360
7234
 90
        2
  8
AM_CL
360
7235
 90
        0
  8
PV0001_1
360
7236
 90
      290
  8
AM_1
360
7237
 90
        0
  0
XRECORD
  5
2D
102
{ACAD_REACTORS
330
2C
102
}
330
2C
100
AcDbXrecord
  1
VERSION
140
15.0
  1
PRODUCT
  2
AutoCAD Mechanical 2000
  0
IDBUFFER
  5
722E
330
0
100
AcDbIdBuffer
  0
IDBUFFER
  5
722F
330
0
100
AcDbIdBuffer
330
6F5A
  0
IDBUFFER
  5
7230
330
0
100
AcDbIdBuffer
  0
IDBUFFER
  5
7231
330
0
100
AcDbIdBuffer
  0
IDBUFFER
  5
7232
330
0
100
AcDbIdBuffer
330
6574
330
70F9
330
70FA
330
720F
330
7211
  0
IDBUFFER
  5
7233
330
0
100
AcDbIdBuffer
  0
IDBUFFER
  5
7234
330
0
100
AcDbIdBuffer
330
C58
330
6B28
  0
IDBUFFER
  5
7235
330
0
100
AcDbIdBuffer
  0
IDBUFFER
  5
7236
330
0
100
AcDbIdBuffer
330
6E2A
330
6E2B
330
6E2C
330
6E2D
330
6E2E
330
6E2F
330
6E30
330
6E32
330
6E33
330
6E34
330
6E35
330
6E36
330
6E37
330
6E38
330
6E39
330
6E3A
330
6E3B
330
6E3C
330
6E3D
330
6E3E
330
6E3F
330
6E40
330
6E41
330
6E42
330
6E43
330
6E44
330
6E45
330
6E46
330
6E47
330
6E48
330
6E49
330
6E4A
330
6E4B
330
6E4C
330
6E4D
330
6E4E
330
6E4F
330
6E50
330
6E51
330
6E53
330
6E54
330
6E55
330
6E56
330
6E5A
330
6E5E
330
6E5F
330
6E60
330
6E61
330
709D
330
71A7
330
6D30
330
6D33
330
6D35
330
6D36
330
6D37
330
6D38
330
6D39
330
6D3A
330
6D3B
330
6D3D
330
6D3E
330
6D3F
330
6D40
330
6D41
330
6D42
330
6D43
330
6D44
330
6D45
330
6D46
330
6D47
330
6D48
330
6D49
330
6D4A
330
6D4B
330
6D4C
330
6D4D
330
6D4E
330
6D4F
330
6D50
330
6D51
330
6D52
330
6D53
330
6D54
330
6D55
330
6D56
330
6D57
330
6D58
330
6D59
330
6D5A
330
6D5B
330
6D5C
330
6D5D
330
6D5E
330
6D5F
330
6D60
330
6D61
330
6D62
330
6D63
330
6D64
330
6D65
330
6D66
330
6D67
330
6D68
330
6D69
330
6D6A
330
6D6B
330
6D6C
330
6D6D
330
6D6E
330
6D6F
330
6D70
330
6D71
330
6D72
330
6D73
330
6D74
330
6D75
330
6D76
330
6D77
330
6D78
330
6D79
330
6D7A
330
6D7B
330
6D7C
330
6D7D
330
6D7E
330
6D7F
330
6D80
330
6D81
330
6D82
330
6D83
330
6D84
330
6D85
330
6D86
330
6D87
330
6D88
330
6D89
330
6D8A
330
6D8B
330
6D8C
330
6D8D
330
6D8E
330
6D8F
330
6D90
330
6D91
330
6D92
330
6D93
330
6D94
330
6D95
330
6D96
330
6D97
330
6D99
330
6D9A
330
6D9B
330
6D9C
330
6D9D
330
6D9E
330
6D9F
330
6DA0
330
6DA1
330
6DA2
330
6DA3
330
6DA4
330
6DA5
330
6DA6
330
6DA7
330
6DA8
330
6DA9
330
6DAA
330
6DAB
330
6DAC
330
6DAD
330
6DAE
330
6DAF
330
6DB0
330
6DB1
330
6DB2
330
6DB3
330
6DB4
330
6DB5
330
6DB6
330
6DB7
330
6DB8
330
6DB9
330
6DBA
330
6DBB
330
6DBC
330
6DBD
330
6DBE
330
6DBF
330
6DC0
330
6DC1
330
6DC2
330
6DC3
330
6DC4
330
6DC5
330
6DC6
330
6DC7
330
6DC8
330
6DC9
330
6DCA
330
6DCB
330
6DCC
330
6DCD
330
6DCE
330
6DCF
330
6DD0
330
6DD1
330
6DD2
330
6DD3
330
6DD4
330
6DD5
330
6DD6
330
6DD7
330
6DD8
330
6DD9
330
6DDA
330
6DDB
330
6DDC
330
6DDD
330
6DDE
330
6DDF
330
6DE0
330
6DE1
330
6DE2
330
6DE3
330
6DE4
330
6DE5
330
6DE6
330
6DE7
330
6DE8
330
6DE9
330
6DEA
330
6DEB
330
6DEC
330
6DED
330
6DEE
330
6DEF
330
6DF0
330
6DF2
330
6DF3
330
6DF5
330
6DF6
330
6DF7
330
6DF8
330
6DF9
330
6DFA
330
6DFB
330
6DFC
330
6DFD
330
6DFE
330
6DFF
330
6E01
330
6E03
330
6E04
330
6E05
330
6E06
330
6E07
330
6E08
330
6E09
330
6E0A
330
6E0B
330
6E0C
330
6E0D
330
6E0E
330
6E0F
330
6E10
330
6E11
330
6E12
330
6E13
330
6E14
330
6E15
330
6E16
330
6E17
330
6E18
330
6E1A
330
6E1B
330
6E1C
330
6E1D
330
6E1E
330
6E1F
330
6E20
330
6E21
330
6E22
330
6E23
330
6E24
330
6E25
330
6E26
330
6E27
330
6E28
330
6E29
  0
IDBUFFER
  5
7237
330
0
100
AcDbIdBuffer
  0
ENDSEC
  0
EOF
