  0
SECTION
  2
HEADER
  9
$ACADVER
  1
AC1015
  9
$ACADMAINTVER
 70
     6
  9
$DWGCODEPAGE
  3
ANSI_932
  9
$INSBASE
 10
0.0
 20
0.0
 30
0.0
  9
$EXTMIN
 10
-68.16232915425641
 20
-94.75121376840725
 30
0.0
  9
$EXTMAX
 10
184.764806483653
 20
35.69659887874113
 30
0.0
  9
$LIMMIN
 10
0.0
 20
0.0
  9
$LIMMAX
 10
400.0
 20
273.0
  9
$ORTHOMODE
 70
     0
  9
$REGENMODE
 70
     1
  9
$FILLMODE
 70
     1
  9
$QTEXTMODE
 70
     0
  9
$MIRRTEXT
 70
     1
  9
$LTSCALE
 40
1.0
  9
$ATTMODE
 70
     1
  9
$TEXTSIZE
 40
3.0
  9
$TRACEWID
 40
0.5
  9
$TEXTSTYLE
  7
STANDARD
  9
$CLAYER
  8
0
  9
$CELTYPE
  6
ByLayer
  9
$CECOLOR
 62
   256
  9
$CELTSCALE
 40
1.0
  9
$DISPSILH
 70
     0
  9
$DIMSCALE
 40
1.0
  9
$DIMASZ
 40
3.0
  9
$DIMEXO
 40
1.0
  9
$DIMDLI
 40
5.0
  9
$DIMRND
 40
0.0
  9
$DIMDLE
 40
3.0
  9
$DIMEXE
 40
2.0
  9
$DIMTP
 40
0.0
  9
$DIMTM
 40
0.0
  9
$DIMTXT
 40
5.0
  9
$DIMCEN
 40
2.0
  9
$DIMTSZ
 40
0.0
  9
$DIMTOL
 70
     0
  9
$DIMLIM
 70
     0
  9
$DIMTIH
 70
     0
  9
$DIMTOH
 70
     0
  9
$DIMSE1
 70
     0
  9
$DIMSE2
 70
     0
  9
$DIMTAD
 70
     1
  9
$DIMZIN
 70
     8
  9
$DIMBLK
  1

  9
$DIMASO
 70
     1
  9
$DIMSHO
 70
     0
  9
$DIMPOST
  1

  9
$DIMAPOST
  1

  9
$DIMALT
 70
     0
  9
$DIMALTD
 70
     4
  9
$DIMALTF
 40
25.4
  9
$DIMLFAC
 40
1.0
  9
$DIMTOFL
 70
     1
  9
$DIMTVP
 40
1.0
  9
$DIMTIX
 70
     0
  9
$DIMSOXD
 70
     0
  9
$DIMSAH
 70
     0
  9
$DIMBLK1
  1

  9
$DIMBLK2
  1

  9
$DIMSTYLE
  2
Standard
  9
$DIMCLRD
 70
     0
  9
$DIMCLRE
 70
     0
  9
$DIMCLRT
 70
     0
  9
$DIMTFAC
 40
1.0
  9
$DIMGAP
 40
0.09
  9
$DIMJUST
 70
     0
  9
$DIMSD1
 70
     0
  9
$DIMSD2
 70
     0
  9
$DIMTOLJ
 70
     1
  9
$DIMTZIN
 70
     0
  9
$DIMALTZ
 70
     0
  9
$DIMALTTZ
 70
     0
  9
$DIMUPT
 70
     0
  9
$DIMDEC
 70
     4
  9
$DIMTDEC
 70
     4
  9
$DIMALTU
 70
     2
  9
$DIMALTTD
 70
     2
  9
$DIMTXSTY
  7
STANDARD
  9
$DIMAUNIT
 70
     0
  9
$DIMADEC
 70
     0
  9
$DIMALTRND
 40
0.0
  9
$DIMAZIN
 70
     0
  9
$DIMDSEP
 70
    46
  9
$DIMATFIT
 70
     3
  9
$DIMFRAC
 70
     0
  9
$DIMLDRBLK
  1

  9
$DIMLUNIT
 70
     2
  9
$DIMLWD
 70
    -2
  9
$DIMLWE
 70
    -2
  9
$DIMTMOVE
 70
     0
  9
$LUNITS
 70
     2
  9
$LUPREC
 70
     4
  9
$SKETCHINC
 40
1.0
  9
$FILLETRAD
 40
0.0
  9
$AUNITS
 70
     0
  9
$AUPREC
 70
     0
  9
$MENU
  1
acad
  9
$ELEVATION
 40
0.0
  9
$PELEVATION
 40
0.0
  9
$THICKNESS
 40
0.0
  9
$LIMCHECK
 70
     0
  9
$CHAMFERA
 40
0.0
  9
$CHAMFERB
 40
0.0
  9
$CHAMFERC
 40
0.0
  9
$CHAMFERD
 40
0.0
  9
$SKPOLY
 70
     0
  9
$TDCREATE
 40
2454011.58556713
  9
$TDUCREATE
 40
2454011.21056713
  9
$TDUPDATE
 40
2455482.580362951
  9
$TDUUPDATE
 40
2455482.205362951
  9
$TDINDWG
 40
0.0491930903
  9
$TDUSRTIMER
 40
0.0491929051
  9
$USRTIMER
 70
     1
  9
$ANGBASE
 50
0.0
  9
$ANGDIR
 70
     0
  9
$PDMODE
 70
     0
  9
$PDSIZE
 40
0.0
  9
$PLINEWID
 40
0.0
  9
$SPLFRAME
 70
     0
  9
$SPLINETYPE
 70
     6
  9
$SPLINESEGS
 70
    16
  9
$HANDSEED
  5
6E5
  9
$SURFTAB1
 70
     6
  9
$SURFTAB2
 70
     6
  9
$SURFTYPE
 70
     6
  9
$SURFU
 70
     6
  9
$SURFV
 70
     6
  9
$UCSBASE
  2

  9
$UCSNAME
  2

  9
$UCSORG
 10
0.0
 20
0.0
 30
0.0
  9
$UCSXDIR
 10
1.0
 20
0.0
 30
0.0
  9
$UCSYDIR
 10
0.0
 20
1.0
 30
0.0
  9
$UCSORTHOREF
  2

  9
$UCSORTHOVIEW
 70
     0
  9
$UCSORGTOP
 10
0.0
 20
0.0
 30
0.0
  9
$UCSORGBOTTOM
 10
0.0
 20
0.0
 30
0.0
  9
$UCSORGLEFT
 10
0.0
 20
0.0
 30
0.0
  9
$UCSORGRIGHT
 10
0.0
 20
0.0
 30
0.0
  9
$UCSORGFRONT
 10
0.0
 20
0.0
 30
0.0
  9
$UCSORGBACK
 10
0.0
 20
0.0
 30
0.0
  9
$PUCSBASE
  2

  9
$PUCSNAME
  2

  9
$PUCSORG
 10
0.0
 20
0.0
 30
0.0
  9
$PUCSXDIR
 10
1.0
 20
0.0
 30
0.0
  9
$PUCSYDIR
 10
0.0
 20
1.0
 30
0.0
  9
$PUCSORTHOREF
  2

  9
$PUCSORTHOVIEW
 70
     0
  9
$PUCSORGTOP
 10
0.0
 20
0.0
 30
0.0
  9
$PUCSORGBOTTOM
 10
0.0
 20
0.0
 30
0.0
  9
$PUCSORGLEFT
 10
0.0
 20
0.0
 30
0.0
  9
$PUCSORGRIGHT
 10
0.0
 20
0.0
 30
0.0
  9
$PUCSORGFRONT
 10
0.0
 20
0.0
 30
0.0
  9
$PUCSORGBACK
 10
0.0
 20
0.0
 30
0.0
  9
$USERI1
 70
     0
  9
$USERI2
 70
     0
  9
$USERI3
 70
     0
  9
$USERI4
 70
     0
  9
$USERI5
 70
     0
  9
$USERR1
 40
0.0
  9
$USERR2
 40
0.0
  9
$USERR3
 40
0.0
  9
$USERR4
 40
0.0
  9
$USERR5
 40
0.0
  9
$WORLDVIEW
 70
     1
  9
$SHADEDGE
 70
     3
  9
$SHADEDIF
 70
    70
  9
$TILEMODE
 70
     1
  9
$MAXACTVP
 70
    64
  9
$PINSBASE
 10
0.0
 20
0.0
 30
0.0
  9
$PLIMCHECK
 70
     0
  9
$PEXTMIN
 10
1.000000000000000E+20
 20
1.000000000000000E+20
 30
1.000000000000000E+20
  9
$PEXTMAX
 10
-1.000000000000000E+20
 20
-1.000000000000000E+20
 30
-1.000000000000000E+20
  9
$PLIMMIN
 10
0.0
 20
0.0
  9
$PLIMMAX
 10
12.0
 20
9.0
  9
$UNITMODE
 70
     0
  9
$VISRETAIN
 70
     1
  9
$PLINEGEN
 70
     0
  9
$PSLTSCALE
 70
     1
  9
$TREEDEPTH
 70
  3020
  9
$CMLSTYLE
  2
Standard
  9
$CMLJUST
 70
     0
  9
$CMLSCALE
 40
1.0
  9
$PROXYGRAPHICS
 70
     1
  9
$MEASUREMENT
 70
     0
  9
$CELWEIGHT
370
    -1
  9
$ENDCAPS
280
     0
  9
$JOINSTYLE
280
     0
  9
$LWDISPLAY
290
     0
  9
$INSUNITS
 70
     0
  9
$HYPERLINKBASE
  1

  9
$STYLESHEET
  1
sei_cad.ctb
  9
$XEDIT
290
     1
  9
$CEPSNTYPE
380
     0
  9
$PSTYLEMODE
290
     1
  9
$FINGERPRINTGUID
  2
{DFE52A82-137A-49A0-8228-E17F21F3E3EE}
  9
$VERSIONGUID
  2
{971F5E42-4176-4AE9-8B30-9B30DB80D408}
  9
$EXTNAMES
290
     1
  9
$PSVPSCALE
 40
0.0
  9
$OLESTARTUP
290
     0
  0
ENDSEC
  0
SECTION
  2
CLASSES
  0
CLASS
  1
ACDBDICTIONARYWDFLT
  2
AcDbDictionaryWithDefault
  3
ObjectDBX Classes
 90
        0
280
     0
281
     0
  0
CLASS
  1
TABLESTYLE
  2
AcDbTableStyle
  3
ObjectDBX Classes
 90
     2047
280
     0
281
     0
  0
CLASS
  1
AMGSETTINGSOBJ
  2
AmgSettingsObj
  3
"AcadM|Product Description: AutoCAD Mechanical 2000|Company: Autodesk"
 90
        0
280
     1
281
     0
  0
CLASS
  1
ACME_DOCUMENT
  2
AcMeDbDoc
  3
AcMeServices
 90
        0
280
     1
281
     0
  0
CLASS
  1
ACMESCOPE
  2
AcMeScope
  3
AcMeServices
 90
        0
280
     1
281
     0
  0
CLASS
  1
ACMECOMMANDHISTORY
  2
AcMeCommandHistory
  3
AcMeServices
 90
        0
280
     1
281
     0
  0
CLASS
  1
ACIMSYSVARMAN
  2
AcImSysVarManager
  3
AcMeServices
 90
        0
280
     1
281
     0
  0
CLASS
  1
ACIMINTSYSVAR
  2
AcImIntSysVar
  3
AcMeServices
 90
        0
280
     1
281
     0
  0
CLASS
  1
ACMEDRAWINGMAN
  2
AcMeDrawingMan
  3
AcMeServices
 90
        0
280
     1
281
     0
  0
CLASS
  1
ACMEVIEW
  2
AcMeView
  3
AcMeServices
 90
        0
280
     1
281
     0
  0
CLASS
  1
ACDBENTITYCACHE
  2
AcMeEntityCache
  3
AcMeServices
 90
        0
280
     1
281
     0
  0
CLASS
  1
GSMANAGER
  2
AcMeGSManager
  3
AcMeServices
 90
        0
280
     1
281
     0
  0
CLASS
  1
AMDTINTERNALREACTOR
  2
AmdtInternalReactor
  3
AcMeServices
 90
        0
280
     1
281
     0
  0
CLASS
  1
ACMESTATEMGR
  2
AcMeStateMgr
  3
AcMeServices
 90
        0
280
     1
281
     0
  0
CLASS
  1
ACGREFMASTER
  2
AcGrefMaster
  3
AcAttribServices
 90
        0
280
     1
281
     0
  0
CLASS
  1
AM_DRAWING_MGR
  2
AcDmDwgMgr
  3
AcMechDwgViewMgmt
 90
        0
280
     1
281
     0
  0
CLASS
  1
AM_DWG_DOCUMENT
  2
AcDmDwgDocument
  3
AcMechDwgViewMgmt
 90
        0
280
     1
281
     0
  0
CLASS
  1
AM_DWG_SHEET
  2
AcDmSheet
  3
AcMechDwgViewMgmt
 90
        0
280
     1
281
     0
  0
CLASS
  1
AM_VIEWDIMPARMAP
  2
AcDmViewDimParMap
  3
AcMechDwgViewMgmt
 90
        0
280
     1
281
     0
  0
CLASS
  1
ACIMREALSYSVAR
  2
AcImRealSysVar
  3
AcMeServices
 90
        0
280
     1
281
     0
  0
CLASS
  1
AM_DWGMGR_NAME
  2
AcDmDwgMgrName
  3
AcMechDwgViewMgmt
 90
        0
280
     1
281
     0
  0
CLASS
  1
ACME_DATABASE
  2
AcMeDbDatabase
  3
AcMeServices
 90
        0
280
     1
281
     0
  0
CLASS
  1
ACRFINSADJUSTERMGR
  2
AcRfInsAdjusterMgr
  3
AcMeServices
 90
        0
280
     1
281
     0
  0
CLASS
  1
ACGREFACADMASTER
  2
AcGrefacadMaster
  3
AcGrefServices
 90
        0
280
     1
281
     0
  0
CLASS
  1
AMDTMENUSTATEMGR
  2
AmdtMenuStateMgr
  3
McadcomServices
 90
        0
280
     1
281
     0
  0
CLASS
  1
AMDTMCOMMENUSTATE
  2
AmdtMcomMenuState
  3
McadcomServices
 90
        0
280
     1
281
     0
  0
CLASS
  1
AMIMASTER
  2
AmiMaster
  3
AmiServices
 90
        0
280
     1
281
     0
  0
CLASS
  1
MAPIAMMOUDLE
  2
MApiAmModule
  3
MApiAmServices
 90
        0
280
     1
281
     0
  0
CLASS
  1
AMDTADMENUSTATE
  2
AmdtAdMenuState
  3
DesignerServices
 90
        0
280
     1
281
     0
  0
CLASS
  1
ADAPPL
  2
AcAdAppl
  3
DesignerServices
 90
        0
280
     1
281
     0
  0
CLASS
  1
DEPMGR
  2
AcAdDepMgr
  3
DesignerServices
 90
        0
280
     1
281
     0
  0
CLASS
  1
PARAMMGR
  2
AcAdParamMgr
  3
DesignerServices
 90
        0
280
     1
281
     0
  0
CLASS
  1
PARAMSCOPE
  2
AcAdParamScope
  3
DesignerServices
 90
        0
280
     1
281
     0
  0
CLASS
  1
NAMEDAPPL
  2
AcAdNamedAppl
  3
DesignerServices
 90
        0
280
     1
281
     0
  0
CLASS
  1
AMDTDMMENUSTATE
  2
AmdtDmMenuState
  3
AcMechDwgViewMgmt
 90
        0
280
     1
281
     0
  0
CLASS
  1
AMDTAMMENUSTATE
  2
AmdtAmMenuState
  3
DesignerAssemblies
 90
        0
280
     1
281
     0
  0
CLASS
  1
ACIMSTRSYSVAR
  2
AcImStrSysVar
  3
AcMeServices
 90
        0
280
     1
281
     0
  0
CLASS
  1
ACAMPROJECT
  2
AcAmProject
  3
DesignerAssemblies
 90
        0
280
     1
281
     0
  0
CLASS
  1
ACAMGRCOMPDEF
  2
AcAmGrCompDef
  3
DesignerAssemblies
 90
        0
280
     1
281
     0
  0
CLASS
  1
ACCMCONTEXT
  2
AcCmContext
  3
DesignerAssemblies
 90
        0
280
     1
281
     0
  0
CLASS
  1
ACAMCOMPDEF
  2
AcAmCompDef
  3
DesignerAssemblies
 90
        0
280
     1
281
     0
  0
CLASS
  1
ACAMCOMPDEFMGR
  2
AcAmCompDefMgr
  3
DesignerAssemblies
 90
        0
280
     1
281
     0
  0
CLASS
  1
AMCONTEXTMGR
  2
AcAmContextMgr
  3
DesignerAssemblies
 90
        0
280
     1
281
     0
  0
CLASS
  1
ACAMCONTEXTMODELER
  2
AcAmContextModeler
  3
DesignerAssemblies
 90
        0
280
     1
281
     0
  0
CLASS
  1
ACMDATADICTIONARY
  2
AcmDataDictionary
  3
"AcmSymBB|Product Description: AutoCAD Mechanical 2004 DX|Company: Autodesk"
 90
        0
280
     1
281
     0
  0
CLASS
  1
CATALOGSTATE
  2
AcAmCatalogState
  3
DesignerAssemblies
 90
        0
280
     1
281
     0
  0
CLASS
  1
ACAMGRCOMPDEFSET
  2
AcAmGrCompDefSet
  3
DesignerAssemblies
 90
        0
280
     1
281
     0
  0
CLASS
  1
AMDTBROWSERDBTAB
  2
AmdtBrowserDbTab
  3
McadcomServices
 90
        0
280
     1
281
     0
  0
CLASS
  1
CBROWSERAPPOBJECT
  2
CBrowserAppObject
  3
McadcomServices
 90
        0
280
     1
281
     0
  0
CLASS
  1
DM_PLACEHOLDER
  2
AcDmSelsetPlaceholder
  3
AcMechDwgViewMgmt
 90
        0
280
     1
281
     0
  0
CLASS
  1
ACMSTANDARDANSI
  2
AcmStandardANSI
  3
"Amdt_StdImp|Product Description: AutoCAD Mechanical 2004 DX|Company: Autodesk"
 90
        0
280
     1
281
     0
  0
CLASS
  1
AMGOBJPROPCFG
  2
AmgObjPropCfg
  3
"AmgLay|Product Description: AutoCAD Mechanical 2000|Company: Autodesk"
 90
        1
280
     1
281
     0
  0
CLASS
  1
ACMSURFSTANDARDANSI
  2
AcmSurfTextStdANSI
  3
"Amdt_StdImp|Product Description: AutoCAD Mechanical 2004 DX|Company: Autodesk"
 90
        0
280
     1
281
     0
  0
CLASS
  1
ACMFCFSTANDARDANSI
  2
AcmFCFStdANSI
  3
"Amdt_StdImp|Product Description: AutoCAD Mechanical 2004 DX|Company: Autodesk"
 90
        0
280
     1
281
     0
  0
CLASS
  1
ACMWELDSTANDARDANSI
  2
AcmWeldingStdANSI
  3
"Amdt_StdImp|Product Description: AutoCAD Mechanical 2004 DX|Company: Autodesk"
 90
        0
280
     1
281
     0
  0
CLASS
  1
ACMIDSTANDARDANSI
  2
AcmIdStdANSI
  3
"Amdt_StdImp|Product Description: AutoCAD Mechanical 2004 DX|Company: Autodesk"
 90
        0
280
     1
281
     0
  0
CLASS
  1
ACMDATUMSTANDARDANSI
  2
AcmDatumStdANSI
  3
"Amdt_StdImp|Product Description: AutoCAD Mechanical 2004 DX|Company: Autodesk"
 90
        0
280
     1
281
     0
  0
CLASS
  1
ACMBOMSTANDARDANSI
  2
AcmBOMStdANSI
  3
"Amdt_StdImp|Product Description: AutoCAD Mechanical 2004 DX|Company: Autodesk"
 90
        0
280
     1
281
     0
  0
CLASS
  1
ACMDETAILSTANDARDANSI
  2
AmdtDetailSymStdANSI
  3
"Amdt_StdImp|Product Description: AutoCAD Mechanical 2004 DX|Company: Autodesk"
 90
        0
280
     1
281
     0
  0
CLASS
  1
ACMSECTIONSTANDARDANSI
  2
AmdtSectionSymStdANSI
  3
"Amdt_StdImp|Product Description: AutoCAD Mechanical 2004 DX|Company: Autodesk"
 90
        0
280
     1
281
     0
  0
CLASS
  1
ACMCENTERLINESTANDARDANSI
  2
AmdtCenterLineStdANSI
  3
"Amdt_StdImp|Product Description: AutoCAD Mechanical 2004 DX|Company: Autodesk"
 90
        0
280
     1
281
     0
  0
CLASS
  1
ACMTHREADLINESTANDARDANSI
  2
AmdtThreadLineStdANSI
  3
"Amdt_StdImp|Product Description: AutoCAD Mechanical 2004 DX|Company: Autodesk"
 90
        0
280
     1
281
     0
  0
CLASS
  1
ACMNOTESTANDARDANSI
  2
AmdtNoteStdANSI
  3
"Amdt_StdImp|Product Description: AutoCAD Mechanical 2004 DX|Company: Autodesk"
 90
        0
280
     1
281
     0
  0
CLASS
  1
AMDTNOTETEMPLATEDB
  2
AmdtNoteTemplateDB
  3
AMDT_STDIMP_MODULE_NAME
 90
        0
280
     1
281
     0
  0
CLASS
  1
ACAMGLAYSTD
  2
AcAmgLayStd
  3
"AcAmgLayStd|Product Description: AutoCAD Mechanical 2000|Company: Autodesk"
 90
        0
280
     1
281
     0
  0
CLASS
  1
ACAMGDIMSTD
  2
AcAmgDimStd
  3
"AcAmgDimStd|Product Description: AutoCAD Mechanical 2000|Company: Autodesk"
 90
        0
280
     1
281
     0
  0
CLASS
  1
ACAMGHOLECHARTSTDANSI
  2
AcAmgHoleChartStdANSI
  3
ACMSYMBB_MODULE_NAME
 90
        0
280
     1
281
     0
  0
CLASS
  1
ACAMGTITLESTD
  2
AcAmgTitleStd
  3
"TITLEAPP"
 90
        0
280
     1
281
     0
  0
CLASS
  1
ACAMGFILTERDAT
  2
AcAmgFilterDat
  3
"AcadM|Product Description: AutoCAD Mechanical 2000|Company: Autodesk"
 90
        0
280
     1
281
     0
  0
CLASS
  1
DICTIONARYVAR
  2
AcDbDictionaryVar
  3
ObjectDBX Classes
 90
        0
280
     0
281
     0
  0
CLASS
  1
ACMDATAENTRYBLOCK
  2
AcmDataEntryBlock
  3
"AcmSymBB|Product Description: AutoCAD Mechanical 2004 DX|Company: Autodesk"
 90
        0
280
     1
281
     0
  0
CLASS
  1
ACDBPLACEHOLDER
  2
AcDbPlaceHolder
  3
ObjectDBX Classes
 90
        0
280
     0
281
     0
  0
CLASS
  1
LAYOUT
  2
AcDbLayout
  3
ObjectDBX Classes
 90
        0
280
     0
281
     0
  0
ENDSEC
  0
SECTION
  2
TABLES
  0
TABLE
  2
VPORT
  5
8
330
0
100
AcDbSymbolTable
 70
     3
  0
VPORT
  5
6DF
330
8
100
AcDbSymbolTableRecord
100
AcDbViewportTableRecord
  2
*Active
 70
     0
 10
0.0
 20
0.0
 11
1.0
 21
1.0
 12
80.32210042332159
 22
-29.52195695510829
 13
0.0
 23
0.0
 14
0.5
 24
0.5
 15
0.0
 25
0.0
 16
0.0
 26
0.0
 36
1.0
 17
0.0
 27
0.0
 37
0.0
 40
185.4054242334996
 41
1.610603290676417
 42
50.0
 43
0.0
 44
0.0
 50
0.0
 51
0.0
 71
     0
 72
 10000
 73
     1
 74
     1
 75
     0
 76
     0
 77
     0
 78
     0
281
     0
 65
     1
110
0.0
120
0.0
130
0.0
111
1.0
121
0.0
131
0.0
112
0.0
122
1.0
132
0.0
 79
     0
146
0.0
  0
ENDTAB
  0
TABLE
  2
LTYPE
  5
5
330
0
100
AcDbSymbolTable
 70
    11
  0
LTYPE
  5
13
330
5
100
AcDbSymbolTableRecord
100
AcDbLinetypeTableRecord
  2
ByBlock
 70
     0
  3

 72
    65
 73
     0
 40
0.0
  0
LTYPE
  5
14
330
5
100
AcDbSymbolTableRecord
100
AcDbLinetypeTableRecord
  2
ByLayer
 70
     0
  3

 72
    65
 73
     0
 40
0.0
  0
LTYPE
  5
15
330
5
100
AcDbSymbolTableRecord
100
AcDbLinetypeTableRecord
  2
CONTINUOUS
 70
     0
  3
solid line
 72
    65
 73
     0
 40
0.0
  0
LTYPE
  5
27
330
5
100
AcDbSymbolTableRecord
100
AcDbLinetypeTableRecord
  2
DASHED
 70
     0
  3
-- -- -- -- -- -- -- -- -- -- 
 72
    65
 73
     2
 40
3.0
 49
2.0
 74
     0
 49
-1.0
 74
     0
  0
LTYPE
  5
28
330
5
100
AcDbSymbolTableRecord
100
AcDbLinetypeTableRecord
  2
CENTER
 70
     0
  3
--- - --- - --- - --- - --- - 
 72
    65
 73
     4
 40
6.0
 49
3.0
 74
     0
 49
-1.0
 74
     0
 49
1.0
 74
     0
 49
-1.0
 74
     0
  0
LTYPE
  5
249
330
5
100
AcDbSymbolTableRecord
100
AcDbLinetypeTableRecord
  2
HIDDEN
 70
     0
  3
Hidden __ __ __ __ __ __ __ __ __ __ __ __ __ _
 72
    65
 73
     2
 40
0.375
 49
0.25
 74
     0
 49
-0.125
 74
     0
  0
LTYPE
  5
24A
330
5
100
AcDbSymbolTableRecord
100
AcDbLinetypeTableRecord
  2
PHANTOM2
 70
     0
  3
Phantom (.5x) ___ _ _ ___ _ _ ___ _ _ ___ _ _
 72
    65
 73
     6
 40
1.25
 49
0.625
 74
     0
 49
-0.125
 74
     0
 49
0.125
 74
     0
 49
-0.125
 74
     0
 49
0.125
 74
     0
 49
-0.125
 74
     0
  0
LTYPE
  5
281
330
5
100
AcDbSymbolTableRecord
100
AcDbLinetypeTableRecord
  2
Amconstr
 70
     0
  3
_______________________
 72
    65
 73
     2
 40
9999.0
 49
9999.0
 74
     0
 49
0.0
 74
     0
  0
LTYPE
  5
287
330
5
100
AcDbSymbolTableRecord
100
AcDbLinetypeTableRecord
  2
CENTER2
 70
     0
  3
Center (.5x) ___ _ ___ _ ___ _ ___ _ ___ _ ___
 72
    65
 73
     4
 40
1.125
 49
0.75
 74
     0
 49
-0.125
 74
     0
 49
0.125
 74
     0
 49
-0.125
 74
     0
  0
LTYPE
  5
288
330
5
100
AcDbSymbolTableRecord
100
AcDbLinetypeTableRecord
  2
HIDDEN2
 70
     0
  3
Hidden (.5x) _ _ _ _ _ _ _ _ _ _ _ _ _ _ _ _ _
 72
    65
 73
     2
 40
0.1875
 49
0.125
 74
     0
 49
-0.0625
 74
     0
  0
LTYPE
  5
289
330
5
100
AcDbSymbolTableRecord
100
AcDbLinetypeTableRecord
  2
Amzigzag2
 70
     0
  3
/\/-/\/-/\/-/\/-/\/-/\/
 72
    65
 73
     2
 40
0.4401
 49
0.0001
 74
     4
 75
   135
340
285
 46
0.0016
 50
0.0
 44
0.0
 45
0.0
 49
-0.44
 74
     0
  0
LTYPE
  5
297
330
5
100
AcDbSymbolTableRecord
100
AcDbLinetypeTableRecord
  2
ACANSTGB
 70
     0
  3
__ . . __ . .
 72
    65
 73
     6
 40
0.35433070866
 49
0.15748031496
 74
     0
 49
-0.03937007874
 74
     0
 49
0.03937007874
 74
     0
 49
-0.03937007874
 74
     0
 49
0.03937007874
 74
     0
 49
-0.03937007874
 74
     0
  0
LTYPE
  5
298
330
5
100
AcDbSymbolTableRecord
100
AcDbLinetypeTableRecord
  2
ACANSTGL
 70
     0
  3
_ _ _ _ _
 72
    65
 73
     2
 40
0.11811023622
 49
0.07874015748
 74
     0
 49
-0.03937007874
 74
     0
  0
ENDTAB
  0
TABLE
  2
LAYER
  5
2
330
0
100
AcDbSymbolTable
 70
     6
  0
LAYER
  5
10
330
2
100
AcDbSymbolTableRecord
100
AcDbLayerTableRecord
  2
0
 70
     0
 62
     7
  6
CONTINUOUS
370
    -3
390
F
  0
LAYER
  5
2A
330
2
100
AcDbSymbolTableRecord
100
AcDbLayerTableRecord
  2
1
 70
     0
 62
     7
  6
CONTINUOUS
370
    -3
390
F
  0
LAYER
  5
2B
330
2
100
AcDbSymbolTableRecord
100
AcDbLayerTableRecord
  2
5
 70
     0
 62
     7
  6
CONTINUOUS
370
    -3
390
F
  0
LAYER
  5
2C
330
2
100
AcDbSymbolTableRecord
100
AcDbLayerTableRecord
  2
6
 70
     0
 62
     7
  6
CONTINUOUS
370
    -3
390
F
  0
LAYER
  5
30
330
2
100
AcDbSymbolTableRecord
100
AcDbLayerTableRecord
  2
DEFPOINTS
 70
     0
 62
    -7
  6
CONTINUOUS
290
     0
370
    -3
390
F
  0
LAYER
  5
311
330
2
100
AcDbSymbolTableRecord
100
AcDbLayerTableRecord
  2
AM_5
 70
     0
 62
     3
  6
CONTINUOUS
370
    15
390
F
  0
ENDTAB
  0
TABLE
  2
STYLE
  5
3
330
0
100
AcDbSymbolTable
 70
     4
  0
STYLE
  5
11
330
3
100
AcDbSymbolTableRecord
100
AcDbTextStyleTableRecord
  2
STANDARD
 70
     0
 40
0.0
 41
1.0
 50
0.0
 71
     0
 42
3.0
  3
txt
  4

  0
STYLE
  5
285
330
3
100
AcDbSymbolTableRecord
100
AcDbTextStyleTableRecord
  2

 70
     1
 40
0.0
 41
1.0
 50
0.0
 71
     0
 42
3.0
  3
ltypeshp.shx
  4

  0
STYLE
  5
28A
330
3
100
AcDbSymbolTableRecord
100
AcDbTextStyleTableRecord
  2
ACANSTS
 70
     0
 40
1.0
 41
1.0
 50
0.0
 71
     0
 42
3.0
  3
romans.shx
  4
extfont.shx
  0
STYLE
  5
296
330
3
100
AcDbSymbolTableRecord
100
AcDbTextStyleTableRecord
  2
ACANSGDT
 70
     0
 40
0.0
 41
1.0
 50
0.0
 71
     0
 42
3.0
  3
amgdtans.shx
  4

  0
ENDTAB
  0
TABLE
  2
VIEW
  5
6
330
0
100
AcDbSymbolTable
 70
     0
  0
ENDTAB
  0
TABLE
  2
UCS
  5
7
330
0
100
AcDbSymbolTable
 70
     0
  0
ENDTAB
  0
TABLE
  2
APPID
  5
9
330
0
100
AcDbSymbolTable
 70
    10
  0
APPID
  5
12
330
9
100
AcDbSymbolTableRecord
100
AcDbRegAppTableRecord
  2
ACAD
 70
     0
  0
APPID
  5
21C
330
9
100
AcDbSymbolTableRecord
100
AcDbRegAppTableRecord
  2
MCAD_NO_VIS
 70
     0
  0
APPID
  5
21D
330
9
100
AcDbSymbolTableRecord
100
AcDbRegAppTableRecord
  2
ACAD_TEMP_GRAPHIC
 70
     0
  0
APPID
  5
24C
330
9
100
AcDbSymbolTableRecord
100
AcDbRegAppTableRecord
  2
AD_DRAW
 70
     0
  0
APPID
  5
24F
330
9
100
AcDbSymbolTableRecord
100
AcDbRegAppTableRecord
  2
ACATTRIBSERVICES
 70
     0
  0
APPID
  5
26D
330
9
100
AcDbSymbolTableRecord
100
AcDbRegAppTableRecord
  2
DESIGNERASSEMBLIES
 70
     0
  0
APPID
  5
273
330
9
100
AcDbSymbolTableRecord
100
AcDbRegAppTableRecord
  2
ACADM_DIM_EDIT
 70
     0
  0
APPID
  5
274
330
9
100
AcDbSymbolTableRecord
100
AcDbRegAppTableRecord
  2
AMDT_DM_ADJ
 70
     0
  0
APPID
  5
2DF
330
9
100
AcDbSymbolTableRecord
100
AcDbRegAppTableRecord
  2
ACAD_PSEXT
 70
     0
  0
APPID
  5
4F7
330
9
100
AcDbSymbolTableRecord
100
AcDbRegAppTableRecord
  2
GENIUS_GENDTOL_13
 70
     0
  0
ENDTAB
  0
TABLE
  2
DIMSTYLE
  5
A
330
0
100
AcDbSymbolTable
 70
     9
100
AcDbDimStyleTable
  0
DIMSTYLE
105
215
330
A
100
AcDbSymbolTableRecord
100
AcDbDimStyleTableRecord
  2
Standard
 70
     0
340
11
  0
DIMSTYLE
105
2A3
330
A
100
AcDbSymbolTableRecord
100
AcDbDimStyleTableRecord
  2
AM_ANSI
 70
     0
  4
mm
 41
0.1
 42
0.05
 43
0.5
 44
0.1
 47
0.1
 48
0.1
 78
     7
 79
     2
140
0.12
141
0.0
146
0.71
147
0.06
176
   256
177
   256
178
     2
274
     4
284
     7
340
11
371
    -1
372
    -1
  0
DIMSTYLE
105
2A6
330
A
100
AcDbSymbolTableRecord
100
AcDbDimStyleTableRecord
  2
AM_ANSI$7
 70
     0
  4
mm
 41
0.1
 42
0.05
 43
0.5
 44
0.1
 47
0.1
 48
0.1
 78
     7
 79
     2
140
0.24
141
0.0
146
0.71
147
0.06
176
   256
177
   256
178
     2
274
     4
284
     7
340
11
371
    -1
372
    -1
  0
DIMSTYLE
105
2A7
330
A
100
AcDbSymbolTableRecord
100
AcDbDimStyleTableRecord
  2
AM_ANSI$SF
 70
     0
  4
mm
 41
0.1
 42
0.05
 43
0.5
 44
0.1
 47
0.1
 48
0.1
 75
     1
 76
     1
 78
     7
 79
     2
140
0.12
141
0.0
146
0.71
147
0.06
176
   256
177
   256
178
     2
274
     4
284
     7
340
11
371
    -1
372
    -1
  0
DIMSTYLE
105
2AC
330
A
100
AcDbSymbolTableRecord
100
AcDbDimStyleTableRecord
  2
AM_ANSI$SH
 70
     0
  4
mm
 41
0.1
 42
0.05
 43
0.5
 44
0.1
 47
0.1
 48
0.1
 75
     1
 76
     1
 78
     7
 79
     2
140
0.12
141
0.0
146
0.71
147
0.06
173
     1
176
   256
177
   256
178
     2
274
     4
284
     7
340
11
343
2A8
371
    -1
372
    -1
  0
DIMSTYLE
105
36D
102
{ACAD_REACTORS
330
371
330
3E0
330
40A
330
42E
330
4DD
102
}
330
A
100
AcDbSymbolTableRecord
100
AcDbDimStyleTableRecord
  2
Standard$0
 70
     0
340
11
  0
DIMSTYLE
105
3A2
330
A
100
AcDbSymbolTableRecord
100
AcDbDimStyleTableRecord
  2
Standard$4
 70
     0
340
11
  0
DIMSTYLE
105
3B4
102
{ACAD_REACTORS
330
3B5
102
}
330
A
100
AcDbSymbolTableRecord
100
AcDbDimStyleTableRecord
  2
Standard$3
 70
     0
340
11
  0
DIMSTYLE
105
486
102
{ACAD_REACTORS
330
487
330
540
102
}
330
A
100
AcDbSymbolTableRecord
100
AcDbDimStyleTableRecord
  2
Standard$2
 70
     0
340
11
  0
ENDTAB
  0
TABLE
  2
BLOCK_RECORD
  5
1
330
0
100
AcDbSymbolTable
 70
    11
  0
BLOCK_RECORD
  5
22
330
1
100
AcDbSymbolTableRecord
100
AcDbBlockTableRecord
  2
*Model_Space
340
25
  0
BLOCK_RECORD
  5
1E
330
1
100
AcDbSymbolTableRecord
100
AcDbBlockTableRecord
  2
*Paper_Space
340
21
  0
BLOCK_RECORD
  5
3D
330
1
100
AcDbSymbolTableRecord
100
AcDbBlockTableRecord
  2
MARK4_3
340
0
102
{BLKREFS
331
1C5
331
1C9
331
1CD
102
}
  0
BLOCK_RECORD
  5
264
330
1
100
AcDbSymbolTableRecord
100
AcDbBlockTableRecord
  2
*U1
340
0
  0
BLOCK_RECORD
  5
2A8
330
1
100
AcDbSymbolTableRecord
100
AcDbBlockTableRecord
  2
GENAXEH
340
0
  0
BLOCK_RECORD
  5
372
330
1
100
AcDbSymbolTableRecord
100
AcDbBlockTableRecord
  2
*D3
340
0
  0
BLOCK_RECORD
  5
3B6
330
1
100
AcDbSymbolTableRecord
100
AcDbBlockTableRecord
  2
*D4
340
0
  0
BLOCK_RECORD
  5
3E1
330
1
100
AcDbSymbolTableRecord
100
AcDbBlockTableRecord
  2
*D5
340
0
  0
BLOCK_RECORD
  5
40B
330
1
100
AcDbSymbolTableRecord
100
AcDbBlockTableRecord
  2
*D6
340
0
  0
BLOCK_RECORD
  5
42F
330
1
100
AcDbSymbolTableRecord
100
AcDbBlockTableRecord
  2
*D7
340
0
  0
BLOCK_RECORD
  5
488
330
1
100
AcDbSymbolTableRecord
100
AcDbBlockTableRecord
  2
*D8
340
0
  0
BLOCK_RECORD
  5
4DE
330
1
100
AcDbSymbolTableRecord
100
AcDbBlockTableRecord
  2
*D9
340
0
  0
BLOCK_RECORD
  5
541
330
1
100
AcDbSymbolTableRecord
100
AcDbBlockTableRecord
  2
*D10
340
0
  0
ENDTAB
  0
ENDSEC
  0
SECTION
  2
BLOCKS
  0
BLOCK
  5
23
330
22
100
AcDbEntity
  8
0
100
AcDbBlockBegin
  2
*Model_Space
 70
     0
 71
     0
 10
0.0
 20
0.0
 30
0.0
  3
*Model_Space
  1

  0
ENDBLK
  5
24
330
22
100
AcDbEntity
  8
0
100
AcDbBlockEnd
  0
BLOCK
  5
1F
330
1E
100
AcDbEntity
 67
     1
  8
0
100
AcDbBlockBegin
  2
*Paper_Space
 70
     0
 71
     0
 10
0.0
 20
0.0
 30
0.0
  3
*Paper_Space
  1

  0
ENDBLK
  5
20
330
1E
100
AcDbEntity
 67
     1
  8
0
100
AcDbBlockEnd
  0
BLOCK
  5
3E
330
3D
100
AcDbEntity
  8
0
100
AcDbBlockBegin
  2
MARK4_3
 70
     0
 71
     0
 10
0.0
 20
0.0
 30
0.0
  3
MARK4_3
  1

  0
CIRCLE
  5
3F
330
3D
100
AcDbEntity
  8
0
  6
Continuous
 62
     0
100
AcDbCircle
 10
0.0
 20
0.0
 30
0.0
 40
0.125
  0
CIRCLE
  5
40
330
3D
100
AcDbEntity
  8
0
  6
Continuous
 62
     0
100
AcDbCircle
 10
0.0
 20
0.0
 30
0.0
 40
0.0625
  0
ENDBLK
  5
41
330
3D
100
AcDbEntity
  8
0
100
AcDbBlockEnd
  0
BLOCK
  5
265
330
264
100
AcDbEntity
  8
0
100
AcDbBlockBegin
  2
*U1
 70
     1
 71
     0
 10
0.0
 20
0.0
 30
0.0
  3
*U1
  1

  0
ENDBLK
  5
266
330
264
100
AcDbEntity
  8
0
100
AcDbBlockEnd
  0
BLOCK
  5
2AA
330
2A8
100
AcDbEntity
  8
0
100
AcDbBlockBegin
  2
GENAXEH
 70
     0
 71
     0
 10
0.0
 20
0.0
 30
0.0
  3
GENAXEH
  1

  0
LINE
  5
2A9
330
2A8
100
AcDbEntity
  8
0
100
AcDbLine
 10
-1.0
 20
0.0
 30
0.0
 11
1.0
 21
0.0
 31
0.0
  0
ENDBLK
  5
2AB
330
2A8
100
AcDbEntity
  8
0
100
AcDbBlockEnd
  0
BLOCK
  5
37C
330
372
100
AcDbEntity
  8
0
100
AcDbBlockBegin
  2
*D3
 70
     1
 71
     0
 10
0.0
 20
0.0
 30
0.0
  3
*D3
  1

  0
LINE
  5
66C
330
372
100
AcDbEntity
  8
AM_5
 62
     0
370
    -2
100
AcDbLine
 10
106.9224853515624
 20
7.0
 30
0.0
 11
106.9224853515624
 21
-18.26008638695623
 31
0.0
  0
LINE
  5
66D
330
372
100
AcDbEntity
  8
AM_5
 62
     0
370
    -2
100
AcDbLine
 10
93.92248535156244
 20
7.0
 30
0.0
 11
93.92248535156244
 21
-18.26008638695623
 31
0.0
  0
LINE
  5
66E
330
372
100
AcDbEntity
  8
AM_5
 62
     0
370
    -2
100
AcDbLine
 10
103.9224853515624
 20
-16.26008638695623
 30
0.0
 11
96.92248535156244
 21
-16.26008638695623
 31
0.0
  0
SOLID
  5
66F
330
372
100
AcDbEntity
  8
AM_5
 62
     0
100
AcDbTrace
 10
103.9224853515624
 20
-15.76008638695623
 30
0.0
 11
103.9224853515624
 21
-16.76008638695623
 31
0.0
 12
106.9224853515624
 22
-16.26008638695623
 32
0.0
 13
106.9224853515624
 23
-16.26008638695623
 33
0.0
  0
SOLID
  5
670
330
372
100
AcDbEntity
  8
AM_5
 62
     0
100
AcDbTrace
 10
96.92248535156244
 20
-15.76008638695623
 30
0.0
 11
96.92248535156244
 21
-16.76008638695623
 31
0.0
 12
93.92248535156244
 22
-16.26008638695623
 32
0.0
 13
93.92248535156244
 23
-16.26008638695623
 33
0.0
  0
MTEXT
  5
671
330
372
100
AcDbEntity
  8
AM_5
 62
     0
100
AcDbMText
 10
100.4224853515624
 20
-13.67008638695623
 30
0.0
 40
5.0
 41
0.0
 71
     5
 72
     1
  1
\A1;13
 73
     1
 44
1.0
  0
POINT
  5
672
330
372
100
AcDbEntity
  8
DEFPOINTS
 62
     0
100
AcDbPoint
 10
106.9224853515624
 20
8.0
 30
0.0
  0
POINT
  5
673
330
372
100
AcDbEntity
  8
DEFPOINTS
 62
     0
100
AcDbPoint
 10
93.92248535156244
 20
8.0
 30
0.0
  0
POINT
  5
674
330
372
100
AcDbEntity
  8
DEFPOINTS
 62
     0
100
AcDbPoint
 10
93.92248535156244
 20
-16.26008638695623
 30
0.0
  0
ENDBLK
  5
37D
330
372
100
AcDbEntity
  8
0
100
AcDbBlockEnd
  0
BLOCK
  5
3BC
330
3B6
100
AcDbEntity
  8
0
100
AcDbBlockBegin
  2
*D4
 70
     1
 71
     0
 10
0.0
 20
0.0
 30
0.0
  3
*D4
  1

  0
LINE
  5
675
330
3B6
100
AcDbEntity
  8
AM_5
 62
     0
370
    -2
100
AcDbLine
 10
83.07228325571445
 20
29.84606552131429
 30
0.0
 11
94.20325593918156
 21
15.83078447642236
 31
0.0
  0
LINE
  5
676
330
3B6
100
AcDbEntity
  8
AM_5
 62
     0
370
    -2
100
AcDbLine
 10
106.6417147639432
 20
0.169215523577634
 30
0.0
 11
108.5074835876575
 21
-2.18001981934907
 31
0.0
  0
MTEXT
  5
677
330
3B6
100
AcDbEntity
  8
AM_5
 62
     0
100
AcDbMText
 10
88.78431332370809
 20
26.81841126758677
 30
0.0
 40
5.0
 41
0.0
 71
     5
 72
     1
  1
\A1;\U+220514
 11
0.6219229412380828
 21
-0.7830784476422348
 31
0.0
 73
     1
 44
1.0
  0
LINE
  5
678
330
3B6
100
AcDbEntity
  8
AM_5
 62
     0
370
    -2
100
AcDbLine
 10
104.775945940229
 20
2.518450866504338
 30
0.0
 11
96.06902476289579
 21
13.48154913349566
 31
0.0
  0
SOLID
  5
679
330
3B6
100
AcDbEntity
  8
AM_5
 62
     0
100
AcDbTrace
 10
107.0332539877644
 20
0.4801769941966754
 30
0.0
 11
106.2501755401221
 21
-0.1417459470414073
 31
0.0
 12
104.775945940229
 22
2.518450866504338
 32
0.0
 13
104.775945940229
 23
2.518450866504338
 33
0.0
  0
SOLID
  5
67A
330
3B6
100
AcDbEntity
  8
AM_5
 62
     0
100
AcDbTrace
 10
94.59479516300266
 20
16.1417459470414
 30
0.0
 11
93.81171671536043
 21
15.51982300580332
 31
0.0
 12
96.06902476289579
 22
13.48154913349566
 32
0.0
 13
96.06902476289579
 23
13.48154913349566
 33
0.0
  0
POINT
  5
67B
330
3B6
100
AcDbEntity
  8
DEFPOINTS
 62
     0
100
AcDbPoint
 10
96.06902476289579
 20
13.48154913349566
 30
0.0
  0
POINT
  5
67C
330
3B6
100
AcDbEntity
  8
DEFPOINTS
 62
     0
100
AcDbPoint
 10
104.775945940229
 20
2.518450866504338
 30
0.0
  0
ENDBLK
  5
3BD
330
3B6
100
AcDbEntity
  8
0
100
AcDbBlockEnd
  0
BLOCK
  5
3EB
330
3E1
100
AcDbEntity
  8
0
100
AcDbBlockBegin
  2
*D5
 70
     1
 71
     0
 10
0.0
 20
0.0
 30
0.0
  3
*D5
  1

  0
LINE
  5
67D
330
3E1
100
AcDbEntity
  8
AM_5
 62
     0
370
    -2
100
AcDbLine
 10
179.9999999999999
 20
7.0
 30
0.0
 11
179.9999999999999
 21
-34.65085303818216
 31
0.0
  0
LINE
  5
67E
330
3E1
100
AcDbEntity
  8
AM_5
 62
     0
370
    -2
100
AcDbLine
 10
-0.0000000000000001
 20
-1.0
 30
0.0
 11
-0.0000000000000021
 21
-34.65085303818216
 31
0.0
  0
LINE
  5
67F
330
3E1
100
AcDbEntity
  8
AM_5
 62
     0
370
    -2
100
AcDbLine
 10
176.9999999999999
 20
-32.65085303818216
 30
0.0
 11
2.999999999999998
 21
-32.65085303818216
 31
0.0
  0
SOLID
  5
680
330
3E1
100
AcDbEntity
  8
AM_5
 62
     0
100
AcDbTrace
 10
176.9999999999999
 20
-32.15085303818216
 30
0.0
 11
176.9999999999999
 21
-33.15085303818216
 31
0.0
 12
179.9999999999999
 22
-32.65085303818216
 32
0.0
 13
179.9999999999999
 23
-32.65085303818216
 33
0.0
  0
SOLID
  5
681
330
3E1
100
AcDbEntity
  8
AM_5
 62
     0
100
AcDbTrace
 10
2.999999999999998
 20
-32.15085303818216
 30
0.0
 11
2.999999999999998
 21
-33.15085303818216
 31
0.0
 12
-0.000000000000002
 22
-32.65085303818216
 32
0.0
 13
-0.000000000000002
 23
-32.65085303818216
 33
0.0
  0
MTEXT
  5
682
330
3E1
100
AcDbEntity
  8
AM_5
 62
     0
100
AcDbMText
 10
89.99999999999997
 20
-30.06085303818216
 30
0.0
 40
5.0
 41
0.0
 71
     5
 72
     1
  1
\A1;180
 73
     1
 44
1.0
  0
POINT
  5
683
330
3E1
100
AcDbEntity
  8
DEFPOINTS
 62
     0
100
AcDbPoint
 10
179.9999999999999
 20
8.0
 30
0.0
  0
POINT
  5
684
330
3E1
100
AcDbEntity
  8
DEFPOINTS
 62
     0
100
AcDbPoint
 10
0.0
 20
0.0
 30
0.0
  0
POINT
  5
685
330
3E1
100
AcDbEntity
  8
DEFPOINTS
 62
     0
100
AcDbPoint
 10
-0.000000000000002
 20
-32.65085303818216
 30
0.0
  0
ENDBLK
  5
3EC
330
3E1
100
AcDbEntity
  8
0
100
AcDbBlockEnd
  0
BLOCK
  5
415
330
40B
100
AcDbEntity
  8
0
100
AcDbBlockBegin
  2
*D6
 70
     1
 71
     0
 10
0.0
 20
0.0
 30
0.0
  3
*D6
  1

  0
LINE
  5
686
330
40B
100
AcDbEntity
  8
AM_5
 62
     0
370
    -2
100
AcDbLine
 10
35.0
 20
0.5
 30
0.0
 11
35.0
 21
-22.55249752212899
 31
0.0
  0
LINE
  5
687
330
40B
100
AcDbEntity
  8
AM_5
 62
     0
370
    -2
100
AcDbLine
 10
-0.0000000000000001
 20
-1.0
 30
0.0
 11
-0.0000000000000014
 21
-22.55249752212899
 31
0.0
  0
LINE
  5
688
330
40B
100
AcDbEntity
  8
AM_5
 62
     0
370
    -2
100
AcDbLine
 10
32.0
 20
-20.55249752212899
 30
0.0
 11
2.999999999999999
 21
-20.55249752212899
 31
0.0
  0
SOLID
  5
689
330
40B
100
AcDbEntity
  8
AM_5
 62
     0
100
AcDbTrace
 10
32.0
 20
-20.05249752212899
 30
0.0
 11
32.0
 21
-21.05249752212899
 31
0.0
 12
35.0
 22
-20.55249752212899
 32
0.0
 13
35.0
 23
-20.55249752212899
 33
0.0
  0
SOLID
  5
68A
330
40B
100
AcDbEntity
  8
AM_5
 62
     0
100
AcDbTrace
 10
2.999999999999999
 20
-20.05249752212899
 30
0.0
 11
2.999999999999999
 21
-21.05249752212899
 31
0.0
 12
-0.0000000000000013
 22
-20.55249752212899
 32
0.0
 13
-0.0000000000000013
 23
-20.55249752212899
 33
0.0
  0
MTEXT
  5
68B
330
40B
100
AcDbEntity
  8
AM_5
 62
     0
100
AcDbMText
 10
17.5
 20
-17.96249752212899
 30
0.0
 40
5.0
 41
0.0
 71
     5
 72
     1
  1
\A1;35
 73
     1
 44
1.0
  0
POINT
  5
68C
330
40B
100
AcDbEntity
  8
DEFPOINTS
 62
     0
100
AcDbPoint
 10
35.0
 20
1.5
 30
0.0
  0
POINT
  5
68D
330
40B
100
AcDbEntity
  8
DEFPOINTS
 62
     0
100
AcDbPoint
 10
0.0
 20
0.0
 30
0.0
  0
POINT
  5
68E
330
40B
100
AcDbEntity
  8
DEFPOINTS
 62
     0
100
AcDbPoint
 10
-0.0000000000000013
 20
-20.55249752212899
 30
0.0
  0
ENDBLK
  5
416
330
40B
100
AcDbEntity
  8
0
100
AcDbBlockEnd
  0
BLOCK
  5
439
330
42F
100
AcDbEntity
  8
0
100
AcDbBlockBegin
  2
*D7
 70
     1
 71
     0
 10
0.0
 20
0.0
 30
0.0
  3
*D7
  1

  0
LINE
  5
68F
330
42F
100
AcDbEntity
  8
AM_5
 62
     0
370
    -2
100
AcDbLine
 10
-1.0
 20
0.0000000000000003
 30
0.0
 11
-21.60828150120403
 21
0.0000000000000061
 31
0.0
  0
LINE
  5
690
330
42F
100
AcDbEntity
  8
AM_5
 62
     0
370
    -2
100
AcDbLine
 10
-2.321475863456726
 20
8.0
 30
0.0
 11
-21.60828150120403
 21
8.000000000000007
 31
0.0
  0
LINE
  5
691
330
42F
100
AcDbEntity
  8
AM_5
 62
     0
370
    -2
100
AcDbLine
 10
-19.60828150120403
 20
3.000000000000006
 30
0.0
 11
-19.60828150120403
 21
5.000000000000006
 31
0.0
  0
SOLID
  5
692
330
42F
100
AcDbEntity
  8
AM_5
 62
     0
100
AcDbTrace
 10
-20.10828150120403
 20
3.000000000000006
 30
0.0
 11
-19.10828150120403
 21
3.000000000000006
 31
0.0
 12
-19.60828150120403
 22
0.0000000000000056
 32
0.0
 13
-19.60828150120403
 23
0.0000000000000056
 33
0.0
  0
SOLID
  5
693
330
42F
100
AcDbEntity
  8
AM_5
 62
     0
100
AcDbTrace
 10
-20.10828150120403
 20
5.000000000000006
 30
0.0
 11
-19.10828150120403
 21
5.000000000000006
 31
0.0
 12
-19.60828150120403
 22
8.000000000000005
 32
0.0
 13
-19.60828150120403
 23
8.000000000000005
 33
0.0
  0
MTEXT
  5
694
330
42F
100
AcDbEntity
  8
AM_5
 62
     0
100
AcDbMText
 10
-22.19828150120403
 20
4.000000000000004
 30
0.0
 40
5.0
 41
0.0
 71
     5
 72
     1
  1
\A1;8
 11
6.123031769111886E-17
 21
1.0
 31
0.0
 73
     1
 44
1.0
  0
POINT
  5
695
330
42F
100
AcDbEntity
  8
DEFPOINTS
 62
     0
100
AcDbPoint
 10
0.0
 20
0.0
 30
0.0
  0
POINT
  5
696
330
42F
100
AcDbEntity
  8
DEFPOINTS
 62
     0
100
AcDbPoint
 10
-1.321475863456726
 20
8.0
 30
0.0
  0
POINT
  5
697
330
42F
100
AcDbEntity
  8
DEFPOINTS
 62
     0
100
AcDbPoint
 10
-19.60828150120403
 20
8.000000000000005
 30
0.0
  0
ENDBLK
  5
43A
330
42F
100
AcDbEntity
  8
0
100
AcDbBlockEnd
  0
BLOCK
  5
497
330
488
100
AcDbEntity
  8
0
100
AcDbBlockBegin
  2
*D8
 70
     1
 71
     0
 10
0.0
 20
0.0
 30
0.0
  3
*D8
  1

  0
LINE
  5
698
330
488
100
AcDbEntity
  8
AM_5
 62
     0
370
    -2
100
AcDbLine
 10
-0.1996194127215178
 20
-60.64426719177698
 30
0.0
 11
-0.1996194127215234
 21
-91.4551776735894
 31
0.0
  0
LINE
  5
699
330
488
100
AcDbEntity
  8
AM_5
 62
     0
370
    -2
100
AcDbLine
 10
0.136291200571506
 20
-68.30681043473291
 30
0.0
 11
0.9439529390224796
 21
-91.43521654393959
 31
0.0
  0
ARC
  5
69A
330
488
100
AcDbEntity
  8
AM_5
 62
     0
370
    -2
100
AcDbCircle
 10
-0.1996194127215174
 20
-58.68758903205261
 30
0.0
 40
30.76758864153679
100
AcDbArc
 50
258.8089459659945
 51
270.0
  0
LINE
  5
69B
330
488
100
AcDbEntity
  8
AM_5
 62
     0
370
    -2
100
AcDbLine
 10
-6.171029503191017
 20
-88.87014645097028
 30
0.0
 11
-14.52248580850662
 21
-87.21786862177548
 31
0.0
  0
ARC
  5
69C
330
488
100
AcDbEntity
  8
AM_5
 62
     0
370
    -2
100
AcDbCircle
 10
-0.1996194127215174
 20
-58.68758903205261
 30
0.0
 40
30.76758864153679
100
AcDbArc
 50
258.822295809938
 51
264.411147904969
  0
ARC
  5
69D
330
488
100
AcDbEntity
  8
AM_5
 62
     0
370
    -2
100
AcDbCircle
 10
-0.1996194127215174
 20
-58.68758903205261
 30
0.0
 40
30.76758864153679
100
AcDbArc
 50
277.5888520950306
 51
283.1777041900616
  0
ARC
  5
69E
330
488
100
AcDbEntity
  8
AM_5
 62
     0
370
    -2
100
AcDbCircle
 10
-0.1996194127215174
 20
-58.68758903205261
 30
0.0
 40
30.76758864153679
100
AcDbArc
 50
270.0
 51
271.9999999999996
  0
SOLID
  5
69F
330
488
100
AcDbEntity
  8
AM_5
 62
     0
100
AcDbTrace
 10
-3.171675766501179
 20
-88.80951442548094
 30
0.0
 11
-3.220428368386106
 21
-89.80832531038833
 31
0.0
 12
-0.199619412721523
 22
-89.4551776735894
 32
0.0
 13
-0.199619412721523
 23
-89.4551776735894
 33
0.0
  0
SOLID
  5
6A0
330
488
100
AcDbEntity
  8
AM_5
 62
     0
100
AcDbTrace
 10
3.905447380871769
 20
-89.68394268651463
 30
0.0
 11
3.82186648057042
 21
-88.6874416914801
 31
0.0
 12
0.874153945617493
 22
-89.43643488990142
 32
0.0
 13
0.874153945617493
 23
-89.43643488990142
 33
0.0
  0
MTEXT
  5
6A1
330
488
100
AcDbEntity
  8
AM_5
 62
     0
100
AcDbMText
 10
-9.844087384398403
 20
-85.50325516784108
 30
0.0
 40
5.0
 41
0.0
 71
     5
 72
     1
  1
\A1;2°
 11
0.9809854704755996
 21
-0.1940811858881912
 31
0.0
 73
     1
 44
1.0
  0
POINT
  5
6A2
330
488
100
AcDbEntity
  8
DEFPOINTS
 62
     0
100
AcDbPoint
 10
0.5163102651131624
 20
-89.44684707757801
 30
0.0
  0
POINT
  5
6A3
330
488
100
AcDbEntity
  8
DEFPOINTS
 62
     0
100
AcDbPoint
 10
-0.1996194127215174
 20
-58.68758903205261
 30
0.0
  0
POINT
  5
6A4
330
488
100
AcDbEntity
  8
DEFPOINTS
 62
     0
100
AcDbPoint
 10
-0.1996194127215174
 20
-58.68758903205261
 30
0.0
  0
POINT
  5
6A5
330
488
100
AcDbEntity
  8
DEFPOINTS
 62
     0
100
AcDbPoint
 10
-0.1996194127215178
 20
-59.64426719177697
 30
0.0
  0
POINT
  5
6A6
330
488
100
AcDbEntity
  8
DEFPOINTS
 62
     0
100
AcDbPoint
 10
0.1013917038690124
 20
-67.30741960771381
 30
0.0
  0
ENDBLK
  5
498
330
488
100
AcDbEntity
  8
0
100
AcDbBlockEnd
  0
BLOCK
  5
4EA
330
4DE
100
AcDbEntity
  8
0
100
AcDbBlockBegin
  2
*D9
 70
     1
 71
     0
 10
0.0
 20
0.0
 30
0.0
  3
*D9
  1

  0
LINE
  5
6A7
330
4DE
100
AcDbEntity
  8
AM_5
 62
     0
370
    -2
100
AcDbLine
 10
1.449999999999932
 20
-1.0
 30
0.0
 11
1.449999999999931
 21
-12.9301496904103
 31
0.0
  0
LINE
  5
6A8
330
4DE
100
AcDbEntity
  8
AM_5
 62
     0
370
    -2
100
AcDbLine
 10
-0.0000000000000001
 20
-1.0
 30
0.0
 11
-0.0000000000000008
 21
-12.9301496904103
 31
0.0
  0
LINE
  5
6A9
330
4DE
100
AcDbEntity
  8
AM_5
 62
     0
370
    -2
100
AcDbLine
 10
4.449999999999931
 20
-10.9301496904103
 30
0.0
 11
7.449999999999931
 21
-10.9301496904103
 31
0.0
  0
LINE
  5
6AA
330
4DE
100
AcDbEntity
  8
AM_5
 62
     0
370
    -2
100
AcDbLine
 10
-3.000000000000001
 20
-10.9301496904103
 30
0.0
 11
-30.16200757575754
 21
-10.9301496904103
 31
0.0
  0
LINE
  5
6AB
330
4DE
100
AcDbEntity
  8
AM_5
 62
     0
370
    -2
100
AcDbLine
 10
1.449999999999931
 20
-10.9301496904103
 30
0.0
 11
-0.0000000000000007
 21
-10.9301496904103
 31
0.0
  0
SOLID
  5
6AC
330
4DE
100
AcDbEntity
  8
AM_5
 62
     0
100
AcDbTrace
 10
4.449999999999931
 20
-10.4301496904103
 30
0.0
 11
4.449999999999931
 21
-11.4301496904103
 31
0.0
 12
1.449999999999931
 22
-10.9301496904103
 32
0.0
 13
1.449999999999931
 23
-10.9301496904103
 33
0.0
  0
SOLID
  5
6AD
330
4DE
100
AcDbEntity
  8
AM_5
 62
     0
100
AcDbTrace
 10
-3.000000000000001
 20
-10.4301496904103
 30
0.0
 11
-3.000000000000001
 21
-11.4301496904103
 31
0.0
 12
-0.0000000000000007
 22
-10.9301496904103
 32
0.0
 13
-0.0000000000000007
 23
-10.9301496904103
 33
0.0
  0
MTEXT
  5
6AE
330
4DE
100
AcDbEntity
  8
AM_5
 62
     0
100
AcDbMText
 10
-18.19700757575754
 20
-8.340149690410303
 30
0.0
 40
5.0
 41
0.0
 71
     5
 72
     1
  1
\A1;\fMS UI Gothic|b0|i0|c1|p0;1.0～2.0
 73
     1
 44
1.0
  0
POINT
  5
6AF
330
4DE
100
AcDbEntity
  8
DEFPOINTS
 62
     0
100
AcDbPoint
 10
1.449999999999932
 20
0.0
 30
0.0
  0
POINT
  5
6B0
330
4DE
100
AcDbEntity
  8
DEFPOINTS
 62
     0
100
AcDbPoint
 10
0.0
 20
0.0
 30
0.0
  0
POINT
  5
6B1
330
4DE
100
AcDbEntity
  8
DEFPOINTS
 62
     0
100
AcDbPoint
 10
-0.0000000000000007
 20
-10.9301496904103
 30
0.0
  0
ENDBLK
  5
4EB
330
4DE
100
AcDbEntity
  8
0
100
AcDbBlockEnd
  0
BLOCK
  5
551
330
541
100
AcDbEntity
  8
0
100
AcDbBlockBegin
  2
*D10
 70
     1
 71
     0
 10
0.0
 20
0.0
 30
0.0
  3
*D10
  1

  0
LINE
  5
6B2
330
541
100
AcDbEntity
  8
AM_5
 62
     0
370
    -2
100
AcDbLine
 10
0.6516659307505438
 20
15.9993908270191
 30
0.0
 11
1.267765984924652
 21
33.64218802596106
 31
0.0
  0
LINE
  5
6B3
330
541
100
AcDbEntity
  8
AM_5
 62
     0
370
    -2
100
AcDbLine
 10
0.0000000000000005
 20
1.399999999999978
 30
0.0
 11
0.0000000000000032
 21
33.66431696354172
 31
0.0
  0
ARC
  5
6B4
330
541
100
AcDbEntity
  8
AM_5
 62
     0
370
    -2
100
AcDbCircle
 10
0.0
 20
-2.661879821793245
 30
0.0
 40
34.32619678533497
100
AcDbArc
 50
77.97227024366542
 51
87.99999999999929
  0
LINE
  5
6B5
330
541
100
AcDbEntity
  8
AM_5
 62
     0
370
    -2
100
AcDbLine
 10
7.153066781657411
 20
30.91074922870993
 30
0.0
 11
15.47950573353661
 21
29.13669770040721
 31
0.0
  0
ARC
  5
6B6
330
541
100
AcDbEntity
  8
AM_5
 62
     0
370
    -2
100
AcDbCircle
 10
0.0
 20
-2.661879821793245
 30
0.0
 40
34.32619678533497
100
AcDbArc
 50
77.98187353716874
 51
82.99093676858402
  0
ARC
  5
6B7
330
541
100
AcDbEntity
  8
AM_5
 62
     0
370
    -2
100
AcDbCircle
 10
0.0
 20
-2.661879821793245
 30
0.0
 40
34.32619678533497
100
AcDbArc
 50
95.00906323141527
 51
100.0181264628306
  0
ARC
  5
6B8
330
541
100
AcDbEntity
  8
AM_5
 62
     0
370
    -2
100
AcDbCircle
 10
0.0
 20
-2.661879821793245
 30
0.0
 40
34.32619678533497
100
AcDbArc
 50
87.99999999999929
 51
90.0
  0
SOLID
  5
6B9
330
541
100
AcDbEntity
  8
AM_5
 62
     0
100
AcDbTrace
 10
4.149431395353131
 20
30.90933697949207
 30
0.0
 11
4.227969338636989
 21
31.90624810465054
 31
0.0
 12
1.197966991519627
 22
31.64340637192288
 32
0.0
 13
1.197966991519627
 23
31.64340637192288
 33
0.0
  0
SOLID
  5
6BA
330
541
100
AcDbEntity
  8
AM_5
 62
     0
100
AcDbTrace
 10
-3.018983507370805
 20
32.03274413710939
 30
0.0
 11
-2.97528510380514
 21
31.03369936858007
 31
0.0
 12
0.0000000000000021
 22
31.66431696354172
 32
0.0
 13
0.0000000000000021
 23
31.66431696354172
 33
0.0
  0
MTEXT
  5
6BB
330
541
100
AcDbEntity
  8
AM_5
 62
     0
100
AcDbMText
 10
11.8560035784628
 20
32.55686483715455
 30
0.0
 40
5.0
 41
0.0
 71
     5
 72
     1
  1
\A1;2°
 11
0.9780468620061709
 21
-0.2083850659713458
 31
0.0
 73
     1
 44
1.0
  0
POINT
  5
6BC
330
541
100
AcDbEntity
  8
DEFPOINTS
 62
     0
100
AcDbPoint
 10
0.3993944235485744
 20
31.66199335475807
 30
0.0
  0
POINT
  5
6BD
330
541
100
AcDbEntity
  8
DEFPOINTS
 62
     0
100
AcDbPoint
 10
0.4102221627734935
 20
9.085345933649395
 30
0.0
  0
POINT
  5
6BE
330
541
100
AcDbEntity
  8
DEFPOINTS
 62
     0
100
AcDbPoint
 10
0.0
 20
0.0
 30
0.0
  0
POINT
  5
6BF
330
541
100
AcDbEntity
  8
DEFPOINTS
 62
     0
100
AcDbPoint
 10
0.0
 20
0.3999999999999773
 30
0.0
  0
POINT
  5
6C0
330
541
100
AcDbEntity
  8
DEFPOINTS
 62
     0
100
AcDbPoint
 10
0.6167664340480314
 20
15.0
 30
0.0
  0
ENDBLK
  5
552
330
541
100
AcDbEntity
  8
0
100
AcDbBlockEnd
  0
ENDSEC
  0
SECTION
  2
ENTITIES
  0
LINE
  5
149
330
22
100
AcDbEntity
  8
1
  6
Continuous
100
AcDbLine
 10
1.25
 20
0.0
 30
0.0
 11
0.1999999999999318
 21
0.0
 31
0.0
  0
ARC
  5
14A
330
22
100
AcDbEntity
  8
1
  6
Continuous
100
AcDbCircle
 10
0.1999999999999318
 20
0.1999999999999886
 30
0.0
 40
0.2000000000000007
100
AcDbArc
 50
178.0
 51
270.0
  0
ARC
  5
14B
330
22
100
AcDbEntity
  8
1
  6
Continuous
100
AcDbCircle
 10
1.25
 20
0.1999999999999886
 30
0.0
 40
0.2
100
AcDbArc
 50
270.0
 51
1.999999999999992
  0
LINE
  5
14C
330
22
100
AcDbEntity
  8
1
  6
Continuous
100
AcDbLine
 10
1.449878165403788
 20
0.2069798993404959
 30
0.0
 11
1.379393366336899
 21
2.225400458015685
 31
0.0
  0
LINE
  5
14D
330
22
100
AcDbEntity
  8
1
  6
Continuous
100
AcDbLine
 10
0.0001218345961433
 20
0.2069798993404959
 30
0.0
 11
0.3033031807310636
 21
8.888957717915815
 31
0.0
  0
LINE
  5
14E
330
22
100
AcDbEntity
  8
1
  6
Continuous
100
AcDbLine
 10
1.379393366336899
 20
2.225400458015685
 30
0.0
 11
3.254832007204414
 21
2.290892218489404
 31
0.0
  0
LINE
  5
14F
330
22
100
AcDbEntity
  8
1
  6
Continuous
100
AcDbLine
 10
0.1244741987072757
 20
3.767965694354587
 30
0.0
 11
3.306412549577431
 21
3.767965694354587
 31
0.0
  0
LINE
  5
150
330
22
100
AcDbEntity
  8
1
  6
Continuous
100
AcDbLine
 10
3.254832007204414
 20
2.290892218489404
 30
0.0
 11
3.456909608279148
 21
8.077637585671113
 31
0.0
  0
ARC
  5
151
330
22
100
AcDbEntity
  8
1
  6
Continuous
100
AcDbCircle
 10
0.503181346134852
 20
8.881977818575308
 30
0.0
 40
0.2000000000000001
100
AcDbArc
 50
88.00000000000003
 51
178.0
  0
LINE
  5
152
330
22
100
AcDbEntity
  8
1
  6
Continuous
100
AcDbLine
 10
0.5101612454753877
 20
9.081855983979182
 30
0.0
 11
1.559521613845391
 21
9.045211512441512
 31
0.0
  0
ARC
  5
153
330
22
100
AcDbEntity
  8
1
  6
Continuous
100
AcDbCircle
 10
1.552541714504969
 20
8.845333347037695
 30
0.0
 40
0.1999999999999995
100
AcDbArc
 50
356.0000000000002
 51
88.00000000000003
  0
LINE
  5
154
330
22
100
AcDbEntity
  8
1
  6
Continuous
100
AcDbLine
 10
1.703628909759573
 20
8.138863496798393
 30
0.0
 11
3.456909608279148
 21
8.077637585671113
 31
0.0
  0
LINE
  5
155
330
22
100
AcDbEntity
  8
1
  6
Continuous
100
AcDbLine
 10
1.480729818152781
 20
4.951257978805501
 30
0.0
 11
3.345460062475809
 21
4.886140163779174
 31
0.0
  0
LINE
  5
156
330
22
100
AcDbEntity
  8
1
  6
Continuous
100
AcDbLine
 10
1.480729818152781
 20
4.951257978805501
 30
0.0
 11
1.752054524556797
 21
8.831382052288916
 31
0.0
  0
LINE
  5
157
330
22
100
AcDbEntity
  8
1
  6
Continuous
100
AcDbLine
 10
0.2477818874491504
 20
7.299035900899412
 30
0.0
 11
1.641499127940961
 21
7.250366222407507
 31
0.0
  0
LINE
  5
158
330
22
100
AcDbEntity
  8
1
  6
Continuous
100
AcDbLine
 10
0.4102221627734934
 20
9.085345933649393
 30
0.0
 11
0.6167664340480314
 21
15.0
 31
0.0
  0
LINE
  5
159
330
22
100
AcDbEntity
  8
1
  6
CENTER
100
AcDbLine
 10
184.4942474365233
 20
8.0
 30
0.0
 11
-1.321475863456726
 21
8.0
 31
0.0
  0
LINE
  5
15A
330
22
100
AcDbEntity
  8
1
  6
Continuous
100
AcDbLine
 10
178.9999999999999
 20
15.0
 30
0.0
 11
0.6167664340480314
 21
15.0
 31
0.0
  0
LINE
  5
15B
330
22
100
AcDbEntity
  8
1
  6
Continuous
100
AcDbLine
 10
34.5
 20
2.300000000000011
 30
0.0
 11
3.255150057943183
 21
2.300000000000011
 31
0.0
  0
LINE
  5
15C
330
22
100
AcDbEntity
  8
1
  6
Continuous
100
AcDbLine
 10
8.0
 20
6.050000000000011
 30
0.0
 11
3.386102943537139
 21
6.050000000000011
 31
0.0
  0
LINE
  5
15D
330
22
100
AcDbEntity
  8
1
  6
Continuous
100
AcDbLine
 10
8.0
 20
8.650000000000006
 30
0.0
 11
3.47689694421581
 21
8.650000000000006
 31
0.0
  0
LINE
  5
15E
330
22
100
AcDbEntity
  8
1
  6
Continuous
100
AcDbLine
 10
3.456909608279148
 20
8.077637585671113
 30
0.0
 11
3.499464363419747
 21
9.296246332266804
 31
0.0
  0
LINE
  5
15F
330
22
100
AcDbEntity
  8
1
  6
Continuous
100
AcDbLine
 10
0.4213406162008369
 20
9.403736782110514
 30
0.0
 11
3.499464363419747
 21
9.296246332266804
 31
0.0
  0
LINE
  5
160
330
22
100
AcDbEntity
  8
1
  6
Continuous
100
AcDbLine
 10
8.0
 20
6.050000000000011
 30
0.0
 11
8.0
 21
15.0
 31
0.0
  0
LINE
  5
161
330
22
100
AcDbEntity
  8
1
  6
Continuous
100
AcDbLine
 10
35.0
 20
1.5
 30
0.0
 11
35.0
 21
10.59807621135332
 31
0.0
  0
LINE
  5
162
330
22
100
AcDbEntity
  8
1
  6
Continuous
100
AcDbLine
 10
178.9999999999999
 20
1.5
 30
0.0
 11
35.0
 21
1.5
 31
0.0
  0
LINE
  5
163
330
22
100
AcDbEntity
  8
1
  6
Continuous
100
AcDbLine
 10
179.9999999999999
 20
2.5
 30
0.0
 11
179.9999999999999
 21
14.0
 31
0.0
  0
ARC
  5
164
330
22
100
AcDbEntity
  8
1
  6
Continuous
100
AcDbCircle
 10
100.4224853515624
 20
8.0
 30
0.0
 40
7.0
100
AcDbArc
 50
291.7867892982619
 51
338.2132107017382
  0
ARC
  5
165
330
22
100
AcDbEntity
  8
1
  6
Continuous
100
AcDbCircle
 10
100.4224853515624
 20
8.0
 30
0.0
 40
7.0
100
AcDbArc
 50
21.78678929826187
 51
158.2132107017381
  0
ARC
  5
166
330
22
100
AcDbEntity
  8
1
  6
Continuous
100
AcDbCircle
 10
100.4224853515624
 20
8.0
 30
0.0
 40
7.0
100
AcDbArc
 50
201.7867892982617
 51
248.2132107017382
  0
LINE
  5
167
330
22
100
AcDbEntity
  8
1
  6
CENTER
100
AcDbLine
 10
100.4224853515624
 20
-0.7305608987807943
 30
0.0
 11
100.4224853515624
 21
17.45662117004397
 31
0.0
  0
LINE
  5
168
330
22
100
AcDbEntity
  8
1
  6
Continuous
100
AcDbLine
 10
93.92248535156244
 20
5.401923788646684
 30
0.0
 11
93.92248535156244
 21
10.59807621135332
 31
0.0
  0
LINE
  5
169
330
22
100
AcDbEntity
  8
1
  6
Continuous
100
AcDbLine
 10
106.9224853515624
 20
5.401923788646684
 30
0.0
 11
106.9224853515624
 21
10.59807621135332
 31
0.0
  0
LINE
  5
16A
330
22
100
AcDbEntity
  8
1
  6
Continuous
100
AcDbLine
 10
35.0
 20
10.59807621135332
 30
0.0
 11
178.9999999999999
 21
10.59807621135332
 31
0.0
  0
LINE
  5
16B
330
22
100
AcDbEntity
  8
1
  6
Continuous
100
AcDbLine
 10
178.9999999999999
 20
5.401923788646684
 30
0.0
 11
35.0
 21
5.401923788646684
 31
0.0
  0
ARC
  5
16C
330
22
100
AcDbEntity
  8
1
  6
Continuous
100
AcDbCircle
 10
34.5
 20
1.800000000000011
 30
0.0
 40
0.5
100
AcDbArc
 50
0.0
 51
90.00000000000003
  0
LINE
  5
16D
330
22
100
AcDbEntity
  8
1
  6
Continuous
100
AcDbLine
 10
178.9999999999999
 20
15.0
 30
0.0
 11
179.9999999999999
 21
14.0
 31
0.0
  0
LINE
  5
16E
330
22
100
AcDbEntity
  8
1
  6
Continuous
100
AcDbLine
 10
179.9999999999999
 20
2.5
 30
0.0
 11
178.9999999999999
 21
1.5
 31
0.0
  0
LINE
  5
16F
330
22
100
AcDbEntity
  8
1
  6
Continuous
100
AcDbLine
 10
178.9999999999999
 20
1.5
 30
0.0
 11
178.9999999999999
 21
5.401923788646684
 31
0.0
  0
LINE
  5
170
330
22
100
AcDbEntity
  8
1
  6
Continuous
100
AcDbLine
 10
178.9999999999999
 20
10.59807621135332
 30
0.0
 11
178.9999999999999
 21
15.0
 31
0.0
  0
ARC
  5
171
330
22
100
AcDbEntity
  8
1
  6
Continuous
100
AcDbCircle
 10
172.4999999999999
 20
8.0
 30
0.0
 40
7.0
100
AcDbArc
 50
338.2132107017382
 51
21.78678929826187
  0
LINE
  5
172
330
22
100
AcDbEntity
  8
1
  6
Continuous
100
AcDbLine
 10
8.0
 20
6.206556970935822
 30
0.0
 11
34.5
 21
6.206556970935822
 31
0.0
  0
ARC
  5
173
330
22
100
AcDbEntity
  8
1
  6
Continuous
100
AcDbCircle
 10
34.5
 20
5.706556970935822
 30
0.0
 40
0.5
100
AcDbArc
 50
0.0
 51
90.00000000000003
  0
LINE
  5
174
330
22
100
AcDbEntity
  8
1
  6
CENTER
100
AcDbLine
 10
178.9999999999999
 20
1.0
 30
0.0
 11
143.9920806884766
 21
1.0
 31
0.0
  0
LINE
  5
175
330
22
100
AcDbEntity
  8
1
  6
CENTER
100
AcDbLine
 10
179.9999999999999
 20
2.0
 30
0.0
 11
178.9999999999999
 21
1.0
 31
0.0
  0
LINE
  5
182
330
22
100
AcDbEntity
  8
5
  6
Continuous
100
AcDbLine
 10
1.449999999999932
 20
-64.40394109493371
 30
0.0
 11
0.0
 21
-64.40394109493371
 31
0.0
  0
LINE
  5
183
330
22
100
AcDbEntity
  8
5
  6
Continuous
100
AcDbLine
 10
0.0
 20
-57.15201189915894
 30
0.0
 11
0.0
 21
-58.68061816855493
 31
0.0
  0
LINE
  5
184
330
22
100
AcDbEntity
  8
5
  6
Continuous
100
AcDbLine
 10
1.449999999999932
 20
-58.62998305279183
 30
0.0
 11
1.449999999999932
 21
-60.3348408998597
 31
0.0
  0
LINE
  5
185
330
22
100
AcDbEntity
  8
5
  6
Continuous
100
AcDbLine
 10
-0.1996194127215176
 20
-58.68758903205261
 30
0.0
 11
0.1013917038690124
 21
-67.30741960771383
 31
0.0
  0
LINE
  5
186
330
22
100
AcDbEntity
  8
5
  6
Continuous
100
AcDbLine
 10
1.449999999999932
 20
-64.40394109493371
 30
0.0
 11
1.350131084032682
 21
-67.26381266766384
 31
0.0
  0
LINE
  5
187
330
22
100
AcDbEntity
  8
5
  6
Continuous
100
AcDbLine
 10
0.0622617088889683
 20
-66.18688316050583
 30
0.0
 11
1.387738291110964
 21
-66.18688316050583
 31
0.0
  0
LINE
  5
188
330
22
100
AcDbEntity
  8
5
  6
Continuous
100
AcDbLine
 10
-0.1132784420510689
 20
-61.16007093686332
 30
0.0
 11
3.064784387869622
 21
-61.0490905373494
 31
0.0
  0
LINE
  5
189
330
22
100
AcDbEntity
  8
5
  6
Continuous
100
AcDbLine
 10
-0.1996194127215176
 20
-58.68758903205261
 30
0.0
 11
1.449999999999932
 21
-58.62998305279183
 31
0.0
  0
LINE
  5
18A
330
22
100
AcDbEntity
  8
5
  6
Continuous
100
AcDbLine
 10
0.1013917038690124
 20
-67.30741960771383
 30
0.0
 11
0.2619907704788602
 21
-71.9063751561539
 31
0.0
  0
LINE
  5
18B
330
22
100
AcDbEntity
  8
5
  6
Continuous
100
AcDbLine
 10
8.0
 20
-71.9063751561539
 30
0.0
 11
0.2619907704788602
 21
-71.9063751561539
 31
0.0
  0
LINE
  5
18C
330
22
100
AcDbEntity
  8
5
  6
Continuous
100
AcDbLine
 10
0.1013917038690124
 20
-67.30741960771383
 30
0.0
 11
3.279454533789817
 21
-67.19643920819982
 31
0.0
  0
LINE
  5
18D
330
22
100
AcDbEntity
  8
5
  6
CENTER
100
AcDbLine
 10
184.764806483653
 20
-64.4063751561539
 30
0.0
 11
-4.29076099395752
 21
-64.4063751561539
 31
0.0
  0
LINE
  5
18E
330
22
100
AcDbEntity
  8
5
  6
Continuous
100
AcDbLine
 10
2.928695403054007
 20
-57.15201189915894
 30
0.0
 11
0.0
 21
-57.15201189915894
 31
0.0
  0
LINE
  5
18F
330
22
100
AcDbEntity
  8
5
  6
Continuous
100
AcDbLine
 10
8.0
 20
-56.99506622992502
 30
0.0
 11
2.923214739516084
 21
-56.99506622992502
 31
0.0
  0
LINE
  5
190
330
22
100
AcDbEntity
  8
5
  6
Continuous
100
AcDbLine
 10
3.279454533789817
 20
-67.19643920819982
 30
0.0
 11
2.923214739516084
 21
-56.99506622992502
 31
0.0
  0
LINE
  5
191
330
22
100
AcDbEntity
  8
5
  6
Continuous
100
AcDbLine
 10
1.449999999999932
 20
-60.3348408998597
 30
0.0
 11
3.039842240919256
 21
-60.3348408998597
 31
0.0
  0
LINE
  5
192
330
22
100
AcDbEntity
  8
5
  6
Continuous
100
AcDbLine
 10
8.0
 20
-71.4063751561539
 30
0.0
 11
8.0
 21
-71.9063751561539
 31
0.0
  0
LINE
  5
193
330
22
100
AcDbEntity
  8
5
  6
Continuous
100
AcDbLine
 10
3.175134398798832
 20
-64.2091014000915
 30
0.0
 11
1.456803952071368
 21
-64.2091014000915
 31
0.0
  0
LINE
  5
194
330
22
100
AcDbEntity
  8
5
  6
Continuous
100
AcDbLine
 10
8.0
 20
-57.91118462777064
 30
0.0
 11
2.955206298914391
 21
-57.91118462777064
 31
0.0
  0
LINE
  5
195
330
22
100
AcDbEntity
  8
5
  6
Continuous
100
AcDbLine
 10
35.0
 20
-57.64001999983071
 30
0.0
 11
8.0
 21
-57.64001999983071
 31
0.0
  0
LINE
  5
196
330
22
100
AcDbEntity
  8
5
  6
Continuous
100
AcDbLine
 10
35.0
 20
-57.4063751561539
 30
0.0
 11
8.0
 21
-57.4063751561539
 31
0.0
  0
LINE
  5
197
330
22
100
AcDbEntity
  8
5
  6
Continuous
100
AcDbLine
 10
35.0
 20
-57.4063751561539
 30
0.0
 11
35.0
 21
-71.4063751561539
 31
0.0
  0
LINE
  5
198
330
22
100
AcDbEntity
  8
5
  6
Continuous
100
AcDbLine
 10
179.9999999999999
 20
-57.9063751561539
 30
0.0
 11
35.0
 21
-57.9063751561539
 31
0.0
  0
LINE
  5
199
330
22
100
AcDbEntity
  8
5
  6
Continuous
100
AcDbLine
 10
179.9999999999999
 20
-70.9063751561539
 30
0.0
 11
35.0
 21
-70.9063751561539
 31
0.0
  0
LINE
  5
19A
330
22
100
AcDbEntity
  8
5
  6
Continuous
100
AcDbLine
 10
8.0
 20
-71.4063751561539
 30
0.0
 11
35.0
 21
-71.4063751561539
 31
0.0
  0
LINE
  5
19B
330
22
100
AcDbEntity
  8
5
  6
Continuous
100
AcDbLine
 10
179.9999999999999
 20
-61.80829894480058
 30
0.0
 11
35.0
 21
-61.80829894480058
 31
0.0
  0
LINE
  5
19C
330
22
100
AcDbEntity
  8
5
  6
Continuous
100
AcDbLine
 10
179.9999999999999
 20
-67.00445136750719
 30
0.0
 11
35.0
 21
-67.00445136750722
 31
0.0
  0
LINE
  5
19E
330
22
100
AcDbEntity
  8
5
  6
Continuous
100
AcDbLine
 10
8.0
 20
-56.99506622992502
 30
0.0
 11
8.0
 21
-57.4063751561539
 31
0.0
  0
LINE
  5
19F
330
22
100
AcDbEntity
  8
5
  6
Continuous
100
AcDbLine
 10
8.0
 20
-57.64001999983071
 30
0.0
 11
8.0
 21
-57.91118462777064
 31
0.0
  0
LINE
  5
1A1
330
22
100
AcDbEntity
  8
6
  6
Continuous
100
AcDbLine
 10
-63.93827821351181
 20
10.38296602568997
 30
0.0
 11
-59.64404081367638
 21
10.00726893471529
 31
0.0
  0
LINE
  5
1A2
330
22
100
AcDbEntity
  8
6
  6
Continuous
100
AcDbLine
 10
-54.28121387589874
 20
7.299035900899384
 30
0.0
 11
-56.75369578070945
 21
3.767965694354558
 31
0.0
  0
LINE
  5
1A3
330
22
100
AcDbEntity
  8
6
  6
Continuous
100
AcDbLine
 10
-61.78050800435199
 20
0.4777378866215543
 30
0.0
 11
-62.90281573309846
 21
2.88453466354747
 31
0.0
  0
LINE
  5
1A4
330
22
100
AcDbEntity
  8
6
  6
CENTER
100
AcDbLine
 10
-63.44361472129822
 20
6.053246573149494
 30
0.0
 11
-56.55638527870178
 21
6.053246573149494
 31
0.0
  0
LINE
  5
1A5
330
22
100
AcDbEntity
  8
6
  6
CENTER
100
AcDbLine
 10
-60.0
 20
-0.5685100555420206
 30
0.0
 11
-60.0
 21
18.09087562561035
 31
0.0
  0
LINE
  5
1A6
330
22
100
AcDbEntity
  8
6
  6
Continuous
100
AcDbLine
 10
-59.99756593877987
 20
-0.0000000000000284
 30
0.0
 11
-61.78050800435199
 21
0.4777378866215543
 31
0.0
  0
LINE
  5
1A7
330
22
100
AcDbEntity
  8
6
  6
Continuous
100
AcDbLine
 10
-58.30744469934416
 20
3.351639926365664
 30
0.0
 11
-56.75369578070945
 21
3.767965694354558
 31
0.0
  0
LINE
  5
1A8
330
22
100
AcDbEntity
  8
6
  6
Continuous
100
AcDbLine
 10
-59.99756593877987
 20
-0.0000000000000284
 30
0.0
 11
-60.07521165231049
 21
0.2897777478866601
 31
0.0
  0
ARC
  5
1A9
330
22
100
AcDbEntity
  8
6
  6
Continuous
100
AcDbCircle
 10
-57.66039708658786
 20
0.936825360643013
 30
0.0
 40
2.5
100
AcDbArc
 50
104.9999999999995
 51
195.0000000000001
  0
LINE
  5
1AA
330
22
100
AcDbEntity
  8
6
  6
DASHED
100
AcDbLine
 10
-59.80272624393763
 20
2.225400458015656
 30
0.0
 11
-62.99422366582951
 21
3.080559614857577
 31
0.0
  0
LINE
  5
1AB
330
22
100
AcDbEntity
  8
6
  6
Continuous
100
AcDbLine
 10
-54.75895172289165
 20
9.081977818575268
 30
0.0
 11
-54.28121383627001
 21
7.299035753003182
 31
0.0
  0
ARC
  5
1AC
330
22
100
AcDbEntity
  8
6
  6
Continuous
100
AcDbCircle
 10
-56.73885071021391
 20
10.63761273718569
 30
0.0
 40
2.5
100
AcDbArc
 50
224.9999999999995
 51
314.9999999999999
  0
LINE
  5
1AD
330
22
100
AcDbEntity
  8
6
  6
DASHED
100
AcDbLine
 10
-56.78362490054781
 20
8.138013714966377
 30
0.0
 11
-55.92846574370583
 21
4.946516293074467
 31
0.0
  0
LINE
  5
1AE
330
22
100
AcDbEntity
  8
6
  6
Continuous
100
AcDbLine
 10
-58.50661766318035
 20
8.869845784219365
 30
0.0
 11
-59.64404081382611
 21
10.00726893486515
 31
0.0
  0
LINE
  5
1AF
330
22
100
AcDbEntity
  8
6
  6
Continuous
100
AcDbLine
 10
-54.75895172289165
 20
9.081977818575268
 30
0.0
 11
-54.97108375724747
 21
8.869845784219365
 31
0.0
  0
LINE
  5
1B0
330
22
100
AcDbEntity
  8
6
  6
Continuous
100
AcDbLine
 10
-65.2434823383287
 20
9.077761900873071
 30
0.0
 11
-63.938278159378
 21
10.3829660798238
 31
0.0
  0
ARC
  5
1B1
330
22
100
AcDbEntity
  8
6
  6
Continuous
100
AcDbCircle
 10
-65.60075220319823
 20
6.585301621619692
 30
0.0
 40
2.5
100
AcDbArc
 50
344.9999999999994
 51
74.99999999999997
  0
LINE
  5
1B2
330
22
100
AcDbEntity
  8
6
  6
DASHED
100
AcDbLine
 10
-63.41364885551468
 20
7.796325546466392
 30
0.0
 11
-61.07731059046478
 21
10.13266381151627
 31
0.0
  0
LINE
  5
1B3
330
22
100
AcDbEntity
  8
6
  6
Continuous
100
AcDbLine
 10
-63.1859376374756
 20
5.938254008863396
 30
0.0
 11
-63.60226340546456
 21
4.384505090228657
 31
0.0
  0
LINE
  5
1B4
330
22
100
AcDbEntity
  8
6
  6
Continuous
100
AcDbLine
 10
-65.2434823383287
 20
9.077761900873071
 30
0.0
 11
-64.95370459044193
 21
9.0001161873424
 31
0.0
  0
CIRCLE
  5
1B5
330
22
100
AcDbEntity
  8
6
  6
Continuous
100
AcDbCircle
 10
-60.0
 20
6.053246573149522
 30
0.0
 40
2.25
  0
LINE
  5
1B6
330
22
100
AcDbEntity
  8
6
  6
Continuous
100
AcDbLine
 10
-60.0
 20
7.803246573149494
 30
0.0
 11
-60.0
 21
4.303246573149494
 31
0.0
  0
LINE
  5
1B7
330
22
100
AcDbEntity
  8
6
  6
Continuous
100
AcDbLine
 10
-61.51554445662282
 20
5.178246573149494
 30
0.0
 11
-58.48445554337718
 21
6.928246573149494
 31
0.0
  0
LINE
  5
1B8
330
22
100
AcDbEntity
  8
6
  6
Continuous
100
AcDbLine
 10
-58.48445554337718
 20
5.178246573149494
 30
0.0
 11
-61.51554445662282
 21
6.928246573149494
 31
0.0
  0
LINE
  5
1B9
330
22
100
AcDbEntity
  8
6
  6
CENTER
100
AcDbLine
 10
-50.86018085479748
 20
7.999999999999972
 30
0.0
 11
-67.67261505126953
 21
7.999999999999972
 31
0.0
  0
ARC
  5
1BA
330
22
100
AcDbEntity
  8
6
  6
Continuous
100
AcDbCircle
 10
-64.30000000000007
 20
9.0
 30
0.0
 40
1.499999999999999
100
AcDbArc
 50
64.96547692303393
 51
233.4997913580363
  0
LINE
  5
1BB
330
22
100
AcDbEntity
  8
6
  6
Continuous
100
AcDbLine
 10
-62.90281573309846
 20
2.88453466354747
 30
0.0
 11
-65.19223857097518
 21
7.794217958143292
 31
0.0
  0
LINE
  5
1BC
330
22
100
AcDbEntity
  8
6
  6
Continuous
100
AcDbLine
 10
-59.64404081367638
 20
10.00726893471529
 30
0.0
 11
-52.74563674300498
 21
9.403736782110485
 31
0.0
  0
ARC
  5
1BD
330
22
100
AcDbEntity
  8
6
  6
Continuous
100
AcDbCircle
 10
-60.0
 20
7.5
 30
0.0
 40
7.500000000000003
100
AcDbArc
 50
8.820147829233576
 51
171.1798521707665
  0
ARC
  5
1BE
330
22
100
AcDbEntity
  8
6
  6
Continuous
100
AcDbCircle
 10
-60.0
 20
9.800000000000011
 30
0.0
 40
7.499999999999999
100
AcDbArc
 50
188.8201478292335
 51
247.2294251675029
  0
LINE
  5
1BF
330
22
100
AcDbEntity
  8
6
  6
Continuous
100
AcDbLine
 10
-60.0
 20
2.299999999999983
 30
0.0
 11
-58.06684221439616
 21
3.416109167904466
 31
0.0
  0
LINE
  5
1C0
330
22
100
AcDbEntity
  8
6
  6
Continuous
100
AcDbLine
 10
-56.27615701585648
 20
4.449961749315065
 30
0.0
 11
-53.50480947161668
 21
6.049999999999983
 31
0.0
  0
ARC
  5
1C1
330
22
100
AcDbEntity
  8
6
  6
Continuous
100
AcDbCircle
 10
-60.0
 20
9.800000000000011
 30
0.0
 40
7.499999999999999
100
AcDbArc
 50
329.9999999999999
 51
351.1798521707665
  0
INSERT
  5
1C5
330
22
100
AcDbEntity
  8
6
  6
Continuous
100
AcDbBlockReference
  2
MARK4_3
 10
-61.36914587020874
 20
12.77257919311518
 30
0.0
 41
3.0
 42
3.0
 50
149.0000000000001
  0
INSERT
  5
1C9
330
22
100
AcDbEntity
  8
6
  6
Continuous
100
AcDbBlockReference
  2
MARK4_3
 10
-60.0
 20
6.05324649810791
 30
0.0
 41
3.0
 42
3.0
 50
175.0
  0
INSERT
  5
1CD
330
22
100
AcDbEntity
  8
6
  6
Continuous
100
AcDbBlockReference
  2
MARK4_3
 10
-60.98240852355957
 20
1.63313889503479
 30
0.0
 41
3.0
 42
3.0
 50
211.0
  0
LINE
  5
34D
330
22
100
AcDbEntity
  8
0
100
AcDbLine
 10
0.0
 20
0.0
 30
0.0
 11
0.3999999999999773
 21
0.0
 31
0.0
  0
LINE
  5
34E
330
22
100
AcDbEntity
  8
0
100
AcDbLine
 10
1.049999999999955
 20
0.0
 30
0.0
 11
1.449999999999932
 21
0.0
 31
0.0
  0
LINE
  5
34F
330
22
100
AcDbEntity
  8
0
100
AcDbLine
 10
1.449999999999932
 20
0.0
 30
0.0
 11
1.449999999999932
 21
0.3999999999999773
 31
0.0
  0
LINE
  5
350
330
22
100
AcDbEntity
  8
0
100
AcDbLine
 10
0.0
 20
0.0
 30
0.0
 11
0.0
 21
0.3999999999999773
 31
0.0
  0
LINE
  5
35D
330
22
100
AcDbEntity
  8
0
100
AcDbLine
 10
179.9999999999999
 20
-70.9063751561539
 30
0.0
 11
179.9999999999999
 21
-57.9063751561539
 31
0.0
  0
DIMENSION
  5
371
330
22
100
AcDbEntity
  8
AM_5
100
AcDbDimension
  2
*D3
 10
93.92248535156244
 20
-16.26008638695623
 30
0.0
 11
100.4224853515624
 21
-13.67008638695623
 31
0.0
 70
    32
 71
     5
 42
13.0
  3
Standard$0
100
AcDbAlignedDimension
 13
106.9224853515624
 23
8.0
 33
0.0
 14
93.92248535156244
 24
8.0
 34
0.0
 50
180.0
100
AcDbRotatedDimension
1001
ACAD
1000
DSTYLE
1002
{
1070
    41
1040
3.0
1070
    42
1040
1.0
1070
    43
1040
5.0
1070
    44
1040
2.0
1070
    46
1040
3.0
1070
    73
1070
     0
1070
    74
1070
     0
1070
    77
1070
     1
1070
    78
1070
     8
1070
   140
1040
5.0
1070
   141
1040
2.0
1070
   145
1040
1.0
1070
   171
1070
     4
1070
   172
1070
     1
1002
}
  0
DIMENSION
  5
3B5
330
22
100
AcDbEntity
  8
AM_5
100
AcDbDimension
  2
*D4
 10
104.775945940229
 20
2.518450866504338
 30
0.0
 11
86.7561401443147
 21
25.20763084978013
 31
0.0
 70
   163
 71
     5
 42
14.00000000000005
  3
Standard$3
100
AcDbDiametricDimension
 15
96.06902476289579
 25
13.48154913349566
 35
0.0
 40
0.0
1001
ACAD
1000
DSTYLE
1002
{
1070
    41
1040
3.0
1070
    42
1040
1.0
1070
    43
1040
5.0
1070
    44
1040
2.0
1070
    46
1040
3.0
1070
    73
1070
     0
1070
    74
1070
     0
1070
    77
1070
     1
1070
    78
1070
     8
1070
   140
1040
5.0
1070
   141
1040
2.0
1070
   145
1040
1.0
1070
   171
1070
     4
1070
   172
1070
     1
1002
}
  0
DIMENSION
  5
3E0
330
22
100
AcDbEntity
  8
AM_5
100
AcDbDimension
  2
*D5
 10
-0.000000000000002
 20
-32.65085303818216
 30
0.0
 11
89.99999999999997
 21
-30.06085303818216
 31
0.0
 70
    32
 71
     5
 42
179.9999999999999
  3
Standard$0
100
AcDbAlignedDimension
 13
179.9999999999999
 23
8.0
 33
0.0
 14
0.0
 24
0.0
 34
0.0
 50
180.0
100
AcDbRotatedDimension
1001
ACAD
1000
DSTYLE
1002
{
1070
    41
1040
3.0
1070
    42
1040
1.0
1070
    43
1040
5.0
1070
    44
1040
2.0
1070
    46
1040
3.0
1070
    73
1070
     0
1070
    74
1070
     0
1070
    77
1070
     1
1070
    78
1070
     8
1070
   140
1040
5.0
1070
   141
1040
2.0
1070
   145
1040
1.0
1070
   171
1070
     4
1070
   172
1070
     1
1002
}
  0
DIMENSION
  5
40A
330
22
100
AcDbEntity
  8
AM_5
100
AcDbDimension
  2
*D6
 10
-0.0000000000000013
 20
-20.55249752212899
 30
0.0
 11
17.5
 21
-17.96249752212899
 31
0.0
 70
    32
 71
     5
 42
35.0
  3
Standard$0
100
AcDbAlignedDimension
 13
35.0
 23
1.5
 33
0.0
 14
0.0
 24
0.0
 34
0.0
 50
180.0
100
AcDbRotatedDimension
1001
ACAD
1000
DSTYLE
1002
{
1070
    41
1040
3.0
1070
    42
1040
1.0
1070
    43
1040
5.0
1070
    44
1040
2.0
1070
    46
1040
3.0
1070
    73
1070
     0
1070
    74
1070
     0
1070
    77
1070
     1
1070
    78
1070
     8
1070
   140
1040
5.0
1070
   141
1040
2.0
1070
   145
1040
1.0
1070
   171
1070
     4
1070
   172
1070
     1
1002
}
  0
DIMENSION
  5
42E
330
22
100
AcDbEntity
  8
AM_5
100
AcDbDimension
  2
*D7
 10
-19.60828150120403
 20
8.000000000000005
 30
0.0
 11
-22.19828150120403
 21
4.000000000000004
 31
0.0
 70
    32
 71
     5
 42
8.0
  3
Standard$0
100
AcDbAlignedDimension
 13
0.0
 23
0.0
 33
0.0
 14
-1.321475863456726
 24
8.0
 34
0.0
 50
90.0
100
AcDbRotatedDimension
1001
ACAD
1000
DSTYLE
1002
{
1070
    41
1040
3.0
1070
    42
1040
1.0
1070
    43
1040
5.0
1070
    44
1040
2.0
1070
    46
1040
3.0
1070
    73
1070
     0
1070
    74
1070
     0
1070
    77
1070
     1
1070
    78
1070
     8
1070
   140
1040
5.0
1070
   141
1040
2.0
1070
   145
1040
1.0
1070
   171
1070
     4
1070
   172
1070
     1
1002
}
  0
LINE
  5
452
330
22
100
AcDbEntity
  8
0
100
AcDbLine
 10
-0.1996194127215176
 20
-58.68758903205261
 30
0.0
 11
-0.1996194127215176
 21
-59.64426719177698
 31
0.0
  0
DIMENSION
  5
487
330
22
100
AcDbEntity
  8
AM_5
100
AcDbDimension
  2
*D8
 10
0.1013917038690124
 20
-67.30741960771383
 30
0.0
 11
-9.844087384398403
 21
-85.50325516784108
 31
0.0
 70
    34
 71
     5
 42
0.03490658503988
  3
Standard$2
100
AcDb2LineAngularDimension
 13
-0.1996194127215176
 23
-58.68758903205261
 33
0.0
 14
-0.1996194127215176
 24
-59.64426719177698
 34
0.0
 15
-0.1996194127215176
 25
-58.68758903205261
 35
0.0
 16
0.5163102651131624
 26
-89.44684707757801
 36
0.0
1001
ACAD
1000
DSTYLE
1002
{
1070
    41
1040
3.0
1070
    42
1040
1.0
1070
    43
1040
5.0
1070
    44
1040
2.0
1070
    46
1040
3.0
1070
    73
1070
     0
1070
    74
1070
     0
1070
    77
1070
     1
1070
    78
1070
     8
1070
   140
1040
5.0
1070
   141
1040
2.0
1070
   145
1040
1.0
1070
   171
1070
     4
1070
   172
1070
     1
1002
}
  0
TEXT
  5
4C0
330
22
100
AcDbEntity
  8
0
100
AcDbText
 10
22.12321908406682
 20
-93.75121376840724
 30
0.0
 40
5.0
  1
%%uSGITR14
100
AcDbText
  0
DIMENSION
  5
4DD
330
22
100
AcDbEntity
  8
AM_5
100
AcDbDimension
  2
*D9
 10
-0.0000000000000007
 20
-10.9301496904103
 30
0.0
 11
-18.19700757575754
 21
-10.9301496904103
 31
0.0
 70
   160
  1
\fMS UI Gothic|b0|i0|c1|p0;1.0～2.0
 71
     5
 42
1.449999999999932
  3
Standard$0
100
AcDbAlignedDimension
 13
1.449999999999932
 23
0.0
 33
0.0
 14
0.0
 24
0.0
 34
0.0
 50
180.0
100
AcDbRotatedDimension
1001
ACAD
1000
DSTYLE
1002
{
1070
    41
1040
3.0
1070
    42
1040
1.0
1070
    43
1040
5.0
1070
    44
1040
2.0
1070
    46
1040
3.0
1070
    73
1070
     0
1070
    74
1070
     0
1070
    77
1070
     1
1070
    78
1070
     8
1070
   140
1040
5.0
1070
   141
1040
2.0
1070
   145
1040
1.0
1070
   171
1070
     4
1070
   172
1070
     1
1002
}
  0
DIMENSION
  5
540
330
22
100
AcDbEntity
  8
AM_5
100
AcDbDimension
  2
*D10
 10
0.6167664340480314
 20
15.0
 30
0.0
 11
11.8560035784628
 21
32.55686483715455
 31
0.0
 70
    34
 71
     5
 42
0.0349065850398991
  3
Standard$2
100
AcDb2LineAngularDimension
 13
0.0
 23
0.0
 33
0.0
 14
0.0
 24
0.3999999999999773
 34
0.0
 15
0.4102221627734934
 25
9.085345933649393
 35
0.0
 16
0.3993944235485744
 26
31.66199335475807
 36
0.0
1001
ACAD
1000
DSTYLE
1002
{
1070
    41
1040
3.0
1070
    42
1040
1.0
1070
    43
1040
5.0
1070
    44
1040
2.0
1070
    46
1040
3.0
1070
    73
1070
     0
1070
    74
1070
     0
1070
    77
1070
     1
1070
    78
1070
     8
1070
   140
1040
5.0
1070
   141
1040
2.0
1070
   145
1040
1.0
1070
   171
1070
     4
1070
   172
1070
     1
1002
}
  0
ENDSEC
  0
SECTION
  2
OBJECTS
  0
DICTIONARY
  5
C
330
0
100
AcDbDictionary
281
     1
  3
ACAD_COLOR
350
1B
  3
ACAD_GROUP
350
D
  3
ACAD_LAYOUT
350
19
  3
ACAD_MATERIAL
350
1A
  3
ACAD_MLINESTYLE
350
16
  3
ACAD_PLOTSETTINGS
350
18
  3
ACAD_PLOTSTYLENAME
350
E
  3
ACAD_TABLESTYLE
350
1C
  3
AcAmCatalogState
350
270
  3
ACDBHEADERROUNDTRIPXREC
350
6E2
  3
AcDbVariableDictionary
350
2B8
  3
ACDMSYSVARMGR
350
22E
  3
ACGREF_MASTER
350
228
  3
ACGREFACAD_MASTER
350
250
  3
AcmDictionary
350
26E
  3
ACME_BOM_MANAGER_NAME
350
222
  3
ACME_COMMAND_HISTORY
350
21F
  3
ACME_SCOPE_NAME
350
21E
  3
ACMESTATEMGR
350
227
  3
AcmeSysVarManager
350
220
  3
AcmSystemVariableManager
350
279
  3
AD_APPL
350
25B
  3
ADSYSVARMGR
350
25A
  3
AmdtNamedDwgMgr
350
24B
  3
AMG
350
217
  3
AMGSNAPSETTINGS
350
2B0
  3
AMI_MASTER
350
253
  3
AUTOCAD_ASSEMBLIES_PROJECT
350
263
  3
Designer_Assemblies_SysVars
350
25E
  3
GREFAM_MODULE
350
254
  0
DICTIONARY
  5
1B
102
{ACAD_REACTORS
330
C
102
}
330
C
100
AcDbDictionary
281
     1
  0
DICTIONARY
  5
D
102
{ACAD_REACTORS
330
C
102
}
330
C
100
AcDbDictionary
281
     1
  0
DICTIONARY
  5
19
102
{ACAD_REACTORS
330
C
102
}
330
C
100
AcDbDictionary
281
     1
  3
Model
350
25
  3
レイアウト1
350
21
  0
DICTIONARY
  5
1A
102
{ACAD_REACTORS
330
C
102
}
330
C
100
AcDbDictionary
281
     1
  0
DICTIONARY
  5
16
102
{ACAD_REACTORS
330
C
102
}
330
C
100
AcDbDictionary
281
     1
  3
Standard
350
17
  0
DICTIONARY
  5
18
102
{ACAD_REACTORS
330
C
102
}
330
C
100
AcDbDictionary
281
     1
  0
ACDBDICTIONARYWDFLT
  5
E
102
{ACAD_REACTORS
330
C
102
}
330
C
100
AcDbDictionary
281
     1
  3
Normal
350
F
100
AcDbDictionaryWithDefault
340
F
  0
DICTIONARY
  5
1C
102
{ACAD_REACTORS
330
C
102
}
330
C
100
AcDbDictionary
281
     1
  3
Standard
350
1D
  0
ACAD_PROXY_OBJECT
  5
270
102
{ACAD_REACTORS
330
C
102
}
330
C
100
AcDbProxyObject
 90
      499
 91
      545
 95
       25
 70
     0
 93
      416
310
3FFFFFFFE00A028140293AE2E2816B9B2B93B32B92E45D249652E272A25C83ECB652E29A3A4AA29462F497CC859C83ECB65400AA
  0
DICTIONARY
  5
6E2
102
{ACAD_REACTORS
330
C
102
}
330
C
100
AcDbDictionary
281
     1
  3
COLORDICT
350
6E3
  3
MATERIALDICT
350
6E4
  0
DICTIONARY
  5
2B8
102
{ACAD_REACTORS
330
C
102
}
330
C
100
AcDbDictionary
281
     1
  3
CTABLESTYLE
350
2B9
  3
DIMASSOC
350
6E0
  3
HIDETEXT
350
6E1
  0
ACAD_PROXY_OBJECT
  5
22E
102
{ACAD_REACTORS
330
C
102
}
330
C
100
AcDbProxyObject
 90
      499
 91
      506
 95
       25
 70
     0
 93
      240
310
4C51A47A0000000000000000000000000000000000000000000000000000
330
22F
330
230
330
231
330
232
330
233
330
234
330
235
330
236
330
237
330
238
330
239
330
23A
330
23B
330
23C
330
23D
330
23E
330
23F
330
240
330
241
330
242
330
243
330
244
330
245
330
246
330
247
330
248
 94
        0
  0
ACAD_PROXY_OBJECT
  5
228
102
{ACAD_REACTORS
330
C
102
}
330
C
100
AcDbProxyObject
 90
      499
 91
      514
 95
       25
 70
     0
 93
       34
310
0400004280
  0
ACAD_PROXY_OBJECT
  5
250
102
{ACAD_REACTORS
330
C
102
}
330
C
100
AcDbProxyObject
 90
      499
 91
      523
 95
       25
 70
     0
 93
      114
310
04000041C080000000000000000000
  0
DICTIONARY
  5
26E
102
{ACAD_REACTORS
330
C
102
}
330
C
100
AcDbDictionary
281
     1
  3
AcmBOMDATA
350
26F
  3
AcmStdDictionary
350
27B
  3
AMDTSECTSYM_ARROWCOLOR
350
29B
  0
ACAD_PROXY_OBJECT
  5
222
102
{ACAD_REACTORS
330
C
102
}
330
C
100
AcDbProxyObject
 90
      499
 91
      508
 95
       25
 70
     0
 93
       50
310
00010040400000
330
0
330
0
330
223
 94
        0
  0
ACAD_PROXY_OBJECT
  5
21F
102
{ACAD_REACTORS
330
C
102
}
330
C
100
AcDbProxyObject
 90
      499
 91
      505
 95
       25
 70
     0
 93
     5518
310
478050844524F5047454F4D8050C475249505F535452455443488050A414D504F57455244494D40405184D5347202D20436F6D6D616E642043414E43454C4C45442E014311D4925417D4D514915510D22014390535413D5D15491125357D05391D01014B5354D1C80B481414104E88080819195CDADD1BDC0B985C9E08119A
310
5B1955995C9CDA5BDB8E880E4B8C8B8C0B8D005055153415645404052D4D5347202D205050413A2020206465736B746F702E6172782046696C6556657273696F6E3A20392E322E302E34014390535115149154D15511109353D1102014213880B4815539113C05084E202D20554E444F014115539113E014115539113E0141
310
54155491D1601415454D05591501014B5354D1C80B481414104E88080819195CDADD1BDC0B985C9E08119A5B1955995C9CDA5BDB8E880E4B8C8B8C0B8D0050E414D4454524553455444424D4F4440805084E202D20554E444F014213880B4815539113C0504554E444F80504554E444F80506524F544154458050844524F50
310
47454F4D80504554E444F80505584C494E45805064D4952524F528050844524F5047454F4D80504554E444F805054552415345805045A4F4F4D404052D4D5347202D205050413A2020206465736B746F702E6172782046696C6556657273696F6E3A20392E322E302E3401411353D59150101461354D1C80B4810DBDB5B585
310
B990810D05390D1531311510B805045A4F4F4D805055153415645404052D4D5347202D205050413A2020206465736B746F702E6172782046696C6556657273696F6E3A20392E322E302E34014390535115149154D15511109353D1102014213880B4815539113C05084E202D20554E444F014115539113E014115539113E01
310
4154155491D1501014B5354D1C80B481414104E88080819195CDADD1BDC0B985C9E08119A5B1955995C9CDA5BDB8E880E4B8C8B8C0B8D0
  0
ACAD_PROXY_OBJECT
  5
21E
102
{ACAD_REACTORS
330
C
102
}
330
C
100
AcDbProxyObject
 90
      499
 91
      504
 95
       25
 70
     0
 93
      546
310
090000464080000000000000000012F4CE0000000000000000000000000000000000000000000000000000000000000000000000000000000000000000000000AAA406AA80
360
221
360
223
360
229
360
22A
360
22B
360
22C
360
22F
360
230
360
231
360
232
360
233
360
234
360
235
360
236
360
237
360
238
360
239
360
23A
360
23B
360
23C
360
23D
360
23E
360
23F
360
240
360
241
360
242
360
243
360
244
360
245
360
246
360
247
360
248
360
256
360
257
360
258
360
259
360
25F
360
260
360
261
360
262
360
267
360
268
360
269
360
26A
360
26B
360
26C
360
27A
 94
        0
  0
ACAD_PROXY_OBJECT
  5
227
102
{ACAD_REACTORS
330
C
102
}
330
C
100
AcDbProxyObject
 90
      499
 91
      513
 95
       25
 70
     0
 93
       50
310
09000042641280
  0
ACAD_PROXY_OBJECT
  5
220
102
{ACAD_REACTORS
330
C
102
}
330
C
100
AcDbProxyObject
 90
      499
 91
      506
 95
       25
 70
     0
 93
       32
310
90140A00
330
221
 94
        0
  0
ACAD_PROXY_OBJECT
  5
279
102
{ACAD_REACTORS
330
C
102
}
330
C
100
AcDbProxyObject
 90
      499
 91
      506
 95
       25
 70
     0
 93
       32
310
90140A00
330
27A
 94
        0
  0
ACAD_PROXY_OBJECT
  5
25B
102
{ACAD_REACTORS
330
C
102
}
330
C
100
AcDbProxyObject
 90
      499
 91
      533
 95
       25
 70
     0
 93
       42
310
000900004040
330
256
 94
        0
  0
ACAD_PROXY_OBJECT
  5
25A
102
{ACAD_REACTORS
330
C
102
}
330
C
100
AcDbProxyObject
 90
      499
 91
      506
 95
       25
 70
     0
 93
        8
310
AA
  0
ACAD_PROXY_OBJECT
  5
24B
102
{ACAD_REACTORS
330
C
102
}
330
C
100
AcDbProxyObject
 90
      499
 91
      520
 95
       25
 70
     0
 93
       42
310
000100005E80
330
229
 94
        0
  0
DICTIONARY
  5
217
102
{ACAD_REACTORS
330
C
102
}
330
C
100
AcDbDictionary
281
     1
  3
AcMgSettings
350
218
  3
AMGLAYCFG
350
27D
  0
DICTIONARY
  5
2B0
102
{ACAD_REACTORS
330
C
102
}
330
C
100
AcDbDictionary
281
     1
  3
DIMENSION
350
2B5
  3
FEA
350
2B4
  3
HATCH (1)
350
2B1
  3
HATCH (2)
350
2B2
  3
SIMPLE WELD
350
2B6
  3
SYMBOLS
350
2B3
  0
ACAD_PROXY_OBJECT
  5
253
102
{ACAD_REACTORS
330
C
102
}
330
C
100
AcDbProxyObject
 90
      499
 91
      526
 95
       25
 70
     0
 93
       34
310
0500004280
  0
ACAD_PROXY_OBJECT
  5
263
102
{ACAD_REACTORS
330
C
102
}
330
C
100
AcDbProxyObject
 90
      499
 91
      537
 95
       25
 70
     0
 93
       98
310
0900004E400000000000000000
330
26A
330
0
330
26B
330
0
330
0
330
0
330
0
330
0
 94
        0
  0
ACAD_PROXY_OBJECT
  5
25E
102
{ACAD_REACTORS
330
C
102
}
330
C
100
AcDbProxyObject
 90
      499
 91
      506
 95
       25
 70
     0
 93
       56
310
90441600000000
330
25F
330
260
330
261
330
262
 94
        0
  0
ACAD_PROXY_OBJECT
  5
254
102
{ACAD_REACTORS
330
C
102
}
330
C
100
AcDbProxyObject
 90
      499
 91
      527
 95
       25
 70
     0
 93
        8
310
05
  0
LAYOUT
  5
25
102
{ACAD_REACTORS
330
19
102
}
330
19
100
AcDbPlotSettings
  1

  2
Canon LBP-1420
  4
A4
  6

 40
5.873749732971191
 41
5.873747825622559
 42
5.873748779296875
 43
5.873748779296875
 44
209.9733276367188
 45
296.9259948730469
 46
0.0
 47
0.0
 48
0.0
 49
0.0
140
0.0
141
0.0
142
1.0
143
35.83847550005447
 70
 11952
 72
     0
 73
     1
 74
     0
  7
sei_cad.ctb
 75
     0
147
0.0279029726026845
148
30.18128800671396
149
78.43304307512811
100
AcDbLayout
  1
Model
 70
     1
 71
     0
 10
0.0
 20
0.0
 11
12.0
 21
9.0
 12
0.0
 22
0.0
 32
0.0
 14
0.0
 24
0.0
 34
0.0
 15
0.0
 25
0.0
 35
0.0
146
0.0
 13
0.0
 23
0.0
 33
0.0
 16
1.0
 26
0.0
 36
0.0
 17
0.0
 27
1.0
 37
0.0
 76
     0
330
22
1001
ACAD_PSEXT
1000
Canon LBP-1420
1000
Canon LASER SHOT LBP-1420
1000
10.254.89.243:lp
1000

1070
     0
  0
LAYOUT
  5
21
102
{ACAD_REACTORS
330
19
102
}
330
19
100
AcDbPlotSettings
  1

  2
Canon LBP-1420
  4

  6

 40
0.0
 41
0.0
 42
0.0
 43
0.0
 44
0.0
 45
0.0
 46
0.0
 47
0.0
 48
0.0
 49
0.0
140
0.0
141
0.0
142
1.0
143
1.0
 70
   688
 72
     0
 73
     0
 74
     5
  7
sei_cad.ctb
 75
    16
147
1.0
148
0.0
149
0.0
100
AcDbLayout
  1
レイアウト1
 70
     1
 71
     1
 10
0.0
 20
0.0
 11
12.0
 21
9.0
 12
0.0
 22
0.0
 32
0.0
 14
1.000000000000000E+20
 24
1.000000000000000E+20
 34
1.000000000000000E+20
 15
-1.000000000000000E+20
 25
-1.000000000000000E+20
 35
-1.000000000000000E+20
146
0.0
 13
0.0
 23
0.0
 33
0.0
 16
1.0
 26
0.0
 36
0.0
 17
0.0
 27
1.0
 37
0.0
 76
     0
330
1E
  0
MLINESTYLE
  5
17
102
{ACAD_REACTORS
330
16
102
}
330
16
100
AcDbMlineStyle
  2
STANDARD
 70
     0
  3

 62
   256
 51
90.0
 52
90.0
 71
     2
 49
0.5
 62
   256
  6
BYLAYER
 49
-0.5
 62
   256
  6
BYLAYER
  0
ACDBPLACEHOLDER
  5
F
102
{ACAD_REACTORS
330
E
102
}
330
E
  0
TABLESTYLE
  5
1D
102
{ACAD_REACTORS
330
1C
102
}
330
1C
100
AcDbTableStyle
  3
Standard
 70
     0
 71
     0
 40
0.06
 41
0.06
280
     0
281
     0
  7
STANDARD
140
0.18
170
     2
 62
     0
 63
     7
283
     0
274
    -2
284
     1
 64
     0
275
    -2
285
     1
 65
     0
276
    -2
286
     1
 66
     0
277
    -2
287
     1
 67
     0
278
    -2
288
     1
 68
     0
279
    -2
289
     1
 69
     0
  7
STANDARD
140
0.25
170
     5
 62
     0
 63
     7
283
     0
274
    -2
284
     1
 64
     0
275
    -2
285
     1
 65
     0
276
    -2
286
     1
 66
     0
277
    -2
287
     1
 67
     0
278
    -2
288
     1
 68
     0
279
    -2
289
     1
 69
     0
  7
STANDARD
140
0.18
170
     5
 62
     0
 63
     7
283
     0
274
    -2
284
     1
 64
     0
275
    -2
285
     1
 65
     0
276
    -2
286
     1
 66
     0
277
    -2
287
     1
 67
     0
278
    -2
288
     1
 68
     0
279
    -2
289
     1
 69
     0
  0
XRECORD
  5
6E3
102
{ACAD_REACTORS
330
6E2
102
}
330
6E2
100
AcDbXrecord
280
     1
340
1B
  0
XRECORD
  5
6E4
102
{ACAD_REACTORS
330
6E2
102
}
330
6E2
100
AcDbXrecord
280
     1
340
1A
  0
DICTIONARYVAR
  5
2B9
102
{ACAD_REACTORS
330
2B8
102
}
330
2B8
100
DictionaryVariables
280
     0
  1
STANDARD
  0
DICTIONARYVAR
  5
6E0
102
{ACAD_REACTORS
330
2B8
102
}
330
2B8
100
DictionaryVariables
280
     0
  1
1
  0
DICTIONARYVAR
  5
6E1
102
{ACAD_REACTORS
330
2B8
102
}
330
2B8
100
DictionaryVariables
280
     0
  1
0
  0
ACAD_PROXY_OBJECT
  5
26F
102
{ACAD_REACTORS
330
26E
102
}
330
26E
100
AcDbProxyObject
 90
      499
 91
      544
 95
       25
 70
     0
 93
       76
310
90100057356C1D7740A0
  0
DICTIONARY
  5
27B
102
{ACAD_REACTORS
330
26E
102
}
330
26E
100
AcDbDictionary
281
     1
  3
ANSI
350
27C
  0
XRECORD
  5
29B
102
{ACAD_REACTORS
330
26E
102
}
330
26E
100
AcDbXrecord
280
     1
 90
-1023410169
  0
ACAD_PROXY_OBJECT
  5
221
330
21E
100
AcDbProxyObject
 90
      499
 91
      507
 95
       25
 70
     0
 93
      156
310
000101439050D35154D6535093D314D256915080
330
21E
 94
        0
  0
ACAD_PROXY_OBJECT
  5
223
330
21E
100
AcDbProxyObject
 90
      499
 91
      509
 95
       25
 70
     0
 93
      120
310
000101422565255A6557080C402B00
330
21E
330
0
330
0
 94
        0
  0
ACAD_PROXY_OBJECT
  5
229
330
21E
100
AcDbProxyObject
 90
      499
 91
      515
 95
       25
 70
     0
 93
      366
310
0001014124FEA55D00507392E322E302E32014124FEA55D00507392E322E302E3240501000041905394D24CCC658
330
21E
330
22A
330
22E
 94
        0
  0
ACAD_PROXY_OBJECT
  5
22A
330
21E
100
AcDbProxyObject
 90
      499
 91
      516
 95
       25
 70
     0
 93
       48
310
000190140A00
330
21E
330
22B
 94
        0
  0
ACAD_PROXY_OBJECT
  5
22B
330
21E
100
AcDbProxyObject
 90
      499
 91
      517
 95
       25
 70
     0
 93
       48
310
0001AA000000
330
21E
330
21
330
22C
330
0
 94
        0
  0
ACAD_PROXY_OBJECT
  5
22C
330
21E
100
AcDbProxyObject
 90
      499
 91
      518
 95
       25
 70
     0
 93
       28
310
0001AAA0
330
21E
 94
        0
  0
ACAD_PROXY_OBJECT
  5
22F
330
21E
100
AcDbProxyObject
 90
      499
 91
      507
 95
       25
 70
     0
 93
      108
310
000101421053521310D05310D010
330
21E
 94
        0
  0
ACAD_PROXY_OBJECT
  5
230
330
21E
100
AcDbProxyObject
 90
      499
 91
      507
 95
       25
 70
     0
 93
      124
310
00010142905354915554D15112535010
330
21E
 94
        0
  0
ACAD_PROXY_OBJECT
  5
231
330
21E
100
AcDbProxyObject
 90
      499
 91
      507
 95
       25
 70
     0
 93
      132
310
00010143105354D150D51253D391125360
330
21E
 94
        0
  0
ACAD_PROXY_OBJECT
  5
232
330
21E
100
AcDbProxyObject
 90
      499
 91
      507
 95
       25
 70
     0
 93
      124
310
00010142905355941093D49111549010
330
21E
 94
        0
  0
ACAD_PROXY_OBJECT
  5
233
330
21E
100
AcDbProxyObject
 90
      499
 91
      507
 95
       25
 70
     0
 93
      116
310
0001014290535115D1D0D3D313D4A0
330
21E
 94
        0
  0
ACAD_PROXY_OBJECT
  5
234
330
21E
100
AcDbProxyObject
 90
      499
 91
      507
 95
       25
 70
     0
 93
      148
310
00010143505355925155D49151949154D21010
330
21E
 94
        0
  0
ACAD_PROXY_OBJECT
  5
235
330
21E
100
AcDbProxyObject
 90
      499
 91
      507
 95
       25
 70
     0
 93
      172
310
00010144105350539393D51154149154D15495915010
330
21E
 94
        0
  0
ACAD_PROXY_OBJECT
  5
236
330
21E
100
AcDbProxyObject
 90
      499
 91
      507
 95
       25
 70
     0
 93
      172
310
00010144105350555513D11253505494905391D15010
330
21E
 94
        0
  0
ACAD_PROXY_OBJECT
  5
237
330
21E
100
AcDbProxyObject
 90
      499
 91
      507
 95
       25
 70
     0
 93
      124
310
00010142D05351561514915191125360
330
21E
 94
        0
  0
ACAD_PROXY_OBJECT
  5
238
330
21E
100
AcDbProxyObject
 90
      499
 91
      507
 95
       25
 70
     0
 93
      132
310
00010142D05355105410539393D5115010
330
21E
 94
        0
  0
ACAD_PROXY_OBJECT
  5
239
330
21E
100
AcDbProxyObject
 90
      499
 91
      507
 95
       25
 70
     0
 93
      108
310
00010142105350555513D0D31010
330
21E
 94
        0
  0
ACAD_PROXY_OBJECT
  5
23A
330
21E
100
AcDbProxyObject
 90
      499
 91
      507
 95
       25
 70
     0
 93
      108
310
00010142105350D3119150551050
330
21E
 94
        0
  0
ACAD_PROXY_OBJECT
  5
23B
330
21E
100
AcDbProxyObject
 90
      499
 91
      507
 95
       25
 70
     0
 93
      108
310
00010142105350D315925155D3F0
330
21E
 94
        0
  0
ACAD_PROXY_OBJECT
  5
23C
330
21E
100
AcDbProxyObject
 90
      499
 91
      507
 95
       25
 70
     0
 93
      148
310
0001014350535212511156915493D112535010
330
21E
 94
        0
  0
ACAD_PROXY_OBJECT
  5
23D
330
21E
100
AcDbProxyObject
 90
      499
 91
      507
 95
       25
 70
     0
 93
      124
310
00010142905352105510D21254D3D010
330
21E
 94
        0
  0
ACAD_PROXY_OBJECT
  5
23E
330
21E
100
AcDbProxyObject
 90
      499
 91
      507
 95
       25
 70
     0
 93
      148
310
00010143905354D25391D31152105513105660
330
21E
 94
        0
  0
ACAD_PROXY_OBJECT
  5
23F
330
21E
100
AcDbProxyObject
 90
      499
 91
      507
 95
       25
 70
     0
 93
      124
310
00010142D0535115D1D193111254D420
330
21E
 94
        0
  0
ACAD_PROXY_OBJECT
  5
240
330
21E
100
AcDbProxyObject
 90
      499
 91
      507
 95
       25
 70
     0
 93
      100
310
00010142105350555513D213A0
330
21E
 94
        0
  0
ACAD_PROXY_OBJECT
  5
241
330
21E
100
AcDbProxyObject
 90
      499
 91
      507
 95
       25
 70
     0
 93
      116
310
000101425053521390D3D553951010
330
21E
 94
        0
  0
ACAD_PROXY_OBJECT
  5
242
330
21E
100
AcDbProxyObject
 90
      499
 91
      507
 95
       25
 70
     0
 93
      108
310
0001014210535213941493D29010
330
21E
 94
        0
  0
ACAD_PROXY_OBJECT
  5
243
330
21E
100
AcDbProxyObject
 90
      499
 91
      507
 95
       25
 70
     0
 93
      108
310
0001014210535213951654115070
330
21E
 94
        0
  0
ACAD_PROXY_OBJECT
  5
244
330
21E
100
AcDbProxyObject
 90
      499
 91
      507
 95
       25
 70
     0
 93
      108
310
000101421053521395925155D0F0
330
21E
 94
        0
  0
ACAD_PROXY_OBJECT
  5
245
330
21E
100
AcDbProxyObject
 90
      499
 91
      507
 95
       25
 70
     0
 93
      140
310
00010143505354D150D51253D390D3D41660
330
21E
 94
        0
  0
ACAD_PROXY_OBJECT
  5
246
330
21E
100
AcDbProxyObject
 90
      499
 91
      507
 95
       25
 70
     0
 93
      108
310
00010142105350D3141493D29030
330
21E
 94
        0
  0
ACAD_PROXY_OBJECT
  5
247
330
21E
100
AcDbProxyObject
 90
      499
 91
      519
 95
       25
 70
     0
 93
      212
310
00010143905350555513D2105510D21493D500000000000002E400
330
21E
 94
        0
  0
ACAD_PROXY_OBJECT
  5
248
330
21E
100
AcDbProxyObject
 90
      499
 91
      507
 95
       25
 70
     0
 93
      156
310
00010143905350555513D2105510D21111551010
330
21E
 94
        0
  0
ACAD_PROXY_OBJECT
  5
256
330
21E
100
AcDbProxyObject
 90
      499
 91
      529
 95
       25
 70
     0
 93
      698
310
0001000000009AA6A9AA4051E467269204F63742030362030303A32333A343520323030362028555443290141CE4B8C8B8C0B8C80518547565204F63742031322031333A35353A343320323031300141CE4B8C8B8C0B8C80
330
21E
330
257
330
258
330
25A
330
0
 94
        0
  0
ACAD_PROXY_OBJECT
  5
257
330
21E
100
AcDbProxyObject
 90
      499
 91
      530
 95
       25
 70
     0
 93
       70
310
0001AAA80820000000
330
21E
330
257
330
257
 94
        0
  0
ACAD_PROXY_OBJECT
  5
258
330
21E
100
AcDbProxyObject
 90
      499
 91
      531
 95
       25
 70
     0
 93
       48
310
000100000000
330
21E
330
0
330
259
330
0
330
0
 94
        0
  0
ACAD_PROXY_OBJECT
  5
259
330
21E
100
AcDbProxyObject
 90
      499
 91
      532
 95
       25
 70
     0
 93
       40
310
000100AAAA
330
21E
330
0
 94
        0
  0
ACAD_PROXY_OBJECT
  5
25F
330
21E
100
AcDbProxyObject
 90
      499
 91
      536
 95
       25
 70
     0
 93
      180
310
00010143105050D3D35411119390535140504434F4D500
330
21E
 94
        0
  0
ACAD_PROXY_OBJECT
  5
260
330
21E
100
AcDbProxyObject
 90
      499
 91
      536
 95
       25
 70
     0
 93
      212
310
0001014390505193D311115491119390535140506466F6C6465720
330
21E
 94
        0
  0
ACAD_PROXY_OBJECT
  5
261
330
21E
100
AcDbProxyObject
 90
      499
 91
      536
 95
       25
 70
     0
 93
      180
310
00010143105050539393D1119390535140504284156290
330
21E
 94
        0
  0
ACAD_PROXY_OBJECT
  5
262
330
21E
100
AcDbProxyObject
 90
      499
 91
      536
 95
       25
 70
     0
 93
      436
310
00010143905050D3D35415925155D31254D50052295BD96CA0A90B396CA0A894591A496CA0A8DB691A496CA0A89BA96CA0A95E28F95310
330
21E
 94
        0
  0
ACAD_PROXY_OBJECT
  5
267
330
21E
100
AcDbProxyObject
 90
      499
 91
      538
 95
       25
 70
     0
 93
       32
310
00010000
330
21E
340
264
330
269
330
264
 94
        0
  0
ACAD_PROXY_OBJECT
  5
268
330
21E
100
AcDbProxyObject
 90
      499
 91
      539
 95
       25
 70
     0
 93
       18
310
000180
330
21E
 94
        0
  0
ACAD_PROXY_OBJECT
  5
269
330
21E
100
AcDbProxyObject
 90
      499
 91
      540
 95
       25
 70
     0
 93
      146
310
00010141D4D1D255148C4D1050055401550000
330
21E
330
267
330
268
 94
        0
  0
ACAD_PROXY_OBJECT
  5
26A
330
21E
100
AcDbProxyObject
 90
      499
 91
      541
 95
       25
 70
     0
 93
      178
310
000100AAAAAA82AFC716C00FA2D1EF5FF160C722A140C0
330
21E
330
269
 94
        0
  0
ACAD_PROXY_OBJECT
  5
26B
330
21E
100
AcDbProxyObject
 90
      499
 91
      542
 95
       25
 70
     0
 93
      108
310
000190140A000000000000AAAAA0
330
21E
330
26C
330
26C
330
26C
330
26C
330
26C
330
0
 94
        0
  0
ACAD_PROXY_OBJECT
  5
26C
330
21E
100
AcDbProxyObject
 90
      499
 91
      543
 95
       25
 70
     0
 93
       51
310
00010000AAAA80
330
21E
330
26B
330
269
 94
        0
  0
ACAD_PROXY_OBJECT
  5
27A
330
21E
100
AcDbProxyObject
 90
      499
 91
      536
 95
       25
 70
     0
 93
      148
310
00010142105350D55494D51100504414E53490
330
21E
 94
        0
  0
DICTIONARY
  5
218
102
{ACAD_REACTORS
330
217
102
}
330
217
100
AcDbDictionary
281
     1
  3
DWGSETTINGS
350
219
  3
Shaft
350
30F
  3
TRANSSETTINGS
350
21A
  0
ACAD_PROXY_OBJECT
  5
27D
102
{ACAD_REACTORS
330
217
102
}
330
217
100
AcDbProxyObject
 90
      499
 91
      551
 95
       25
 70
     0
 93
    17920
310
41503491013041105357CC201C00030C011E441013141105357CC603800030C011E441013241105357CCA01400030C011E441013341105357CCE01800030C010F9013441105357CD200C00030C010F9013541105357CD600C00030C010F9013641105357CDA00800030C011E9013741105357CDE01000030C010F901384110
310
5357CE200400030C010F9013941105357CE63F400030C0241102324141505357CC4C201C00030C011E902344141505357CC4C600C00030C010F902495041505357CC4CA01C00030C011E40902304E41505357CC13A01C00030C011E902314E41505357CC53A03800030C011E902324E41505357CC93A01400030C011E90233
310
4E41505357CCD3A01800030C010F902344E41505357CD13A00C00030C010F902354E41505357CD53A00C00030C010F902364E41505357CD93A00800030C011E902374E41505357CDD3A01000030C010F902384E41505357CE13A00400030C010F902394E41505357CE53A3F400030C024110332414E41905357CC4C13A01C0
310
0030C011E90334414E41905357CC4C53A00C00030C010F90349504E41905357CC4C93A01C00030C011E409044B4C494E41505357D0D3200400030C010F42504494E464F42105357D410549151A01000030C010F42D055241484D3541905357D093D4A01C00030C011E425045649455742105357D5925155D4E00400030C010
310
F42D06424548494E4441905357D25395A3F400030C0243505545241494C41505357D514A00C00030C010F4250348494441905357D21251201C00030C010F4250356495341905357D59254E01C00030C011E4250650415244494D42505357D41054911253600C00030C010F4250652454644494D42505357D49151911253601
310
000030C010F425534110921395901398000000C0003FFFFFFFE415092139594D06424548494E448000000C0003FFFFFFFE411093D48C9055241484D358010000C30043E411093D48CD055241484D358020000C30047A411093D48D5055241484D358000000C0003FFFFFFFE4110D0530C901348000000C0003FFFFFFFE4110
310
D0530CD01348020000C30047A4110D0530D501348070000C30047A4110D0530DD013481E0000C3004F24110D15393901378000000C0003FFFFFFFE4110D15395D01378000000C0003FFFFFFFE4110D312539044B4C494E8000000C0003FFFFFFFE4110D3D38C501308000000C0003FFFFFFFD034110D3D38C901318000000C
310
0003FFFFFFFD034110D3D38CD01328000000C0003FFFFFFFD034110D3D38D101328000000C0003FFFFFFFD034111115510501348000000C0003FFFFFFFE4111125051D01358000000C0003FFFFFFFE4111125312501358000000C0003FFFFFFFE411112535410650415244494D8000000C0003FFFFFFFE4111125354906524
310
54644494D8000000C0003FFFFFFFE4111915353901388000000C0003FFFFFFFE415191535413901388030000C3003FFFFFFFE4151915354D410234418000000C0003FFFFFFFE4151915354D510234418030000C30043E415191535593901328000000C0003FFFFFFFE415191535595101328030000C30043E4112105510D01
310
388000000C0003FFFFFFFD014112125113901338000000C0003FFFFFFFD034112125115D01338000000C0003FFFFFFFD034112131253901348000000C0003FFFFFFFD01411213D0D3901378000000C0003FFFFFFFE411213D0D5D01378000000C0003FFFFFFFE4112539193D04494E464F8000000C0003FFFFFFFE41131150
310
51101358000000C0003FFFFFFFE419397D0921395902394E8000000C0003FFFFFFFE419397D0D3D38C502304E8000000C0003FFFFFFFD03419397D0D3D38C902314E8000000C0003FFFFFFFD03419397D0D3D38CD02324E8000000C0003FFFFFFFD03419397D0D3D38D102324E8000000C0003FFFFFFFD03419397D0D15393
310
902374E8000000C0003FFFFFFFE419397D0D15395D02374E8000000C0003FFFFFFFE419397D1125312502354E8000000C0003FFFFFFFE419397D2105510D02384E8000000C0003FFFFFFFD01419397D2125113902334E8000000C0003FFFFFFFD03419397D2125115D02334E8000000C0003FFFFFFFD03419397D311505110
310
2354E8000000C0003FFFFFFFE419397D391D25410349504E8000000C0003FFFFFFFE419397D412105390334414E8000000C0003FFFFFFFE419397D510D3D3902304E8000000C0003FFFFFFFD03419397D5121312502344E8000000C0003FFFFFFFD01419397D5131153902304E8000000C0003FFFFFFFD03419397D5941312
310
50332414E8000000C0003FFFFFFFE411391D25410249508000000C0003FFFFFFFE411410530C9055241484D358010000C30043E411410530CD055241484D358020000C30047A411410530D5055241484D358000000C0003FFFFFFFE411412105390234418000000C0003FFFFFFFE411413D4D3901358000000C0003FFFFFFF
310
E411490D1D3901378000000C0003FFFFFFFE411490D1D5D01378000000C0003FFFFFFFE4114D09492D01348070000C300479014114D150D5101348000000C0003FFFFFFFD014114D6508CD01358020000C30047A411354D653501358020000C30047A411510D3D3901308000000C0003FFFFFFFD0341151213125013480000
310
00C0003FFFFFFFD01411512550C9055241484D358010000C30043E411512550CD055241484D358020000C30047A411512550D5055241484D358000000C0003FFFFFFFE4115131153901308000000C0003FFFFFFFD03415514905253105545241494C8000000C0003FFFFFFFE4115149312501348000000C0003FFFFFFFD014
310
11516150C501368030000C30043E411516150C901368030000C30043E411516150CD01368000000C0003FFFFFFFE411516150D501368070000C30047A411516150DD013681E0000C3004F24115925155D04564945578000000C0003FFFFFFFE41159151121034849448000000C0003FFFFFFFD024115915115903564953800
310
0000C0003FFFFFFFD02411594131250232418000000C0003FFFFFFFE4116925690501348000000C0003FFFFFFFD01AAA3F400030C01013F90A4391E41D1E4190F4151E4110F40D0F4091E4050F4793C7F6
340
15
340
15
340
15
340
249
340
15
340
15
340
15
340
28
340
15
340
15
340
28
340
24A
340
15
340
15
340
15
340
15
340
249
340
15
340
15
340
15
340
28
340
15
340
15
340
28
340
24A
340
15
340
281
340
15
340
15
340
15
340
15
340
15
340
249
340
15
340
15
340
15
340
14
340
14
340
14
340
14
340
14
340
14
340
14
340
14
340
14
340
287
340
14
340
14
340
14
340
14
340
14
340
14
340
14
340
14
340
14
340
14
340
14
340
14
340
14
340
15
340
14
340
14
340
14
340
14
340
288
340
14
340
14
340
287
340
14
340
14
340
14
340
14
340
14
340
14
340
14
340
14
340
287
340
14
340
14
340
14
340
288
340
14
340
14
340
14
340
14
340
14
340
288
340
14
340
24A
340
14
340
14
340
14
340
14
340
14
340
14
340
287
340
14
340
14
340
14
340
14
340
14
340
14
340
288
340
14
340
14
340
14
340
14
340
14
340
14
340
14
340
14
340
14
340
14
340
14
340
14
340
14
340
14
340
24A
340
289
 94
        0
  0
ACAD_PROXY_OBJECT
  5
2B5
102
{ACAD_REACTORS
330
2B0
102
}
330
2B0
100
AcDbProxyObject
 90
      499
 91
      568
 95
       25
 70
     0
 93
      253
310
43D1444494D454E53494F4E2C414D44545F2A5F44494D404A9012A404A9012A8
  0
ACAD_PROXY_OBJECT
  5
2B4
102
{ACAD_REACTORS
330
2B0
102
}
330
2B0
100
AcDbProxyObject
 90
      499
 91
      568
 95
       25
 70
     0
 93
      181
310
43D012A42D05357D191504B505357CA9012A404A9012A8
  0
ACAD_PROXY_OBJECT
  5
2B1
102
{ACAD_REACTORS
330
2B0
102
}
330
2B0
100
AcDbProxyObject
 90
      499
 91
      568
 95
       25
 70
     0
 93
      133
310
43D054841544348404A9012A404A9012A8
  0
ACAD_PROXY_OBJECT
  5
2B2
102
{ACAD_REACTORS
330
2B0
102
}
330
2B0
100
AcDbProxyObject
 90
      499
 91
      568
 95
       25
 70
     0
 93
      549
310
43D044C494E4549CE0B0E138B0A8B4E0B0A8B4E138B105357CE0B105357CE138B0A8B505357CE0B0A8B505357CE139012A404A910494E534552542C5354445041525432448
  0
ACAD_PROXY_OBJECT
  5
2B6
102
{ACAD_REACTORS
330
2B0
102
}
330
2B0
100
AcDbProxyObject
 90
      499
 91
      568
 95
       25
 70
     0
 93
      181
310
43D0341524341105357CD5012A404C906494E534552540
  0
ACAD_PROXY_OBJECT
  5
2B3
102
{ACAD_REACTORS
330
2B0
102
}
330
2B0
100
AcDbProxyObject
 90
      499
 91
      568
 95
       25
 70
     0
 93
     1053
310
43D7841434D46434652414D452C41434D444154554D5441524745542C41434D444154554D49442C41434D57454C4453594D2C41434D5355524653594D2C41434D4645415449442C41434D504152545245462C41434D42414C4C4F4F4E2C414D44544544474553594D2C414D47534352455743414C435441424C45404A9012A
310
404A9012A8
  0
ACAD_PROXY_OBJECT
  5
27C
102
{ACAD_REACTORS
330
27B
102
}
330
27B
100
AcDbProxyObject
 90
      499
 91
      550
 95
       25
 70
     0
 93
     2395
310
5DCB81E85EB51B8BE3F8030000C30041105394D2501640600800030C0200800030C00B81E85EB51B8BE3F48821E8720B1B6A9BAB9332A32BC3A29BA3220480A1282C6DA8C868CA6E8C88120286A0B1B6ABB2B63234B733A9BA3220480A1082C6DA92C8A6E8C88120285A0B1B6A230BA3AB6A9BA3220480A1282C6DA849E9AA
310
6E8C8812028820B6B23A2232BA30B4B629BCB6A9BA3220480A2282DAC8E8A6CAC6E8D2DEDCA6F2DAA6E8C88120288A0B6B23A21B2B73A32B92634B732A9BA3220480A2282DAC8E8A8D0E4CAC2C898D2DCCAA6E8C88120285A0B6B23A2737BA32A9BA3220480A1682C682DACE98C2F2A6E8C88120285A0B1A0B6B3A234B6A9B
310
A3220480A2282C682DACE90DED8CA86D0C2E4E8A6E8C88120286A0B1A0B6B3AA34BA3632A9BA3220480A02812020
340
28A
360
28B
360
28C
360
28D
360
28E
360
28F
360
290
360
291
360
292
360
293
360
294
360
295
360
2A1
360
2A2
360
2AD
360
2AE
340
0
340
0
 94
        0
  0
ACAD_PROXY_OBJECT
  5
219
102
{ACAD_REACTORS
330
218
102
}
330
218
100
AcDbProxyObject
 90
      499
 91
      502
 95
       25
 70
     0
 93
     2412
310
4050B44574753455454494E4753A1286829C8E82A4A482B282A02608321A2A720A723A0A849A1ABE1C983E18999AA0C868A9C889282940000000000001C07E83A1A2A72224A0A9A0A8598171ABE1897183E18971AA0E868A9C8892A6A8940000000000001807E8321A2A72622A7250000000000000701FA0C868A9C9E8C8C9
310
40000000000001C07E84A1A624A720A92920ACA0A87181718991ABE1817191ABE18171AA108698929C8AA8B2A082A0AB098929C8A84A22BA3AAA9A1A0A622A50A0E9882A6A89E849482A02608426A0A5A2AB24A2ABA7E8120CA0A68682988A0C00800010652455649534941501304154D0D0531150540CC4E8C50954494D45
310
5354414D504A064032B42792B734141D5915494D253D3905414C4D4B8C0C1107B44574753455454494E4753454E447D0
  0
ACAD_PROXY_OBJECT
  5
30F
102
{ACAD_REACTORS
330
218
102
}
330
218
100
AcDbProxyObject
 90
      499
 91
      502
 95
       25
 70
     0
 93
      199
310
405055368616674220F688AE8EA68AA8A8929C8EA68A9C88FA
  0
ACAD_PROXY_OBJECT
  5
21A
102
{ACAD_REACTORS
330
218
102
}
330
218
100
AcDbProxyObject
 90
      499
 91
      502
 95
       25
 70
     0
 93
      852
310
4050D5452414E5353455454494E4753A2488A482AE929C8EA8A4829CA69882A8929E9C0C00800050D4F524947494E414C4C595F4F4E0600400008529A7AAA921A2A620A723A0A81A52827212AAA0A48AA68AA4AC8A0C0080001107B44574753455454494E4753454E447D0
  0
ACAD_PROXY_OBJECT
  5
28B
330
27C
100
AcDbProxyObject
 90
      499
 91
      552
 95
       25
 70
     0
 93
       96
310
5DC20E80A0280A0280A02808
  0
ACAD_PROXY_OBJECT
  5
28C
330
27C
100
AcDbProxyObject
 90
      499
 91
      553
 95
       25
 70
     0
 93
      332
310
5DD0E4050140501405014050140501405014050142501405014050140501405012000000000000000400
340
296
 94
        0
  0
ACAD_PROXY_OBJECT
  5
28D
330
27C
100
AcDbProxyObject
 90
      499
 91
      554
 95
       25
 70
     0
 93
      403
310
5DCC199999999999E99F91F4050140501405014050140501405014050140501405014050140501405014050140501405014040
340
0
 94
        0
  0
ACAD_PROXY_OBJECT
  5
28E
330
27C
100
AcDbProxyObject
 90
      499
 91
      555
 95
       25
 70
     0
 93
       10
310
5DC0
  0
ACAD_PROXY_OBJECT
  5
28F
330
27C
100
AcDbProxyObject
 90
      499
 91
      556
 95
       25
 70
     0
 93
      257
310
5DE290EA22A7D90F49F9353333333333727F44D4CCCCCCCCCDC9FC010000618000
340
297
340
298
 94
        0
  0
ACAD_PROXY_OBJECT
  5
290
330
27C
100
AcDbProxyObject
 90
      499
 91
      557
 95
       25
 70
     0
 93
    13023
310
5DD0E411255115350141236025B6901405014069011309A4F2590CB64FD3347454E545241434F2C4A504E2C302C8D8096DA2C47454E54524154582C25732C2847454E4D53472067656E647767203232322940690120281A8AA2CA0282484A4BE52028120280A03202261349E4B2196C9FA668E8A9CA8A482869E5894A09C58
310
605921292F94588E8A9CA8A482A8B0584AE658508E8A9C9AA68E40CECADCC8EECE406464665280D202405044E414D454050496BC914F4051C40640A8B95C2E97CBE502404CD1D15395149050D3CB1294138B0C0B25AF2453CB11D15395149055160B095CCB0A11D1539354D1C819D95B991DD9C80C8C8D8A50192C3D494628
310
4953424C414E4B28504152543A4E414D45292C424C4F434B3A4E414D452C504152543A4E414D452940480A0A888AA686A480A09251B1DBE80A3A80C81D10782C06030180C8099A3A2A72A2920A1A7962528271618164946C76F9623A2A72A2920AA2C1612B9961423A2A726A9A39033B2B7323BB39019189B94A0248090142
310
14D51053911054911014122D2E29A50147501904A383BFDFEFF5FBFCFD3347454E545241434F2C4A504E2C302C8B4B8A692C47454E54524154582C25732C2847454E4D53472067656E64776720323138294049012028426A0AA22A924A0A62028246EF4BDFA028EA0320B41396D838E9017D9FA668E8A9CA8A482869E5894A
310
09C5860591BBD2F7E588E8A9CA8A482A8B0584AE658508E8A9C9AA68E40CECADCC8EECE406464625280D202405044E4F544540504928D8B4C4051D40641A8B95C2E97CBE5F23F4CD1D15395149050D3CB1294138B0C0B24A362D30B11D15395149055160B095CCB0A11D1539354D1C819D95B991DD9C80C8C8D4A501A40480
310
A0CAC8A9C889EA480A1106F1072706BF02B680A3A80C83D172B85D2F97CBE47E9BA3A2A72A2920A1A79625282716181641BC41C9C1AFC0AD9623A2A72A2920AA2C1612B9961423A2A726A9A39033B2B7323BB39019191A14A0348090141911154D0D48C90141A43825AF880C90147501908A20F0580C0603019013447454E5
310
45241434F2C4A504E2C302C90E096BE20322C47454E54524154582C25732C2847454E4D53472067656E6477672033362940490120284A9AA20A72220A922192028345A5C53490192028EA0321347077FBFDFEBF7F9FA6A8E8A9CA8A482869E5894A09C586059169714D24064588E8A9CA8A482A8B0584AE658508E8A9C9AA6
310
8E40CECADCC8EECE4064646052809202405094D4154455249414C32405068DDE97BF20324051D40642A8272DB071D202FB3F4D11D15395149050D3CB1294138B0C0B2377A5EFC80C8B11D15395149055160B095CCB0A11D1539354D1C819D95B991DD9C80D0C0A501240480A089A82A6A680A091D7F2F9480A3A80A0485A06
310
81172B85D2F97CBE47E9923A2A72A2920A1A796252827161816475FCBE51623A2A72A2920AA2C1612B9961423A2A726A9A39033B2B7323BB3901A1914A024809014154149250D150141226FE29A501475014090C409022E570BA5F2F97C8FD3247454E545241434F2C4A504E2C302C89BF8A692C47454E54524154582C2573
310
2C2847454E4D53472067656E6477672034332940490120281A224A6A02824850CB202028EA028121A81A045CAE174BE5F2F91FA648E8A9CA8A482869E5894A09C58605921432C80588E8A9CA8A482A8B0584AE658508E8A9C9AA68E40CECADCC8EECE406868528092024050E441022E07A17AD46E338FE07800030C0001018
310
ACD56AB55AADF63F2B355AAD56AB7D8FD073D3C4954454D3E405018ACD56AB55AADF63F2B355AAD56AB7D8FD073D3C4954454D3E40501890C7E3F1783CEE3F2431F8FC5E0F3B8FD073D3C4954454D3E40501890C7E3F1783CEE3F2431F8FC5E0F3B8FD073D3C4954454D3E405029012B355AAD56AB7D8FCACD56AB55AADF63
310
F41CF4F125511534F901418F4F1455164F9014062B355AAD56AB7D8FCACD56AB55AADF63F41CF4F125511534F9014061309A4F2590CBA4FC4C2693C96432E93F41CF4F125511534F901901002B355AAD56AB7D8FCACD56AB55AADF63FA2000000000000008204018000618048220681A048120280C88214844882034852034
310
8452028521485214814000000000000F0BF0000000000003C2FD018020000C3008070000C3000EF7D3E365DBA88FC3BDF4F8D976EA23F2E07A17AD46E2F8FF20341A405024150741A4069703D0BD6A3717C7F0040001860100400018601002000186002026280A02
340
0
340
0
 94
        0
  0
ACAD_PROXY_OBJECT
  5
291
330
27C
100
AcDbProxyObject
 90
      499
 91
      558
 95
       25
 70
     0
 93
      994
310
5DC0B81E85EB51B8CE3F4BCF511155105253080F11115510525317D3105091530F971414D0D05311480F11115510525317D05094D4D0D053114F92341C9A9999999999B93F26A666666666724FC000000000000E03F4000000000000004000000000000005100000000000000244081E0000C3002E07A17AD46E338FC0
340
24A
340
28A
 94
        0
  0
ACAD_PROXY_OBJECT
  5
292
330
27C
100
AcDbProxyObject
 90
      499
 91
      559
 95
       25
 70
     0
 93
      823
310
5DC031703D0BD6A3719C7E999EA9A2A1AA24A7A7101E29A2A1AA24A7A72FA620A122A62FA324A929AA1F169E29A2A1AA24A7A72FA620A122A62FA620A9AA1F1353333333333B27E3FFFE01C00030C008840F000061801353333333333B27F1703D0BD6A3719C7E
340
24A
340
28A
 94
        0
  0
ACAD_PROXY_OBJECT
  5
293
330
27C
100
AcDbProxyObject
 90
      499
 91
      560
 95
       25
 70
     0
 93
      280
310
5DC2B8716D9CEF7C33F0A5723F0BD4A2F0FC295C8FC2F528BC3FA199999999999F99FC
  0
ACAD_PROXY_OBJECT
  5
294
330
27C
100
AcDbProxyObject
 90
      499
 91
      561
 95
       25
 70
     0
 93
       14
310
5DE4
340
0
 94
        0
  0
ACAD_PROXY_OBJECT
  5
295
330
27C
100
AcDbProxyObject
 90
      499
 91
      562
 95
       25
 70
     0
 93
     7123
310
5DD084050BA4050AA405024050E836583938376838C815B8367203140405013D3C696628657175616C28486F6C653A7461707065642C223022292C22252563222C486F6C653A6E6F6D696E616C2022202220696628657175616C28486F6C653A756E6974732C223122292C2278222C222D222920222022293E3C6966286571
310
75616C28486F6C653A7461707065642C223022292C486F6C653A6469612C486F6C653A706974636864657363293E207B5C46414D4744543B787D203C696628657175616C28486F6C653A7465726D696E6174696F6E2C223022292C486F6C653A64657074682C228AD192CA22293E5C507B5C46414D4744543B767D2525633C
310
486F6C653A63746469613E207B5C46414D4744543B787D203C486F6C653A637464657074683E406901405034050E836583938376838C815B83672031405FE3D3C696628657175616C28486F6C653A7461707065642C223022292C22252563222C486F6C653A6E6F6D696E616C2022202220696628657175616C28486F6C653
310
A756E6974732C223122292C2278222C222D222920222022293E3C696628657175616C28486F6C653A7461707065642C223022292C486F6C653A6469612C486F6C653A706974636864657363293E207B5C46414D4744543B787D203C696628657175616C28486F6C653A7465726D696E6174696F6E2C223022292C486F6C653
310
A64657074682C228AD192CA22293E5C507B5C46414D4744543B777D2525633C486F6C653A63746469613E2058203C486F6C653A6374616E676C653E252564406901405014050E836583938376838C815B83672031405CF3D3C696628657175616C28486F6C653A7461707065642C223022292C22252563222C486F6C653A6E
310
6F6D696E616C2022202220696628657175616C28486F6C653A756E6974732C223122292C2278222C222D222920222022293E3C696628657175616C28486F6C653A7461707065642C223022292C486F6C653A6469612C486F6C653A706974636864657363293E5C507B5C46414D4744543B787D203C696628657175616C2848
310
6F6C653A7465726D696E6174696F6E2C223022292C486F6C653A64657074682C228AD192CA22293E4069014051E4090E836583938376838C815B83672032405173D3C535444503A444553433E203C535444503A5354443E40690E836583938376838C815B836720314050C3D3C535444503A444553433E40690240515AAABB
310
A060
360
29F
330
29F
360
2A0
330
2A0
360
29E
330
29E
360
29D
360
29C
330
29D
330
29C
 94
        0
  0
ACAD_PROXY_OBJECT
  5
2A1
330
27C
100
AcDbProxyObject
 90
      499
 91
      564
 95
       25
 70
     0
 93
       26
310
5DD02A80
340
27D
 94
        0
  0
ACAD_PROXY_OBJECT
  5
2A2
330
27C
100
AcDbProxyObject
 90
      499
 91
      565
 95
       25
 70
     0
 93
      258
310
5DD02000000000000380FC000000000000E03F408F0F9023C3E40DB18CCCFFFF80
340
2A3
340
36D
340
486
340
3B4
340
3A2
340
0
340
2A6
340
2A7
340
2AC
340
0
 94
        0
  0
ACAD_PROXY_OBJECT
  5
2AD
330
27C
100
AcDbProxyObject
 90
      499
 91
      566
 95
       25
 70
     0
 93
    13993
310
5DD1D023FFFFFFFD010300002E07A17AD46E2F8FE00800030C01010300002E07A17AD46E2F8FE00800030C00050C8DC0955782CC838A83588367014ED1D15395149050D3CB1294138B0C0B23702555E0B320E2A0D620D9CB11D15395149055160B095CCB0A11D1539354D1C819D95B991A5B5E880CCC0A78000C0000000000
310
00000000000000000000007B14AE47E17AA43F2E07A17AD46E2F8FE00800030C007B14AE47E17AA43F2E07A17AD46E2F8FE00800030C020143CF4F111959985D5B1D151A5D1B194F8050A8C8A8365815B8375838B014E51D15395149050D3CB1294138B0C0B2322A0D96056E0DD60E2CB11D15395149055160B095CCB0A11D
310
1539354D1C819D95B991A5B5E880CCC4A78000C000000000000000000000000000000007B14AE47E17AA43F2E07A17AD46E2F8FE00800030C007B14AE47E17AA43F2E07A17AD46E2F8FE00800030C020143CF4F111959985D5B1D151A5D1B194F90D4410F4450240D0441507431014391244D05449074510C4350F00014123
310
2D24D7C053247454E545241434F2C4A504E2C302C8CB4935F2C47454E54524154582C25732C2847454E4D53472067656E64696D7A20312900010104002214000282465A49AF80A648E8A9CA8A482869E5894A09C586059196926BE588E8A9CA8A482A8B0584AE658508E8A9C9AA68E40CECADCC8D2DAF44062520002020800
310
43E80005028C8A014C11D15395149050D3CB1294138B0C0B23228B11D15395149055160B095CCB0A11D1539354D1C819D95B991A5B5E880C8A4054E3D3C4946284953424C414E4B28486F6C654974656D292C4F726967696E2C20486F6C654974656D293E3C4946284953424C414E4B28486F6C654974656D292C22222C204
310
86F6C65496E646578293E010104002234000280AC00A5E8E8A9CA8A482869E5894A09C586058B0588E8A9CA8A482A8B0584AE658508E8A9C9AA68E40CECADCC8D2DAF4406652000202000040A800050159014BD1D15395149050D3CB1294138B0C0B164B11D15395149055160B095CCB0A11D1539354D1C819D95B991A5B5E
310
880D0A4000404000081D0000A02A40297A3A2A72A2920A1A796252827161816291623A2A72A2920AA2C1612B9961423A2A726A9A39033B2B73234B6BD101B148000808000104A000140A0F4C053047454E545241434F2C4A504E2C302C83D32C47454E54524154582C25732C2847454E4D53472067656E64696D7A20372900
310
0101030020B400028141E980A608E8A9CA8A482869E5894A09C58605907A6588E8A9CA8A482A8B0584AE658508E8A9C9AA68E40CECADCC8D2DAF4407052000202020041E800050490E096BE014CD1D15395149050D3CB1294138B0C0B243825AF8B11D15395149055160B095CCB0A11D1539354D1C819D95B991A5B5E880C8
310
C0A400040010008650000A091B012DB40299A3A2A72A2920A1A79625282716181646C04B6D1623A2A72A2920AA2C1612B9961423A2A726A9A39033B2B73234B6BD10189A148000808280501A00014320D0E0E4E0D9A0D8A0D3A0D60053B47454E545241434F2C4A504E2C302C8343839383668362834E83582C47454E54524
310
154582C25732C2847454E4D53472067656E64696D7A203135290001010500A1D4000281464500A628E8A9CA8A482869E5894A09C5860591914588E8A9CA8A482A8B0584AE658508E8A9C9AA68E40CECADCC8D2DAF440626C52000202080044A800050E8C8A8343839383668362834E8358014F51D15395149050D3CB129413
310
8B0C0B2322A0D0E0E4E0D9A0D8A0D3A0D60B11D15395149055160B095CCB0A11D1539354D1C819D95B991A5B5E880C4DCA4000404140089D0000A0921292F940299A3A2A72A2920A1A796252827161816484A4BE51623A2A72A2920AA2C1612B9961423A2A726A9A39033B2B73234B6BD10189C948000808300114A0001412
310
2D2E29A4053347454E545241434F2C4A504E2C302C8B4B8A692C47454E54524154582C25732C2847454E4D53472067656E64696D7A20323129000100040021B4878030026A6666666667A4FE064D4CCCCCCCCCF49FC049A9999999999E93F809353333333333D27F0226A6666666667A4FE044D4CCCCCCCCCF49FC0D818000
310
00000000000810026A666666666764FE004D4CCCCCCCCCF49FC009A9999999999E93F801353333333333D27F032E07A17AD46E378FE0633B333333333032050F006004D4CCCCCCCCCF49FC0C9A9999999999E93F819353333333333D27F0326A6666666667A4FE064D4CCCCCCCCCF49FC0C9A9999999999E93F81B03000000
310
00000000102004D4CCCCCCCCCEC9FC009A9999999999E93F819353333333333D27F0026A6666666667A4FE065C0F42F5A8DC6F1FC0C6766666666660640A088800000021E000000890000002260000008220E000200890000002060002008100008000
340
0
340
0
340
0
340
0
340
28A
340
28A
 94
        0
  0
ACAD_PROXY_OBJECT
  5
2AE
330
27C
100
AcDbProxyObject
 90
      499
 91
      567
 95
       25
 70
     0
 93
     5214
310
5DD9741105394D2506414E53495F4342905394D257D512551554D15414E53495F54525F5265766973696F6E6C697374614191143202831372E307832322E30696E63682941905394D257D0D1146202832382E307834302E30696E63682941905394D257D191142202831312E307831372E30696E63682941905394D257D091
310
144202832322E307833342E30696E63682941905394D257D111145202833342E307834342E30696E63682941905394D257D1510412028382E357831312E30696E63682941905394D257D050543905B9CDA482557247A25E4C81110D0C414E53495F5449544C45444343505B9CDA482557247A25E4C81050B414E53495F5449
310
544C454143905B9CDA482557247A25E4C81050D0C414E53495F5449544C45414343505B9CDA482557247A25E4C81110B414E53495F5449544C4544425554C82557247A25E4D0A414E53495F544954555342110979A97F0838A8358836720415F42525F45505394D257D09497D4995D9A5CDA5BDB9B1A5CDD18510979A97F08
310
38A8358836720415F54525F45505394D257D51497D4995D9A5CDA5BDB9B1A5CDD18510979A97F0838A8358836720445F42525F45505394D257D09497D4995D9A5CDA5BDB9B1A5CDD19110979A97F0838A8358836720445F54525F45505394D257D51497D4995D9A5CDA5BDB9B1A5CDD19110979A97F0838A8358836720415F
310
424C5F45505394D257D09317D4995D9A5CDA5BDB9B1A5CDD18510979A97F0838A8358836720415F544C5F45505394D257D51317D4995D9A5CDA5BDB9B1A5CDD18510979A97F0838A8358836720445F424C5F45505394D257D09317D4995D9A5CDA5BDB9B1A5CDD19110979A97F0838A8358836720445F544C5F45505394D25
310
7D51317D4995D9A5CDA5BDB9B1A5CDD190
  0
ACAD_PROXY_OBJECT
  5
29F
330
295
100
AcDbProxyObject
 90
      499
 91
      563
 95
       25
 70
     0
 93
     2256
310
5DE0143A0D960E4E0DDA0E32056E0D9C80C40405013D3C696628657175616C28486F6C653A7461707065642C223022292C22252563222C486F6C653A6E6F6D696E616C2022202220696628657175616C28486F6C653A756E6974732C223122292C2278222C222D222920222022293E3C696628657175616C28486F6C653A74
310
61707065642C223022292C486F6C653A6469612C486F6C653A706974636864657363293E207B5C46414D4744543B787D203C696628657175616C28486F6C653A7465726D696E6174696F6E2C223022292C486F6C653A64657074682C228AD192CA22293E5C507B5C46414D4744543B767D2525633C486F6C653A6374646961
310
3E207B5C46414D4744543B787D203C486F6C653A637464657074683E
  0
ACAD_PROXY_OBJECT
  5
2A0
330
295
100
AcDbProxyObject
 90
      499
 91
      563
 95
       25
 70
     0
 93
     2192
310
5DE0143A0D960E4E0DDA0E32056E0D9C80C405FE3D3C696628657175616C28486F6C653A7461707065642C223022292C22252563222C486F6C653A6E6F6D696E616C2022202220696628657175616C28486F6C653A756E6974732C223122292C2278222C222D222920222022293E3C696628657175616C28486F6C653A7461
310
707065642C223022292C486F6C653A6469612C486F6C653A706974636864657363293E207B5C46414D4744543B787D203C696628657175616C28486F6C653A7465726D696E6174696F6E2C223022292C486F6C653A64657074682C228AD192CA22293E5C507B5C46414D4744543B777D2525633C486F6C653A63746469613E
310
2058203C486F6C653A6374616E676C653E252564
  0
ACAD_PROXY_OBJECT
  5
29E
330
295
100
AcDbProxyObject
 90
      499
 91
      563
 95
       25
 70
     0
 93
     1816
310
5DE0143A0D960E4E0DDA0E32056E0D9C80C405CF3D3C696628657175616C28486F6C653A7461707065642C223022292C22252563222C486F6C653A6E6F6D696E616C2022202220696628657175616C28486F6C653A756E6974732C223122292C2278222C222D222920222022293E3C696628657175616C28486F6C653A7461
310
707065642C223022292C486F6C653A6469612C486F6C653A706974636864657363293E5C507B5C46414D4744543B787D203C696628657175616C28486F6C653A7465726D696E6174696F6E2C223022292C486F6C653A64657074682C228AD192CA22293E
  0
ACAD_PROXY_OBJECT
  5
29D
330
295
100
AcDbProxyObject
 90
      499
 91
      563
 95
       25
 70
     0
 93
      344
310
5DE0143A0D960E4E0DDA0E32056E0D9C80C805173D3C535444503A444553433E203C535444503A5354443E
  0
ACAD_PROXY_OBJECT
  5
29C
330
295
100
AcDbProxyObject
 90
      499
 91
      563
 95
       25
 70
     0
 93
      256
310
5DE0143A0D960E4E0DDA0E32056E0D9C80C4050C3D3C535444503A444553433E
  0
ENDSEC
  0
EOF
