  0
SECTION
  2
HEADER
  9
$ACADVER
  1
AC1015
  9
$ACADMAINTVER
 70
     6
  9
$DWGCODEPAGE
  3
ANSI_932
  9
$INSBASE
 10
0.0
 20
0.0
 30
0.0
  9
$EXTMIN
 10
-15.45410064916837
 20
-56.8486169842638
 30
-0.0015258207003583
  9
$EXTMAX
 10
98.62060604922078
 20
59.87287941583531
 30
0.0000000349246037
  9
$LIMMIN
 10
0.0
 20
0.0
  9
$LIMMAX
 10
400.0
 20
273.0
  9
$ORTHOMODE
 70
     0
  9
$REGENMODE
 70
     1
  9
$FILLMODE
 70
     1
  9
$QTEXTMODE
 70
     0
  9
$MIRRTEXT
 70
     1
  9
$LTSCALE
 40
1.0
  9
$ATTMODE
 70
     1
  9
$TEXTSIZE
 40
3.0
  9
$TRACEWID
 40
0.5
  9
$TEXTSTYLE
  7
STANDARD
  9
$CLAYER
  8
0
  9
$CELTYPE
  6
ByLayer
  9
$CECOLOR
 62
   256
  9
$CELTSCALE
 40
1.0
  9
$DISPSILH
 70
     0
  9
$DIMSCALE
 40
1.0
  9
$DIMASZ
 40
3.0
  9
$DIMEXO
 40
1.0
  9
$DIMDLI
 40
5.0
  9
$DIMRND
 40
0.0
  9
$DIMDLE
 40
3.0
  9
$DIMEXE
 40
2.0
  9
$DIMTP
 40
0.0
  9
$DIMTM
 40
0.0
  9
$DIMTXT
 40
5.0
  9
$DIMCEN
 40
2.0
  9
$DIMTSZ
 40
0.0
  9
$DIMTOL
 70
     0
  9
$DIMLIM
 70
     0
  9
$DIMTIH
 70
     0
  9
$DIMTOH
 70
     0
  9
$DIMSE1
 70
     0
  9
$DIMSE2
 70
     0
  9
$DIMTAD
 70
     1
  9
$DIMZIN
 70
     8
  9
$DIMBLK
  1

  9
$DIMASO
 70
     1
  9
$DIMSHO
 70
     0
  9
$DIMPOST
  1

  9
$DIMAPOST
  1

  9
$DIMALT
 70
     0
  9
$DIMALTD
 70
     4
  9
$DIMALTF
 40
25.4
  9
$DIMLFAC
 40
1.0
  9
$DIMTOFL
 70
     1
  9
$DIMTVP
 40
1.0
  9
$DIMTIX
 70
     0
  9
$DIMSOXD
 70
     0
  9
$DIMSAH
 70
     0
  9
$DIMBLK1
  1

  9
$DIMBLK2
  1

  9
$DIMSTYLE
  2
Standard
  9
$DIMCLRD
 70
     0
  9
$DIMCLRE
 70
     0
  9
$DIMCLRT
 70
     0
  9
$DIMTFAC
 40
1.0
  9
$DIMGAP
 40
0.09
  9
$DIMJUST
 70
     0
  9
$DIMSD1
 70
     0
  9
$DIMSD2
 70
     0
  9
$DIMTOLJ
 70
     1
  9
$DIMTZIN
 70
     0
  9
$DIMALTZ
 70
     0
  9
$DIMALTTZ
 70
     0
  9
$DIMUPT
 70
     0
  9
$DIMDEC
 70
     0
  9
$DIMTDEC
 70
     4
  9
$DIMALTU
 70
     2
  9
$DIMALTTD
 70
     2
  9
$DIMTXSTY
  7
STANDARD
  9
$DIMAUNIT
 70
     0
  9
$DIMADEC
 70
     0
  9
$DIMALTRND
 40
0.0
  9
$DIMAZIN
 70
     0
  9
$DIMDSEP
 70
    46
  9
$DIMATFIT
 70
     3
  9
$DIMFRAC
 70
     0
  9
$DIMLDRBLK
  1

  9
$DIMLUNIT
 70
     2
  9
$DIMLWD
 70
    -2
  9
$DIMLWE
 70
    -2
  9
$DIMTMOVE
 70
     0
  9
$LUNITS
 70
     2
  9
$LUPREC
 70
     4
  9
$SKETCHINC
 40
1.0
  9
$FILLETRAD
 40
0.0
  9
$AUNITS
 70
     0
  9
$AUPREC
 70
     0
  9
$MENU
  1
acad
  9
$ELEVATION
 40
0.0
  9
$PELEVATION
 40
0.0
  9
$THICKNESS
 40
0.0
  9
$LIMCHECK
 70
     0
  9
$CHAMFERA
 40
0.0
  9
$CHAMFERB
 40
0.0
  9
$CHAMFERC
 40
0.0
  9
$CHAMFERD
 40
0.0
  9
$SKPOLY
 70
     0
  9
$TDCREATE
 40
2453969.608472222
  9
$TDUCREATE
 40
2453969.233472222
  9
$TDUPDATE
 40
2455441.700653206
  9
$TDUUPDATE
 40
2455441.325653206
  9
$TDINDWG
 40
0.0210571991
  9
$TDUSRTIMER
 40
0.0210568403
  9
$USRTIMER
 70
     1
  9
$ANGBASE
 50
0.0
  9
$ANGDIR
 70
     0
  9
$PDMODE
 70
     0
  9
$PDSIZE
 40
0.0
  9
$PLINEWID
 40
0.0
  9
$SPLFRAME
 70
     0
  9
$SPLINETYPE
 70
     6
  9
$SPLINESEGS
 70
     8
  9
$HANDSEED
  5
5AE
  9
$SURFTAB1
 70
     6
  9
$SURFTAB2
 70
     6
  9
$SURFTYPE
 70
     6
  9
$SURFU
 70
     6
  9
$SURFV
 70
     6
  9
$UCSBASE
  2

  9
$UCSNAME
  2

  9
$UCSORG
 10
0.0
 20
0.0
 30
0.0
  9
$UCSXDIR
 10
1.0
 20
0.0
 30
0.0
  9
$UCSYDIR
 10
0.0
 20
1.0
 30
0.0
  9
$UCSORTHOREF
  2

  9
$UCSORTHOVIEW
 70
     0
  9
$UCSORGTOP
 10
0.0
 20
0.0
 30
0.0
  9
$UCSORGBOTTOM
 10
0.0
 20
0.0
 30
0.0
  9
$UCSORGLEFT
 10
0.0
 20
0.0
 30
0.0
  9
$UCSORGRIGHT
 10
0.0
 20
0.0
 30
0.0
  9
$UCSORGFRONT
 10
0.0
 20
0.0
 30
0.0
  9
$UCSORGBACK
 10
0.0
 20
0.0
 30
0.0
  9
$PUCSBASE
  2

  9
$PUCSNAME
  2

  9
$PUCSORG
 10
0.0
 20
0.0
 30
0.0
  9
$PUCSXDIR
 10
1.0
 20
0.0
 30
0.0
  9
$PUCSYDIR
 10
0.0
 20
1.0
 30
0.0
  9
$PUCSORTHOREF
  2

  9
$PUCSORTHOVIEW
 70
     0
  9
$PUCSORGTOP
 10
0.0
 20
0.0
 30
0.0
  9
$PUCSORGBOTTOM
 10
0.0
 20
0.0
 30
0.0
  9
$PUCSORGLEFT
 10
0.0
 20
0.0
 30
0.0
  9
$PUCSORGRIGHT
 10
0.0
 20
0.0
 30
0.0
  9
$PUCSORGFRONT
 10
0.0
 20
0.0
 30
0.0
  9
$PUCSORGBACK
 10
0.0
 20
0.0
 30
0.0
  9
$USERI1
 70
     0
  9
$USERI2
 70
     0
  9
$USERI3
 70
     0
  9
$USERI4
 70
     0
  9
$USERI5
 70
     0
  9
$USERR1
 40
0.0
  9
$USERR2
 40
0.0
  9
$USERR3
 40
0.0
  9
$USERR4
 40
0.0
  9
$USERR5
 40
0.0
  9
$WORLDVIEW
 70
     1
  9
$SHADEDGE
 70
     3
  9
$SHADEDIF
 70
    70
  9
$TILEMODE
 70
     1
  9
$MAXACTVP
 70
    64
  9
$PINSBASE
 10
0.0
 20
0.0
 30
0.0
  9
$PLIMCHECK
 70
     0
  9
$PEXTMIN
 10
1.000000000000000E+20
 20
1.000000000000000E+20
 30
1.000000000000000E+20
  9
$PEXTMAX
 10
-1.000000000000000E+20
 20
-1.000000000000000E+20
 30
-1.000000000000000E+20
  9
$PLIMMIN
 10
0.0
 20
0.0
  9
$PLIMMAX
 10
12.0
 20
9.0
  9
$UNITMODE
 70
     0
  9
$VISRETAIN
 70
     1
  9
$PLINEGEN
 70
     0
  9
$PSLTSCALE
 70
     1
  9
$TREEDEPTH
 70
  3020
  9
$CMLSTYLE
  2
Standard
  9
$CMLJUST
 70
     0
  9
$CMLSCALE
 40
1.0
  9
$PROXYGRAPHICS
 70
     1
  9
$MEASUREMENT
 70
     0
  9
$CELWEIGHT
370
    -1
  9
$ENDCAPS
280
     0
  9
$JOINSTYLE
280
     0
  9
$LWDISPLAY
290
     0
  9
$INSUNITS
 70
     0
  9
$HYPERLINKBASE
  1

  9
$STYLESHEET
  1
sei_cad.ctb
  9
$XEDIT
290
     1
  9
$CEPSNTYPE
380
     0
  9
$PSTYLEMODE
290
     1
  9
$FINGERPRINTGUID
  2
{4135E7E2-E72E-4876-BC89-2FB2DE31A333}
  9
$VERSIONGUID
  2
{DEB04475-4D14-475C-A606-C428A4972BB5}
  9
$EXTNAMES
290
     1
  9
$PSVPSCALE
 40
0.0
  9
$OLESTARTUP
290
     0
  0
ENDSEC
  0
SECTION
  2
CLASSES
  0
CLASS
  1
ACDBDICTIONARYWDFLT
  2
AcDbDictionaryWithDefault
  3
ObjectDBX Classes
 90
        0
280
     0
281
     0
  0
CLASS
  1
TABLESTYLE
  2
AcDbTableStyle
  3
ObjectDBX Classes
 90
     2047
280
     0
281
     0
  0
CLASS
  1
ACME_DOCUMENT
  2
AcMeDbDoc
  3
AcMeServices
 90
        0
280
     1
281
     0
  0
CLASS
  1
ACMESCOPE
  2
AcMeScope
  3
AcMeServices
 90
        0
280
     1
281
     0
  0
CLASS
  1
ACMECOMMANDHISTORY
  2
AcMeCommandHistory
  3
AcMeServices
 90
        0
280
     1
281
     0
  0
CLASS
  1
ACIMSYSVARMAN
  2
AcImSysVarManager
  3
AcMeServices
 90
        0
280
     1
281
     0
  0
CLASS
  1
ACIMINTSYSVAR
  2
AcImIntSysVar
  3
AcMeServices
 90
        0
280
     1
281
     0
  0
CLASS
  1
ACMEDRAWINGMAN
  2
AcMeDrawingMan
  3
AcMeServices
 90
        0
280
     1
281
     0
  0
CLASS
  1
ACMEVIEW
  2
AcMeView
  3
AcMeServices
 90
        0
280
     1
281
     0
  0
CLASS
  1
ACDBENTITYCACHE
  2
AcMeEntityCache
  3
AcMeServices
 90
        0
280
     1
281
     0
  0
CLASS
  1
GSMANAGER
  2
AcMeGSManager
  3
AcMeServices
 90
        0
280
     1
281
     0
  0
CLASS
  1
AMDTINTERNALREACTOR
  2
AmdtInternalReactor
  3
AcMeServices
 90
        0
280
     1
281
     0
  0
CLASS
  1
ACMESTATEMGR
  2
AcMeStateMgr
  3
AcMeServices
 90
        0
280
     1
281
     0
  0
CLASS
  1
ACGREFMASTER
  2
AcGrefMaster
  3
AcAttribServices
 90
        0
280
     1
281
     0
  0
CLASS
  1
AM_DRAWING_MGR
  2
AcDmDwgMgr
  3
AcMechDwgViewMgmt
 90
        0
280
     1
281
     0
  0
CLASS
  1
AM_DWG_DOCUMENT
  2
AcDmDwgDocument
  3
AcMechDwgViewMgmt
 90
        0
280
     1
281
     0
  0
CLASS
  1
AM_DWG_SHEET
  2
AcDmSheet
  3
AcMechDwgViewMgmt
 90
        0
280
     1
281
     0
  0
CLASS
  1
AM_VIEWDIMPARMAP
  2
AcDmViewDimParMap
  3
AcMechDwgViewMgmt
 90
        0
280
     1
281
     0
  0
CLASS
  1
ACIMREALSYSVAR
  2
AcImRealSysVar
  3
AcMeServices
 90
        0
280
     1
281
     0
  0
CLASS
  1
AM_DWGMGR_NAME
  2
AcDmDwgMgrName
  3
AcMechDwgViewMgmt
 90
        0
280
     1
281
     0
  0
CLASS
  1
ACME_DATABASE
  2
AcMeDbDatabase
  3
AcMeServices
 90
        0
280
     1
281
     0
  0
CLASS
  1
ACRFINSADJUSTERMGR
  2
AcRfInsAdjusterMgr
  3
AcMeServices
 90
        0
280
     1
281
     0
  0
CLASS
  1
ACGREFACADMASTER
  2
AcGrefacadMaster
  3
AcGrefServices
 90
        0
280
     1
281
     0
  0
CLASS
  1
AMDTMENUSTATEMGR
  2
AmdtMenuStateMgr
  3
McadcomServices
 90
        0
280
     1
281
     0
  0
CLASS
  1
AMDTMCOMMENUSTATE
  2
AmdtMcomMenuState
  3
McadcomServices
 90
        0
280
     1
281
     0
  0
CLASS
  1
AMIMASTER
  2
AmiMaster
  3
AmiServices
 90
        0
280
     1
281
     0
  0
CLASS
  1
AMGSETTINGSOBJ
  2
AmgSettingsObj
  3
"AcadM|Product Description: AutoCAD Mechanical 2000|Company: Autodesk"
 90
        0
280
     1
281
     0
  0
CLASS
  1
MAPIAMMOUDLE
  2
MApiAmModule
  3
MApiAmServices
 90
        0
280
     1
281
     0
  0
CLASS
  1
AMDTADMENUSTATE
  2
AmdtAdMenuState
  3
DesignerServices
 90
        0
280
     1
281
     0
  0
CLASS
  1
ADAPPL
  2
AcAdAppl
  3
DesignerServices
 90
        0
280
     1
281
     0
  0
CLASS
  1
DEPMGR
  2
AcAdDepMgr
  3
DesignerServices
 90
        0
280
     1
281
     0
  0
CLASS
  1
PARAMMGR
  2
AcAdParamMgr
  3
DesignerServices
 90
        0
280
     1
281
     0
  0
CLASS
  1
PARAMSCOPE
  2
AcAdParamScope
  3
DesignerServices
 90
        0
280
     1
281
     0
  0
CLASS
  1
NAMEDAPPL
  2
AcAdNamedAppl
  3
DesignerServices
 90
        0
280
     1
281
     0
  0
CLASS
  1
AMDTDMMENUSTATE
  2
AmdtDmMenuState
  3
AcMechDwgViewMgmt
 90
        0
280
     1
281
     0
  0
CLASS
  1
AMDTAMMENUSTATE
  2
AmdtAmMenuState
  3
DesignerAssemblies
 90
        0
280
     1
281
     0
  0
CLASS
  1
ACIMSTRSYSVAR
  2
AcImStrSysVar
  3
AcMeServices
 90
        0
280
     1
281
     0
  0
CLASS
  1
ACAMPROJECT
  2
AcAmProject
  3
DesignerAssemblies
 90
        0
280
     1
281
     0
  0
CLASS
  1
ACAMGRCOMPDEF
  2
AcAmGrCompDef
  3
DesignerAssemblies
 90
        0
280
     1
281
     0
  0
CLASS
  1
ACCMCONTEXT
  2
AcCmContext
  3
DesignerAssemblies
 90
        0
280
     1
281
     0
  0
CLASS
  1
ACAMCOMPDEF
  2
AcAmCompDef
  3
DesignerAssemblies
 90
        0
280
     1
281
     0
  0
CLASS
  1
ACAMCOMPDEFMGR
  2
AcAmCompDefMgr
  3
DesignerAssemblies
 90
        0
280
     1
281
     0
  0
CLASS
  1
AMCONTEXTMGR
  2
AcAmContextMgr
  3
DesignerAssemblies
 90
        0
280
     1
281
     0
  0
CLASS
  1
ACAMCONTEXTMODELER
  2
AcAmContextModeler
  3
DesignerAssemblies
 90
        0
280
     1
281
     0
  0
CLASS
  1
ACMDATADICTIONARY
  2
AcmDataDictionary
  3
"AcmSymBB|Product Description: AutoCAD Mechanical 2004 DX|Company: Autodesk"
 90
        0
280
     1
281
     0
  0
CLASS
  1
CATALOGSTATE
  2
AcAmCatalogState
  3
DesignerAssemblies
 90
        0
280
     1
281
     0
  0
CLASS
  1
ACAMGRCOMPDEFSET
  2
AcAmGrCompDefSet
  3
DesignerAssemblies
 90
        0
280
     1
281
     0
  0
CLASS
  1
AMDTBROWSERDBTAB
  2
AmdtBrowserDbTab
  3
McadcomServices
 90
        0
280
     1
281
     0
  0
CLASS
  1
CBROWSERAPPOBJECT
  2
CBrowserAppObject
  3
McadcomServices
 90
        0
280
     1
281
     0
  0
CLASS
  1
DM_PLACEHOLDER
  2
AcDmSelsetPlaceholder
  3
AcMechDwgViewMgmt
 90
        0
280
     1
281
     0
  0
CLASS
  1
ACMSTANDARDANSI
  2
AcmStandardANSI
  3
"Amdt_StdImp|Product Description: AutoCAD Mechanical 2004 DX|Company: Autodesk"
 90
        0
280
     1
281
     0
  0
CLASS
  1
AMGOBJPROPCFG
  2
AmgObjPropCfg
  3
"AmgLay|Product Description: AutoCAD Mechanical 2000|Company: Autodesk"
 90
        1
280
     1
281
     0
  0
CLASS
  1
ACMSURFSTANDARDANSI
  2
AcmSurfTextStdANSI
  3
"Amdt_StdImp|Product Description: AutoCAD Mechanical 2004 DX|Company: Autodesk"
 90
        0
280
     1
281
     0
  0
CLASS
  1
ACMFCFSTANDARDANSI
  2
AcmFCFStdANSI
  3
"Amdt_StdImp|Product Description: AutoCAD Mechanical 2004 DX|Company: Autodesk"
 90
        0
280
     1
281
     0
  0
CLASS
  1
ACMWELDSTANDARDANSI
  2
AcmWeldingStdANSI
  3
"Amdt_StdImp|Product Description: AutoCAD Mechanical 2004 DX|Company: Autodesk"
 90
        0
280
     1
281
     0
  0
CLASS
  1
ACMIDSTANDARDANSI
  2
AcmIdStdANSI
  3
"Amdt_StdImp|Product Description: AutoCAD Mechanical 2004 DX|Company: Autodesk"
 90
        0
280
     1
281
     0
  0
CLASS
  1
ACMDATUMSTANDARDANSI
  2
AcmDatumStdANSI
  3
"Amdt_StdImp|Product Description: AutoCAD Mechanical 2004 DX|Company: Autodesk"
 90
        0
280
     1
281
     0
  0
CLASS
  1
ACMBOMSTANDARDANSI
  2
AcmBOMStdANSI
  3
"Amdt_StdImp|Product Description: AutoCAD Mechanical 2004 DX|Company: Autodesk"
 90
        0
280
     1
281
     0
  0
CLASS
  1
ACMDETAILSTANDARDANSI
  2
AmdtDetailSymStdANSI
  3
"Amdt_StdImp|Product Description: AutoCAD Mechanical 2004 DX|Company: Autodesk"
 90
        0
280
     1
281
     0
  0
CLASS
  1
ACMSECTIONSTANDARDANSI
  2
AmdtSectionSymStdANSI
  3
"Amdt_StdImp|Product Description: AutoCAD Mechanical 2004 DX|Company: Autodesk"
 90
        0
280
     1
281
     0
  0
CLASS
  1
ACMCENTERLINESTANDARDANSI
  2
AmdtCenterLineStdANSI
  3
"Amdt_StdImp|Product Description: AutoCAD Mechanical 2004 DX|Company: Autodesk"
 90
        0
280
     1
281
     0
  0
CLASS
  1
ACMTHREADLINESTANDARDANSI
  2
AmdtThreadLineStdANSI
  3
"Amdt_StdImp|Product Description: AutoCAD Mechanical 2004 DX|Company: Autodesk"
 90
        0
280
     1
281
     0
  0
CLASS
  1
ACMNOTESTANDARDANSI
  2
AmdtNoteStdANSI
  3
"Amdt_StdImp|Product Description: AutoCAD Mechanical 2004 DX|Company: Autodesk"
 90
        0
280
     1
281
     0
  0
CLASS
  1
AMDTNOTETEMPLATEDB
  2
AmdtNoteTemplateDB
  3
AMDT_STDIMP_MODULE_NAME
 90
        0
280
     1
281
     0
  0
CLASS
  1
ACAMGLAYSTD
  2
AcAmgLayStd
  3
"AcAmgLayStd|Product Description: AutoCAD Mechanical 2000|Company: Autodesk"
 90
        0
280
     1
281
     0
  0
CLASS
  1
ACAMGDIMSTD
  2
AcAmgDimStd
  3
"AcAmgDimStd|Product Description: AutoCAD Mechanical 2000|Company: Autodesk"
 90
        0
280
     1
281
     0
  0
CLASS
  1
ACAMGHOLECHARTSTDANSI
  2
AcAmgHoleChartStdANSI
  3
ACMSYMBB_MODULE_NAME
 90
        0
280
     1
281
     0
  0
CLASS
  1
ACAMGTITLESTD
  2
AcAmgTitleStd
  3
"TITLEAPP"
 90
        0
280
     1
281
     0
  0
CLASS
  1
ACAMGFILTERDAT
  2
AcAmgFilterDat
  3
"AcadM|Product Description: AutoCAD Mechanical 2000|Company: Autodesk"
 90
        0
280
     1
281
     0
  0
CLASS
  1
DICTIONARYVAR
  2
AcDbDictionaryVar
  3
ObjectDBX Classes
 90
        0
280
     0
281
     0
  0
CLASS
  1
ACMDATAENTRYBLOCK
  2
AcmDataEntryBlock
  3
"AcmSymBB|Product Description: AutoCAD Mechanical 2004 DX|Company: Autodesk"
 90
        0
280
     1
281
     0
  0
CLASS
  1
ACDBPLACEHOLDER
  2
AcDbPlaceHolder
  3
ObjectDBX Classes
 90
        0
280
     0
281
     0
  0
CLASS
  1
LAYOUT
  2
AcDbLayout
  3
ObjectDBX Classes
 90
        0
280
     0
281
     0
  0
ENDSEC
  0
SECTION
  2
TABLES
  0
TABLE
  2
VPORT
  5
8
330
0
100
AcDbSymbolTable
 70
     3
  0
VPORT
  5
5A8
330
8
100
AcDbSymbolTableRecord
100
AcDbViewportTableRecord
  2
*Active
 70
     0
 10
0.0
 20
0.0
 11
1.0
 21
1.0
 12
41.58325270002621
 22
1.512131215785757
 13
0.0
 23
0.0
 14
0.5
 24
0.5
 15
0.0
 25
0.0
 16
0.0
 26
0.0
 36
1.0
 17
0.0
 27
0.0
 37
0.0
 40
117.6147731582631
 41
1.372924648786718
 42
50.0
 43
0.0
 44
0.0
 50
0.0
 51
0.0
 71
     0
 72
   100
 73
     1
 74
     1
 75
     0
 76
     0
 77
     0
 78
     0
281
     0
 65
     0
110
0.0
120
0.0
130
0.0
111
1.0
121
0.0
131
0.0
112
0.0
122
1.0
132
0.0
 79
     0
146
0.0
  0
ENDTAB
  0
TABLE
  2
LTYPE
  5
5
330
0
100
AcDbSymbolTable
 70
    11
  0
LTYPE
  5
13
330
5
100
AcDbSymbolTableRecord
100
AcDbLinetypeTableRecord
  2
ByBlock
 70
     0
  3

 72
    65
 73
     0
 40
0.0
  0
LTYPE
  5
14
330
5
100
AcDbSymbolTableRecord
100
AcDbLinetypeTableRecord
  2
ByLayer
 70
     0
  3

 72
    65
 73
     0
 40
0.0
  0
LTYPE
  5
15
330
5
100
AcDbSymbolTableRecord
100
AcDbLinetypeTableRecord
  2
CONTINUOUS
 70
     0
  3
solid line
 72
    65
 73
     0
 40
0.0
  0
LTYPE
  5
27
330
5
100
AcDbSymbolTableRecord
100
AcDbLinetypeTableRecord
  2
DASHED
 70
     0
  3
-- -- -- -- -- -- -- -- -- -- 
 72
    65
 73
     2
 40
3.0
 49
2.0
 74
     0
 49
-1.0
 74
     0
  0
LTYPE
  5
28
330
5
100
AcDbSymbolTableRecord
100
AcDbLinetypeTableRecord
  2
CENTER
 70
     0
  3
--- - --- - --- - --- - --- - 
 72
    65
 73
     4
 40
6.0
 49
3.0
 74
     0
 49
-1.0
 74
     0
 49
1.0
 74
     0
 49
-1.0
 74
     0
  0
LTYPE
  5
2B1
330
5
100
AcDbSymbolTableRecord
100
AcDbLinetypeTableRecord
  2
HIDDEN
 70
     0
  3
Hidden __ __ __ __ __ __ __ __ __ __ __ __ __ _
 72
    65
 73
     2
 40
0.375
 49
0.25
 74
     0
 49
-0.125
 74
     0
  0
LTYPE
  5
2B2
330
5
100
AcDbSymbolTableRecord
100
AcDbLinetypeTableRecord
  2
PHANTOM2
 70
     0
  3
Phantom (.5x) ___ _ _ ___ _ _ ___ _ _ ___ _ _
 72
    65
 73
     6
 40
1.25
 49
0.625
 74
     0
 49
-0.125
 74
     0
 49
0.125
 74
     0
 49
-0.125
 74
     0
 49
0.125
 74
     0
 49
-0.125
 74
     0
  0
LTYPE
  5
2ED
330
5
100
AcDbSymbolTableRecord
100
AcDbLinetypeTableRecord
  2
Amconstr
 70
     0
  3
_______________________
 72
    65
 73
     2
 40
9999.0
 49
9999.0
 74
     0
 49
0.0
 74
     0
  0
LTYPE
  5
2F3
330
5
100
AcDbSymbolTableRecord
100
AcDbLinetypeTableRecord
  2
CENTER2
 70
     0
  3
Center (.5x) ___ _ ___ _ ___ _ ___ _ ___ _ ___
 72
    65
 73
     4
 40
1.125
 49
0.75
 74
     0
 49
-0.125
 74
     0
 49
0.125
 74
     0
 49
-0.125
 74
     0
  0
LTYPE
  5
2F4
330
5
100
AcDbSymbolTableRecord
100
AcDbLinetypeTableRecord
  2
HIDDEN2
 70
     0
  3
Hidden (.5x) _ _ _ _ _ _ _ _ _ _ _ _ _ _ _ _ _
 72
    65
 73
     2
 40
0.1875
 49
0.125
 74
     0
 49
-0.0625
 74
     0
  0
LTYPE
  5
2F5
330
5
100
AcDbSymbolTableRecord
100
AcDbLinetypeTableRecord
  2
Amzigzag2
 70
     0
  3
/\/-/\/-/\/-/\/-/\/-/\/
 72
    65
 73
     2
 40
0.4401
 49
0.0001
 74
     4
 75
   135
340
2F1
 46
0.0016
 50
0.0
 44
0.0
 45
0.0
 49
-0.44
 74
     0
  0
LTYPE
  5
303
330
5
100
AcDbSymbolTableRecord
100
AcDbLinetypeTableRecord
  2
ACANSTGB
 70
     0
  3
__ . . __ . .
 72
    65
 73
     6
 40
0.35433070866
 49
0.15748031496
 74
     0
 49
-0.03937007874
 74
     0
 49
0.03937007874
 74
     0
 49
-0.03937007874
 74
     0
 49
0.03937007874
 74
     0
 49
-0.03937007874
 74
     0
  0
LTYPE
  5
304
330
5
100
AcDbSymbolTableRecord
100
AcDbLinetypeTableRecord
  2
ACANSTGL
 70
     0
  3
_ _ _ _ _
 72
    65
 73
     2
 40
0.11811023622
 49
0.07874015748
 74
     0
 49
-0.03937007874
 74
     0
  0
ENDTAB
  0
TABLE
  2
LAYER
  5
2
330
0
100
AcDbSymbolTable
 70
     5
  0
LAYER
  5
10
330
2
100
AcDbSymbolTableRecord
100
AcDbLayerTableRecord
  2
0
 70
     0
 62
     7
  6
CONTINUOUS
370
    -3
390
F
  0
LAYER
  5
2A
330
2
100
AcDbSymbolTableRecord
100
AcDbLayerTableRecord
  2
2
 70
     0
 62
     7
  6
CONTINUOUS
370
    -3
390
F
  0
LAYER
  5
2C
330
2
100
AcDbSymbolTableRecord
100
AcDbLayerTableRecord
  2
20
 70
     0
 62
     7
  6
CONTINUOUS
370
    -3
390
F
  0
LAYER
  5
30
330
2
100
AcDbSymbolTableRecord
100
AcDbLayerTableRecord
  2
DEFPOINTS
 70
     0
 62
    -7
  6
CONTINUOUS
290
     0
370
    -3
390
F
  0
LAYER
  5
363
330
2
100
AcDbSymbolTableRecord
100
AcDbLayerTableRecord
  2
AM_5
 70
     0
 62
     3
  6
CONTINUOUS
370
    15
390
F
  0
ENDTAB
  0
TABLE
  2
STYLE
  5
3
330
0
100
AcDbSymbolTable
 70
     4
  0
STYLE
  5
11
330
3
100
AcDbSymbolTableRecord
100
AcDbTextStyleTableRecord
  2
STANDARD
 70
     0
 40
0.0
 41
1.0
 50
0.0
 71
     0
 42
3.0
  3
txt
  4

  0
STYLE
  5
2F1
330
3
100
AcDbSymbolTableRecord
100
AcDbTextStyleTableRecord
  2

 70
     1
 40
0.0
 41
1.0
 50
0.0
 71
     0
 42
3.0
  3
ltypeshp.shx
  4

  0
STYLE
  5
2F6
330
3
100
AcDbSymbolTableRecord
100
AcDbTextStyleTableRecord
  2
ACANSTS
 70
     0
 40
1.0
 41
1.0
 50
0.0
 71
     0
 42
3.0
  3
romans.shx
  4
extfont.shx
  0
STYLE
  5
302
330
3
100
AcDbSymbolTableRecord
100
AcDbTextStyleTableRecord
  2
ACANSGDT
 70
     0
 40
0.0
 41
1.0
 50
0.0
 71
     0
 42
3.0
  3
amgdtans.shx
  4

  0
ENDTAB
  0
TABLE
  2
VIEW
  5
6
330
0
100
AcDbSymbolTable
 70
     0
  0
ENDTAB
  0
TABLE
  2
UCS
  5
7
330
0
100
AcDbSymbolTable
 70
     0
  0
ENDTAB
  0
TABLE
  2
APPID
  5
9
330
0
100
AcDbSymbolTable
 70
     9
  0
APPID
  5
12
330
9
100
AcDbSymbolTableRecord
100
AcDbRegAppTableRecord
  2
ACAD
 70
     0
  0
APPID
  5
284
330
9
100
AcDbSymbolTableRecord
100
AcDbRegAppTableRecord
  2
MCAD_NO_VIS
 70
     0
  0
APPID
  5
285
330
9
100
AcDbSymbolTableRecord
100
AcDbRegAppTableRecord
  2
ACAD_TEMP_GRAPHIC
 70
     0
  0
APPID
  5
2B4
330
9
100
AcDbSymbolTableRecord
100
AcDbRegAppTableRecord
  2
AD_DRAW
 70
     0
  0
APPID
  5
2B7
330
9
100
AcDbSymbolTableRecord
100
AcDbRegAppTableRecord
  2
ACATTRIBSERVICES
 70
     0
  0
APPID
  5
2D9
330
9
100
AcDbSymbolTableRecord
100
AcDbRegAppTableRecord
  2
DESIGNERASSEMBLIES
 70
     0
  0
APPID
  5
2DF
330
9
100
AcDbSymbolTableRecord
100
AcDbRegAppTableRecord
  2
ACADM_DIM_EDIT
 70
     0
  0
APPID
  5
2E0
330
9
100
AcDbSymbolTableRecord
100
AcDbRegAppTableRecord
  2
AMDT_DM_ADJ
 70
     0
  0
APPID
  5
323
330
9
100
AcDbSymbolTableRecord
100
AcDbRegAppTableRecord
  2
ACAD_PSEXT
 70
     0
  0
ENDTAB
  0
TABLE
  2
DIMSTYLE
  5
A
330
0
100
AcDbSymbolTable
 70
     8
100
AcDbDimStyleTable
  0
DIMSTYLE
105
281
330
A
100
AcDbSymbolTableRecord
100
AcDbDimStyleTableRecord
  2
Standard
 70
     0
340
11
  0
DIMSTYLE
105
30F
330
A
100
AcDbSymbolTableRecord
100
AcDbDimStyleTableRecord
  2
AM_ANSI
 70
     0
  4
mm
 41
0.1
 42
0.05
 43
0.5
 44
0.1
 47
0.1
 48
0.1
 78
     7
 79
     2
140
0.12
141
0.0
146
0.71
147
0.06
176
   256
177
   256
178
     2
274
     4
284
     7
340
11
371
    -1
372
    -1
  0
DIMSTYLE
105
310
330
A
100
AcDbSymbolTableRecord
100
AcDbDimStyleTableRecord
  2
AM_ANSI$3
 70
     0
  4
mm
 41
0.1
 42
0.05
 43
0.5
 44
0.1
 47
0.1
 48
0.1
 78
     7
 79
     2
140
0.12
141
0.0
146
0.71
147
0.06
176
   256
177
   256
178
     2
274
     4
284
     7
288
     1
289
     0
340
11
371
    -1
372
    -1
  0
DIMSTYLE
105
311
330
A
100
AcDbSymbolTableRecord
100
AcDbDimStyleTableRecord
  2
AM_ANSI$4
 70
     0
  4
mm
 41
0.1
 42
0.05
 43
0.5
 44
0.1
 47
0.1
 48
0.1
 78
     7
 79
     2
140
0.12
141
0.0
146
0.71
147
0.06
176
   256
177
   256
178
     2
274
     4
284
     7
288
     1
289
     0
340
11
371
    -1
372
    -1
  0
DIMSTYLE
105
312
330
A
100
AcDbSymbolTableRecord
100
AcDbDimStyleTableRecord
  2
AM_ANSI$7
 70
     0
  4
mm
 41
0.1
 42
0.05
 43
0.5
 44
0.1
 47
0.1
 48
0.1
 78
     7
 79
     2
140
0.24
141
0.0
146
0.71
147
0.06
176
   256
177
   256
178
     2
274
     4
284
     7
340
11
371
    -1
372
    -1
  0
DIMSTYLE
105
313
330
A
100
AcDbSymbolTableRecord
100
AcDbDimStyleTableRecord
  2
AM_ANSI$SF
 70
     0
  4
mm
 41
0.1
 42
0.05
 43
0.5
 44
0.1
 47
0.1
 48
0.1
 75
     1
 76
     1
 78
     7
 79
     2
140
0.12
141
0.0
146
0.71
147
0.06
176
   256
177
   256
178
     2
274
     4
284
     7
340
11
371
    -1
372
    -1
  0
DIMSTYLE
105
318
330
A
100
AcDbSymbolTableRecord
100
AcDbDimStyleTableRecord
  2
AM_ANSI$SH
 70
     0
  4
mm
 41
0.1
 42
0.05
 43
0.5
 44
0.1
 47
0.1
 48
0.1
 75
     1
 76
     1
 78
     7
 79
     2
140
0.12
141
0.0
146
0.71
147
0.06
173
     1
176
   256
177
   256
178
     2
274
     4
284
     7
340
11
343
314
371
    -1
372
    -1
  0
DIMSTYLE
105
399
102
{ACAD_REACTORS
330
39D
330
3C5
330
3EF
330
413
330
44F
330
4FC
102
}
330
A
100
AcDbSymbolTableRecord
100
AcDbDimStyleTableRecord
  2
Standard$0
 70
     0
340
11
  0
ENDTAB
  0
TABLE
  2
BLOCK_RECORD
  5
1
330
0
100
AcDbSymbolTable
 70
     9
  0
BLOCK_RECORD
  5
22
330
1
100
AcDbSymbolTableRecord
100
AcDbBlockTableRecord
  2
*Model_Space
340
25
  0
BLOCK_RECORD
  5
1E
330
1
100
AcDbSymbolTableRecord
100
AcDbBlockTableRecord
  2
*Paper_Space
340
21
  0
BLOCK_RECORD
  5
42
330
1
100
AcDbSymbolTableRecord
100
AcDbBlockTableRecord
  2
HACH1
340
0
102
{BLKREFS
331
206
102
}
  0
BLOCK_RECORD
  5
2D0
330
1
100
AcDbSymbolTableRecord
100
AcDbBlockTableRecord
  2
*U1
340
0
  0
BLOCK_RECORD
  5
314
330
1
100
AcDbSymbolTableRecord
100
AcDbBlockTableRecord
  2
GENAXEH
340
0
  0
BLOCK_RECORD
  5
39E
330
1
100
AcDbSymbolTableRecord
100
AcDbBlockTableRecord
  2
*D3
340
0
  0
BLOCK_RECORD
  5
3C6
330
1
100
AcDbSymbolTableRecord
100
AcDbBlockTableRecord
  2
*D4
340
0
  0
BLOCK_RECORD
  5
3F0
330
1
100
AcDbSymbolTableRecord
100
AcDbBlockTableRecord
  2
*D5
340
0
  0
BLOCK_RECORD
  5
414
330
1
100
AcDbSymbolTableRecord
100
AcDbBlockTableRecord
  2
*D6
340
0
  0
BLOCK_RECORD
  5
450
330
1
100
AcDbSymbolTableRecord
100
AcDbBlockTableRecord
  2
*D7
340
0
  0
BLOCK_RECORD
  5
4FD
330
1
100
AcDbSymbolTableRecord
100
AcDbBlockTableRecord
  2
*D8
340
0
  0
ENDTAB
  0
ENDSEC
  0
SECTION
  2
BLOCKS
  0
BLOCK
  5
23
330
22
100
AcDbEntity
  8
0
100
AcDbBlockBegin
  2
*Model_Space
 70
     0
 71
     0
 10
0.0
 20
0.0
 30
0.0
  3
*Model_Space
  1

  0
ENDBLK
  5
24
330
22
100
AcDbEntity
  8
0
100
AcDbBlockEnd
  0
BLOCK
  5
1F
330
1E
100
AcDbEntity
 67
     1
  8
0
100
AcDbBlockBegin
  2
*Paper_Space
 70
     0
 71
     0
 10
0.0
 20
0.0
 30
0.0
  3
*Paper_Space
  1

  0
ENDBLK
  5
20
330
1E
100
AcDbEntity
 67
     1
  8
0
100
AcDbBlockEnd
  0
BLOCK
  5
43
330
42
100
AcDbEntity
  8
20
100
AcDbBlockBegin
  2
HACH1
 70
     0
 71
     0
 10
0.0
 20
0.0
 30
0.0
  3
HACH1
  1

  0
LINE
  5
44
330
42
100
AcDbEntity
  8
20
  6
Continuous
100
AcDbLine
 10
12.0
 20
2.615999698638916
 30
0.0
 11
14.2768144607544
 21
4.892813682556152
 31
0.0
  0
LINE
  5
45
330
42
100
AcDbEntity
  8
20
  6
Continuous
100
AcDbLine
 10
12.0
 20
3.323106288909912
 30
0.0
 11
14.43222236633301
 21
5.755328178405763
 31
0.0
  0
LINE
  5
46
330
42
100
AcDbEntity
  8
20
  6
Continuous
100
AcDbLine
 10
12.0
 20
4.030213356018066
 30
0.0
 11
14.58763027191162
 21
6.617842674255371
 31
0.0
  0
LINE
  5
47
330
42
100
AcDbEntity
  8
20
  6
Continuous
100
AcDbLine
 10
12.0
 20
4.737319946289063
 30
0.0
 11
14.78848075866699
 21
7.525800704956055
 31
0.0
  0
LINE
  5
48
330
42
100
AcDbEntity
  8
20
  6
Continuous
100
AcDbLine
 10
12.0
 20
5.444426536560059
 30
0.0
 11
15.0462007522583
 21
8.490627288818358
 31
0.0
  0
LINE
  5
49
330
42
100
AcDbEntity
  8
20
  6
Continuous
100
AcDbLine
 10
11.5
 20
5.651533126831055
 30
0.0
 11
15.14876842498779
 21
9.300301551818848
 31
0.0
  0
LINE
  5
4A
330
42
100
AcDbEntity
  8
20
  6
Continuous
100
AcDbLine
 10
7.87566614151001
 20
2.73430609703064
 30
0.0
 11
7.999999046325684
 21
2.858639240264893
 31
0.0
  0
LINE
  5
4B
330
42
100
AcDbEntity
  8
20
  6
Continuous
100
AcDbLine
 10
11.5
 20
6.358639717102051
 30
0.0
 11
14.4416618347168
 21
9.300301551818848
 31
0.0
  0
LINE
  5
4C
330
42
100
AcDbEntity
  8
20
  6
Continuous
100
AcDbLine
 10
7.558311462402344
 20
3.124058246612549
 30
0.0
 11
7.999999046325684
 21
3.565746068954468
 31
0.0
  0
LINE
  5
4D
330
42
100
AcDbEntity
  8
20
  6
Continuous
100
AcDbLine
 10
11.5
 20
7.065746307373048
 30
0.0
 11
13.73455429077148
 21
9.300301551818848
 31
0.0
  0
LINE
  5
4E
330
42
100
AcDbEntity
  8
20
  6
Continuous
100
AcDbLine
 10
7.240956783294678
 20
3.513810396194458
 30
0.0
 11
7.999999046325684
 21
4.272852897644043
 31
0.0
  0
LINE
  5
4F
330
42
100
AcDbEntity
  8
20
  6
Continuous
100
AcDbLine
 10
11.5
 20
7.772853851318359
 30
0.0
 11
13.02744770050049
 21
9.300301551818848
 31
0.0
  0
LINE
  5
50
330
42
100
AcDbEntity
  8
20
  6
Continuous
100
AcDbLine
 10
6.945726871490479
 20
3.925687313079834
 30
0.0
 11
7.999998569488525
 21
4.979959011077881
 31
0.0
  0
LINE
  5
51
330
42
100
AcDbEntity
  8
20
  6
Continuous
100
AcDbLine
 10
11.5
 20
8.479960441589357
 30
0.0
 11
12.32034111022949
 21
9.300301551818848
 31
0.0
  0
LINE
  5
52
330
42
100
AcDbEntity
  8
20
  6
Continuous
100
AcDbLine
 10
6.720277309417725
 20
4.407344341278076
 30
0.0
 11
8.5
 21
6.187067031860353
 31
0.0
  0
LINE
  5
53
330
42
100
AcDbEntity
  8
20
  6
Continuous
100
AcDbLine
 10
11.5
 20
9.187067985534668
 30
0.0
 11
11.6132345199585
 21
9.300301551818848
 31
0.0
  0
LINE
  5
54
330
42
100
AcDbEntity
  8
20
  6
Continuous
100
AcDbLine
 10
6.494827270507813
 20
4.889001369476318
 30
0.0
 11
8.5
 21
6.894173622131348
 31
0.0
  0
LINE
  5
55
330
42
100
AcDbEntity
  8
20
  6
Continuous
100
AcDbLine
 10
6.275851249694824
 20
5.377131938934326
 30
0.0
 11
8.5
 21
7.601280689239503
 31
0.0
  0
LINE
  5
56
330
42
100
AcDbEntity
  8
20
  6
Continuous
100
AcDbLine
 10
6.067811012268066
 20
5.876198768615723
 30
0.0
 11
8.5
 21
8.308387756347656
 31
0.0
  0
LINE
  5
57
330
42
100
AcDbEntity
  8
20
  6
Continuous
100
AcDbLine
 10
5.863909244537354
 20
6.379403591156006
 30
0.0
 11
8.5
 21
9.015494346618652
 31
0.0
  0
LINE
  5
58
330
42
100
AcDbEntity
  8
20
  6
Continuous
100
AcDbLine
 10
5.663628101348878
 20
6.886229038238525
 30
0.0
 11
8.077700614929199
 21
9.300301551818848
 31
0.0
  0
LINE
  5
59
330
42
100
AcDbEntity
  8
20
  6
Continuous
100
AcDbLine
 10
5.5
 20
7.429708003997803
 30
0.0
 11
7.370593547821045
 21
9.300301551818848
 31
0.0
  0
LINE
  5
5A
330
42
100
AcDbEntity
  8
20
  6
Continuous
100
AcDbLine
 10
5.5
 20
8.136815071105957
 30
0.0
 11
6.663486957550049
 21
9.300301551818848
 31
0.0
  0
LINE
  5
5B
330
42
100
AcDbEntity
  8
20
  6
Continuous
100
AcDbLine
 10
5.500000476837158
 20
8.843921661376953
 30
0.0
 11
5.956379890441895
 21
9.300301551818848
 31
0.0
  0
ENDBLK
  5
5C
330
42
100
AcDbEntity
  8
20
100
AcDbBlockEnd
  0
BLOCK
  5
2D1
330
2D0
100
AcDbEntity
  8
0
100
AcDbBlockBegin
  2
*U1
 70
     1
 71
     0
 10
0.0
 20
0.0
 30
0.0
  3
*U1
  1

  0
ENDBLK
  5
2D2
330
2D0
100
AcDbEntity
  8
0
100
AcDbBlockEnd
  0
BLOCK
  5
316
330
314
100
AcDbEntity
  8
0
100
AcDbBlockBegin
  2
GENAXEH
 70
     0
 71
     0
 10
0.0
 20
0.0
 30
0.0
  3
GENAXEH
  1

  0
LINE
  5
315
330
314
100
AcDbEntity
  8
0
100
AcDbLine
 10
-1.0
 20
0.0
 30
0.0
 11
1.0
 21
0.0
 31
0.0
  0
ENDBLK
  5
317
330
314
100
AcDbEntity
  8
0
100
AcDbBlockEnd
  0
BLOCK
  5
3A8
330
39E
100
AcDbEntity
  8
0
100
AcDbBlockBegin
  2
*D3
 70
     1
 71
     0
 10
0.0
 20
0.0
 30
0.0
  3
*D3
  1

  0
LINE
  5
572
330
39E
100
AcDbEntity
  8
AM_5
 62
     0
370
    -2
100
AcDbLine
 10
-0.0000000000000001
 20
48.1999999880791
 30
0.0
 11
-0.0000000000000006
 21
39.20923193595263
 31
0.0
  0
LINE
  5
573
330
39E
100
AcDbEntity
  8
AM_5
 62
     0
370
    -2
100
AcDbLine
 10
7.0
 20
49.0
 30
0.0
 11
6.999999999999999
 21
39.20923193595263
 31
0.0
  0
LINE
  5
574
330
39E
100
AcDbEntity
  8
AM_5
 62
     0
370
    -2
100
AcDbLine
 10
3.0
 20
41.20923193595263
 30
0.0
 11
3.999999999999999
 21
41.20923193595263
 31
0.0
  0
SOLID
  5
575
330
39E
100
AcDbEntity
  8
AM_5
 62
     0
100
AcDbTrace
 10
3.0
 20
41.70923193595263
 30
0.0
 11
3.0
 21
40.70923193595263
 31
0.0
 12
-0.0000000000000005
 22
41.20923193595263
 32
0.0
 13
-0.0000000000000005
 23
41.20923193595263
 33
0.0
  0
SOLID
  5
576
330
39E
100
AcDbEntity
  8
AM_5
 62
     0
100
AcDbTrace
 10
3.999999999999999
 20
41.70923193595263
 30
0.0
 11
3.999999999999999
 21
40.70923193595263
 31
0.0
 12
6.999999999999999
 22
41.20923193595263
 32
0.0
 13
6.999999999999999
 23
41.20923193595263
 33
0.0
  0
MTEXT
  5
577
330
39E
100
AcDbEntity
  8
AM_5
 62
     0
100
AcDbMText
 10
3.499999999999999
 20
43.79923193595263
 30
0.0
 40
5.0
 41
0.0
 71
     5
 72
     1
  1
\A1;7
 73
     1
 44
1.0
  0
POINT
  5
578
330
39E
100
AcDbEntity
  8
DEFPOINTS
 62
     0
100
AcDbPoint
 10
0.0
 20
49.1999999880791
 30
0.0
  0
POINT
  5
579
330
39E
100
AcDbEntity
  8
DEFPOINTS
 62
     0
100
AcDbPoint
 10
7.0
 20
50.0
 30
0.0
  0
POINT
  5
57A
330
39E
100
AcDbEntity
  8
DEFPOINTS
 62
     0
100
AcDbPoint
 10
6.999999999999999
 20
41.20923193595263
 30
0.0
  0
ENDBLK
  5
3A9
330
39E
100
AcDbEntity
  8
0
100
AcDbBlockEnd
  0
BLOCK
  5
3D0
330
3C6
100
AcDbEntity
  8
0
100
AcDbBlockBegin
  2
*D4
 70
     1
 71
     0
 10
0.0
 20
0.0
 30
0.0
  3
*D4
  1

  0
LINE
  5
57B
330
3C6
100
AcDbEntity
  8
AM_5
 62
     0
370
    -2
100
AcDbLine
 10
-0.0000000000000001
 20
48.1999999880791
 30
0.0
 11
-0.0000000000000014
 21
27.03012246631738
 31
0.0
  0
LINE
  5
57C
330
3C6
100
AcDbEntity
  8
AM_5
 62
     0
370
    -2
100
AcDbLine
 10
85.0
 20
48.50054752016715
 30
0.0
 11
85.0
 21
27.03012246631738
 31
0.0
  0
LINE
  5
57D
330
3C6
100
AcDbEntity
  8
AM_5
 62
     0
370
    -2
100
AcDbLine
 10
2.999999999999999
 20
29.03012246631738
 30
0.0
 11
82.0
 21
29.03012246631738
 31
0.0
  0
SOLID
  5
57E
330
3C6
100
AcDbEntity
  8
AM_5
 62
     0
100
AcDbTrace
 10
2.999999999999999
 20
29.53012246631738
 30
0.0
 11
2.999999999999999
 21
28.53012246631738
 31
0.0
 12
-0.0000000000000012
 22
29.03012246631738
 32
0.0
 13
-0.0000000000000012
 23
29.03012246631738
 33
0.0
  0
SOLID
  5
57F
330
3C6
100
AcDbEntity
  8
AM_5
 62
     0
100
AcDbTrace
 10
82.0
 20
29.53012246631738
 30
0.0
 11
82.0
 21
28.53012246631738
 31
0.0
 12
85.0
 22
29.03012246631738
 32
0.0
 13
85.0
 23
29.03012246631738
 33
0.0
  0
MTEXT
  5
580
330
3C6
100
AcDbEntity
  8
AM_5
 62
     0
100
AcDbMText
 10
42.5
 20
31.62012246631738
 30
0.0
 40
5.0
 41
0.0
 71
     5
 72
     1
  1
\A1;85
 73
     1
 44
1.0
  0
POINT
  5
581
330
3C6
100
AcDbEntity
  8
DEFPOINTS
 62
     0
100
AcDbPoint
 10
0.0
 20
49.1999999880791
 30
0.0
  0
POINT
  5
582
330
3C6
100
AcDbEntity
  8
DEFPOINTS
 62
     0
100
AcDbPoint
 10
85.0
 20
49.50054752016715
 30
0.0
  0
POINT
  5
583
330
3C6
100
AcDbEntity
  8
DEFPOINTS
 62
     0
100
AcDbPoint
 10
85.0
 20
29.03012246631738
 30
0.0
  0
ENDBLK
  5
3D1
330
3C6
100
AcDbEntity
  8
0
100
AcDbBlockEnd
  0
BLOCK
  5
3FA
330
3F0
100
AcDbEntity
  8
0
100
AcDbBlockBegin
  2
*D5
 70
     1
 71
     0
 10
0.0
 20
0.0
 30
0.0
  3
*D5
  1

  0
LINE
  5
584
330
3F0
100
AcDbEntity
  8
AM_5
 62
     0
370
    -2
100
AcDbLine
 10
82.87502008578343
 20
59.3003015518189
 30
0.0
 11
98.52483157693359
 21
59.3003015518189
 31
0.0
  0
LINE
  5
585
330
3F0
100
AcDbEntity
  8
AM_5
 62
     0
370
    -2
100
AcDbLine
 10
82.87502012880634
 20
47.30030154240777
 30
0.0
 11
98.52483157693359
 21
47.30030154240777
 31
0.0
  0
LINE
  5
586
330
3F0
100
AcDbEntity
  8
AM_5
 62
     0
370
    -2
100
AcDbLine
 10
96.52483157693359
 20
56.3003015518189
 30
0.0
 11
96.52483157693359
 21
50.30030154240777
 31
0.0
  0
SOLID
  5
587
330
3F0
100
AcDbEntity
  8
AM_5
 62
     0
100
AcDbTrace
 10
96.02483157693359
 20
56.3003015518189
 30
0.0
 11
97.02483157693359
 21
56.3003015518189
 31
0.0
 12
96.52483157693359
 22
59.3003015518189
 32
0.0
 13
96.52483157693359
 23
59.3003015518189
 33
0.0
  0
SOLID
  5
588
330
3F0
100
AcDbEntity
  8
AM_5
 62
     0
100
AcDbTrace
 10
96.02483157693359
 20
50.30030154240777
 30
0.0
 11
97.02483157693359
 21
50.30030154240777
 31
0.0
 12
96.52483157693359
 22
47.30030154240777
 32
0.0
 13
96.52483157693359
 23
47.30030154240777
 33
0.0
  0
MTEXT
  5
589
330
3F0
100
AcDbEntity
  8
AM_5
 62
     0
100
AcDbMText
 10
93.93483157693358
 20
53.30030154711335
 30
0.0
 40
5.0
 41
0.0
 71
     5
 72
     1
  1
\A1;12
 11
6.123031769111886E-17
 21
1.0
 31
0.0
 73
     1
 44
1.0
  0
POINT
  5
58A
330
3F0
100
AcDbEntity
  8
DEFPOINTS
 62
     0
100
AcDbPoint
 10
81.87502008578343
 20
59.3003015518189
 30
0.0
  0
POINT
  5
58B
330
3F0
100
AcDbEntity
  8
DEFPOINTS
 62
     0
100
AcDbPoint
 10
81.87502012880634
 20
47.30030154240777
 30
0.0
  0
POINT
  5
58C
330
3F0
100
AcDbEntity
  8
DEFPOINTS
 62
     0
100
AcDbPoint
 10
96.52483157693359
 20
47.30030154240777
 30
0.0
  0
ENDBLK
  5
3FB
330
3F0
100
AcDbEntity
  8
0
100
AcDbBlockEnd
  0
BLOCK
  5
41E
330
414
100
AcDbEntity
  8
0
100
AcDbBlockBegin
  2
*D6
 70
     1
 71
     0
 10
0.0
 20
0.0
 30
0.0
  3
*D6
  1

  0
LINE
  5
58D
330
414
100
AcDbEntity
  8
AM_5
 62
     0
370
    -2
100
AcDbLine
 10
81.76686506606183
 20
-0.0000000000000003
 30
0.0
 11
98.60777626761478
 21
-0.0000000000000051
 31
0.0
  0
LINE
  5
58E
330
414
100
AcDbEntity
  8
AM_5
 62
     0
370
    -2
100
AcDbLine
 10
81.76686506606183
 20
-12.0
 30
0.0
 11
98.60777626761478
 21
-12.00000000000001
 31
0.0
  0
LINE
  5
58F
330
414
100
AcDbEntity
  8
AM_5
 62
     0
370
    -2
100
AcDbLine
 10
96.60777626761478
 20
-3.000000000000004
 30
0.0
 11
96.60777626761478
 21
-9.000000000000005
 31
0.0
  0
SOLID
  5
590
330
414
100
AcDbEntity
  8
AM_5
 62
     0
100
AcDbTrace
 10
96.10777626761478
 20
-3.000000000000004
 30
0.0
 11
97.10777626761478
 21
-3.000000000000005
 31
0.0
 12
96.60777626761478
 22
-0.0000000000000045
 32
0.0
 13
96.60777626761478
 23
-0.0000000000000045
 33
0.0
  0
SOLID
  5
591
330
414
100
AcDbEntity
  8
AM_5
 62
     0
100
AcDbTrace
 10
96.10777626761478
 20
-9.000000000000005
 30
0.0
 11
97.10777626761478
 21
-9.000000000000005
 31
0.0
 12
96.60777626761478
 22
-12.00000000000001
 32
0.0
 13
96.60777626761478
 23
-12.00000000000001
 33
0.0
  0
MTEXT
  5
592
330
414
100
AcDbEntity
  8
AM_5
 62
     0
100
AcDbMText
 10
94.01777626761478
 20
-5.999999999999989
 30
0.0
 40
5.0
 41
0.0
 71
     5
 72
     1
  1
\A1;12
 11
6.123031769111886E-17
 21
1.0
 31
0.0
 73
     1
 44
1.0
  0
POINT
  5
593
330
414
100
AcDbEntity
  8
DEFPOINTS
 62
     0
100
AcDbPoint
 10
80.76686506606183
 20
0.0
 30
0.0
  0
POINT
  5
594
330
414
100
AcDbEntity
  8
DEFPOINTS
 62
     0
100
AcDbPoint
 10
80.76686506606183
 20
-12.0
 30
0.0
  0
POINT
  5
595
330
414
100
AcDbEntity
  8
DEFPOINTS
 62
     0
100
AcDbPoint
 10
96.60777626761478
 20
-12.00000000000001
 30
0.0
  0
ENDBLK
  5
41F
330
414
100
AcDbEntity
  8
0
100
AcDbBlockEnd
  0
BLOCK
  5
45A
330
450
100
AcDbEntity
  8
0
100
AcDbBlockBegin
  2
*D7
 70
     1
 71
     0
 10
0.0
 20
0.0
 30
0.0
  3
*D7
  1

  0
LINE
  5
596
330
450
100
AcDbEntity
  8
AM_5
 62
     0
370
    -2
100
AcDbLine
 10
-1.0
 20
0.0000000000000003
 30
0.0
 11
-12.35737894163253
 21
0.0000000000000035
 31
0.0
  0
LINE
  5
597
330
450
100
AcDbEntity
  8
AM_5
 62
     0
370
    -2
100
AcDbLine
 10
8.429683565978367
 20
-12.0
 30
0.0
 11
-12.35737894163253
 21
-11.99999999999999
 31
0.0
  0
LINE
  5
598
330
450
100
AcDbEntity
  8
AM_5
 62
     0
370
    -2
100
AcDbLine
 10
-10.35737894163253
 20
-2.999999999999997
 30
0.0
 11
-10.35737894163253
 21
-8.999999999999995
 31
0.0
  0
SOLID
  5
599
330
450
100
AcDbEntity
  8
AM_5
 62
     0
100
AcDbTrace
 10
-10.85737894163253
 20
-2.999999999999997
 30
0.0
 11
-9.857378941632531
 21
-2.999999999999997
 31
0.0
 12
-10.35737894163253
 22
0.0000000000000029
 32
0.0
 13
-10.35737894163253
 23
0.0000000000000029
 33
0.0
  0
SOLID
  5
59A
330
450
100
AcDbEntity
  8
AM_5
 62
     0
100
AcDbTrace
 10
-10.85737894163253
 20
-8.999999999999995
 30
0.0
 11
-9.857378941632533
 21
-8.999999999999995
 31
0.0
 12
-10.35737894163253
 22
-12.0
 32
0.0
 13
-10.35737894163253
 23
-12.0
 33
0.0
  0
MTEXT
  5
59B
330
450
100
AcDbEntity
  8
AM_5
 62
     0
100
AcDbMText
 10
-12.94737894163253
 20
-5.999999999999997
 30
0.0
 40
5.0
 41
0.0
 71
     5
 72
     1
  1
\A1;12
 11
6.123031769111886E-17
 21
1.0
 31
0.0
 73
     1
 44
1.0
  0
POINT
  5
59C
330
450
100
AcDbEntity
  8
DEFPOINTS
 62
     0
100
AcDbPoint
 10
0.0
 20
0.0
 30
0.0
  0
POINT
  5
59D
330
450
100
AcDbEntity
  8
DEFPOINTS
 62
     0
100
AcDbPoint
 10
9.429683565978367
 20
-12.0
 30
0.0
  0
POINT
  5
59E
330
450
100
AcDbEntity
  8
DEFPOINTS
 62
     0
100
AcDbPoint
 10
-10.35737894163253
 20
-12.0
 30
0.0
  0
ENDBLK
  5
45B
330
450
100
AcDbEntity
  8
0
100
AcDbBlockEnd
  0
BLOCK
  5
508
330
4FD
100
AcDbEntity
  8
0
100
AcDbBlockBegin
  2
*D8
 70
     1
 71
     0
 10
0.0
 20
0.0
 30
0.0
  3
*D8
  1

  0
LINE
  5
59F
330
4FD
100
AcDbEntity
  8
AM_5
 62
     0
370
    -2
100
AcDbLine
 10
-0.0000000000000001
 20
-1.0
 30
0.0
 11
-0.0000000000000017
 21
-27.15889823613748
 31
0.0
  0
LINE
  5
5A0
330
4FD
100
AcDbEntity
  8
AM_5
 62
     0
370
    -2
100
AcDbLine
 10
14.78771305084231
 20
-13.0
 30
0.0
 11
14.78771305084231
 21
-27.15889823613748
 31
0.0
  0
LINE
  5
5A1
330
4FD
100
AcDbEntity
  8
AM_5
 62
     0
370
    -2
100
AcDbLine
 10
2.999999999999999
 20
-25.15889823613748
 30
0.0
 11
11.78771305084231
 21
-25.15889823613748
 31
0.0
  0
SOLID
  5
5A2
330
4FD
100
AcDbEntity
  8
AM_5
 62
     0
100
AcDbTrace
 10
2.999999999999999
 20
-24.65889823613748
 30
0.0
 11
2.999999999999999
 21
-25.65889823613748
 31
0.0
 12
-0.0000000000000015
 22
-25.15889823613748
 32
0.0
 13
-0.0000000000000015
 23
-25.15889823613748
 33
0.0
  0
SOLID
  5
5A3
330
4FD
100
AcDbEntity
  8
AM_5
 62
     0
100
AcDbTrace
 10
11.78771305084231
 20
-24.65889823613748
 30
0.0
 11
11.78771305084231
 21
-25.65889823613748
 31
0.0
 12
14.78771305084231
 22
-25.15889823613748
 32
0.0
 13
14.78771305084231
 23
-25.15889823613748
 33
0.0
  0
MTEXT
  5
5A4
330
4FD
100
AcDbEntity
  8
AM_5
 62
     0
100
AcDbMText
 10
7.393856525421156
 20
-22.56889823613748
 30
0.0
 40
5.0
 41
0.0
 71
     5
 72
     1
  1
\A1;15
 73
     1
 44
1.0
  0
POINT
  5
5A5
330
4FD
100
AcDbEntity
  8
DEFPOINTS
 62
     0
100
AcDbPoint
 10
0.0
 20
0.0
 30
0.0
  0
POINT
  5
5A6
330
4FD
100
AcDbEntity
  8
DEFPOINTS
 62
     0
100
AcDbPoint
 10
14.78771305084231
 20
-12.0
 30
0.0
  0
POINT
  5
5A7
330
4FD
100
AcDbEntity
  8
DEFPOINTS
 62
     0
100
AcDbPoint
 10
14.78771305084231
 20
-25.15889823613748
 30
0.0
  0
ENDBLK
  5
509
330
4FD
100
AcDbEntity
  8
0
100
AcDbBlockEnd
  0
ENDSEC
  0
SECTION
  2
ENTITIES
  0
LINE
  5
14F
330
22
100
AcDbEntity
  8
2
  6
Continuous
100
AcDbLine
 10
5.500000953674316
 20
-10.0
 30
0.0
 11
5.500000953674316
 21
-8.506916999816909
 31
0.0
  0
LINE
  5
158
330
22
100
AcDbEntity
  8
2
  6
Continuous
100
AcDbLine
 10
14.42005554960682
 20
0.0
 30
0.0
 11
85.0
 21
0.0
 31
0.0
  0
LINE
  5
159
330
22
100
AcDbEntity
  8
2
  6
Continuous
100
AcDbLine
 10
7.500000953674316
 20
-12.0
 30
0.0
 11
85.0
 21
-12.0
 31
0.0
  0
LINE
  5
160
330
22
100
AcDbEntity
  8
2
  6
Continuous
100
AcDbLine
 10
24.85149627531553
 20
-12.0
 30
0.0
 11
14.42005554960682
 21
0.0
 31
0.0
  0
ARC
  5
161
330
22
100
AcDbEntity
  8
2
  6
Continuous
100
AcDbCircle
 10
11.62822116496619
 20
-5.755046558380087
 30
0.0
 40
1.999999999999999
100
AcDbArc
 50
270.0
 51
295.8419327631671
  0
LINE
  5
162
330
22
100
AcDbEntity
  8
2
  6
Continuous
100
AcDbLine
 10
11.62822116496619
 20
-7.755046558380087
 30
0.0
 11
8.371780742382384
 21
-7.755046558380087
 31
0.0
  0
ARC
  5
163
330
22
100
AcDbEntity
  8
2
  6
Continuous
100
AcDbCircle
 10
8.371780742382384
 20
-5.755046558380087
 30
0.0
 40
2.0
100
AcDbArc
 50
244.1580672368328
 51
270.0
  0
LINE
  5
164
330
22
100
AcDbEntity
  8
2
  6
Continuous
100
AcDbLine
 10
7.500000953674316
 20
-7.555046558380084
 30
0.0
 11
5.667841451249018
 21
-7.555046558380084
 31
0.0
  0
LINE
  5
165
330
22
100
AcDbEntity
  8
2
  6
Continuous
100
AcDbLine
 10
12.50000095367432
 20
-7.555046558380084
 30
0.0
 11
16.328498840332
 21
-7.555046558380084
 31
0.0
  0
LINE
  5
166
330
22
100
AcDbEntity
  8
2
  6
Continuous
100
AcDbLine
 10
20.21395082310397
 20
-12.0
 30
0.0
 11
16.3500117935379
 21
-7.555046558380084
 31
0.0
  0
LINE
  5
167
330
22
100
AcDbEntity
  8
2
  6
Continuous
100
AcDbLine
 10
5.500000953674316
 20
-8.506917320870798
 30
0.0
 11
5.667841451249018
 21
-7.555046558380084
 31
0.0
  0
LINE
  5
168
330
22
100
AcDbEntity
  8
2
  6
Continuous
100
AcDbLine
 10
5.500000953674316
 20
-10.0
 30
0.0
 11
7.500000953674316
 21
-12.0
 31
0.0
  0
CIRCLE
  5
169
330
22
100
AcDbEntity
  8
2
  6
Continuous
100
AcDbCircle
 10
10.0
 20
-3.755255222320599
 30
0.0
 40
3.0
  0
LINE
  5
16A
330
22
100
AcDbEntity
  8
2
  6
Continuous
100
AcDbLine
 10
0.2616676688193991
 20
-1.48399114608759
 30
0.0
 11
5.52388286590579
 21
-7.755255222320599
 31
0.0
  0
LINE
  5
16B
330
22
100
AcDbEntity
  8
2
  6
Continuous
100
AcDbLine
 10
14.47604560852051
 20
0.2447447925805903
 30
0.0
 11
14.6814079284668
 21
0.0
 31
0.0
  0
LINE
  5
16C
330
22
100
AcDbEntity
  8
2
  6
Continuous
100
AcDbLine
 10
14.47604560852051
 20
0.2447447925805903
 30
0.0
 11
3.814538002014189
 21
0.2447447925805903
 31
0.0
  0
LINE
  5
16D
330
22
100
AcDbEntity
  8
2
  6
Continuous
100
AcDbLine
 10
5.52388286590579
 20
-7.755255222320599
 30
0.0
 11
5.632539272308378
 21
-7.755255222320599
 31
0.0
  0
LINE
  5
16E
330
22
100
AcDbEntity
  8
2
  6
Continuous
100
AcDbLine
 10
0.0
 20
0.0
 30
0.0
 11
2.293044328689575
 21
-0.2410086691378979
 31
0.0
  0
LINE
  5
16F
330
22
100
AcDbEntity
  8
2
  6
Continuous
100
AcDbLine
 10
14.38268566131592
 20
0.0445363186300085
 30
0.0
 11
3.549999952316313
 21
0.0445363186300085
 31
0.0
  0
LINE
  5
170
330
22
100
AcDbEntity
  8
2
  6
Continuous
100
AcDbLine
 10
16.45669937133789
 20
-7.555046558380084
 30
0.0
 11
16.3500118255615
 21
-7.555046558380084
 31
0.0
  0
LINE
  5
171
330
22
100
AcDbEntity
  8
2
  6
Continuous
100
AcDbLine
 10
12.50000095367432
 20
-7.555046558380084
 30
0.0
 11
7.500000953674316
 21
-7.555046558380084
 31
0.0
  0
LINE
  5
172
330
22
100
AcDbEntity
  8
2
  6
Continuous
100
AcDbLine
 10
5.667841434478788
 20
-7.555046558380084
 30
0.0
 11
5.617241382598905
 21
-7.555046558380084
 31
0.0
  0
LINE
  5
173
330
22
100
AcDbEntity
  8
2
  6
Continuous
100
AcDbLine
 10
14.38268566131592
 20
0.0445363186300085
 30
0.0
 11
16.09063339233398
 21
-1.990944862365708
 31
0.0
  0
LINE
  5
174
330
22
100
AcDbEntity
  8
2
  6
Continuous
100
AcDbLine
 10
3.909390926361084
 20
-5.519709587097211
 30
0.0
 11
5.617241382598905
 21
-7.555046558380084
 31
0.0
  0
ARC
  5
175
330
22
100
AcDbEntity
  8
2
  6
Continuous
100
AcDbCircle
 10
2.502101182937594
 20
1.748035073280292
 30
0.0
 40
2.0
100
AcDbArc
 50
264.000001914843
 51
311.2669128656824
  0
LINE
  5
176
330
22
100
AcDbEntity
  8
2
  6
Continuous
100
AcDbLine
 10
14.47604560852051
 20
0.2447447925805903
 30
0.0
 11
14.38268566131592
 21
0.0445363186300085
 31
0.0
  0
LINE
  5
177
330
22
100
AcDbEntity
  8
2
  6
Continuous
100
AcDbLine
 10
5.617241382598905
 20
-7.555046558380084
 30
0.0
 11
5.52388286590579
 21
-7.755255222320599
 31
0.0
  0
LINE
  5
178
330
22
100
AcDbEntity
  8
2
  6
DASHED
100
AcDbLine
 10
1.410891056060819
 20
-0.148290619254098
 30
0.0
 11
2.015705108642578
 21
-3.574371576309204
 31
0.0
  0
LINE
  5
179
330
22
100
AcDbEntity
  8
2
  6
Continuous
100
AcDbLine
 10
2.977619647979708
 20
-0.1946131139994094
 30
0.0
 11
3.909390926361084
 21
-5.519709587097211
 31
0.0
  0
LINE
  5
17A
330
22
100
AcDbEntity
  8
2
  6
Continuous
100
AcDbLine
 10
17.02238082885742
 20
-7.315897464752197
 30
0.0
 11
16.09063339233398
 21
-1.990944862365708
 31
0.0
  0
ARC
  5
17B
330
22
100
AcDbEntity
  8
2
  6
Continuous
100
AcDbCircle
 10
17.49789810180661
 20
-9.258544921875
 30
0.0
 40
2.0
100
AcDbArc
 50
83.95714514076647
 51
123.7824286687525
  0
LINE
  5
17C
330
22
100
AcDbEntity
  8
2
  6
Continuous
100
AcDbLine
 10
20.0
 20
-7.510510444641099
 30
0.0
 11
17.70695495605469
 21
-7.269501686096206
 31
0.0
  0
LINE
  5
17D
330
22
100
AcDbEntity
  8
2
  6
DASHED
100
AcDbLine
 10
18.5891094207764
 20
-7.362219810485797
 30
0.0
 11
18.0206356048584
 21
-4.141993522644
 31
0.0
  0
CIRCLE
  5
17E
330
22
100
AcDbEntity
  8
2
  6
Continuous
100
AcDbCircle
 10
10.0
 20
-3.755255222320599
 30
0.0
 40
2.900000095367432
  0
LINE
  5
17F
330
22
100
AcDbEntity
  8
2
  6
CENTER
100
AcDbLine
 10
6.099999904632597
 20
-3.755255222320599
 30
0.0
 11
13.8999996185303
 21
-3.755255222320599
 31
0.0
  0
LINE
  5
180
330
22
100
AcDbEntity
  8
2
  6
CENTER
100
AcDbLine
 10
10.0
 20
-7.655255317688003
 30
0.0
 11
10.0
 21
0.1447448879479936
 31
0.0
  0
LINE
  5
181
330
22
100
AcDbEntity
  8
2
  6
Continuous
100
AcDbLine
 10
10.30000019073489
 20
-1.955255270004287
 30
0.0
 11
9.699999809265108
 21
-1.955255270004287
 31
0.0
  0
LINE
  5
182
330
22
100
AcDbEntity
  8
2
  6
Continuous
100
AcDbLine
 10
9.699999809265108
 20
-5.555255413055406
 30
0.0
 11
10.30000019073489
 21
-5.555255413055406
 31
0.0
  0
LINE
  5
183
330
22
100
AcDbEntity
  8
2
  6
Continuous
100
AcDbLine
 10
10.30000019073489
 20
-5.555255413055406
 30
0.0
 11
10.30000019073489
 21
-4.2748703956604
 31
0.0
  0
LINE
  5
184
330
22
100
AcDbEntity
  8
2
  6
Continuous
100
AcDbLine
 10
10.30000019073489
 20
-3.235640048980699
 30
0.0
 11
10.30000019073489
 21
-1.955255270004287
 31
0.0
  0
LINE
  5
185
330
22
100
AcDbEntity
  8
2
  6
Continuous
100
AcDbLine
 10
9.699999809265108
 20
-1.955255270004287
 30
0.0
 11
9.699999809265108
 21
-3.235640048980699
 31
0.0
  0
LINE
  5
186
330
22
100
AcDbEntity
  8
2
  6
Continuous
100
AcDbLine
 10
9.699999809265108
 20
-4.2748703956604
 30
0.0
 11
9.699999809265108
 21
-5.555255413055406
 31
0.0
  0
LINE
  5
187
330
22
100
AcDbEntity
  8
2
  6
Continuous
100
AcDbLine
 10
8.591154098510714
 20
-4.91506290435791
 30
0.0
 11
9.699999809265108
 21
-4.2748703956604
 31
0.0
  0
LINE
  5
188
330
22
100
AcDbEntity
  8
2
  6
Continuous
100
AcDbLine
 10
10.6000003814697
 20
-3.755255222320599
 30
0.0
 11
11.70884609222409
 21
-3.115062713623004
 31
0.0
  0
LINE
  5
189
330
22
100
AcDbEntity
  8
2
  6
Continuous
100
AcDbLine
 10
8.291153907775907
 20
-4.395447731018081
 30
0.0
 11
8.591154098510714
 21
-4.91506290435791
 31
0.0
  0
LINE
  5
18A
330
22
100
AcDbEntity
  8
2
  6
Continuous
100
AcDbLine
 10
11.70884609222409
 20
-3.115062713623004
 30
0.0
 11
11.40884590148929
 21
-2.595447540283203
 31
0.0
  0
LINE
  5
18B
330
22
100
AcDbEntity
  8
2
  6
Continuous
100
AcDbLine
 10
11.40884590148929
 20
-2.595447540283203
 30
0.0
 11
10.30000019073489
 21
-3.235640048980699
 31
0.0
  0
LINE
  5
18C
330
22
100
AcDbEntity
  8
2
  6
Continuous
100
AcDbLine
 10
9.399999618530302
 20
-3.755255222320599
 30
0.0
 11
8.291153907775907
 21
-4.395447731018081
 31
0.0
  0
LINE
  5
18D
330
22
100
AcDbEntity
  8
2
  6
Continuous
100
AcDbLine
 10
11.70884609222409
 20
-4.395447731018081
 30
0.0
 11
10.6000003814697
 21
-3.755255222320599
 31
0.0
  0
LINE
  5
18E
330
22
100
AcDbEntity
  8
2
  6
Continuous
100
AcDbLine
 10
9.699999809265108
 20
-3.235640048980699
 30
0.0
 11
8.591154098510714
 21
-2.595447540283203
 31
0.0
  0
LINE
  5
18F
330
22
100
AcDbEntity
  8
2
  6
Continuous
100
AcDbLine
 10
11.40884590148929
 20
-4.91506290435791
 30
0.0
 11
11.70884609222409
 21
-4.395447731018081
 31
0.0
  0
LINE
  5
190
330
22
100
AcDbEntity
  8
2
  6
Continuous
100
AcDbLine
 10
8.591154098510714
 20
-2.595447540283203
 30
0.0
 11
8.291153907775907
 21
-3.115062713623004
 31
0.0
  0
LINE
  5
191
330
22
100
AcDbEntity
  8
2
  6
Continuous
100
AcDbLine
 10
8.291153907775907
 20
-3.115062713623004
 30
0.0
 11
9.399999618530302
 21
-3.755255222320599
 31
0.0
  0
LINE
  5
192
330
22
100
AcDbEntity
  8
2
  6
Continuous
100
AcDbLine
 10
10.30000019073489
 20
-4.2748703956604
 30
0.0
 11
11.40884590148929
 21
-4.91506290435791
 31
0.0
  0
LINE
  5
193
330
22
100
AcDbEntity
  8
2
  6
Continuous
100
AcDbLine
 10
0.0
 20
0.0
 30
0.0
 11
0.2616676688193991
 21
-1.48399114608759
 31
0.0
  0
LINE
  5
194
330
22
100
AcDbEntity
  8
2
  6
Continuous
100
AcDbLine
 10
20.0
 20
-7.510510444641099
 30
0.0
 11
19.75856399536133
 21
-6.141250610351605
 31
0.0
  0
LINE
  5
195
330
22
100
AcDbEntity
  8
2
  6
Continuous
100
AcDbLine
 10
17.66303062438968
 20
-3.730617046356201
 30
0.0
 11
16.09063339233398
 21
-1.990944862365708
 31
0.0
  0
LINE
  5
196
330
22
100
AcDbEntity
  8
2
  6
Continuous
100
AcDbLine
 10
0.2616676688193991
 20
-1.48399114608759
 30
0.0
 11
3.909390926361084
 21
-5.519709587097211
 31
0.0
  0
LINE
  5
199
330
22
100
AcDbEntity
  8
2
  6
Continuous
100
AcDbLine
 10
18.0
 20
-4.118255045905912
 30
0.0
 11
18.0
 21
0.0
 31
0.0
  0
LINE
  5
1B4
330
22
100
AcDbEntity
  8
20
  6
Continuous
100
AcDbLine
 10
5.5
 20
50.00000002404599
 30
0.0
 11
5.5
 21
59.30030155181893
 31
0.0
  0
LINE
  5
1B5
330
22
100
AcDbEntity
  8
20
  6
Continuous
100
AcDbLine
 10
12.0
 20
55.5
 30
0.0
 11
11.9999980926514
 21
59.30030155181893
 31
0.0
  0
LINE
  5
1B6
330
22
100
AcDbEntity
  8
20
  6
Continuous
100
AcDbLine
 10
8.0
 20
59.30030155181893
 30
0.0
 11
7.999999046325684
 21
55.5
 31
0.0
  0
LINE
  5
1B7
330
22
100
AcDbEntity
  8
20
  6
Continuous
100
AcDbLine
 10
11.5
 20
55.5
 30
0.0
 11
11.5
 21
59.5
 31
0.0
  0
LINE
  5
1B8
330
22
100
AcDbEntity
  8
20
  6
Continuous
100
AcDbLine
 10
8.5
 20
59.5
 30
0.0
 11
8.5
 21
55.5
 31
0.0
  0
LINE
  5
1B9
330
22
100
AcDbEntity
  8
20
  6
Continuous
100
AcDbLine
 10
11.49999904632568
 20
55.50000047683719
 30
0.0
 11
11.49999904632568
 21
52.21340107917789
 31
0.0
  0
LINE
  5
1BA
330
22
100
AcDbEntity
  8
20
  6
Continuous
100
AcDbLine
 10
8.5
 20
55.5
 30
0.0
 11
8.500000953674316
 21
52.368533372879
 31
0.0
  0
LINE
  5
1BB
330
22
100
AcDbEntity
  8
20
  6
Continuous
100
AcDbLine
 10
12.0
 20
55.5
 30
0.0
 11
12.0
 21
52.37754535675049
 31
0.0
  0
LINE
  5
1BC
330
22
100
AcDbEntity
  8
20
  6
Continuous
100
AcDbLine
 10
7.999999046325684
 20
55.5
 30
0.0
 11
7.999999523162813
 21
52.58160901069641
 31
0.0
  0
LINE
  5
1BD
330
22
100
AcDbEntity
  8
20
  6
CENTER
100
AcDbLine
 10
9.999997138977079
 20
59.872594833374
 30
0.0
 11
10.0
 21
46.86339592933658
 31
0.0
  0
LINE
  5
1BE
330
22
100
AcDbEntity
  8
20
  6
Continuous
100
AcDbLine
 10
85.0
 20
58.80030155181893
 30
0.0
 11
85.0
 21
47.8003013134003
 31
0.0
  0
LINE
  5
1BF
330
22
100
AcDbEntity
  8
20
  6
Continuous
100
AcDbLine
 10
84.5
 20
59.30030155181893
 30
0.0
 11
85.0
 21
58.80030155181893
 31
0.0
  0
LINE
  5
1C0
330
22
100
AcDbEntity
  8
20
  6
Continuous
100
AcDbLine
 10
85.0
 20
47.8003013134003
 30
0.0
 11
84.5
 21
47.30030155181893
 31
0.0
  0
LINE
  5
1C1
330
22
100
AcDbEntity
  8
20
  6
Continuous
100
AcDbLine
 10
84.5
 20
47.30030155181893
 30
0.0
 11
84.5
 21
59.30030155181893
 31
0.0
  0
LINE
  5
1C2
330
22
100
AcDbEntity
  8
20
  6
Continuous
100
AcDbLine
 10
5.5
 20
59.30030155181893
 30
0.0
 11
8.5
 21
59.30030155181893
 31
0.0
  0
LINE
  5
1C3
330
22
100
AcDbEntity
  8
20
  6
Continuous
100
AcDbLine
 10
11.5
 20
59.30030155181893
 30
0.0
 11
84.5
 21
59.30030155181893
 31
0.0
  0
LINE
  5
1C4
330
22
100
AcDbEntity
  8
20
  6
Continuous
100
AcDbLine
 10
18.0
 20
47.3003013134003
 30
0.0
 11
84.5
 21
47.30030155181893
 31
0.0
  0
LINE
  5
1C6
330
22
100
AcDbEntity
  8
20
  6
Continuous
100
AcDbLine
 10
14.42005554960682
 20
47.50000008305781
 30
0.0
 11
18.0
 21
47.5000001122535
 31
0.0
  0
LINE
  5
1C8
330
22
100
AcDbEntity
  8
20
  6
Continuous
100
AcDbLine
 10
7.999999293012934
 20
55.50000004970471
 30
0.0
 11
11.99999986872521
 21
55.5000000418475
 31
0.0
  0
LINE
  5
1CA
330
22
100
AcDbEntity
  8
20
  6
Continuous
100
AcDbLine
 10
8.499997954247704
 20
59.50000004872248
 30
0.0
 11
11.4999979542477
 21
59.5000000428297
 31
0.0
  0
LINE
  5
1CB
330
22
100
AcDbEntity
  8
20
  6
Continuous
100
AcDbLine
 10
18.0
 20
47.3003013134003
 30
0.0
 11
18.0
 21
47.5000001122535
 31
0.0
  0
LINE
  5
1CC
330
22
100
AcDbEntity
  8
20
  6
Continuous
100
AcDbLine
 10
7.0
 20
50.00000003060399
 30
0.0
 11
7.0
 21
53.80973629520457
 31
0.0
  0
LINE
  5
1CE
330
22
100
AcDbEntity
  8
20
  6
Continuous
100
AcDbLine
 10
14.42005554960682
 20
47.50000008305781
 30
0.0
 11
14.78771330618699
 21
50.0
 31
0.0
  0
LINE
  5
1CF
330
22
100
AcDbEntity
  8
20
  6
CENTER
100
AcDbLine
 10
10.0
 20
50.80047816038132
 30
0.0
 11
10.0
 21
46.86339330673218
 31
0.0
  0
LINE
  5
1D0
330
22
100
AcDbEntity
  8
20
  6
Continuous
100
AcDbLine
 10
1.385640621185303
 20
50.0
 30
0.0
 11
14.78771305084231
 21
50.0
 31
0.0
  0
LINE
  5
1D1
330
22
100
AcDbEntity
  8
20
  6
Continuous
100
AcDbLine
 10
2.944486379623413
 20
47.5
 30
0.0
 11
14.4200553894043
 21
47.5
 31
0.0
  0
LINE
  5
1D2
330
22
100
AcDbEntity
  8
20
  6
Continuous
100
AcDbLine
 10
14.47604560852051
 20
49.5
 30
0.0
 11
3.814538002014189
 21
49.5
 31
0.0
  0
LINE
  5
1D3
330
22
100
AcDbEntity
  8
20
  6
Continuous
100
AcDbLine
 10
0.0
 20
49.1999999880791
 30
0.0
 11
1.385640621185303
 21
50.0
 31
0.0
  0
LINE
  5
1D4
330
22
100
AcDbEntity
  8
20
  6
Continuous
100
AcDbLine
 10
0.0
 20
49.1999999880791
 30
0.0
 11
2.944486379623413
 21
47.5
 31
0.0
  0
LINE
  5
1D5
330
22
100
AcDbEntity
  8
20
  6
Continuous
100
AcDbLine
 10
3.814538002014189
 20
50.0
 30
0.0
 11
3.814538002014189
 21
49.5
 31
0.0
  0
LINE
  5
1D6
330
22
100
AcDbEntity
  8
20
  6
Continuous
100
AcDbLine
 10
3.543301343917932
 20
47.5
 30
0.0
 11
3.814538002014189
 21
49.5
 31
0.0
  0
LINE
  5
1D7
330
22
100
AcDbEntity
  8
20
  6
Continuous
100
AcDbLine
 10
14.47604560852051
 20
50.0
 30
0.0
 11
14.47604560852051
 21
49.5
 31
0.0
  0
LINE
  5
1D8
330
22
100
AcDbEntity
  8
20
  6
Continuous
100
AcDbLine
 10
14.38268566131592
 20
47.5
 30
0.0
 11
14.47604560852051
 21
49.5
 31
0.0
  0
POLYLINE
  5
1DB
330
22
100
AcDbEntity
  8
20
  6
Continuous
100
AcDb2dPolyline
 66
     1
 10
0.0
 20
0.0
 30
0.0
  0
VERTEX
  5
1DC
330
1DB
100
AcDbEntity
  8
20
  6
Continuous
100
AcDbVertex
100
AcDb2dVertex
 10
5.499999999999091
 20
57.30030155181993
 30
0.0
  0
VERTEX
  5
1DD
330
1DB
100
AcDbEntity
  8
20
  6
Continuous
100
AcDbVertex
100
AcDb2dVertex
 10
6.364028598647678
 20
55.16967524958869
 30
0.0
  0
VERTEX
  5
1DE
330
1DB
100
AcDbEntity
  8
20
  6
Continuous
100
AcDbVertex
100
AcDb2dVertex
 10
7.000000000000682
 20
53.80973629520469
 30
0.0
  0
VERTEX
  5
1DF
330
1DB
100
AcDbEntity
  8
20
  6
Continuous
100
AcDbVertex
100
AcDb2dVertex
 10
7.245118362440309
 20
53.3873978698322
 30
0.0
  0
VERTEX
  5
1E0
330
1DB
100
AcDbEntity
  8
20
  6
Continuous
100
AcDbVertex
100
AcDb2dVertex
 10
7.484729150228304
 20
53.04928305063092
 30
0.0
  0
VERTEX
  5
1E1
330
1DB
100
AcDbEntity
  8
20
  6
Continuous
100
AcDbVertex
100
AcDb2dVertex
 10
7.716491205517002
 20
52.79701573724941
 30
0.0
  0
VERTEX
  5
1E2
330
1DB
100
AcDbEntity
  8
20
  6
Continuous
100
AcDbVertex
100
AcDb2dVertex
 10
7.962296167429514
 20
52.60698578051841
 30
0.0
  0
VERTEX
  5
1E3
330
1DB
100
AcDbEntity
  8
20
  6
Continuous
100
AcDbVertex
100
AcDb2dVertex
 10
7.999999523162416
 20
52.5816090141991
 30
0.0
  0
VERTEX
  5
1E4
330
1DB
100
AcDbEntity
  8
20
  6
Continuous
100
AcDbVertex
100
AcDb2dVertex
 10
8.082146032764314
 20
52.52074880954919
 30
0.0
  0
VERTEX
  5
1E5
330
1DB
100
AcDbEntity
  8
20
  6
Continuous
100
AcDbVertex
100
AcDb2dVertex
 10
8.239492232436987
 20
52.4275347844445
 30
0.0
  0
VERTEX
  5
1E6
330
1DB
100
AcDbEntity
  8
20
  6
Continuous
100
AcDbVertex
100
AcDb2dVertex
 10
8.500000953674572
 20
52.3685333568105
 30
0.0
  0
VERTEX
  5
1E7
330
1DB
100
AcDbEntity
  8
20
  6
Continuous
100
AcDbVertex
100
AcDb2dVertex
 10
9.573926130942908
 20
52.24644637688641
 30
0.0
  0
VERTEX
  5
1E8
330
1DB
100
AcDbEntity
  8
20
  6
Continuous
100
AcDbVertex
100
AcDb2dVertex
 10
9.802335739135714
 20
52.22345614433291
 30
0.0
  0
VERTEX
  5
1E9
330
1DB
100
AcDbEntity
  8
20
  6
Continuous
100
AcDbVertex
100
AcDb2dVertex
 10
9.872393684775005
 20
52.21554772736661
 30
0.0
  0
VERTEX
  5
1EA
330
1DB
100
AcDbEntity
  8
20
  6
Continuous
100
AcDbVertex
100
AcDb2dVertex
 10
9.908724602348173
 20
52.2106060871412
 30
0.0
  0
VERTEX
  5
1EB
330
1DB
100
AcDbEntity
  8
20
  6
Continuous
100
AcDbVertex
100
AcDb2dVertex
 10
9.921713425899924
 20
52.20797710100169
 30
0.0
  0
VERTEX
  5
1EC
330
1DB
100
AcDbEntity
  8
20
  6
Continuous
100
AcDbVertex
100
AcDb2dVertex
 10
9.921745089474911
 20
52.20700664629291
 30
0.0
  0
VERTEX
  5
1ED
330
1DB
100
AcDbEntity
  8
20
  6
Continuous
100
AcDbVertex
100
AcDb2dVertex
 10
9.919204527117699
 20
52.2070406003601
 30
0.0
  0
VERTEX
  5
1EE
330
1DB
100
AcDbEntity
  8
20
  6
Continuous
100
AcDbVertex
100
AcDb2dVertex
 10
9.924476672873084
 20
52.20742484054799
 30
0.0
  0
VERTEX
  5
1EF
330
1DB
100
AcDbEntity
  8
20
  6
Continuous
100
AcDbVertex
100
AcDb2dVertex
 10
9.947946460785687
 20
52.20750524420171
 30
0.0
  0
VERTEX
  5
1F0
330
1DB
100
AcDbEntity
  8
20
  6
Continuous
100
AcDbVertex
100
AcDb2dVertex
 10
9.999998824900104
 20
52.20662768866632
 30
0.0
  0
VERTEX
  5
1F1
330
1DB
100
AcDbEntity
  8
20
  6
Continuous
100
AcDbVertex
100
AcDb2dVertex
 10
10.08800433799661
 20
52.20426874203412
 30
0.0
  0
VERTEX
  5
1F2
330
1DB
100
AcDbEntity
  8
20
  6
Continuous
100
AcDbVertex
100
AcDb2dVertex
 10
10.207276127797
 20
52.2004277353864
 30
0.0
  0
VERTEX
  5
1F3
330
1DB
100
AcDbEntity
  8
20
  6
Continuous
100
AcDbVertex
100
AcDb2dVertex
 10
10.35011296075882
 20
52.19523469055233
 30
0.0
  0
VERTEX
  5
1F4
330
1DB
100
AcDbEntity
  8
20
  6
Continuous
100
AcDbVertex
100
AcDb2dVertex
 10
10.50881360333943
 20
52.1888196293605
 30
0.0
  0
VERTEX
  5
1F5
330
1DB
100
AcDbEntity
  8
20
  6
Continuous
100
AcDbVertex
100
AcDb2dVertex
 10
10.67567682199632
 20
52.18131257363984
 30
0.0
  0
VERTEX
  5
1F6
330
1DB
100
AcDbEntity
  8
20
  6
Continuous
100
AcDbVertex
100
AcDb2dVertex
 10
10.8430013831869
 20
52.172843545219
 30
0.0
  0
VERTEX
  5
1F7
330
1DB
100
AcDbEntity
  8
20
  6
Continuous
100
AcDbVertex
100
AcDb2dVertex
 10
11.00308605336869
 20
52.16354256592709
 30
0.0
  0
VERTEX
  5
1F8
330
1DB
100
AcDbEntity
  8
20
  6
Continuous
100
AcDbVertex
100
AcDb2dVertex
 10
11.14822959899891
 20
52.1535396575928
 30
0.0
  0
VERTEX
  5
1F9
330
1DB
100
AcDbEntity
  8
20
  6
Continuous
100
AcDbVertex
100
AcDb2dVertex
 10
11.22102725121201
 20
52.14774528765992
 30
0.0
  0
VERTEX
  5
1FA
330
1DB
100
AcDbEntity
  8
20
  6
Continuous
100
AcDbVertex
100
AcDb2dVertex
 10
11.62391860203911
 20
52.16167712024861
 30
0.0
  0
VERTEX
  5
1FB
330
1DB
100
AcDbEntity
  8
20
  6
Continuous
100
AcDbVertex
100
AcDb2dVertex
 10
12.0
 20
52.3775454245089
 30
0.0
  0
VERTEX
  5
1FC
330
1DB
100
AcDbEntity
  8
20
  6
Continuous
100
AcDbVertex
100
AcDb2dVertex
 10
12.58299362708951
 20
52.87999782886291
 30
0.0
  0
VERTEX
  5
1FD
330
1DB
100
AcDbEntity
  8
20
  6
Continuous
100
AcDbVertex
100
AcDb2dVertex
 10
13.43799781799308
 20
53.700443983078
 30
0.0
  0
VERTEX
  5
1FE
330
1DB
100
AcDbEntity
  8
20
  6
Continuous
100
AcDbVertex
100
AcDb2dVertex
 10
14.00158269104358
 20
54.31764115696942
 30
0.0
  0
VERTEX
  5
1FF
330
1DB
100
AcDbEntity
  8
20
  6
Continuous
100
AcDbVertex
100
AcDb2dVertex
 10
14.15727408569191
 20
54.5711169906823
 30
0.0
  0
VERTEX
  5
200
330
1DB
100
AcDbEntity
  8
20
  6
Continuous
100
AcDbVertex
100
AcDb2dVertex
 10
14.2682580947876
 20
54.84532833099368
 30
0.0
  0
VERTEX
  5
201
330
1DB
100
AcDbEntity
  8
20
  6
Continuous
100
AcDbVertex
100
AcDb2dVertex
 10
14.4452096921305
 20
55.7631043064323
 30
0.0
  0
VERTEX
  5
202
330
1DB
100
AcDbEntity
  8
20
  6
Continuous
100
AcDbVertex
100
AcDb2dVertex
 10
14.61784076690671
 20
56.78551387786868
 30
0.0
  0
VERTEX
  5
203
330
1DB
100
AcDbEntity
  8
20
  6
Continuous
100
AcDbVertex
100
AcDb2dVertex
 10
14.87404894052781
 20
57.8645658806638
 30
0.0
  0
VERTEX
  5
204
330
1DB
100
AcDbEntity
  8
20
  6
Continuous
100
AcDbVertex
100
AcDb2dVertex
 10
15.27625751495359
 20
59.30030155181893
 30
0.0
  0
SEQEND
  5
205
330
1DB
100
AcDbEntity
  8
20
  0
INSERT
  5
206
330
22
100
AcDbEntity
  8
20
  6
Continuous
100
AcDbBlockReference
  2
HACH1
 10
0.0
 20
50.0
 30
0.0
  0
LINE
  5
389
330
22
100
AcDbEntity
  8
0
100
AcDbLine
 10
85.0
 20
-12.0
 30
0.0
 11
85.0
 21
0.0
 31
0.0
  0
LINE
  5
38B
330
22
100
AcDbEntity
  8
0
100
AcDbLine
 10
84.5
 20
-12.0
 30
0.0
 11
84.5
 21
0.0
 31
0.0
  0
DIMENSION
  5
39D
330
22
100
AcDbEntity
  8
AM_5
100
AcDbDimension
  2
*D3
 10
6.999999999999999
 20
41.20923193595263
 30
0.0
 11
3.499999999999999
 21
43.79923193595263
 31
0.0
 70
    32
 71
     5
 42
7.0
  3
Standard$0
100
AcDbAlignedDimension
 13
0.0
 23
49.1999999880791
 33
0.0
 14
7.0
 24
50.0
 34
0.0
100
AcDbRotatedDimension
1001
ACAD
1000
DSTYLE
1002
{
1070
    41
1040
3.0
1070
    42
1040
1.0
1070
    43
1040
5.0
1070
    44
1040
2.0
1070
    46
1040
3.0
1070
    73
1070
     0
1070
    74
1070
     0
1070
    77
1070
     1
1070
    78
1070
     8
1070
   140
1040
5.0
1070
   141
1040
2.0
1070
   145
1040
1.0
1070
   171
1070
     4
1070
   172
1070
     1
1002
}
  0
DIMENSION
  5
3C5
330
22
100
AcDbEntity
  8
AM_5
100
AcDbDimension
  2
*D4
 10
85.0
 20
29.03012246631738
 30
0.0
 11
42.5
 21
31.62012246631738
 31
0.0
 70
    32
 71
     5
 42
85.0
  3
Standard$0
100
AcDbAlignedDimension
 13
0.0
 23
49.1999999880791
 33
0.0
 14
85.0
 24
49.50054752016715
 34
0.0
100
AcDbRotatedDimension
1001
ACAD
1000
DSTYLE
1002
{
1070
    41
1040
3.0
1070
    42
1040
1.0
1070
    43
1040
5.0
1070
    44
1040
2.0
1070
    46
1040
3.0
1070
    73
1070
     0
1070
    74
1070
     0
1070
    77
1070
     1
1070
    78
1070
     8
1070
   140
1040
5.0
1070
   141
1040
2.0
1070
   145
1040
1.0
1070
   171
1070
     4
1070
   172
1070
     1
1002
}
  0
DIMENSION
  5
3EF
330
22
100
AcDbEntity
  8
AM_5
100
AcDbDimension
  2
*D5
 10
96.52483157693359
 20
47.30030154240777
 30
0.0
 11
93.93483157693358
 21
53.30030154711335
 31
0.0
 70
    32
 71
     5
 42
12.00000000941114
  3
Standard$0
100
AcDbAlignedDimension
 13
81.87502008578343
 23
59.3003015518189
 33
0.0
 14
81.87502012880634
 24
47.30030154240777
 34
0.0
 50
90.0
100
AcDbRotatedDimension
1001
ACAD
1000
DSTYLE
1002
{
1070
    41
1040
3.0
1070
    42
1040
1.0
1070
    43
1040
5.0
1070
    44
1040
2.0
1070
    46
1040
3.0
1070
    73
1070
     0
1070
    74
1070
     0
1070
    77
1070
     1
1070
    78
1070
     8
1070
   140
1040
5.0
1070
   141
1040
2.0
1070
   145
1040
1.0
1070
   171
1070
     4
1070
   172
1070
     1
1002
}
  0
DIMENSION
  5
413
330
22
100
AcDbEntity
  8
AM_5
100
AcDbDimension
  2
*D6
 10
96.60777626761478
 20
-12.00000000000001
 30
0.0
 11
94.01777626761478
 21
-5.999999999999989
 31
0.0
 70
    32
 71
     5
 42
12.0
  3
Standard$0
100
AcDbAlignedDimension
 13
80.76686506606183
 23
0.0
 33
0.0
 14
80.76686506606183
 24
-12.0
 34
0.0
 50
90.0
100
AcDbRotatedDimension
1001
ACAD
1000
DSTYLE
1002
{
1070
    41
1040
3.0
1070
    42
1040
1.0
1070
    43
1040
5.0
1070
    44
1040
2.0
1070
    46
1040
3.0
1070
    73
1070
     0
1070
    74
1070
     0
1070
    77
1070
     1
1070
    78
1070
     8
1070
   140
1040
5.0
1070
   141
1040
2.0
1070
   145
1040
1.0
1070
   171
1070
     4
1070
   172
1070
     1
1002
}
  0
DIMENSION
  5
44F
330
22
100
AcDbEntity
  8
AM_5
100
AcDbDimension
  2
*D7
 10
-10.35737894163253
 20
-12.0
 30
0.0
 11
-12.94737894163253
 21
-5.999999999999997
 31
0.0
 70
    32
 71
     5
 42
12.0
  3
Standard$0
100
AcDbAlignedDimension
 13
0.0
 23
0.0
 33
0.0
 14
9.429683565978365
 24
-12.0
 34
0.0
 50
90.0
100
AcDbRotatedDimension
1001
ACAD
1000
DSTYLE
1002
{
1070
    41
1040
3.0
1070
    42
1040
1.0
1070
    43
1040
5.0
1070
    44
1040
2.0
1070
    46
1040
3.0
1070
    73
1070
     0
1070
    74
1070
     0
1070
    77
1070
     1
1070
    78
1070
     8
1070
   140
1040
5.0
1070
   141
1040
2.0
1070
   145
1040
1.0
1070
   171
1070
     4
1070
   172
1070
     1
1002
}
  0
LINE
  5
4EC
330
22
100
AcDbEntity
  8
0
100
AcDbLine
 10
14.78771305084231
 20
-12.0
 30
0.0
 11
14.78771305084231
 21
-7.555046558380099
 31
0.0
  0
DIMENSION
  5
4FC
330
22
100
AcDbEntity
  8
AM_5
100
AcDbDimension
  2
*D8
 10
14.78771305084231
 20
-25.15889823613748
 30
0.0
 11
7.393856525421156
 21
-22.56889823613748
 31
0.0
 70
    32
 71
     5
 42
14.78771305084231
  3
Standard$0
100
AcDbAlignedDimension
 13
0.0
 23
0.0
 33
0.0
 14
14.78771305084231
 24
-12.0
 34
0.0
100
AcDbRotatedDimension
1001
ACAD
1000
DSTYLE
1002
{
1070
    41
1040
3.0
1070
    42
1040
1.0
1070
    43
1040
5.0
1070
    44
1040
2.0
1070
    46
1040
3.0
1070
    73
1070
     0
1070
    74
1070
     0
1070
    77
1070
     1
1070
    78
1070
     8
1070
   140
1040
5.0
1070
   141
1040
2.0
1070
   145
1040
1.0
1070
   171
1070
     4
1070
   172
1070
     1
1070
   271
1070
     0
1002
}
  0
TEXT
  5
533
330
22
100
AcDbEntity
  8
0
100
AcDbText
 10
6.560507829035714
 20
-55.83749683047404
 30
0.0
 40
5.0
  1
%%uSTHR1212F
100
AcDbText
  0
ENDSEC
  0
SECTION
  2
OBJECTS
  0
DICTIONARY
  5
C
330
0
100
AcDbDictionary
281
     1
  3
ACAD_COLOR
350
1B
  3
ACAD_GROUP
350
D
  3
ACAD_LAYOUT
350
19
  3
ACAD_MATERIAL
350
1A
  3
ACAD_MLINESTYLE
350
16
  3
ACAD_PLOTSETTINGS
350
18
  3
ACAD_PLOTSTYLENAME
350
E
  3
ACAD_TABLESTYLE
350
1C
  3
AcAmCatalogState
350
2DC
  3
ACDBHEADERROUNDTRIPXREC
350
5AB
  3
AcDbVariableDictionary
350
32D
  3
ACDMSYSVARMGR
350
296
  3
ACGREF_MASTER
350
290
  3
ACGREFACAD_MASTER
350
2B8
  3
AcmDictionary
350
2DA
  3
ACME_BOM_MANAGER_NAME
350
28A
  3
ACME_COMMAND_HISTORY
350
287
  3
ACME_SCOPE_NAME
350
286
  3
ACMESTATEMGR
350
28F
  3
AcmeSysVarManager
350
288
  3
AcmSystemVariableManager
350
2E5
  3
AD_APPL
350
2C7
  3
ADSYSVARMGR
350
2C6
  3
AmdtNamedDwgMgr
350
2B3
  3
AMG
350
2BC
  3
AMGSNAPSETTINGS
350
31C
  3
AMI_MASTER
350
2BB
  3
AUTOCAD_ASSEMBLIES_PROJECT
350
2CF
  3
Designer_Assemblies_SysVars
350
2CA
  3
GREFAM_MODULE
350
2C0
  0
DICTIONARY
  5
1B
102
{ACAD_REACTORS
330
C
102
}
330
C
100
AcDbDictionary
281
     1
  0
DICTIONARY
  5
D
102
{ACAD_REACTORS
330
C
102
}
330
C
100
AcDbDictionary
281
     1
  0
DICTIONARY
  5
19
102
{ACAD_REACTORS
330
C
102
}
330
C
100
AcDbDictionary
281
     1
  3
Model
350
25
  3
レイアウト1
350
21
  0
DICTIONARY
  5
1A
102
{ACAD_REACTORS
330
C
102
}
330
C
100
AcDbDictionary
281
     1
  0
DICTIONARY
  5
16
102
{ACAD_REACTORS
330
C
102
}
330
C
100
AcDbDictionary
281
     1
  3
Standard
350
17
  0
DICTIONARY
  5
18
102
{ACAD_REACTORS
330
C
102
}
330
C
100
AcDbDictionary
281
     1
  0
ACDBDICTIONARYWDFLT
  5
E
102
{ACAD_REACTORS
330
C
102
}
330
C
100
AcDbDictionary
281
     1
  3
Normal
350
F
100
AcDbDictionaryWithDefault
340
F
  0
DICTIONARY
  5
1C
102
{ACAD_REACTORS
330
C
102
}
330
C
100
AcDbDictionary
281
     1
  3
Standard
350
1D
  0
ACAD_PROXY_OBJECT
  5
2DC
102
{ACAD_REACTORS
330
C
102
}
330
C
100
AcDbProxyObject
 90
      499
 91
      545
 95
       25
 70
     0
 93
      504
310
3FFFFFFFE00A0281402992E2E21BA3239AE483ECB654563CBCEAE4AABC7C0483ECB652E487CC6F6CBB846A445F7AE41BDC1B341A12E272A25C83ECB65400AA
  0
DICTIONARY
  5
5AB
102
{ACAD_REACTORS
330
C
102
}
330
C
100
AcDbDictionary
281
     1
  3
COLORDICT
350
5AC
  3
MATERIALDICT
350
5AD
  0
DICTIONARY
  5
32D
102
{ACAD_REACTORS
330
C
102
}
330
C
100
AcDbDictionary
281
     1
  3
CTABLESTYLE
350
32E
  3
DIMASSOC
350
5A9
  3
HIDETEXT
350
5AA
  0
ACAD_PROXY_OBJECT
  5
296
102
{ACAD_REACTORS
330
C
102
}
330
C
100
AcDbProxyObject
 90
      499
 91
      505
 95
       25
 70
     0
 93
      240
310
4C51A47A0000000000000000000000000000000000000000000000000000
330
297
330
298
330
299
330
29A
330
29B
330
29C
330
29D
330
29E
330
29F
330
2A0
330
2A1
330
2A2
330
2A3
330
2A4
330
2A5
330
2A6
330
2A7
330
2A8
330
2A9
330
2AA
330
2AB
330
2AC
330
2AD
330
2AE
330
2AF
330
2B0
 94
        0
  0
ACAD_PROXY_OBJECT
  5
290
102
{ACAD_REACTORS
330
C
102
}
330
C
100
AcDbProxyObject
 90
      499
 91
      513
 95
       25
 70
     0
 93
       34
310
0400004280
  0
ACAD_PROXY_OBJECT
  5
2B8
102
{ACAD_REACTORS
330
C
102
}
330
C
100
AcDbProxyObject
 90
      499
 91
      522
 95
       25
 70
     0
 93
      114
310
04000041C080000000000000000000
  0
DICTIONARY
  5
2DA
102
{ACAD_REACTORS
330
C
102
}
330
C
100
AcDbDictionary
281
     1
  3
AcmBOMDATA
350
2DB
  3
AcmStdDictionary
350
2E7
  3
AMDTSECTSYM_ARROWCOLOR
350
307
  0
ACAD_PROXY_OBJECT
  5
28A
102
{ACAD_REACTORS
330
C
102
}
330
C
100
AcDbProxyObject
 90
      499
 91
      507
 95
       25
 70
     0
 93
       50
310
00010040400000
330
0
330
0
330
28B
 94
        0
  0
ACAD_PROXY_OBJECT
  5
287
102
{ACAD_REACTORS
330
C
102
}
330
C
100
AcDbProxyObject
 90
      499
 91
      504
 95
       25
 70
     0
 93
     4630
310
4780504554E444F404052D4D5347202D205050413A2020206465736B746F702E6172782046696C6556657273696F6E3A20392E322E302E34014115539113E014156131253916014151549054D16014115539113E014156131253916014115539113E014156131253916014115539113D01014B5354D1C80B481414104E8808
310
0819195CDADD1BDC0B985C9E08119A5B1955995C9CDA5BDB8E880E4B8C8B8C0B8D0050545524153458050C475249505F53545245544348805044C494E458050545524153458050A414D504F57455244494D80504554E444F80506494E534552548050653454C454354404052D4D5347202D205050413A2020206465736B746
310
F702E6172782046696C6556657273696F6E3A20392E322E302E340141911111511255201415454D05591501014B5354D1C80B481414104E88080819195CDADD1BDC0B985C9E08119A5B1955995C9CDA5BDB8E880E4B8C8B8C0B8D0050E414D4454524553455444424D4F4440805084E202D20554E444F014213880B4815539
310
113C0504554E444F80504554E444F805055055524745805055153415645404052D4D5347202D205050413A2020206465736B746F702E6172782046696C6556657273696F6E3A20392E322E302E34014390535115149154D15511109353D1102014213880B4815539113C05084E202D20554E444F014115539113E014115539
310
113E01411353D591601411693D3D3601415454D05591501014B5354D1C80B481414104E88080819195CDADD1BDC0B985C9E08119A5B1955995C9CDA5BDB8E880E4B8C8B8C0B8D0
  0
ACAD_PROXY_OBJECT
  5
286
102
{ACAD_REACTORS
330
C
102
}
330
C
100
AcDbProxyObject
 90
      499
 91
      503
 95
       25
 70
     0
 93
      546
310
090000464080000000000000000012F4CE0000000000000000000000000000000000000000000000000000000000000000000000000000000000000000000000AAA406AA80
360
289
360
28B
360
291
360
292
360
293
360
294
360
297
360
298
360
299
360
29A
360
29B
360
29C
360
29D
360
29E
360
29F
360
2A0
360
2A1
360
2A2
360
2A3
360
2A4
360
2A5
360
2A6
360
2A7
360
2A8
360
2A9
360
2AA
360
2AB
360
2AC
360
2AD
360
2AE
360
2AF
360
2B0
360
2C2
360
2C3
360
2C4
360
2C5
360
2CB
360
2CC
360
2CD
360
2CE
360
2D3
360
2D4
360
2D5
360
2D6
360
2D7
360
2D8
360
2E6
 94
        0
  0
ACAD_PROXY_OBJECT
  5
28F
102
{ACAD_REACTORS
330
C
102
}
330
C
100
AcDbProxyObject
 90
      499
 91
      512
 95
       25
 70
     0
 93
       50
310
09000042641280
  0
ACAD_PROXY_OBJECT
  5
288
102
{ACAD_REACTORS
330
C
102
}
330
C
100
AcDbProxyObject
 90
      499
 91
      505
 95
       25
 70
     0
 93
       32
310
90140A00
330
289
 94
        0
  0
ACAD_PROXY_OBJECT
  5
2E5
102
{ACAD_REACTORS
330
C
102
}
330
C
100
AcDbProxyObject
 90
      499
 91
      505
 95
       25
 70
     0
 93
       32
310
90140A00
330
2E6
 94
        0
  0
ACAD_PROXY_OBJECT
  5
2C7
102
{ACAD_REACTORS
330
C
102
}
330
C
100
AcDbProxyObject
 90
      499
 91
      533
 95
       25
 70
     0
 93
       42
310
000900004040
330
2C2
 94
        0
  0
ACAD_PROXY_OBJECT
  5
2C6
102
{ACAD_REACTORS
330
C
102
}
330
C
100
AcDbProxyObject
 90
      499
 91
      505
 95
       25
 70
     0
 93
        8
310
AA
  0
ACAD_PROXY_OBJECT
  5
2B3
102
{ACAD_REACTORS
330
C
102
}
330
C
100
AcDbProxyObject
 90
      499
 91
      519
 95
       25
 70
     0
 93
       42
310
000100005E80
330
291
 94
        0
  0
DICTIONARY
  5
2BC
102
{ACAD_REACTORS
330
C
102
}
330
C
100
AcDbDictionary
281
     1
  3
AcMgSettings
350
2BD
  3
AMGLAYCFG
350
2E9
  0
DICTIONARY
  5
31C
102
{ACAD_REACTORS
330
C
102
}
330
C
100
AcDbDictionary
281
     1
  3
DIMENSION
350
321
  3
FEA
350
320
  3
HATCH (1)
350
31D
  3
HATCH (2)
350
31E
  3
SIMPLE WELD
350
322
  3
SYMBOLS
350
31F
  0
ACAD_PROXY_OBJECT
  5
2BB
102
{ACAD_REACTORS
330
C
102
}
330
C
100
AcDbProxyObject
 90
      499
 91
      525
 95
       25
 70
     0
 93
       34
310
0500004280
  0
ACAD_PROXY_OBJECT
  5
2CF
102
{ACAD_REACTORS
330
C
102
}
330
C
100
AcDbProxyObject
 90
      499
 91
      537
 95
       25
 70
     0
 93
       98
310
0900004E400000000000000000
330
2D6
330
0
330
2D7
330
0
330
0
330
0
330
0
330
0
 94
        0
  0
ACAD_PROXY_OBJECT
  5
2CA
102
{ACAD_REACTORS
330
C
102
}
330
C
100
AcDbProxyObject
 90
      499
 91
      505
 95
       25
 70
     0
 93
       56
310
90441600000000
330
2CB
330
2CC
330
2CD
330
2CE
 94
        0
  0
ACAD_PROXY_OBJECT
  5
2C0
102
{ACAD_REACTORS
330
C
102
}
330
C
100
AcDbProxyObject
 90
      499
 91
      527
 95
       25
 70
     0
 93
        8
310
05
  0
LAYOUT
  5
25
102
{ACAD_REACTORS
330
19
102
}
330
19
100
AcDbPlotSettings
  1

  2
Canon LBP-1420
  4
A4
  6

 40
5.873749732971191
 41
5.873747825622559
 42
5.873748779296875
 43
5.873748779296875
 44
209.9733276367188
 45
296.9259948730469
 46
0.0
 47
0.0
 48
0.0
 49
0.0
140
400.0
141
273.0
142
1.0
143
1.402630290955233
 70
 11952
 72
     1
 73
     1
 74
     4
  7
sei_cad.ctb
 75
     0
147
0.7129462456703186
148
0.0
149
0.0
100
AcDbLayout
  1
Model
 70
     1
 71
     0
 10
0.0
 20
0.0
 11
12.0
 21
9.0
 12
0.0
 22
0.0
 32
0.0
 14
0.0
 24
0.0
 34
0.0
 15
0.0
 25
0.0
 35
0.0
146
0.0
 13
0.0
 23
0.0
 33
0.0
 16
1.0
 26
0.0
 36
0.0
 17
0.0
 27
1.0
 37
0.0
 76
     0
330
22
1001
ACAD_PSEXT
1000
Canon LBP-1420
1000
Canon LASER SHOT LBP-1420
1000
10.254.89.243:lp
1000

1070
     0
  0
LAYOUT
  5
21
102
{ACAD_REACTORS
330
19
102
}
330
19
100
AcDbPlotSettings
  1

  2
Canon LBP-1420
  4

  6

 40
0.0
 41
0.0
 42
0.0
 43
0.0
 44
0.0
 45
0.0
 46
0.0
 47
0.0
 48
0.0
 49
0.0
140
0.0
141
0.0
142
1.0
143
1.0
 70
   688
 72
     0
 73
     0
 74
     5
  7
sei_cad.ctb
 75
    16
147
1.0
148
0.0
149
0.0
100
AcDbLayout
  1
レイアウト1
 70
     1
 71
     1
 10
0.0
 20
0.0
 11
12.0
 21
9.0
 12
0.0
 22
0.0
 32
0.0
 14
1.000000000000000E+20
 24
1.000000000000000E+20
 34
1.000000000000000E+20
 15
-1.000000000000000E+20
 25
-1.000000000000000E+20
 35
-1.000000000000000E+20
146
0.0
 13
0.0
 23
0.0
 33
0.0
 16
1.0
 26
0.0
 36
0.0
 17
0.0
 27
1.0
 37
0.0
 76
     0
330
1E
  0
MLINESTYLE
  5
17
102
{ACAD_REACTORS
330
16
102
}
330
16
100
AcDbMlineStyle
  2
STANDARD
 70
     0
  3

 62
   256
 51
90.0
 52
90.0
 71
     2
 49
0.5
 62
   256
  6
BYLAYER
 49
-0.5
 62
   256
  6
BYLAYER
  0
ACDBPLACEHOLDER
  5
F
102
{ACAD_REACTORS
330
E
102
}
330
E
  0
TABLESTYLE
  5
1D
102
{ACAD_REACTORS
330
1C
102
}
330
1C
100
AcDbTableStyle
  3
Standard
 70
     0
 71
     0
 40
0.06
 41
0.06
280
     0
281
     0
  7
STANDARD
140
0.18
170
     2
 62
     0
 63
     7
283
     0
274
    -2
284
     1
 64
     0
275
    -2
285
     1
 65
     0
276
    -2
286
     1
 66
     0
277
    -2
287
     1
 67
     0
278
    -2
288
     1
 68
     0
279
    -2
289
     1
 69
     0
  7
STANDARD
140
0.25
170
     5
 62
     0
 63
     7
283
     0
274
    -2
284
     1
 64
     0
275
    -2
285
     1
 65
     0
276
    -2
286
     1
 66
     0
277
    -2
287
     1
 67
     0
278
    -2
288
     1
 68
     0
279
    -2
289
     1
 69
     0
  7
STANDARD
140
0.18
170
     5
 62
     0
 63
     7
283
     0
274
    -2
284
     1
 64
     0
275
    -2
285
     1
 65
     0
276
    -2
286
     1
 66
     0
277
    -2
287
     1
 67
     0
278
    -2
288
     1
 68
     0
279
    -2
289
     1
 69
     0
  0
XRECORD
  5
5AC
102
{ACAD_REACTORS
330
5AB
102
}
330
5AB
100
AcDbXrecord
280
     1
340
1B
  0
XRECORD
  5
5AD
102
{ACAD_REACTORS
330
5AB
102
}
330
5AB
100
AcDbXrecord
280
     1
340
1A
  0
DICTIONARYVAR
  5
32E
102
{ACAD_REACTORS
330
32D
102
}
330
32D
100
DictionaryVariables
280
     0
  1
STANDARD
  0
DICTIONARYVAR
  5
5A9
102
{ACAD_REACTORS
330
32D
102
}
330
32D
100
DictionaryVariables
280
     0
  1
1
  0
DICTIONARYVAR
  5
5AA
102
{ACAD_REACTORS
330
32D
102
}
330
32D
100
DictionaryVariables
280
     0
  1
0
  0
ACAD_PROXY_OBJECT
  5
2DB
102
{ACAD_REACTORS
330
2DA
102
}
330
2DA
100
AcDbProxyObject
 90
      499
 91
      544
 95
       25
 70
     0
 93
       76
310
90100057356C1D7740A0
  0
DICTIONARY
  5
2E7
102
{ACAD_REACTORS
330
2DA
102
}
330
2DA
100
AcDbDictionary
281
     1
  3
ANSI
350
2E8
  0
XRECORD
  5
307
102
{ACAD_REACTORS
330
2DA
102
}
330
2DA
100
AcDbXrecord
280
     1
 90
-1023410169
  0
ACAD_PROXY_OBJECT
  5
289
330
286
100
AcDbProxyObject
 90
      499
 91
      506
 95
       25
 70
     0
 93
      156
310
000101439050D35154D6535093D314D256915080
330
286
 94
        0
  0
ACAD_PROXY_OBJECT
  5
28B
330
286
100
AcDbProxyObject
 90
      499
 91
      508
 95
       25
 70
     0
 93
      120
310
000101422565255A6557080C402B00
330
286
330
0
330
0
 94
        0
  0
ACAD_PROXY_OBJECT
  5
291
330
286
100
AcDbProxyObject
 90
      499
 91
      514
 95
       25
 70
     0
 93
      366
310
0001014124FEA55D00507392E322E302E32014124FEA55D00507392E322E302E3240501000041905394D24CCC658
330
286
330
292
330
296
 94
        0
  0
ACAD_PROXY_OBJECT
  5
292
330
286
100
AcDbProxyObject
 90
      499
 91
      515
 95
       25
 70
     0
 93
       48
310
000190140A00
330
286
330
293
 94
        0
  0
ACAD_PROXY_OBJECT
  5
293
330
286
100
AcDbProxyObject
 90
      499
 91
      516
 95
       25
 70
     0
 93
       48
310
0001AA000000
330
286
330
21
330
294
330
0
 94
        0
  0
ACAD_PROXY_OBJECT
  5
294
330
286
100
AcDbProxyObject
 90
      499
 91
      517
 95
       25
 70
     0
 93
       28
310
0001AAA0
330
286
 94
        0
  0
ACAD_PROXY_OBJECT
  5
297
330
286
100
AcDbProxyObject
 90
      499
 91
      506
 95
       25
 70
     0
 93
      108
310
000101421053521310D05310D010
330
286
 94
        0
  0
ACAD_PROXY_OBJECT
  5
298
330
286
100
AcDbProxyObject
 90
      499
 91
      506
 95
       25
 70
     0
 93
      124
310
00010142905354915554D15112535010
330
286
 94
        0
  0
ACAD_PROXY_OBJECT
  5
299
330
286
100
AcDbProxyObject
 90
      499
 91
      506
 95
       25
 70
     0
 93
      132
310
00010143105354D150D51253D391125360
330
286
 94
        0
  0
ACAD_PROXY_OBJECT
  5
29A
330
286
100
AcDbProxyObject
 90
      499
 91
      506
 95
       25
 70
     0
 93
      124
310
00010142905355941093D49111549010
330
286
 94
        0
  0
ACAD_PROXY_OBJECT
  5
29B
330
286
100
AcDbProxyObject
 90
      499
 91
      506
 95
       25
 70
     0
 93
      116
310
0001014290535115D1D0D3D313D4A0
330
286
 94
        0
  0
ACAD_PROXY_OBJECT
  5
29C
330
286
100
AcDbProxyObject
 90
      499
 91
      506
 95
       25
 70
     0
 93
      148
310
00010143505355925155D49151949154D21010
330
286
 94
        0
  0
ACAD_PROXY_OBJECT
  5
29D
330
286
100
AcDbProxyObject
 90
      499
 91
      506
 95
       25
 70
     0
 93
      172
310
00010144105350539393D51154149154D15495915010
330
286
 94
        0
  0
ACAD_PROXY_OBJECT
  5
29E
330
286
100
AcDbProxyObject
 90
      499
 91
      506
 95
       25
 70
     0
 93
      172
310
00010144105350555513D11253505494905391D15010
330
286
 94
        0
  0
ACAD_PROXY_OBJECT
  5
29F
330
286
100
AcDbProxyObject
 90
      499
 91
      506
 95
       25
 70
     0
 93
      124
310
00010142D05351561514915191125360
330
286
 94
        0
  0
ACAD_PROXY_OBJECT
  5
2A0
330
286
100
AcDbProxyObject
 90
      499
 91
      506
 95
       25
 70
     0
 93
      132
310
00010142D05355105410539393D5115010
330
286
 94
        0
  0
ACAD_PROXY_OBJECT
  5
2A1
330
286
100
AcDbProxyObject
 90
      499
 91
      506
 95
       25
 70
     0
 93
      108
310
00010142105350555513D0D31010
330
286
 94
        0
  0
ACAD_PROXY_OBJECT
  5
2A2
330
286
100
AcDbProxyObject
 90
      499
 91
      506
 95
       25
 70
     0
 93
      108
310
00010142105350D3119150551050
330
286
 94
        0
  0
ACAD_PROXY_OBJECT
  5
2A3
330
286
100
AcDbProxyObject
 90
      499
 91
      506
 95
       25
 70
     0
 93
      108
310
00010142105350D315925155D3F0
330
286
 94
        0
  0
ACAD_PROXY_OBJECT
  5
2A4
330
286
100
AcDbProxyObject
 90
      499
 91
      506
 95
       25
 70
     0
 93
      148
310
0001014350535212511156915493D112535010
330
286
 94
        0
  0
ACAD_PROXY_OBJECT
  5
2A5
330
286
100
AcDbProxyObject
 90
      499
 91
      506
 95
       25
 70
     0
 93
      124
310
00010142905352105510D21254D3D010
330
286
 94
        0
  0
ACAD_PROXY_OBJECT
  5
2A6
330
286
100
AcDbProxyObject
 90
      499
 91
      506
 95
       25
 70
     0
 93
      148
310
00010143905354D25391D31152105513105660
330
286
 94
        0
  0
ACAD_PROXY_OBJECT
  5
2A7
330
286
100
AcDbProxyObject
 90
      499
 91
      506
 95
       25
 70
     0
 93
      124
310
00010142D0535115D1D193111254D420
330
286
 94
        0
  0
ACAD_PROXY_OBJECT
  5
2A8
330
286
100
AcDbProxyObject
 90
      499
 91
      506
 95
       25
 70
     0
 93
      100
310
00010142105350555513D213A0
330
286
 94
        0
  0
ACAD_PROXY_OBJECT
  5
2A9
330
286
100
AcDbProxyObject
 90
      499
 91
      506
 95
       25
 70
     0
 93
      116
310
000101425053521390D3D553951010
330
286
 94
        0
  0
ACAD_PROXY_OBJECT
  5
2AA
330
286
100
AcDbProxyObject
 90
      499
 91
      506
 95
       25
 70
     0
 93
      108
310
0001014210535213941493D29010
330
286
 94
        0
  0
ACAD_PROXY_OBJECT
  5
2AB
330
286
100
AcDbProxyObject
 90
      499
 91
      506
 95
       25
 70
     0
 93
      108
310
0001014210535213951654115070
330
286
 94
        0
  0
ACAD_PROXY_OBJECT
  5
2AC
330
286
100
AcDbProxyObject
 90
      499
 91
      506
 95
       25
 70
     0
 93
      108
310
000101421053521395925155D0F0
330
286
 94
        0
  0
ACAD_PROXY_OBJECT
  5
2AD
330
286
100
AcDbProxyObject
 90
      499
 91
      506
 95
       25
 70
     0
 93
      140
310
00010143505354D150D51253D390D3D41660
330
286
 94
        0
  0
ACAD_PROXY_OBJECT
  5
2AE
330
286
100
AcDbProxyObject
 90
      499
 91
      506
 95
       25
 70
     0
 93
      108
310
00010142105350D3141493D29030
330
286
 94
        0
  0
ACAD_PROXY_OBJECT
  5
2AF
330
286
100
AcDbProxyObject
 90
      499
 91
      518
 95
       25
 70
     0
 93
      212
310
00010143905350555513D2105510D21493D500000000000002E400
330
286
 94
        0
  0
ACAD_PROXY_OBJECT
  5
2B0
330
286
100
AcDbProxyObject
 90
      499
 91
      506
 95
       25
 70
     0
 93
      156
310
00010143905350555513D2105510D21111551010
330
286
 94
        0
  0
ACAD_PROXY_OBJECT
  5
2C2
330
286
100
AcDbProxyObject
 90
      499
 91
      529
 95
       25
 70
     0
 93
      698
310
0001000000009AA6A9AA4051E546875204175672032342030313A32373A313320323030362028555443290141CE4B8C8B8C0B8C80518576564205365702030312031363A34383A353620323031300141CE4B8C8B8C0B8C80
330
286
330
2C3
330
2C4
330
2C6
330
0
 94
        0
  0
ACAD_PROXY_OBJECT
  5
2C3
330
286
100
AcDbProxyObject
 90
      499
 91
      530
 95
       25
 70
     0
 93
       70
310
0001AAA80820000000
330
286
330
2C3
330
2C3
 94
        0
  0
ACAD_PROXY_OBJECT
  5
2C4
330
286
100
AcDbProxyObject
 90
      499
 91
      531
 95
       25
 70
     0
 93
       48
310
000100000000
330
286
330
0
330
2C5
330
0
330
0
 94
        0
  0
ACAD_PROXY_OBJECT
  5
2C5
330
286
100
AcDbProxyObject
 90
      499
 91
      532
 95
       25
 70
     0
 93
       40
310
000100AAAA
330
286
330
0
 94
        0
  0
ACAD_PROXY_OBJECT
  5
2CB
330
286
100
AcDbProxyObject
 90
      499
 91
      536
 95
       25
 70
     0
 93
      180
310
00010143105050D3D35411119390535140504434F4D500
330
286
 94
        0
  0
ACAD_PROXY_OBJECT
  5
2CC
330
286
100
AcDbProxyObject
 90
      499
 91
      536
 95
       25
 70
     0
 93
      212
310
0001014390505193D311115491119390535140506466F6C6465720
330
286
 94
        0
  0
ACAD_PROXY_OBJECT
  5
2CD
330
286
100
AcDbProxyObject
 90
      499
 91
      536
 95
       25
 70
     0
 93
      180
310
00010143105050539393D1119390535140504284156290
330
286
 94
        0
  0
ACAD_PROXY_OBJECT
  5
2CE
330
286
100
AcDbProxyObject
 90
      499
 91
      536
 95
       25
 70
     0
 93
      436
310
00010143905050D3D35415925155D31254D50052295BD96CA0A90B396CA0A894591A496CA0A8DB691A496CA0A89BA96CA0A95E28F95310
330
286
 94
        0
  0
ACAD_PROXY_OBJECT
  5
2D3
330
286
100
AcDbProxyObject
 90
      499
 91
      538
 95
       25
 70
     0
 93
       32
310
00010000
330
286
340
2D0
330
2D5
330
2D0
 94
        0
  0
ACAD_PROXY_OBJECT
  5
2D4
330
286
100
AcDbProxyObject
 90
      499
 91
      539
 95
       25
 70
     0
 93
       18
310
000180
330
286
 94
        0
  0
ACAD_PROXY_OBJECT
  5
2D5
330
286
100
AcDbProxyObject
 90
      499
 91
      540
 95
       25
 70
     0
 93
      162
310
0001014254D512148C4C8C4C919050055401550000
330
286
330
2D3
330
2D4
 94
        0
  0
ACAD_PROXY_OBJECT
  5
2D6
330
286
100
AcDbProxyObject
 90
      499
 91
      541
 95
       25
 70
     0
 93
      178
310
000100AAAAAAA5B24F57DB39BA502C1AD089F378122080
330
286
330
2D5
 94
        0
  0
ACAD_PROXY_OBJECT
  5
2D7
330
286
100
AcDbProxyObject
 90
      499
 91
      542
 95
       25
 70
     0
 93
      108
310
000190140A000000000000AAAAA0
330
286
330
2D8
330
2D8
330
2D8
330
2D8
330
2D8
330
0
 94
        0
  0
ACAD_PROXY_OBJECT
  5
2D8
330
286
100
AcDbProxyObject
 90
      499
 91
      543
 95
       25
 70
     0
 93
       51
310
00010000AAAA80
330
286
330
2D7
330
2D5
 94
        0
  0
ACAD_PROXY_OBJECT
  5
2E6
330
286
100
AcDbProxyObject
 90
      499
 91
      536
 95
       25
 70
     0
 93
      148
310
00010142105350D55494D51100504414E53490
330
286
 94
        0
  0
DICTIONARY
  5
2BD
102
{ACAD_REACTORS
330
2BC
102
}
330
2BC
100
AcDbDictionary
281
     1
  3
DWGSETTINGS
350
2BE
  3
TRANSSETTINGS
350
2BF
  0
ACAD_PROXY_OBJECT
  5
2E9
102
{ACAD_REACTORS
330
2BC
102
}
330
2BC
100
AcDbProxyObject
 90
      499
 91
      551
 95
       25
 70
     0
 93
    17920
310
41503491013041105357CC201C00030C011E441013141105357CC603800030C011E441013241105357CCA01400030C011E441013341105357CCE01800030C010F9013441105357CD200C00030C010F9013541105357CD600C00030C010F9013641105357CDA00800030C011E9013741105357CDE01000030C010F901384110
310
5357CE200400030C010F9013941105357CE63F400030C0241102324141505357CC4C201C00030C011E902344141505357CC4C600C00030C010F902495041505357CC4CA01C00030C011E40902304E41505357CC13A01C00030C011E902314E41505357CC53A03800030C011E902324E41505357CC93A01400030C011E90233
310
4E41505357CCD3A01800030C010F902344E41505357CD13A00C00030C010F902354E41505357CD53A00C00030C010F902364E41505357CD93A00800030C011E902374E41505357CDD3A01000030C010F902384E41505357CE13A00400030C010F902394E41505357CE53A3F400030C024110332414E41905357CC4C13A01C0
310
0030C011E90334414E41905357CC4C53A00C00030C010F90349504E41905357CC4C93A01C00030C011E409044B4C494E41505357D0D3200400030C010F42504494E464F42105357D410549151A01000030C010F42D055241484D3541905357D093D4A01C00030C011E425045649455742105357D5925155D4E00400030C010
310
F42D06424548494E4441905357D25395A3F400030C0243505545241494C41505357D514A00C00030C010F4250348494441905357D21251201C00030C010F4250356495341905357D59254E01C00030C011E4250650415244494D42505357D41054911253600C00030C010F4250652454644494D42505357D49151911253601
310
000030C010F425534110921395901398000000C0003FFFFFFFE415092139594D06424548494E448000000C0003FFFFFFFE411093D48C9055241484D358010000C30043E411093D48CD055241484D358020000C30047A411093D48D5055241484D358000000C0003FFFFFFFE4110D0530C901348000000C0003FFFFFFFE4110
310
D0530CD01348020000C30047A4110D0530D501348070000C30047A4110D0530DD013481E0000C3004F24110D15393901378000000C0003FFFFFFFE4110D15395D01378000000C0003FFFFFFFE4110D312539044B4C494E8000000C0003FFFFFFFE4110D3D38C501308000000C0003FFFFFFFD034110D3D38C901318000000C
310
0003FFFFFFFD034110D3D38CD01328000000C0003FFFFFFFD034110D3D38D101328000000C0003FFFFFFFD034111115510501348000000C0003FFFFFFFE4111125051D01358000000C0003FFFFFFFE4111125312501358000000C0003FFFFFFFE411112535410650415244494D8000000C0003FFFFFFFE4111125354906524
310
54644494D8000000C0003FFFFFFFE4111915353901388000000C0003FFFFFFFE415191535413901388030000C3003FFFFFFFE4151915354D410234418000000C0003FFFFFFFE4151915354D510234418030000C30043E415191535593901328000000C0003FFFFFFFE415191535595101328030000C30043E4112105510D01
310
388000000C0003FFFFFFFD014112125113901338000000C0003FFFFFFFD034112125115D01338000000C0003FFFFFFFD034112131253901348000000C0003FFFFFFFD01411213D0D3901378000000C0003FFFFFFFE411213D0D5D01378000000C0003FFFFFFFE4112539193D04494E464F8000000C0003FFFFFFFE41131150
310
51101358000000C0003FFFFFFFE419397D0921395902394E8000000C0003FFFFFFFE419397D0D3D38C502304E8000000C0003FFFFFFFD03419397D0D3D38C902314E8000000C0003FFFFFFFD03419397D0D3D38CD02324E8000000C0003FFFFFFFD03419397D0D3D38D102324E8000000C0003FFFFFFFD03419397D0D15393
310
902374E8000000C0003FFFFFFFE419397D0D15395D02374E8000000C0003FFFFFFFE419397D1125312502354E8000000C0003FFFFFFFE419397D2105510D02384E8000000C0003FFFFFFFD01419397D2125113902334E8000000C0003FFFFFFFD03419397D2125115D02334E8000000C0003FFFFFFFD03419397D311505110
310
2354E8000000C0003FFFFFFFE419397D391D25410349504E8000000C0003FFFFFFFE419397D412105390334414E8000000C0003FFFFFFFE419397D510D3D3902304E8000000C0003FFFFFFFD03419397D5121312502344E8000000C0003FFFFFFFD01419397D5131153902304E8000000C0003FFFFFFFD03419397D5941312
310
50332414E8000000C0003FFFFFFFE411391D25410249508000000C0003FFFFFFFE411410530C9055241484D358010000C30043E411410530CD055241484D358020000C30047A411410530D5055241484D358000000C0003FFFFFFFE411412105390234418000000C0003FFFFFFFE411413D4D3901358000000C0003FFFFFFF
310
E411490D1D3901378000000C0003FFFFFFFE411490D1D5D01378000000C0003FFFFFFFE4114D09492D01348070000C300479014114D150D5101348000000C0003FFFFFFFD014114D6508CD01358020000C30047A411354D653501358020000C30047A411510D3D3901308000000C0003FFFFFFFD0341151213125013480000
310
00C0003FFFFFFFD01411512550C9055241484D358010000C30043E411512550CD055241484D358020000C30047A411512550D5055241484D358000000C0003FFFFFFFE4115131153901308000000C0003FFFFFFFD03415514905253105545241494C8000000C0003FFFFFFFE4115149312501348000000C0003FFFFFFFD014
310
11516150C501368030000C30043E411516150C901368030000C30043E411516150CD01368000000C0003FFFFFFFE411516150D501368070000C30047A411516150DD013681E0000C3004F24115925155D04564945578000000C0003FFFFFFFE41159151121034849448000000C0003FFFFFFFD024115915115903564953800
310
0000C0003FFFFFFFD02411594131250232418000000C0003FFFFFFFE4116925690501348000000C0003FFFFFFFD01AAA3F400030C01013F90A4050F4091E40D0F4110F4151E4190F41D1E4391E4793C7F6
340
15
340
15
340
15
340
2B1
340
15
340
15
340
15
340
28
340
15
340
15
340
28
340
2B2
340
15
340
15
340
15
340
15
340
2B1
340
15
340
15
340
15
340
28
340
15
340
15
340
28
340
2B2
340
15
340
2ED
340
15
340
15
340
15
340
15
340
15
340
2B1
340
15
340
15
340
15
340
14
340
14
340
14
340
14
340
14
340
14
340
14
340
14
340
14
340
2F3
340
14
340
14
340
14
340
14
340
14
340
14
340
14
340
14
340
14
340
14
340
14
340
14
340
14
340
15
340
14
340
14
340
14
340
14
340
2F4
340
14
340
14
340
2F3
340
14
340
14
340
14
340
14
340
14
340
14
340
14
340
14
340
2F3
340
14
340
14
340
14
340
2F4
340
14
340
14
340
14
340
14
340
14
340
2F4
340
14
340
2B2
340
14
340
14
340
14
340
14
340
14
340
14
340
2F3
340
14
340
14
340
14
340
14
340
14
340
14
340
2F4
340
14
340
14
340
14
340
14
340
14
340
14
340
14
340
14
340
14
340
14
340
14
340
14
340
14
340
14
340
2B2
340
2F5
 94
        0
  0
ACAD_PROXY_OBJECT
  5
321
102
{ACAD_REACTORS
330
31C
102
}
330
31C
100
AcDbProxyObject
 90
      499
 91
      568
 95
       25
 70
     0
 93
      253
310
43D1444494D454E53494F4E2C414D44545F2A5F44494D404A9012A404A9012A8
  0
ACAD_PROXY_OBJECT
  5
320
102
{ACAD_REACTORS
330
31C
102
}
330
31C
100
AcDbProxyObject
 90
      499
 91
      568
 95
       25
 70
     0
 93
      181
310
43D012A42D05357D191504B505357CA9012A404A9012A8
  0
ACAD_PROXY_OBJECT
  5
31D
102
{ACAD_REACTORS
330
31C
102
}
330
31C
100
AcDbProxyObject
 90
      499
 91
      568
 95
       25
 70
     0
 93
      133
310
43D054841544348404A9012A404A9012A8
  0
ACAD_PROXY_OBJECT
  5
31E
102
{ACAD_REACTORS
330
31C
102
}
330
31C
100
AcDbProxyObject
 90
      499
 91
      568
 95
       25
 70
     0
 93
      549
310
43D044C494E4549CE0B0E138B0A8B4E0B0A8B4E138B105357CE0B105357CE138B0A8B505357CE0B0A8B505357CE139012A404A910494E534552542C5354445041525432448
  0
ACAD_PROXY_OBJECT
  5
322
102
{ACAD_REACTORS
330
31C
102
}
330
31C
100
AcDbProxyObject
 90
      499
 91
      568
 95
       25
 70
     0
 93
      181
310
43D0341524341105357CD5012A404C906494E534552540
  0
ACAD_PROXY_OBJECT
  5
31F
102
{ACAD_REACTORS
330
31C
102
}
330
31C
100
AcDbProxyObject
 90
      499
 91
      568
 95
       25
 70
     0
 93
     1053
310
43D7841434D46434652414D452C41434D444154554D5441524745542C41434D444154554D49442C41434D57454C4453594D2C41434D5355524653594D2C41434D4645415449442C41434D504152545245462C41434D42414C4C4F4F4E2C414D44544544474553594D2C414D47534352455743414C435441424C45404A9012A
310
404A9012A8
  0
ACAD_PROXY_OBJECT
  5
2E8
102
{ACAD_REACTORS
330
2E7
102
}
330
2E7
100
AcDbProxyObject
 90
      499
 91
      550
 95
       25
 70
     0
 93
     2395
310
5DCB81E85EB51B8BE3F8030000C30041105394D2501640600800030C0200800030C00B81E85EB51B8BE3F48821E8720B1B6A9BAB9332A32BC3A29BA3220480A1282C6DA8C868CA6E8C88120286A0B1B6ABB2B63234B733A9BA3220480A1082C6DA92C8A6E8C88120285A0B1B6A230BA3AB6A9BA3220480A1282C6DA849E9AA
310
6E8C8812028820B6B23A2232BA30B4B629BCB6A9BA3220480A2282DAC8E8A6CAC6E8D2DEDCA6F2DAA6E8C88120288A0B6B23A21B2B73A32B92634B732A9BA3220480A2282DAC8E8A8D0E4CAC2C898D2DCCAA6E8C88120285A0B6B23A2737BA32A9BA3220480A1682C682DACE98C2F2A6E8C88120285A0B1A0B6B3A234B6A9B
310
A3220480A2282C682DACE90DED8CA86D0C2E4E8A6E8C88120286A0B1A0B6B3AA34BA3632A9BA3220480A02812020
340
2F6
360
2F7
360
2F8
360
2F9
360
2FA
360
2FB
360
2FC
360
2FD
360
2FE
360
2FF
360
300
360
301
360
30D
360
30E
360
319
360
31A
340
0
340
0
 94
        0
  0
ACAD_PROXY_OBJECT
  5
2BE
102
{ACAD_REACTORS
330
2BD
102
}
330
2BD
100
AcDbProxyObject
 90
      499
 91
      526
 95
       25
 70
     0
 93
     2372
310
4050B44574753455454494E4753A1286829C8E82A4A482B282A106660F8686AF86C608321A2A720A723A0A849A1ABE1C983E18999AA0C868A9C889282940000000000001C07E83A1A2A72224A0A9A0A8598171ABE1897183E18971AA0E868A9C8892A6A8940000000000001807E8321A2A72622A7250000000000000701FA0
310
C868A9C9E8C8C940000000000001C07E84A1A624A720A92920ACA0A81189AA108698929C8AA8B2A082A0AB098929C8A84A22BA3AAA9A1A0A622A50A0E9882A6A89E849482A02608426A0A5A2AB24A2ABA7E8120CA0A68682988A0C00800010652455649534941501304154D0D0531150540CC4E8C50954494D455354414D50
310
4A02AC3A252722B734141D5915494D253D3905414C4D4B8C0C1107B44574753455454494E4753454E447D0
  0
ACAD_PROXY_OBJECT
  5
2BF
102
{ACAD_REACTORS
330
2BD
102
}
330
2BD
100
AcDbProxyObject
 90
      499
 91
      526
 95
       25
 70
     0
 93
      852
310
4050D5452414E5353455454494E4753A2488A482AE929C8EA8A4829CA69882A8929E9C0C00800050D4F524947494E414C4C595F4F4E0600400008529A7AAA921A2A620A723A0A81A52827212AAA0A48AA68AA4AC8A0C0080001107B44574753455454494E4753454E447D0
  0
ACAD_PROXY_OBJECT
  5
2F7
330
2E8
100
AcDbProxyObject
 90
      499
 91
      552
 95
       25
 70
     0
 93
       96
310
5DC20E80A0280A0280A02808
  0
ACAD_PROXY_OBJECT
  5
2F8
330
2E8
100
AcDbProxyObject
 90
      499
 91
      553
 95
       25
 70
     0
 93
      332
310
5DD0E4050140501405014050140501405014050142501405014050140501405012000000000000000400
340
302
 94
        0
  0
ACAD_PROXY_OBJECT
  5
2F9
330
2E8
100
AcDbProxyObject
 90
      499
 91
      554
 95
       25
 70
     0
 93
      403
310
5DCC199999999999E99F91F4050140501405014050140501405014050140501405014050140501405014050140501405014040
340
0
 94
        0
  0
ACAD_PROXY_OBJECT
  5
2FA
330
2E8
100
AcDbProxyObject
 90
      499
 91
      555
 95
       25
 70
     0
 93
       10
310
5DC0
  0
ACAD_PROXY_OBJECT
  5
2FB
330
2E8
100
AcDbProxyObject
 90
      499
 91
      556
 95
       25
 70
     0
 93
      257
310
5DE290EA22A7D90F49F9353333333333727F44D4CCCCCCCCCDC9FC010000618000
340
303
340
304
 94
        0
  0
ACAD_PROXY_OBJECT
  5
2FC
330
2E8
100
AcDbProxyObject
 90
      499
 91
      557
 95
       25
 70
     0
 93
    13023
310
5DD0E411255115350141236025B6901405014069011309A4F2590CB64FD3347454E545241434F2C4A504E2C302C8D8096DA2C47454E54524154582C25732C2847454E4D53472067656E647767203232322940690120281A8AA2CA0282484A4BE52028120280A03202261349E4B2196C9FA668E8A9CA8A482869E5894A09C58
310
605921292F94588E8A9CA8A482A8B0584AE658508E8A9C9AA68E40CECADCC8EECE406464665280D202405044E414D454050496BC914F4051C40640A8B95C2E97CBE502404CD1D15395149050D3CB1294138B0C0B25AF2453CB11D15395149055160B095CCB0A11D1539354D1C819D95B991DD9C80C8C8D8A50192C3D494628
310
4953424C414E4B28504152543A4E414D45292C424C4F434B3A4E414D452C504152543A4E414D452940480A0A888AA686A480A09251B1DBE80A3A80C81D10782C06030180C8099A3A2A72A2920A1A7962528271618164946C76F9623A2A72A2920AA2C1612B9961423A2A726A9A39033B2B7323BB39019189B94A0248090142
310
14D51053911054911014122D2E29A50147501904A383BFDFEFF5FBFCFD3347454E545241434F2C4A504E2C302C8B4B8A692C47454E54524154582C25732C2847454E4D53472067656E64776720323138294049012028426A0AA22A924A0A62028246EF4BDFA028EA0320B41396D838E9017D9FA668E8A9CA8A482869E5894A
310
09C5860591BBD2F7E588E8A9CA8A482A8B0584AE658508E8A9C9AA68E40CECADCC8EECE406464625280D202405044E4F544540504928D8B4C4051D40641A8B95C2E97CBE5F23F4CD1D15395149050D3CB1294138B0C0B24A362D30B11D15395149055160B095CCB0A11D1539354D1C819D95B991DD9C80C8C8D4A501A40480
310
A0CAC8A9C889EA480A1106F1072706BF02B680A3A80C83D172B85D2F97CBE47E9BA3A2A72A2920A1A79625282716181641BC41C9C1AFC0AD9623A2A72A2920AA2C1612B9961423A2A726A9A39033B2B7323BB39019191A14A0348090141911154D0D48C90141A43825AF880C90147501908A20F0580C0603019013447454E5
310
45241434F2C4A504E2C302C90E096BE20322C47454E54524154582C25732C2847454E4D53472067656E6477672033362940490120284A9AA20A72220A922192028345A5C53490192028EA0321347077FBFDFEBF7F9FA6A8E8A9CA8A482869E5894A09C586059169714D24064588E8A9CA8A482A8B0584AE658508E8A9C9AA6
310
8E40CECADCC8EECE4064646052809202405094D4154455249414C32405068DDE97BF20324051D40642A8272DB071D202FB3F4D11D15395149050D3CB1294138B0C0B2377A5EFC80C8B11D15395149055160B095CCB0A11D1539354D1C819D95B991DD9C80D0C0A501240480A089A82A6A680A091D7F2F9480A3A80A0485A06
310
81172B85D2F97CBE47E9923A2A72A2920A1A796252827161816475FCBE51623A2A72A2920AA2C1612B9961423A2A726A9A39033B2B7323BB3901A1914A024809014154149250D150141226FE29A501475014090C409022E570BA5F2F97C8FD3247454E545241434F2C4A504E2C302C89BF8A692C47454E54524154582C2573
310
2C2847454E4D53472067656E6477672034332940490120281A224A6A02824850CB202028EA028121A81A045CAE174BE5F2F91FA648E8A9CA8A482869E5894A09C58605921432C80588E8A9CA8A482A8B0584AE658508E8A9C9AA68E40CECADCC8EECE406868528092024050E441022E07A17AD46E338FE07800030C0001018
310
ACD56AB55AADF63F2B355AAD56AB7D8FD073D3C4954454D3E405018ACD56AB55AADF63F2B355AAD56AB7D8FD073D3C4954454D3E40501890C7E3F1783CEE3F2431F8FC5E0F3B8FD073D3C4954454D3E40501890C7E3F1783CEE3F2431F8FC5E0F3B8FD073D3C4954454D3E405029012B355AAD56AB7D8FCACD56AB55AADF63
310
F41CF4F125511534F901418F4F1455164F9014062B355AAD56AB7D8FCACD56AB55AADF63F41CF4F125511534F9014061309A4F2590CBA4FC4C2693C96432E93F41CF4F125511534F901901002B355AAD56AB7D8FCACD56AB55AADF63FA2000000000000008204018000618048220681A048120280C88214844882034852034
310
8452028521485214814000000000000F0BF0000000000003C2FD018020000C3008070000C3000EF7D3E365DBA88FC3BDF4F8D976EA23F2E07A17AD46E2F8FF20341A405024150741A4069703D0BD6A3717C7F0040001860100400018601002000186002026280A02
340
0
340
0
 94
        0
  0
ACAD_PROXY_OBJECT
  5
2FD
330
2E8
100
AcDbProxyObject
 90
      499
 91
      558
 95
       25
 70
     0
 93
      994
310
5DC0B81E85EB51B8CE3F4BCF511155105253080F11115510525317D3105091530F971414D0D05311480F11115510525317D05094D4D0D053114F92341C9A9999999999B93F26A666666666724FC000000000000E03F4000000000000004000000000000005100000000000000244081E0000C3002E07A17AD46E338FC0
340
2B2
340
2F6
 94
        0
  0
ACAD_PROXY_OBJECT
  5
2FE
330
2E8
100
AcDbProxyObject
 90
      499
 91
      559
 95
       25
 70
     0
 93
      823
310
5DC031703D0BD6A3719C7E999EA9A2A1AA24A7A7101E29A2A1AA24A7A72FA620A122A62FA324A929AA1F169E29A2A1AA24A7A72FA620A122A62FA620A9AA1F1353333333333B27E3FFFE01C00030C008840F000061801353333333333B27F1703D0BD6A3719C7E
340
2B2
340
2F6
 94
        0
  0
ACAD_PROXY_OBJECT
  5
2FF
330
2E8
100
AcDbProxyObject
 90
      499
 91
      560
 95
       25
 70
     0
 93
      280
310
5DC2B8716D9CEF7C33F0A5723F0BD4A2F0FC295C8FC2F528BC3FA199999999999F99FC
  0
ACAD_PROXY_OBJECT
  5
300
330
2E8
100
AcDbProxyObject
 90
      499
 91
      561
 95
       25
 70
     0
 93
       14
310
5DE4
340
0
 94
        0
  0
ACAD_PROXY_OBJECT
  5
301
330
2E8
100
AcDbProxyObject
 90
      499
 91
      562
 95
       25
 70
     0
 93
     7123
310
5DD084050BA4050AA405024050E836583938376838C815B8367203140405013D3C696628657175616C28486F6C653A7461707065642C223022292C22252563222C486F6C653A6E6F6D696E616C2022202220696628657175616C28486F6C653A756E6974732C223122292C2278222C222D222920222022293E3C6966286571
310
75616C28486F6C653A7461707065642C223022292C486F6C653A6469612C486F6C653A706974636864657363293E207B5C46414D4744543B787D203C696628657175616C28486F6C653A7465726D696E6174696F6E2C223022292C486F6C653A64657074682C228AD192CA22293E5C507B5C46414D4744543B767D2525633C
310
486F6C653A63746469613E207B5C46414D4744543B787D203C486F6C653A637464657074683E406901405034050E836583938376838C815B83672031405FE3D3C696628657175616C28486F6C653A7461707065642C223022292C22252563222C486F6C653A6E6F6D696E616C2022202220696628657175616C28486F6C653
310
A756E6974732C223122292C2278222C222D222920222022293E3C696628657175616C28486F6C653A7461707065642C223022292C486F6C653A6469612C486F6C653A706974636864657363293E207B5C46414D4744543B787D203C696628657175616C28486F6C653A7465726D696E6174696F6E2C223022292C486F6C653
310
A64657074682C228AD192CA22293E5C507B5C46414D4744543B777D2525633C486F6C653A63746469613E2058203C486F6C653A6374616E676C653E252564406901405014050E836583938376838C815B83672031405CF3D3C696628657175616C28486F6C653A7461707065642C223022292C22252563222C486F6C653A6E
310
6F6D696E616C2022202220696628657175616C28486F6C653A756E6974732C223122292C2278222C222D222920222022293E3C696628657175616C28486F6C653A7461707065642C223022292C486F6C653A6469612C486F6C653A706974636864657363293E5C507B5C46414D4744543B787D203C696628657175616C2848
310
6F6C653A7465726D696E6174696F6E2C223022292C486F6C653A64657074682C228AD192CA22293E4069014051E4090E836583938376838C815B83672032405173D3C535444503A444553433E203C535444503A5354443E40690E836583938376838C815B836720314050C3D3C535444503A444553433E40690240515AAABB
310
A060
360
30B
330
30B
360
30C
330
30C
360
30A
330
30A
360
309
360
308
330
309
330
308
 94
        0
  0
ACAD_PROXY_OBJECT
  5
30D
330
2E8
100
AcDbProxyObject
 90
      499
 91
      564
 95
       25
 70
     0
 93
       26
310
5DD02A80
340
2E9
 94
        0
  0
ACAD_PROXY_OBJECT
  5
30E
330
2E8
100
AcDbProxyObject
 90
      499
 91
      565
 95
       25
 70
     0
 93
      258
310
5DD02000000000000380FC000000000000E03F408F0F9023C3E40DB18CCCFFFF80
340
30F
340
399
340
0
340
310
340
311
340
0
340
312
340
313
340
318
340
0
 94
        0
  0
ACAD_PROXY_OBJECT
  5
319
330
2E8
100
AcDbProxyObject
 90
      499
 91
      566
 95
       25
 70
     0
 93
    13993
310
5DD1D023FFFFFFFD010300002E07A17AD46E2F8FE00800030C01010300002E07A17AD46E2F8FE00800030C00050C8DC0955782CC838A83588367014ED1D15395149050D3CB1294138B0C0B23702555E0B320E2A0D620D9CB11D15395149055160B095CCB0A11D1539354D1C819D95B991A5B5E880CCC0A78000C0000000000
310
00000000000000000000007B14AE47E17AA43F2E07A17AD46E2F8FE00800030C007B14AE47E17AA43F2E07A17AD46E2F8FE00800030C020143CF4F111959985D5B1D151A5D1B194F8050A8C8A8365815B8375838B014E51D15395149050D3CB1294138B0C0B2322A0D96056E0DD60E2CB11D15395149055160B095CCB0A11D
310
1539354D1C819D95B991A5B5E880CCC4A78000C000000000000000000000000000000007B14AE47E17AA43F2E07A17AD46E2F8FE00800030C007B14AE47E17AA43F2E07A17AD46E2F8FE00800030C020143CF4F111959985D5B1D151A5D1B194F90D4410F4450240D0441507431014391244D05449074510C4350F00014123
310
2D24D7C053247454E545241434F2C4A504E2C302C8CB4935F2C47454E54524154582C25732C2847454E4D53472067656E64696D7A20312900010104002214000282465A49AF80A648E8A9CA8A482869E5894A09C586059196926BE588E8A9CA8A482A8B0584AE658508E8A9C9AA68E40CECADCC8D2DAF44062520002020800
310
43E80005028C8A014C11D15395149050D3CB1294138B0C0B23228B11D15395149055160B095CCB0A11D1539354D1C819D95B991A5B5E880C8A4054E3D3C4946284953424C414E4B28486F6C654974656D292C4F726967696E2C20486F6C654974656D293E3C4946284953424C414E4B28486F6C654974656D292C22222C204
310
86F6C65496E646578293E010104002234000280AC00A5E8E8A9CA8A482869E5894A09C586058B0588E8A9CA8A482A8B0584AE658508E8A9C9AA68E40CECADCC8D2DAF4406652000202000040A800050159014BD1D15395149050D3CB1294138B0C0B164B11D15395149055160B095CCB0A11D1539354D1C819D95B991A5B5E
310
880D0A4000404000081D0000A02A40297A3A2A72A2920A1A796252827161816291623A2A72A2920AA2C1612B9961423A2A726A9A39033B2B73234B6BD101B148000808000104A000140A0F4C053047454E545241434F2C4A504E2C302C83D32C47454E54524154582C25732C2847454E4D53472067656E64696D7A20372900
310
0101030020B400028141E980A608E8A9CA8A482869E5894A09C58605907A6588E8A9CA8A482A8B0584AE658508E8A9C9AA68E40CECADCC8D2DAF4407052000202020041E800050490E096BE014CD1D15395149050D3CB1294138B0C0B243825AF8B11D15395149055160B095CCB0A11D1539354D1C819D95B991A5B5E880C8
310
C0A400040010008650000A091B012DB40299A3A2A72A2920A1A79625282716181646C04B6D1623A2A72A2920AA2C1612B9961423A2A726A9A39033B2B73234B6BD10189A148000808280501A00014320D0E0E4E0D9A0D8A0D3A0D60053B47454E545241434F2C4A504E2C302C8343839383668362834E83582C47454E54524
310
154582C25732C2847454E4D53472067656E64696D7A203135290001010500A1D4000281464500A628E8A9CA8A482869E5894A09C5860591914588E8A9CA8A482A8B0584AE658508E8A9C9AA68E40CECADCC8D2DAF440626C52000202080044A800050E8C8A8343839383668362834E8358014F51D15395149050D3CB129413
310
8B0C0B2322A0D0E0E4E0D9A0D8A0D3A0D60B11D15395149055160B095CCB0A11D1539354D1C819D95B991A5B5E880C4DCA4000404140089D0000A0921292F940299A3A2A72A2920A1A796252827161816484A4BE51623A2A72A2920AA2C1612B9961423A2A726A9A39033B2B73234B6BD10189C948000808300114A0001412
310
2D2E29A4053347454E545241434F2C4A504E2C302C8B4B8A692C47454E54524154582C25732C2847454E4D53472067656E64696D7A20323129000100040021B4878030026A6666666667A4FE064D4CCCCCCCCCF49FC049A9999999999E93F809353333333333D27F0226A6666666667A4FE044D4CCCCCCCCCF49FC0D818000
310
00000000000810026A666666666764FE004D4CCCCCCCCCF49FC009A9999999999E93F801353333333333D27F032E07A17AD46E378FE0633B333333333032050F006004D4CCCCCCCCCF49FC0C9A9999999999E93F819353333333333D27F0326A6666666667A4FE064D4CCCCCCCCCF49FC0C9A9999999999E93F81B03000000
310
00000000102004D4CCCCCCCCCEC9FC009A9999999999E93F819353333333333D27F0026A6666666667A4FE065C0F42F5A8DC6F1FC0C6766666666660640A088800000021E000000890000002260000008220E000200890000002060002008100008000
340
0
340
0
340
0
340
0
340
2F6
340
2F6
 94
        0
  0
ACAD_PROXY_OBJECT
  5
31A
330
2E8
100
AcDbProxyObject
 90
      499
 91
      567
 95
       25
 70
     0
 93
     5214
310
5DD9741105394D2506414E53495F4342905394D257D512551554D15414E53495F54525F5265766973696F6E6C697374614191143202831372E307832322E30696E63682941905394D257D0D1146202832382E307834302E30696E63682941905394D257D191142202831312E307831372E30696E63682941905394D257D091
310
144202832322E307833342E30696E63682941905394D257D111145202833342E307834342E30696E63682941905394D257D1510412028382E357831312E30696E63682941905394D257D050543905B9CDA482557247A25E4C81110D0C414E53495F5449544C45444343505B9CDA482557247A25E4C81050B414E53495F5449
310
544C454143905B9CDA482557247A25E4C81050D0C414E53495F5449544C454143425554C82557247A25E4D0A414E53495F544954555343505B9CDA482557247A25E4C81110B414E53495F5449544C454442110979A97F0838A8358836720415F42525F45505394D257D09497D4995D9A5CDA5BDB9B1A5CDD18510979A97F08
310
38A8358836720415F54525F45505394D257D51497D4995D9A5CDA5BDB9B1A5CDD18510979A97F0838A8358836720445F42525F45505394D257D09497D4995D9A5CDA5BDB9B1A5CDD19110979A97F0838A8358836720445F54525F45505394D257D51497D4995D9A5CDA5BDB9B1A5CDD19110979A97F0838A8358836720415F
310
424C5F45505394D257D09317D4995D9A5CDA5BDB9B1A5CDD18510979A97F0838A8358836720415F544C5F45505394D257D51317D4995D9A5CDA5BDB9B1A5CDD18510979A97F0838A8358836720445F424C5F45505394D257D09317D4995D9A5CDA5BDB9B1A5CDD19110979A97F0838A8358836720445F544C5F45505394D25
310
7D51317D4995D9A5CDA5BDB9B1A5CDD190
  0
ACAD_PROXY_OBJECT
  5
30B
330
301
100
AcDbProxyObject
 90
      499
 91
      563
 95
       25
 70
     0
 93
     2256
310
5DE0143A0D960E4E0DDA0E32056E0D9C80C40405013D3C696628657175616C28486F6C653A7461707065642C223022292C22252563222C486F6C653A6E6F6D696E616C2022202220696628657175616C28486F6C653A756E6974732C223122292C2278222C222D222920222022293E3C696628657175616C28486F6C653A74
310
61707065642C223022292C486F6C653A6469612C486F6C653A706974636864657363293E207B5C46414D4744543B787D203C696628657175616C28486F6C653A7465726D696E6174696F6E2C223022292C486F6C653A64657074682C228AD192CA22293E5C507B5C46414D4744543B767D2525633C486F6C653A6374646961
310
3E207B5C46414D4744543B787D203C486F6C653A637464657074683E
  0
ACAD_PROXY_OBJECT
  5
30C
330
301
100
AcDbProxyObject
 90
      499
 91
      563
 95
       25
 70
     0
 93
     2192
310
5DE0143A0D960E4E0DDA0E32056E0D9C80C405FE3D3C696628657175616C28486F6C653A7461707065642C223022292C22252563222C486F6C653A6E6F6D696E616C2022202220696628657175616C28486F6C653A756E6974732C223122292C2278222C222D222920222022293E3C696628657175616C28486F6C653A7461
310
707065642C223022292C486F6C653A6469612C486F6C653A706974636864657363293E207B5C46414D4744543B787D203C696628657175616C28486F6C653A7465726D696E6174696F6E2C223022292C486F6C653A64657074682C228AD192CA22293E5C507B5C46414D4744543B777D2525633C486F6C653A63746469613E
310
2058203C486F6C653A6374616E676C653E252564
  0
ACAD_PROXY_OBJECT
  5
30A
330
301
100
AcDbProxyObject
 90
      499
 91
      563
 95
       25
 70
     0
 93
     1816
310
5DE0143A0D960E4E0DDA0E32056E0D9C80C405CF3D3C696628657175616C28486F6C653A7461707065642C223022292C22252563222C486F6C653A6E6F6D696E616C2022202220696628657175616C28486F6C653A756E6974732C223122292C2278222C222D222920222022293E3C696628657175616C28486F6C653A7461
310
707065642C223022292C486F6C653A6469612C486F6C653A706974636864657363293E5C507B5C46414D4744543B787D203C696628657175616C28486F6C653A7465726D696E6174696F6E2C223022292C486F6C653A64657074682C228AD192CA22293E
  0
ACAD_PROXY_OBJECT
  5
309
330
301
100
AcDbProxyObject
 90
      499
 91
      563
 95
       25
 70
     0
 93
      344
310
5DE0143A0D960E4E0DDA0E32056E0D9C80C805173D3C535444503A444553433E203C535444503A5354443E
  0
ACAD_PROXY_OBJECT
  5
308
330
301
100
AcDbProxyObject
 90
      499
 91
      563
 95
       25
 70
     0
 93
      256
310
5DE0143A0D960E4E0DDA0E32056E0D9C80C4050C3D3C535444503A444553433E
  0
ENDSEC
  0
EOF
