  0
SECTION
  2
HEADER
  9
$ACADVER
  1
AC1015
  9
$ACADMAINTVER
 70
     6
  9
$DWGCODEPAGE
  3
ANSI_932
  9
$INSBASE
 10
0.0
 20
0.0
 30
0.0
  9
$EXTMIN
 10
170.1199994032368
 20
231.6218590685174
 30
-0.0015258207003583
  9
$EXTMAX
 10
329.3118936308661
 20
310.7934591567288
 30
0.0000000349246037
  9
$LIMMIN
 10
74.5792268297489
 20
48.81567530286793
  9
$LIMMAX
 10
494.5792268297489
 20
345.8156753028679
  9
$ORTHOMODE
 70
     1
  9
$REGENMODE
 70
     1
  9
$FILLMODE
 70
     1
  9
$QTEXTMODE
 70
     0
  9
$MIRRTEXT
 70
     1
  9
$LTSCALE
 40
1.0
  9
$ATTMODE
 70
     1
  9
$TEXTSIZE
 40
2.0
  9
$TRACEWID
 40
1.0
  9
$TEXTSTYLE
  7
STANDARD
  9
$CLAYER
  8
AM_0
  9
$CELTYPE
  6
ByLayer
  9
$CECOLOR
 62
   256
  9
$CELTSCALE
 40
1.0
  9
$DISPSILH
 70
     0
  9
$DIMSCALE
 40
1.0
  9
$DIMASZ
 40
2.5
  9
$DIMEXO
 40
0.0
  9
$DIMDLI
 40
10.0
  9
$DIMRND
 40
0.0
  9
$DIMDLE
 40
0.0
  9
$DIMEXE
 40
1.0
  9
$DIMTP
 40
0.1
  9
$DIMTM
 40
0.1
  9
$DIMTXT
 40
3.699999999999999
  9
$DIMCEN
 40
0.0
  9
$DIMTSZ
 40
0.0
  9
$DIMTOL
 70
     0
  9
$DIMLIM
 70
     0
  9
$DIMTIH
 70
     0
  9
$DIMTOH
 70
     0
  9
$DIMSE1
 70
     0
  9
$DIMSE2
 70
     0
  9
$DIMTAD
 70
     3
  9
$DIMZIN
 70
     8
  9
$DIMBLK
  1
Open30
  9
$DIMASO
 70
     1
  9
$DIMSHO
 70
     1
  9
$DIMPOST
  1

  9
$DIMAPOST
  1
"
  9
$DIMALT
 70
     0
  9
$DIMALTD
 70
     2
  9
$DIMALTF
 40
0.0393701
  9
$DIMLFAC
 40
1.0
  9
$DIMTOFL
 70
     1
  9
$DIMTVP
 40
0.0
  9
$DIMTIX
 70
     0
  9
$DIMSOXD
 70
     0
  9
$DIMSAH
 70
     0
  9
$DIMBLK1
  1

  9
$DIMBLK2
  1

  9
$DIMSTYLE
  2
AM_JIS
  9
$DIMCLRD
 70
     3
  9
$DIMCLRE
 70
     3
  9
$DIMCLRT
 70
     2
  9
$DIMTFAC
 40
0.71
  9
$DIMGAP
 40
1.0
  9
$DIMJUST
 70
     0
  9
$DIMSD1
 70
     0
  9
$DIMSD2
 70
     0
  9
$DIMTOLJ
 70
     0
  9
$DIMTZIN
 70
     0
  9
$DIMALTZ
 70
     0
  9
$DIMALTTZ
 70
     0
  9
$DIMUPT
 70
     0
  9
$DIMDEC
 70
     2
  9
$DIMTDEC
 70
     2
  9
$DIMALTU
 70
     2
  9
$DIMALTTD
 70
     2
  9
$DIMTXSTY
  7
STANDARD
  9
$DIMAUNIT
 70
     1
  9
$DIMADEC
 70
     1
  9
$DIMALTRND
 40
0.0
  9
$DIMAZIN
 70
     2
  9
$DIMDSEP
 70
    46
  9
$DIMATFIT
 70
     3
  9
$DIMFRAC
 70
     0
  9
$DIMLDRBLK
  1
Open30
  9
$DIMLUNIT
 70
     2
  9
$DIMLWD
 70
    -1
  9
$DIMLWE
 70
    -1
  9
$DIMTMOVE
 70
     0
  9
$LUNITS
 70
     2
  9
$LUPREC
 70
     2
  9
$SKETCHINC
 40
1.0
  9
$FILLETRAD
 40
2.5
  9
$AUNITS
 70
     0
  9
$AUPREC
 70
     0
  9
$MENU
  1
.
  9
$ELEVATION
 40
0.0
  9
$PELEVATION
 40
0.0
  9
$THICKNESS
 40
0.0
  9
$LIMCHECK
 70
     0
  9
$CHAMFERA
 40
2.5
  9
$CHAMFERB
 40
2.5
  9
$CHAMFERC
 40
20.0
  9
$CHAMFERD
 40
0.0
  9
$SKPOLY
 70
     0
  9
$TDCREATE
 40
2452143.44402743
  9
$TDUCREATE
 40
2452143.06902743
  9
$TDUPDATE
 40
2455468.434795822
  9
$TDUUPDATE
 40
2455468.059795822
  9
$TDINDWG
 40
0.6699518171
  9
$TDUSRTIMER
 40
0.6695805208
  9
$USRTIMER
 70
     1
  9
$ANGBASE
 50
0.0
  9
$ANGDIR
 70
     0
  9
$PDMODE
 70
     0
  9
$PDSIZE
 40
0.0
  9
$PLINEWID
 40
0.0
  9
$SPLFRAME
 70
     0
  9
$SPLINETYPE
 70
     6
  9
$SPLINESEGS
 70
     8
  9
$HANDSEED
  5
4073
  9
$SURFTAB1
 70
     6
  9
$SURFTAB2
 70
     6
  9
$SURFTYPE
 70
     6
  9
$SURFU
 70
     6
  9
$SURFV
 70
     6
  9
$UCSBASE
  2

  9
$UCSNAME
  2

  9
$UCSORG
 10
0.0
 20
0.0
 30
0.0
  9
$UCSXDIR
 10
1.0
 20
0.0
 30
0.0
  9
$UCSYDIR
 10
0.0
 20
1.0
 30
0.0
  9
$UCSORTHOREF
  2

  9
$UCSORTHOVIEW
 70
     0
  9
$UCSORGTOP
 10
0.0
 20
0.0
 30
0.0
  9
$UCSORGBOTTOM
 10
0.0
 20
0.0
 30
0.0
  9
$UCSORGLEFT
 10
0.0
 20
0.0
 30
0.0
  9
$UCSORGRIGHT
 10
0.0
 20
0.0
 30
0.0
  9
$UCSORGFRONT
 10
0.0
 20
0.0
 30
0.0
  9
$UCSORGBACK
 10
0.0
 20
0.0
 30
0.0
  9
$PUCSBASE
  2

  9
$PUCSNAME
  2

  9
$PUCSORG
 10
0.0
 20
0.0
 30
0.0
  9
$PUCSXDIR
 10
1.0
 20
0.0
 30
0.0
  9
$PUCSYDIR
 10
0.0
 20
1.0
 30
0.0
  9
$PUCSORTHOREF
  2

  9
$PUCSORTHOVIEW
 70
     0
  9
$PUCSORGTOP
 10
0.0
 20
0.0
 30
0.0
  9
$PUCSORGBOTTOM
 10
0.0
 20
0.0
 30
0.0
  9
$PUCSORGLEFT
 10
0.0
 20
0.0
 30
0.0
  9
$PUCSORGRIGHT
 10
0.0
 20
0.0
 30
0.0
  9
$PUCSORGFRONT
 10
0.0
 20
0.0
 30
0.0
  9
$PUCSORGBACK
 10
0.0
 20
0.0
 30
0.0
  9
$USERI1
 70
     0
  9
$USERI2
 70
     0
  9
$USERI3
 70
     0
  9
$USERI4
 70
     0
  9
$USERI5
 70
     0
  9
$USERR1
 40
0.0
  9
$USERR2
 40
0.0
  9
$USERR3
 40
0.0
  9
$USERR4
 40
0.0
  9
$USERR5
 40
0.0
  9
$WORLDVIEW
 70
     1
  9
$SHADEDGE
 70
     3
  9
$SHADEDIF
 70
    70
  9
$TILEMODE
 70
     1
  9
$MAXACTVP
 70
    64
  9
$PINSBASE
 10
0.0
 20
0.0
 30
0.0
  9
$PLIMCHECK
 70
     0
  9
$PEXTMIN
 10
1.000000000000000E+20
 20
1.000000000000000E+20
 30
1.000000000000000E+20
  9
$PEXTMAX
 10
-1.000000000000000E+20
 20
-1.000000000000000E+20
 30
-1.000000000000000E+20
  9
$PLIMMIN
 10
-0.2500002402958907
 20
-0.2499999962453767
  9
$PLIMMAX
 10
10.74999951940822
 20
8.249999763458732
  9
$UNITMODE
 70
     0
  9
$VISRETAIN
 70
     1
  9
$PLINEGEN
 70
     0
  9
$PSLTSCALE
 70
     0
  9
$TREEDEPTH
 70
  3020
  9
$CMLSTYLE
  2
Standard
  9
$CMLJUST
 70
     0
  9
$CMLSCALE
 40
20.0
  9
$PROXYGRAPHICS
 70
     1
  9
$MEASUREMENT
 70
     1
  9
$CELWEIGHT
370
    30
  9
$ENDCAPS
280
     0
  9
$JOINSTYLE
280
     0
  9
$LWDISPLAY
290
     0
  9
$INSUNITS
 70
     4
  9
$HYPERLINKBASE
  1

  9
$STYLESHEET
  1
sei_cad.ctb
  9
$XEDIT
290
     1
  9
$CEPSNTYPE
380
     0
  9
$PSTYLEMODE
290
     1
  9
$FINGERPRINTGUID
  2
{FDEAD578-A652-11D2-9A35-0060089B3A3F}
  9
$VERSIONGUID
  2
{0E35C134-8FFB-46BA-AC36-F7115039E68C}
  9
$EXTNAMES
290
     1
  9
$PSVPSCALE
 40
0.0
  9
$OLESTARTUP
290
     0
  0
ENDSEC
  0
SECTION
  2
CLASSES
  0
CLASS
  1
ACDBDICTIONARYWDFLT
  2
AcDbDictionaryWithDefault
  3
ObjectDBX Classes
 90
        0
280
     0
281
     0
  0
CLASS
  1
ACDBPLACEHOLDER
  2
AcDbPlaceHolder
  3
ObjectDBX Classes
 90
        0
280
     0
281
     0
  0
CLASS
  1
LAYOUT
  2
AcDbLayout
  3
ObjectDBX Classes
 90
        0
280
     0
281
     0
  0
CLASS
  1
ACME_DOCUMENT
  2
AcMeDbDoc
  3
AcMeServices
 90
        0
280
     1
281
     0
  0
CLASS
  1
AMGSETTINGSOBJ
  2
AmgSettingsObj
  3
"AcadM|Product Description: AutoCAD Mechanical 2000|Company: Autodesk"
 90
        0
280
     1
281
     0
  0
CLASS
  1
ACMESCOPE
  2
AcMeScope
  3
AcMeServices
 90
        0
280
     1
281
     0
  0
CLASS
  1
ACMECOMMANDHISTORY
  2
AcMeCommandHistory
  3
AcMeServices
 90
        0
280
     1
281
     0
  0
CLASS
  1
DICTIONARYVAR
  2
AcDbDictionaryVar
  3
ObjectDBX Classes
 90
        0
280
     0
281
     0
  0
CLASS
  1
ACIMSYSVARMAN
  2
AcImSysVarManager
  3
AcMeServices
 90
        0
280
     1
281
     0
  0
CLASS
  1
ACIMREALSYSVAR
  2
AcImRealSysVar
  3
AcMeServices
 90
        0
280
     1
281
     0
  0
CLASS
  1
ACIMINTSYSVAR
  2
AcImIntSysVar
  3
AcMeServices
 90
        0
280
     1
281
     0
  0
CLASS
  1
ACMEDRAWINGMAN
  2
AcMeDrawingMan
  3
AcMeServices
 90
        0
280
     1
281
     0
  0
CLASS
  1
ACMEVIEW
  2
AcMeView
  3
AcMeServices
 90
        0
280
     1
281
     0
  0
CLASS
  1
ACDBENTITYCACHE
  2
AcMeEntityCache
  3
AcMeServices
 90
        0
280
     1
281
     0
  0
CLASS
  1
GSMANAGER
  2
AcMeGSManager
  3
AcMeServices
 90
        0
280
     1
281
     0
  0
CLASS
  1
AMDTINTERNALREACTOR
  2
AmdtInternalReactor
  3
AcMeServices
 90
        0
280
     1
281
     0
  0
CLASS
  1
ACMESTATEMGR
  2
AcMeStateMgr
  3
AcMeServices
 90
        0
280
     1
281
     0
  0
CLASS
  1
ACME_DATABASE
  2
AcMeDbDatabase
  3
AcMeServices
 90
        0
280
     1
281
     0
  0
CLASS
  1
ACRFINSADJUSTERMGR
  2
AcRfInsAdjusterMgr
  3
AcMeServices
 90
        0
280
     1
281
     0
  0
CLASS
  1
ACMDATADICTIONARY
  2
AcmDataDictionary
  3
"AcmSymBB|Product Description: AutoCAD Mechanical 2004 DX|Company: Autodesk"
 90
        0
280
     1
281
     0
  0
CLASS
  1
ACMDATAENTRYBLOCK
  2
AcmDataEntryBlock
  3
"AcmSymBB|Product Description: AutoCAD Mechanical 2004 DX|Company: Autodesk"
 90
        0
280
     1
281
     0
  0
CLASS
  1
AMGOBJPROPCFG
  2
AmgObjPropCfg
  3
"AmgLay|Product Description: AutoCAD Mechanical 2000|Company: Autodesk"
 90
        1
280
     1
281
     0
  0
CLASS
  1
LAYER_INDEX
  2
AcDbLayerIndex
  3
ObjectDBX Classes
 90
        0
280
     0
281
     0
  0
CLASS
  1
IDBUFFER
  2
AcDbIdBuffer
  3
ObjectDBX Classes
 90
        0
280
     0
281
     0
  0
CLASS
  1
ACAMGFILTERDAT
  2
AcAmgFilterDat
  3
"AcadM|Product Description: AutoCAD Mechanical 2000|Company: Autodesk"
 90
        0
280
     1
281
     0
  0
CLASS
  1
ACIMSTRSYSVAR
  2
AcImStrSysVar
  3
AcMeServices
 90
        0
280
     1
281
     0
  0
CLASS
  1
ACMSTANDARDJIS
  2
AcmStandardJIS
  3
"Amdt_StdImp|Product Description: AutoCAD Mechanical 2004 DX|Company: Autodesk"
 90
        0
280
     1
281
     0
  0
CLASS
  1
ACMSURFSTANDARDJIS
  2
AcmSurfTextStdJIS
  3
"Amdt_StdImp|Product Description: AutoCAD Mechanical 2004 DX|Company: Autodesk"
 90
        0
280
     1
281
     0
  0
CLASS
  1
ACMFCFSTANDARDJIS
  2
AcmFCFStdJIS
  3
"Amdt_StdImp|Product Description: AutoCAD Mechanical 2004 DX|Company: Autodesk"
 90
        0
280
     1
281
     0
  0
CLASS
  1
ACMWELDSTANDARDJIS
  2
AcmWeldingStdJIS
  3
"Amdt_StdImp|Product Description: AutoCAD Mechanical 2004 DX|Company: Autodesk"
 90
        0
280
     1
281
     0
  0
CLASS
  1
ACMIDSTANDARDJIS
  2
AcmIdStdJIS
  3
"Amdt_StdImp|Product Description: AutoCAD Mechanical 2004 DX|Company: Autodesk"
 90
        0
280
     1
281
     0
  0
CLASS
  1
ACMDATUMSTANDARDJIS
  2
AcmDatumStdJIS
  3
"Amdt_StdImp|Product Description: AutoCAD Mechanical 2004 DX|Company: Autodesk"
 90
        0
280
     1
281
     0
  0
CLASS
  1
ACMBOMSTANDARDJIS
  2
AcmBOMStdJIS
  3
"Amdt_StdImp|Product Description: AutoCAD Mechanical 2004 DX|Company: Autodesk"
 90
        0
280
     1
281
     0
  0
CLASS
  1
AMDTNOTE
  2
AmdtNote
  3
"AcmSymBB|Product Description: AutoCAD Mechanical 2004 DX|Company: Autodesk"
 90
     1023
280
     1
281
     1
  0
CLASS
  1
ACMFCFRAME
  2
AcmFCF
  3
"AcmSymBB|Product Description: AutoCAD Mechanical 2004 DX|Company: Autodesk"
 90
     1023
280
     1
281
     1
  0
CLASS
  1
TABLESTYLE
  2
AcDbTableStyle
  3
ObjectDBX Classes
 90
     2047
280
     0
281
     0
  0
CLASS
  1
ACGREFMASTER
  2
AcGrefMaster
  3
AcAttribServices
 90
        0
280
     1
281
     0
  0
CLASS
  1
AM_DRAWING_MGR
  2
AcDmDwgMgr
  3
AcMechDwgViewMgmt
 90
        0
280
     1
281
     0
  0
CLASS
  1
AM_DWG_DOCUMENT
  2
AcDmDwgDocument
  3
AcMechDwgViewMgmt
 90
        0
280
     1
281
     0
  0
CLASS
  1
AM_DWG_SHEET
  2
AcDmSheet
  3
AcMechDwgViewMgmt
 90
        0
280
     1
281
     0
  0
CLASS
  1
AM_VIEWDIMPARMAP
  2
AcDmViewDimParMap
  3
AcMechDwgViewMgmt
 90
        0
280
     1
281
     0
  0
CLASS
  1
AM_DWGMGR_NAME
  2
AcDmDwgMgrName
  3
AcMechDwgViewMgmt
 90
        0
280
     1
281
     0
  0
CLASS
  1
ACGREFACADMASTER
  2
AcGrefacadMaster
  3
AcGrefServices
 90
        0
280
     1
281
     0
  0
CLASS
  1
AMDTMENUSTATEMGR
  2
AmdtMenuStateMgr
  3
McadcomServices
 90
        0
280
     1
281
     0
  0
CLASS
  1
AMDTMCOMMENUSTATE
  2
AmdtMcomMenuState
  3
McadcomServices
 90
        0
280
     1
281
     0
  0
CLASS
  1
AMIMASTER
  2
AmiMaster
  3
AmiServices
 90
        0
280
     1
281
     0
  0
CLASS
  1
MAPIAMMOUDLE
  2
MApiAmModule
  3
MApiAmServices
 90
        0
280
     1
281
     0
  0
CLASS
  1
AMDTADMENUSTATE
  2
AmdtAdMenuState
  3
DesignerServices
 90
        0
280
     1
281
     0
  0
CLASS
  1
ADAPPL
  2
AcAdAppl
  3
DesignerServices
 90
        0
280
     1
281
     0
  0
CLASS
  1
DEPMGR
  2
AcAdDepMgr
  3
DesignerServices
 90
        0
280
     1
281
     0
  0
CLASS
  1
PARAMMGR
  2
AcAdParamMgr
  3
DesignerServices
 90
        0
280
     1
281
     0
  0
CLASS
  1
PARAMSCOPE
  2
AcAdParamScope
  3
DesignerServices
 90
        0
280
     1
281
     0
  0
CLASS
  1
NAMEDAPPL
  2
AcAdNamedAppl
  3
DesignerServices
 90
        0
280
     1
281
     0
  0
CLASS
  1
AMDTDMMENUSTATE
  2
AmdtDmMenuState
  3
AcMechDwgViewMgmt
 90
        0
280
     1
281
     0
  0
CLASS
  1
AMDTAMMENUSTATE
  2
AmdtAmMenuState
  3
DesignerAssemblies
 90
        0
280
     1
281
     0
  0
CLASS
  1
ACAMPROJECT
  2
AcAmProject
  3
DesignerAssemblies
 90
        0
280
     1
281
     0
  0
CLASS
  1
ACAMGRCOMPDEF
  2
AcAmGrCompDef
  3
DesignerAssemblies
 90
        0
280
     1
281
     0
  0
CLASS
  1
ACCMCONTEXT
  2
AcCmContext
  3
DesignerAssemblies
 90
        0
280
     1
281
     0
  0
CLASS
  1
ACAMCOMPDEF
  2
AcAmCompDef
  3
DesignerAssemblies
 90
        0
280
     1
281
     0
  0
CLASS
  1
ACAMCOMPDEFMGR
  2
AcAmCompDefMgr
  3
DesignerAssemblies
 90
        0
280
     1
281
     0
  0
CLASS
  1
AMCONTEXTMGR
  2
AcAmContextMgr
  3
DesignerAssemblies
 90
        0
280
     1
281
     0
  0
CLASS
  1
ACAMCONTEXTMODELER
  2
AcAmContextModeler
  3
DesignerAssemblies
 90
        0
280
     1
281
     0
  0
CLASS
  1
ACAMGTITLESTD
  2
AcAmgTitleStd
  3
"TITLEAPP"
 90
        0
280
     1
281
     0
  0
CLASS
  1
ACMDETAILSTANDARDJIS
  2
AmdtDetailSymStdJIS
  3
"Amdt_StdImp|Product Description: AutoCAD Mechanical 2004 DX|Company: Autodesk"
 90
        0
280
     1
281
     0
  0
CLASS
  1
ACMSECTIONSTANDARDJIS
  2
AmdtSectionSymStdJIS
  3
"Amdt_StdImp|Product Description: AutoCAD Mechanical 2004 DX|Company: Autodesk"
 90
        0
280
     1
281
     0
  0
CLASS
  1
ACMCENTERLINESTANDARDJIS
  2
AmdtCenterLineStdJIS
  3
"Amdt_StdImp|Product Description: AutoCAD Mechanical 2004 DX|Company: Autodesk"
 90
        0
280
     1
281
     0
  0
CLASS
  1
ACMTHREADLINESTANDARDJIS
  2
AmdtThreadLineStdJIS
  3
"Amdt_StdImp|Product Description: AutoCAD Mechanical 2004 DX|Company: Autodesk"
 90
        0
280
     1
281
     0
  0
CLASS
  1
ACMNOTESTANDARDJIS
  2
AmdtNoteStdJIS
  3
"Amdt_StdImp|Product Description: AutoCAD Mechanical 2004 DX|Company: Autodesk"
 90
        0
280
     1
281
     0
  0
CLASS
  1
AMDTNOTETEMPLATEDB
  2
AmdtNoteTemplateDB
  3
AMDT_STDIMP_MODULE_NAME
 90
        0
280
     1
281
     0
  0
CLASS
  1
ACAMGLAYSTD
  2
AcAmgLayStd
  3
"AcAmgLayStd|Product Description: AutoCAD Mechanical 2000|Company: Autodesk"
 90
        0
280
     1
281
     0
  0
CLASS
  1
ACAMGDIMSTD
  2
AcAmgDimStd
  3
"AcAmgDimStd|Product Description: AutoCAD Mechanical 2000|Company: Autodesk"
 90
        0
280
     1
281
     0
  0
CLASS
  1
ACAMGHOLECHARTSTDJIS
  2
AcAmgHoleChartStdJIS
  3
ACMSYMBB_MODULE_NAME
 90
        0
280
     1
281
     0
  0
CLASS
  1
CATALOGSTATE
  2
AcAmCatalogState
  3
DesignerAssemblies
 90
        0
280
     1
281
     0
  0
CLASS
  1
ACAMGRCOMPDEFSET
  2
AcAmGrCompDefSet
  3
DesignerAssemblies
 90
        0
280
     1
281
     0
  0
CLASS
  1
AMDTBROWSERDBTAB
  2
AmdtBrowserDbTab
  3
McadcomServices
 90
        0
280
     1
281
     0
  0
CLASS
  1
CBROWSERAPPOBJECT
  2
CBrowserAppObject
  3
McadcomServices
 90
        0
280
     1
281
     0
  0
CLASS
  1
DM_PLACEHOLDER
  2
AcDmSelsetPlaceholder
  3
AcMechDwgViewMgmt
 90
        0
280
     1
281
     0
  0
CLASS
  1
SORTENTSTABLE
  2
AcDbSortentsTable
  3
ObjectDBX Classes
 90
        0
280
     0
281
     0
  0
ENDSEC
  0
SECTION
  2
TABLES
  0
TABLE
  2
VPORT
  5
8
330
0
100
AcDbSymbolTable
 70
     9
  0
VPORT
  5
406C
330
8
100
AcDbSymbolTableRecord
100
AcDbViewportTableRecord
  2
*Active
 70
     0
 10
0.0
 20
0.0
 11
1.0
 21
1.0
 12
249.7159465170514
 22
271.2076591126231
 13
0.0
 23
0.0
 14
2.5
 24
2.5
 15
10.0
 25
10.0
 16
0.0
 26
0.0
 36
1.0
 17
0.0
 27
0.0
 37
0.0
 40
94.29158500608266
 41
1.697058823529412
 42
50.0
 43
0.0
 44
0.0
 50
0.0
 51
0.0
 71
     0
 72
  1000
 73
     1
 74
     2
 75
     0
 76
     0
 77
     0
 78
     0
281
     0
 65
     1
110
0.0
120
0.0
130
0.0
111
1.0
121
0.0
131
0.0
112
0.0
122
1.0
132
0.0
 79
     0
146
0.0
  0
ENDTAB
  0
TABLE
  2
LTYPE
  5
5
330
0
100
AcDbSymbolTable
 70
    13
  0
LTYPE
  5
14
330
5
100
AcDbSymbolTableRecord
100
AcDbLinetypeTableRecord
  2
ByBlock
 70
     0
  3

 72
    65
 73
     0
 40
0.0
  0
LTYPE
  5
15
330
5
100
AcDbSymbolTableRecord
100
AcDbLinetypeTableRecord
  2
ByLayer
 70
     0
  3

 72
    65
 73
     0
 40
0.0
  0
LTYPE
  5
16
330
5
100
AcDbSymbolTableRecord
100
AcDbLinetypeTableRecord
  2
Continuous
 70
     0
  3
Solid line
 72
    65
 73
     0
 40
0.0
  0
LTYPE
  5
5E
330
5
100
AcDbSymbolTableRecord
100
AcDbLinetypeTableRecord
  2
AM_ISO02W050
 70
     0
  3
__ __ __ __ __ __ __ __ __ __ __ __ __ __ __
 72
    65
 73
     2
 40
7.5
 49
6.0
 74
     0
 49
-1.5
 74
     0
  0
LTYPE
  5
5F
330
5
100
AcDbSymbolTableRecord
100
AcDbLinetypeTableRecord
  2
AM_ISO08W050
 70
     0
  3
____ . ____ . ____ . ____ . ____ . ____ . ____
 72
    65
 73
     4
 40
18.0
 49
12.0
 74
     0
 49
-1.5
 74
     0
 49
3.0
 74
     0
 49
-1.5
 74
     0
  0
LTYPE
  5
60
330
5
100
AcDbSymbolTableRecord
100
AcDbLinetypeTableRecord
  2
AM_ISO09W050
 70
     0
  3
_____ . . _____ . . _____ . . ____ .. ____
 72
    65
 73
     6
 40
22.5
 49
12.0
 74
     0
 49
-1.5
 74
     0
 49
3.0
 74
     0
 49
-1.5
 74
     0
 49
3.0
 74
     0
 49
-1.5
 74
     0
  0
LTYPE
  5
61
330
5
100
AcDbSymbolTableRecord
100
AcDbLinetypeTableRecord
  2
Amconstr
 70
     0
  3
_______________________
 72
    65
 73
     2
 40
9999.0
 49
9999.0
 74
     0
 49
0.0
 74
     0
  0
LTYPE
  5
62
330
5
100
AcDbSymbolTableRecord
100
AcDbLinetypeTableRecord
  2
AM_ISO02W050x2
 70
     0
  3
 _ _ _ _ _ _ _ _ _ _ _ _
 72
    65
 73
     2
 40
3.75
 49
3.0
 74
     0
 49
-0.75
 74
     0
  0
LTYPE
  5
63
330
5
100
AcDbSymbolTableRecord
100
AcDbLinetypeTableRecord
  2
AM_ISO08W050x2
 70
     0
  3
__ . __ . __ . __ . __ . __
 72
    65
 73
     4
 40
9.0
 49
6.0
 74
     0
 49
-0.75
 74
     0
 49
1.5
 74
     0
 49
-0.75
 74
     0
  0
LTYPE
  5
66
330
5
100
AcDbSymbolTableRecord
100
AcDbLinetypeTableRecord
  2
Amzigzag
 70
     0
  3
/\/-/\/-/\/-/\/-/\/-/\/
 72
    65
 73
     2
 40
11.0001
 49
0.0001
 74
     4
 75
   135
340
65
 46
0.04
 50
0.0
 44
0.0
 45
0.0
 49
-11.0
 74
     0
  0
LTYPE
  5
120
330
5
100
AcDbSymbolTableRecord
100
AcDbLinetypeTableRecord
  2
CENTER
 70
     0
  3
____ _ ____ _ ____ _ ____ _ ____ _ ____ _ ____
 72
    65
 73
     4
 40
17.5
 49
13.0
 74
     0
 49
-1.5
 74
     0
 49
1.5
 74
     0
 49
-1.5
 74
     0
  0
LTYPE
  5
E84
330
5
100
AcDbSymbolTableRecord
100
AcDbLinetypeTableRecord
  2
ACJISTGB
 70
     0
  3
__ . . __ . .
 72
    65
 73
     6
 40
9.0
 49
4.0
 74
     0
 49
-1.0
 74
     0
 49
1.0
 74
     0
 49
-1.0
 74
     0
 49
1.0
 74
     0
 49
-1.0
 74
     0
  0
LTYPE
  5
E85
330
5
100
AcDbSymbolTableRecord
100
AcDbLinetypeTableRecord
  2
ACJISTGL
 70
     0
  3
_ _ _ _ _
 72
    65
 73
     2
 40
3.0
 49
2.0
 74
     0
 49
-1.0
 74
     0
  0
LTYPE
  5
3C73
330
5
100
AcDbSymbolTableRecord
100
AcDbLinetypeTableRecord
  2
HIDDEN
 70
     0
  3
Hidden __ __ __ __ __ __ __ __ __ __ __ __ __ _
 72
    65
 73
     2
 40
9.524999999999999
 49
6.35
 74
     0
 49
-3.175
 74
     0
  0
LTYPE
  5
3C74
330
5
100
AcDbSymbolTableRecord
100
AcDbLinetypeTableRecord
  2
PHANTOM2
 70
     0
  3
Phantom (.5x) ___ _ _ ___ _ _ ___ _ _ ___ _ _
 72
    65
 73
     6
 40
31.75
 49
15.875
 74
     0
 49
-3.175
 74
     0
 49
3.175
 74
     0
 49
-3.175
 74
     0
 49
3.175
 74
     0
 49
-3.175
 74
     0
  0
ENDTAB
  0
TABLE
  2
LAYER
  5
2
102
{ACAD_XDICTIONARY
360
3D51
102
}
330
0
100
AcDbSymbolTable
 70
     6
  0
LAYER
  5
10
330
2
100
AcDbSymbolTableRecord
100
AcDbLayerTableRecord
  2
0
 70
     0
 62
     7
  6
Continuous
370
    -3
390
F
  0
LAYER
  5
12C
330
2
100
AcDbSymbolTableRecord
100
AcDbLayerTableRecord
  2
Defpoints
 70
     0
 62
     7
  6
Continuous
290
     0
370
    -3
390
F
  0
LAYER
  5
631
330
2
100
AcDbSymbolTableRecord
100
AcDbLayerTableRecord
  2
AM_7
 70
     0
 62
     4
  6
AM_ISO08W050
370
    20
390
F
  0
LAYER
  5
771
330
2
100
AcDbSymbolTableRecord
100
AcDbLayerTableRecord
  2
AM_5
 70
     0
 62
     3
  6
Continuous
370
    20
390
F
  0
LAYER
  5
B7D
330
2
100
AcDbSymbolTableRecord
100
AcDbLayerTableRecord
  2
AM_0
 70
     0
 62
     7
  6
Continuous
370
    40
390
F
  0
LAYER
  5
E88
330
2
100
AcDbSymbolTableRecord
100
AcDbLayerTableRecord
  2
AM_6
 70
     0
 62
     2
  6
Continuous
370
    40
390
F
  0
ENDTAB
  0
TABLE
  2
STYLE
  5
3
330
0
100
AcDbSymbolTable
 70
     5
  0
STYLE
  5
11
330
3
100
AcDbSymbolTableRecord
100
AcDbTextStyleTableRecord
  2
STANDARD
 70
     0
 40
0.0
 41
1.0
 50
0.0
 71
     0
 42
2.0
  3
ISOCP.SHX
  4
EXTFONT.SHX
  0
STYLE
  5
65
330
3
100
AcDbSymbolTableRecord
100
AcDbTextStyleTableRecord
  2

 70
     1
 40
0.0
 41
1.0
 50
0.0
 71
     0
 42
2.5
  3
ltypeshp.shx
  4

  0
STYLE
  5
E7C
330
3
100
AcDbSymbolTableRecord
100
AcDbTextStyleTableRecord
  2
ACJISTS
 70
     0
 40
1.0
 41
1.0
 50
0.0
 71
     0
 42
2.5
  3
isocp.shx
  4
bigfont.shx
  0
STYLE
  5
E83
330
3
100
AcDbSymbolTableRecord
100
AcDbTextStyleTableRecord
  2
ACJISGDT
 70
     0
 40
0.0
 41
1.0
 50
0.0
 71
     0
 42
2.5
  3
amgdt.shx
  4

  0
STYLE
  5
3F4A
330
3
100
AcDbSymbolTableRecord
100
AcDbTextStyleTableRecord
  2
ACISOTS
 70
     0
 40
1.0
 41
1.0
 50
0.0
 71
     0
 42
1.0
  3
isocp.shx
  4
extfont.shx
  0
ENDTAB
  0
TABLE
  2
VIEW
  5
6
330
0
100
AcDbSymbolTable
 70
     6
  0
VIEW
  5
500
330
6
100
AcDbSymbolTableRecord
100
AcDbViewTableRecord
  2
AM_VIEW1
 70
     0
 40
148.5
 10
210.8005303316944
 20
271.5656753028679
 41
272.4426070038911
 11
0.0
 21
0.0
 31
1.0
 12
0.0
 22
0.0
 32
0.0
 42
50.0
 43
0.0
 44
0.0
 50
0.0
 71
     0
281
     0
 72
     0
  0
VIEW
  5
501
330
6
100
AcDbSymbolTableRecord
100
AcDbViewTableRecord
  2
AM_VIEW2
 70
     0
 40
148.5
 10
358.3579233278034
 20
271.5656753028679
 41
272.4426070038911
 11
0.0
 21
0.0
 31
1.0
 12
0.0
 22
0.0
 32
0.0
 42
50.0
 43
0.0
 44
0.0
 50
0.0
 71
     0
281
     0
 72
     0
  0
VIEW
  5
502
330
6
100
AcDbSymbolTableRecord
100
AcDbViewTableRecord
  2
AM_VIEW3
 70
     0
 40
148.5
 10
210.8005303316944
 20
123.0656753028679
 41
272.4426070038911
 11
0.0
 21
0.0
 31
1.0
 12
0.0
 22
0.0
 32
0.0
 42
50.0
 43
0.0
 44
0.0
 50
0.0
 71
     0
281
     0
 72
     0
  0
VIEW
  5
503
330
6
100
AcDbSymbolTableRecord
100
AcDbViewTableRecord
  2
AM_VIEW4
 70
     0
 40
148.5
 10
358.3579233278034
 20
123.0656753028679
 41
272.4426070038911
 11
0.0
 21
0.0
 31
1.0
 12
0.0
 22
0.0
 32
0.0
 42
50.0
 43
0.0
 44
0.0
 50
0.0
 71
     0
281
     0
 72
     0
  0
VIEW
  5
504
330
6
100
AcDbSymbolTableRecord
100
AcDbViewTableRecord
  2
AM_VIEW5
 70
     0
 40
148.5
 10
284.5792268297489
 20
197.3156753028679
 41
272.442607003891
 11
0.0
 21
0.0
 31
1.0
 12
0.0
 22
0.0
 32
0.0
 42
50.0
 43
0.0
 44
0.0
 50
0.0
 71
     0
281
     0
 72
     0
  0
VIEW
  5
505
330
6
100
AcDbSymbolTableRecord
100
AcDbViewTableRecord
  2
AM_VIEW6
 70
     0
 40
296.99703
 10
284.5792268297489
 20
197.3156753028679
 41
544.879765155642
 11
0.0
 21
0.0
 31
1.0
 12
0.0
 22
0.0
 32
0.0
 42
50.0
 43
0.0
 44
0.0
 50
0.0
 71
     0
281
     0
 72
     0
  0
ENDTAB
  0
TABLE
  2
UCS
  5
7
330
0
100
AcDbSymbolTable
 70
     0
  0
ENDTAB
  0
TABLE
  2
APPID
  5
9
330
0
100
AcDbSymbolTable
 70
    33
  0
APPID
  5
12
330
9
100
AcDbSymbolTableRecord
100
AcDbRegAppTableRecord
  2
ACAD
 70
     0
  0
APPID
  5
46
330
9
100
AcDbSymbolTableRecord
100
AcDbRegAppTableRecord
  2
MCAD_NO_VIS
 70
     0
  0
APPID
  5
47
330
9
100
AcDbSymbolTableRecord
100
AcDbRegAppTableRecord
  2
ACAD_TEMP_GRAPHIC
 70
     0
  0
APPID
  5
136
330
9
100
AcDbSymbolTableRecord
100
AcDbRegAppTableRecord
  2
GENIUS_GENCFG_13
 70
     0
  0
APPID
  5
137
330
9
100
AcDbSymbolTableRecord
100
AcDbRegAppTableRecord
  2
GENIUS_GENCFG0_13
 70
     0
  0
APPID
  5
138
330
9
100
AcDbSymbolTableRecord
100
AcDbRegAppTableRecord
  2
GENIUS_GENCFG1_13
 70
     0
  0
APPID
  5
139
330
9
100
AcDbSymbolTableRecord
100
AcDbRegAppTableRecord
  2
GENIUS_GENCFG2_13
 70
     0
  0
APPID
  5
13A
330
9
100
AcDbSymbolTableRecord
100
AcDbRegAppTableRecord
  2
GENIUS_GENCFG3_13
 70
     0
  0
APPID
  5
13B
330
9
100
AcDbSymbolTableRecord
100
AcDbRegAppTableRecord
  2
GENIUS_GENCFG4_13
 70
     0
  0
APPID
  5
13C
330
9
100
AcDbSymbolTableRecord
100
AcDbRegAppTableRecord
  2
GENIUS_GENDTOL_13
 70
     0
  0
APPID
  5
546
330
9
100
AcDbSymbolTableRecord
100
AcDbRegAppTableRecord
  2
GENIUS_GENBLLY_14
 70
     0
  0
APPID
  5
547
330
9
100
AcDbSymbolTableRecord
100
AcDbRegAppTableRecord
  2
GENIUS_GENODEF_13
 70
     0
  0
APPID
  5
548
330
9
100
AcDbSymbolTableRecord
100
AcDbRegAppTableRecord
  2
GENIUS_GENOBJ-N-CEN_13
 70
     0
  0
APPID
  5
554
330
9
100
AcDbSymbolTableRecord
100
AcDbRegAppTableRecord
  2
GENIUS_GENTRA_14
 70
     0
  0
APPID
  5
55E
330
9
100
AcDbSymbolTableRecord
100
AcDbRegAppTableRecord
  2
GENIUS_GENOBJ-N-TIT_13
 70
     0
  0
APPID
  5
55F
330
9
100
AcDbSymbolTableRecord
100
AcDbRegAppTableRecord
  2
GENIUS_GENTITLE_13
 70
     0
  0
APPID
  5
560
330
9
100
AcDbSymbolTableRecord
100
AcDbRegAppTableRecord
  2
GENIUS_GENOENT_13
 70
     0
  0
APPID
  5
561
330
9
100
AcDbSymbolTableRecord
100
AcDbRegAppTableRecord
  2
GENIUS_GENOREF_13
 70
     0
  0
APPID
  5
562
330
9
100
AcDbSymbolTableRecord
100
AcDbRegAppTableRecord
  2
GENIUS_GENOLIS_13
 70
     0
  0
APPID
  5
563
330
9
100
AcDbSymbolTableRecord
100
AcDbRegAppTableRecord
  2
GENIUS_GENZVEED_13
 70
     0
  0
APPID
  5
564
330
9
100
AcDbSymbolTableRecord
100
AcDbRegAppTableRecord
  2
GENIUS_GENSCREG_15
 70
     0
  0
APPID
  5
565
330
9
100
AcDbSymbolTableRecord
100
AcDbRegAppTableRecord
  2
GENIUS_GENOBJ-N-SDF_13
 70
     0
  0
APPID
  5
1D47
330
9
100
AcDbSymbolTableRecord
100
AcDbRegAppTableRecord
  2
GENIUS_GENOBJ-N-CRS_13
 70
     0
  0
APPID
  5
2D2D
330
9
100
AcDbSymbolTableRecord
100
AcDbRegAppTableRecord
  2
GENIUS_GENOBJ-N-RSBK_13
 70
     0
  0
APPID
  5
2D2E
330
9
100
AcDbSymbolTableRecord
100
AcDbRegAppTableRecord
  2
GENIUS_GENOBJ-N-LIB_13
 70
     0
  0
APPID
  5
2D2F
330
9
100
AcDbSymbolTableRecord
100
AcDbRegAppTableRecord
  2
GENIUS_GENSCALE_13
 70
     0
  0
APPID
  5
2D30
330
9
100
AcDbSymbolTableRecord
100
AcDbRegAppTableRecord
  2
GENIUS_GENOBJ-N-HTC_13
 70
     0
  0
APPID
  5
2D31
330
9
100
AcDbSymbolTableRecord
100
AcDbRegAppTableRecord
  2
GENIUS_GENHATCH_13
 70
     0
  0
APPID
  5
3C76
330
9
100
AcDbSymbolTableRecord
100
AcDbRegAppTableRecord
  2
AD_DRAW
 70
     0
  0
APPID
  5
3C79
330
9
100
AcDbSymbolTableRecord
100
AcDbRegAppTableRecord
  2
ACATTRIBSERVICES
 70
     0
  0
APPID
  5
3C97
330
9
100
AcDbSymbolTableRecord
100
AcDbRegAppTableRecord
  2
DESIGNERASSEMBLIES
 70
     0
  0
APPID
  5
3CAA
330
9
100
AcDbSymbolTableRecord
100
AcDbRegAppTableRecord
  2
ACADM_DIM_EDIT
 70
     0
  0
APPID
  5
3CAB
330
9
100
AcDbSymbolTableRecord
100
AcDbRegAppTableRecord
  2
AMDT_DM_ADJ
 70
     0
  0
ENDTAB
  0
TABLE
  2
DIMSTYLE
  5
A
330
0
100
AcDbSymbolTable
 70
     8
100
AcDbDimStyleTable
  0
DIMSTYLE
105
B5
102
{ACAD_REACTORS
330
EC6
330
36F6
330
3D81
330
3D89
330
3D8A
330
3D8B
102
}
330
A
100
AcDbSymbolTableRecord
100
AcDbDimStyleTableRecord
  2
AM_JIS
 70
     0
  4
"
 41
2.5
 42
0.0
 43
10.0
 44
1.0
 47
0.1
 48
0.1
 73
     0
 74
     0
 77
     3
 78
     1
 79
     2
140
3.699999999999999
141
0.0
143
0.0393701
146
0.71
147
1.0
172
     1
176
     3
177
     3
178
     2
179
     1
271
     2
272
     2
275
     1
283
     0
340
11
341
B6
342
B6
371
    -1
372
    -1
  0
DIMSTYLE
105
BC
330
A
100
AcDbSymbolTableRecord
100
AcDbDimStyleTableRecord
  2
AM_JIS$3
 70
     0
  4
"
 41
2.5
 42
1.0
 43
10.0
 44
1.0
 47
0.1
 48
0.1
 73
     0
 77
     3
 78
     8
 79
     2
140
3.5
141
0.0
143
0.0393701
146
0.71
147
1.5
176
   256
177
   256
178
     2
271
     2
272
     3
274
     4
288
     1
289
     0
340
11
341
B6
342
B6
343
B6
344
B6
371
    -1
372
    -1
  0
DIMSTYLE
105
BD
330
A
100
AcDbSymbolTableRecord
100
AcDbDimStyleTableRecord
  2
AM_JIS$4
 70
     0
  4
"
 41
2.5
 42
1.0
 43
10.0
 44
1.0
 47
0.1
 48
0.1
 73
     0
 77
     3
 78
     8
 79
     2
140
3.5
141
0.0
143
0.0393701
146
0.71
147
1.5
176
   256
177
   256
178
     2
271
     2
272
     3
274
     4
288
     1
289
     0
340
11
341
B6
342
B6
343
B6
344
B6
371
    -1
372
    -1
  0
DIMSTYLE
105
BE
330
A
100
AcDbSymbolTableRecord
100
AcDbDimStyleTableRecord
  2
AM_JIS$6
 70
     0
  4
"
 41
2.5
 42
1.0
 43
10.0
 44
1.0
 47
0.1
 48
0.1
 73
     0
 74
     0
 78
     8
 79
     2
140
3.5
141
0.0
143
0.0393701
146
0.71
147
1.5
176
   256
177
   256
178
     2
271
     2
272
     3
274
     4
283
     0
340
11
341
B6
342
B6
343
B6
344
B6
371
    -1
372
    -1
  0
DIMSTYLE
105
BF
330
A
100
AcDbSymbolTableRecord
100
AcDbDimStyleTableRecord
  2
AM_JIS$7
 70
     0
  4
"
 41
2.5
 42
1.0
 43
10.0
 44
1.0
 47
0.1
 48
0.1
 73
     0
 74
     0
 77
     3
 78
     8
 79
     2
140
5.0
141
0.0
143
0.0393701
146
0.71
147
1.5
176
   256
177
   256
178
     2
271
     2
272
     3
274
     4
340
11
341
B6
342
B6
343
B6
344
B6
371
    -1
372
    -1
  0
DIMSTYLE
105
C0
330
A
100
AcDbSymbolTableRecord
100
AcDbDimStyleTableRecord
  2
AM_JIS$SF
 70
     0
  4
"
 41
2.5
 42
1.0
 43
10.0
 44
1.0
 47
0.1
 48
0.1
 73
     0
 74
     0
 75
     1
 76
     1
 77
     3
 78
     8
 79
     2
140
3.5
141
0.0
143
0.0393701
146
0.71
147
1.5
176
   256
177
   256
178
     2
271
     2
272
     3
274
     4
340
11
341
B6
342
B6
343
B6
344
B6
371
    -1
372
    -1
  0
DIMSTYLE
105
C5
330
A
100
AcDbSymbolTableRecord
100
AcDbDimStyleTableRecord
  2
AM_JIS$SH
 70
     0
  4
"
 41
2.5
 42
1.0
 43
10.0
 44
1.0
 47
0.1
 48
0.1
 73
     0
 74
     0
 75
     1
 76
     1
 77
     3
 78
     8
 79
     2
140
3.5
141
0.0
143
0.0393701
144
2.0
146
0.71
147
1.5
173
     1
176
   256
177
   256
178
     2
271
     2
272
     3
274
     4
340
11
341
B6
342
B6
343
C1
344
B6
371
    -1
372
    -1
  0
DIMSTYLE
105
12E
330
A
100
AcDbSymbolTableRecord
100
AcDbDimStyleTableRecord
  2
STANDARD
 70
     0
340
11
  0
ENDTAB
  0
TABLE
  2
BLOCK_RECORD
  5
1
330
0
100
AcDbSymbolTable
 70
    10
  0
BLOCK_RECORD
  5
1F
102
{ACAD_XDICTIONARY
360
68
102
}
330
1
100
AcDbSymbolTableRecord
100
AcDbBlockTableRecord
  2
*Model_Space
340
22
  0
BLOCK_RECORD
  5
23
330
1
100
AcDbSymbolTableRecord
100
AcDbBlockTableRecord
  2
*Paper_Space
340
26
  0
BLOCK_RECORD
  5
1B
330
1
100
AcDbSymbolTableRecord
100
AcDbBlockTableRecord
  2
*Paper_Space0
340
1E
  0
BLOCK_RECORD
  5
B6
330
1
100
AcDbSymbolTableRecord
100
AcDbBlockTableRecord
  2
_Open30
340
0
102
{BLKREFS
331
3F3E
331
3F3F
331
3FCC
331
3FCD
331
3EC5
331
3EC6
331
3E9C
331
3E9D
331
3E10
331
3E11
331
3E19
331
3E1A
102
}
  0
BLOCK_RECORD
  5
C1
330
1
100
AcDbSymbolTableRecord
100
AcDbBlockTableRecord
  2
GENAXEH
340
0
  0
BLOCK_RECORD
  5
EC7
330
1
100
AcDbSymbolTableRecord
100
AcDbBlockTableRecord
  2
*D3
340
0
  0
BLOCK_RECORD
  5
36F7
330
1
100
AcDbSymbolTableRecord
100
AcDbBlockTableRecord
  2
*D4
340
0
  0
BLOCK_RECORD
  5
3C8E
330
1
100
AcDbSymbolTableRecord
100
AcDbBlockTableRecord
  2
*U5
340
0
  0
BLOCK_RECORD
  5
3D8C
330
1
100
AcDbSymbolTableRecord
100
AcDbBlockTableRecord
  2
*D6
340
0
  0
BLOCK_RECORD
  5
3D98
330
1
100
AcDbSymbolTableRecord
100
AcDbBlockTableRecord
  2
*D7
340
0
  0
BLOCK_RECORD
  5
3DA4
330
1
100
AcDbSymbolTableRecord
100
AcDbBlockTableRecord
  2
*D8
340
0
  0
BLOCK_RECORD
  5
3DAE
330
1
100
AcDbSymbolTableRecord
100
AcDbBlockTableRecord
  2
*D9
340
0
  0
ENDTAB
  0
ENDSEC
  0
SECTION
  2
BLOCKS
  0
BLOCK
  5
20
330
1F
100
AcDbEntity
  8
0
100
AcDbBlockBegin
  2
*Model_Space
 70
     0
 71
     0
 10
0.0
 20
0.0
 30
0.0
  3
*Model_Space
  1

  0
ENDBLK
  5
21
330
1F
100
AcDbEntity
  8
0
100
AcDbBlockEnd
  0
BLOCK
  5
24
330
23
100
AcDbEntity
 67
     1
  8
0
100
AcDbBlockBegin
  2
*Paper_Space
 70
     0
 71
     0
 10
0.0
 20
0.0
 30
0.0
  3
*Paper_Space
  1

  0
ENDBLK
  5
25
330
23
100
AcDbEntity
 67
     1
  8
0
100
AcDbBlockEnd
  0
BLOCK
  5
1C
330
1B
100
AcDbEntity
  8
0
100
AcDbBlockBegin
  2
*Paper_Space0
 70
     0
 71
     0
 10
0.0
 20
0.0
 30
0.0
  3
*Paper_Space0
  1

  0
VIEWPORT
  5
7D
330
1B
100
AcDbEntity
  8
0
100
AcDbViewport
 10
5.249999639556163
 20
3.999999883606678
 30
0.0
 40
15.37157224495366
 41
8.992999745766948
 68
     1
 69
     1
 12
5.82094427781273
 22
3.999999883606678
 13
0.0
 23
0.0
 14
10.0
 24
10.0
 15
10.0
 25
10.0
 16
0.0
 26
0.0
 36
1.0
 17
0.0
 27
0.0
 37
0.0
 42
50.0
 43
0.0
 44
0.0
 45
8.992999745766948
 50
0.0
 51
0.0
 72
   100
 90
    32800
  1

281
     0
 71
     1
 74
     0
110
0.0
120
0.0
130
0.0
111
1.0
121
0.0
131
0.0
112
0.0
122
1.0
132
0.0
 79
     0
146
0.0
  0
ENDBLK
  5
1D
330
1B
100
AcDbEntity
  8
0
100
AcDbBlockEnd
  0
BLOCK
  5
BA
330
B6
100
AcDbEntity
  8
0
100
AcDbBlockBegin
  2
_Open30
 70
     0
 71
     0
 10
0.0
 20
0.0
 30
0.0
  3
_Open30
  1

  0
LINE
  5
B7
330
B6
100
AcDbEntity
  8
0
 62
     0
370
    -2
100
AcDbLine
 10
-1.0
 20
0.26794919
 30
0.0
 11
0.0
 21
0.0
 31
0.0
  0
LINE
  5
B8
330
B6
100
AcDbEntity
  8
0
 62
     0
370
    -2
100
AcDbLine
 10
0.0
 20
0.0
 30
0.0
 11
-1.0
 21
-0.26794919
 31
0.0
  0
LINE
  5
B9
330
B6
100
AcDbEntity
  8
0
 62
     0
370
    -2
100
AcDbLine
 10
0.0
 20
0.0
 30
0.0
 11
-1.0
 21
0.0
 31
0.0
  0
ENDBLK
  5
BB
330
B6
100
AcDbEntity
  8
0
100
AcDbBlockEnd
  0
BLOCK
  5
C3
330
C1
100
AcDbEntity
  8
0
100
AcDbBlockBegin
  2
GENAXEH
 70
     0
 71
     0
 10
0.0
 20
0.0
 30
0.0
  3
GENAXEH
  1

  0
LINE
  5
C2
330
C1
100
AcDbEntity
  8
0
100
AcDbLine
 10
-1.0
 20
0.0
 30
0.0
 11
1.0
 21
0.0
 31
0.0
  0
ENDBLK
  5
C4
330
C1
100
AcDbEntity
  8
0
100
AcDbBlockEnd
  0
BLOCK
  5
ED1
330
EC7
100
AcDbEntity
  8
0
100
AcDbBlockBegin
  2
*D3
 70
     1
 71
     0
 10
0.0
 20
0.0
 30
0.0
  3
*D3
  1

  0
LINE
  5
3F3B
330
EC7
100
AcDbEntity
  8
AM_5
 62
     3
100
AcDbLine
 10
220.8071462360188
 20
266.3363698414032
 30
0.0
 11
220.8071462360188
 21
248.9031119991288
 31
0.0
  0
LINE
  5
3F3C
330
EC7
100
AcDbEntity
  8
AM_5
 62
     3
100
AcDbLine
 10
329.3071462360188
 20
274.5096681253901
 30
0.0
 11
329.3071462360188
 21
248.9031119991288
 31
0.0
  0
LINE
  5
3F3D
330
EC7
100
AcDbEntity
  8
AM_5
 62
     3
100
AcDbLine
 10
223.3071462360188
 20
249.9031119991288
 30
0.0
 11
326.8071462360188
 21
249.9031119991288
 31
0.0
  0
INSERT
  5
3F3E
330
EC7
100
AcDbEntity
  8
AM_5
 62
     3
100
AcDbBlockReference
  2
_Open30
 10
220.8071462360188
 20
249.9031119991288
 30
0.0
 41
2.5
 42
2.5
 43
2.5
 50
180.0
  0
INSERT
  5
3F3F
330
EC7
100
AcDbEntity
  8
AM_5
 62
     3
100
AcDbBlockReference
  2
_Open30
 10
329.3071462360188
 20
249.9031119991288
 30
0.0
 41
2.5
 42
2.5
 43
2.5
  0
MTEXT
  5
3F40
330
EC7
100
AcDbEntity
  8
AM_5
 62
     2
100
AcDbMText
 10
274.0389307212356
 20
252.7531119991288
 30
0.0
 40
3.699999999999999
 41
0.0
 71
     5
 72
     1
  1
108.5
 73
     1
 44
1.0
  0
POINT
  5
3F41
330
EC7
100
AcDbEntity
  8
Defpoints
 62
     0
100
AcDbPoint
 10
220.8071462360188
 20
266.3363698414032
 30
0.0
  0
POINT
  5
3F42
330
EC7
100
AcDbEntity
  8
Defpoints
 62
     0
100
AcDbPoint
 10
329.3071462360188
 20
274.5096681253901
 30
0.0
  0
POINT
  5
3F43
330
EC7
100
AcDbEntity
  8
Defpoints
 62
     0
100
AcDbPoint
 10
329.3071462360188
 20
249.9031119991288
 30
0.0
  0
ENDBLK
  5
ED2
330
EC7
100
AcDbEntity
  8
0
100
AcDbBlockEnd
  0
BLOCK
  5
3701
330
36F7
100
AcDbEntity
  8
0
100
AcDbBlockBegin
  2
*D4
 70
     1
 71
     0
 10
0.0
 20
0.0
 30
0.0
  3
*D4
  1

  0
LINE
  5
3FC9
330
36F7
100
AcDbEntity
  8
AM_5
 62
     3
100
AcDbLine
 10
219.3071462360188
 20
286.7363698414031
 30
0.0
 11
219.3071462360188
 21
303.4689477704261
 31
0.0
  0
LINE
  5
3FCA
330
36F7
100
AcDbEntity
  8
AM_5
 62
     3
100
AcDbLine
 10
329.3071462360188
 20
289.6863698414032
 30
0.0
 11
329.3071462360188
 21
303.4689477704261
 31
0.0
  0
LINE
  5
3FCB
330
36F7
100
AcDbEntity
  8
AM_5
 62
     3
100
AcDbLine
 10
221.8071462360188
 20
302.4689477704261
 30
0.0
 11
326.8071462360188
 21
302.4689477704261
 31
0.0
  0
INSERT
  5
3FCC
330
36F7
100
AcDbEntity
  8
AM_5
 62
     3
100
AcDbBlockReference
  2
_Open30
 10
219.3071462360188
 20
302.4689477704261
 30
0.0
 41
2.5
 42
2.5
 43
2.5
 50
180.0
  0
INSERT
  5
3FCD
330
36F7
100
AcDbEntity
  8
AM_5
 62
     3
100
AcDbBlockReference
  2
_Open30
 10
329.3071462360188
 20
302.4689477704261
 30
0.0
 41
2.5
 42
2.5
 43
2.5
  0
MTEXT
  5
3FCE
330
36F7
100
AcDbEntity
  8
AM_5
 62
     2
370
    13
100
AcDbMText
 10
271.9679479228867
 20
305.3189477704261
 30
0.0
 40
3.699999999999999
 41
0.0
 71
     5
 72
     1
  1
110
 73
     1
 44
1.0
  0
POINT
  5
3FCF
330
36F7
100
AcDbEntity
  8
Defpoints
 62
     0
100
AcDbPoint
 10
219.3071462360188
 20
286.7363698414031
 30
0.0
  0
POINT
  5
3FD0
330
36F7
100
AcDbEntity
  8
Defpoints
 62
     0
100
AcDbPoint
 10
329.3071462360188
 20
289.6863698414032
 30
0.0
  0
POINT
  5
3FD1
330
36F7
100
AcDbEntity
  8
Defpoints
 62
     0
100
AcDbPoint
 10
329.3071462360188
 20
302.4689477704261
 30
0.0
  0
ENDBLK
  5
3702
330
36F7
100
AcDbEntity
  8
0
100
AcDbBlockEnd
  0
BLOCK
  5
3C8F
330
3C8E
100
AcDbEntity
  8
0
100
AcDbBlockBegin
  2
*U5
 70
     1
 71
     0
 10
0.0
 20
0.0
 30
0.0
  3
*U5
  1

  0
ENDBLK
  5
3C90
330
3C8E
100
AcDbEntity
  8
0
100
AcDbBlockEnd
  0
BLOCK
  5
3DE4
330
3D8C
100
AcDbEntity
  8
0
100
AcDbBlockBegin
  2
*D6
 70
     1
 71
     0
 10
0.0
 20
0.0
 30
0.0
  3
*D6
  1

  0
LINE
  5
3EC0
330
3D8C
100
AcDbEntity
  8
AM_5
 62
     3
100
AcDbLine
 10
183.9491383017791
 20
290.1102790776762
 30
0.0
 11
183.9491383017791
 21
300.1196772741006
 31
0.0
  0
LINE
  5
3EC1
330
3D8C
100
AcDbEntity
  8
AM_5
 62
     3
100
AcDbLine
 10
188.2491383017791
 20
290.1102790776762
 30
0.0
 11
188.2491383017791
 21
300.1196772741006
 31
0.0
  0
LINE
  5
3EC2
330
3D8C
100
AcDbEntity
  8
AM_5
 62
     3
100
AcDbLine
 10
190.7491383017791
 20
299.1196772741006
 30
0.0
 11
193.2491383017791
 21
299.1196772741006
 31
0.0
  0
LINE
  5
3EC3
330
3D8C
100
AcDbEntity
  8
AM_5
 62
     3
100
AcDbLine
 10
181.4491383017791
 20
299.1196772741006
 30
0.0
 11
170.135879283701
 21
299.1196772741006
 31
0.0
  0
LINE
  5
3EC4
330
3D8C
100
AcDbEntity
  8
AM_5
 62
     3
100
AcDbLine
 10
188.2491383017791
 20
299.1196772741006
 30
0.0
 11
183.9491383017791
 21
299.1196772741006
 31
0.0
  0
INSERT
  5
3EC5
330
3D8C
100
AcDbEntity
  8
AM_5
 62
     3
100
AcDbBlockReference
  2
_Open30
 10
188.2491383017791
 20
299.1196772741006
 30
0.0
 41
2.5
 42
2.5
 43
2.5
 50
180.0
  0
INSERT
  5
3EC6
330
3D8C
100
AcDbEntity
  8
AM_5
 62
     3
100
AcDbBlockReference
  2
_Open30
 10
183.9491383017791
 20
299.1196772741006
 30
0.0
 41
2.5
 42
2.5
 43
2.5
  0
MTEXT
  5
3EC7
330
3D8C
100
AcDbEntity
  8
AM_5
 62
     2
370
    13
100
AcDbMText
 10
173.98750879274
 20
301.9696772741006
 30
0.0
 40
3.699999999999999
 41
0.0
 71
     5
 72
     1
  1
4.3
 73
     1
 44
1.0
  0
POINT
  5
3EC8
330
3D8C
100
AcDbEntity
  8
Defpoints
 62
     0
100
AcDbPoint
 10
183.9491383017791
 20
290.1102790776762
 30
0.0
  0
POINT
  5
3EC9
330
3D8C
100
AcDbEntity
  8
Defpoints
 62
     0
100
AcDbPoint
 10
188.2491383017791
 20
290.1102790776762
 30
0.0
  0
POINT
  5
3ECA
330
3D8C
100
AcDbEntity
  8
Defpoints
 62
     0
100
AcDbPoint
 10
188.2491383017791
 20
299.1196772741006
 30
0.0
  0
ENDBLK
  5
3DE5
330
3D8C
100
AcDbEntity
  8
0
100
AcDbBlockEnd
  0
BLOCK
  5
3DE6
330
3D98
100
AcDbEntity
  8
0
100
AcDbBlockBegin
  2
*D7
 70
     1
 71
     0
 10
0.0
 20
0.0
 30
0.0
  3
*D7
  1

  0
LINE
  5
3E97
330
3D98
100
AcDbEntity
  8
AM_5
 62
     3
100
AcDbLine
 10
183.5991383017791
 20
286.7363698414031
 30
0.0
 11
183.5991383017791
 21
307.2671769288976
 31
0.0
  0
LINE
  5
3E98
330
3D98
100
AcDbEntity
  8
AM_5
 62
     3
100
AcDbLine
 10
188.5991383017791
 20
286.7363698414031
 30
0.0
 11
188.5991383017791
 21
307.2671769288976
 31
0.0
  0
LINE
  5
3E99
330
3D98
100
AcDbEntity
  8
AM_5
 62
     3
100
AcDbLine
 10
181.0991383017791
 20
306.2671769288976
 30
0.0
 11
178.5991383017791
 21
306.2671769288976
 31
0.0
  0
LINE
  5
3E9A
330
3D98
100
AcDbEntity
  8
AM_5
 62
     3
100
AcDbLine
 10
191.0991383017791
 20
306.2671769288976
 30
0.0
 11
193.5991383017791
 21
306.2671769288976
 31
0.0
  0
LINE
  5
3E9B
330
3D98
100
AcDbEntity
  8
AM_5
 62
     3
100
AcDbLine
 10
183.5991383017791
 20
306.2671769288976
 30
0.0
 11
188.5991383017791
 21
306.2671769288976
 31
0.0
  0
INSERT
  5
3E9C
330
3D98
100
AcDbEntity
  8
AM_5
 62
     3
100
AcDbBlockReference
  2
_Open30
 10
183.5991383017791
 20
306.2671769288976
 30
0.0
 41
2.5
 42
2.5
 43
2.5
  0
INSERT
  5
3E9D
330
3D98
100
AcDbEntity
  8
AM_5
 62
     3
100
AcDbBlockReference
  2
_Open30
 10
188.5991383017791
 20
306.2671769288976
 30
0.0
 41
2.5
 42
2.5
 43
2.5
 50
180.0
  0
MTEXT
  5
3E9E
330
3D98
100
AcDbEntity
  8
AM_5
 62
     2
370
    13
100
AcDbMText
 10
186.0991383017791
 20
309.1171769288976
 30
0.0
 40
3.699999999999999
 41
0.0
 71
     5
 72
     1
  1
5
 73
     1
 44
1.0
  0
POINT
  5
3E9F
330
3D98
100
AcDbEntity
  8
Defpoints
 62
     0
100
AcDbPoint
 10
183.5991383017791
 20
286.7363698414031
 30
0.0
  0
POINT
  5
3EA0
330
3D98
100
AcDbEntity
  8
Defpoints
 62
     0
100
AcDbPoint
 10
188.5991383017791
 20
286.7363698414031
 30
0.0
  0
POINT
  5
3EA1
330
3D98
100
AcDbEntity
  8
Defpoints
 62
     0
100
AcDbPoint
 10
188.5991383017791
 20
306.2671769288976
 30
0.0
  0
ENDBLK
  5
3DE7
330
3D98
100
AcDbEntity
  8
0
100
AcDbBlockEnd
  0
BLOCK
  5
3DE8
330
3DA4
100
AcDbEntity
  8
0
100
AcDbBlockBegin
  2
*D8
 70
     1
 71
     0
 10
0.0
 20
0.0
 30
0.0
  3
*D8
  1

  0
LINE
  5
3E0D
330
3DA4
100
AcDbEntity
  8
AM_5
 62
     3
100
AcDbLine
 10
186.0991383017791
 20
265.3363698414032
 30
0.0
 11
198.9935430964456
 21
265.3363698414032
 31
0.0
  0
LINE
  5
3E0E
330
3DA4
100
AcDbEntity
  8
AM_5
 62
     3
100
AcDbLine
 10
187.5991383017791
 20
286.7363698414031
 30
0.0
 11
198.9935430964456
 21
286.7363698414031
 31
0.0
  0
LINE
  5
3E0F
330
3DA4
100
AcDbEntity
  8
AM_5
 62
     3
100
AcDbLine
 10
197.9935430964456
 20
267.8363698414032
 30
0.0
 11
197.9935430964456
 21
284.2363698414031
 31
0.0
  0
INSERT
  5
3E10
330
3DA4
100
AcDbEntity
  8
AM_5
 62
     3
100
AcDbBlockReference
  2
_Open30
 10
197.9935430964456
 20
265.3363698414032
 30
0.0
 41
2.5
 42
2.5
 43
2.5
 50
270.0
  0
INSERT
  5
3E11
330
3DA4
100
AcDbEntity
  8
AM_5
 62
     3
100
AcDbBlockReference
  2
_Open30
 10
197.9935430964456
 20
286.7363698414031
 30
0.0
 41
2.5
 42
2.5
 43
2.5
 50
90.0
  0
MTEXT
  5
3E12
330
3DA4
100
AcDbEntity
  8
AM_5
 62
     2
370
    13
100
AcDbMText
 10
195.1431789232173
 20
276.0917387631372
 30
0.0
 40
3.699999999999999
 41
0.0
 71
     5
 72
     1
  1
21.4
 11
6.123031769111886E-17
 21
1.0
 31
0.0
 73
     1
 44
1.0
  0
POINT
  5
3E13
330
3DA4
100
AcDbEntity
  8
Defpoints
 62
     0
100
AcDbPoint
 10
186.0991383017791
 20
265.3363698414032
 30
0.0
  0
POINT
  5
3E14
330
3DA4
100
AcDbEntity
  8
Defpoints
 62
     0
100
AcDbPoint
 10
187.5991383017791
 20
286.7363698414031
 30
0.0
  0
POINT
  5
3E15
330
3DA4
100
AcDbEntity
  8
Defpoints
 62
     0
100
AcDbPoint
 10
197.9935430964456
 20
286.7363698414031
 30
0.0
  0
ENDBLK
  5
3DE9
330
3DA4
100
AcDbEntity
  8
0
100
AcDbBlockEnd
  0
BLOCK
  5
3DEA
330
3DAE
100
AcDbEntity
  8
0
100
AcDbBlockBegin
  2
*D9
 70
     1
 71
     0
 10
0.0
 20
0.0
 30
0.0
  3
*D9
  1

  0
LINE
  5
3E16
330
3DAE
100
AcDbEntity
  8
AM_5
 62
     3
100
AcDbLine
 10
186.099138301779
 20
265.3363698414032
 30
0.0
 11
173.7199987017251
 21
262.0193893825766
 31
0.0
  0
LINE
  5
3E17
330
3DAE
100
AcDbEntity
  8
AM_5
 62
     3
100
AcDbLine
 10
186.099138301779
 20
265.3363698414032
 30
0.0
 11
198.4782779018329
 21
262.0193893825765
 31
0.0
  0
ARC
  5
3E18
330
3DAE
100
AcDbEntity
  8
AM_5
 62
     3
100
AcDbCircle
 10
186.099138301779
 20
265.3363698414032
 30
0.0
 40
11.81582836190702
100
AcDbArc
 50
207.1454017825656
 51
332.8545982174338
  0
INSERT
  5
3E19
330
3DAE
100
AcDbEntity
  8
AM_5
 62
     3
100
AcDbBlockReference
  2
_Open30
 10
174.6859245280142
 20
262.2782084276791
 30
0.0
 41
2.5
 42
2.5
 43
2.5
 50
111.0727008912827
  0
INSERT
  5
3E1A
330
3DAE
100
AcDbEntity
  8
AM_5
 62
     3
100
AcDbBlockReference
  2
_Open30
 10
197.5123520755439
 20
262.278208427679
 30
0.0
 41
2.5
 42
2.5
 43
2.5
 50
68.92729910871675
  0
MTEXT
  5
3E1B
330
3DAE
100
AcDbEntity
  8
AM_5
 62
     2
100
AcDbMText
 10
188.0485530013489
 20
256.5850350549675
 30
0.0
 40
3.699999999999999
 41
0.0
 71
     5
 72
     1
  1
150°
 11
0.9760765467714335
 21
0.2174271713534293
 31
0.0
 73
     1
 44
1.0
  0
POINT
  5
3E1C
330
3DAE
100
AcDbEntity
  8
Defpoints
 62
     0
100
AcDbPoint
 10
181.1055534584434
 20
254.6275925867183
 30
0.0
  0
POINT
  5
3E1D
330
3DAE
100
AcDbEntity
  8
Defpoints
 62
     0
100
AcDbPoint
 10
184.8991383017791
 20
265.6579088723205
 30
0.0
  0
POINT
  5
3E1E
330
3DAE
100
AcDbEntity
  8
Defpoints
 62
     0
100
AcDbPoint
 10
186.099138301779
 20
265.3363698414032
 30
0.0
  0
POINT
  5
3E1F
330
3DAE
100
AcDbEntity
  8
Defpoints
 62
     0
100
AcDbPoint
 10
187.2991383017791
 20
265.6579088723205
 30
0.0
  0
POINT
  5
3E20
330
3DAE
100
AcDbEntity
  8
Defpoints
 62
     0
100
AcDbPoint
 10
186.099138301779
 20
265.3363698414032
 30
0.0
  0
ENDBLK
  5
3DEB
330
3DAE
100
AcDbEntity
  8
0
100
AcDbBlockEnd
  0
ENDSEC
  0
SECTION
  2
ENTITIES
  0
LINE
  5
664
330
1F
100
AcDbEntity
  8
AM_0
370
    30
100
AcDbLine
 10
328.3071462360188
 20
290.6863698414032
 30
0.0
 11
329.3071462360188
 21
289.6863698414032
 31
0.0
  0
LINE
  5
66E
330
1F
100
AcDbEntity
  8
AM_0
370
    30
100
AcDbLine
 10
231.5071462360187
 20
290.6863698414032
 30
0.0
 11
328.3071462360188
 21
290.6863698414032
 31
0.0
  0
ARC
  5
6BB
330
1F
100
AcDbEntity
  8
AM_0
370
    30
100
AcDbCircle
 10
248.5571462360188
 20
278.0113698414032
 30
0.0
 40
7.5
100
AcDbArc
 50
90.0
 51
270.0
  0
ARC
  5
6BC
330
1F
100
AcDbEntity
  8
AM_0
370
    30
100
AcDbCircle
 10
301.5571462360188
 20
278.0113698414032
 30
0.0
 40
7.5
100
AcDbArc
 50
270.0
 51
90.0
  0
LINE
  5
6BD
330
1F
100
AcDbEntity
  8
AM_0
370
    30
100
AcDbLine
 10
248.5571462360188
 20
285.5113698414032
 30
0.0
 11
301.5571462360188
 21
285.5113698414032
 31
0.0
  0
LINE
  5
6BE
330
1F
100
AcDbEntity
  8
AM_0
370
    30
100
AcDbLine
 10
248.5571462360188
 20
270.5113698414032
 30
0.0
 11
301.5571462360188
 21
270.5113698414032
 31
0.0
  0
LINE
  5
6C8
330
1F
100
AcDbEntity
  8
AM_0
370
    30
100
AcDbLine
 10
221.8071462360188
 20
265.3363698414032
 30
0.0
 11
318.6071462360188
 21
265.3363698414032
 31
0.0
  0
LINE
  5
6C9
330
1F
100
AcDbEntity
  8
AM_0
370
    30
100
AcDbLine
 10
220.8071462360188
 20
266.3363698414032
 30
0.0
 11
221.8071462360188
 21
265.3363698414032
 31
0.0
  0
LINE
  5
848
330
1F
100
AcDbEntity
  8
AM_0
370
    30
100
AcDbLine
 10
225.3232233196791
 20
287.116930488936
 30
0.0
 11
231.5071462360187
 21
290.6863698414032
 31
0.0
  0
ARC
  5
874
330
1F
100
AcDbEntity
  8
AM_0
370
    30
100
AcDbCircle
 10
231.0241462360188
 20
276.8769715574163
 30
0.0
 40
9.0
100
AcDbArc
 50
90.00000000000003
 51
99.31639543448551
  0
LINE
  5
875
330
1F
100
AcDbEntity
  8
AM_0
370
    30
100
AcDbLine
 10
229.3071462360187
 20
285.7913356964899
 30
0.0
 11
229.5671703684854
 21
285.758256448772
 31
0.0
  0
ELLIPSE
  5
964
330
1F
100
AcDbEntity
  8
AM_0
370
    30
100
AcDbEllipse
 10
231.0241462360188
 20
283.8769715574163
 30
0.0
 11
-3.5
 21
2.042036516009676E-14
 31
0.0
210
0.0
220
0.0
230
1.0
 40
0.5714285714285659
 41
3.141592653589804
 42
4.707200142229639
  0
ARC
  5
99A
330
1F
100
AcDbEntity
  8
AM_0
370
    30
100
AcDbCircle
 10
231.6741462360188
 20
283.8769715574163
 30
0.0
 40
2.849999999999996
100
AcDbArc
 50
248.6905600000005
 51
359.9999999999994
  0
LINE
  5
9AF
330
1F
100
AcDbEntity
  8
AM_0
370
    30
100
AcDbLine
 10
229.8917902009928
 20
281.5130715574163
 30
0.0
 11
230.6384427551407
 21
281.2218221643138
 31
0.0
  0
LINE
  5
9B0
330
1F
100
AcDbEntity
  8
AM_0
370
    30
100
AcDbLine
 10
229.3071462360188
 20
281.5130715574163
 30
0.0
 11
229.8917902009928
 21
281.5130715574163
 31
0.0
  0
LINE
  5
9B2
330
1F
100
AcDbEntity
  8
AM_0
370
    30
100
AcDbLine
 10
220.8071462360188
 20
281.0523699389155
 30
0.0
 11
220.8071462360188
 21
266.3363698414032
 31
0.0
  0
ARC
  5
9C1
330
1F
100
AcDbEntity
  8
AM_0
370
    30
100
AcDbCircle
 10
318.4401462360187
 20
272.1457681253901
 30
0.0
 40
2.849999999999996
100
AcDbArc
 50
68.69056000000057
 51
179.9999999999994
  0
ELLIPSE
  5
9C2
330
1F
100
AcDbEntity
  8
AM_0
370
    30
100
AcDbEllipse
 10
319.0901462360188
 20
272.1457681253901
 30
0.0
 11
3.5
 21
-2.084897738393459E-14
 31
0.0
210
0.0
220
0.0
230
1.0
 40
0.5714285714285659
 41
3.141592653589804
 42
4.707200142229639
  0
LINE
  5
9C3
330
1F
100
AcDbEntity
  8
AM_0
370
    30
100
AcDbLine
 10
324.0817270967574
 20
268.497120575051
 30
0.0
 11
324.8071462360183
 21
269.2225397143123
 31
0.0
  0
LINE
  5
9C4
330
1F
100
AcDbEntity
  8
AM_0
370
    30
100
AcDbLine
 10
324.8071462360188
 20
269.4161904364199
 30
0.0
 11
319.0720540795206
 21
270.1457863101933
 31
0.0
  0
LINE
  5
9C5
330
1F
100
AcDbEntity
  8
AM_0
370
    30
100
AcDbLine
 10
324.7941477421966
 20
269.7241933315863
 30
0.0
 11
320.5471221035522
 21
270.2644832340343
 31
0.0
  0
LINE
  5
9C6
330
1F
100
AcDbEntity
  8
AM_0
370
    30
100
AcDbLine
 10
324.0817270967574
 20
268.497120575051
 30
0.0
 11
318.6071462360188
 21
265.3363698414032
 31
0.0
  0
ARC
  5
9C7
330
1F
100
AcDbEntity
  8
AM_0
370
    30
100
AcDbCircle
 10
319.0901462360188
 20
279.1457681253901
 30
0.0
 40
9.0
100
AcDbArc
 50
270.0
 51
279.3163954344855
  0
LINE
  5
9C8
330
1F
100
AcDbEntity
  8
AM_0
370
    30
100
AcDbLine
 10
324.8071462360183
 20
269.2225397143123
 30
0.0
 11
324.8071462360183
 21
269.7225397143123
 31
0.0
  0
LINE
  5
9C9
330
1F
100
AcDbEntity
  8
AM_0
370
    30
100
AcDbLine
 10
329.3071462360188
 20
274.5096681253901
 30
0.0
 11
329.3071462360188
 21
289.6863698414032
 31
0.0
  0
LINE
  5
9CA
330
1F
100
AcDbEntity
  8
AM_0
370
    30
100
AcDbLine
 10
324.8071462360188
 20
274.5096681253901
 30
0.0
 11
320.2225022710447
 21
274.5096681253901
 31
0.0
  0
LINE
  5
9CB
330
1F
100
AcDbEntity
  8
AM_0
370
    30
100
AcDbLine
 10
320.2225022710447
 20
274.5096681253901
 30
0.0
 11
319.4758497168967
 21
274.8009175184926
 31
0.0
  0
LINE
  5
9CC
330
1F
100
AcDbEntity
  8
AM_0
370
    30
100
AcDbLine
 10
329.3071462360188
 20
274.5096681253901
 30
0.0
 11
324.8071462360188
 21
274.5096681253901
 31
0.0
  0
LINE
  5
9CD
330
1F
100
AcDbEntity
  8
AM_0
370
    30
100
AcDbLine
 10
329.3071462360188
 20
289.6863698414032
 30
0.0
 11
328.3071462360188
 21
290.6863698414032
 31
0.0
  0
LINE
  5
AA6
330
1F
100
AcDbEntity
  8
AM_0
370
    30
100
AcDbLine
 10
319.426973632274
 20
274.8194681253901
 30
0.0
 11
329.3071462360188
 21
274.8194681253901
 31
0.0
  0
LINE
  5
BA9
330
1F
100
AcDbEntity
  8
AM_0
370
    30
100
AcDbLine
 10
219.3071462360188
 20
281.0523699389155
 30
0.0
 11
229.3071462360188
 21
281.0523699389155
 31
0.0
  0
LINE
  5
BAA
330
1F
100
AcDbEntity
  8
AM_0
370
    30
100
AcDbLine
 10
219.3071462360188
 20
286.7363698414031
 30
0.0
 11
219.3071462360188
 21
281.0523699389155
 31
0.0
  0
ARC
  5
BCB
330
1F
100
AcDbEntity
  8
AM_0
370
    30
100
AcDbCircle
 10
223.427387094611
 20
287.7363698414031
 30
0.0
 40
1.0
100
AcDbArc
 50
270.0000000000007
 51
309.9823086777092
  0
LINE
  5
BCC
330
1F
100
AcDbEntity
  8
AM_0
370
    30
100
AcDbLine
 10
219.3071462360188
 20
286.7363698414031
 30
0.0
 11
223.427387094611
 21
286.7363698414031
 31
0.0
  0
LINE
  5
BCD
330
1F
100
AcDbEntity
  8
AM_0
370
    30
100
AcDbLine
 10
224.0699381407204
 20
286.9701269601026
 30
0.0
 11
229.3071462360188
 21
286.3038699389155
 31
0.0
  0
LINE
  5
BCE
330
1F
100
AcDbEntity
  8
AM_0
370
    30
100
AcDbLine
 10
229.3071462360188
 20
286.3038699389155
 30
0.0
 11
229.3071462360188
 21
281.0523699389155
 31
0.0
  0
DIMENSION
  5
EC6
330
1F
100
AcDbEntity
  8
AM_5
370
    13
100
AcDbDimension
  2
*D3
 10
329.3071462360188
 20
249.9031119991288
 30
0.0
 11
274.0389307212356
 21
249.9031119991288
 31
0.0
 70
   160
  1
<>
 71
     5
 42
108.5
  3
AM_JIS
100
AcDbAlignedDimension
 13
220.8071462360188
 23
266.3363698414032
 33
0.0
 14
329.3071462360188
 24
274.5096681253901
 34
0.0
100
AcDbRotatedDimension
1001
GENIUS_GENDTOL_13
1000

1000
h7
1000

1040
0.0
1001
ACAD
1000
DSTYLE
1002
{
1070
   171
1070
     3
1070
   271
1070
     1
1070
   274
1070
     3
1002
}
  0
DIMENSION
  5
36F6
330
1F
100
AcDbEntity
  8
AM_5
370
    13
100
AcDbDimension
  2
*D4
 10
329.3071462360188
 20
302.4689477704261
 30
0.0
 11
271.9679479228867
 21
302.4689477704261
 31
0.0
 70
   160
  1
<>
 71
     5
 42
110.0
  3
AM_JIS
100
AcDbAlignedDimension
 13
219.3071462360188
 23
286.7363698414031
 33
0.0
 14
329.3071462360188
 24
289.6863698414032
 34
0.0
 50
0.0000000000001132
100
AcDbRotatedDimension
1001
GENIUS_GENDTOL_13
1000

1000
h7
1000

1040
0.0
1001
ACAD
1000
DSTYLE
1002
{
1070
   271
1070
     0
1002
}
  0
LINE
  5
3C12
330
1F
100
AcDbEntity
  8
AM_0
370
    30
100
AcDbLine
 10
225.3232233196791
 20
287.116930488936
 30
0.0
 11
225.3087153978539
 21
286.8125345883209
 31
0.0
  0
LINE
  5
3D73
330
1F
100
AcDbEntity
  8
AM_0
370
    30
100
AcDbLine
 10
183.9491383017791
 20
265.9124606051301
 30
0.0
 11
186.0991383017791
 21
265.3363698414032
 31
0.0
  0
LINE
  5
3D77
330
1F
100
AcDbEntity
  8
AM_0
370
    30
100
AcDbLine
 10
186.0991383017791
 20
290.6863698414032
 30
0.0
 11
188.2491383017791
 21
290.1102790776763
 31
0.0
  0
LINE
  5
3D78
330
1F
100
AcDbEntity
  8
AM_0
370
    30
100
AcDbLine
 10
183.9491383017791
 20
290.1102790776762
 30
0.0
 11
186.0991383017791
 21
290.6863698414032
 31
0.0
  0
LINE
  5
3D7D
330
1F
100
AcDbEntity
  8
AM_0
370
    30
100
AcDbLine
 10
183.949138301779
 20
270.5113698414032
 30
0.0
 11
183.949138301779
 21
265.91246060513
 31
0.0
  0
LINE
  5
3D80
330
1F
100
AcDbEntity
  8
AM_7
  6
CENTER
370
    13
100
AcDbLine
 10
186.0991383017791
 20
293.6863698414032
 30
0.0
 11
186.0991383017791
 21
262.3363698414032
 31
0.0
1001
GENIUS_GENODEF_13
1002
{
1000
HIER
1070
     0
1002
}
1002
{
1000
MANEDIT
1070
     0
1002
}
1002
{
1000
NOSEL
1070
     0
1002
}
1002
{
1000
BEHIND
1070
     0
1002
}
1002
{
1000
REACTOR
1002
}
1001
GENIUS_GENOBJ-N-CEN_13
1002
{
1000
OWNER
1000
GEN
1002
}
  0
DIMENSION
  5
3D81
330
1F
100
AcDbEntity
  8
AM_5
370
    13
100
AcDbDimension
  2
*D6
 10
188.2491383017791
 20
299.1196772741006
 30
0.0
 11
173.98750879274
 21
299.1196772741006
 31
0.0
 70
   160
 71
     5
 42
4.300000000000011
  3
AM_JIS
100
AcDbAlignedDimension
 13
183.9491383017791
 23
290.1102790776762
 33
0.0
 14
188.2491383017791
 24
290.1102790776762
 34
0.0
100
AcDbRotatedDimension
1001
ACAD
1000
DSTYLE
1002
{
1070
    78
1070
     8
1002
}
  0
DIMENSION
  5
3D89
330
1F
100
AcDbEntity
  8
AM_5
370
    13
100
AcDbDimension
  2
*D7
 10
188.5991383017791
 20
306.2671769288976
 30
0.0
 11
186.0991383017791
 21
306.2671769288976
 31
0.0
 70
   160
 71
     5
 42
5.0
  3
AM_JIS
100
AcDbAlignedDimension
 13
183.5991383017791
 23
286.7363698414031
 33
0.0
 14
188.5991383017791
 24
286.7363698414031
 34
0.0
100
AcDbRotatedDimension
1001
ACAD
1000
DSTYLE
1002
{
1070
    78
1070
     8
1002
}
  0
DIMENSION
  5
3D8A
330
1F
100
AcDbEntity
  8
AM_5
370
    13
100
AcDbDimension
  2
*D8
 10
197.9935430964456
 20
286.7363698414031
 30
0.0
 11
197.9935430964456
 21
276.0917387631372
 31
0.0
 70
   160
 71
     5
 42
21.39999999999998
  3
AM_JIS
100
AcDbAlignedDimension
 13
186.0991383017791
 23
265.3363698414032
 33
0.0
 14
187.5991383017791
 24
286.7363698414031
 34
0.0
 50
90.0
100
AcDbRotatedDimension
1001
ACAD
1000
DSTYLE
1002
{
1070
    78
1070
     8
1002
}
  0
DIMENSION
  5
3D8B
330
1F
100
AcDbEntity
  8
AM_5
370
    13
100
AcDbDimension
  2
*D9
 10
186.0991383017791
 20
265.3363698414032
 30
0.0
 11
188.6682204397062
 21
253.803216896669
 31
0.0
 70
   162
 71
     5
 42
2.617993877991492
  3
AM_JIS
100
AcDb2LineAngularDimension
 13
186.0991383017791
 23
265.3363698414032
 33
0.0
 14
187.2991383017791
 24
265.6579088723205
 34
0.0
 15
184.8991383017791
 25
265.6579088723205
 35
0.0
 16
181.1055534584434
 26
254.6275925867183
 36
0.0
1001
ACAD
1000
DSTYLE
1002
{
1070
    78
1070
     8
1070
   179
1070
     0
1002
}
  0
LINE
  5
3E81
330
1F
100
AcDbEntity
  8
AM_0
370
    30
100
AcDbLine
 10
183.5991383017791
 20
286.7363698414031
 30
0.0
 11
188.5991383017791
 21
286.7363698414031
 31
0.0
  0
LINE
  5
3E82
330
1F
100
AcDbEntity
  8
AM_0
370
    30
100
AcDbLine
 10
183.5991383017791
 20
286.7363698414031
 30
0.0
 11
183.5991383017791
 21
281.0523699389155
 31
0.0
  0
LINE
  5
3E83
330
1F
100
AcDbEntity
  8
AM_0
370
    30
100
AcDbLine
 10
183.5991383017791
 20
281.0523699389155
 30
0.0
 11
184.0991383017791
 21
281.0523699389155
 31
0.0
  0
LINE
  5
3E84
330
1F
100
AcDbEntity
  8
AM_0
370
    30
100
AcDbLine
 10
184.0991383017791
 20
281.0523699389155
 30
0.0
 11
186.0991383017791
 21
281.5882683237777
 31
0.0
  0
LINE
  5
3E85
330
1F
100
AcDbEntity
  8
AM_0
370
    30
100
AcDbLine
 10
186.0991383017791
 20
281.5882683237777
 30
0.0
 11
188.0991383017791
 21
281.0523699389155
 31
0.0
  0
LINE
  5
3E86
330
1F
100
AcDbEntity
  8
AM_0
370
    30
100
AcDbLine
 10
188.0991383017791
 20
281.0523699389155
 30
0.0
 11
188.5991383017791
 21
281.0523699389155
 31
0.0
  0
LINE
  5
3E87
330
1F
100
AcDbEntity
  8
AM_0
370
    30
100
AcDbLine
 10
188.5991383017791
 20
281.0523699389155
 30
0.0
 11
188.5991383017791
 21
286.7363698414031
 31
0.0
  0
LINE
  5
3EB3
330
1F
100
AcDbEntity
  8
AM_0
370
    30
100
AcDbLine
 10
188.2491383017791
 20
290.1102790776762
 30
0.0
 11
188.2491383017791
 21
286.7363698414031
 31
0.0
1001
GENIUS_GENODEF_13
1002
{
1000
HIER
1070
     0
1002
}
1002
{
1000
MANEDIT
1070
     0
1002
}
1002
{
1000
NOSEL
1070
     0
1002
}
1002
{
1000
BEHIND
1070
     0
1002
}
1002
{
1000
REACTOR
1002
}
1001
GENIUS_GENOBJ-N-CEN_13
1002
{
1000
OWNER
1000
GEN
1002
}
  0
LINE
  5
3EB4
330
1F
100
AcDbEntity
  8
AM_0
370
    30
100
AcDbLine
 10
183.9491383017791
 20
290.1102790776762
 30
0.0
 11
183.949138301779
 21
286.7363698414031
 31
0.0
1001
GENIUS_GENODEF_13
1002
{
1000
HIER
1070
     0
1002
}
1002
{
1000
MANEDIT
1070
     0
1002
}
1002
{
1000
NOSEL
1070
     0
1002
}
1002
{
1000
BEHIND
1070
     0
1002
}
1002
{
1000
REACTOR
1002
}
1001
GENIUS_GENOBJ-N-CEN_13
1002
{
1000
OWNER
1000
GEN
1002
}
  0
LINE
  5
3ED7
330
1F
100
AcDbEntity
  8
AM_0
370
    30
100
AcDbLine
 10
188.2491383017791
 20
265.9124606051301
 30
0.0
 11
186.0991383017791
 21
265.3363698414032
 31
0.0
  0
LINE
  5
3EDA
330
1F
100
AcDbEntity
  8
AM_0
370
    30
100
AcDbLine
 10
188.2491383017791
 20
270.5113698414032
 30
0.0
 11
188.2491383017791
 21
265.91246060513
 31
0.0
  0
LINE
  5
3F1B
330
1F
100
AcDbEntity
  8
AM_0
370
    30
100
AcDbLine
 10
184.449138301779
 20
281.1461521562664
 30
0.0
 11
184.449138301779
 21
271.0113698414032
 31
0.0
1001
GENIUS_GENODEF_13
1002
{
1000
HIER
1070
     0
1002
}
1002
{
1000
MANEDIT
1070
     0
1002
}
1002
{
1000
NOSEL
1070
     0
1002
}
1002
{
1000
BEHIND
1070
     0
1002
}
1002
{
1000
REACTOR
1002
}
1001
GENIUS_GENOBJ-N-CEN_13
1002
{
1000
OWNER
1000
GEN
1002
}
  0
ARC
  5
3F37
330
1F
100
AcDbEntity
  8
AM_0
370
    30
100
AcDbCircle
 10
183.9491383017791
 20
271.0113698414032
 30
0.0
 40
0.5
100
AcDbArc
 50
269.9999999999968
 51
0.0
  0
LINE
  5
3F38
330
1F
100
AcDbEntity
  8
AM_0
370
    30
100
AcDbLine
 10
187.7491383017791
 20
281.1461521562663
 30
0.0
 11
187.7491383017791
 21
271.0113698414032
 31
0.0
1001
GENIUS_GENODEF_13
1002
{
1000
HIER
1070
     0
1002
}
1002
{
1000
MANEDIT
1070
     0
1002
}
1002
{
1000
NOSEL
1070
     0
1002
}
1002
{
1000
BEHIND
1070
     0
1002
}
1002
{
1000
REACTOR
1002
}
1001
GENIUS_GENOBJ-N-CEN_13
1002
{
1000
OWNER
1000
GEN
1002
}
  0
ARC
  5
3F39
330
1F
100
AcDbEntity
  8
AM_0
370
    30
100
AcDbCircle
 10
188.2491383017791
 20
271.0113698414032
 30
0.0
 40
0.5
100
AcDbArc
 50
180.0
 51
270.0000000000032
  0
TEXT
  5
3F53
330
1F
100
AcDbEntity
  8
AM_6
  6
Continuous
 62
     0
370
    30
100
AcDbText
 10
264.290858825146
 20
231.6236862449111
 30
0.0
 40
3.8
  1
WCFH26-5
  7
ACISOTS
100
AcDbText
  0
LINE
  5
3FBA
330
1F
100
AcDbEntity
  8
AM_0
370
    30
100
AcDbLine
 10
328.8832369997456
 20
290.1102790776763
 30
0.0
 11
230.5090900922045
 21
290.1102790776763
 31
0.0
  0
LINE
  5
3FC0
330
1F
100
AcDbEntity
  8
AM_0
370
    30
100
AcDbLine
 10
319.6049647085649
 20
265.9124606051301
 30
0.0
 11
221.2310554722918
 21
265.91246060513
 31
0.0
  0
ELLIPSE
  5
3FD8
330
1F
100
AcDbEntity
  8
AM_0
370
    30
100
AcDbEllipse
 10
231.0241462360188
 20
283.8769715574163
 30
0.0
 11
-3.5
 21
2.042036516009676E-14
 31
0.0
210
0.0
220
0.0
230
1.0
 40
0.5714285714285659
 41
3.141592653589804
 42
4.707200142229639
  0
ARC
  5
3FDC
330
1F
100
AcDbEntity
  8
AM_0
370
    30
100
AcDbCircle
 10
223.427387094611
 20
287.7363698414032
 30
0.0
 40
1.000000000000015
100
AcDbArc
 50
270.0000000000032
 51
309.9823086777083
  0
LINE
  5
3FE3
330
1F
100
AcDbEntity
  8
AM_0
370
    30
100
AcDbLine
 10
229.3071462360188
 20
281.5130715574163
 30
0.0
 11
229.3071462360188
 21
285.7913356964899
 31
0.0
  0
VIEWPORT
  5
82
330
23
100
AcDbEntity
 67
     1
  8
0
100
AcDbViewport
 10
5.82094427781273
 20
3.999999883606678
 30
0.0
 40
16.5134615214668
 41
8.992999745766948
 68
     1
 69
     1
 12
5.82094427781273
 22
3.999999883606678
 13
0.0
 23
0.0
 14
10.0
 24
10.0
 15
10.0
 25
10.0
 16
0.0
 26
0.0
 36
1.0
 17
0.0
 27
0.0
 37
0.0
 42
50.0
 43
0.0
 44
0.0
 45
8.992999745766948
 50
0.0
 51
0.0
 72
   100
 90
    32800
  1

281
     0
 71
     1
 74
     0
110
0.0
120
0.0
130
0.0
111
1.0
121
0.0
131
0.0
112
0.0
122
1.0
132
0.0
 79
     0
146
0.0
  0
ENDSEC
  0
SECTION
  2
OBJECTS
  0
DICTIONARY
  5
C
330
0
100
AcDbDictionary
281
     1
  3
ACAD_COLOR
350
3C3F
  3
ACAD_GROUP
350
D
  3
ACAD_LAYOUT
350
1A
  3
ACAD_MATERIAL
350
3C3E
  3
ACAD_MLINESTYLE
350
17
  3
ACAD_PLOTSETTINGS
350
19
  3
ACAD_PLOTSTYLENAME
350
E
  3
ACAD_TABLESTYLE
350
3C40
  3
AcAmCatalogState
350
3CA7
  3
ACDBHEADERROUNDTRIPXREC
350
406F
  3
AcDbVariableDictionary
350
4A
  3
ACDMSYSVARMGR
350
3C58
  3
ACGREF_MASTER
350
3C50
  3
ACGREFACAD_MASTER
350
3C7A
  3
AcmDictionary
350
59
  3
ACME_BOM_MANAGER_NAME
350
50
  3
ACME_COMMAND_HISTORY
350
49
  3
ACME_SCOPE_NAME
350
48
  3
ACMESTATEMGR
350
55
  3
AcmeSysVarManager
350
4C
  3
AcmSystemVariableManager
350
E77
  3
AD_APPL
350
3C85
  3
ADSYSVARMGR
350
3C84
  3
AmdtNamedDwgMgr
350
3C75
  3
AMG
350
41
  3
AMGSNAPSETTINGS
350
AC
  3
AMI_MASTER
350
3C7D
  3
AUTOCAD_ASSEMBLIES_PROJECT
350
3C8D
  3
Designer_Assemblies_SysVars
350
3C88
  3
DWGPROPS
350
4072
  3
GREFAM_MODULE
350
3C7E
  0
DICTIONARY
  5
3D51
330
2
100
AcDbDictionary
280
     1
281
     1
  3
ACAD_LAYERSTATES
360
3D52
  0
DICTIONARY
  5
68
330
1F
100
AcDbDictionary
280
     1
281
     1
  3
ACAD_SORTENTS
360
3EAC
  0
DICTIONARY
  5
3C3F
102
{ACAD_REACTORS
330
C
102
}
330
C
100
AcDbDictionary
281
     1
  0
DICTIONARY
  5
D
102
{ACAD_REACTORS
330
C
102
}
330
C
100
AcDbDictionary
281
     1
  0
DICTIONARY
  5
1A
102
{ACAD_REACTORS
330
C
102
}
330
C
100
AcDbDictionary
281
     1
  3
Model
350
22
  3
ﾚｲｱｳﾄ1
350
1E
  3
ﾚｲｱｳﾄ2
350
26
  0
DICTIONARY
  5
3C3E
102
{ACAD_REACTORS
330
C
102
}
330
C
100
AcDbDictionary
281
     1
  0
DICTIONARY
  5
17
102
{ACAD_REACTORS
330
C
102
}
330
C
100
AcDbDictionary
281
     1
  3
Standard
350
18
  0
DICTIONARY
  5
19
102
{ACAD_REACTORS
330
C
102
}
330
C
100
AcDbDictionary
281
     1
  0
ACDBDICTIONARYWDFLT
  5
E
102
{ACAD_REACTORS
330
C
102
}
330
C
100
AcDbDictionary
281
     1
  3
Normal
350
F
100
AcDbDictionaryWithDefault
340
F
  0
DICTIONARY
  5
3C40
102
{ACAD_REACTORS
330
C
102
}
330
C
100
AcDbDictionary
281
     1
  3
Standard
350
3C41
  0
ACAD_PROXY_OBJECT
  5
3CA7
102
{ACAD_REACTORS
330
C
102
}
330
C
100
AcDbProxyObject
 90
      499
 91
      572
 95
       25
 70
     0
 93
      400
310
3FFFFFFFE00A02814028CA61D2E3137B23C96B9B1BA2E3D3430B7B937B733AE2BA1A3244008989AB37E38252CDF817010000
  0
DICTIONARY
  5
406F
102
{ACAD_REACTORS
330
C
102
}
330
C
100
AcDbDictionary
281
     1
  3
COLORDICT
350
4070
  3
MATERIALDICT
350
4071
  0
DICTIONARY
  5
4A
102
{ACAD_REACTORS
330
C
102
}
330
C
100
AcDbDictionary
281
     1
  3
CTABLESTYLE
350
3CBD
  3
DIMASSOC
350
406D
  3
HIDETEXT
350
406E
  3
INDEXCTL
350
4B
  3
SORTENTS
350
BD0
  0
ACAD_PROXY_OBJECT
  5
3C58
102
{ACAD_REACTORS
330
C
102
}
330
C
100
AcDbProxyObject
 90
      499
 91
      508
 95
       25
 70
     0
 93
      240
310
4C51A47A0000000000000000000000000000000000000000000000000000
330
3C59
330
3C5A
330
3C5B
330
3C5C
330
3C5D
330
3C5E
330
3C5F
330
3C60
330
3C61
330
3C62
330
3C63
330
3C64
330
3C65
330
3C66
330
3C67
330
3C68
330
3C69
330
3C6A
330
3C6B
330
3C6C
330
3C6D
330
3C6E
330
3C6F
330
3C70
330
3C71
330
3C72
 94
        0
  0
ACAD_PROXY_OBJECT
  5
3C50
102
{ACAD_REACTORS
330
C
102
}
330
C
100
AcDbProxyObject
 90
      499
 91
      536
 95
       25
 70
     0
 93
       34
310
0400004280
  0
ACAD_PROXY_OBJECT
  5
3C7A
102
{ACAD_REACTORS
330
C
102
}
330
C
100
AcDbProxyObject
 90
      499
 91
      542
 95
       25
 70
     0
 93
      114
310
04000041C080000000000000000000
  0
DICTIONARY
  5
59
102
{ACAD_REACTORS
330
C
102
}
330
C
100
AcDbDictionary
281
     1
  3
AcmBOMDATA
350
5A
  3
AcmStdDictionary
350
E7A
  3
AMDTSECTSYM_ARROWCOLOR
350
3C9B
  0
ACAD_PROXY_OBJECT
  5
50
102
{ACAD_REACTORS
330
C
102
}
330
C
100
AcDbProxyObject
 90
      499
 91
      511
 95
       25
 70
     0
 93
       50
310
00010040400000
330
0
330
0
330
51
 94
        0
  0
ACAD_PROXY_OBJECT
  5
49
102
{ACAD_REACTORS
330
C
102
}
330
C
100
AcDbProxyObject
 90
      499
 91
      506
 95
       25
 70
     0
 93
     2108
310
4780504554E444F805045452494D805054552415345805045452494D80505455241534580505455241534580505455241534580505455241534580505455241534580504554E444F80505455241534580505455241534580505455241534580504554E444F8050545524153458050545524153458050545524153458050454
310
52494D80505455241534580504554E444F805054552415345805054552415345805045452494D80505455241534580504554E444F805054552415345805045452494D805055055524745805045A4F4F4D805055153415645404052D4D5347202D205050413A2020206465736B746F702E6172782046696C6556657273696F6
310
E3A20392E322E302E340
  0
ACAD_PROXY_OBJECT
  5
48
102
{ACAD_REACTORS
330
C
102
}
330
C
100
AcDbProxyObject
 90
      499
 91
      505
 95
       25
 70
     0
 93
      586
310
09000046408000000000000000001344E200000000000000000000000000000000000000000000000000000000000000000000000000000000000000000000000000000000AAA406AA80
360
4D
360
4E
360
4F
360
51
360
E78
360
E79
360
3C51
360
3C52
360
3C53
360
3C54
360
3C55
360
3C56
360
3C59
360
3C5A
360
3C5B
360
3C5C
360
3C5D
360
3C5E
360
3C5F
360
3C60
360
3C61
360
3C62
360
3C63
360
3C64
360
3C65
360
3C66
360
3C67
360
3C68
360
3C69
360
3C6A
360
3C6B
360
3C6C
360
3C6D
360
3C6E
360
3C6F
360
3C70
360
3C71
360
3C72
360
3C80
360
3C81
360
3C82
360
3C83
360
3C89
360
3C8A
360
3C8B
360
3C8C
360
3C91
360
3C92
360
3C93
360
3C94
360
3C95
360
3C96
 94
        0
  0
ACAD_PROXY_OBJECT
  5
55
102
{ACAD_REACTORS
330
C
102
}
330
C
100
AcDbProxyObject
 90
      499
 91
      516
 95
       25
 70
     0
 93
       50
310
09000042641280
  0
ACAD_PROXY_OBJECT
  5
4C
102
{ACAD_REACTORS
330
C
102
}
330
C
100
AcDbProxyObject
 90
      499
 91
      508
 95
       25
 70
     0
 93
       48
310
903412000000
330
4D
330
4E
330
4F
 94
        0
  0
ACAD_PROXY_OBJECT
  5
E77
102
{ACAD_REACTORS
330
C
102
}
330
C
100
AcDbProxyObject
 90
      499
 91
      508
 95
       25
 70
     0
 93
       40
310
90240E0000
330
E78
330
E79
 94
        0
  0
ACAD_PROXY_OBJECT
  5
3C85
102
{ACAD_REACTORS
330
C
102
}
330
C
100
AcDbProxyObject
 90
      499
 91
      552
 95
       25
 70
     0
 93
       42
310
000900004040
330
3C80
 94
        0
  0
ACAD_PROXY_OBJECT
  5
3C84
102
{ACAD_REACTORS
330
C
102
}
330
C
100
AcDbProxyObject
 90
      499
 91
      508
 95
       25
 70
     0
 93
        8
310
AA
  0
ACAD_PROXY_OBJECT
  5
3C75
102
{ACAD_REACTORS
330
C
102
}
330
C
100
AcDbProxyObject
 90
      499
 91
      541
 95
       25
 70
     0
 93
       42
310
000100005E80
330
3C51
 94
        0
  0
DICTIONARY
  5
41
102
{ACAD_REACTORS
330
C
102
}
330
C
100
AcDbDictionary
281
     1
  3
AcMgSettings
350
42
  3
AMGLAYCFG
350
5D
  0
DICTIONARY
  5
AC
102
{ACAD_REACTORS
330
C
102
}
330
C
100
AcDbDictionary
281
     1
  3
DIMENSION
350
B1
  3
FEA
350
B0
  3
HATCH (1)
350
AD
  3
HATCH (2)
350
AE
  3
SYMBOLS
350
AF
  0
ACAD_PROXY_OBJECT
  5
3C7D
102
{ACAD_REACTORS
330
C
102
}
330
C
100
AcDbProxyObject
 90
      499
 91
      545
 95
       25
 70
     0
 93
       34
310
0500004280
  0
ACAD_PROXY_OBJECT
  5
3C8D
102
{ACAD_REACTORS
330
C
102
}
330
C
100
AcDbProxyObject
 90
      499
 91
      555
 95
       25
 70
     0
 93
       98
310
0900004E400000000000000000
330
3C94
330
0
330
3C95
330
0
330
0
330
0
330
0
330
0
 94
        0
  0
ACAD_PROXY_OBJECT
  5
3C88
102
{ACAD_REACTORS
330
C
102
}
330
C
100
AcDbProxyObject
 90
      499
 91
      508
 95
       25
 70
     0
 93
       56
310
90441600000000
330
3C89
330
3C8A
330
3C8B
330
3C8C
 94
        0
  0
XRECORD
  5
4072
102
{ACAD_REACTORS
330
C
102
}
330
C
100
AcDbXrecord
280
     1
  1
DWGPROPS COOKIE
  2

  3

  4

  6

  7

  8

  9

300
AmdtFileType=82
301
=
302
=
303
=
304
=
305
=
306
=
307
=
308
=
309
=
 40
0.0
 41
2452143.06902743
 42
2455468.059795822
  1

 90
        1
  0
ACAD_PROXY_OBJECT
  5
3C7E
102
{ACAD_REACTORS
330
C
102
}
330
C
100
AcDbProxyObject
 90
      499
 91
      546
 95
       25
 70
     0
 93
        8
310
05
  0
DICTIONARY
  5
3D52
102
{ACAD_REACTORS
330
3D51
102
}
330
3D51
100
AcDbDictionary
281
     1
  0
SORTENTSTABLE
  5
3EAC
102
{ACAD_REACTORS
330
68
102
}
330
68
100
AcDbSortentsTable
330
1F
331
0
  5
3FE1
331
664
  5
664
331
66E
  5
66E
331
6BB
  5
6BB
331
6BC
  5
6BC
331
6BD
  5
6BD
331
6BE
  5
6BE
331
6C8
  5
6C8
331
6C9
  5
6C9
331
848
  5
848
331
874
  5
874
331
875
  5
875
331
964
  5
9AF
331
99A
  5
9B0
331
9AF
  5
9B1
331
9B0
  5
9B2
331
9B2
  5
9C2
331
9C1
  5
9C3
331
9C2
  5
9C4
331
9C3
  5
9C5
331
9C4
  5
9C6
331
9C5
  5
9C7
331
9C6
  5
9C8
331
9C7
  5
9C9
331
9C8
  5
9CA
331
9C9
  5
9CB
331
9CA
  5
9CC
331
9CB
  5
9CD
331
9CC
  5
A24
331
9CD
  5
AA6
331
AA6
  5
BAA
331
BA9
  5
BCB
331
BAA
  5
BCC
331
BCB
  5
BCD
331
BCC
  5
BCE
331
BCD
  5
EC6
331
BCE
  5
36F6
331
EC6
  5
3C12
331
36F6
  5
3D73
331
3C12
  5
3D77
331
3D73
  5
3D78
331
3D77
  5
3D7D
331
3D78
  5
3D80
331
3D7D
  5
3E81
331
3D80
  5
3E82
331
3D81
  5
3E86
331
3D89
  5
3E87
331
3D8A
  5
3E88
331
3D8B
  5
3E89
331
3E81
  5
3E8A
331
3E82
  5
3EAB
331
3E83
  5
3EB2
331
3E84
  5
3EB3
331
3E85
  5
3EB4
331
3E86
  5
3ED7
331
3E87
  5
3F37
331
3EB3
  5
3E84
331
3EB4
  5
3E85
331
3ED7
  5
3F38
331
3EDA
  5
3F39
331
3F1B
  5
3E83
331
3F37
  5
3F53
331
3F38
  5
3F93
331
3F39
  5
3FBA
331
3F53
  5
3FC5
331
3FBA
  5
3FD8
331
3FC0
  5
3FD9
331
3FD8
  5
3FDA
331
3FDC
  5
3FDE
331
3FE3
  5
406B
  0
LAYOUT
  5
22
102
{ACAD_REACTORS
330
1A
102
}
330
1A
100
AcDbPlotSettings
  1

  2
SII LP-2150 (D-SCAN C2)
  4
User262
  6
AM_VIEW1
 40
3.174999952316284
 41
3.174999952316284
 42
3.17498779296875
 43
3.17498779296875
 44
296.9259948730469
 45
419.9889831542969
 46
0.0
 47
0.0
 48
74.5792268297489
 49
48.81567530286793
140
494.5792268297489
141
345.8156753028679
142
1.0
143
1.022107788374329
 70
 11952
 72
     1
 73
     1
 74
     4
  7
sei_cad.ctb
 75
     0
147
0.9783703943695685
148
-74.5792268297489
149
-48.81567530286793
100
AcDbLayout
  1
Model
 70
     1
 71
     0
 10
0.0
 20
0.0
 11
12.0
 21
9.0
 12
0.0
 22
0.0
 32
0.0
 14
0.0
 24
0.0
 34
0.0
 15
0.0
 25
0.0
 35
0.0
146
0.0
 13
0.0
 23
0.0
 33
0.0
 16
1.0
 26
0.0
 36
0.0
 17
0.0
 27
1.0
 37
0.0
 76
     0
330
1F
  0
LAYOUT
  5
1E
102
{ACAD_REACTORS
330
1A
102
}
330
1A
100
AcDbPlotSettings
  1

  2
none_device
  4
Letter_(8.50_x_11.00_Inches)
  6

 40
6.349999904632568
 41
6.349999904632568
 42
6.350006103515625
 43
6.350006103515625
 44
215.8999938964844
 45
279.3999938964844
 46
0.0
 47
0.0
 48
0.0
 49
0.0
140
0.0
141
0.0
142
1.0
143
1.0
 70
   688
 72
     0
 73
     1
 74
     5
  7
sei_cad.ctb
 75
    16
147
1.0
148
0.0
149
0.0
100
AcDbLayout
  1
ﾚｲｱｳﾄ1
 70
     0
 71
     1
 10
-0.2500002402958907
 20
-0.2499999962453767
 11
10.74999951940822
 21
8.249999763458732
 12
0.0
 22
0.0
 32
0.0
 14
1.000000000000000E+20
 24
1.000000000000000E+20
 34
1.000000000000000E+20
 15
-1.000000000000000E+20
 25
-1.000000000000000E+20
 35
-1.000000000000000E+20
146
0.0
 13
0.0
 23
0.0
 33
0.0
 16
1.0
 26
0.0
 36
0.0
 17
0.0
 27
1.0
 37
0.0
 76
     0
330
1B
331
7D
  0
LAYOUT
  5
26
102
{ACAD_REACTORS
330
1A
102
}
330
1A
100
AcDbPlotSettings
  1

  2
none_device
  4
Letter_(8.50_x_11.00_Inches)
  6

 40
6.349999904632568
 41
6.349999904632568
 42
6.350006103515625
 43
6.350006103515625
 44
215.8999938964844
 45
279.3999938964844
 46
0.0
 47
0.0
 48
0.0
 49
0.0
140
0.0
141
0.0
142
1.0
143
1.0
 70
   688
 72
     0
 73
     1
 74
     5
  7
sei_cad.ctb
 75
    16
147
1.0
148
0.0
149
0.0
100
AcDbLayout
  1
ﾚｲｱｳﾄ2
 70
     0
 71
     2
 10
-0.2500002402958907
 20
-0.2499999962453767
 11
10.74999951940822
 21
8.249999763458732
 12
0.0
 22
0.0
 32
0.0
 14
1.000000000000000E+20
 24
1.000000000000000E+20
 34
1.000000000000000E+20
 15
-1.000000000000000E+20
 25
-1.000000000000000E+20
 35
-1.000000000000000E+20
146
0.0
 13
0.0
 23
0.0
 33
0.0
 16
1.0
 26
0.0
 36
0.0
 17
0.0
 27
1.0
 37
0.0
 76
     0
330
23
331
82
  0
MLINESTYLE
  5
18
102
{ACAD_REACTORS
330
17
102
}
330
17
100
AcDbMlineStyle
  2
STANDARD
 70
     0
  3

 62
   256
 51
90.0
 52
90.0
 71
     2
 49
0.5
 62
   256
  6
BYLAYER
 49
-0.5
 62
   256
  6
BYLAYER
  0
ACDBPLACEHOLDER
  5
F
102
{ACAD_REACTORS
330
E
102
}
330
E
  0
TABLESTYLE
  5
3C41
102
{ACAD_REACTORS
330
3C40
102
}
330
3C40
100
AcDbTableStyle
  3
Standard
 70
     0
 71
     8
 40
1.5
 41
1.5
280
     0
281
     0
  7
STANDARD
140
4.5
170
     2
 62
     0
 63
     7
283
     0
274
    -2
284
     1
 64
     0
275
    -2
285
     1
 65
     0
276
    -2
286
     1
 66
     0
277
    -2
287
     1
 67
     0
278
    -2
288
     1
 68
     0
279
    -2
289
     1
 69
     0
  7
STANDARD
140
6.0
170
     5
 62
     0
 63
     7
283
     0
274
    -2
284
     1
 64
     0
275
    -2
285
     1
 65
     0
276
    -2
286
     1
 66
     0
277
    -2
287
     1
 67
     0
278
    -2
288
     1
 68
     0
279
    -2
289
     1
 69
     0
  7
STANDARD
140
4.5
170
     5
 62
     0
 63
     7
283
     0
274
    -2
284
     1
 64
     0
275
    -2
285
     1
 65
     0
276
    -2
286
     1
 66
     0
277
    -2
287
     1
 67
     0
278
    -2
288
     1
 68
     0
279
    -2
289
     1
 69
     0
  0
XRECORD
  5
4070
102
{ACAD_REACTORS
330
406F
102
}
330
406F
100
AcDbXrecord
280
     1
340
3C3F
  0
XRECORD
  5
4071
102
{ACAD_REACTORS
330
406F
102
}
330
406F
100
AcDbXrecord
280
     1
340
3C3E
  0
DICTIONARYVAR
  5
3CBD
102
{ACAD_REACTORS
330
4A
102
}
330
4A
100
DictionaryVariables
280
     0
  1
STANDARD
  0
DICTIONARYVAR
  5
406D
102
{ACAD_REACTORS
330
4A
102
}
330
4A
100
DictionaryVariables
280
     0
  1
1
  0
DICTIONARYVAR
  5
406E
102
{ACAD_REACTORS
330
4A
102
}
330
4A
100
DictionaryVariables
280
     0
  1
0
  0
DICTIONARYVAR
  5
4B
102
{ACAD_REACTORS
330
4A
102
}
330
4A
100
DictionaryVariables
280
     0
  1
1
  0
DICTIONARYVAR
  5
BD0
102
{ACAD_REACTORS
330
4A
102
}
330
4A
100
DictionaryVariables
280
     0
  1
119
  0
ACAD_PROXY_OBJECT
  5
5A
102
{ACAD_REACTORS
330
59
102
}
330
59
100
AcDbProxyObject
 90
      499
 91
      519
 95
       25
 70
     0
 93
      118
310
405010040CA904C415CD5B075DD078
350
5B
 94
        0
  0
DICTIONARY
  5
E7A
102
{ACAD_REACTORS
330
59
102
}
330
59
100
AcDbDictionary
281
     1
  3
JIS
350
E7B
  0
XRECORD
  5
3C9B
102
{ACAD_REACTORS
330
59
102
}
330
59
100
AcDbXrecord
280
     1
 90
-1023410169
  0
ACAD_PROXY_OBJECT
  5
4D
330
48
100
AcDbProxyObject
 90
      499
 91
      509
 95
       25
 70
     0
 93
      156
310
00010143D050D351505391D5531054925390D490
330
48
 94
        0
  0
ACAD_PROXY_OBJECT
  5
4E
330
48
100
AcDbProxyObject
 90
      499
 91
      509
 95
       25
 70
     0
 93
      148
310
000101439050D351531253915054925390D490
330
48
 94
        0
  0
ACAD_PROXY_OBJECT
  5
4F
330
48
100
AcDbProxyObject
 90
      499
 91
      510
 95
       25
 70
     0
 93
      156
310
000101439050D35154D6535093D314D256915080
330
48
 94
        0
  0
ACAD_PROXY_OBJECT
  5
51
330
48
100
AcDbProxyObject
 90
      499
 91
      512
 95
       25
 70
     0
 93
       88
310
000101411093D34C402B00
330
48
330
0
330
0
 94
        0
  0
ACAD_PROXY_OBJECT
  5
E78
330
48
100
AcDbProxyObject
 90
      499
 91
      510
 95
       25
 70
     0
 93
      108
310
00010142505351D153D35054D4E0
330
48
 94
        0
  0
ACAD_PROXY_OBJECT
  5
E79
330
48
100
AcDbProxyObject
 90
      499
 91
      525
 95
       25
 70
     0
 93
      140
310
00010142105350D55494D511005034A49530
330
48
 94
        0
  0
ACAD_PROXY_OBJECT
  5
3C51
330
48
100
AcDbProxyObject
 90
      499
 91
      537
 95
       25
 70
     0
 93
      478
310
0001014124FEA55D00507392E322E302E32014124FEA55D00507392E322E302E3240501000041131253914182D4454FB21E93F000000000000380FD8
330
48
330
3C52
330
3C58
 94
        0
  0
ACAD_PROXY_OBJECT
  5
3C52
330
48
100
AcDbProxyObject
 90
      499
 91
      538
 95
       25
 70
     0
 93
       56
310
000190240E0000
330
48
330
3C53
330
3C55
 94
        0
  0
ACAD_PROXY_OBJECT
  5
3C53
330
48
100
AcDbProxyObject
 90
      499
 91
      539
 95
       25
 70
     0
 93
       48
310
0001AA000000
330
48
330
1E
330
3C54
330
0
 94
        0
  0
ACAD_PROXY_OBJECT
  5
3C54
330
48
100
AcDbProxyObject
 90
      499
 91
      540
 95
       25
 70
     0
 93
       28
310
0001AAA0
330
48
 94
        0
  0
ACAD_PROXY_OBJECT
  5
3C55
330
48
100
AcDbProxyObject
 90
      499
 91
      539
 95
       25
 70
     0
 93
       48
310
0001AA000000
330
48
330
26
330
3C56
330
0
 94
        0
  0
ACAD_PROXY_OBJECT
  5
3C56
330
48
100
AcDbProxyObject
 90
      499
 91
      540
 95
       25
 70
     0
 93
       28
310
0001AAA0
330
48
 94
        0
  0
ACAD_PROXY_OBJECT
  5
3C59
330
48
100
AcDbProxyObject
 90
      499
 91
      510
 95
       25
 70
     0
 93
      108
310
000101421053521310D05310D010
330
48
 94
        0
  0
ACAD_PROXY_OBJECT
  5
3C5A
330
48
100
AcDbProxyObject
 90
      499
 91
      510
 95
       25
 70
     0
 93
      124
310
00010142905354915554D15112535010
330
48
 94
        0
  0
ACAD_PROXY_OBJECT
  5
3C5B
330
48
100
AcDbProxyObject
 90
      499
 91
      510
 95
       25
 70
     0
 93
      132
310
00010143105354D150D51253D391125360
330
48
 94
        0
  0
ACAD_PROXY_OBJECT
  5
3C5C
330
48
100
AcDbProxyObject
 90
      499
 91
      510
 95
       25
 70
     0
 93
      124
310
00010142905355941093D49111549010
330
48
 94
        0
  0
ACAD_PROXY_OBJECT
  5
3C5D
330
48
100
AcDbProxyObject
 90
      499
 91
      510
 95
       25
 70
     0
 93
      116
310
0001014290535115D1D0D3D313D4A0
330
48
 94
        0
  0
ACAD_PROXY_OBJECT
  5
3C5E
330
48
100
AcDbProxyObject
 90
      499
 91
      510
 95
       25
 70
     0
 93
      148
310
00010143505355925155D49151949154D21010
330
48
 94
        0
  0
ACAD_PROXY_OBJECT
  5
3C5F
330
48
100
AcDbProxyObject
 90
      499
 91
      510
 95
       25
 70
     0
 93
      172
310
00010144105350539393D51154149154D15495915010
330
48
 94
        0
  0
ACAD_PROXY_OBJECT
  5
3C60
330
48
100
AcDbProxyObject
 90
      499
 91
      510
 95
       25
 70
     0
 93
      172
310
00010144105350555513D11253505494905391D15010
330
48
 94
        0
  0
ACAD_PROXY_OBJECT
  5
3C61
330
48
100
AcDbProxyObject
 90
      499
 91
      510
 95
       25
 70
     0
 93
      124
310
00010142D05351561514915191125360
330
48
 94
        0
  0
ACAD_PROXY_OBJECT
  5
3C62
330
48
100
AcDbProxyObject
 90
      499
 91
      510
 95
       25
 70
     0
 93
      132
310
00010142D05355105410539393D5115010
330
48
 94
        0
  0
ACAD_PROXY_OBJECT
  5
3C63
330
48
100
AcDbProxyObject
 90
      499
 91
      510
 95
       25
 70
     0
 93
      108
310
00010142105350555513D0D31010
330
48
 94
        0
  0
ACAD_PROXY_OBJECT
  5
3C64
330
48
100
AcDbProxyObject
 90
      499
 91
      510
 95
       25
 70
     0
 93
      108
310
00010142105350D3119150551050
330
48
 94
        0
  0
ACAD_PROXY_OBJECT
  5
3C65
330
48
100
AcDbProxyObject
 90
      499
 91
      510
 95
       25
 70
     0
 93
      108
310
00010142105350D315925155D3F0
330
48
 94
        0
  0
ACAD_PROXY_OBJECT
  5
3C66
330
48
100
AcDbProxyObject
 90
      499
 91
      510
 95
       25
 70
     0
 93
      148
310
0001014350535212511156915493D112535010
330
48
 94
        0
  0
ACAD_PROXY_OBJECT
  5
3C67
330
48
100
AcDbProxyObject
 90
      499
 91
      510
 95
       25
 70
     0
 93
      124
310
00010142905352105510D21254D3D010
330
48
 94
        0
  0
ACAD_PROXY_OBJECT
  5
3C68
330
48
100
AcDbProxyObject
 90
      499
 91
      510
 95
       25
 70
     0
 93
      148
310
00010143905354D25391D31152105513105660
330
48
 94
        0
  0
ACAD_PROXY_OBJECT
  5
3C69
330
48
100
AcDbProxyObject
 90
      499
 91
      510
 95
       25
 70
     0
 93
      124
310
00010142D0535115D1D193111254D420
330
48
 94
        0
  0
ACAD_PROXY_OBJECT
  5
3C6A
330
48
100
AcDbProxyObject
 90
      499
 91
      510
 95
       25
 70
     0
 93
      100
310
00010142105350555513D213A0
330
48
 94
        0
  0
ACAD_PROXY_OBJECT
  5
3C6B
330
48
100
AcDbProxyObject
 90
      499
 91
      510
 95
       25
 70
     0
 93
      116
310
000101425053521390D3D553951010
330
48
 94
        0
  0
ACAD_PROXY_OBJECT
  5
3C6C
330
48
100
AcDbProxyObject
 90
      499
 91
      510
 95
       25
 70
     0
 93
      108
310
0001014210535213941493D29010
330
48
 94
        0
  0
ACAD_PROXY_OBJECT
  5
3C6D
330
48
100
AcDbProxyObject
 90
      499
 91
      510
 95
       25
 70
     0
 93
      108
310
0001014210535213951654115070
330
48
 94
        0
  0
ACAD_PROXY_OBJECT
  5
3C6E
330
48
100
AcDbProxyObject
 90
      499
 91
      510
 95
       25
 70
     0
 93
      108
310
000101421053521395925155D0F0
330
48
 94
        0
  0
ACAD_PROXY_OBJECT
  5
3C6F
330
48
100
AcDbProxyObject
 90
      499
 91
      510
 95
       25
 70
     0
 93
      140
310
00010143505354D150D51253D390D3D41660
330
48
 94
        0
  0
ACAD_PROXY_OBJECT
  5
3C70
330
48
100
AcDbProxyObject
 90
      499
 91
      510
 95
       25
 70
     0
 93
      108
310
00010142105350D3141493D29030
330
48
 94
        0
  0
ACAD_PROXY_OBJECT
  5
3C71
330
48
100
AcDbProxyObject
 90
      499
 91
      509
 95
       25
 70
     0
 93
      212
310
00010143905350555513D2105510D21493D500000000000002E400
330
48
 94
        0
  0
ACAD_PROXY_OBJECT
  5
3C72
330
48
100
AcDbProxyObject
 90
      499
 91
      510
 95
       25
 70
     0
 93
      156
310
00010143905350555513D2105510D21111551010
330
48
 94
        0
  0
ACAD_PROXY_OBJECT
  5
3C80
330
48
100
AcDbProxyObject
 90
      499
 91
      548
 95
       25
 70
     0
 93
      698
310
0001000000009AA6A9AA4051E576564205365702030382030303A34313A313820323031302028555443290141CE4B8C8B8C0B8C80518547565205365702032382031303A32363A303620323031300141CE4B8C8B8C0B8C80
330
48
330
3C81
330
3C82
330
3C84
330
0
 94
        0
  0
ACAD_PROXY_OBJECT
  5
3C81
330
48
100
AcDbProxyObject
 90
      499
 91
      549
 95
       25
 70
     0
 93
       70
310
0001AAA80820000000
330
48
330
3C81
330
3C81
 94
        0
  0
ACAD_PROXY_OBJECT
  5
3C82
330
48
100
AcDbProxyObject
 90
      499
 91
      550
 95
       25
 70
     0
 93
       48
310
000100000000
330
48
330
0
330
3C83
330
0
330
0
 94
        0
  0
ACAD_PROXY_OBJECT
  5
3C83
330
48
100
AcDbProxyObject
 90
      499
 91
      551
 95
       25
 70
     0
 93
       40
310
000100AAAA
330
48
330
0
 94
        0
  0
ACAD_PROXY_OBJECT
  5
3C89
330
48
100
AcDbProxyObject
 90
      499
 91
      525
 95
       25
 70
     0
 93
      180
310
00010143105050D3D35411119390535140504434F4D500
330
48
 94
        0
  0
ACAD_PROXY_OBJECT
  5
3C8A
330
48
100
AcDbProxyObject
 90
      499
 91
      525
 95
       25
 70
     0
 93
      212
310
0001014390505193D311115491119390535140506466F6C6465720
330
48
 94
        0
  0
ACAD_PROXY_OBJECT
  5
3C8B
330
48
100
AcDbProxyObject
 90
      499
 91
      525
 95
       25
 70
     0
 93
      180
310
00010143105050539393D1119390535140504284156290
330
48
 94
        0
  0
ACAD_PROXY_OBJECT
  5
3C8C
330
48
100
AcDbProxyObject
 90
      499
 91
      525
 95
       25
 70
     0
 93
      436
310
00010143905050D3D35415925155D31254D50052295BD96CA0A90B396CA0A894591A496CA0A8DB691A496CA0A89BA96CA0A95E28F95310
330
48
 94
        0
  0
ACAD_PROXY_OBJECT
  5
3C91
330
48
100
AcDbProxyObject
 90
      499
 91
      556
 95
       25
 70
     0
 93
       32
310
00010000
330
48
340
3C8E
330
3C93
330
3C8E
 94
        0
  0
ACAD_PROXY_OBJECT
  5
3C92
330
48
100
AcDbProxyObject
 90
      499
 91
      557
 95
       25
 70
     0
 93
       18
310
000180
330
48
 94
        0
  0
ACAD_PROXY_OBJECT
  5
3C93
330
48
100
AcDbProxyObject
 90
      499
 91
      558
 95
       25
 70
     0
 93
      154
310
0001014215D0D1920C8D8B4D5050055401550000
330
48
330
3C91
330
3C92
 94
        0
  0
ACAD_PROXY_OBJECT
  5
3C94
330
48
100
AcDbProxyObject
 90
      499
 91
      559
 95
       25
 70
     0
 93
      178
310
000100AAAAAA8057FB2C5F70C093235F14AB9DDC9BF100
330
48
330
3C93
 94
        0
  0
ACAD_PROXY_OBJECT
  5
3C95
330
48
100
AcDbProxyObject
 90
      499
 91
      560
 95
       25
 70
     0
 93
      108
310
000190140A000000000000AAAAA0
330
48
330
3C96
330
3C96
330
3C96
330
3C96
330
3C96
330
0
 94
        0
  0
ACAD_PROXY_OBJECT
  5
3C96
330
48
100
AcDbProxyObject
 90
      499
 91
      561
 95
       25
 70
     0
 93
       51
310
00010000AAAA80
330
48
330
3C95
330
3C93
 94
        0
  0
DICTIONARY
  5
42
102
{ACAD_REACTORS
330
41
102
}
330
41
100
AcDbDictionary
281
     1
  3
AMG_PM_SETTINGS
350
7E
  3
DWGSETTINGS
350
43
  3
FEM
350
C6
  3
Shaft
350
B3
  3
TRANSSETTINGS
350
44
  0
ACAD_PROXY_OBJECT
  5
5D
102
{ACAD_REACTORS
330
41
102
}
330
41
100
AcDbProxyObject
 90
      499
 91
      521
 95
       25
 70
     0
 93
    23216
310
41502491013041105357CC201C00030C0128441013141105357CC603800030C0128441013241105357CCA01400030C0128441013341105357CCE01800030C01149013441105357CD200C00030C01149013541105357CD600C00030C01149013641105357CDA00800030C01289013741105357CDE01000030C0114901384110
310
5357CE200400030C01289013941105357CE63F400030C0241102324141505357CC4C201C00030C0128902344141505357CC4C600C00030C0114902495041505357CC4CA01C00030C012840902304E41505357CC13A01C00030C0128902314E41505357CC53A03800030C0128902324E41505357CC93A01400030C012890233
310
4E41505357CCD3A01800030C0114902344E41505357CD13A00C00030C0114902354E41505357CD53A00C00030C0114902364E41505357CD93A00800030C0128902374E41505357CDD3A01000030C0114902384E41505357CE13A00400030C0128902394E41505357CE53A3F400030C024110332414E41905357CC4C13A01C0
310
0030C012890334414E41905357CC4C53A00C00030C011490349504E41905357CC4C93A01C00030C0128409044B4C494E41505357D0D3200400030C012842504494E464F42105357D410549151A01000030C011442D055241484D3541905357D093D4A01C00030C0128425045649455742105357D5925155D4E00400030C012
310
842D06424548494E4441905357D25395A3F400030C0243505545241494C41505357D514A00C00030C01144250348494441905357D21251201C00030C01284250356495341905357D59254E01C00030C01284250650415244494D42505357D41054911253600C00030C01144250652454644494D42505357D49151911253601
310
000030C0114425774110531514901348070000C3004A1034110915312501348000000C0003FFFFFFFD034110921395901398000000C0003FFFFFFFE415092139594D06424548494E448000000C0003FFFFFFFE411093125110234418000000C0003FFFFFFFD03411093D05410234418000000C0003FFFFFFFD03411093D48C
310
9055241484D358010000C3004A2411093D48CD055241484D358020000C3004A2411093D48D5055241484D358000000C0003FFFFFFFE411093D48DD055241484D3581E0000C3004A103411094105410234418000000C0003FFFFFFFD03411094115610234418000000C0003FFFFFFFD034110951112501358000000C0003FFF
310
FFFFD034110D0530C901348000000C0003FFFFFFFE4110D0530CD01348020000C3004A24110D0530D501348070000C3004A24110D0530DD013481E0000C3004A24110D15393901378000000C0003FFFFFFFE4110D15395D01378000000C0003FFFFFFFE4110D312539044B4C494E8000000C0003FFFFFFFE4110D3D38C5013
310
08000000C0003FFFFFFFD034110D3D38C901318000000C0003FFFFFFFD034110D3D38CD01328000000C0003FFFFFFFD034110D3D38D101328000000C0003FFFFFFFD034111115494101348000000C0003FFFFFFFD034111115510501348000000C0003FFFFFFFE4111125051D01358000000C0003FFFFFFFE4111125312501
310
358000000C0003FFFFFFFE411112535410650415244494D8000000C0003FFFFFFFE411112535490652454644494D8000000C0003FFFFFFFE411156135410234418000000C0003FFFFFFFD034111915353901388000000C0003FFFFFFFE415191535413901388030000C3004524151915354D410234418000000C0003FFFFFF
310
FE4151915354D510234418030000C300452415191535593901328000000C0003FFFFFFFE415191535595101328030000C3004524111931055101308000000C0003FFFFFFFD03411194905490234418000000C0003FFFFFFFD034111D49312501358000000C0003FFFFFFFD034111D5931250234418000000C0003FFFFFFFD0
310
34112105510D01388000000C0003FFFFFFFD014112125113901338000000C0003FFFFFFFD034112125115D01338000000C0003FFFFFFFD034112131253901348000000C0003FFFFFFFD01411213D0D3901378000000C0003FFFFFFFE411213D0D5D01378000000C0003FFFFFFFE4112539193D04494E464F8000000C0003FF
310
FFFFFE4113105112501348000000C0003FFFFFFFD034113115051101358000000C0003FFFFFFFE419397D0921395902394E8000000C0003FFFFFFFE419397D0D3D38C502304E8000000C0003FFFFFFFD03419397D0D3D38C902314E8000000C0003FFFFFFFD03419397D0D3D38CD02324E8000000C0003FFFFFFFD03419397
310
D0D3D38D102324E8000000C0003FFFFFFFD03419397D0D15393902374E8000000C0003FFFFFFFE419397D0D15395D02374E8000000C0003FFFFFFFE419397D1125312502354E8000000C0003FFFFFFFE419397D2105510D02384E8000000C0003FFFFFFFD01419397D2125113902334E8000000C0003FFFFFFFD03419397D2
310
125115D02334E8000000C0003FFFFFFFD03419397D3115051102354E8000000C0003FFFFFFFE419397D391D25410349504E8000000C0003FFFFFFFE419397D412105390334414E8000000C0003FFFFFFFE419397D510D3D3902304E8000000C0003FFFFFFFD03419397D5121312502344E8000000C0003FFFFFFFD01419397
310
D5131153902304E8000000C0003FFFFFFFD03419397D516150CD02364E8000000C0003FFFFFFFD03419397D594131250332414E8000000C0003FFFFFFFE411391D25410249508000000C0003FFFFFFFE411410530C9055241484D358010000C3004A2411410530CD055241484D358020000C3004A2411410530D5055241484
310
D358000000C0003FFFFFFFE411410530DD055241484D3581E0000C3004A103411412105390234418000000C0003FFFFFFFE411413D4D3901368070000C3004A2419413D4D49151901368050000C3004A103411413D4D6101368000000C0003FFFFFFFD03411414D150D0234418000000C0003FFFFFFFD03411490D1D390137
310
8000000C0003FFFFFFFE411490D1D5D01378000000C0003FFFFFFFE4114919112501348000000C0003FFFFFFFD034114945514901348070000C3004A103411494D093D01348000000C0003FFFFFFFD034114D09492D01348000000C0003FFFFFFFD014114D0D153901378000000C0003FFFFFFFD034114D150D51013480000
310
00C0003FFFFFFFD014114D15313901378000000C0003FFFFFFFD034114D15315D01378000000C0003FFFFFFFD034114D4D654D01308000000C0003FFFFFFFD034114D51312501348070000C3004A1034114D6508C501358000000C0003FFFFFFFD034114D6508C901358000000C0003FFFFFFFD034114D6508CD0135802000
310
0C3004A24114D6508D501358070000C3004A1034114D65353901378000000C0003FFFFFFFD034114D65355D01378000000C0003FFFFFFFD03411510D3D3901308000000C0003FFFFFFFD034115121312501348000000C0003FFFFFFFD01411512550C9055241484D358010000C3004A2411512550CD055241484D358020000
310
C3004A2411512550D5055241484D358000000C0003FFFFFFFE411512550DD055241484D3581E0000C3004A1034115131153901308000000C0003FFFFFFFD03415514905253105545241494C8000000C0003FFFFFFFE41151492D3901378000000C0003FFFFFFFD0341151492D5D01378000000C0003FFFFFFFD03411514931
310
2501348000000C0003FFFFFFFD01411516150C501368030000C300452411516150C901368030000C300452411516150CD01368000000C0003FFFFFFFE411516150D501368070000C3004A2411516150DD013681E0000C3004A24115925155D04564945578000000C0003FFFFFFFE41159151121034849448000000C0003FFF
310
FFFFD0241159151159035649538000000C0003FFFFFFFD02411594131250232418000000C0003FFFFFFFE4116925690501348000000C0003FFFFFFFD01411354D653501358020000C3004A2AAA3F400030C0290A4392841D2841914415284111440D144092840528479287F6
340
16
340
16
340
16
340
5E
340
16
340
16
340
16
340
5F
340
16
340
16
340
5F
340
60
340
16
340
16
340
16
340
16
340
5E
340
16
340
16
340
16
340
5F
340
16
340
16
340
5F
340
60
340
16
340
61
340
16
340
16
340
16
340
16
340
16
340
5E
340
16
340
16
340
16
340
62
340
15
340
15
340
15
340
15
340
15
340
15
340
15
340
15
340
15
340
15
340
15
340
15
340
15
340
15
340
15
340
15
340
63
340
15
340
15
340
15
340
15
340
15
340
15
340
15
340
15
340
15
340
15
340
15
340
15
340
15
340
15
340
15
340
16
340
15
340
15
340
15
340
15
340
15
340
15
340
15
340
15
340
62
340
15
340
15
340
63
340
15
340
15
340
15
340
15
340
15
340
15
340
15
340
15
340
15
340
63
340
15
340
15
340
15
340
62
340
15
340
15
340
15
340
15
340
15
340
15
340
15
340
15
340
15
340
15
340
15
340
15
340
15
340
15
340
15
340
15
340
15
340
15
340
15
340
63
340
15
340
15
340
63
340
15
340
15
340
16
340
15
340
63
340
15
340
15
340
62
340
15
340
15
340
16
340
15
340
63
340
15
340
15
340
15
340
15
340
15
340
15
340
15
340
15
340
15
340
63
340
15
340
15
340
15
340
15
340
15
340
15
340
15
340
15
340
15
340
15
340
15
340
66
340
16
 94
        0
  0
ACAD_PROXY_OBJECT
  5
B1
102
{ACAD_REACTORS
330
AC
102
}
330
AC
100
AcDbProxyObject
 90
      499
 91
      524
 95
       25
 70
     0
 93
      253
310
43D1444494D454E53494F4E2C414D44545F2A5F44494D404A9012A404A9012A8
  0
ACAD_PROXY_OBJECT
  5
B0
102
{ACAD_REACTORS
330
AC
102
}
330
AC
100
AcDbProxyObject
 90
      499
 91
      524
 95
       25
 70
     0
 93
      181
310
43D012A42D05357D191504B505357CA9012A404A9012A8
  0
ACAD_PROXY_OBJECT
  5
AD
102
{ACAD_REACTORS
330
AC
102
}
330
AC
100
AcDbProxyObject
 90
      499
 91
      524
 95
       25
 70
     0
 93
      133
310
43D054841544348404A9012A404A9012A8
  0
ACAD_PROXY_OBJECT
  5
AE
102
{ACAD_REACTORS
330
AC
102
}
330
AC
100
AcDbProxyObject
 90
      499
 91
      524
 95
       25
 70
     0
 93
      549
310
43D044C494E4549CE0B0E138B0A8B4E0B0A8B4E138B105357CE0B105357CE138B0A8B505357CE0B0A8B505357CE139012A404A910494E534552542C5354445041525432448
  0
ACAD_PROXY_OBJECT
  5
AF
102
{ACAD_REACTORS
330
AC
102
}
330
AC
100
AcDbProxyObject
 90
      499
 91
      524
 95
       25
 70
     0
 93
      909
310
43D6641434D46434652414D452C41434D444154554D5441524745542C41434D444154554D49442C41434D57454C4453594D2C41434D5355524653594D2C41434D4645415449442C41434D504152545245462C41434D42414C4C4F4F4E2C414D44544544474553594D404A9012A404A9012A8
  0
ACAD_PROXY_OBJECT
  5
5B
102
{ACAD_REACTORS
330
5A
102
}
330
5A
100
AcDbProxyObject
 90
      499
 91
      520
 95
       25
 70
     0
 93
      157
310
057356C1D77406406AA8FFFFFFFF05DD01009010
330
1F
330
0
330
3C93
 94
        0
  0
ACAD_PROXY_OBJECT
  5
E7B
102
{ACAD_REACTORS
330
E7A
102
}
330
E7A
100
AcDbProxyObject
 90
      499
 91
      526
 95
       25
 70
     0
 93
     2379
310
5DC33333333333309408000000C00040D29254D01640600800030C0200800030C003333333333330940C8121E8720B1B6A9BAB9332A32BC3A29BA3220480A1282C6DA8C868CA6E8C88120286A0B1B6ABB2B63234B733A9BA3220480A1082C6DA92C8A6E8C88120285A0B1B6A230BA3AB6A9BA3220480A1282C6DA849E9AA6E
310
8C88120286A0B1A0B6B3AA34BA3632A9BA3220480A2082DAC8E888CAE8C2D2D8A6F2DAA6E8C88120288A0B6B23A29B2B1BA34B7B729BCB6A9BA3220480A2282DAC8E886CADCE8CAE498D2DCCAA6E8C88120288A0B6B23A2A343932B0B22634B732A9BA3220480A1682DAC8E89CDEE8CAA6E8C88120285A0B1A0B6B3A630BCA
310
9BA3220480A1682C682DACE88D2DAA6E8C88120288A0B1A0B6B3A437B632A1B430B93A29BA3220480C812020
340
E7C
360
E7D
360
E7E
360
E7F
360
E80
360
E81
360
E82
360
3C98
360
3C99
360
3C9A
360
3C9C
360
3C9D
360
3C9E
360
3CA4
360
3CA5
360
3CA6
340
0
340
0
 94
        0
  0
ACAD_PROXY_OBJECT
  5
7E
102
{ACAD_REACTORS
330
42
102
}
330
42
100
AcDbProxyObject
 90
      499
 91
      504
 95
       25
 70
     0
 93
      381
310
4050F414D475F504D5F53455454494E4753214829A8E98A8A68682988A942883DA22BA3A9A2AA2A24A723A9A2A7223E8
  0
ACAD_PROXY_OBJECT
  5
43
102
{ACAD_REACTORS
330
42
102
}
330
42
100
AcDbProxyObject
 90
      499
 91
      504
 95
       25
 70
     0
 93
     2892
310
4050B44574753455454494E4753A0E8482A68AA6A88882A069492A684A1A0A723A0A92920ACA0A859699189719981C9A1A1A1A20C868A9C829C8E82A12686AF87260F862666A8321A2A72224A0A50005DDDC5CFB0F81FA0E868A9C889282A682A106260F86460F8666083A1A2A72224A9AA250000000000000042020C868A9
310
C988A9C94000000000000048808321A2A727A323250000000000000122020E868A9C9E8C8C62940000000000000488083A1A2A727A3231925000000000000012202128698929C82A4A482B282A06605C6A8421A624A722AA2CA820A82AC2624A722A1288AE8EAAA68682988A94283A620A9AA27A12520A80982109A82968AA
310
C928AAE9FA04832829A1A0A622830020000419491559254D2505404C1055343414C4541503313A314214D510539110549110540D29254D0954494D455354414D504A02F30A301742B734141D5915494D253D3905414C4D4B8C0C1107B44574753455454494E4753454E447D0
  0
ACAD_PROXY_OBJECT
  5
C6
102
{ACAD_REACTORS
330
42
102
}
330
42
100
AcDbProxyObject
 90
      499
 91
      504
 95
       25
 70
     0
 93
      411
310
4050346454D21092DCC6E486DECACC942842630BCA3B937BAB820A8320A6AFA322A0A20F688AE8EA68AA8A8929C8EA68A9C88FA0
  0
ACAD_PROXY_OBJECT
  5
B3
102
{ACAD_REACTORS
330
42
102
}
330
42
100
AcDbProxyObject
 90
      499
 91
      504
 95
       25
 70
     0
 93
      591
310
40505536861667421292DCE8CAE4E4EAE0E89FC84A634B3B43A2634B732A7E80A1A98D2CED0E898D2DCCAACD2CAEE9FA028229B4B232A7E80A20F688AE8EA68AA8A8929C8EA68A9C88FA
  0
ACAD_PROXY_OBJECT
  5
44
102
{ACAD_REACTORS
330
42
102
}
330
42
100
AcDbProxyObject
 90
      499
 91
      504
 95
       25
 70
     0
 93
      852
310
4050D5452414E5353455454494E4753A2488A482AE929C8EA8A4829CA69882A8929E9C0C00800050D4F524947494E414C4C595F4F4E0600400028529A7AAA921A2A620A723A0A81A52827212AAA0A48AA68AA4AC8A0C0080001107B44574753455454494E4753454E447D0
  0
ACAD_PROXY_OBJECT
  5
E7D
330
E7B
100
AcDbProxyObject
 90
      499
 91
      527
 95
       25
 70
     0
 93
       86
310
5DEA0C80A0280A0280A034
  0
ACAD_PROXY_OBJECT
  5
E7E
330
E7B
100
AcDbProxyObject
 90
      499
 91
      528
 95
       25
 70
     0
 93
      282
310
5DD0E4050140501405014050140501405014050141101405014048000000000000001000
340
E83
 94
        0
  0
ACAD_PROXY_OBJECT
  5
E7F
330
E7B
100
AcDbProxyObject
 90
      499
 91
      529
 95
       25
 70
     0
 93
      323
310
5DCC199999999999E99F91740501405014050140501405014050140501405014050140501405014040
340
0
 94
        0
  0
ACAD_PROXY_OBJECT
  5
E80
330
E7B
100
AcDbProxyObject
 90
      499
 91
      530
 95
       25
 70
     0
 93
       10
310
5DC0
  0
ACAD_PROXY_OBJECT
  5
E81
330
E7B
100
AcDbProxyObject
 90
      499
 91
      531
 95
       25
 70
     0
 93
      257
310
5DE0C16A22A7D90F49F80000000000001081400000000000004204010000618000
340
E84
340
E85
 94
        0
  0
ACAD_PROXY_OBJECT
  5
E82
330
E7B
100
AcDbProxyObject
 90
      499
 91
      532
 95
       25
 70
     0
 93
     5277
310
5DD06411255115350141236025B6901405014069010000000000000910240690120281A8AA2CA0282484A4BE52028120280A032020000000000001220480D202405044E414D454050496BC914F4051C40640A80000000000004E4090193C3D3C4946284953424C414E4B28504152543A4E414D45292C424C4F434B3A4E414D
310
452C504152543A4E414D45293E3C41435F44455343524950544E3E40480A109A82A88AA492829880A091BBD2F7E80A3A80C81D0E27A15AF46E08A81203480901411393D5115014124A363B7D0147501904A0000000000000F902406428F4F1050D7D393D5114F901202832B22A72227A92028366EF6EE06F582028EA0320B4
310
0000000000001F20480C879E9E20A1AFAB27222FA620A122A61F20240506445020000000000000490201C00030C00010180000000000003E400000000000000F901073D3C4954454D3E4050180000000000003E400000000000000F901073D3C4954454D3E40501800000000000034400000000000000D101073D3C4954454
310
D3E40501800000000000034400000000000000D101073D3C4954454D3E405029010000000000000F9000000000000003E4041CF4F125511534F901418F4F1455164F9014060000000000000F9000000000000003E4041CF4F125511534F901800000000000034400000000000000D101073D3C4954454D3E40640400000000
310
0000003E400000000000000F90288800000000000020810000001800120881A068120480A032208521122080D21480D211480A1485214852050000000000003C2FC000000000000F0BF40600800030C0200400030C00CDCCCCCCCCCCEC3F3373333333333B0FC3333333333330940C80D069014090341504901A1999999999
310
9984A040100006180400800061804010000618008098A02808
340
0
340
0
 94
        0
  0
ACAD_PROXY_OBJECT
  5
3C98
330
E7B
100
AcDbProxyObject
 90
      499
 91
      562
 95
       25
 70
     0
 93
     3042
310
5DD9740D29254D064A49535F413342929254D7D512551311505134A49535F42525F5265766973696F6E6C6973744190F4134522028323937783231306D6D2941D29254D7D04D1490E41312028353934783834316D6D2941929254D7D04C50E41332028323937783432306D6D2941929254D7D04CD0F41344C2028323130783
310
239376D6D2941D29254D7D04D1310E41322028343230783539346D6D2941929254D7D04C90F4130202838343178313138396D6D2941929254D7D04C10243129254C82557247A25E4C81050A4A49535F5449544C454143129254C82557247A25E4C81090A4A49535F5449544C45424110E979A97F0838A835883675F42525F4
310
4D29254D7D09497D4995D9A5CDA5BDB9B1A5CDD10E979A97F0838A835883675F54525F44D29254D7D51497D4995D9A5CDA5BDB9B1A5CDD10E979A97F0838A835883675F424C5F44D29254D7D09317D4995D9A5CDA5BDB9B1A5CDD10E979A97F0838A835883675F544C5F44D29254D7D51317D4995D9A5CDA5BDB9B1A5CDD00
  0
ACAD_PROXY_OBJECT
  5
3C99
330
E7B
100
AcDbProxyObject
 90
      499
 91
      563
 95
       25
 70
     0
 93
      898
310
5DC4000000000000124048CF4F11115510525317D3105091530F880A0F11115510525317D05094D4D0D053114F8A50241C9A9999999999B93F26A666666666724FC000000000000E03F400000000000000400000000000000510000000000000024408070000C300000000000000049000
340
16
340
E7C
 94
        0
  0
ACAD_PROXY_OBJECT
  5
3C9A
330
E7B
100
AcDbProxyObject
 90
      499
 91
      564
 95
       25
 70
     0
 93
      823
310
5DC0B00000000000002480959E9E29A2A1AA24A7A72FA620A122A62FA324A929AA1F169E29A2A1AA24A7A72FA620A122A62FA620A9AA1F000000000000048803FFFE01C00030C008140380006180000000000000048800000000000000A2000000000000002480
340
120
340
E7C
 94
        0
  0
ACAD_PROXY_OBJECT
  5
3C9C
330
E7B
100
AcDbProxyObject
 90
      499
 91
      565
 95
       25
 70
     0
 93
      152
310
5DE8273108AC1C5A0640A3D0A5723F0BD1F200
  0
ACAD_PROXY_OBJECT
  5
3C9D
330
E7B
100
AcDbProxyObject
 90
      499
 91
      566
 95
       25
 70
     0
 93
       14
310
5DE0
340
0
 94
        0
  0
ACAD_PROXY_OBJECT
  5
3C9E
330
E7B
100
AcDbProxyObject
 90
      499
 91
      567
 95
       25
 70
     0
 93
     6059
310
5DD084050BA4050AA405024050E836583938376838C815B83672031405983D3C486F6C653A6469613E3C696628657175616C28486F6C653A7465726D696E6174696F6E2C223022292C2220905B82B320222C22208368838A838B22293E3C696628657175616C28486F6C653A7465726D696E6174696F6E2C223022292C486F
310
6C653A64657074682C2222293E2C203C486F6C653A63746469613E2082B482AE82E882CC905B82B3203C486F6C653A637464657074683E406901405034050E836583938376838C815B83672031405EF3D3C486F6C653A6374616E676C653E252564202525633C486F6C653A63746469613E208E4D8C8A2C203C69662865717
310
5616C28486F6C653A7461707065642C223022292C22252563222C486F6C653A6E6F6D696E616C202220782022293E3C696628657175616C28486F6C653A7461707065642C223022292C486F6C653A6469612C486F6C653A706974636864657363293E203C696628657175616C28486F6C653A7465726D696E6174696F6E2C2
310
23022292C22905B82B320222C222022293E3C696628657175616C28486F6C653A7465726D696E6174696F6E2C223022292C486F6C653A64657074682C2222293E406901405014050E836583938376838C815B83672031405C73D3C696628657175616C28486F6C653A7461707065642C223022292C22252563222C486F6C65
310
3A6E6F6D696E616C202220782022293E3C696628657175616C28486F6C653A7461707065642C223022292C486F6C653A6469612C486F6C653A706974636864657363293E203C696628657175616C28486F6C653A7465726D696E6174696F6E2C223022292C22905B82B320222C222022293E3C696628657175616C28486F6C
310
653A7465726D696E6174696F6E2C223022292C486F6C653A64657074682C2222293E4069014051E4090E836583938376838C815B83672032405173D3C535444503A444553433E203C535444503A5354443E40690E836583938376838C815B836720314050C3D3C535444503A444553433E40690240515AAABBA120
360
3CA2
330
3CA2
360
3CA3
330
3CA3
360
3CA1
330
3CA1
360
3CA0
360
3C9F
330
3CA0
330
3C9F
 94
        0
  0
ACAD_PROXY_OBJECT
  5
3CA4
330
E7B
100
AcDbProxyObject
 90
      499
 91
      569
 95
       25
 70
     0
 93
       26
310
5DD02A80
340
5D
 94
        0
  0
ACAD_PROXY_OBJECT
  5
3CA5
330
E7B
100
AcDbProxyObject
 90
      499
 91
      570
 95
       25
 70
     0
 93
      250
310
5DD020000000000000A1000000000000002440408F0F9023C3E409A0DCFFFF80
340
B5
340
0
340
0
340
BC
340
BD
340
BE
340
BF
340
C0
340
C5
340
0
 94
        0
  0
ACAD_PROXY_OBJECT
  5
3CA6
330
E7B
100
AcDbProxyObject
 90
      499
 91
      571
 95
       25
 70
     0
 93
    13889
310
5DD1D003FFFFFFFD030300030CCCCCCCCCCCC250200800030C01030300030CCCCCCCCCCCC250200800030C00050C8DC0955782CC838A83588367014ED1D15395149050D3CB1294138B0C0B23702555E0B320E2A0D620D9CB11D15395149055160B095CCB0A11D1539354D1C819D95B991A5B5E880CCC0A78000C0000000000
310
00000000000000000000010CCCCCCCCCCCC250200800030C010CCCCCCCCCCCC250200800030C020143CF4F111959985D5B1D151A5D1B194F8050A8C8A8365815B8375838B014E51D15395149050D3CB1294138B0C0B2322A0D96056E0DD60E2CB11D15395149055160B095CCB0A11D1539354D1C819D95B991A5B5E880CCC4
310
A78000C000000000000000000000000000000010CCCCCCCCCCCC250200800030C010CCCCCCCCCCCC250200800030C020143CF4F111959985D5B1D151A5D1B194F90D44111409034110541D0C4350F4050E44D03449074510F000141232D24D7C053247454E545241434F2C4A504E2C302C8CB4935F2C47454E54524154582C
310
25732C2847454E4D53472067656E64696D7A20312900010104002214000281464500A608E8A9CA8A482869E5894A09C5860591914588E8A9CA8A482A8B0584AE658508E8A9C9AA68E40CECADCC8D2DAF4406452029E9E9E27B934B3B4B71F1E24A31427A91424A9A12620A7259427B934B3B4B7149624A9A12620A7259424B
310
A32B6949496111116111711149F1E24BA32B69F00808200111A000140560052F47454E545241434F2C4A504E2C302C582C47454E54524154582C25732C2847454E4D53472067656E64696D7A20332900010100002054000280AC80A5E8E8A9CA8A482869E5894A09C586058B2588E8A9CA8A482A8B0584AE658508E8A9C9AA
310
68E40CECADCC8D2DAF4406852000202000040E800050152014BD1D15395149050D3CB1294138B0C0B148B11D15395149055160B095CCB0A11D1539354D1C819D95B991A5B5E880D8A400040400008250000A0507A6029823A2A72A2920A1A79625282716181641E99623A2A72A2920AA2C1612B9961423A2A726A9A39033B2
310
B73234B6BD101B948000808180105A000140A0F4C053047454E545241434F2C4A504E2C302C83D32C47454E54524154582C25732C2847454E4D53472067656E64696D7A203829000101010020F400028248704B5F00A668E8A9CA8A482869E5894A09C58605921C12D7C588E8A9CA8A482A8B0584AE658508E8A9C9AA68E40
310
CECADCC8D2DAF440646052000200080043280005048B4B8A69014CD1D15395149050D3CB1294138B0C0B22D2E29A4B11D15395149055160B095CCB0A11D1539354D1C819D95B991A5B5E880C8C4A4000400100086D0000A09196926BE029923A2A72A2920A1A796252827161816465A49AF9623A2A72A2920AA2C1612B9961
310
423A2A726A9A39033B2B73234B6BD10189480A02620202080043E80005048D8096DA014CD1D15395149050D3CB1294138B0C0B236025B68B11D15395149055160B095CCB0A11D1539354D1C819D95B991A5B5E880C4D0A4000404140280D0000A190687072706CD06C5069D06B0029DA3A2A72A2920A1A7962528271618164
310
1A1C1C9C1B341B141A741AC1623A2A72A2920AA2C1612B9961423A2A726A9A39033B2B73234B6BD10189A94800080820050EA000143A322A0D0E0E4E0D9A0D8A0D3A0D60053D47454E545241434F2C4A504E2C302C8C8A8343839383668362834E83582C47454E54524154582C25732C2847454E4D53472067656E64696D7A
310
2031372900010105002274000281464500A628E8A9CA8A482869E5894A09C5860591914588E8A9CA8A482A8B0584AE658508E8A9C9AA68E40CECADCC8D2DAF440626C52000202080044A8000504909497CA014CD1D15395149050D3CB1294138B0C0B242525F28B11D15395149055160B095CCB0A11D1539354D1C819D95B9
310
91A5B5E880C4E4A400040418008A521E000000000000001CA040C00000000000034408080000000000006881010000000000000D102040000000000001A204080000000000003440818000000000000728103000000000000125020600000000004028A040000000000000034408000000000000004881000000000000000D
310
102000000000000001A204000000000000003440818000000000000508143C0000000000000039408180000000000006881030000000000000D102060000000000001A2040C00000000000034408180000000000006881030000000000000E5020600000000000024A040C0000000000805140800000000000000688100000
310
00000000009102000000000000001A2040000000000000034408180000000000006881030000000000000A10284220000000878000002020000008380000020400000081800000208000000828000002028900000000
340
0
340
0
340
0
340
0
340
E7C
340
E7C
 94
        0
  0
ACAD_PROXY_OBJECT
  5
3CA2
330
3C9E
100
AcDbProxyObject
 90
      499
 91
      568
 95
       25
 70
     0
 93
     1376
310
5DE0143A0D960E4E0DDA0E32056E0D9C80C405983D3C486F6C653A6469613E3C696628657175616C28486F6C653A7465726D696E6174696F6E2C223022292C2220905B82B320222C22208368838A838B22293E3C696628657175616C28486F6C653A7465726D696E6174696F6E2C223022292C486F6C653A64657074682C22
310
22293E2C203C486F6C653A63746469613E2082B482AE82E882CC905B82B3203C486F6C653A637464657074683E
  0
ACAD_PROXY_OBJECT
  5
3CA3
330
3C9E
100
AcDbProxyObject
 90
      499
 91
      568
 95
       25
 70
     0
 93
     2072
310
5DE0143A0D960E4E0DDA0E32056E0D9C80C405EF3D3C486F6C653A6374616E676C653E252564202525633C486F6C653A63746469613E208E4D8C8A2C203C696628657175616C28486F6C653A7461707065642C223022292C22252563222C486F6C653A6E6F6D696E616C202220782022293E3C696628657175616C28486F6C
310
653A7461707065642C223022292C486F6C653A6469612C486F6C653A706974636864657363293E203C696628657175616C28486F6C653A7465726D696E6174696F6E2C223022292C22905B82B320222C222022293E3C696628657175616C28486F6C653A7465726D696E6174696F6E2C223022292C486F6C653A6465707468
310
2C2222293E
  0
ACAD_PROXY_OBJECT
  5
3CA1
330
3C9E
100
AcDbProxyObject
 90
      499
 91
      568
 95
       25
 70
     0
 93
     1752
310
5DE0143A0D960E4E0DDA0E32056E0D9C80C405C73D3C696628657175616C28486F6C653A7461707065642C223022292C22252563222C486F6C653A6E6F6D696E616C202220782022293E3C696628657175616C28486F6C653A7461707065642C223022292C486F6C653A6469612C486F6C653A706974636864657363293E20
310
3C696628657175616C28486F6C653A7465726D696E6174696F6E2C223022292C22905B82B320222C222022293E3C696628657175616C28486F6C653A7465726D696E6174696F6E2C223022292C486F6C653A64657074682C2222293E
  0
ACAD_PROXY_OBJECT
  5
3CA0
330
3C9E
100
AcDbProxyObject
 90
      499
 91
      568
 95
       25
 70
     0
 93
      344
310
5DE0143A0D960E4E0DDA0E32056E0D9C80C805173D3C535444503A444553433E203C535444503A5354443E
  0
ACAD_PROXY_OBJECT
  5
3C9F
330
3C9E
100
AcDbProxyObject
 90
      499
 91
      568
 95
       25
 70
     0
 93
      256
310
5DE0143A0D960E4E0DDA0E32056E0D9C80C4050C3D3C535444503A444553433E
  0
ENDSEC
  0
EOF
