  0
SECTION
  2
HEADER
  9
$ACADVER
  1
AC1015
  9
$ACADMAINTVER
 70
     6
  9
$DWGCODEPAGE
  3
ANSI_932
  9
$INSBASE
 10
0.0
 20
0.0
 30
0.0
  9
$EXTMIN
 10
-78.56587580066423
 20
-88.53106537807244
 30
0.0
  9
$EXTMAX
 10
155.4588124887482
 20
30.2557401869986
 30
0.0
  9
$LIMMIN
 10
0.0
 20
0.0
  9
$LIMMAX
 10
420.0
 20
297.0
  9
$ORTHOMODE
 70
     0
  9
$REGENMODE
 70
     1
  9
$FILLMODE
 70
     1
  9
$QTEXTMODE
 70
     0
  9
$MIRRTEXT
 70
     1
  9
$LTSCALE
 40
1.0
  9
$ATTMODE
 70
     1
  9
$TEXTSIZE
 40
12.0
  9
$TRACEWID
 40
1.0
  9
$TEXTSTYLE
  7
STANDARD
  9
$CLAYER
  8
AM_0
  9
$CELTYPE
  6
ByLayer
  9
$CECOLOR
 62
   256
  9
$CELTSCALE
 40
1.0
  9
$DISPSILH
 70
     0
  9
$DIMSCALE
 40
1.0
  9
$DIMASZ
 40
2.5
  9
$DIMEXO
 40
0.0
  9
$DIMDLI
 40
10.0
  9
$DIMRND
 40
0.0
  9
$DIMDLE
 40
0.0
  9
$DIMEXE
 40
1.0
  9
$DIMTP
 40
0.1
  9
$DIMTM
 40
0.1000000001
  9
$DIMTXT
 40
3.8
  9
$DIMCEN
 40
0.0
  9
$DIMTSZ
 40
0.0
  9
$DIMTOL
 70
     0
  9
$DIMLIM
 70
     0
  9
$DIMTIH
 70
     0
  9
$DIMTOH
 70
     0
  9
$DIMSE1
 70
     0
  9
$DIMSE2
 70
     0
  9
$DIMTAD
 70
     3
  9
$DIMZIN
 70
     1
  9
$DIMBLK
  1
Open30
  9
$DIMASO
 70
     1
  9
$DIMSHO
 70
     1
  9
$DIMPOST
  1

  9
$DIMAPOST
  1
"
  9
$DIMALT
 70
     0
  9
$DIMALTD
 70
     2
  9
$DIMALTF
 40
0.0393701
  9
$DIMLFAC
 40
1.0
  9
$DIMTOFL
 70
     1
  9
$DIMTVP
 40
0.0
  9
$DIMTIX
 70
     0
  9
$DIMSOXD
 70
     0
  9
$DIMSAH
 70
     0
  9
$DIMBLK1
  1

  9
$DIMBLK2
  1

  9
$DIMSTYLE
  2
AM_JIS
  9
$DIMCLRD
 70
   256
  9
$DIMCLRE
 70
   256
  9
$DIMCLRT
 70
     2
  9
$DIMTFAC
 40
0.71
  9
$DIMGAP
 40
1.5
  9
$DIMJUST
 70
     0
  9
$DIMSD1
 70
     0
  9
$DIMSD2
 70
     0
  9
$DIMTOLJ
 70
     0
  9
$DIMTZIN
 70
     8
  9
$DIMALTZ
 70
     0
  9
$DIMALTTZ
 70
     0
  9
$DIMUPT
 70
     0
  9
$DIMDEC
 70
     0
  9
$DIMTDEC
 70
     3
  9
$DIMALTU
 70
     2
  9
$DIMALTTD
 70
     2
  9
$DIMTXSTY
  7
STANDARD
  9
$DIMAUNIT
 70
     1
  9
$DIMADEC
 70
     0
  9
$DIMALTRND
 40
0.0
  9
$DIMAZIN
 70
     2
  9
$DIMDSEP
 70
    46
  9
$DIMATFIT
 70
     3
  9
$DIMFRAC
 70
     0
  9
$DIMLDRBLK
  1
Open30
  9
$DIMLUNIT
 70
     2
  9
$DIMLWD
 70
    -1
  9
$DIMLWE
 70
    -1
  9
$DIMTMOVE
 70
     0
  9
$LUNITS
 70
     2
  9
$LUPREC
 70
     4
  9
$SKETCHINC
 40
1.0
  9
$FILLETRAD
 40
0.4
  9
$AUNITS
 70
     0
  9
$AUPREC
 70
     4
  9
$MENU
  1
.
  9
$ELEVATION
 40
0.0
  9
$PELEVATION
 40
0.0
  9
$THICKNESS
 40
0.0
  9
$LIMCHECK
 70
     0
  9
$CHAMFERA
 40
2.0
  9
$CHAMFERB
 40
2.0
  9
$CHAMFERC
 40
20.0
  9
$CHAMFERD
 40
0.0
  9
$SKPOLY
 70
     0
  9
$TDCREATE
 40
2451943.610431667
  9
$TDUCREATE
 40
2451943.235431667
  9
$TDUPDATE
 40
2455482.588269491
  9
$TDUUPDATE
 40
2455482.213269491
  9
$TDINDWG
 40
2.3933944329
  9
$TDUSRTIMER
 40
2.3933942593
  9
$USRTIMER
 70
     1
  9
$ANGBASE
 50
0.0
  9
$ANGDIR
 70
     0
  9
$PDMODE
 70
     0
  9
$PDSIZE
 40
0.0
  9
$PLINEWID
 40
0.0
  9
$SPLFRAME
 70
     0
  9
$SPLINETYPE
 70
     6
  9
$SPLINESEGS
 70
     8
  9
$HANDSEED
  5
22BBB
  9
$SURFTAB1
 70
     6
  9
$SURFTAB2
 70
     6
  9
$SURFTYPE
 70
     6
  9
$SURFU
 70
     6
  9
$SURFV
 70
     6
  9
$UCSBASE
  2

  9
$UCSNAME
  2

  9
$UCSORG
 10
0.0
 20
0.0
 30
0.0
  9
$UCSXDIR
 10
1.0
 20
0.0
 30
0.0
  9
$UCSYDIR
 10
0.0
 20
1.0
 30
0.0
  9
$UCSORTHOREF
  2

  9
$UCSORTHOVIEW
 70
     0
  9
$UCSORGTOP
 10
0.0
 20
0.0
 30
0.0
  9
$UCSORGBOTTOM
 10
0.0
 20
0.0
 30
0.0
  9
$UCSORGLEFT
 10
0.0
 20
0.0
 30
0.0
  9
$UCSORGRIGHT
 10
0.0
 20
0.0
 30
0.0
  9
$UCSORGFRONT
 10
0.0
 20
0.0
 30
0.0
  9
$UCSORGBACK
 10
0.0
 20
0.0
 30
0.0
  9
$PUCSBASE
  2

  9
$PUCSNAME
  2

  9
$PUCSORG
 10
0.0
 20
0.0
 30
0.0
  9
$PUCSXDIR
 10
1.0
 20
0.0
 30
0.0
  9
$PUCSYDIR
 10
0.0
 20
1.0
 30
0.0
  9
$PUCSORTHOREF
  2

  9
$PUCSORTHOVIEW
 70
     0
  9
$PUCSORGTOP
 10
0.0
 20
0.0
 30
0.0
  9
$PUCSORGBOTTOM
 10
0.0
 20
0.0
 30
0.0
  9
$PUCSORGLEFT
 10
0.0
 20
0.0
 30
0.0
  9
$PUCSORGRIGHT
 10
0.0
 20
0.0
 30
0.0
  9
$PUCSORGFRONT
 10
0.0
 20
0.0
 30
0.0
  9
$PUCSORGBACK
 10
0.0
 20
0.0
 30
0.0
  9
$USERI1
 70
     0
  9
$USERI2
 70
     0
  9
$USERI3
 70
     0
  9
$USERI4
 70
     0
  9
$USERI5
 70
     0
  9
$USERR1
 40
0.0
  9
$USERR2
 40
0.0
  9
$USERR3
 40
0.0
  9
$USERR4
 40
0.0
  9
$USERR5
 40
0.0
  9
$WORLDVIEW
 70
     1
  9
$SHADEDGE
 70
     3
  9
$SHADEDIF
 70
    70
  9
$TILEMODE
 70
     1
  9
$MAXACTVP
 70
    64
  9
$PINSBASE
 10
0.0
 20
0.0
 30
0.0
  9
$PLIMCHECK
 70
     0
  9
$PEXTMIN
 10
1.000000000000000E+20
 20
1.000000000000000E+20
 30
1.000000000000000E+20
  9
$PEXTMAX
 10
-1.000000000000000E+20
 20
-1.000000000000000E+20
 30
-1.000000000000000E+20
  9
$PLIMMIN
 10
0.0
 20
0.0
  9
$PLIMMAX
 10
420.0
 20
297.0
  9
$UNITMODE
 70
     0
  9
$VISRETAIN
 70
     1
  9
$PLINEGEN
 70
     0
  9
$PSLTSCALE
 70
     1
  9
$TREEDEPTH
 70
  3020
  9
$CMLSTYLE
  2
Standard
  9
$CMLJUST
 70
     0
  9
$CMLSCALE
 40
20.0
  9
$PROXYGRAPHICS
 70
     1
  9
$MEASUREMENT
 70
     1
  9
$CELWEIGHT
370
    -1
  9
$ENDCAPS
280
     0
  9
$JOINSTYLE
280
     0
  9
$LWDISPLAY
290
     0
  9
$INSUNITS
 70
     4
  9
$HYPERLINKBASE
  1

  9
$STYLESHEET
  1
sei_cad.ctb
  9
$XEDIT
290
     1
  9
$CEPSNTYPE
380
     0
  9
$PSTYLEMODE
290
     1
  9
$FINGERPRINTGUID
  2
{C77AB3BE-9CA2-11D3-BAF3-006094EB760E}
  9
$VERSIONGUID
  2
{B7A44464-6D04-4BD1-B91E-9B81B99B4728}
  9
$EXTNAMES
290
     1
  9
$PSVPSCALE
 40
0.0
  9
$OLESTARTUP
290
     0
  0
ENDSEC
  0
SECTION
  2
CLASSES
  0
CLASS
  1
ACDBDICTIONARYWDFLT
  2
AcDbDictionaryWithDefault
  3
ObjectDBX Classes
 90
        0
280
     0
281
     0
  0
CLASS
  1
ACDBPLACEHOLDER
  2
AcDbPlaceHolder
  3
ObjectDBX Classes
 90
        0
280
     0
281
     0
  0
CLASS
  1
LAYOUT
  2
AcDbLayout
  3
ObjectDBX Classes
 90
        0
280
     0
281
     0
  0
CLASS
  1
ACME_DOCUMENT
  2
AcMeDbDoc
  3
AcMeServices
 90
        0
280
     1
281
     0
  0
CLASS
  1
ACMESCOPE
  2
AcMeScope
  3
AcMeServices
 90
        0
280
     1
281
     0
  0
CLASS
  1
ACMECOMMANDHISTORY
  2
AcMeCommandHistory
  3
AcMeServices
 90
        0
280
     1
281
     0
  0
CLASS
  1
DICTIONARYVAR
  2
AcDbDictionaryVar
  3
ObjectDBX Classes
 90
        0
280
     0
281
     0
  0
CLASS
  1
ACIMSYSVARMAN
  2
AcImSysVarManager
  3
AcMeServices
 90
        0
280
     1
281
     0
  0
CLASS
  1
ACIMREALSYSVAR
  2
AcImRealSysVar
  3
AcMeServices
 90
        0
280
     1
281
     0
  0
CLASS
  1
ACIMINTSYSVAR
  2
AcImIntSysVar
  3
AcMeServices
 90
        0
280
     1
281
     0
  0
CLASS
  1
ACMEDRAWINGMAN
  2
AcMeDrawingMan
  3
AcMeServices
 90
        0
280
     1
281
     0
  0
CLASS
  1
ACMEVIEW
  2
AcMeView
  3
AcMeServices
 90
        0
280
     1
281
     0
  0
CLASS
  1
ACDBENTITYCACHE
  2
AcMeEntityCache
  3
AcMeServices
 90
        0
280
     1
281
     0
  0
CLASS
  1
GSMANAGER
  2
AcMeGSManager
  3
AcMeServices
 90
        0
280
     1
281
     0
  0
CLASS
  1
AMDTINTERNALREACTOR
  2
AmdtInternalReactor
  3
AcMeServices
 90
        0
280
     1
281
     0
  0
CLASS
  1
ACMESTATEMGR
  2
AcMeStateMgr
  3
AcMeServices
 90
        0
280
     1
281
     0
  0
CLASS
  1
ACME_DATABASE
  2
AcMeDbDatabase
  3
AcMeServices
 90
        0
280
     1
281
     0
  0
CLASS
  1
ACRFINSADJUSTERMGR
  2
AcRfInsAdjusterMgr
  3
AcMeServices
 90
        0
280
     1
281
     0
  0
CLASS
  1
AMGSETTINGSOBJ
  2
AmgSettingsObj
  3
"AcadM|Product Description: AutoCAD Mechanical 2000|Company: Autodesk"
 90
        0
280
     1
281
     0
  0
CLASS
  1
AMGOBJPROPCFG
  2
AmgObjPropCfg
  3
"AmgLay|Product Description: AutoCAD Mechanical 2000|Company: Autodesk"
 90
        1
280
     1
281
     0
  0
CLASS
  1
ACMDATADICTIONARY
  2
AcmDataDictionary
  3
"AcmSymBB|Product Description: AutoCAD Mechanical 2004 DX|Company: Autodesk"
 90
        0
280
     1
281
     0
  0
CLASS
  1
ACMDATAENTRYBLOCK
  2
AcmDataEntryBlock
  3
"AcmSymBB|Product Description: AutoCAD Mechanical 2004 DX|Company: Autodesk"
 90
        0
280
     1
281
     0
  0
CLASS
  1
ACIMSTRSYSVAR
  2
AcImStrSysVar
  3
AcMeServices
 90
        0
280
     1
281
     0
  0
CLASS
  1
ACAMGFILTERDAT
  2
AcAmgFilterDat
  3
"AcadM|Product Description: AutoCAD Mechanical 2000|Company: Autodesk"
 90
        0
280
     1
281
     0
  0
CLASS
  1
LAYER_INDEX
  2
AcDbLayerIndex
  3
ObjectDBX Classes
 90
        0
280
     0
281
     0
  0
CLASS
  1
IDBUFFER
  2
AcDbIdBuffer
  3
ObjectDBX Classes
 90
        0
280
     0
281
     0
  0
CLASS
  1
ACMSTANDARDJIS
  2
AcmStandardJIS
  3
"Amdt_StdImp|Product Description: AutoCAD Mechanical 2004 DX|Company: Autodesk"
 90
        0
280
     1
281
     0
  0
CLASS
  1
ACMSURFSTANDARDJIS
  2
AcmSurfTextStdJIS
  3
"Amdt_StdImp|Product Description: AutoCAD Mechanical 2004 DX|Company: Autodesk"
 90
        0
280
     1
281
     0
  0
CLASS
  1
ACMFCFSTANDARDJIS
  2
AcmFCFStdJIS
  3
"Amdt_StdImp|Product Description: AutoCAD Mechanical 2004 DX|Company: Autodesk"
 90
        0
280
     1
281
     0
  0
CLASS
  1
ACMWELDSTANDARDJIS
  2
AcmWeldingStdJIS
  3
"Amdt_StdImp|Product Description: AutoCAD Mechanical 2004 DX|Company: Autodesk"
 90
        0
280
     1
281
     0
  0
CLASS
  1
ACMIDSTANDARDJIS
  2
AcmIdStdJIS
  3
"Amdt_StdImp|Product Description: AutoCAD Mechanical 2004 DX|Company: Autodesk"
 90
        0
280
     1
281
     0
  0
CLASS
  1
ACMDATUMSTANDARDJIS
  2
AcmDatumStdJIS
  3
"Amdt_StdImp|Product Description: AutoCAD Mechanical 2004 DX|Company: Autodesk"
 90
        0
280
     1
281
     0
  0
CLASS
  1
ACMBOMSTANDARDJIS
  2
AcmBOMStdJIS
  3
"Amdt_StdImp|Product Description: AutoCAD Mechanical 2004 DX|Company: Autodesk"
 90
        0
280
     1
281
     0
  0
CLASS
  1
AMDTNOTE
  2
AmdtNote
  3
"AcmSymBB|Product Description: AutoCAD Mechanical 2004 DX|Company: Autodesk"
 90
     1023
280
     1
281
     1
  0
CLASS
  1
TABLESTYLE
  2
AcDbTableStyle
  3
ObjectDBX Classes
 90
     2047
280
     0
281
     0
  0
CLASS
  1
ACGREFMASTER
  2
AcGrefMaster
  3
AcAttribServices
 90
        0
280
     1
281
     0
  0
CLASS
  1
AM_DRAWING_MGR
  2
AcDmDwgMgr
  3
AcMechDwgViewMgmt
 90
        0
280
     1
281
     0
  0
CLASS
  1
AM_DWG_DOCUMENT
  2
AcDmDwgDocument
  3
AcMechDwgViewMgmt
 90
        0
280
     1
281
     0
  0
CLASS
  1
AM_DWG_SHEET
  2
AcDmSheet
  3
AcMechDwgViewMgmt
 90
        0
280
     1
281
     0
  0
CLASS
  1
AM_VIEWDIMPARMAP
  2
AcDmViewDimParMap
  3
AcMechDwgViewMgmt
 90
        0
280
     1
281
     0
  0
CLASS
  1
AM_DWGMGR_NAME
  2
AcDmDwgMgrName
  3
AcMechDwgViewMgmt
 90
        0
280
     1
281
     0
  0
CLASS
  1
ACGREFACADMASTER
  2
AcGrefacadMaster
  3
AcGrefServices
 90
        0
280
     1
281
     0
  0
CLASS
  1
AMDTMENUSTATEMGR
  2
AmdtMenuStateMgr
  3
McadcomServices
 90
        0
280
     1
281
     0
  0
CLASS
  1
AMDTMCOMMENUSTATE
  2
AmdtMcomMenuState
  3
McadcomServices
 90
        0
280
     1
281
     0
  0
CLASS
  1
AMIMASTER
  2
AmiMaster
  3
AmiServices
 90
        0
280
     1
281
     0
  0
CLASS
  1
MAPIAMMOUDLE
  2
MApiAmModule
  3
MApiAmServices
 90
        0
280
     1
281
     0
  0
CLASS
  1
AMDTADMENUSTATE
  2
AmdtAdMenuState
  3
DesignerServices
 90
        0
280
     1
281
     0
  0
CLASS
  1
ADAPPL
  2
AcAdAppl
  3
DesignerServices
 90
        0
280
     1
281
     0
  0
CLASS
  1
DEPMGR
  2
AcAdDepMgr
  3
DesignerServices
 90
        0
280
     1
281
     0
  0
CLASS
  1
PARAMMGR
  2
AcAdParamMgr
  3
DesignerServices
 90
        0
280
     1
281
     0
  0
CLASS
  1
PARAMSCOPE
  2
AcAdParamScope
  3
DesignerServices
 90
        0
280
     1
281
     0
  0
CLASS
  1
NAMEDAPPL
  2
AcAdNamedAppl
  3
DesignerServices
 90
        0
280
     1
281
     0
  0
CLASS
  1
AMDTDMMENUSTATE
  2
AmdtDmMenuState
  3
AcMechDwgViewMgmt
 90
        0
280
     1
281
     0
  0
CLASS
  1
AMDTAMMENUSTATE
  2
AmdtAmMenuState
  3
DesignerAssemblies
 90
        0
280
     1
281
     0
  0
CLASS
  1
ACAMPROJECT
  2
AcAmProject
  3
DesignerAssemblies
 90
        0
280
     1
281
     0
  0
CLASS
  1
ACAMGRCOMPDEF
  2
AcAmGrCompDef
  3
DesignerAssemblies
 90
        0
280
     1
281
     0
  0
CLASS
  1
ACCMCONTEXT
  2
AcCmContext
  3
DesignerAssemblies
 90
        0
280
     1
281
     0
  0
CLASS
  1
ACAMCOMPDEF
  2
AcAmCompDef
  3
DesignerAssemblies
 90
        0
280
     1
281
     0
  0
CLASS
  1
ACAMCOMPDEFMGR
  2
AcAmCompDefMgr
  3
DesignerAssemblies
 90
        0
280
     1
281
     0
  0
CLASS
  1
AMCONTEXTMGR
  2
AcAmContextMgr
  3
DesignerAssemblies
 90
        0
280
     1
281
     0
  0
CLASS
  1
ACAMCONTEXTMODELER
  2
AcAmContextModeler
  3
DesignerAssemblies
 90
        0
280
     1
281
     0
  0
CLASS
  1
ACAMGTITLESTD
  2
AcAmgTitleStd
  3
"TITLEAPP"
 90
        0
280
     1
281
     0
  0
CLASS
  1
ACMDETAILSTANDARDJIS
  2
AmdtDetailSymStdJIS
  3
"Amdt_StdImp|Product Description: AutoCAD Mechanical 2004 DX|Company: Autodesk"
 90
        0
280
     1
281
     0
  0
CLASS
  1
ACMSECTIONSTANDARDJIS
  2
AmdtSectionSymStdJIS
  3
"Amdt_StdImp|Product Description: AutoCAD Mechanical 2004 DX|Company: Autodesk"
 90
        0
280
     1
281
     0
  0
CLASS
  1
ACMCENTERLINESTANDARDJIS
  2
AmdtCenterLineStdJIS
  3
"Amdt_StdImp|Product Description: AutoCAD Mechanical 2004 DX|Company: Autodesk"
 90
        0
280
     1
281
     0
  0
CLASS
  1
ACMTHREADLINESTANDARDJIS
  2
AmdtThreadLineStdJIS
  3
"Amdt_StdImp|Product Description: AutoCAD Mechanical 2004 DX|Company: Autodesk"
 90
        0
280
     1
281
     0
  0
CLASS
  1
ACMNOTESTANDARDJIS
  2
AmdtNoteStdJIS
  3
"Amdt_StdImp|Product Description: AutoCAD Mechanical 2004 DX|Company: Autodesk"
 90
        0
280
     1
281
     0
  0
CLASS
  1
AMDTNOTETEMPLATEDB
  2
AmdtNoteTemplateDB
  3
AMDT_STDIMP_MODULE_NAME
 90
        0
280
     1
281
     0
  0
CLASS
  1
ACAMGLAYSTD
  2
AcAmgLayStd
  3
"AcAmgLayStd|Product Description: AutoCAD Mechanical 2000|Company: Autodesk"
 90
        0
280
     1
281
     0
  0
CLASS
  1
ACAMGDIMSTD
  2
AcAmgDimStd
  3
"AcAmgDimStd|Product Description: AutoCAD Mechanical 2000|Company: Autodesk"
 90
        0
280
     1
281
     0
  0
CLASS
  1
ACAMGHOLECHARTSTDJIS
  2
AcAmgHoleChartStdJIS
  3
ACMSYMBB_MODULE_NAME
 90
        0
280
     1
281
     0
  0
CLASS
  1
CATALOGSTATE
  2
AcAmCatalogState
  3
DesignerAssemblies
 90
        0
280
     1
281
     0
  0
CLASS
  1
ACAMGRCOMPDEFSET
  2
AcAmGrCompDefSet
  3
DesignerAssemblies
 90
        0
280
     1
281
     0
  0
CLASS
  1
AMDTBROWSERDBTAB
  2
AmdtBrowserDbTab
  3
McadcomServices
 90
        0
280
     1
281
     0
  0
CLASS
  1
CBROWSERAPPOBJECT
  2
CBrowserAppObject
  3
McadcomServices
 90
        0
280
     1
281
     0
  0
CLASS
  1
DM_PLACEHOLDER
  2
AcDmSelsetPlaceholder
  3
AcMechDwgViewMgmt
 90
        0
280
     1
281
     0
  0
CLASS
  1
SORTENTSTABLE
  2
AcDbSortentsTable
  3
ObjectDBX Classes
 90
        0
280
     0
281
     0
  0
ENDSEC
  0
SECTION
  2
TABLES
  0
TABLE
  2
VPORT
  5
8
330
0
100
AcDbSymbolTable
 70
     3
  0
VPORT
  5
22BB3
330
8
100
AcDbSymbolTableRecord
100
AcDbViewportTableRecord
  2
*Active
 70
     0
 10
0.0
 20
0.0
 11
1.0
 21
1.0
 12
57.03864757142033
 22
-26.56207349186173
 13
0.0
 23
0.0
 14
2.5
 24
2.5
 15
10.0
 25
10.0
 16
0.0
 26
0.0
 36
1.0
 17
0.0
 27
0.0
 37
0.0
 40
174.6764266939543
 41
1.610603290676417
 42
50.0
 43
0.0
 44
0.0
 50
0.0
 51
0.0
 71
    16
 72
  2000
 73
     1
 74
     3
 75
     0
 76
     0
 77
     0
 78
     0
281
     0
 65
     1
110
0.0
120
0.0
130
0.0
111
1.0
121
0.0
131
0.0
112
0.0
122
1.0
132
0.0
 79
     0
146
0.0
  0
ENDTAB
  0
TABLE
  2
LTYPE
  5
5
330
0
100
AcDbSymbolTable
 70
    13
  0
LTYPE
  5
14
330
5
100
AcDbSymbolTableRecord
100
AcDbLinetypeTableRecord
  2
ByBlock
 70
     0
  3

 72
    65
 73
     0
 40
0.0
  0
LTYPE
  5
15
330
5
100
AcDbSymbolTableRecord
100
AcDbLinetypeTableRecord
  2
ByLayer
 70
     0
  3

 72
    65
 73
     0
 40
0.0
  0
LTYPE
  5
16
330
5
100
AcDbSymbolTableRecord
100
AcDbLinetypeTableRecord
  2
Continuous
 70
     0
  3
Solid line
 72
    65
 73
     0
 40
0.0
  0
LTYPE
  5
43
330
5
100
AcDbSymbolTableRecord
100
AcDbLinetypeTableRecord
  2
AM_ISO02W050
 70
     0
  3
__ __ __ __ __ __ __ __ __ __ __ __ __ __ __
 72
    65
 73
     2
 40
7.5
 49
6.0
 74
     0
 49
-1.5
 74
     0
  0
LTYPE
  5
44
330
5
100
AcDbSymbolTableRecord
100
AcDbLinetypeTableRecord
  2
AM_ISO08W050
 70
     0
  3
____ . ____ . ____ . ____ . ____ . ____ . ____
 72
    65
 73
     4
 40
18.0
 49
12.0
 74
     0
 49
-1.5
 74
     0
 49
3.0
 74
     0
 49
-1.5
 74
     0
  0
LTYPE
  5
45
330
5
100
AcDbSymbolTableRecord
100
AcDbLinetypeTableRecord
  2
AM_ISO09W050
 70
     0
  3
_____ . . _____ . . _____ . . ____ .. ____
 72
    65
 73
     6
 40
22.5
 49
12.0
 74
     0
 49
-1.5
 74
     0
 49
3.0
 74
     0
 49
-1.5
 74
     0
 49
3.0
 74
     0
 49
-1.5
 74
     0
  0
LTYPE
  5
46
330
5
100
AcDbSymbolTableRecord
100
AcDbLinetypeTableRecord
  2
Amconstr
 70
     0
  3
_______________________
 72
    65
 73
     2
 40
9999.0
 49
9999.0
 74
     0
 49
0.0
 74
     0
  0
LTYPE
  5
47
330
5
100
AcDbSymbolTableRecord
100
AcDbLinetypeTableRecord
  2
AM_ISO02W050x2
 70
     0
  3
 _ _ _ _ _ _ _ _ _ _ _ _
 72
    65
 73
     2
 40
3.75
 49
3.0
 74
     0
 49
-0.75
 74
     0
  0
LTYPE
  5
48
330
5
100
AcDbSymbolTableRecord
100
AcDbLinetypeTableRecord
  2
AM_ISO08W050x2
 70
     0
  3
__ . __ . __ . __ . __ . __
 72
    65
 73
     4
 40
9.0
 49
6.0
 74
     0
 49
-0.75
 74
     0
 49
1.5
 74
     0
 49
-0.75
 74
     0
  0
LTYPE
  5
4B
330
5
100
AcDbSymbolTableRecord
100
AcDbLinetypeTableRecord
  2
Amzigzag
 70
     0
  3
/\/-/\/-/\/-/\/-/\/-/\/
 72
    65
 73
     2
 40
11.0001
 49
0.0001
 74
     4
 75
   135
340
4A
 46
0.04
 50
0.0
 44
0.0
 45
0.0
 49
-11.0
 74
     0
  0
LTYPE
  5
188
330
5
100
AcDbSymbolTableRecord
100
AcDbLinetypeTableRecord
  2
ACJISTGB
 70
     0
  3
__ . . __ . .
 72
    65
 73
     6
 40
9.0
 49
4.0
 74
     0
 49
-1.0
 74
     0
 49
1.0
 74
     0
 49
-1.0
 74
     0
 49
1.0
 74
     0
 49
-1.0
 74
     0
  0
LTYPE
  5
189
330
5
100
AcDbSymbolTableRecord
100
AcDbLinetypeTableRecord
  2
ACJISTGL
 70
     0
  3
_ _ _ _ _
 72
    65
 73
     2
 40
3.0
 49
2.0
 74
     0
 49
-1.0
 74
     0
  0
LTYPE
  5
652
330
5
100
AcDbSymbolTableRecord
100
AcDbLinetypeTableRecord
  2
CENTER
 70
     0
  3
____ _ ____ _ ____ _ ____ _ ____ _ ____ _ ____
 72
    65
 73
     4
 40
17.5
 49
13.0
 74
     0
 49
-1.5
 74
     0
 49
1.5
 74
     0
 49
-1.5
 74
     0
  0
LTYPE
  5
12AB
330
5
100
AcDbSymbolTableRecord
100
AcDbLinetypeTableRecord
  2
HIDDEN
 70
     0
  3
Hidden __ __ __ __ __ __ __ __ __ __ __ __ __ _
 72
    65
 73
     2
 40
0.375
 49
0.25
 74
     0
 49
-0.125
 74
     0
  0
LTYPE
  5
12AC
330
5
100
AcDbSymbolTableRecord
100
AcDbLinetypeTableRecord
  2
PHANTOM2
 70
     0
  3
Phantom (.5x) ___ _ _ ___ _ _ ___ _ _ ___ _ _
 72
    65
 73
     6
 40
1.25
 49
0.625
 74
     0
 49
-0.125
 74
     0
 49
0.125
 74
     0
 49
-0.125
 74
     0
 49
0.125
 74
     0
 49
-0.125
 74
     0
  0
ENDTAB
  0
TABLE
  2
LAYER
  5
2
330
0
100
AcDbSymbolTable
 70
     7
  0
LAYER
  5
10
330
2
100
AcDbSymbolTableRecord
100
AcDbLayerTableRecord
  2
0
 70
     0
 62
     7
  6
Continuous
370
    -3
390
F
  0
LAYER
  5
7D
330
2
100
AcDbSymbolTableRecord
100
AcDbLayerTableRecord
  2
AM_5
 70
     0
 62
     3
  6
Continuous
370
    13
390
F
  0
LAYER
  5
7F
330
2
100
AcDbSymbolTableRecord
100
AcDbLayerTableRecord
  2
Defpoints
 70
     0
 62
     7
  6
Continuous
290
     0
370
    -3
390
F
  0
LAYER
  5
12B1
330
2
100
AcDbSymbolTableRecord
100
AcDbLayerTableRecord
  2
AM_0
 70
     0
 62
     7
  6
Continuous
370
    30
390
F
  0
LAYER
  5
1AFF
330
2
100
AcDbSymbolTableRecord
100
AcDbLayerTableRecord
  2
AM_7
 70
     0
 62
     4
  6
AM_ISO08W050
370
    13
390
F
  0
LAYER
  5
361D
330
2
100
AcDbSymbolTableRecord
100
AcDbLayerTableRecord
  2
AM_11
 70
     0
 62
     3
  6
AM_ISO09W050
370
    13
390
F
  0
ENDTAB
  0
TABLE
  2
STYLE
  5
3
330
0
100
AcDbSymbolTable
 70
     4
  0
STYLE
  5
11
330
3
100
AcDbSymbolTableRecord
100
AcDbTextStyleTableRecord
  2
STANDARD
 70
     0
 40
0.0
 41
1.0
 50
0.0
 71
     0
 42
12.0
  3
ISOCP.SHX
  4
EXTFONT.SHX
  0
STYLE
  5
4A
330
3
100
AcDbSymbolTableRecord
100
AcDbTextStyleTableRecord
  2

 70
     1
 40
0.0
 41
1.0
 50
0.0
 71
     0
 42
2.5
  3
ltypeshp.shx
  4

  0
STYLE
  5
180
330
3
100
AcDbSymbolTableRecord
100
AcDbTextStyleTableRecord
  2
ACJISTS
 70
     0
 40
1.0
 41
1.0
 50
0.0
 71
     0
 42
2.5
  3
isocp.shx
  4
bigfont.shx
  0
STYLE
  5
187
330
3
100
AcDbSymbolTableRecord
100
AcDbTextStyleTableRecord
  2
ACJISGDT
 70
     0
 40
0.0
 41
1.0
 50
0.0
 71
     0
 42
2.5
  3
amgdt.shx
  4

  0
ENDTAB
  0
TABLE
  2
VIEW
  5
6
330
0
100
AcDbSymbolTable
 70
     6
  0
VIEW
  5
A30
330
6
100
AcDbSymbolTableRecord
100
AcDbViewTableRecord
  2
AM_VIEW1
 70
     0
 40
148.5
 10
108.6929657794677
 20
222.75
 41
217.3859315589354
 11
0.0
 21
0.0
 31
1.0
 12
0.0
 22
0.0
 32
0.0
 42
50.0
 43
0.0
 44
0.0
 50
0.0
 71
    16
281
     0
 72
     0
  0
VIEW
  5
A31
330
6
100
AcDbSymbolTableRecord
100
AcDbViewTableRecord
  2
AM_VIEW2
 70
     0
 40
148.5
 10
311.3070342205323
 20
222.75
 41
217.3859315589354
 11
0.0
 21
0.0
 31
1.0
 12
0.0
 22
0.0
 32
0.0
 42
50.0
 43
0.0
 44
0.0
 50
0.0
 71
    16
281
     0
 72
     0
  0
VIEW
  5
A32
330
6
100
AcDbSymbolTableRecord
100
AcDbViewTableRecord
  2
AM_VIEW3
 70
     0
 40
148.5
 10
108.6929657794677
 20
74.25
 41
217.3859315589354
 11
0.0
 21
0.0
 31
1.0
 12
0.0
 22
0.0
 32
0.0
 42
50.0
 43
0.0
 44
0.0
 50
0.0
 71
    16
281
     0
 72
     0
  0
VIEW
  5
A33
330
6
100
AcDbSymbolTableRecord
100
AcDbViewTableRecord
  2
AM_VIEW4
 70
     0
 40
148.5
 10
311.3070342205323
 20
74.25
 41
217.3859315589354
 11
0.0
 21
0.0
 31
1.0
 12
0.0
 22
0.0
 32
0.0
 42
50.0
 43
0.0
 44
0.0
 50
0.0
 71
    16
281
     0
 72
     0
  0
VIEW
  5
A34
330
6
100
AcDbSymbolTableRecord
100
AcDbViewTableRecord
  2
AM_VIEW5
 70
     0
 40
148.5
 10
210.0
 20
148.5
 41
217.3859315589353
 11
0.0
 21
0.0
 31
1.0
 12
0.0
 22
0.0
 32
0.0
 42
50.0
 43
0.0
 44
0.0
 50
0.0
 71
    16
281
     0
 72
     0
  0
VIEW
  5
A35
330
6
100
AcDbSymbolTableRecord
100
AcDbViewTableRecord
  2
AM_VIEW6
 70
     0
 40
296.99703
 10
210.0
 20
148.5
 41
434.7675153992395
 11
0.0
 21
0.0
 31
1.0
 12
0.0
 22
0.0
 32
0.0
 42
50.0
 43
0.0
 44
0.0
 50
0.0
 71
    16
281
     0
 72
     0
  0
ENDTAB
  0
TABLE
  2
UCS
  5
7
330
0
100
AcDbSymbolTable
 70
     0
  0
ENDTAB
  0
TABLE
  2
APPID
  5
9
330
0
100
AcDbSymbolTable
 70
    42
  0
APPID
  5
12
330
9
100
AcDbSymbolTableRecord
100
AcDbRegAppTableRecord
  2
ACAD
 70
     0
  0
APPID
  5
2C
330
9
100
AcDbSymbolTableRecord
100
AcDbRegAppTableRecord
  2
MCAD_NO_VIS
 70
     0
  0
APPID
  5
2D
330
9
100
AcDbSymbolTableRecord
100
AcDbRegAppTableRecord
  2
ACAD_TEMP_GRAPHIC
 70
     0
  0
APPID
  5
B9
330
9
100
AcDbSymbolTableRecord
100
AcDbRegAppTableRecord
  2
GENIUS_GENDTOL_13
 70
     0
  0
APPID
  5
359
330
9
100
AcDbSymbolTableRecord
100
AcDbRegAppTableRecord
  2
GENIUS_GENREC_14
 70
     0
  0
APPID
  5
35A
330
9
100
AcDbSymbolTableRecord
100
AcDbRegAppTableRecord
  2
GENIUS_GENODEF_13
 70
     0
  0
APPID
  5
35B
330
9
100
AcDbSymbolTableRecord
100
AcDbRegAppTableRecord
  2
GENIUS_GENOBJ-N-REC_13
 70
     0
  0
APPID
  5
667
330
9
100
AcDbSymbolTableRecord
100
AcDbRegAppTableRecord
  2
GENIUS_GENCFG_13
 70
     0
  0
APPID
  5
668
330
9
100
AcDbSymbolTableRecord
100
AcDbRegAppTableRecord
  2
GENIUS_GENCFG0_13
 70
     0
  0
APPID
  5
669
330
9
100
AcDbSymbolTableRecord
100
AcDbRegAppTableRecord
  2
GENIUS_GENCFG1_13
 70
     0
  0
APPID
  5
66A
330
9
100
AcDbSymbolTableRecord
100
AcDbRegAppTableRecord
  2
GENIUS_GENCFG2_13
 70
     0
  0
APPID
  5
66B
330
9
100
AcDbSymbolTableRecord
100
AcDbRegAppTableRecord
  2
GENIUS_GENCFG3_13
 70
     0
  0
APPID
  5
66C
330
9
100
AcDbSymbolTableRecord
100
AcDbRegAppTableRecord
  2
GENIUS_GENCFG4_13
 70
     0
  0
APPID
  5
A76
330
9
100
AcDbSymbolTableRecord
100
AcDbRegAppTableRecord
  2
GENIUS_GENBLLY_14
 70
     0
  0
APPID
  5
A77
330
9
100
AcDbSymbolTableRecord
100
AcDbRegAppTableRecord
  2
GENIUS_GENOBJ-N-CEN_13
 70
     0
  0
APPID
  5
A83
330
9
100
AcDbSymbolTableRecord
100
AcDbRegAppTableRecord
  2
GENIUS_GENTRA_14
 70
     0
  0
APPID
  5
A8D
330
9
100
AcDbSymbolTableRecord
100
AcDbRegAppTableRecord
  2
GENIUS_GENOBJ-N-TIT_13
 70
     0
  0
APPID
  5
A8E
330
9
100
AcDbSymbolTableRecord
100
AcDbRegAppTableRecord
  2
GENIUS_GENTITLE_13
 70
     0
  0
APPID
  5
A8F
330
9
100
AcDbSymbolTableRecord
100
AcDbRegAppTableRecord
  2
GENIUS_GENOENT_13
 70
     0
  0
APPID
  5
A90
330
9
100
AcDbSymbolTableRecord
100
AcDbRegAppTableRecord
  2
GENIUS_GENOREF_13
 70
     0
  0
APPID
  5
A91
330
9
100
AcDbSymbolTableRecord
100
AcDbRegAppTableRecord
  2
GENIUS_GENOLIS_13
 70
     0
  0
APPID
  5
A92
330
9
100
AcDbSymbolTableRecord
100
AcDbRegAppTableRecord
  2
GENIUS_GENZVEED_13
 70
     0
  0
APPID
  5
A93
330
9
100
AcDbSymbolTableRecord
100
AcDbRegAppTableRecord
  2
GENIUS_GENSCREG_15
 70
     0
  0
APPID
  5
A94
330
9
100
AcDbSymbolTableRecord
100
AcDbRegAppTableRecord
  2
GENIUS_GENOBJ-N-SDF_13
 70
     0
  0
APPID
  5
12B5
330
9
100
AcDbSymbolTableRecord
100
AcDbRegAppTableRecord
  2
GENIUS_GENOBJ-N-RSBK_13
 70
     0
  0
APPID
  5
12B6
330
9
100
AcDbSymbolTableRecord
100
AcDbRegAppTableRecord
  2
GENIUS_GENOBJ-N-LIB_13
 70
     0
  0
APPID
  5
12B7
330
9
100
AcDbSymbolTableRecord
100
AcDbRegAppTableRecord
  2
GENIUS_GENSCALE_13
 70
     0
  0
APPID
  5
12B8
330
9
100
AcDbSymbolTableRecord
100
AcDbRegAppTableRecord
  2
GENIUS_GENOBJ-N-HTC_13
 70
     0
  0
APPID
  5
12B9
330
9
100
AcDbSymbolTableRecord
100
AcDbRegAppTableRecord
  2
GENIUS_GENHATCH_13
 70
     0
  0
APPID
  5
1687
330
9
100
AcDbSymbolTableRecord
100
AcDbRegAppTableRecord
  2
BASE_TYPE
 70
     0
  0
APPID
  5
1ABF
330
9
100
AcDbSymbolTableRecord
100
AcDbRegAppTableRecord
  2
GENIUS_GENFIL_13
 70
     0
  0
APPID
  5
1AC0
330
9
100
AcDbSymbolTableRecord
100
AcDbRegAppTableRecord
  2
GENIUS_GENOBJ-N-CHA_13
 70
     0
  0
APPID
  5
1AE7
330
9
100
AcDbSymbolTableRecord
100
AcDbRegAppTableRecord
  2
GENIUS_GENOBJ-N-FIL_13
 70
     0
  0
APPID
  5
20E9
330
9
100
AcDbSymbolTableRecord
100
AcDbRegAppTableRecord
  2
GENIUS_GENDIMSH_14
 70
     0
  0
APPID
  5
222D3
330
9
100
AcDbSymbolTableRecord
100
AcDbRegAppTableRecord
  2
AD_DRAW
 70
     0
  0
APPID
  5
222D6
330
9
100
AcDbSymbolTableRecord
100
AcDbRegAppTableRecord
  2
ACATTRIBSERVICES
 70
     0
  0
APPID
  5
222F4
330
9
100
AcDbSymbolTableRecord
100
AcDbRegAppTableRecord
  2
DESIGNERASSEMBLIES
 70
     0
  0
APPID
  5
22307
330
9
100
AcDbSymbolTableRecord
100
AcDbRegAppTableRecord
  2
ACADM_DIM_EDIT
 70
     0
  0
APPID
  5
22308
330
9
100
AcDbSymbolTableRecord
100
AcDbRegAppTableRecord
  2
AMDT_DM_ADJ
 70
     0
  0
APPID
  5
22310
330
9
100
AcDbSymbolTableRecord
100
AcDbRegAppTableRecord
  2
DCO15
 70
     0
  0
APPID
  5
224C8
330
9
100
AcDbSymbolTableRecord
100
AcDbRegAppTableRecord
  2
ACAD_DSTYLE_DIMTEXT_FILL
 70
     0
  0
APPID
  5
224C9
330
9
100
AcDbSymbolTableRecord
100
AcDbRegAppTableRecord
  2
ACAD_PSEXT
 70
     0
  0
ENDTAB
  0
TABLE
  2
DIMSTYLE
  5
A
330
0
100
AcDbSymbolTable
 70
    10
100
AcDbDimStyleTable
  0
DIMSTYLE
105
58
330
A
100
AcDbSymbolTableRecord
100
AcDbDimStyleTableRecord
  2
AM_JIS
 70
     0
  4
"
 41
2.5
 42
0.0
 43
10.0
 44
1.0
 47
0.1
 48
0.1000000001
 73
     0
 74
     0
 77
     3
 78
     1
 79
     2
140
3.8
141
0.0
143
0.0393701
146
0.71
147
1.5
172
     1
176
   256
177
   256
178
     2
179
     2
271
     3
272
     3
275
     1
283
     0
284
     8
340
11
341
59
342
59
371
    -1
372
    -1
  0
DIMSTYLE
105
5F
102
{ACAD_REACTORS
330
1D626
330
20C55
102
}
330
A
100
AcDbSymbolTableRecord
100
AcDbDimStyleTableRecord
  2
AM_JIS$3
 70
     0
  4
"
 41
2.5
 42
0.0
 43
10.0
 44
1.0
 47
0.1
 48
0.1000000001
 73
     0
 77
     3
 78
     1
 79
     2
140
3.8
141
0.0
143
0.0393701
146
0.71
147
1.5
172
     1
176
   256
177
   256
178
     2
179
     2
271
     3
272
     3
275
     1
283
     0
284
     8
288
     1
289
     0
340
11
341
59
342
59
371
    -1
372
    -1
  0
DIMSTYLE
105
60
330
A
100
AcDbSymbolTableRecord
100
AcDbDimStyleTableRecord
  2
AM_JIS$4
 70
     0
  4
"
 41
2.5
 42
0.0
 43
10.0
 44
1.0
 47
0.1
 48
0.1000000001
 73
     0
 77
     3
 78
     1
 79
     2
140
3.8
141
0.0
143
0.0393701
146
0.71
147
1.5
172
     1
176
   256
177
   256
178
     2
179
     2
271
     3
272
     3
275
     1
283
     0
284
     8
288
     1
289
     0
340
11
341
59
342
59
371
    -1
372
    -1
  0
DIMSTYLE
105
61
330
A
100
AcDbSymbolTableRecord
100
AcDbDimStyleTableRecord
  2
AM_JIS$6
 70
     0
  4
"
 41
2.5
 42
0.0
 43
10.0
 44
1.0
 47
0.1
 48
0.1000000001
 73
     0
 74
     0
 78
     1
 79
     2
140
3.8
141
0.0
143
0.0393701
146
0.71
147
1.5
172
     1
176
   256
177
   256
178
     2
179
     2
271
     3
272
     3
275
     1
283
     0
284
     8
340
11
341
59
342
59
371
    -1
372
    -1
  0
DIMSTYLE
105
62
330
A
100
AcDbSymbolTableRecord
100
AcDbDimStyleTableRecord
  2
AM_JIS$7
 70
     0
  4
"
 41
2.5
 42
0.0
 43
10.0
 44
1.0
 47
0.1
 48
0.1000000001
 73
     0
 74
     0
 77
     3
 78
     1
 79
     2
140
5.0
141
0.0
143
0.0393701
146
0.71
147
1.5
172
     1
176
   256
177
   256
178
     2
179
     2
271
     3
272
     3
275
     1
283
     0
284
     8
340
11
341
59
342
59
371
    -1
372
    -1
  0
DIMSTYLE
105
63
330
A
100
AcDbSymbolTableRecord
100
AcDbDimStyleTableRecord
  2
AM_JIS$SF
 70
     0
  4
"
 41
2.5
 42
1.0
 43
10.0
 44
1.0
 47
0.1
 48
0.1
 73
     0
 74
     0
 75
     1
 76
     1
 77
     3
 78
     8
 79
     2
140
3.5
141
0.0
143
0.0393701
146
0.71
147
1.5
176
   256
177
   256
178
     2
271
     2
272
     3
274
     4
340
11
341
59
342
59
343
59
344
59
371
    -1
372
    -1
  0
DIMSTYLE
105
68
330
A
100
AcDbSymbolTableRecord
100
AcDbDimStyleTableRecord
  2
AM_JIS$SH
 70
     0
  4
"
 41
2.5
 42
1.0
 43
10.0
 44
1.0
 47
0.1
 48
0.1
 73
     0
 74
     0
 75
     1
 76
     1
 77
     3
 78
     8
 79
     2
140
3.5
141
0.0
143
0.0393701
144
2.0
146
0.71
147
1.5
173
     1
176
   256
177
   256
178
     2
271
     2
272
     3
274
     4
340
11
341
59
342
59
343
64
344
59
371
    -1
372
    -1
  0
DIMSTYLE
105
65F
330
A
100
AcDbSymbolTableRecord
100
AcDbDimStyleTableRecord
  2
STANDARD
 70
     0
340
11
  0
DIMSTYLE
105
1B97
102
{ACAD_REACTORS
330
F478
330
20DAC
330
22833
330
228D0
102
}
330
A
100
AcDbSymbolTableRecord
100
AcDbDimStyleTableRecord
  2
AM_JIS$0
 70
     0
  4
"
 41
2.5
 42
0.0
 43
10.0
 44
1.0
 47
0.1
 48
0.1000000001
 73
     0
 74
     0
 77
     3
 78
     1
 79
     2
140
3.8
141
0.0
143
0.0393701
146
0.71
147
1.5
172
     1
176
     3
177
     3
178
     2
271
     3
272
     3
275
     1
283
     0
284
     8
289
     0
340
11
341
59
342
59
371
    13
372
    13
  0
DIMSTYLE
105
1B98
102
{ACAD_REACTORS
330
22873
330
22909
102
}
330
A
100
AcDbSymbolTableRecord
100
AcDbDimStyleTableRecord
  2
AM_JIS$2
 70
     0
  4
"
 41
2.5
 42
0.0
 43
10.0
 44
1.0
 47
0.1
 48
0.1000000001
 73
     0
 74
     0
 77
     3
 78
     1
 79
     2
140
3.8
141
0.0
143
0.0393701
146
0.71
147
1.5
172
     1
176
     3
177
     3
178
     2
271
     3
272
     3
275
     1
283
     0
284
     8
289
     0
340
11
341
59
342
59
371
    13
372
    13
  0
ENDTAB
  0
TABLE
  2
BLOCK_RECORD
  5
1
330
0
100
AcDbSymbolTable
 70
    12
  0
BLOCK_RECORD
  5
1F
102
{ACAD_XDICTIONARY
360
165
102
}
330
1
100
AcDbSymbolTableRecord
100
AcDbBlockTableRecord
  2
*Model_Space
340
22
  0
BLOCK_RECORD
  5
1B
330
1
100
AcDbSymbolTableRecord
100
AcDbBlockTableRecord
  2
*Paper_Space
340
1E
  0
BLOCK_RECORD
  5
23
330
1
100
AcDbSymbolTableRecord
100
AcDbBlockTableRecord
  2
*Paper_Space0
340
26
  0
BLOCK_RECORD
  5
59
330
1
100
AcDbSymbolTableRecord
100
AcDbBlockTableRecord
  2
_Open30
340
0
102
{BLKREFS
331
22B3D
331
22B3E
331
22B48
331
22B49
331
22B91
331
22B92
331
22B5A
331
22B5B
331
22B65
331
22B66
331
22B6E
331
22B6F
331
22B79
331
22B7A
331
22B84
331
22B85
102
}
  0
BLOCK_RECORD
  5
64
330
1
100
AcDbSymbolTableRecord
100
AcDbBlockTableRecord
  2
GENAXEH
340
0
  0
BLOCK_RECORD
  5
F479
330
1
100
AcDbSymbolTableRecord
100
AcDbBlockTableRecord
  2
*D3
340
0
  0
BLOCK_RECORD
  5
1D627
330
1
100
AcDbSymbolTableRecord
100
AcDbBlockTableRecord
  2
*D4
340
0
  0
BLOCK_RECORD
  5
20C56
330
1
100
AcDbSymbolTableRecord
100
AcDbBlockTableRecord
  2
*D5
340
0
  0
BLOCK_RECORD
  5
20DAD
330
1
100
AcDbSymbolTableRecord
100
AcDbBlockTableRecord
  2
*D6
340
0
  0
BLOCK_RECORD
  5
222EB
330
1
100
AcDbSymbolTableRecord
100
AcDbBlockTableRecord
  2
*U7
340
0
  0
BLOCK_RECORD
  5
22834
330
1
100
AcDbSymbolTableRecord
100
AcDbBlockTableRecord
  2
*D8
340
0
  0
BLOCK_RECORD
  5
22874
330
1
100
AcDbSymbolTableRecord
100
AcDbBlockTableRecord
  2
*D9
340
0
  0
BLOCK_RECORD
  5
228D1
330
1
100
AcDbSymbolTableRecord
100
AcDbBlockTableRecord
  2
*D10
340
0
  0
BLOCK_RECORD
  5
2290A
330
1
100
AcDbSymbolTableRecord
100
AcDbBlockTableRecord
  2
*D11
340
0
  0
ENDTAB
  0
ENDSEC
  0
SECTION
  2
BLOCKS
  0
BLOCK
  5
20
330
1F
100
AcDbEntity
  8
0
100
AcDbBlockBegin
  2
*Model_Space
 70
     0
 71
     0
 10
0.0
 20
0.0
 30
0.0
  3
*Model_Space
  1

  0
ENDBLK
  5
21
330
1F
100
AcDbEntity
  8
0
100
AcDbBlockEnd
  0
BLOCK
  5
1C
330
1B
100
AcDbEntity
 67
     1
  8
0
100
AcDbBlockBegin
  2
*Paper_Space
 70
     0
 71
     0
 10
0.0
 20
0.0
 30
0.0
  3
*Paper_Space
  1

  0
ENDBLK
  5
1D
330
1B
100
AcDbEntity
 67
     1
  8
0
100
AcDbBlockEnd
  0
BLOCK
  5
24
330
23
100
AcDbEntity
  8
0
100
AcDbBlockBegin
  2
*Paper_Space0
 70
     0
 71
     0
 10
0.0
 20
0.0
 30
0.0
  3
*Paper_Space0
  1

  0
ENDBLK
  5
25
330
23
100
AcDbEntity
  8
0
100
AcDbBlockEnd
  0
BLOCK
  5
5D
330
59
100
AcDbEntity
  8
0
100
AcDbBlockBegin
  2
_Open30
 70
     0
 71
     0
 10
0.0
 20
0.0
 30
0.0
  3
_Open30
  1

  0
LINE
  5
5A
330
59
100
AcDbEntity
  8
0
 62
     0
370
    -2
100
AcDbLine
 10
-1.0
 20
0.26794919
 30
0.0
 11
0.0
 21
0.0
 31
0.0
  0
LINE
  5
5B
330
59
100
AcDbEntity
  8
0
 62
     0
370
    -2
100
AcDbLine
 10
0.0
 20
0.0
 30
0.0
 11
-1.0
 21
-0.26794919
 31
0.0
  0
LINE
  5
5C
330
59
100
AcDbEntity
  8
0
 62
     0
370
    -2
100
AcDbLine
 10
0.0
 20
0.0
 30
0.0
 11
-1.0
 21
0.0
 31
0.0
  0
ENDBLK
  5
5E
330
59
100
AcDbEntity
  8
0
100
AcDbBlockEnd
  0
BLOCK
  5
66
330
64
100
AcDbEntity
  8
0
100
AcDbBlockBegin
  2
GENAXEH
 70
     0
 71
     0
 10
0.0
 20
0.0
 30
0.0
  3
GENAXEH
  1

  0
LINE
  5
65
330
64
100
AcDbEntity
  8
0
100
AcDbLine
 10
-1.0
 20
0.0
 30
0.0
 11
1.0
 21
0.0
 31
0.0
  0
ENDBLK
  5
67
330
64
100
AcDbEntity
  8
0
100
AcDbBlockEnd
  0
BLOCK
  5
F484
330
F479
100
AcDbEntity
  8
0
100
AcDbBlockBegin
  2
*D3
 70
     1
 71
     0
 10
0.0
 20
0.0
 30
0.0
  3
*D3
  1

  0
LINE
  5
22B3A
330
F479
100
AcDbEntity
  8
AM_5
 62
     3
370
    13
100
AcDbLine
 10
96.74999999999994
 20
4.820550528229674
 30
0.0
 11
96.74999999999994
 21
-12.06001906223681
 31
0.0
  0
LINE
  5
22B3B
330
F479
100
AcDbEntity
  8
AM_5
 62
     3
370
    13
100
AcDbLine
 10
105.7499999999999
 20
4.820550528229674
 30
0.0
 11
105.7499999999999
 21
-12.06001906223681
 31
0.0
  0
LINE
  5
22B3C
330
F479
100
AcDbEntity
  8
AM_5
 62
     3
370
    13
100
AcDbLine
 10
99.24999999999994
 20
-11.06001906223681
 30
0.0
 11
103.2499999999999
 21
-11.06001906223681
 31
0.0
  0
INSERT
  5
22B3D
330
F479
100
AcDbEntity
  8
AM_5
 62
     3
370
    13
100
AcDbBlockReference
  2
_Open30
 10
96.74999999999994
 20
-11.06001906223681
 30
0.0
 41
2.5
 42
2.5
 43
2.5
 50
180.0
  0
INSERT
  5
22B3E
330
F479
100
AcDbEntity
  8
AM_5
 62
     3
370
    13
100
AcDbBlockReference
  2
_Open30
 10
105.7499999999999
 20
-11.06001906223681
 30
0.0
 41
2.5
 42
2.5
 43
2.5
  0
MTEXT
  5
22B3F
330
F479
100
AcDbEntity
  8
AM_5
 62
     2
100
AcDbMText
 10
100.9580852345139
 20
-7.660019062236804
 30
0.0
 40
3.8
 41
0.0
 71
     5
 72
     1
  1
9
 73
     1
 44
1.0
  0
POINT
  5
22B40
330
F479
100
AcDbEntity
  8
Defpoints
 62
     0
100
AcDbPoint
 10
96.74999999999994
 20
4.820550528229674
 30
0.0
  0
POINT
  5
22B41
330
F479
100
AcDbEntity
  8
Defpoints
 62
     0
100
AcDbPoint
 10
105.7499999999999
 20
4.820550528229674
 30
0.0
  0
POINT
  5
22B42
330
F479
100
AcDbEntity
  8
Defpoints
 62
     0
100
AcDbPoint
 10
105.7499999999999
 20
-11.06001906223681
 30
0.0
  0
ENDBLK
  5
F485
330
F479
100
AcDbEntity
  8
0
100
AcDbBlockEnd
  0
BLOCK
  5
1D630
330
1D627
100
AcDbEntity
  8
0
100
AcDbBlockBegin
  2
*D4
 70
     1
 71
     0
 10
0.0
 20
0.0
 30
0.0
  3
*D4
  1

  0
LINE
  5
22B43
330
1D627
100
AcDbEntity
  8
AM_5
100
AcDbLine
 10
113.6782551277656
 20
20.18145007980055
 30
0.0
 11
105.3352630017812
 21
20.18145007980054
 31
0.0
  0
LINE
  5
22B44
330
1D627
100
AcDbEntity
  8
AM_5
100
AcDbLine
 10
105.3352630017812
 20
20.18145007980054
 30
0.0
 11
103.4702516314027
 21
14.16383156510894
 31
0.0
  0
LINE
  5
22B45
330
1D627
100
AcDbEntity
  8
AM_5
100
AcDbLine
 10
99.02974836859676
 20
-0.1638315651089997
 30
0.0
 11
98.28966449146242
 21
-2.55177542014534
 31
0.0
  0
MTEXT
  5
22B46
330
1D627
100
AcDbEntity
  8
AM_5
 62
     2
100
AcDbMText
 10
110.2567590647735
 20
23.58145007980055
 30
0.0
 40
3.8
 41
0.0
 71
     5
 72
     1
  1
\U+220510
 73
     1
 44
1.0
  0
LINE
  5
22B47
330
1D627
100
AcDbEntity
  8
AM_5
100
AcDbLine
 10
99.76983224573108
 20
2.224112289927337
 30
0.0
 11
102.7301677542684
 21
11.7758877100726
 31
0.0
  0
INSERT
  5
22B48
330
1D627
100
AcDbEntity
  8
AM_5
100
AcDbBlockReference
  2
_Open30
 10
99.76983224573108
 20
2.224112289927337
 30
0.0
 41
2.5
 42
2.5
 43
2.5
 50
72.78047605034776
  0
INSERT
  5
22B49
330
1D627
100
AcDbEntity
  8
AM_5
100
AcDbBlockReference
  2
_Open30
 10
102.7301677542684
 20
11.7758877100726
 30
0.0
 41
2.5
 42
2.5
 43
2.5
 50
252.7804760503477
  0
POINT
  5
22B4A
330
1D627
100
AcDbEntity
  8
Defpoints
 62
     0
100
AcDbPoint
 10
102.7301677542684
 20
11.7758877100726
 30
0.0
  0
POINT
  5
22B4B
330
1D627
100
AcDbEntity
  8
Defpoints
 62
     0
100
AcDbPoint
 10
99.76983224573108
 20
2.224112289927337
 30
0.0
  0
ENDBLK
  5
1D631
330
1D627
100
AcDbEntity
  8
0
100
AcDbBlockEnd
  0
BLOCK
  5
20C5C
330
20C56
100
AcDbEntity
  8
0
100
AcDbBlockBegin
  2
*D5
 70
     1
 71
     0
 10
0.0
 20
0.0
 30
0.0
  3
*D5
  1

  0
LINE
  5
22B8C
330
20C56
100
AcDbEntity
  8
AM_5
100
AcDbLine
 10
-78.56587580066423
 20
18.62240685366528
 30
0.0
 11
-54.69814979117518
 21
18.62240685366527
 31
0.0
  0
LINE
  5
22B8D
330
20C56
100
AcDbEntity
  8
AM_5
100
AcDbLine
 10
-54.69814979117518
 20
18.62240685366527
 30
0.0
 11
-50.358497967859
 21
13.47879934587568
 31
0.0
  0
LINE
  5
22B8E
330
20C56
100
AcDbEntity
  8
AM_5
100
AcDbLine
 10
-38.75123824660304
 20
-0.2787993458767595
 30
0.0
 11
-37.13911884087305
 21
-2.18957694195349
 31
0.0
  0
MTEXT
  5
22B8F
330
20C56
100
AcDbEntity
  8
AM_5
 62
     2
100
AcDbMText
 10
-67.38201279591971
 20
25.18907352033193
 30
0.0
 40
3.8
 41
0.0
 71
     5
 72
     1
  1
最小加工径\P\U+220513
 73
     1
 44
1.0
  0
LINE
  5
22B90
330
20C56
100
AcDbEntity
  8
AM_5
100
AcDbLine
 10
-40.36335765233304
 20
1.631978250199971
 30
0.0
 11
-48.746378562129
 21
11.56802174979895
 31
0.0
  0
INSERT
  5
22B91
330
20C56
100
AcDbEntity
  8
AM_5
100
AcDbBlockReference
  2
_Open30
 10
-40.36335765233304
 20
1.631978250199971
 30
0.0
 41
2.5
 42
2.5
 43
2.5
 50
130.1542621692341
  0
INSERT
  5
22B92
330
20C56
100
AcDbEntity
  8
AM_5
100
AcDbBlockReference
  2
_Open30
 10
-48.746378562129
 20
11.56802174979895
 30
0.0
 41
2.5
 42
2.5
 43
2.5
 50
310.1542621692341
  0
POINT
  5
22B93
330
20C56
100
AcDbEntity
  8
Defpoints
 62
     0
100
AcDbPoint
 10
-48.746378562129
 20
11.56802174979895
 30
0.0
  0
POINT
  5
22B94
330
20C56
100
AcDbEntity
  8
Defpoints
 62
     0
100
AcDbPoint
 10
-40.36335765233304
 20
1.631978250199971
 30
0.0
  0
ENDBLK
  5
20C5D
330
20C56
100
AcDbEntity
  8
0
100
AcDbBlockEnd
  0
BLOCK
  5
20DB9
330
20DAD
100
AcDbEntity
  8
0
100
AcDbBlockBegin
  2
*D6
 70
     1
 71
     0
 10
0.0
 20
0.0
 30
0.0
  3
*D6
  1

  0
LINE
  5
22B55
330
20DAD
100
AcDbEntity
  8
AM_5
 62
     3
370
    13
100
AcDbLine
 10
0.399995991288904
 20
0.0000000000000284
 30
0.0
 11
17.67303292678685
 21
0.0000000000000235
 31
0.0
  0
LINE
  5
22B56
330
20DAD
100
AcDbEntity
  8
AM_5
 62
     3
370
    13
100
AcDbLine
 10
9.835292171291087
 20
2.4999999999905
 30
0.0
 11
17.67303292678685
 21
2.499999999990498
 31
0.0
  0
LINE
  5
22B57
330
20DAD
100
AcDbEntity
  8
AM_5
 62
     3
370
    13
100
AcDbLine
 10
16.67303292678685
 20
4.999999999990498
 30
0.0
 11
16.67303292678685
 21
7.499999999990498
 31
0.0
  0
LINE
  5
22B58
330
20DAD
100
AcDbEntity
  8
AM_5
 62
     3
370
    13
100
AcDbLine
 10
16.67303292678685
 20
-2.499999999999976
 30
0.0
 11
16.67303292678684
 21
-14.96545254535479
 31
0.0
  0
LINE
  5
22B59
330
20DAD
100
AcDbEntity
  8
AM_5
 62
     3
370
    13
100
AcDbLine
 10
16.67303292678685
 20
2.499999999990498
 30
0.0
 11
16.67303292678685
 21
0.0000000000000238
 31
0.0
  0
INSERT
  5
22B5A
330
20DAD
100
AcDbEntity
  8
AM_5
 62
     3
370
    13
100
AcDbBlockReference
  2
_Open30
 10
16.67303292678685
 20
2.499999999990498
 30
0.0
 41
2.5
 42
2.5
 43
2.5
 50
270.0
  0
INSERT
  5
22B5B
330
20DAD
100
AcDbEntity
  8
AM_5
 62
     3
370
    13
100
AcDbBlockReference
  2
_Open30
 10
16.67303292678685
 20
0.0000000000000238
 30
0.0
 41
2.5
 42
2.5
 43
2.5
 50
90.0
  0
MTEXT
  5
22B5C
330
20DAD
100
AcDbEntity
  8
AM_5
 62
     2
100
AcDbMText
 10
13.27265891103881
 20
-10.67850393700784
 30
0.0
 40
3.8
 41
0.0
 71
     5
 72
     1
  1
2.5
 11
6.123031769111886E-17
 21
1.0
 31
0.0
 73
     1
 44
1.0
  0
POINT
  5
22B5D
330
20DAD
100
AcDbEntity
  8
Defpoints
 62
     0
100
AcDbPoint
 10
0.399995991288904
 20
0.0000000000000284
 30
0.0
  0
POINT
  5
22B5E
330
20DAD
100
AcDbEntity
  8
Defpoints
 62
     0
100
AcDbPoint
 10
9.835292171291087
 20
2.4999999999905
 30
0.0
  0
POINT
  5
22B5F
330
20DAD
100
AcDbEntity
  8
Defpoints
 62
     0
100
AcDbPoint
 10
16.67303292678685
 20
2.499999999990498
 30
0.0
  0
ENDBLK
  5
20DBA
330
20DAD
100
AcDbEntity
  8
0
100
AcDbBlockEnd
  0
BLOCK
  5
222EC
330
222EB
100
AcDbEntity
  8
0
100
AcDbBlockBegin
  2
*U7
 70
     1
 71
     0
 10
0.0
 20
0.0
 30
0.0
  3
*U7
  1

  0
ENDBLK
  5
222ED
330
222EB
100
AcDbEntity
  8
0
100
AcDbBlockEnd
  0
BLOCK
  5
22859
330
22834
100
AcDbEntity
  8
0
100
AcDbBlockBegin
  2
*D8
 70
     1
 71
     0
 10
0.0
 20
0.0
 30
0.0
  3
*D8
  1

  0
LINE
  5
22B60
330
22834
100
AcDbEntity
  8
AM_5
 62
     3
370
    13
100
AcDbLine
 10
0.0
 20
0.0000000000000284
 30
0.0
 11
-7.82781744186758
 21
0.0000000000000306
 31
0.0
  0
LINE
  5
22B61
330
22834
100
AcDbEntity
  8
AM_5
 62
     3
370
    13
100
AcDbLine
 10
-2.715845151416602
 20
7.000000000000025
 30
0.0
 11
-7.827817441867579
 21
7.000000000000026
 31
0.0
  0
LINE
  5
22B62
330
22834
100
AcDbEntity
  8
AM_5
 62
     3
370
    13
100
AcDbLine
 10
-6.827817441867581
 20
-2.49999999999997
 30
0.0
 11
-6.827817441867581
 21
-4.99999999999997
 31
0.0
  0
LINE
  5
22B63
330
22834
100
AcDbEntity
  8
AM_5
 62
     3
370
    13
100
AcDbLine
 10
-6.827817441867579
 20
9.500000000000027
 30
0.0
 11
-6.827817441867578
 21
12.00000000000003
 31
0.0
  0
LINE
  5
22B64
330
22834
100
AcDbEntity
  8
AM_5
 62
     3
370
    13
100
AcDbLine
 10
-6.82781744186758
 20
0.0000000000000304
 30
0.0
 11
-6.827817441867579
 21
7.000000000000026
 31
0.0
  0
INSERT
  5
22B65
330
22834
100
AcDbEntity
  8
AM_5
 62
     3
370
    13
100
AcDbBlockReference
  2
_Open30
 10
-6.82781744186758
 20
0.0000000000000304
 30
0.0
 41
2.5
 42
2.5
 43
2.5
 50
90.0
  0
INSERT
  5
22B66
330
22834
100
AcDbEntity
  8
AM_5
 62
     3
370
    13
100
AcDbBlockReference
  2
_Open30
 10
-6.827817441867579
 20
7.000000000000026
 30
0.0
 41
2.5
 42
2.5
 43
2.5
 50
270.0
  0
MTEXT
  5
22B67
330
22834
100
AcDbEntity
  8
AM_5
 62
     2
100
AcDbMText
 10
-10.22781744186758
 20
3.500000000000027
 30
0.0
 40
3.8
 41
0.0
 71
     5
 72
     1
  1
7
 11
6.123031769111886E-17
 21
1.0
 31
0.0
 73
     1
 44
1.0
  0
POINT
  5
22B68
330
22834
100
AcDbEntity
  8
Defpoints
 62
     0
100
AcDbPoint
 10
0.0
 20
0.0000000000000284
 30
0.0
  0
POINT
  5
22B69
330
22834
100
AcDbEntity
  8
Defpoints
 62
     0
100
AcDbPoint
 10
-2.715845151416602
 20
7.000000000000025
 30
0.0
  0
POINT
  5
22B6A
330
22834
100
AcDbEntity
  8
Defpoints
 62
     0
100
AcDbPoint
 10
-6.827817441867579
 20
7.000000000000026
 30
0.0
  0
ENDBLK
  5
2285A
330
22834
100
AcDbEntity
  8
0
100
AcDbBlockEnd
  0
BLOCK
  5
228BB
330
22874
100
AcDbEntity
  8
0
100
AcDbBlockBegin
  2
*D9
 70
     1
 71
     0
 10
0.0
 20
0.0
 30
0.0
  3
*D9
  1

  0
LINE
  5
22B6B
330
22874
100
AcDbEntity
  8
AM_5
 62
     3
370
    13
100
AcDbLine
 10
0.3624797721676605
 20
7.322900752136572
 30
0.0
 11
1.080020256362898
 21
21.01438881004519
 31
0.0
  0
LINE
  5
22B6C
330
22874
100
AcDbEntity
  8
AM_5
 62
     3
370
    13
100
AcDbLine
 10
-0.0212971941619053
 20
-0.0000000000000015
 30
0.0
 11
-21.06452501658932
 21
-0.0000000000014939
 31
0.0
  0
ARC
  5
22B6D
330
22874
100
AcDbEntity
  8
AM_5
 62
     3
370
    13
100
AcDbCircle
 10
-0.0212971941619053
 20
-0.0000000000000015
 30
0.0
 40
20.04322782242741
100
AcDbArc
 50
94.15116676699995
 51
172.8488332330043
  0
INSERT
  5
22B6E
330
22874
100
AcDbEntity
  8
AM_5
 62
     3
370
    13
100
AcDbBlockReference
  2
_Open30
 10
1.027684300119956
 20
20.01575927529062
 30
0.0
 41
2.5
 42
2.5
 43
2.5
 50
0.5755833835000547
  0
INSERT
  5
22B6F
330
22874
100
AcDbEntity
  8
AM_5
 62
     3
370
    13
100
AcDbBlockReference
  2
_Open30
 10
-20.06452501658932
 20
-0.0000000000014229
 30
0.0
 41
2.5
 42
2.5
 43
2.5
 50
266.4244166165042
  0
MTEXT
  5
22B70
330
22874
100
AcDbEntity
  8
AM_5
 62
     2
100
AcDbMText
 10
-16.15855033476156
 20
17.00511663619045
 30
0.0
 40
3.8
 41
0.0
 71
     5
 72
     1
  1
93°
 11
0.7253743710122617
 21
0.6883545756937813
 31
0.0
 73
     1
 44
1.0
  0
POINT
  5
22B71
330
22874
100
AcDbEntity
  8
Defpoints
 62
     0
100
AcDbPoint
 10
-9.431022683230999
 20
17.69711975893511
 30
0.0
  0
POINT
  5
22B72
330
22874
100
AcDbEntity
  8
Defpoints
 62
     0
100
AcDbPoint
 10
0.0005375895952397
 20
0.4166324934170973
 30
0.0
  0
POINT
  5
22B73
330
22874
100
AcDbEntity
  8
Defpoints
 62
     0
100
AcDbPoint
 10
0.0
 20
0.0
 30
0.0
  0
POINT
  5
22B74
330
22874
100
AcDbEntity
  8
Defpoints
 62
     0
100
AcDbPoint
 10
0.399995991288904
 20
0.0000000000000284
 30
0.0
  0
POINT
  5
22B75
330
22874
100
AcDbEntity
  8
Defpoints
 62
     0
100
AcDbPoint
 10
0.3624797721676605
 20
7.322900752136572
 30
0.0
  0
ENDBLK
  5
228BC
330
22874
100
AcDbEntity
  8
0
100
AcDbBlockEnd
  0
BLOCK
  5
228F0
330
228D1
100
AcDbEntity
  8
0
100
AcDbBlockBegin
  2
*D10
 70
     1
 71
     0
 10
0.0
 20
0.0
 30
0.0
  3
*D10
  1

  0
LINE
  5
22B76
330
228D1
100
AcDbEntity
  8
AM_5
 62
     3
370
    13
100
AcDbLine
 10
0.0
 20
0.0
 30
0.0
 11
-0.0000000000000017
 21
-28.11992037123965
 31
0.0
  0
LINE
  5
22B77
330
228D1
100
AcDbEntity
  8
AM_5
 62
     3
370
    13
100
AcDbLine
 10
150.0
 20
2.499999999999439
 30
0.0
 11
150.0
 21
-28.11992037123965
 31
0.0
  0
LINE
  5
22B78
330
228D1
100
AcDbEntity
  8
AM_5
 62
     3
370
    13
100
AcDbLine
 10
2.499999999999998
 20
-27.11992037123965
 30
0.0
 11
147.5
 21
-27.11992037123965
 31
0.0
  0
INSERT
  5
22B79
330
228D1
100
AcDbEntity
  8
AM_5
 62
     3
370
    13
100
AcDbBlockReference
  2
_Open30
 10
-0.0000000000000017
 20
-27.11992037123965
 30
0.0
 41
2.5
 42
2.5
 43
2.5
 50
180.0
  0
INSERT
  5
22B7A
330
228D1
100
AcDbEntity
  8
AM_5
 62
     3
370
    13
100
AcDbBlockReference
  2
_Open30
 10
150.0
 20
-27.11992037123965
 30
0.0
 41
2.5
 42
2.5
 43
2.5
  0
MTEXT
  5
22B7B
330
228D1
100
AcDbEntity
  8
AM_5
 62
     2
100
AcDbMText
 10
75.0
 20
-23.71992037123965
 30
0.0
 40
3.8
 41
0.0
 71
     5
 72
     1
  1
150
 73
     1
 44
1.0
  0
POINT
  5
22B7C
330
228D1
100
AcDbEntity
  8
Defpoints
 62
     0
100
AcDbPoint
 10
0.0
 20
0.0
 30
0.0
  0
POINT
  5
22B7D
330
228D1
100
AcDbEntity
  8
Defpoints
 62
     0
100
AcDbPoint
 10
150.0
 20
2.499999999999439
 30
0.0
  0
POINT
  5
22B7E
330
228D1
100
AcDbEntity
  8
Defpoints
 62
     0
100
AcDbPoint
 10
150.0
 20
-27.11992037123965
 30
0.0
  0
ENDBLK
  5
228F1
330
228D1
100
AcDbEntity
  8
0
100
AcDbBlockEnd
  0
BLOCK
  5
2293C
330
2290A
100
AcDbEntity
  8
0
100
AcDbBlockBegin
  2
*D11
 70
     1
 71
     0
 10
0.0
 20
0.0
 30
0.0
  3
*D11
  1

  0
LINE
  5
22B7F
330
2290A
100
AcDbEntity
  8
AM_5
 62
     3
370
    13
100
AcDbLine
 10
-44.5548681072309
 20
-0.0002158318786751
 30
0.0
 11
-47.44953296799123
 21
-20.59682653838616
 31
0.0
  0
LINE
  5
22B80
330
2290A
100
AcDbEntity
  8
AM_5
 62
     3
370
    13
100
AcDbLine
 10
-44.5548681072309
 20
-2.338786365380486
 30
0.0
 11
-44.5548681072309
 21
-20.79924122374595
 31
0.0
  0
ARC
  5
22B81
330
2290A
100
AcDbEntity
  8
AM_5
 62
     3
370
    13
100
AcDbCircle
 10
-44.5548681072309
 20
-0.0002158318786751
 30
0.0
 40
19.79902539186728
100
AcDbArc
 50
247.5210269492339
 51
254.7605134745794
  0
ARC
  5
22B82
330
2290A
100
AcDbEntity
  8
AM_5
 62
     3
370
    13
100
AcDbCircle
 10
-44.5548681072309
 20
-0.0002158318786751
 30
0.0
 40
19.79902539186728
100
AcDbArc
 50
277.2394865253455
 51
284.4789730506909
  0
ARC
  5
22B83
330
2290A
100
AcDbEntity
  8
AM_5
 62
     3
370
    13
100
AcDbCircle
 10
-44.5548681072309
 20
-0.0002158318786751
 30
0.0
 40
19.79902539186728
100
AcDbArc
 50
261.9999999999249
 51
270.0
  0
INSERT
  5
22B84
330
2290A
100
AcDbEntity
  8
AM_5
 62
     3
370
    13
100
AcDbBlockReference
  2
_Open30
 10
-47.31035986702987
 20
-19.60655846964477
 30
0.0
 41
2.5
 42
2.5
 43
2.5
 50
348.3802567372521
  0
INSERT
  5
22B85
330
2290A
100
AcDbEntity
  8
AM_5
 62
     3
370
    13
100
AcDbBlockReference
  2
_Open30
 10
-44.5548681072309
 20
-19.79924122374595
 30
0.0
 41
2.5
 42
2.5
 43
2.5
 50
183.6197432626727
  0
MTEXT
  5
22B86
330
2290A
100
AcDbEntity
  8
AM_5
 62
     2
100
AcDbMText
 10
-48.94906634076124
 20
-15.7995530232784
 30
0.0
 40
3.8
 41
0.0
 71
     5
 72
     1
  1
8°
 11
0.9634314731432181
 21
-0.267954840518116
 31
0.0
 73
     1
 44
1.0
  0
POINT
  5
22B87
330
2290A
100
AcDbEntity
  8
Defpoints
 62
     0
100
AcDbPoint
 10
-45.47602394480729
 20
-19.77780108364043
 30
0.0
  0
POINT
  5
22B88
330
2290A
100
AcDbEntity
  8
Defpoints
 62
     0
100
AcDbPoint
 10
-44.5548681072309
 20
17.58829489181181
 30
0.0
  0
POINT
  5
22B89
330
2290A
100
AcDbEntity
  8
Defpoints
 62
     0
100
AcDbPoint
 10
-44.4962838958059
 20
0.4166324923005504
 30
0.0
  0
POINT
  5
22B8A
330
2290A
100
AcDbEntity
  8
Defpoints
 62
     0
100
AcDbPoint
 10
-43.52567119003759
 20
7.32290075102003
 30
0.0
  0
POINT
  5
22B8B
330
2290A
100
AcDbEntity
  8
Defpoints
 62
     0
100
AcDbPoint
 10
-44.5548681072309
 20
-2.338786365380486
 30
0.0
  0
ENDBLK
  5
2293D
330
2290A
100
AcDbEntity
  8
0
100
AcDbBlockEnd
  0
ENDSEC
  0
SECTION
  2
ENTITIES
  0
LINE
  5
EF61
330
1F
100
AcDbEntity
  8
AM_7
  6
AM_ISO08W050x2
100
AcDbLine
 10
101.2499999999999
 20
15.29456830667458
 30
0.0
 11
101.2499999999999
 21
-1.638117260326638
 31
0.0
1001
GENIUS_GENODEF_13
1002
{
1000
HIER
1070
     0
1002
}
1002
{
1000
MANEDIT
1070
     0
1002
}
1002
{
1000
NOSEL
1070
     0
1002
}
1002
{
1000
BEHIND
1070
     0
1002
}
1002
{
1000
REACTOR
1002
}
1001
GENIUS_GENOBJ-N-CEN_13
1002
{
1000
OWNER
1000
GEN
1002
}
  0
DIMENSION
  5
F478
330
1F
100
AcDbEntity
  8
AM_5
100
AcDbDimension
  2
*D3
 10
105.7499999999999
 20
-11.06001906223681
 30
0.0
 11
100.9580852345139
 21
-11.06001906223681
 31
0.0
 70
   160
  1
<>
 71
     5
 42
9.0
  3
AM_JIS$0
100
AcDbAlignedDimension
 13
96.74999999999994
 23
4.820550528229674
 33
0.0
 14
105.7499999999999
 24
4.820550528229674
 34
0.0
100
AcDbRotatedDimension
1001
GENIUS_GENDTOL_13
1000

1000
h7
1000

1040
0.0
1001
ACAD
1000
DSTYLE
1002
{
1070
   271
1070
     0
1002
}
  0
LINE
  5
1D1BB
330
1F
100
AcDbEntity
  8
AM_0
100
AcDbLine
 10
149.4999999999997
 20
9.179449471770347
 30
0.0
 11
110.7499999999999
 21
9.179449471770351
 31
0.0
  0
ARC
  5
1D5BF
330
1F
100
AcDbEntity
  8
AM_0
100
AcDbCircle
 10
101.2499999999999
 20
7.000000000000014
 30
0.0
 40
5.0
100
AcDbArc
 50
205.8419327631672
 51
244.1580672368472
  0
LINE
  5
1D5E5
330
1F
100
AcDbEntity
  8
AM_0
100
AcDbLine
 10
110.7499999999999
 20
4.820550528229671
 30
0.0
 11
149.4999999999999
 21
4.820550528229695
 31
0.0
  0
LINE
  5
1D5E7
330
1F
100
AcDbEntity
  8
AM_0
100
AcDbLine
 10
110.7499999999999
 20
12.00000000000001
 30
0.0
 11
149.5
 21
12.00000000000001
 31
0.0
  0
LINE
  5
1D5E8
330
1F
100
AcDbEntity
  8
AM_0
100
AcDbLine
 10
105.7499999999999
 20
9.179449471770354
 30
0.0
 11
105.7499999999999
 21
4.820550528229674
 31
0.0
  0
LINE
  5
1D5E9
330
1F
100
AcDbEntity
  8
AM_0
100
AcDbLine
 10
96.74999999999994
 20
9.179449471770354
 30
0.0
 11
96.74999999999994
 21
4.820550528229674
 31
0.0
  0
ARC
  5
1D5EA
330
1F
100
AcDbEntity
  8
AM_0
100
AcDbCircle
 10
101.2499999999999
 20
7.000000000000014
 30
0.0
 40
5.0
100
AcDbArc
 50
25.84193276316717
 51
154.1580672368328
  0
DIMENSION
  5
1D626
330
1F
100
AcDbEntity
  8
AM_5
100
AcDbDimension
  2
*D4
 10
99.76983224573108
 20
2.224112289927337
 30
0.0
 11
110.2567590647735
 21
20.18145007980056
 31
0.0
 70
   163
  1
<>
 71
     5
 42
9.999999999999901
  3
AM_JIS$3
100
AcDbDiametricDimension
 15
102.7301677542684
 25
11.7758877100726
 35
0.0
 40
0.0
1001
GENIUS_GENDTOL_13
1000

1000
h7
1000

1040
0.0
1001
ACAD
1000
DSTYLE
1002
{
1070
   271
1070
     0
1070
   289
1070
     3
1002
}
  0
LINE
  5
1E117
330
1F
100
AcDbEntity
  8
AM_7
  6
AM_ISO08W050x2
100
AcDbLine
 10
-44.5548681072309
 20
17.58829489181182
 30
0.0
 11
-44.5548681072309
 21
-2.338786365380486
 31
0.0
1001
GENIUS_GENODEF_13
1002
{
1000
HIER
1070
     0
1002
}
1002
{
1000
MANEDIT
1070
     0
1002
}
1002
{
1000
NOSEL
1070
     0
1002
}
1002
{
1000
BEHIND
1070
     0
1002
}
1002
{
1000
REACTOR
1002
}
1001
GENIUS_GENOBJ-N-CEN_13
1002
{
1000
OWNER
1000
GEN
1002
}
  0
LINE
  5
1E11D
330
1F
100
AcDbEntity
  8
AM_7
  6
AM_ISO08W050x2
100
AcDbLine
 10
-37.70627132974659
 20
7.000000000000032
 30
0.0
 11
-52.4519577083193
 21
7.000000000000032
 31
0.0
1001
GENIUS_GENODEF_13
1002
{
1000
HIER
1070
     0
1002
}
1002
{
1000
MANEDIT
1070
     0
1002
}
1002
{
1000
NOSEL
1070
     0
1002
}
1002
{
1000
BEHIND
1070
     0
1002
}
1002
{
1000
REACTOR
1002
}
1001
GENIUS_GENOBJ-N-CEN_13
1002
{
1000
OWNER
1000
GEN
1002
}
  0
LINE
  5
208C4
330
1F
100
AcDbEntity
  8
AM_0
100
AcDbLine
 10
-46.87103363138516
 20
0.6206238669257971
 30
0.0
 11
-44.55486810332451
 21
-0.0000000010467147
 31
0.0
  0
LINE
  5
208C5
330
1F
100
AcDbEntity
  8
AM_0
100
AcDbLine
 10
-47.04054588410219
 20
1.144994146230573
 30
0.0
 11
-46.81584519885365
 21
1.113413676616716
 31
0.0
  0
LINE
  5
208C6
330
1F
100
AcDbEntity
  8
AM_0
100
AcDbLine
 10
-46.86875442491413
 20
0.6368701047557579
 30
0.0
 11
-46.8158763973492
 21
1.013418060280515
 31
0.0
  0
ELLIPSE
  5
208C7
330
1F
100
AcDbEntity
  8
AM_0
100
AcDbEllipse
 10
-44.499197397209
 20
0.3961070204365456
 30
0.0
 11
0.05567070587043416
 21
0.3961070215331806
 31
0.0
210
0.0
220
0.0
230
1.0
 40
0.0000712886601674
 41
3.141583900443307
 42
4.764240212652122
  0
ELLIPSE
  5
208C8
330
1F
100
AcDbEntity
  8
AM_0
100
AcDbEllipse
 10
-46.85603416934265
 20
0.7273477195239479
 30
0.0
 11
0.0149994619764708
 21
0.1067238526116018
 31
0.0
210
0.0
220
0.0
230
1.0
 40
0.0000712886601674
 41
2.582578647657639
 42
4.764240212652122
  0
LINE
  5
208C9
330
1F
100
AcDbEntity
  8
AM_0
100
AcDbLine
 10
-44.4962838958059
 20
0.4166324923005504
 30
0.0
 11
-43.5256711900376
 21
7.322900751020033
 31
0.0
  0
LINE
  5
208CA
330
1F
100
AcDbEntity
  8
AM_0
100
AcDbLine
 10
-45.90577957158683
 20
7.488705234143257
 30
0.0
 11
-46.85524917923289
 21
0.7328779356395785
 31
0.0
  0
LINE
  5
208CB
330
1F
100
AcDbEntity
  8
AM_0
100
AcDbLine
 10
-43.5256711900376
 20
7.322900751020033
 30
0.0
 11
-45.90577957158683
 21
7.488705234143257
 31
0.0
  0
SPLINE
  5
208CC
330
1F
100
AcDbEntity
  8
AM_0
100
AcDbSpline
210
0.0
220
0.0
230
1.0
 70
    28
 71
     2
 72
     6
 73
     3
 74
     0
 42
0.0000000001
 43
0.0000000001
 40
0.0
 40
0.0
 40
0.0
 40
0.7048271353552877
 40
0.7048271353552877
 40
0.7048271353552877
 10
-49.0548681072309
 20
8.520690632574006
 30
0.0
 41
1.0
 10
-49.0548681072309
 20
8.841624426028636
 30
0.0
 41
1.002290359892188
 10
-49.0548681072309
 20
9.179449471770315
 30
0.0
 41
1.0
  0
LINE
  5
208CD
330
1F
100
AcDbEntity
  8
AM_0
100
AcDbLine
 10
-49.0548681072309
 20
8.520690632574176
 30
0.0
 11
-49.0548681072309
 21
2.53805372933337
 31
0.0
  0
LINE
  5
208CE
330
1F
100
AcDbEntity
  8
AM_0
100
AcDbLine
 10
-43.5256711900376
 20
7.422900752136545
 30
0.0
 11
-42.9564685898053
 21
11.47298769969322
 31
0.0
  0
LINE
  5
208CF
330
1F
100
AcDbEntity
  8
AM_0
100
AcDbLine
 10
-43.5256711900376
 20
7.322900751020033
 30
0.0
 11
-44.90573403274567
 21
7.419039484905685
 31
0.0
  0
LINE
  5
208D0
330
1F
100
AcDbEntity
  8
AM_0
100
AcDbLine
 10
-46.7719070433987
 20
1.325888045546918
 30
0.0
 11
-45.88494663590058
 21
7.636939273952013
 31
0.0
  0
LINE
  5
208D1
330
1F
100
AcDbEntity
  8
AM_0
100
AcDbLine
 10
-45.88494663590069
 20
7.636939273952013
 30
0.0
 11
-44.90573403274578
 21
7.419039484905628
 31
0.0
  0
SPLINE
  5
208D2
330
1F
100
AcDbEntity
  8
AM_0
100
AcDbSpline
210
0.0
220
0.0
230
1.0
 70
     8
 71
     3
 72
    18
 73
    14
 74
     0
 42
0.0000000001
 43
0.0000000001
 40
4.959107545345486
 40
4.959107545345486
 40
4.959107545345486
 40
4.959107545345486
 40
5.128237418386672
 40
5.128237418386672
 40
5.695214440211831
 40
5.695214440211831
 40
6.26219146203699
 40
6.26219146203699
 40
6.829168483862149
 40
6.829168483862149
 40
7.397788976163797
 40
7.397788976163797
 40
7.674137345980665
 40
7.674137345980665
 40
7.674137345980665
 40
7.674137345980665
 10
-43.99738437850948
 20
4.06648701326694
 30
0.0
 10
-43.99789354712033
 20
4.05860588540347
 30
0.0
 10
-43.99814711128335
 20
4.04894329730266
 30
0.0
 10
-43.99814882553488
 20
3.999019854955837
 30
0.0
 10
-43.99524054656507
 20
3.940034295237272
 30
0.0
 10
-43.98547468990677
 20
3.7840923992425
 30
0.0
 10
-43.97864381608764
 20
3.687013705833554
 30
0.0
 10
-43.96441888301166
 20
3.463263983154011
 30
0.0
 10
-43.95707837851904
 20
3.336585188040008
 30
0.0
 10
-43.94537328006351
 20
3.06714797478466
 30
0.0
 10
-43.94056206444151
 20
2.914961763608829
 30
0.0
 10
-43.93805761287621
 20
2.669295611393494
 30
0.0
 10
-43.93797802090461
 20
2.585870888421795
 30
0.0
 10
-43.93885250540569
 20
2.499999999989058
 30
0.0
  0
ELLIPSE
  5
208D3
330
1F
100
AcDbEntity
  8
AM_0
100
AcDbEllipse
 10
-33.38557882554738
 20
7.724052029877356
 30
0.0
 11
1.988421410865996
 21
14.158002024948
 31
0.0
210
0.0
220
0.0
230
1.0
 40
0.6994497735476032
 41
1.405581487896576
 42
1.560637325388991
  0
LINE
  5
208D4
330
1F
100
AcDbEntity
  8
AM_0
100
AcDbLine
 10
-44.21753977090651
 20
2.500000000000028
 30
0.0
 11
-43.93885250540649
 21
2.500000000000028
 31
0.0
  0
LINE
  5
208D5
330
1F
100
AcDbEntity
  8
AM_0
100
AcDbLine
 10
-43.93885250540342
 20
2.500000000000028
 30
0.0
 11
-43.55446565514654
 21
2.500000000000028
 31
0.0
  0
ELLIPSE
  5
208D6
330
1F
100
AcDbEntity
  8
AM_0
100
AcDbEllipse
 10
-44.08903040382728
 20
6.721235223357642
 30
0.0
 11
-5.588955638047119
 21
3.344520975268825
 31
0.0
210
0.0
220
0.0
230
1.0
 40
0.9965203608896263
 41
1.240385779882492
 42
1.52381059037573
  0
SPLINE
  5
208D7
330
1F
100
AcDbEntity
  8
AM_0
100
AcDbSpline
210
0.0
220
0.0
230
1.0
 70
     8
 71
     3
 72
    14
 73
    10
 74
     0
 42
0.0000000001
 43
0.0000000001
 40
0.2785555325875415
 40
0.2785555325875415
 40
0.2785555325875415
 40
0.2785555325875415
 40
0.2970322386584306
 40
0.2970322386584306
 40
0.4824067908633931
 40
0.4824067908633931
 40
0.8415732503086916
 40
0.8415732503086916
 40
0.9287842999136454
 40
0.9287842999136454
 40
0.9287842999136454
 40
0.9287842999136454
 10
-47.04054588410219
 20
1.144994146230573
 30
0.0
 10
-47.04667098574902
 20
1.145849152944521
 30
0.0
 10
-47.05281914993242
 20
1.146752221519137
 30
0.0
 10
-47.12073993863004
 20
1.157006943172434
 30
0.0
 10
-47.18353426868038
 20
1.169590025826835
 30
0.0
 10
-47.35155600583011
 20
1.207973683130746
 30
0.0
 10
-47.47310600653117
 20
1.242453716063295
 30
0.0
 10
-47.62266498545165
 20
1.293778827974364
 30
0.0
 10
-47.65181797094743
 20
1.304199849093266
 30
0.0
 10
-47.68073997911125
 20
1.314960758532578
 30
0.0
  0
ELLIPSE
  5
208D8
330
1F
100
AcDbEntity
  8
AM_0
100
AcDbEllipse
 10
-49.19361676774219
 20
1.750545077776536
 30
0.0
 11
-2.421741976564215
 21
0.3244220424728747
 31
0.0
210
0.0
220
0.0
230
0.9999999999999999
 40
0.1226134319705563
 41
2.261867518894446
 42
3.140800938600721
  0
ELLIPSE
  5
208D9
330
1F
100
AcDbEntity
  8
AM_0
100
AcDbEllipse
 10
-46.77409216945085
 20
1.310493941650094
 30
0.0
 11
0.04175302940282563
 21
0.2970802661498856
 31
0.0
210
0.0
220
0.0
230
1.0
 40
0.0000712886601674
 41
3.141592653588075
 42
4.764240212648139
  0
ARC
  5
208DA
330
1F
100
AcDbEntity
  8
AM_0
100
AcDbCircle
 10
-44.5548681072309
 20
7.000000000000032
 30
0.0
 40
5.0
100
AcDbArc
 50
102.333682657807
 51
154.1580672368325
  0
ARC
  5
208DB
330
1F
100
AcDbEntity
  8
AM_0
100
AcDbCircle
 10
-44.5548681072309
 20
7.000000000000032
 30
0.0
 40
5.0
100
AcDbArc
 50
25.84193276316749
 51
57.66631734219413
  0
SPLINE
  5
208DC
330
1F
100
AcDbEntity
  8
AM_0
100
AcDbSpline
210
0.0
220
0.0
230
1.0
 70
    28
 71
     2
 72
     6
 73
     3
 74
     0
 42
0.0000000001
 43
0.0000000001
 40
0.0
 40
0.0
 40
0.0
 40
0.3690590295142103
 40
0.3690590295142103
 40
0.3690590295142103
 10
-45.67003471542677
 20
11.61723980706691
 30
0.0
 41
1.0
 10
-45.64706762937254
 20
11.74749262465676
 30
0.0
 41
1.000387888384076
 10
-45.62289174931522
 20
11.88460085369818
 30
0.0
 41
1.0
  0
SPLINE
  5
208DD
330
1F
100
AcDbEntity
  8
AM_0
100
AcDbSpline
210
0.0
220
0.0
230
1.0
 70
    28
 71
     2
 72
     6
 73
     3
 74
     0
 42
0.0000000001
 43
0.0000000001
 40
0.0
 40
0.0
 40
0.0
 40
0.3690590295142082
 40
0.3690590295142082
 40
0.3690590295142082
 10
-41.8806222878689
 20
11.22473777856388
 30
0.0
 41
1.0
 10
-41.90479816792634
 20
11.08762954952087
 30
0.0
 41
1.000387888401934
 10
-41.92776525398034
 20
10.95737673193262
 30
0.0
 41
1.0
  0
SPLINE
  5
208DE
330
1F
100
AcDbEntity
  8
AM_0
100
AcDbSpline
210
0.0
220
0.0
230
1.0
 70
     8
 71
     3
 72
    38
 73
    34
 74
     0
 42
0.0000000001
 43
0.0000000001
 40
-5.789259305062259
 40
-5.789259305062259
 40
-5.789259305062259
 40
-5.789259305062259
 40
-5.427283887971704
 40
-5.427283887971704
 40
-5.065308470881149
 40
-5.065308470881149
 40
-4.703333053790594
 40
-4.703333053790594
 40
-4.341357636700039
 40
-4.341357636700039
 40
-3.979675640657804
 40
-3.979675640657804
 40
-3.617993644615571
 40
-3.617993644615571
 40
-3.256311648573337
 40
-3.256311648573337
 40
-2.894629652531103
 40
-2.894629652531103
 40
-2.532947656488869
 40
-2.532947656488869
 40
-2.171265660446634
 40
-2.171265660446634
 40
-1.8095836644044
 40
-1.8095836644044
 40
-1.447901668362166
 40
-1.447901668362166
 40
-1.085926251271625
 40
-1.085926251271625
 40
-0.7239508341810836
 40
-0.7239508341810836
 40
-0.3619754170905427
 40
-0.3619754170905427
 40
0.0
 40
0.0
 40
0.0
 40
0.0
 10
-45.62289174931522
 20
11.88460085369818
 30
0.0
 10
-45.62289174931522
 20
11.88460085369818
 30
0.0
 10
-45.61054824528645
 20
11.88735387890151
 30
0.0
 10
-45.55919559090086
 20
11.89816443125628
 30
0.0
 10
-45.52020544896749
 20
11.90620248441386
 30
0.0
 10
-45.41805663522035
 20
11.92520093238042
 30
0.0
 10
-45.35482413110429
 20
11.93613584291515
 30
0.0
 10
-45.20986769722407
 20
11.95745320058561
 30
0.0
 10
-45.12813851074742
 20
11.96778752564061
 30
0.0
 10
-44.95523143005454
 20
11.98470147821641
 30
0.0
 10
-44.85795192447512
 20
11.99192153801792
 30
0.0
 10
-44.6470202837549
 20
12.00026483480511
 30
0.0
 10
-44.53337361182088
 20
12.00134916942315
 30
0.0
 10
-44.29719865328099
 20
11.99475344556524
 30
0.0
 10
-44.17446533491938
 20
11.98703997770585
 30
0.0
 10
-43.92854496734202
 20
11.9621561173415
 30
0.0
 10
-43.80535629683874
 20
11.94497390489696
 30
0.0
 10
-43.56789814095379
 20
11.90310362522516
 30
0.0
 10
-43.4462619935544
 20
11.8771166167264
 30
0.0
 10
-43.20666165735275
 20
11.81639007732199
 30
0.0
 10
-43.08869190238096
 20
11.78166109901324
 30
0.0
 10
-42.86450416620738
 20
11.70708245888156
 30
0.0
 10
-42.75808209149562
 20
11.66719406661915
 30
0.0
 10
-42.5627247607834
 20
11.58721106220409
 30
0.0
 10
-42.47378133312492
 20
11.54715487484609
 30
0.0
 10
-42.31708673780037
 20
11.47212325390169
 30
0.0
 10
-42.24382097170195
 20
11.43445913683408
 30
0.0
 10
-42.11489744617501
 20
11.3648493528448
 30
0.0
 10
-42.05921828833181
 20
11.33294710798581
 30
0.0
 10
-41.96972765372806
 20
11.28015745470683
 30
0.0
 10
-41.93583808116279
 20
11.25926874153683
 30
0.0
 10
-41.89127979744484
 20
11.23154650304938
 30
0.0
 10
-41.8806222878689
 20
11.22473777856388
 30
0.0
 10
-41.8806222878689
 20
11.22473777856388
 30
0.0
  0
LINE
  5
208DF
330
1F
100
AcDbEntity
  8
AM_0
100
AcDbLine
 10
-40.0548681072309
 20
8.520690632574233
 30
0.0
 11
-40.0548681072309
 21
6.525367205464963
 31
0.0
  0
SPLINE
  5
208E0
330
1F
100
AcDbEntity
  8
AM_0
100
AcDbSpline
210
0.0
220
0.0
230
1.0
 70
    28
 71
     2
 72
     6
 73
     3
 74
     0
 42
0.0000000001
 43
0.0000000001
 40
0.0
 40
0.0
 40
0.0
 40
0.704827135355281
 40
0.704827135355281
 40
0.704827135355281
 10
-40.0548681072309
 20
9.179449471770372
 30
0.0
 41
1.0
 10
-40.0548681072309
 20
8.841624426028634
 30
0.0
 41
1.002290359892201
 10
-40.0548681072309
 20
8.520690632574063
 30
0.0
 41
1.0
  0
SPLINE
  5
208E1
330
1F
100
AcDbEntity
  8
AM_0
100
AcDbSpline
210
0.0
220
0.0
230
1.0
 70
     8
 71
     3
 72
    26
 73
    22
 74
     0
 42
0.0000000001
 43
0.0000000001
 40
7.79289505027665
 40
7.79289505027665
 40
7.79289505027665
 40
7.79289505027665
 40
8.031537546557933
 40
8.031537546557933
 40
8.409222150679874
 40
8.409222150679874
 40
8.786906754801846
 40
8.786906754801846
 40
9.164591358923818
 40
9.164591358923818
 40
9.919960567167761
 40
9.919960567167761
 40
11.24525396444919
 40
11.24525396444919
 40
12.57054736173063
 40
12.57054736173063
 40
13.6325215966379
 40
13.6325215966379
 40
14.69449583154518
 40
14.69449583154518
 40
14.88946341880672
 40
14.88946341880672
 40
14.88946341880672
 40
14.88946341880672
 10
-43.55446565514654
 20
2.500000000000028
 30
0.0
 10
-43.55556788556208
 20
2.577695796761219
 30
0.0
 10
-43.5544109103094
 20
2.656633955543583
 30
0.0
 10
-43.54520555396658
 20
2.861765635857097
 30
0.0
 10
-43.53345996298589
 20
2.988777694557683
 30
0.0
 10
-43.49841668213941
 20
3.23811690058713
 30
0.0
 10
-43.4746970734613
 20
3.363446075670229
 30
0.0
 10
-43.41624257888185
 20
3.608225204514358
 30
0.0
 10
-43.38152703910049
 20
3.727721353538957
 30
0.0
 10
-43.26540721016107
 20
4.070002366303104
 30
0.0
 10
-43.17135707325116
 20
4.27730659264174
 30
0.0
 10
-42.91249508393918
 20
4.758431186892526
 30
0.0
 10
-42.70783591083642
 20
5.041680372966116
 30
0.0
 10
-42.2420337614729
 20
5.539234712932373
 30
0.0
 10
-41.98038218665687
 20
5.752587642116826
 30
0.0
 10
-41.50964531693518
 20
6.055432406052976
 30
0.0
 10
-41.27656675693476
 20
6.17745602628597
 30
0.0
 10
-40.7711087519894
 20
6.377026581677885
 30
0.0
 10
-40.49869333933333
 20
6.454547702063369
 30
0.0
 10
-40.16092355857205
 20
6.510917536018699
 30
0.0
 10
-40.10809031301466
 20
6.518661837811099
 30
0.0
 10
-40.0548681072309
 20
6.525367205464907
 30
0.0
  0
SPLINE
  5
208E2
330
1F
100
AcDbEntity
  8
AM_0
100
AcDbSpline
210
0.0
220
0.0
230
1.0
 70
     8
 71
     3
 72
    24
 73
    20
 74
     0
 42
0.0000000001
 43
0.0000000001
 40
4.494448819848353
 40
4.494448819848353
 40
4.494448819848353
 40
4.494448819848353
 40
4.715427584786975
 40
4.715427584786975
 40
5.096910366599063
 40
5.096910366599063
 40
5.478393148411151
 40
5.478393148411151
 40
5.85987593022324
 40
5.85987593022324
 40
6.241358712035328
 40
6.241358712035328
 40
6.622841493847417
 40
6.622841493847417
 40
7.004324275659505
 40
7.004324275659505
 40
7.385807057471594
 40
7.385807057471594
 40
7.947656282512465
 40
7.947656282512465
 40
7.947656282512465
 40
7.947656282512465
 10
-40.0548681072309
 20
4.820550528229692
 30
0.0
 10
-40.08377461391461
 20
4.76086606122934
 30
0.0
 10
-40.11498899180509
 20
4.699457743154515
 30
0.0
 10
-40.20629009642306
 20
4.529203834744269
 30
0.0
 10
-40.27095557593765
 20
4.41828660428266
 30
0.0
 10
-40.41197933233599
 20
4.197568176090076
 30
0.0
 10
-40.48843762824555
 20
4.087645611229252
 30
0.0
 10
-40.64890269187634
 20
3.875724227504211
 30
0.0
 10
-40.73291328627801
 20
3.773727964349778
 30
0.0
 10
-40.90185036652912
 20
3.583623075897183
 30
0.0
 10
-40.99326843199373
 20
3.488209476363895
 30
0.0
 10
-41.18486636935046
 20
3.303954381653824
 30
0.0
 10
-41.28504325358648
 20
3.215109386613307
 30
0.0
 10
-41.48766172989741
 20
3.049127226517868
 30
0.0
 10
-41.59021209565088
 20
2.971876474172376
 30
0.0
 10
-41.79074387051134
 20
2.831717187273426
 30
0.0
 10
-41.88871040989142
 20
2.768784495710378
 30
0.0
 10
-42.1168584181533
 20
2.631793182979692
 30
0.0
 10
-42.24925880874122
 20
2.5611019928227
 30
0.0
 10
-42.37541863546056
 20
2.500000000000028
 30
0.0
  0
LINE
  5
208E3
330
1F
100
AcDbEntity
  8
AM_0
100
AcDbLine
 10
-42.37541863546056
 20
2.500000000000028
 30
0.0
 11
-43.55446565514654
 21
2.500000000000028
 31
0.0
  0
LINE
  5
208E4
330
1F
100
AcDbEntity
  8
AM_0
100
AcDbLine
 10
-40.0548681072309
 20
6.525367205464963
 30
0.0
 11
-40.0548681072309
 21
4.820550528229749
 31
0.0
  0
SPLINE
  5
208E5
330
1F
100
AcDbEntity
  8
AM_0
100
AcDbSpline
210
0.0
220
0.0
230
1.0
 70
     8
 71
     3
 72
    12
 73
     8
 74
     0
 42
0.0000000001
 43
0.0000000001
 40
12.41813919982673
 40
12.41813919982673
 40
12.41813919982673
 40
12.41813919982673
 40
13.23622911981591
 40
13.23622911981591
 40
14.43683687814908
 40
14.43683687814908
 40
15.01969806414276
 40
15.01969806414276
 40
15.01969806414276
 40
15.01969806414276
 10
-42.82651976523727
 20
11.42439962127546
 30
0.0
 10
-42.78055459533681
 20
11.40644377822614
 30
0.0
 10
-42.72217001085727
 20
11.38286956978923
 30
0.0
 10
-42.54954505284064
 20
11.30740484157085
 30
0.0
 10
-42.42165370895515
 20
11.24731467215137
 30
0.0
 10
-42.20441466909091
 20
11.12848849279621
 30
0.0
 10
-42.12916403387607
 20
11.08496719321883
 30
0.0
 10
-42.05083258517908
 20
11.03637288952101
 30
0.0
  0
ARC
  5
208E6
330
1F
100
AcDbEntity
  8
AM_0
100
AcDbCircle
 10
-44.5548681072309
 20
7.000000000000032
 30
0.0
 40
4.749999999999874
100
AcDbArc
 50
68.66238523464588
 51
70.33590793014221
  0
ARC
  5
208E7
330
1F
100
AcDbEntity
  8
AM_0
100
AcDbCircle
 10
-44.5548681072309
 20
7.000000000000032
 30
0.0
 40
4.749999999999872
100
AcDbArc
 50
70.33590793136659
 51
161.3282819359965
  0
SPLINE
  5
208E8
330
1F
100
AcDbEntity
  8
AM_0
100
AcDbSpline
210
0.0
220
0.0
230
1.0
 70
     8
 71
     3
 72
     8
 73
     4
 74
     0
 42
0.0000000001
 43
0.0000000001
 40
19.01427863868752
 40
19.01427863868752
 40
19.01427863868752
 40
19.01427863868752
 40
19.46200216441446
 40
19.46200216441446
 40
19.46200216441446
 40
19.46200216441446
 10
-40.2084330425393
 20
8.915985967704703
 30
0.0
 10
-40.15251821724377
 20
8.789142576679385
 30
0.0
 10
-40.10093863495439
 20
8.657021698416745
 30
0.0
 10
-40.0548681072309
 20
8.520690632574176
 30
0.0
  0
SPLINE
  5
208E9
330
1F
100
AcDbEntity
  8
AM_0
100
AcDbSpline
210
0.0
220
0.0
230
1.0
 70
     8
 71
     3
 72
    10
 73
     6
 74
     0
 42
0.0000000001
 43
0.0000000001
 40
1.686264321797083
 40
1.686264321797083
 40
1.686264321797083
 40
1.686264321797083
 40
1.998103732205121
 40
1.998103732205121
 40
2.279402882774805
 40
2.279402882774805
 40
2.279402882774805
 40
2.279402882774805
 10
-42.03672115176579
 20
10.47615341338898
 30
0.0
 10
-42.04584081275465
 20
10.57156698906366
 30
0.0
 10
-42.05165178870021
 20
10.66858014454951
 30
0.0
 10
-42.05585286256729
 20
10.85571017723115
 30
0.0
 10
-42.05491394464895
 20
10.9455822264421
 30
0.0
 10
-42.05083258517908
 20
11.03637288952101
 30
0.0
  0
SPLINE
  5
208EA
330
1F
100
AcDbEntity
  8
AM_0
100
AcDbSpline
210
0.0
220
0.0
230
1.0
 70
     8
 71
     3
 72
    22
 73
    18
 74
     0
 42
0.0000000001
 43
0.0000000001
 40
4.39894861669004
 40
4.39894861669004
 40
4.39894861669004
 40
4.39894861669004
 40
4.468240424382939
 40
4.468240424382939
 40
5.196357522457446
 40
5.196357522457446
 40
5.924474620531954
 40
5.924474620531954
 40
6.652591718606462
 40
6.652591718606462
 40
7.060474232995863
 40
7.060474232995863
 40
7.468356747385264
 40
7.468356747385264
 40
7.866455754537361
 40
7.866455754537361
 40
8.129430008918179
 40
8.129430008918179
 40
8.129430008918179
 40
8.129430008918179
 10
-40.2084330425393
 20
8.915985967704703
 30
0.0
 10
-40.22663774036215
 20
8.912324824844038
 30
0.0
 10
-40.24480684350914
 20
8.908932234039217
 30
0.0
 10
-40.45327091103462
 20
8.873000778566027
 30
0.0
 10
-40.63717574423168
 20
8.87144175647305
 30
0.0
 10
-40.95505431547127
 20
8.916117875501445
 30
0.0
 10
-41.11720346551027
 20
8.966312918843105
 30
0.0
 10
-41.40688803199925
 20
9.126149963330963
 30
0.0
 10
-41.53451688759111
 20
9.235969862138266
 30
0.0
 10
-41.69255594277939
 20
9.430402280835185
 30
0.0
 10
-41.7491684915546
 20
9.514907974548212
 30
0.0
 10
-41.84808182420494
 20
9.702507165903089
 30
0.0
 10
-41.89040878101952
 20
9.805700269668112
 30
0.0
 10
-41.9553136493376
 20
10.00574805697542
 30
0.0
 10
-41.98279065123603
 20
10.11528264430334
 30
0.0
 10
-42.01763627286067
 20
10.31083832714845
 30
0.0
 10
-42.0286975130619
 20
10.39220686542032
 30
0.0
 10
-42.03672115176579
 20
10.47615341338898
 30
0.0
  0
SPLINE
  5
208EB
330
1F
100
AcDbEntity
  8
AM_0
100
AcDbSpline
210
0.0
220
0.0
230
1.0
 70
     8
 71
     3
 72
    22
 73
    18
 74
     0
 42
0.0000000001
 43
0.0000000001
 40
0.9541889696945545
 40
0.9541889696945545
 40
0.9541889696945545
 40
0.9541889696945545
 40
1.662284881610983
 40
1.662284881610983
 40
2.370380793527412
 40
2.370380793527412
 40
3.07847670544384
 40
3.07847670544384
 40
3.786572617360269
 40
3.786572617360269
 40
4.326437453821467
 40
4.326437453821467
 40
4.866302290282665
 40
4.866302290282665
 40
5.406167126743862
 40
5.406167126743862
 40
5.419664841836336
 40
5.419664841836336
 40
5.419664841836336
 40
5.419664841836336
 10
-42.05083258539202
 20
11.03637288978215
 30
0.0
 10
-42.05083258539202
 20
11.03637288978215
 30
0.0
 10
-42.03007866301181
 20
11.02374630081838
 30
0.0
 10
-41.9443473644854
 20
10.96866192722243
 30
0.0
 10
-41.87942406012502
 20
10.92621140763047
 30
0.0
 10
-41.71152131922878
 20
10.80637856717144
 30
0.0
 10
-41.60857202112294
 20
10.72892700925022
 30
0.0
 10
-41.37642122193364
 20
10.53313354779684
 30
0.0
 10
-41.24735848593815
 20
10.41486886945936
 30
0.0
 10
-41.00925114023806
 20
10.16440360164873
 30
0.0
 10
-40.89385225782888
 20
10.0320662368803
 30
0.0
 10
-40.66993390974704
 20
9.739297370613858
 30
0.0
 10
-40.5616589405625
 20
9.578597357797467
 30
0.0
 10
-40.37800376434933
 20
9.269072066631882
 30
0.0
 10
-40.28884702406532
 20
9.097028354939116
 30
0.0
 10
-40.21214969669524
 20
8.924400692075412
 30
0.0
 10
-40.21028717678036
 20
8.92019209145295
 30
0.0
 10
-40.2084330425393
 20
8.915985967704703
 30
0.0
  0
LINE
  5
208EC
330
1F
100
AcDbEntity
  8
AM_0
100
AcDbLine
 10
6.850562591952837
 20
-54.33099533789554
 30
0.0
 11
6.895042980402366
 21
-53.97252207649465
 31
0.0
  0
LINE
  5
208ED
330
1F
100
AcDbEntity
  8
AM_0
100
AcDbLine
 10
0.2920736167981772
 20
-57.76998861401373
 30
0.0
 11
0.0000594940883616
 21
-55.41383265955071
 31
0.0
  0
ELLIPSE
  5
208EE
330
1F
100
AcDbEntity
  8
AM_0
100
AcDbEllipse
 10
6.495102613826418
 20
-53.97153259196225
 30
0.0
 11
-0.3999999989635081
 21
2.879571682944145E-5
 31
0.0
210
0.0
220
0.0
230
1.0
 40
0.1391767643224321
 41
3.089751440559129
 42
5.271413005552011
  0
LINE
  5
208EF
330
1F
100
AcDbEntity
  8
AM_0
100
AcDbLine
 10
6.894565023214739
 20
-53.97444609336532
 30
0.0
 11
6.532622840642318
 21
-54.94505879913366
 31
0.0
  0
LINE
  5
208F0
330
1F
100
AcDbEntity
  8
AM_0
100
AcDbLine
 10
6.248502941892127
 20
-57.27862396185166
 30
0.0
 11
6.370695806993979
 21
-56.95094193656471
 31
0.0
  0
LINE
  5
208F1
330
1F
100
AcDbEntity
  8
AM_0
100
AcDbLine
 10
6.532622840642318
 20
-54.94505879913366
 30
0.0
 11
0.6121402189789365
 21
-55.46011215836675
 31
0.0
  0
LINE
  5
208F2
330
1F
100
AcDbEntity
  8
AM_0
100
AcDbLine
 10
6.532622840642318
 20
-54.94505879913366
 30
0.0
 11
6.248502941892127
 21
-57.27862396185166
 31
0.0
  0
LINE
  5
208F3
330
1F
100
AcDbEntity
  8
AM_0
100
AcDbLine
 10
0.4569876665839843
 20
-57.78245778558122
 30
0.0
 11
6.248502941892127
 21
-57.27862396185166
 31
0.0
  0
ELLIPSE
  5
208F4
330
1F
100
AcDbEntity
  8
AM_0
100
AcDbEllipse
 10
0.3999999989835601
 20
-55.41290075787615
 30
0.0
 11
-0.3999999989635081
 21
2.879571682944145E-5
 31
0.0
210
0.0
220
0.0
230
1.0
 40
0.1391767643224321
 41
6.231344094148907
 42
8.413005659141827
  0
ELLIPSE
  5
208F5
330
1F
100
AcDbEntity
  8
AM_0
100
AcDbEllipse
 10
0.3998303319723959
 20
-57.7697375300098
 30
0.0
 11
0.1077727447718226
 21
-7.758483621058347E-6
 31
0.0
210
0.0
220
0.0
230
0.9999999999999999
 40
0.139176764322432
 41
3.158850218069989
 42
5.271413005552051
  0
LINE
  5
208F6
330
1F
100
AcDbEntity
  8
AM_0
100
AcDbLine
 10
0.0005375895952398
 20
-55.40998725647311
 30
0.0
 11
0.36247977216766
 21
-54.43937455070475
 31
0.0
  0
LINE
  5
208F7
330
1F
100
AcDbEntity
  8
AM_0
100
AcDbLine
 10
0.36247977216766
 20
-54.43937455070475
 30
0.0
 11
6.282962393831042
 21
-53.92432119147168
 31
0.0
  0
ELLIPSE
  5
208F8
330
1F
100
AcDbEntity
  8
AM_0
100
AcDbEllipse
 10
3.447551306404932
 20
-54.6922166749192
 30
0.0
 11
-1.249999996760964
 21
8.998661509200450E-5
 31
0.0
210
0.0
220
0.0
230
1.0
 40
0.139176764322432
 41
0.0005172507507994
 42
6.283702557930385
  0
LINE
  5
208F9
330
1F
100
AcDbEntity
  8
AM_0
100
AcDbLine
 10
4.335842990090725
 20
-59.96857146789805
 30
0.0
 11
3.03191479881815
 21
-59.96857146789805
 31
0.0
  0
LINE
  5
208FA
330
1F
100
AcDbEntity
  8
AM_0
100
AcDbLine
 10
0.36247977216766
 20
-54.43937455070475
 30
0.0
 11
5.284287690956319
 21
-54.01120106146988
 31
0.0
  0
LINE
  5
208FB
330
1F
100
AcDbEntity
  8
AM_0
100
AcDbLine
 10
0.36247977216766
 20
-54.43937455070475
 30
0.0
 11
0.574735834992282
 21
-53.87017195047245
 31
0.0
  0
LINE
  5
208FC
330
1F
100
AcDbEntity
  8
AM_0
100
AcDbLine
 10
5.284287690956319
 20
-54.01120106146991
 30
0.0
 11
5.99143153662402
 21
-53.87054324898393
 31
0.0
  0
LINE
  5
208FD
330
1F
100
AcDbEntity
  8
AM_0
100
AcDbLine
 10
7.49928711349952
 20
-54.20195769913816
 30
0.0
 11
6.754480820837046
 21
-54.3501069399093
 31
0.0
  0
LINE
  5
208FE
330
1F
100
AcDbEntity
  8
AM_0
100
AcDbLine
 10
6.754480820837046
 20
-54.3501069399093
 30
0.0
 11
6.542787972318763
 21
-54.91779918023304
 31
0.0
  0
ELLIPSE
  5
208FF
330
1F
100
AcDbEntity
  8
AM_0
100
AcDbEllipse
 10
7.197596213092368
 20
-57.68213994161665
 30
0.0
 11
-2.999999992226315
 21
0.000215967876220811
 31
0.0
210
0.0
220
0.0
230
1.0
 40
0.1391767643224321
 41
4.991655869465425
 42
5.109811999358637
  0
LINE
  5
20900
330
1F
100
AcDbEntity
  8
AM_0
100
AcDbLine
 10
6.370672066060536
 20
-57.28072616865271
 30
0.0
 11
6.370743354720787
 21
-56.29045861696501
 31
0.0
  0
ELLIPSE
  5
20901
330
1F
100
AcDbEntity
  8
AM_0
100
AcDbEllipse
 10
7.198233745057621
 20
-48.82621227251824
 30
0.0
 11
2.999999531948552
 21
24.17698711034353
 31
0.0
210
0.0
220
0.0
230
1.0
 40
0.0042266953812509
 41
4.399052276477808
 42
4.458210418940846
  0
ELLIPSE
  5
20902
330
1F
100
AcDbEntity
  8
AM_0
100
AcDbEllipse
 10
7.197765880103646
 20
-55.32530316948303
 30
0.0
 11
-2.999999992226315
 21
0.0002159678762224338
 31
0.0
210
0.0
220
0.0
230
1.0
 40
0.1391767643224323
 41
4.611721932803402
 42
4.932497727002391
  0
SPLINE
  5
20903
330
1F
100
AcDbEntity
  8
AM_0
100
AcDbSpline
210
0.0
220
0.0
230
1.0
 70
     8
 71
     3
 72
    18
 73
    14
 74
     0
 42
0.0000000001
 43
0.0000000001
 40
4.858810836028947
 40
4.858810836028947
 40
4.858810836028947
 40
4.858810836028947
 40
5.128237418386672
 40
5.128237418386672
 40
5.695214440211831
 40
5.695214440211831
 40
6.26219146203699
 40
6.26219146203699
 40
6.829168483862149
 40
6.829168483862149
 40
7.397788976163797
 40
7.397788976163797
 40
7.674137345980665
 40
7.674137345980665
 40
7.674137345980665
 40
7.674137345980665
 10
7.499287113387538
 20
-54.90990839160342
 30
0.0
 10
7.59120117848164
 20
-54.91120714074655
 30
0.0
 10
7.683635549659186
 20
-54.91185023837878
 30
0.0
 10
7.969720654769105
 20
-54.91185218620206
 30
0.0
 10
8.162395761457162
 20
-54.90894390723228
 30
0.0
 10
8.531503532092359
 20
-54.89917805057397
 30
0.0
 10
8.708255877276031
 20
-54.89234717675485
 30
0.0
 10
9.034887202622542
 20
-54.87812224367884
 30
0.0
 10
9.184763193094398
 20
-54.87078173918614
 30
0.0
 10
9.450382160611014
 20
-54.85907664073066
 30
0.0
 10
9.575273686518983
 20
-54.85426542510866
 30
0.0
 10
9.7390131348414
 20
-54.85176097354339
 30
0.0
 10
9.789136280608261
 20
-54.8516813815717
 30
0.0
 10
9.835292171291087
 20
-54.85255586607293
 30
0.0
  0
ELLIPSE
  5
20904
330
1F
100
AcDbEntity
  8
AM_0
100
AcDbEllipse
 10
7.500000000101238
 20
-44.29928218621448
 30
0.0
 11
-7.576423478120086
 21
-7.970645659486959
 31
0.0
210
0.0
220
0.0
230
1.0
 40
0.8188420172051524
 41
0.8596218935593747
 42
1.024768450159229
  0
LINE
  5
20905
330
1F
100
AcDbEntity
  8
AM_0
100
AcDbLine
 10
149.5
 20
-59.96857146789807
 30
0.0
 11
20.25000000000017
 21
-59.96857146789805
 31
0.0
  0
LINE
  5
20906
330
1F
100
AcDbEntity
  8
AM_0
100
AcDbLine
 10
150.0
 20
-55.46857146789701
 30
0.0
 11
150.0
 21
-50.96857146789701
 31
0.0
  0
LINE
  5
20907
330
1F
100
AcDbEntity
  8
AM_0
100
AcDbLine
 10
150.0
 20
-59.96857146789696
 30
0.0
 11
150.0
 21
-55.46857146789696
 31
0.0
  0
SPLINE
  5
20908
330
1F
100
AcDbEntity
  8
AM_0
100
AcDbSpline
210
0.0
220
0.0
230
1.0
 70
    28
 71
     2
 72
     6
 73
     3
 74
     0
 42
0.0000000001
 43
0.0000000001
 40
2.248305835383617
 40
2.248305835383617
 40
2.248305835383617
 40
4.496611670767233
 40
4.496611670767233
 40
4.496611670767233
 10
149.9999999999999
 20
-59.96857146789701
 30
0.0
 41
1.0
 10
150.0000000000001
 20
-59.96857146789701
 30
0.0
 41
1.027402333827973
 10
149.5
 20
-59.96857146789701
 30
0.0
 41
1.0
  0
LINE
  5
20909
330
1F
100
AcDbEntity
  8
AM_0
100
AcDbLine
 10
149.5
 20
-59.96857146789701
 30
0.0
 11
149.5
 21
-57.64802093966727
 31
0.0
  0
LINE
  5
2090A
330
1F
100
AcDbEntity
  8
AM_0
100
AcDbLine
 10
20.25000000000017
 20
-59.96857146789805
 30
0.0
 11
20.25000000000017
 21
-57.64802093966839
 31
0.0
  0
SPLINE
  5
2090B
330
1F
100
AcDbEntity
  8
AM_0
100
AcDbSpline
210
0.0
220
0.0
230
1.0
 70
    28
 71
     2
 72
     6
 73
     3
 74
     0
 42
0.0000000001
 43
0.0000000001
 40
0.0
 40
0.0
 40
0.0
 40
0.7048271353552877
 40
0.7048271353552877
 40
0.7048271353552877
 10
20.25000000000017
 20
-59.96857146789805
 30
0.0
 41
1.0
 10
20.10274547650164
 20
-59.96857146789805
 30
0.0
 41
1.002290359892188
 10
20.0
 20
-59.96857146789805
 30
0.0
 41
1.0
  0
LINE
  5
2090C
330
1F
100
AcDbEntity
  8
AM_0
100
AcDbLine
 10
20.0
 20
-59.96857146789805
 30
0.0
 11
20.0
 21
-56.98926210047205
 31
0.0
  0
LINE
  5
2090D
330
1F
100
AcDbEntity
  8
AM_0
100
AcDbLine
 10
20.0
 20
-59.96857146789805
 30
0.0
 11
4.335842990090725
 21
-59.96857146789805
 31
0.0
  0
SPLINE
  5
2090E
330
1F
100
AcDbEntity
  8
AM_0
100
AcDbSpline
210
0.0
220
0.0
230
1.0
 70
     8
 71
     3
 72
    18
 73
    14
 74
     0
 42
0.0000000001
 43
0.0000000001
 40
3.620835241396079
 40
3.620835241396079
 40
3.620835241396079
 40
3.620835241396079
 40
3.626370337732073
 40
3.626370337732073
 40
3.864094521991854
 40
3.864094521991854
 40
4.10680755060237
 40
4.10680755060237
 40
4.349520579212886
 40
4.349520579212886
 40
4.834946636433918
 40
4.834946636433918
 40
4.842134660935924
 40
4.842134660935924
 40
4.842134660935924
 40
4.842134660935924
 10
3.200669058082042
 20
-59.82616055792787
 30
0.0
 10
3.202538316690777
 20
-59.82598511871155
 30
0.0
 10
3.204408143730063
 20
-59.82581163103991
 30
0.0
 10
3.286607636022552
 20
-59.81827314745988
 30
0.0
 10
3.367953678600941
 20
-59.81460481254411
 30
0.0
 10
3.528099416224393
 20
-59.81460481254411
 30
0.0
 10
3.611067967879478
 20
-59.81842924983383
 30
0.0
 10
3.774714888853566
 20
-59.83373679441994
 30
0.0
 10
3.855398245425306
 20
-59.84520134114937
 30
0.0
 10
4.085651862029351
 20
-59.88807173732031
 30
0.0
 10
4.223283807381279
 20
-59.92807950457323
 30
0.0
 10
4.332659895533709
 20
-59.96742058392901
 30
0.0
 10
4.334252940612998
 20
-59.96799557190395
 30
0.0
 10
4.335842990090725
 20
-59.96857146789805
 30
0.0
  0
ELLIPSE
  5
2090F
330
1F
100
AcDbEntity
  8
AM_0
100
AcDbEllipse
 10
10.81250464989483
 20
-55.46857146789805
 30
0.0
 11
7.565164904005464
 21
1.061212517260613
 31
0.0
210
0.0
220
0.0
230
0.9999999999999998
 40
0.6120075750556053
 41
3.360906541861877
 42
3.871257996517394
  0
SPLINE
  5
20910
330
1F
100
AcDbEntity
  8
AM_0
100
AcDbSpline
210
0.0
220
0.0
230
1.0
 70
     8
 71
     3
 72
    32
 73
    28
 74
     0
 42
0.0000000001
 43
0.0000000001
 40
0.8566806719418537
 40
0.8566806719418537
 40
0.8566806719418537
 40
0.8566806719418537
 40
1.445827588734326
 40
1.445827588734326
 40
2.168741383101489
 40
2.168741383101489
 40
2.891655177468652
 40
2.891655177468652
 40
3.439009755974373
 40
3.439009755974373
 40
3.986364334480095
 40
3.986364334480095
 40
4.404440966660034
 40
4.404440966660034
 40
4.822517598839973
 40
4.822517598839973
 40
5.240594231019912
 40
5.240594231019912
 40
5.658670863199851
 40
5.658670863199851
 40
6.076736931043909
 40
6.076736931043909
 40
6.494802998887968
 40
6.494802998887968
 40
6.912869066732026
 40
6.912869066732026
 40
7.315720060414366
 40
7.315720060414366
 40
7.315720060414366
 40
7.315720060414366
 10
9.975805674231253
 20
-56.98926210207359
 30
0.0
 10
9.960178563088846
 20
-57.18526384152791
 30
0.0
 10
9.938169415885398
 20
-57.37808654887963
 30
0.0
 10
9.870143786263554
 20
-57.79034440024467
 30
0.0
 10
9.819661405112413
 20
-58.00613563127789
 30
0.0
 10
9.683731813627503
 20
-58.40125135133176
 30
0.0
 10
9.59806947159467
 20
-58.58054925083182
 30
0.0
 10
9.412080531542699
 20
-58.85652224033957
 30
0.0
 10
9.310819824972157
 20
-58.97522437436496
 30
0.0
 10
9.073788204071605
 20
-59.18230736118284
 30
0.0
 10
8.937696511100569
 20
-59.27087662955945
 30
0.0
 10
8.694876570648091
 20
-59.39322553688798
 30
0.0
 10
8.578156168443059
 20
-59.44091153668834
 30
0.0
 10
8.327003130095534
 20
-59.52212445580793
 30
0.0
 10
8.192573216867402
 20
-59.55570974878803
 30
0.0
 10
7.914142555159685
 20
-59.60830969844225
 30
0.0
 10
7.769939602002125
 20
-59.62740774377074
 30
0.0
 10
7.481259549571007
 20
-59.65220593776045
 30
0.0
 10
7.336782798191337
 20
-59.65791410914543
 30
0.0
 10
7.058068564850089
 20
-59.65791410914543
 30
0.0
 10
6.913595337767617
 20
-59.65220622285833
 30
0.0
 10
6.624922752198415
 20
-59.62740875694815
 30
0.0
 10
6.48072374234215
 20
-59.60831115734676
 30
0.0
 10
6.202301795944379
 20
-59.55571183641511
 30
0.0
 10
6.067876634413494
 20
-59.5221267197739
 30
0.0
 10
5.821304296737083
 20
-59.4423912142008
 30
0.0
 10
5.708517335556337
 20
-59.39669875678596
 30
0.0
 10
5.60639929214318
 20
-59.34600709950789
 30
0.0
  0
SPLINE
  5
20911
330
1F
100
AcDbEntity
  8
AM_0
100
AcDbSpline
210
0.0
220
0.0
230
1.0
 70
    12
 71
     2
 72
     6
 73
     3
 74
     0
 42
0.0000000001
 43
0.0000000001
 40
0.0
 40
0.0
 40
0.0
 40
2.248305835383617
 40
2.248305835383617
 40
2.248305835383617
 10
149.5
 20
-53.28912199612673
 30
0.0
 41
1.0
 10
150.0000000000001
 20
-54.43620066547958
 30
0.0
 41
1.027402333827973
 10
150.0
 20
-55.46857146789701
 30
0.0
 41
1.0
  0
SPLINE
  5
20912
330
1F
100
AcDbEntity
  8
AM_0
100
AcDbSpline
210
0.0
220
0.0
230
1.0
 70
    12
 71
     2
 72
     6
 73
     3
 74
     0
 42
0.0000000001
 43
0.0000000001
 40
2.248305835383617
 40
2.248305835383617
 40
2.248305835383617
 40
4.496611670767233
 40
4.496611670767233
 40
4.496611670767233
 10
150.0
 20
-55.46857146789701
 30
0.0
 41
1.0
 10
150.0000000000001
 20
-56.50094227031448
 30
0.0
 41
1.027402333827973
 10
149.5
 20
-57.64802093966727
 30
0.0
 41
1.0
  0
LINE
  5
20913
330
1F
100
AcDbEntity
  8
AM_0
100
AcDbLine
 10
149.5
 20
-57.64802093966838
 30
0.0
 11
20.25000000000017
 21
-57.64802093966834
 31
0.0
  0
SPLINE
  5
20914
330
1F
100
AcDbEntity
  8
AM_0
100
AcDbSpline
210
0.0
220
0.0
230
1.0
 70
    12
 71
     2
 72
     6
 73
     3
 74
     0
 42
0.0000000001
 43
0.0000000001
 40
0.0
 40
0.0
 40
0.0
 40
0.7048271353553056
 40
0.7048271353553056
 40
0.7048271353553056
 10
20.25000000000017
 20
-57.64802093966839
 30
0.0
 41
1.0
 10
20.10274547650164
 20
-57.31019589392667
 30
0.0
 41
1.002290359893459
 10
20.0
 20
-56.98926210047203
 30
0.0
 41
1.0
  0
LINE
  5
20915
330
1F
100
AcDbEntity
  8
AM_0
100
AcDbLine
 10
20.0
 20
-56.9892621004722
 30
0.0
 11
9.975805674231253
 21
-56.9892621004722
 31
0.0
  0
ELLIPSE
  5
20916
330
1F
100
AcDbEntity
  8
AM_0
100
AcDbEllipse
 10
7.19706048676602
 20
-65.12389009008848
 30
0.0
 11
0.001551752386774116
 21
21.55532216050223
 31
0.0
210
0.0
220
0.0
230
1.0
 40
0.139176764322432
 41
5.099368497867133
 42
5.209080168632184
  0
ELLIPSE
  5
20917
330
1F
100
AcDbEntity
  8
AM_0
100
AcDbEllipse
 10
7.500000000101238
 20
-45.03349452832715
 30
0.0
 11
2.755321300174400E-15
 21
10.09828097597844
 31
0.0
210
0.0
220
0.0
230
1.0
 40
0.9902675538329516
 41
3.377298339471582
 42
3.506140104470662
  0
LINE
  5
20918
330
1F
100
AcDbEntity
  8
AM_0
100
AcDbLine
 10
3.200669058082042
 20
-59.82616055792787
 30
0.0
 11
3.200669058082042
 21
-57.54377077175813
 31
0.0
  0
SPLINE
  5
20919
330
1F
100
AcDbEntity
  8
AM_0
100
AcDbSpline
210
0.0
220
0.0
230
1.0
 70
     8
 71
     3
 72
     8
 73
     4
 74
     0
 42
0.0000000001
 43
0.0000000001
 40
1.896727404542642
 40
1.896727404542642
 40
1.896727404542642
 40
1.896727404542642
 40
2.115340460183302
 40
2.115340460183302
 40
2.115340460183302
 40
2.115340460183302
 10
3.03191479881815
 20
-59.96857146789805
 30
0.0
 10
3.086513444086847
 20
-59.92119209228881
 30
0.0
 10
3.142915415102664
 20
-59.87347341061835
 30
0.0
 10
3.200669058082042
 20
-59.82616055792787
 30
0.0
  0
SPLINE
  5
2091A
330
1F
100
AcDbEntity
  8
AM_0
100
AcDbSpline
210
0.0
220
0.0
230
1.0
 70
    28
 71
     2
 72
     6
 73
     3
 74
     0
 42
0.0000000001
 43
0.0000000001
 40
0.4716560354404531
 40
0.4716560354404531
 40
0.4716560354404531
 40
4.11953041733917
 40
4.11953041733917
 40
4.11953041733917
 10
3.03191479881815
 20
-59.96857146789805
 30
0.0
 41
1.008929843916848
 10
2.34399128730459
 20
-59.96857146789807
 30
0.0
 41
1.039674311592252
 10
0.6607619506825131
 20
-59.96857146789798
 30
0.0
 41
1.011823697988772
  0
ELLIPSE
  5
2091B
330
1F
100
AcDbEntity
  8
AM_0
100
AcDbEllipse
 10
0.3789012989763592
 20
-55.00273376449449
 30
0.0
 11
0.7496168178416767
 21
-6.507071262630785
 31
0.0
210
0.0
220
0.0
230
0.9999999999999999
 40
0.0674892943758485
 41
5.289319500736965
 42
5.572744311230203
  0
SPLINE
  5
2091C
330
1F
100
AcDbEntity
  8
AM_0
100
AcDbSpline
210
0.0
220
0.0
230
1.0
 70
     8
 71
     3
 72
    16
 73
    12
 74
     0
 42
0.0000000001
 43
0.0000000001
 40
0.0646954069667559
 40
0.0646954069667559
 40
0.0646954069667559
 40
0.0646954069667559
 40
0.1116576864534681
 40
0.1116576864534681
 40
0.2970322386584306
 40
0.2970322386584306
 40
0.4824067908633931
 40
0.4824067908633931
 40
0.8415732503086916
 40
0.8415732503086916
 40
0.9287842999136454
 40
0.9287842999136454
 40
0.9287842999136454
 40
0.9287842999136454
 10
0.7295727569309634
 20
-57.75874420082273
 30
0.0
 10
0.7189069812121147
 20
-57.77095407761849
 30
0.0
 10
0.7092039759999693
 20
-57.78475376597582
 30
0.0
 10
0.6674754352264358
 20
-57.84996010237607
 30
0.0
 10
0.6404175078262711
 20
-57.91091415459895
 30
0.0
 10
0.5900907847669146
 20
-58.03444329929724
 30
0.0
 10
0.5675875493198532
 20
-58.09723762934753
 30
0.0
 10
0.5106436884240679
 20
-58.26525936649731
 30
0.0
 10
0.4742508116842714
 20
-58.38680936719832
 30
0.0
 10
0.4344358925821439
 20
-58.53636834611874
 30
0.0
 10
0.4269169714423811
 20
-58.56552133161458
 30
0.0
 10
0.4197067147438816
 20
-58.5944433397784
 30
0.0
  0
ELLIPSE
  5
2091D
330
1F
100
AcDbEntity
  8
AM_0
100
AcDbEllipse
 10
0.6227034010915418
 20
-60.10732012840933
 30
0.0
 11
0.2991319515128854
 21
-2.42206733781224
 31
0.0
210
0.0
220
0.0
230
1.0
 40
0.0084182854893518
 41
3.422844379533735
 42
4.036702203544948
  0
LINE
  5
2091E
330
1F
100
AcDbEntity
  8
AM_0
100
AcDbLine
 10
149.5
 20
-53.28912199612673
 30
0.0
 11
149.5
 21
-50.96857146789701
 31
0.0
  0
LINE
  5
2091F
330
1F
100
AcDbEntity
  8
AM_0
100
AcDbLine
 10
22.79642756246949
 20
-53.28912199612774
 30
0.0
 11
149.5
 21
-53.28912199612775
 31
0.0
  0
LINE
  5
20920
330
1F
100
AcDbEntity
  8
AM_0
100
AcDbLine
 10
14.90981503141967
 20
-50.96857146789805
 30
0.0
 11
15.15231520656454
 21
-50.96857146789805
 31
0.0
  0
SPLINE
  5
20921
330
1F
100
AcDbEntity
  8
AM_0
100
AcDbSpline
210
0.0
220
0.0
230
1.0
 70
    28
 71
     2
 72
     6
 73
     3
 74
     0
 42
0.0000000001
 43
0.0000000001
 40
0.0
 40
0.0
 40
0.0
 40
2.248305835383617
 40
2.248305835383617
 40
2.248305835383617
 10
149.5
 20
-50.96857146789701
 30
0.0
 41
1.0
 10
150.0000000000001
 20
-50.96857146789701
 30
0.0
 41
1.027402333827973
 10
150.0
 20
-50.96857146789701
 30
0.0
 41
1.0
  0
LINE
  5
20922
330
1F
100
AcDbEntity
  8
AM_0
100
AcDbLine
 10
23.22033952188565
 20
-50.96857146789805
 30
0.0
 11
149.5
 21
-50.96857146789807
 31
0.0
  0
LINE
  5
20923
330
1F
100
AcDbEntity
  8
AM_0
100
AcDbLine
 10
19.96071332034347
 20
-54.46816901581372
 30
0.0
 11
11.06526521064455
 21
-54.46816901581372
 31
0.0
  0
SPLINE
  5
20924
330
1F
100
AcDbEntity
  8
AM_0
100
AcDbSpline
210
0.0
220
0.0
230
1.0
 70
     8
 71
     3
 72
    26
 73
    22
 74
     0
 42
0.0000000001
 43
0.0000000001
 40
7.79289505027665
 40
7.79289505027665
 40
7.79289505027665
 40
7.79289505027665
 40
8.031537546557933
 40
8.031537546557933
 40
8.409222150679874
 40
8.409222150679874
 40
8.786906754801846
 40
8.786906754801846
 40
9.164591358923818
 40
9.164591358923818
 40
9.919960567167761
 40
9.919960567167761
 40
11.24525396444919
 40
11.24525396444919
 40
12.57054736173063
 40
12.57054736173063
 40
13.6325215966379
 40
13.6325215966379
 40
14.69449583154518
 40
14.69449583154518
 40
14.88946341880672
 40
14.88946341880672
 40
14.88946341880672
 40
14.88946341880672
 10
11.06526521064455
 20
-54.46816901581372
 30
0.0
 10
11.03406803334673
 20
-54.46927124622926
 30
0.0
 10
11.00781654456426
 20
-54.46811427097655
 30
0.0
 10
10.95559261719933
 20
-54.45890891463373
 30
0.0
 10
10.93896043714545
 20
-54.44716332365304
 30
0.0
 10
10.93896043714545
 20
-54.41212004280661
 30
0.0
 10
10.95559261719933
 20
-54.38840043412839
 30
0.0
 10
11.01959815360891
 20
-54.32994593954894
 30
0.0
 10
11.06681240303254
 20
-54.29523039976764
 30
0.0
 10
11.23999920271336
 20
-54.17911057082825
 30
0.0
 10
11.39735313736554
 20
-54.08506043391831
 30
0.0
 10
11.82458495522195
 20
-53.82619844460627
 30
0.0
 10
12.15683286950895
 20
-53.62153927150352
 30
0.0
 10
12.83644203581429
 20
-53.15573712214007
 30
0.0
 10
13.18415136376706
 20
-52.89408554732402
 30
0.0
 10
13.74976542375129
 20
-52.42334867760233
 30
0.0
 10
14.00984981099572
 20
-52.19027011760191
 30
0.0
 10
14.5242177722285
 20
-51.68481211265655
 30
0.0
 10
14.77847601619959
 20
-51.41239670000048
 30
0.0
 10
15.06475794459044
 20
-51.07462691923923
 30
0.0
 10
15.10876257838191
 20
-51.02179367368181
 30
0.0
 10
15.15231520656454
 20
-50.96857146789805
 30
0.0
  0
LINE
  5
20925
330
1F
100
AcDbEntity
  8
AM_0
100
AcDbLine
 10
15.15231520656454
 20
-50.96857146789805
 30
0.0
 11
19.96071332034347
 21
-50.96857146789805
 31
0.0
  0
SPLINE
  5
20926
330
1F
100
AcDbEntity
  8
AM_0
100
AcDbSpline
210
0.0
220
0.0
230
1.0
 70
     8
 71
     3
 72
    24
 73
    20
 74
     0
 42
0.0000000001
 43
0.0000000001
 40
4.494448819848353
 40
4.494448819848353
 40
4.494448819848353
 40
4.494448819848353
 40
4.715427584786975
 40
4.715427584786975
 40
5.096910366599063
 40
5.096910366599063
 40
5.478393148411151
 40
5.478393148411151
 40
5.85987593022324
 40
5.85987593022324
 40
6.241358712035328
 40
6.241358712035328
 40
6.622841493847417
 40
6.622841493847417
 40
7.004324275659505
 40
7.004324275659505
 40
7.385807057471594
 40
7.385807057471594
 40
7.947656282512465
 40
7.947656282512465
 40
7.947656282512465
 40
7.947656282512465
 10
23.22033952188565
 20
-50.96857146789805
 30
0.0
 10
23.2573563605377
 20
-50.99747797458176
 30
0.0
 10
23.29254719891122
 20
-51.02869235247218
 30
0.0
 10
23.38170563387695
 20
-51.11999345709021
 30
0.0
 10
23.43066386954092
 20
-51.18465893660477
 30
0.0
 10
23.50919707760278
 20
-51.32568269300308
 30
0.0
 10
23.53881567238938
 20
-51.40214098891276
 30
0.0
 10
23.57753641758359
 20
-51.56260605254355
 30
0.0
 10
23.58663669702634
 20
-51.6466166469451
 30
0.0
 10
23.58663669702634
 20
-51.8155537271963
 30
0.0
 10
23.57753641758359
 20
-51.9069717926609
 30
0.0
 10
23.53881567238938
 20
-52.09856973001761
 30
0.0
 10
23.50919707760278
 20
-52.19874661425363
 30
0.0
 10
23.43066386954092
 20
-52.4013650905645
 30
0.0
 10
23.38170563387695
 20
-52.50391545631803
 30
0.0
 10
23.26879416931564
 20
-52.70444723117848
 30
0.0
 10
23.2048445200449
 20
-52.80241377055859
 30
0.0
 10
23.03734258830968
 20
-53.03056177882045
 30
0.0
 10
22.92313536053496
 20
-53.1629621694084
 30
0.0
 10
22.79642756246949
 20
-53.28912199612774
 30
0.0
  0
ARC
  5
20927
330
1F
100
AcDbEntity
  8
AM_0
100
AcDbCircle
 10
19.96071332034347
 20
-50.46857146789802
 30
0.0
 40
3.99959754791569
100
AcDbArc
 50
270.0
 51
315.1536022024895
  0
LINE
  5
20928
330
1F
100
AcDbEntity
  8
AM_0
100
AcDbLine
 10
19.96071332034347
 20
-50.96857146789805
 30
0.0
 11
23.22033952188565
 21
-50.96857146789805
 31
0.0
  0
SPLINE
  5
20929
330
1F
100
AcDbEntity
  8
AM_0
100
AcDbSpline
210
0.0
220
0.0
230
1.0
 70
     8
 71
     3
 72
    12
 73
     8
 74
     0
 42
0.0000000001
 43
0.0000000001
 40
12.41813919982673
 40
12.41813919982673
 40
12.41813919982673
 40
12.41813919982673
 40
13.23622911981591
 40
13.23622911981591
 40
14.43683687814908
 40
14.43683687814908
 40
15.01969806414276
 40
15.01969806414276
 40
15.01969806414276
 40
15.01969806414276
 10
9.143265762127214
 20
-53.74022312590447
 30
0.0
 10
9.431497355607746
 20
-53.69425795600396
 30
0.0
 10
9.719745395971756
 20
-53.63587337152442
 30
0.0
 10
10.42127791360446
 20
-53.46324841350785
 30
0.0
 10
10.83027671270025
 20
-53.33535706962235
 30
0.0
 10
11.40842655563091
 20
-53.11811802975806
 30
0.0
 10
11.59274275057277
 20
-53.04286739454322
 30
0.0
 10
11.77126720106168
 20
-52.96453594584623
 30
0.0
  0
ELLIPSE
  5
2092A
330
1F
100
AcDbEntity
  8
AM_0
100
AcDbEllipse
 10
2.737526670749787
 20
-55.46857146789805
 30
0.0
 11
-0.8684003758389477
 21
-4.713105669591551
 31
0.0
210
0.0
220
0.0
230
1.0
 40
0.6804193543028009
 41
2.02121338314875
 42
2.038634578384661
  0
LINE
  5
2092B
330
1F
100
AcDbEntity
  8
AM_0
100
AcDbLine
 10
3.200669058082042
 20
-53.87035194970523
 30
0.0
 11
5.99143153662402
 21
-53.87054324931749
 31
0.0
  0
LINE
  5
2092C
330
1F
100
AcDbEntity
  8
AM_0
100
AcDbLine
 10
3.200669058082156
 20
-53.87035195079572
 30
0.0
 11
0.574735834992282
 21
-53.87017195047245
 31
0.0
  0
SPLINE
  5
2092D
330
1F
100
AcDbEntity
  8
AM_0
100
AcDbSpline
210
0.0
220
0.0
230
1.0
 70
     8
 71
     3
 72
     8
 73
     4
 74
     0
 42
0.0000000001
 43
0.0000000001
 40
19.01427863868752
 40
19.01427863868752
 40
19.01427863868752
 40
19.01427863868752
 40
19.46200216441446
 40
19.46200216441446
 40
19.46200216441446
 40
19.46200216441446
 10
14.71673054242314
 20
-51.12213640320645
 30
0.0
 10
14.78677597498842
 20
-51.06622157791089
 30
0.0
 10
14.85127371131381
 20
-51.01464199562151
 30
0.0
 10
14.90981503141967
 20
-50.96857146789805
 30
0.0
  0
SPLINE
  5
2092E
330
1F
100
AcDbEntity
  8
AM_0
100
AcDbSpline
210
0.0
220
0.0
230
1.0
 70
     8
 71
     3
 72
    10
 73
     6
 74
     0
 42
0.0000000001
 43
0.0000000001
 40
1.686264321797083
 40
1.686264321797083
 40
1.686264321797083
 40
1.686264321797083
 40
1.998103732205121
 40
1.998103732205121
 40
2.279402882774805
 40
2.279402882774805
 40
2.279402882774805
 40
2.279402882774805
 10
11.96071332034347
 20
-52.95042451243291
 30
0.0
 10
11.91595002585308
 20
-52.9595441734218
 30
0.0
 10
11.87647474084139
 20
-52.96535514936733
 30
0.0
 10
11.81383851959123
 20
-52.96955622323441
 30
0.0
 10
11.78946064731116
 20
-52.96861730531609
 30
0.0
 10
11.77126720106168
 20
-52.96453594584623
 30
0.0
  0
LINE
  5
2092F
330
1F
100
AcDbEntity
  8
AM_0
100
AcDbLine
 10
11.77126720106168
 20
-52.96453594605917
 30
0.0
 11
11.8755502658708
 21
-52.96453594605917
 31
0.0
  0
SPLINE
  5
20930
330
1F
100
AcDbEntity
  8
AM_0
100
AcDbSpline
210
0.0
220
0.0
230
1.0
 70
     8
 71
     3
 72
    22
 73
    18
 74
     0
 42
0.0000000001
 43
0.0000000001
 40
4.39894861669004
 40
4.39894861669004
 40
4.39894861669004
 40
4.39894861669004
 40
4.468240424382939
 40
4.468240424382939
 40
5.196357522457446
 40
5.196357522457446
 40
5.924474620531954
 40
5.924474620531954
 40
6.652591718606462
 40
6.652591718606462
 40
7.060474232995863
 40
7.060474232995863
 40
7.468356747385264
 40
7.468356747385264
 40
7.866455754537361
 40
7.866455754537361
 40
8.129430008918179
 40
8.129430008918179
 40
8.129430008918179
 40
8.129430008918179
 10
14.71673054242314
 20
-51.12213640320645
 30
0.0
 10
14.69992717226916
 20
-51.1403411010293
 30
0.0
 10
14.68299920988449
 20
-51.15851020417632
 30
0.0
 10
14.48693606613443
 20
-51.36697427170171
 30
0.0
 10
14.2950618933267
 20
-51.55087910489878
 30
0.0
 10
13.93094448871801
 20
-51.86875767613842
 30
0.0
 10
13.72642743031128
 20
-52.03090682617742
 30
0.0
 10
13.31658180186247
 20
-52.32059139266639
 30
0.0
 10
13.11138869061693
 20
-52.44822024825823
 30
0.0
 10
12.82747314294824
 20
-52.60625930344654
 30
0.0
 10
12.71816972254095
 20
-52.66287185222169
 30
0.0
 10
12.50969880926624
 20
-52.76178518487203
 30
0.0
 10
12.41063339364797
 20
-52.80411214168667
 30
0.0
 10
12.24346070155815
 20
-52.86901701000475
 30
0.0
 10
12.16355624382692
 20
-52.89649401190315
 30
0.0
 10
12.04413935930535
 20
-52.93133963352785
 30
0.0
 10
12.0000968569272
 20
-52.94240087372905
 30
0.0
 10
11.96071332034347
 20
-52.95042451243291
 30
0.0
  0
LINE
  5
20931
330
1F
100
AcDbEntity
  8
AM_0
100
AcDbLine
 10
6.442444737889048
 20
11.07927254115131
 30
0.0
 11
6.300291916924323
 21
11.00077394419386
 31
0.0
  0
LINE
  5
20932
330
1F
100
AcDbEntity
  8
AM_0
100
AcDbLine
 10
6.547325640062525
 20
11.07932626289877
 30
0.0
 11
6.689558802995578
 21
11.00097333318589
 31
0.0
  0
LINE
  5
20933
330
1F
100
AcDbEntity
  8
AM_0
100
AcDbLine
 10
150.0
 20
11.49999999999938
 30
0.0
 11
149.5
 21
11.99999999999938
 31
0.0
  0
LINE
  5
20934
330
1F
100
AcDbEntity
  8
AM_0
100
AcDbLine
 10
36.6507304126589
 20
11.99999999999948
 30
0.0
 11
91.75
 21
11.99999999999947
 31
0.0
  0
LINE
  5
20935
330
1F
100
AcDbEntity
  8
AM_0
100
AcDbLine
 10
9.200415356153656
 20
11.74999999999937
 30
0.0
 11
13.2490891309879
 21
11.74999999999937
 31
0.0
  0
LINE
  5
20936
330
1F
100
AcDbEntity
  8
AM_0
100
AcDbLine
 10
0.7766601218649498
 20
11.74999999999937
 30
0.0
 11
6.027531052620759
 21
11.74999999999937
 31
0.0
  0
ELLIPSE
  5
20937
330
1F
100
AcDbEntity
  8
AM_0
100
AcDbEllipse
 10
6.495102613826418
 20
10.6548211313063
 30
0.0
 11
-0.3999999475268248
 21
-0.0002048866451596124
 31
0.0
210
0.0
220
0.0
230
1.0
 40
0.9902675513166456
 41
3.089234189808333
 42
5.270895754801217
  0
ELLIPSE
  5
20938
330
1F
100
AcDbEntity
  8
AM_0
100
AcDbEllipse
 10
6.49493294681514
 20
10.98606183039371
 30
0.0
 11
0.1077727309131412
 21
5.520299043289829E-5
 31
0.0
210
0.0
220
0.0
230
1.0
 40
0.9902675513166455
 41
1.062621332120441
 42
2.07897132146924
  0
LINE
  5
20939
330
1F
100
AcDbEntity
  8
AM_0
100
AcDbLine
 10
6.894565023214739
 20
10.6342956594423
 30
0.0
 11
6.532622840642318
 21
3.728027400722819
 31
0.0
  0
LINE
  5
2093A
330
1F
100
AcDbEntity
  8
AM_0
100
AcDbLine
 10
6.532622840642318
 20
3.728027400722819
 30
0.0
 11
0.6121402189789365
 21
0.0602981313729458
 31
0.0
  0
ELLIPSE
  5
2093B
330
1F
100
AcDbEntity
  8
AM_0
100
AcDbEllipse
 10
0.3999999989835601
 20
0.3961070215530924
 30
0.0
 11
-0.3999999475268248
 21
-0.0002048866451596124
 31
0.0
210
0.0
220
0.0
230
1.0
 40
0.9902675513166456
 41
6.230826843398107
 42
8.412488408391027
  0
LINE
  5
2093C
330
1F
100
AcDbEntity
  8
AM_0
100
AcDbLine
 10
0.0005375895952398
 20
0.4166324934170973
 30
0.0
 11
0.36247977216766
 21
7.322900752136572
 31
0.0
  0
LINE
  5
2093D
330
1F
100
AcDbEntity
  8
AM_0
100
AcDbLine
 10
0.36247977216766
 20
7.322900752136572
 30
0.0
 11
6.282962393831042
 21
10.99063002148645
 31
0.0
  0
LINE
  5
20943
330
1F
100
AcDbEntity
  8
AM_0
100
AcDbLine
 10
150.0
 20
6.999999999999439
 30
0.0
 11
150.0
 21
11.49999999999938
 31
0.0
  0
LINE
  5
20944
330
1F
100
AcDbEntity
  8
AM_0
100
AcDbLine
 10
0.36247977216766
 20
7.322900752136572
 30
0.0
 11
5.284287690956319
 21
10.37195268175574
 31
0.0
  0
LINE
  5
20946
330
1F
100
AcDbEntity
  8
AM_0
100
AcDbLine
 10
5.284287690956319
 20
10.47195268175517
 30
0.0
 11
5.99143153662402
 21
11.47312036631569
 31
0.0
  0
LINE
  5
20947
330
1F
100
AcDbEntity
  8
AM_0
100
AcDbLine
 10
6.773245294083779
 20
8.41937732497507
 30
0.0
 11
9.080696561860634
 21
11.68624538463456
 31
0.0
  0
LINE
  5
20948
330
1F
100
AcDbEntity
  8
AM_0
100
AcDbLine
 10
7.49928711349952
 20
9.115819673067048
 30
0.0
 11
6.754480820837046
 21
8.061329846082966
 31
0.0
  0
LINE
  5
20949
330
1F
100
AcDbEntity
  8
AM_0
100
AcDbLine
 10
6.754480820837046
 20
7.96132984608354
 30
0.0
 11
6.542787972318763
 21
3.921989667690266
 31
0.0
  0
ELLIPSE
  5
2094A
330
1F
100
AcDbEntity
  8
AM_0
100
AcDbEllipse
 10
7.197765880103646
 20
1.122861447162165
 30
0.0
 11
-2.999999606451189
 21
-0.001536649838708449
 31
0.0
210
0.0
220
0.0
230
1.0
 40
0.9902675513166455
 41
4.611204682052596
 42
4.931980476251585
  0
SPLINE
  5
2094B
330
1F
100
AcDbEntity
  8
AM_0
100
AcDbSpline
210
0.0
220
0.0
230
1.0
 70
     8
 71
     3
 72
    18
 73
    14
 74
     0
 42
0.0000000001
 43
0.0000000001
 40
4.858810836028947
 40
4.858810836028947
 40
4.858810836028947
 40
4.858810836028947
 40
5.128237418386672
 40
5.128237418386672
 40
5.695214440211831
 40
5.695214440211831
 40
6.26219146203699
 40
6.26219146203699
 40
6.829168483862149
 40
6.829168483862149
 40
7.397788976163797
 40
7.397788976163797
 40
7.674137345980665
 40
7.674137345980665
 40
7.674137345980665
 40
7.674137345980665
 10
7.499287113387538
 20
4.078623975578349
 30
0.0
 10
7.59120117848164
 20
4.069430223241962
 30
0.0
 10
7.683635549659186
 20
4.055745511790345
 30
0.0
 10
7.969720654769105
 20
3.999019854955289
 30
0.0
 10
8.162395761457162
 20
3.940034295236725
 30
0.0
 10
8.531503532092359
 20
3.784092399241953
 30
0.0
 10
8.708255877276031
 20
3.687013705833007
 30
0.0
 10
9.034887202622542
 20
3.463263983153464
 30
0.0
 10
9.184763193094398
 20
3.336585188039461
 30
0.0
 10
9.450382160611014
 20
3.067147974784113
 30
0.0
 10
9.575273686518983
 20
2.914961763608282
 30
0.0
 10
9.7390131348414
 20
2.669295611392947
 30
0.0
 10
9.789136280608261
 20
2.585870888421248
 30
0.0
 10
9.835292171291087
 20
2.4999999999905
 30
0.0
  0
ELLIPSE
  5
2094C
330
1F
100
AcDbEntity
  8
AM_0
100
AcDbEllipse
 10
7.500000000101238
 20
7.724052029876813
 30
0.0
 11
9.978439752002622
 21
14.21869224364431
 31
0.0
210
0.0
220
0.0
230
1.0
 40
0.0461581087385645
 41
1.340043056663279
 42
1.505189613263133
  0
LINE
  5
2094D
330
1F
100
AcDbEntity
  8
AM_0
100
AcDbLine
 10
150.0
 20
2.499999999999439
 30
0.0
 11
150.0
 21
6.999999999999382
 31
0.0
  0
SPLINE
  5
2094F
330
1F
100
AcDbEntity
  8
AM_0
100
AcDbSpline
210
0.0
220
0.0
230
1.0
 70
    28
 71
     2
 72
     6
 73
     3
 74
     0
 42
0.0000000001
 43
0.0000000001
 40
0.0
 40
0.0
 40
0.0
 40
2.248305835383617
 40
2.248305835383617
 40
2.248305835383617
 10
149.5
 20
2.499999999999439
 30
0.0
 41
1.0
 10
150.0000000000001
 20
2.499999999999439
 30
0.0
 41
1.027402333827973
 10
150.0
 20
2.499999999999439
 30
0.0
 41
1.0
  0
LINE
  5
20950
330
1F
100
AcDbEntity
  8
AM_0
100
AcDbLine
 10
9.835292171290519
 20
2.499999999999481
 30
0.0
 11
11.06526521064455
 21
2.499999999999481
 31
0.0
  0
LINE
  5
20952
330
1F
100
AcDbEntity
  8
AM_0
100
AcDbLine
 10
149.5
 20
9.179449471769722
 30
0.0
 11
149.5
 21
11.99999999999938
 31
0.0
  0
LINE
  5
20953
330
1F
100
AcDbEntity
  8
AM_0
100
AcDbLine
 10
20.25000000000017
 20
9.179449471769825
 30
0.0
 11
20.25000000000017
 21
11.22473777856333
 31
0.0
  0
SPLINE
  5
20954
330
1F
100
AcDbEntity
  8
AM_0
100
AcDbSpline
210
0.0
220
0.0
230
1.0
 70
    12
 71
     2
 72
     6
 73
     3
 74
     0
 42
0.0000000001
 43
0.0000000001
 40
0.0
 40
0.0
 40
0.0
 40
0.3690590295142103
 40
0.3690590295142103
 40
0.3690590295142103
 10
20.0
 20
11.61723980706637
 30
0.0
 41
1.0
 10
20.12122028776906
 20
11.74749262465621
 30
0.0
 41
1.000387888384076
 10
20.25000000000017
 20
11.88460085369763
 30
0.0
 41
1.0
  0
LINE
  5
20955
330
1F
100
AcDbEntity
  8
AM_0
100
AcDbLine
 10
20.25000000000017
 20
11.88460085369763
 30
0.0
 11
34.96071332404
 21
11.88460085369763
 31
0.0
  0
SPLINE
  5
20956
330
1F
100
AcDbEntity
  8
AM_0
100
AcDbSpline
210
0.0
220
0.0
230
1.0
 70
    12
 71
     2
 72
     6
 73
     3
 74
     0
 42
0.0000000001
 43
0.0000000001
 40
0.0
 40
0.0
 40
0.0
 40
0.3690590295142082
 40
0.3690590295142082
 40
0.3690590295142082
 10
20.25000000000017
 20
11.22473777856333
 30
0.0
 41
1.0
 10
20.12122028776759
 20
11.08762954952033
 30
0.0
 41
1.000387888401934
 10
20.0
 20
10.95737673193207
 30
0.0
 41
1.0
  0
LINE
  5
20957
330
1F
100
AcDbEntity
  8
AM_0
100
AcDbLine
 10
34.96071332404
 20
11.22473777856333
 30
0.0
 11
20.25000000000017
 21
11.22473777856333
 31
0.0
  0
SPLINE
  5
20958
330
1F
100
AcDbEntity
  8
AM_0
100
AcDbSpline
210
0.0
220
0.0
230
1.0
 70
     8
 71
     3
 72
    38
 73
    34
 74
     0
 42
0.0000000001
 43
0.0000000001
 40
-5.789259305062259
 40
-5.789259305062259
 40
-5.789259305062259
 40
-5.789259305062259
 40
-5.427283887971704
 40
-5.427283887971704
 40
-5.065308470881149
 40
-5.065308470881149
 40
-4.703333053790594
 40
-4.703333053790594
 40
-4.341357636700039
 40
-4.341357636700039
 40
-3.979675640657804
 40
-3.979675640657804
 40
-3.617993644615571
 40
-3.617993644615571
 40
-3.256311648573337
 40
-3.256311648573337
 40
-2.894629652531103
 40
-2.894629652531103
 40
-2.532947656488869
 40
-2.532947656488869
 40
-2.171265660446634
 40
-2.171265660446634
 40
-1.8095836644044
 40
-1.8095836644044
 40
-1.447901668362166
 40
-1.447901668362166
 40
-1.085926251271625
 40
-1.085926251271625
 40
-0.7239508341810836
 40
-0.7239508341810836
 40
-0.3619754170905427
 40
-0.3619754170905427
 40
0.0
 40
0.0
 40
0.0
 40
0.0
 10
34.96071332404
 20
11.88460085369763
 30
0.0
 10
35.08137179640352
 20
11.88460085369763
 30
0.0
 10
35.20570673118715
 20
11.88735387890096
 30
0.0
 10
35.45219598898819
 20
11.89816443125573
 30
0.0
 10
35.57435512546761
 20
11.90620248441331
 30
0.0
 10
35.80798719011642
 20
11.92520093237987
 30
0.0
 10
35.91966927538493
 20
11.9361358429146
 30
0.0
 10
36.12593039403168
 20
11.95745320058506
 30
0.0
 10
36.22051070372936
 20
11.96778752564006
 30
0.0
 10
36.38785386030446
 20
11.98470147821586
 30
0.0
 10
36.46653835710646
 20
11.99192153801737
 30
0.0
 10
36.60561991672574
 20
12.00026483480456
 30
0.0
 10
36.66602759578308
 20
12.0013491694226
 30
0.0
 10
36.76336473809408
 20
11.99475344556469
 30
0.0
 10
36.80037154001161
 20
11.9870399777053
 30
0.0
 10
36.84905294986567
 20
11.96215611734095
 30
0.0
 10
36.86071332403998
 20
11.94497390489641
 30
0.0
 10
36.86071332403998
 20
11.90310362522461
 30
0.0
 10
36.84905294986567
 20
11.87711661672585
 30
0.0
 10
36.80037154001155
 20
11.81639007732144
 30
0.0
 10
36.76336473809408
 20
11.78166109901269
 30
0.0
 10
36.66602759578308
 20
11.70708245888101
 30
0.0
 10
36.60561991672574
 20
11.6671940666186
 30
0.0
 10
36.46653835710646
 20
11.58721106220354
 30
0.0
 10
36.38785386030446
 20
11.54715487484554
 30
0.0
 10
36.2205107037293
 20
11.47212325390114
 30
0.0
 10
36.12593039403163
 20
11.43445913683353
 30
0.0
 10
35.91966927538493
 20
11.36484935284425
 30
0.0
 10
35.80798719011642
 20
11.33294710798526
 30
0.0
 10
35.57435512546761
 20
11.28015745470628
 30
0.0
 10
35.45219598898819
 20
11.25926874153628
 30
0.0
 10
35.20570673118715
 20
11.23154650304883
 30
0.0
 10
35.08137179640352
 20
11.22473777856333
 30
0.0
 10
34.96071332404
 20
11.22473777856333
 30
0.0
  0
LINE
  5
20959
330
1F
100
AcDbEntity
  8
AM_0
100
AcDbLine
 10
149.5
 20
2.499999999999439
 30
0.0
 11
149.5
 21
4.820550528229155
 31
0.0
  0
LINE
  5
2095A
330
1F
100
AcDbEntity
  8
AM_0
100
AcDbLine
 10
22.79642756246949
 20
2.499999999999481
 30
0.0
 11
91.75
 21
2.499999999999474
 31
0.0
  0
ELLIPSE
  5
2095B
330
1F
100
AcDbEntity
  8
AM_0
100
AcDbEllipse
 10
7.500000000101124
 20
-39.72913312030165
 30
0.0
 11
-8.031652001996625E-14
 21
-71.85107387194711
 31
0.0
210
0.0
220
0.0
230
1.0
 40
0.1391767646760853
 41
2.270191759163546
 42
2.307061869137678
  0
SPLINE
  5
2095C
330
1F
100
AcDbEntity
  8
AM_0
100
AcDbSpline
210
0.0
220
0.0
230
1.0
 70
    12
 71
     2
 72
     6
 73
     3
 74
     0
 42
0.0000000001
 43
0.0000000001
 40
0.0
 40
0.0
 40
0.0
 40
0.704827135355281
 40
0.704827135355281
 40
0.704827135355281
 10
20.25000000000017
 20
9.179449471769825
 30
0.0
 41
1.0
 10
20.10274547650164
 20
8.841624426028087
 30
0.0
 41
1.002290359892201
 10
20.0
 20
8.520690632573515
 30
0.0
 41
1.0
  0
LINE
  5
2095D
330
1F
100
AcDbEntity
  8
AM_0
100
AcDbLine
 10
91.75
 20
9.179449471769758
 30
0.0
 11
20.25000000000017
 21
9.179449471769768
 31
0.0
  0
SPLINE
  5
2095E
330
1F
100
AcDbEntity
  8
AM_0
100
AcDbSpline
210
0.0
220
0.0
230
1.0
 70
    12
 71
     2
 72
     6
 73
     3
 74
     0
 42
0.0000000001
 43
0.0000000001
 40
2.248305835383617
 40
2.248305835383617
 40
2.248305835383617
 40
4.496611670767233
 40
4.496611670767233
 40
4.496611670767233
 10
150.0
 20
6.999999999999439
 30
0.0
 41
1.0
 10
150.0000000000001
 20
8.032370802416843
 30
0.0
 41
1.027402333827973
 10
149.5
 20
9.179449471769722
 30
0.0
 41
1.0
  0
SPLINE
  5
2095F
330
1F
100
AcDbEntity
  8
AM_0
100
AcDbSpline
210
0.0
220
0.0
230
1.0
 70
    12
 71
     2
 72
     6
 73
     3
 74
     0
 42
0.0000000001
 43
0.0000000001
 40
0.0
 40
0.0
 40
0.0
 40
2.248305835383617
 40
2.248305835383617
 40
2.248305835383617
 10
149.5
 20
4.820550528229155
 30
0.0
 41
1.0
 10
150.0000000000001
 20
5.967629197581978
 30
0.0
 41
1.027402333827973
 10
150.0
 20
6.999999999999439
 30
0.0
 41
1.0
  0
LINE
  5
20960
330
1F
100
AcDbEntity
  8
AM_0
100
AcDbLine
 10
23.22033952188565
 20
4.820550528229141
 30
0.0
 11
91.75
 21
4.820550528229134
 31
0.0
  0
LINE
  5
20961
330
1F
100
AcDbEntity
  8
AM_0
100
AcDbLine
 10
19.96071332034347
 20
2.499999999999481
 30
0.0
 11
11.06526521064455
 21
2.499999999999481
 31
0.0
  0
SPLINE
  5
20962
330
1F
100
AcDbEntity
  8
AM_0
100
AcDbSpline
210
0.0
220
0.0
230
1.0
 70
     8
 71
     3
 72
    26
 73
    22
 74
     0
 42
0.0000000001
 43
0.0000000001
 40
7.79289505027665
 40
7.79289505027665
 40
7.79289505027665
 40
7.79289505027665
 40
8.031537546557933
 40
8.031537546557933
 40
8.409222150679874
 40
8.409222150679874
 40
8.786906754801846
 40
8.786906754801846
 40
9.164591358923818
 40
9.164591358923818
 40
9.919960567167761
 40
9.919960567167761
 40
11.24525396444919
 40
11.24525396444919
 40
12.57054736173063
 40
12.57054736173063
 40
13.6325215966379
 40
13.6325215966379
 40
14.69449583154518
 40
14.69449583154518
 40
14.88946341880672
 40
14.88946341880672
 40
14.88946341880672
 40
14.88946341880672
 10
11.06526521064455
 20
2.499999999999481
 30
0.0
 10
11.03406803334673
 20
2.577695796760672
 30
0.0
 10
11.00781654456426
 20
2.656633955543036
 30
0.0
 10
10.95559261719933
 20
2.86176563585655
 30
0.0
 10
10.93896043714545
 20
2.988777694557136
 30
0.0
 10
10.93896043714545
 20
3.238116900586583
 30
0.0
 10
10.95559261719933
 20
3.363446075669682
 30
0.0
 10
11.01959815360891
 20
3.608225204513811
 30
0.0
 10
11.06681240303254
 20
3.72772135353841
 30
0.0
 10
11.23999920271336
 20
4.070002366302557
 30
0.0
 10
11.39735313736554
 20
4.277306592641192
 30
0.0
 10
11.82458495522195
 20
4.758431186891979
 30
0.0
 10
12.15683286950895
 20
5.041680372965569
 30
0.0
 10
12.83644203581429
 20
5.539234712931826
 30
0.0
 10
13.18415136376706
 20
5.752587642116279
 30
0.0
 10
13.74976542375129
 20
6.055432406052429
 30
0.0
 10
14.00984981099572
 20
6.177456026285423
 30
0.0
 10
14.5242177722285
 20
6.377026581677338
 30
0.0
 10
14.77847601619959
 20
6.454547702062822
 30
0.0
 10
15.06475794459044
 20
6.510917536018152
 30
0.0
 10
15.10876257838191
 20
6.518661837810551
 30
0.0
 10
15.15231520656454
 20
6.525367205464359
 30
0.0
  0
LINE
  5
20963
330
1F
100
AcDbEntity
  8
AM_0
100
AcDbLine
 10
15.15231520656454
 20
6.525367205464416
 30
0.0
 11
19.96071332034347
 21
6.525367205464416
 31
0.0
  0
SPLINE
  5
20964
330
1F
100
AcDbEntity
  8
AM_0
100
AcDbSpline
210
0.0
220
0.0
230
1.0
 70
     8
 71
     3
 72
    24
 73
    20
 74
     0
 42
0.0000000001
 43
0.0000000001
 40
4.494448819848353
 40
4.494448819848353
 40
4.494448819848353
 40
4.494448819848353
 40
4.715427584786975
 40
4.715427584786975
 40
5.096910366599063
 40
5.096910366599063
 40
5.478393148411151
 40
5.478393148411151
 40
5.85987593022324
 40
5.85987593022324
 40
6.241358712035328
 40
6.241358712035328
 40
6.622841493847417
 40
6.622841493847417
 40
7.004324275659505
 40
7.004324275659505
 40
7.385807057471594
 40
7.385807057471594
 40
7.947656282512465
 40
7.947656282512465
 40
7.947656282512465
 40
7.947656282512465
 10
23.22033952188565
 20
4.820550528229141
 30
0.0
 10
23.2573563605377
 20
4.760866061228789
 30
0.0
 10
23.29254719891122
 20
4.699457743153964
 30
0.0
 10
23.38170563387695
 20
4.529203834743719
 30
0.0
 10
23.43066386954092
 20
4.418286604282109
 30
0.0
 10
23.50919707760278
 20
4.197568176089526
 30
0.0
 10
23.53881567238938
 20
4.087645611228702
 30
0.0
 10
23.57753641758359
 20
3.87572422750366
 30
0.0
 10
23.58663669702634
 20
3.773727964349227
 30
0.0
 10
23.58663669702634
 20
3.583623075896632
 30
0.0
 10
23.57753641758359
 20
3.488209476363345
 30
0.0
 10
23.53881567238938
 20
3.303954381653277
 30
0.0
 10
23.50919707760278
 20
3.21510938661276
 30
0.0
 10
23.43066386954092
 20
3.049127226517321
 30
0.0
 10
23.38170563387695
 20
2.971876474171829
 30
0.0
 10
23.26879416931564
 20
2.831717187272879
 30
0.0
 10
23.2048445200449
 20
2.768784495709831
 30
0.0
 10
23.03734258830968
 20
2.631793182979145
 30
0.0
 10
22.92313536053496
 20
2.561101992822152
 30
0.0
 10
22.79642756246949
 20
2.499999999999481
 30
0.0
  0
LINE
  5
20965
330
1F
100
AcDbEntity
  8
AM_0
100
AcDbLine
 10
22.79642756246949
 20
2.499999999999481
 30
0.0
 11
19.96071332034347
 21
2.499999999999481
 31
0.0
  0
ARC
  5
20966
330
1F
100
AcDbEntity
  8
AM_0
100
AcDbCircle
 10
19.96071332034347
 20
2.556740238867514
 30
0.0
 40
3.968626966596885
100
AcDbArc
 50
34.77997750769953
 51
90.0
  0
SPLINE
  5
20967
330
1F
100
AcDbEntity
  8
AM_0
100
AcDbSpline
210
0.0
220
0.0
230
1.0
 70
     8
 71
     3
 72
    12
 73
     8
 74
     0
 42
0.0000000001
 43
0.0000000001
 40
12.41813919982673
 40
12.41813919982673
 40
12.41813919982673
 40
12.41813919982673
 40
13.23622911981591
 40
13.23622911981591
 40
14.43683687814908
 40
14.43683687814908
 40
15.01969806414276
 40
15.01969806414276
 40
15.01969806414276
 40
15.01969806414276
 10
9.143265762127214
 20
11.42439962127491
 30
0.0
 10
9.431497355607746
 20
11.40644377822559
 30
0.0
 10
9.719745395971756
 20
11.38286956978868
 30
0.0
 10
10.42127791360446
 20
11.3074048415703
 30
0.0
 10
10.83027671270025
 20
11.24731467215082
 30
0.0
 10
11.40842655563091
 20
11.12848849279567
 30
0.0
 10
11.59274275057277
 20
11.08496719321829
 30
0.0
 10
11.77126720106168
 20
11.03637288952046
 30
0.0
  0
ELLIPSE
  5
20968
330
1F
100
AcDbEntity
  8
AM_0
100
AcDbEllipse
 10
5.910410974282684
 20
6.999999999999485
 30
0.0
 11
3.307729318813231
 21
4.745026555610067
 31
0.0
210
0.0
220
0.0
230
1.0
 40
0.0656971851488308
 41
5.956538807821346
 42
6.49297578768616
  0
LINE
  5
20969
330
1F
100
AcDbEntity
  8
AM_0
100
AcDbLine
 10
6.058936638946136
 20
11.68628221966037
 30
0.0
 11
9.080696561860293
 21
11.68624536693937
 31
0.0
  0
ELLIPSE
  5
2096A
330
1F
100
AcDbEntity
  8
AM_0
100
AcDbEllipse
 10
2.737526670749787
 20
6.999999999999485
 30
0.0
 11
3.307729318813232
 21
4.745026555610064
 31
0.0
210
0.0
220
0.0
230
1.0
 40
0.0656971851488308
 41
5.985830296985092
 42
6.328950439998948
  0
LINE
  5
2096B
330
1F
100
AcDbEntity
  8
AM_0
100
AcDbLine
 10
3.200669058082042
 20
11.47305201978042
 30
0.0
 11
5.99143153662402
 21
11.4731203639426
 31
0.0
  0
LINE
  5
2096C
330
1F
100
AcDbEntity
  8
AM_0
100
AcDbLine
 10
3.200669058082156
 20
11.47305201202141
 30
0.0
 11
0.5799766196473684
 21
11.47298782804588
 31
0.0
  0
ELLIPSE
  5
2096D
330
1F
100
AcDbEntity
  8
AM_0
100
AcDbEllipse
 10
0.4513141339072604
 20
6.999999999999485
 30
0.0
 11
0.324097570244489
 21
4.750099416953824
 31
0.0
210
0.0
220
0.0
230
1.0
 40
0.1076753433436443
 41
-0.0024427421988369
 42
0.3506836490940319
  0
LINE
  5
2096E
330
1F
100
AcDbEntity
  8
AM_0
100
AcDbLine
 10
14.96071332404
 20
11.61723980706642
 30
0.0
 11
20.0
 21
11.61723980706642
 31
0.0
  0
SPLINE
  5
2096F
330
1F
100
AcDbEntity
  8
AM_0
100
AcDbSpline
210
0.0
220
0.0
230
1.0
 70
     8
 71
     3
 72
    38
 73
    34
 74
     0
 42
0.0000000001
 43
0.0000000001
 40
0.0
 40
0.0
 40
0.0
 40
0.0
 40
0.3624797819900217
 40
0.3624797819900217
 40
0.7249595639800435
 40
0.7249595639800435
 40
1.087439345970065
 40
1.087439345970065
 40
1.449919127960087
 40
1.449919127960087
 40
1.812032214744408
 40
1.812032214744408
 40
2.174145301528728
 40
2.174145301528728
 40
2.536258388313049
 40
2.536258388313049
 40
2.89837147509737
 40
2.89837147509737
 40
3.260484561881691
 40
3.260484561881691
 40
3.622597648666013
 40
3.622597648666013
 40
3.984710735450334
 40
3.984710735450334
 40
4.346823822234656
 40
4.346823822234656
 40
4.709303604224671
 40
4.709303604224671
 40
5.071783386214684
 40
5.071783386214684
 40
5.434263168204698
 40
5.434263168204698
 40
5.796742950194712
 40
5.796742950194712
 40
5.796742950194712
 40
5.796742950194712
 10
14.96071332404
 20
10.95737673193213
 30
0.0
 10
14.83988673004336
 20
10.95737673193213
 30
0.0
 10
14.71543736395603
 20
10.96450421096955
 30
0.0
 10
14.46882574105331
 20
10.99346116783533
 30
0.0
 10
14.34665818580635
 20
11.0152629366886
 30
0.0
 10
14.11308504575169
 20
11.07024743773831
 30
0.0
 10
14.00146775965737
 20
11.10342982604754
 30
0.0
 10
13.79535063803672
 20
11.17568595446351
 30
0.0
 10
13.70084886219951
 20
11.21471404647206
 30
0.0
 10
13.53365662845891
 20
11.29229996045586
 30
0.0
 10
13.45502625170076
 20
11.33364867982055
 30
0.0
 10
13.31599347500782
 20
11.416030235692
 30
0.0
 10
13.25558036740273
 20
11.45702340542118
 30
0.0
 10
13.15819791231257
 20
11.53344123947528
 30
0.0
 10
13.12115115758201
 20
11.56890591454481
 30
0.0
 10
13.07240154931191
 20
11.63062920481212
 30
0.0
 10
13.06071332404002
 20
11.65687673426418
 30
0.0
 10
13.06071332404002
 20
11.69879691935051
 30
0.0
 10
13.07240154931191
 20
11.71575554017869
 30
0.0
 10
13.12115115758201
 20
11.73968677356242
 30
0.0
 10
13.15819791231269
 20
11.74667179826099
 30
0.0
 10
13.25558036740273
 20
11.7514164498815
 30
0.0
 10
13.31599347500782
 20
11.749208983696
 30
0.0
 10
13.45502625170076
 20
11.73841840066302
 30
0.0
 10
13.53365662845903
 20
11.72987568138995
 30
0.0
 10
13.70084886219962
 20
11.71035502082441
 30
0.0
 10
13.79535063803672
 20
11.69863872527412
 30
0.0
 10
14.00146775965737
 20
11.67465569261827
 30
0.0
 10
14.11308504575169
 20
11.6624395694962
 30
0.0
 10
14.34665818580635
 20
11.64125858183024
 30
0.0
 10
14.46882574105331
 20
11.63232085883919
 30
0.0
 10
14.71543736395603
 20
11.62030039511654
 30
0.0
 10
14.83988673004336
 20
11.61723980706642
 30
0.0
 10
14.96071332404
 20
11.61723980706642
 30
0.0
  0
LINE
  5
20970
330
1F
100
AcDbEntity
  8
AM_0
100
AcDbLine
 10
20.0
 20
10.95737673193213
 30
0.0
 11
14.96071332404
 21
10.95737673193213
 31
0.0
  0
LINE
  5
20971
330
1F
100
AcDbEntity
  8
AM_0
100
AcDbLine
 10
20.0
 20
8.520690632573515
 30
0.0
 11
20.0
 21
10.95737673193207
 31
0.0
  0
LINE
  5
20972
330
1F
100
AcDbEntity
  8
AM_0
100
AcDbLine
 10
20.0
 20
8.520690632573629
 30
0.0
 11
14.90981503141967
 21
8.520690632573629
 31
0.0
  0
SPLINE
  5
20973
330
1F
100
AcDbEntity
  8
AM_0
100
AcDbSpline
210
0.0
220
0.0
230
1.0
 70
     8
 71
     3
 72
     8
 73
     4
 74
     0
 42
0.0000000001
 43
0.0000000001
 40
19.01427863868752
 40
19.01427863868752
 40
19.01427863868752
 40
19.01427863868752
 40
19.46200216441446
 40
19.46200216441446
 40
19.46200216441446
 40
19.46200216441446
 10
14.71673054242314
 20
8.915985967704156
 30
0.0
 10
14.78677597498842
 20
8.789142576678838
 30
0.0
 10
14.85127371131381
 20
8.657021698416198
 30
0.0
 10
14.90981503141967
 20
8.520690632573629
 30
0.0
  0
SPLINE
  5
20974
330
1F
100
AcDbEntity
  8
AM_0
100
AcDbSpline
210
0.0
220
0.0
230
1.0
 70
     8
 71
     3
 72
    10
 73
     6
 74
     0
 42
0.0000000001
 43
0.0000000001
 40
1.686264321797083
 40
1.686264321797083
 40
1.686264321797083
 40
1.686264321797083
 40
1.998103732205121
 40
1.998103732205121
 40
2.279402882774805
 40
2.279402882774805
 40
2.279402882774805
 40
2.279402882774805
 10
11.96071332034347
 20
10.47615341338843
 30
0.0
 10
11.91595002585308
 20
10.57156698906311
 30
0.0
 10
11.87647474084139
 20
10.66858014454897
 30
0.0
 10
11.81383851959123
 20
10.8557101772306
 30
0.0
 10
11.78946064731116
 20
10.94558222644156
 30
0.0
 10
11.77126720106168
 20
11.03637288952046
 30
0.0
  0
LINE
  5
20975
330
1F
100
AcDbEntity
  8
AM_0
100
AcDbLine
 10
11.77126720106168
 20
11.0363728897816
 30
0.0
 11
11.96071332034347
 21
11.0363728897816
 31
0.0
  0
SPLINE
  5
20976
330
1F
100
AcDbEntity
  8
AM_0
100
AcDbSpline
210
0.0
220
0.0
230
1.0
 70
     8
 71
     3
 72
    22
 73
    18
 74
     0
 42
0.0000000001
 43
0.0000000001
 40
4.39894861669004
 40
4.39894861669004
 40
4.39894861669004
 40
4.39894861669004
 40
4.468240424382939
 40
4.468240424382939
 40
5.196357522457446
 40
5.196357522457446
 40
5.924474620531954
 40
5.924474620531954
 40
6.652591718606462
 40
6.652591718606462
 40
7.060474232995863
 40
7.060474232995863
 40
7.468356747385264
 40
7.468356747385264
 40
7.866455754537361
 40
7.866455754537361
 40
8.129430008918179
 40
8.129430008918179
 40
8.129430008918179
 40
8.129430008918179
 10
14.71673054242314
 20
8.915985967704156
 30
0.0
 10
14.69992717226916
 20
8.912324824843491
 30
0.0
 10
14.68299920988449
 20
8.908932234038669
 30
0.0
 10
14.48693606613443
 20
8.87300077856548
 30
0.0
 10
14.2950618933267
 20
8.871441756472503
 30
0.0
 10
13.93094448871801
 20
8.916117875500898
 30
0.0
 10
13.72642743031128
 20
8.966312918842558
 30
0.0
 10
13.31658180186247
 20
9.126149963330416
 30
0.0
 10
13.11138869061693
 20
9.235969862137718
 30
0.0
 10
12.82747314294824
 20
9.430402280834638
 30
0.0
 10
12.71816972254095
 20
9.514907974547665
 30
0.0
 10
12.50969880926624
 20
9.702507165902542
 30
0.0
 10
12.41063339364797
 20
9.805700269667565
 30
0.0
 10
12.24346070155815
 20
10.00574805697488
 30
0.0
 10
12.16355624382692
 20
10.11528264430279
 30
0.0
 10
12.04413935930535
 20
10.3108383271479
 30
0.0
 10
12.0000968569272
 20
10.39220686541978
 30
0.0
 10
11.96071332034347
 20
10.47615341338843
 30
0.0
  0
SPLINE
  5
20977
330
1F
100
AcDbEntity
  8
AM_0
100
AcDbSpline
210
0.0
220
0.0
230
1.0
 70
     8
 71
     3
 72
    22
 73
    18
 74
     0
 42
0.0000000001
 43
0.0000000001
 40
0.9541889696945545
 40
0.9541889696945545
 40
0.9541889696945545
 40
0.9541889696945545
 40
1.662284881610983
 40
1.662284881610983
 40
2.370380793527412
 40
2.370380793527412
 40
3.07847670544384
 40
3.07847670544384
 40
3.786572617360269
 40
3.786572617360269
 40
4.326437453821467
 40
4.326437453821467
 40
4.866302290282665
 40
4.866302290282665
 40
5.406167126743862
 40
5.406167126743862
 40
5.419664841836336
 40
5.419664841836336
 40
5.419664841836336
 40
5.419664841836336
 10
11.96071332034347
 20
11.0363728897816
 30
0.0
 10
12.19674529098228
 20
11.0363728897816
 30
0.0
 10
12.44016474505901
 20
11.02374630081783
 30
0.0
 10
12.91961284544726
 20
10.96866192722188
 30
0.0
 10
13.15565199354791
 20
10.92621140762992
 30
0.0
 10
13.59970200304855
 20
10.80637856717089
 30
0.0
 10
13.80795328040955
 20
10.72892700924967
 30
0.0
 10
14.17882215785465
 20
10.53313354779629
 30
0.0
 10
14.34156736163249
 20
10.41486886945881
 30
0.0
 10
14.57312114789426
 20
10.16440360164819
 30
0.0
 10
14.66210903147754
 20
10.03206623687975
 30
0.0
 10
14.78032486978299
 20
9.739297370613311
 30
0.0
 10
14.80935058680933
 20
9.57859735779692
 30
0.0
 10
14.80935058680933
 20
9.269072066631335
 30
0.0
 10
14.78032486978299
 20
9.097028354938569
 30
0.0
 10
14.71973913285336
 20
8.924400692074865
 30
0.0
 10
14.71824361502269
 20
8.920192091452403
 30
0.0
 10
14.71673054242314
 20
8.915985967704156
 30
0.0
  0
ARC
  5
20A01
330
1F
100
AcDbEntity
  8
AM_0
100
AcDbCircle
 10
3.447551306404932
 20
6.431714076429696
 30
0.0
 40
0.1874999999999716
100
AcDbArc
 50
13.53115216736414
 51
166.4688478326343
  0
CIRCLE
  5
20A02
330
1F
100
AcDbEntity
  8
AM_0
100
AcDbCircle
 10
3.447551306404932
 20
5.525464076429696
 30
0.0
 40
1.3
  0
CIRCLE
  5
20A03
330
1F
100
AcDbEntity
  8
AM_0
100
AcDbCircle
 10
3.447551306404932
 20
5.525464076429696
 30
0.0
 40
1.725
  0
CIRCLE
  5
20A04
330
1F
100
AcDbEntity
  8
AM_0
100
AcDbCircle
 10
3.447551306404932
 20
5.525464076429696
 30
0.0
 40
1.09375
  0
ARC
  5
20A07
330
1F
100
AcDbEntity
  8
AM_0
100
AcDbCircle
 10
3.447551306404932
 20
4.61921407642981
 30
0.0
 40
0.1874999999999716
100
AcDbArc
 50
193.5311521673641
 51
346.4688478326311
  0
ARC
  5
20A08
330
1F
100
AcDbEntity
  8
AM_0
100
AcDbCircle
 10
2.839899524784698
 20
6.577947835505963
 30
0.0
 40
0.4375
100
AcDbArc
 50
253.5311521673709
 51
346.4688478326224
  0
ARC
  5
20A09
330
1F
100
AcDbEntity
  8
AM_0
100
AcDbCircle
 10
4.055203088025394
 20
6.577947835505849
 30
0.0
 40
0.4375
100
AcDbArc
 50
193.531152167357
 51
286.4688478326291
  0
ARC
  5
20A0A
330
1F
100
AcDbEntity
  8
AM_0
100
AcDbCircle
 10
4.662854869645514
 20
5.525464076429696
 30
0.0
 40
0.4375
100
AcDbArc
 50
133.5311521673586
 51
226.4688478326414
  0
ARC
  5
20A0B
330
1F
100
AcDbEntity
  8
AM_0
100
AcDbCircle
 10
4.232386828584652
 20
5.978589076429639
 30
0.0
 40
0.1874999999999716
100
AcDbArc
 50
313.5311521673621
 51
106.4688478326358
  0
ARC
  5
20A0C
330
1F
100
AcDbEntity
  8
AM_0
100
AcDbCircle
 10
2.839899524784471
 20
4.472980317353713
 30
0.0
 40
0.4375
100
AcDbArc
 50
13.53115216735703
 51
106.4688478326188
  0
ARC
  5
20A0D
330
1F
100
AcDbEntity
  8
AM_0
100
AcDbCircle
 10
4.055203088025166
 20
4.472980317353656
 30
0.0
 40
0.4375
100
AcDbArc
 50
73.53115216735387
 51
166.4688478326327
  0
ARC
  5
20A0E
330
1F
100
AcDbEntity
  8
AM_0
100
AcDbCircle
 10
4.232386828584652
 20
5.072339076429753
 30
0.0
 40
0.1874999999999716
100
AcDbArc
 50
253.5311521673539
 51
46.46884783263796
  0
ARC
  5
20A0F
330
1F
100
AcDbEntity
  8
AM_0
100
AcDbCircle
 10
2.662715784225441
 20
5.97858907642981
 30
0.0
 40
0.1874999999999716
100
AcDbArc
 50
73.5311521673776
 51
226.4688478326379
  0
ARC
  5
20A10
330
1F
100
AcDbEntity
  8
AM_0
100
AcDbCircle
 10
2.232247743164351
 20
5.52546407642981
 30
0.0
 40
0.4375
100
AcDbArc
 50
313.5311521673586
 51
46.46884783262405
  0
ARC
  5
20A11
330
1F
100
AcDbEntity
  8
AM_0
100
AcDbCircle
 10
2.662715784225327
 20
5.072339076429753
 30
0.0
 40
0.1874999999999716
100
AcDbArc
 50
133.5311521673621
 51
286.4688478326256
  0
LINE
  5
20A1E
330
1F
100
AcDbEntity
  8
AM_7
  6
AM_ISO08W050x2
100
AcDbLine
 10
3.447551306404932
 20
9.825464076429707
 30
0.0
 11
3.447551306404932
 21
1.225464076429688
 31
0.0
1001
GENIUS_GENODEF_13
1002
{
1000
HIER
1070
     0
1002
}
1002
{
1000
MANEDIT
1070
     0
1002
}
1002
{
1000
NOSEL
1070
     0
1002
}
1002
{
1000
BEHIND
1070
     0
1002
}
1002
{
1000
REACTOR
1002
}
1001
GENIUS_GENOBJ-N-CEN_13
1002
{
1000
OWNER
1000
GEN
1002
}
  0
LINE
  5
20A2D
330
1F
100
AcDbEntity
  8
AM_7
  6
AM_ISO08W050x2
100
AcDbLine
 10
-0.8524486935950222
 20
5.525464076429696
 30
0.0
 11
7.747551306405001
 21
5.525464076429696
 31
0.0
1001
GENIUS_GENODEF_13
1002
{
1000
HIER
1070
     0
1002
}
1002
{
1000
MANEDIT
1070
     0
1002
}
1002
{
1000
NOSEL
1070
     0
1002
}
1002
{
1000
BEHIND
1070
     0
1002
}
1002
{
1000
REACTOR
1002
}
1001
GENIUS_GENOBJ-N-CEN_13
1002
{
1000
OWNER
1000
GEN
1002
}
  0
LINE
  5
20B7B
330
1F
100
AcDbEntity
  8
AM_0
100
AcDbLine
 10
149.5
 20
2.499999999999467
 30
0.0
 11
110.6674761622752
 21
2.499999999999474
 31
0.0
  0
LINE
  5
20B8F
330
1F
100
AcDbEntity
  8
AM_0
100
AcDbLine
 10
103.4294494717692
 20
2.499999999999474
 30
0.0
 11
99.07055052823074
 21
2.499999999999474
 31
0.0
  0
ARC
  5
20BA6
330
1F
100
AcDbEntity
  8
AM_0
100
AcDbCircle
 10
101.2499999999999
 20
7.000000000000014
 30
0.0
 40
5.0
100
AcDbArc
 50
295.8419327631527
 51
334.1580672368328
  0
LINE
  5
20C3E
330
1F
100
AcDbEntity
  8
AM_5
100
AcDbLine
 10
0.0
 20
0.0
 30
0.0
 11
0.399995991288904
 21
0.0000000000000284
 31
0.0
  0
LINE
  5
20C40
330
1F
100
AcDbEntity
  8
AM_5
100
AcDbLine
 10
0.0
 20
0.0000000000000284
 30
0.0
 11
0.0
 21
0.3961030528630545
 31
0.0
  0
CIRCLE
  5
20C4B
330
1F
100
AcDbEntity
  8
AM_11
  6
ACJISTGB
100
AcDbCircle
 10
-44.5548681072309
 20
6.599999999999458
 30
0.0
 40
6.5
  0
DIMENSION
  5
20C55
330
1F
100
AcDbEntity
  8
AM_5
100
AcDbDimension
  2
*D5
 10
-40.36335765233304
 20
1.631978250199971
 30
0.0
 11
-67.38201279591971
 21
18.62240685366527
 31
0.0
 70
   163
  1
最小加工径\P<>
 71
     5
 42
12.99999999999998
  3
AM_JIS$3
100
AcDbDiametricDimension
 15
-48.746378562129
 25
11.56802174979895
 35
0.0
 40
0.0
1001
GENIUS_GENDTOL_13
1000

1000
h7
1000

1040
0.0
1001
ACAD
1000
DSTYLE
1002
{
1070
   271
1070
     0
1070
   288
1070
     1
1070
   289
1070
     3
1070
   172
1070
     1
1070
    74
1070
     1
1002
}
  0
LINE
  5
20D61
330
1F
100
AcDbEntity
  8
AM_7
100
AcDbLine
 10
153.4412382185365
 20
7.000000000000007
 30
0.0
 11
-2.715845151416602
 21
7.000000000000025
 31
0.0
1001
GENIUS_GENODEF_13
1002
{
1000
HIER
1070
     0
1002
}
1002
{
1000
MANEDIT
1070
     0
1002
}
1002
{
1000
NOSEL
1070
     0
1002
}
1002
{
1000
BEHIND
1070
     0
1002
}
1002
{
1000
REACTOR
1002
}
1001
GENIUS_GENOBJ-N-CEN_13
1002
{
1000
OWNER
1000
GEN
1002
}
  0
DIMENSION
  5
20DAC
330
1F
100
AcDbEntity
  8
AM_5
100
AcDbDimension
  2
*D6
 10
16.67303292678685
 20
2.499999999990498
 30
0.0
 11
16.67303292678685
 21
-10.67850393700784
 31
0.0
 70
   160
  1
2.5
 71
     5
 42
2.499999999990474
  3
AM_JIS$0
100
AcDbAlignedDimension
 13
0.399995991288904
 23
0.0000000000000284
 33
0.0
 14
9.835292171291087
 24
2.4999999999905
 34
0.0
 50
90.0
100
AcDbRotatedDimension
1001
ACAD
1000
DSTYLE
1002
{
1070
   271
1070
     0
1002
}
  0
LINE
  5
20E5E
330
1F
100
AcDbEntity
  8
AM_7
100
AcDbLine
 10
155.4588124887482
 20
-55.46857146789755
 30
0.0
 11
-3.998269457205709
 21
-55.46857146789754
 31
0.0
1001
GENIUS_GENODEF_13
1002
{
1000
HIER
1070
     0
1002
}
1002
{
1000
MANEDIT
1070
     0
1002
}
1002
{
1000
NOSEL
1070
     0
1002
}
1002
{
1000
BEHIND
1070
     0
1002
}
1002
{
1000
REACTOR
1002
}
1001
GENIUS_GENOBJ-N-CEN_13
1002
{
1000
OWNER
1000
GEN
1002
}
  0
TEXT
  5
218D2
330
1F
100
AcDbEntity
  8
AM_0
100
AcDbText
 10
9.713539794307906
 20
-88.49629355394094
 30
0.0
 40
5.0
  1
B10M-SDUCR0702-13
100
AcDbText
  0
LINE
  5
2279F
330
1F
100
AcDbEntity
  8
AM_0
100
AcDbLine
 10
0.36247977216766
 20
7.322900752136601
 30
0.0
 11
0.5799766196474252
 21
11.47298782804594
 31
0.0
  0
DIMENSION
  5
22833
330
1F
100
AcDbEntity
  8
AM_5
100
AcDbDimension
  2
*D8
 10
-6.827817441867579
 20
7.000000000000026
 30
0.0
 11
-6.82781744186758
 21
3.500000000000027
 31
0.0
 70
   160
 71
     5
 42
6.999999999999996
  3
AM_JIS$0
100
AcDbAlignedDimension
 13
0.0
 23
0.0000000000000284
 33
0.0
 14
-2.715845151416602
 24
7.000000000000025
 34
0.0
 50
90.0
100
AcDbRotatedDimension
1001
ACAD
1000
DSTYLE
1002
{
1070
   179
1070
     2
1070
   271
1070
     0
1002
}
  0
DIMENSION
  5
22873
330
1F
100
AcDbEntity
  8
AM_5
100
AcDbDimension
  2
*D9
 10
0.36247977216766
 20
7.322900752136572
 30
0.0
 11
-16.15855033476156
 21
17.00511663619045
 31
0.0
 70
    34
 71
     5
 42
1.623156204354795
  3
AM_JIS$2
100
AcDb2LineAngularDimension
 13
0.0
 23
0.0
 33
0.0
 14
0.399995991288904
 24
0.0000000000000284
 34
0.0
 15
0.0005375895952398
 25
0.4166324934170973
 35
0.0
 16
-9.431022683230999
 26
17.69711975893511
 36
0.0
  0
DIMENSION
  5
228D0
330
1F
100
AcDbEntity
  8
AM_5
100
AcDbDimension
  2
*D10
 10
150.0
 20
-27.11992037123965
 30
0.0
 11
75.0
 21
-23.71992037123965
 31
0.0
 70
    32
 71
     5
 42
150.0
  3
AM_JIS$0
100
AcDbAlignedDimension
 13
0.0
 23
0.0
 33
0.0
 14
150.0
 24
2.499999999999439
 34
0.0
100
AcDbRotatedDimension
1001
ACAD
1000
DSTYLE
1002
{
1070
   271
1070
     0
1002
}
  0
DIMENSION
  5
22909
330
1F
100
AcDbEntity
  8
AM_5
100
AcDbDimension
  2
*D11
 10
-44.5548681072309
 20
-2.338786365380486
 30
0.0
 11
-49.86011279852284
 21
-19.07522003196534
 31
0.0
 70
   162
 71
     5
 42
0.1396263401608584
  3
AM_JIS$2
100
AcDb2LineAngularDimension
 13
-44.4962838958059
 23
0.4166324923005504
 33
0.0
 14
-43.5256711900376
 24
7.322900751020033
 34
0.0
 15
-44.5548681072309
 25
17.58829489181182
 35
0.0
 16
-45.47602394480729
 26
-19.77780108364043
 36
0.0
1001
ACAD
1000
DSTYLE
1002
{
1070
   179
1070
     0
1070
   271
1070
     0
1002
}
  0
ENDSEC
  0
SECTION
  2
OBJECTS
  0
DICTIONARY
  5
C
330
0
100
AcDbDictionary
281
     1
  3
ACAD_COLOR
350
2229C
  3
ACAD_GROUP
350
D
  3
ACAD_LAYOUT
350
1A
  3
ACAD_MATERIAL
350
2229B
  3
ACAD_MLINESTYLE
350
17
  3
ACAD_PLOTSETTINGS
350
19
  3
ACAD_PLOTSTYLENAME
350
E
  3
ACAD_TABLESTYLE
350
2229D
  3
AcAmCatalogState
350
22304
  3
ACDBHEADERROUNDTRIPXREC
350
22BB7
  3
AcDbVariableDictionary
350
30
  3
ACDMSYSVARMGR
350
222B7
  3
ACGREF_MASTER
350
222AF
  3
ACGREFACAD_MASTER
350
222D7
  3
AcmDictionary
350
4D
  3
ACME_BOM_MANAGER_NAME
350
36
  3
ACME_COMMAND_HISTORY
350
2F
  3
ACME_SCOPE_NAME
350
2E
  3
ACMESTATEMGR
350
3B
  3
AcmeSysVarManager
350
32
  3
AcmSystemVariableManager
350
6A
  3
AD_APPL
350
222E2
  3
ADSYSVARMGR
350
222E1
  3
AmdtNamedDwgMgr
350
222D2
  3
AMG
350
3F
  3
AMGSNAPSETTINGS
350
73
  3
AMI_MASTER
350
222DA
  3
ASE_INDEX_DICTIONARY
350
2230F
  3
AUTOCAD_ASSEMBLIES_PROJECT
350
222EA
  3
Designer_Assemblies_SysVars
350
222E5
  3
DWGPROPS
350
22BBA
  3
eng_data
350
2A40
  3
FILENAME
350
2916
  3
GREFAM_MODULE
350
222DB
  3
line_dic_data
350
2A3E
  3
table_dic_data
350
1688
  3
ZWKSIZE
350
2918
  0
DICTIONARY
  5
165
330
1F
100
AcDbDictionary
280
     1
281
     1
  0
DICTIONARY
  5
2229C
102
{ACAD_REACTORS
330
C
102
}
330
C
100
AcDbDictionary
281
     1
  0
DICTIONARY
  5
D
102
{ACAD_REACTORS
330
C
102
}
330
C
100
AcDbDictionary
281
     1
  0
DICTIONARY
  5
1A
102
{ACAD_REACTORS
330
C
102
}
330
C
100
AcDbDictionary
281
     1
  3
Model
350
22
  3
ﾚｲｱｳﾄ1
350
1E
  3
ﾚｲｱｳﾄ2
350
26
  0
DICTIONARY
  5
2229B
102
{ACAD_REACTORS
330
C
102
}
330
C
100
AcDbDictionary
281
     1
  0
DICTIONARY
  5
17
102
{ACAD_REACTORS
330
C
102
}
330
C
100
AcDbDictionary
281
     1
  3
Standard
350
18
  0
DICTIONARY
  5
19
102
{ACAD_REACTORS
330
C
102
}
330
C
100
AcDbDictionary
281
     1
  0
ACDBDICTIONARYWDFLT
  5
E
102
{ACAD_REACTORS
330
C
102
}
330
C
100
AcDbDictionary
281
     1
  3
Normal
350
F
100
AcDbDictionaryWithDefault
340
F
  0
DICTIONARY
  5
2229D
102
{ACAD_REACTORS
330
C
102
}
330
C
100
AcDbDictionary
281
     1
  3
Standard
350
2229E
  0
ACAD_PROXY_OBJECT
  5
22304
102
{ACAD_REACTORS
330
C
102
}
330
C
100
AcDbProxyObject
 90
      499
 91
      571
 95
       25
 70
     0
 93
      520
310
3FFFFFFFE00A02814029A219D2E2237B1BAB6B2B73A399030B7321029B2BA3A34B733B9AE4961C9B1AE41B341AC41A741B3C1B141BB2E4AE7C6AC4465CBC5400AA
  0
DICTIONARY
  5
22BB7
102
{ACAD_REACTORS
330
C
102
}
330
C
100
AcDbDictionary
281
     1
  3
COLORDICT
350
22BB8
  3
MATERIALDICT
350
22BB9
  0
DICTIONARY
  5
30
102
{ACAD_REACTORS
330
C
102
}
330
C
100
AcDbDictionary
281
     1
  3
CTABLESTYLE
350
22313
  3
HIDETEXT
350
22BB6
  3
INDEXCTL
350
22BB5
  0
ACAD_PROXY_OBJECT
  5
222B7
102
{ACAD_REACTORS
330
C
102
}
330
C
100
AcDbProxyObject
 90
      499
 91
      507
 95
       25
 70
     0
 93
      240
310
4C51A47A0000000000000000000000000000000000000000000000000000
330
222B8
330
222B9
330
222BA
330
222BB
330
222BC
330
222BD
330
222BE
330
222BF
330
222C0
330
222C1
330
222C2
330
222C3
330
222C4
330
222C5
330
222C6
330
222C7
330
222C8
330
222C9
330
222CA
330
222CB
330
222CC
330
222CD
330
222CE
330
222CF
330
222D0
330
222D1
 94
        0
  0
ACAD_PROXY_OBJECT
  5
222AF
102
{ACAD_REACTORS
330
C
102
}
330
C
100
AcDbProxyObject
 90
      499
 91
      535
 95
       25
 70
     0
 93
       34
310
0400004280
  0
ACAD_PROXY_OBJECT
  5
222D7
102
{ACAD_REACTORS
330
C
102
}
330
C
100
AcDbProxyObject
 90
      499
 91
      541
 95
       25
 70
     0
 93
      114
310
04000041C080000000000000000000
  0
DICTIONARY
  5
4D
102
{ACAD_REACTORS
330
C
102
}
330
C
100
AcDbDictionary
281
     1
  3
AcmBOMDATA
350
4E
  3
AcmStdDictionary
350
17E
  3
AMDTSECTSYM_ARROWCOLOR
350
222F8
  0
ACAD_PROXY_OBJECT
  5
36
102
{ACAD_REACTORS
330
C
102
}
330
C
100
AcDbProxyObject
 90
      499
 91
      510
 95
       25
 70
     0
 93
       50
310
00010040400000
330
0
330
0
330
37
 94
        0
  0
ACAD_PROXY_OBJECT
  5
2F
102
{ACAD_REACTORS
330
C
102
}
330
C
100
AcDbProxyObject
 90
      499
 91
      505
 95
       25
 70
     0
 93
     6084
310
478050545524153458050C475249505F53545245544348805055153415645404052D4D5347202D205050413A2020206465736B746F702E6172782046696C6556657273696F6E3A20392E322E302E34014390535115149154D15511109353D1102014213880B4815539113C05084E202D20554E444F014115539113E0141155
310
39113E0142941493D4115495125154E014194D1531150D510201461354D1C80B4810DBDB5B585B990810D05390D1531311510B8052D4D5347202D205050413A2020206465736B746F702E6172782046696C6556657273696F6E3A20392E322E302E34014154155491D150101461354D1C80B4810DBDB5B585B990810D05390
310
D1531311510B805055153415645404052D4D5347202D205050413A2020206465736B746F702E6172782046696C6556657273696F6E3A20392E322E302E34014390535115149154D15511109353D1102014213880B4815539113C05084E202D20554E444F014115539113E014115539113E01415454D05591501014B5354D1C
310
80B481414104E88080819195CDADD1BDC0B985C9E08119A5B1955995C9CDA5BDB8E880E4B8C8B8C0B8D0050E414D4454524553455444424D4F4440805084E202D20554E444F014213880B4815539113C0504554E444F80504554E444F80506524F544154458050844524F5047454F4D8050C475249505F5354524554434880
310
5044D4F5645805045A4F4F4D8050C475249505F53545245544348805055153415645404052D4D5347202D205050413A2020206465736B746F702E6172782046696C6556657273696F6E3A20392E322E302E3401415454D05591501014B5354D1C80B481414104E88080819195CDADD1BDC0B985C9E08119A5B1955995C9CDA
310
5BDB8E880E4B8C8B8C0B8D0050E414D4454524553455444424D4F4440805084E202D20554E444F014213880B4815539113C0504554E444F80504554E444F805055055524745805055153415645404052D4D5347202D205050413A2020206465736B746F702E6172782046696C6556657273696F6E3A20392E322E302E340
  0
ACAD_PROXY_OBJECT
  5
2E
102
{ACAD_REACTORS
330
C
102
}
330
C
100
AcDbProxyObject
 90
      499
 91
      504
 95
       25
 70
     0
 93
      586
310
09000046408000000000000000001344E200000000000000000000000000000000000000000000000000000000000000000000000000000000000000000000000000000000AAA406AA80
360
33
360
34
360
35
360
37
360
6B
360
6C
360
222B0
360
222B1
360
222B2
360
222B3
360
222B4
360
222B5
360
222B8
360
222B9
360
222BA
360
222BB
360
222BC
360
222BD
360
222BE
360
222BF
360
222C0
360
222C1
360
222C2
360
222C3
360
222C4
360
222C5
360
222C6
360
222C7
360
222C8
360
222C9
360
222CA
360
222CB
360
222CC
360
222CD
360
222CE
360
222CF
360
222D0
360
222D1
360
222DD
360
222DE
360
222DF
360
222E0
360
222E6
360
222E7
360
222E8
360
222E9
360
222EE
360
222EF
360
222F0
360
222F1
360
222F2
360
222F3
 94
        0
  0
ACAD_PROXY_OBJECT
  5
3B
102
{ACAD_REACTORS
330
C
102
}
330
C
100
AcDbProxyObject
 90
      499
 91
      515
 95
       25
 70
     0
 93
       50
310
09000042641280
  0
ACAD_PROXY_OBJECT
  5
32
102
{ACAD_REACTORS
330
C
102
}
330
C
100
AcDbProxyObject
 90
      499
 91
      507
 95
       25
 70
     0
 93
       48
310
903412000000
330
33
330
34
330
35
 94
        0
  0
ACAD_PROXY_OBJECT
  5
6A
102
{ACAD_REACTORS
330
C
102
}
330
C
100
AcDbProxyObject
 90
      499
 91
      507
 95
       25
 70
     0
 93
       40
310
90240E0000
330
6B
330
6C
 94
        0
  0
ACAD_PROXY_OBJECT
  5
222E2
102
{ACAD_REACTORS
330
C
102
}
330
C
100
AcDbProxyObject
 90
      499
 91
      551
 95
       25
 70
     0
 93
       42
310
000900004040
330
222DD
 94
        0
  0
ACAD_PROXY_OBJECT
  5
222E1
102
{ACAD_REACTORS
330
C
102
}
330
C
100
AcDbProxyObject
 90
      499
 91
      507
 95
       25
 70
     0
 93
        8
310
AA
  0
ACAD_PROXY_OBJECT
  5
222D2
102
{ACAD_REACTORS
330
C
102
}
330
C
100
AcDbProxyObject
 90
      499
 91
      540
 95
       25
 70
     0
 93
       42
310
000100005E80
330
222B0
 94
        0
  0
DICTIONARY
  5
3F
102
{ACAD_REACTORS
330
C
102
}
330
C
100
AcDbDictionary
281
     1
  3
AcMgSettings
350
40
  3
AMGLAYCFG
350
42
  0
DICTIONARY
  5
73
102
{ACAD_REACTORS
330
C
102
}
330
C
100
AcDbDictionary
281
     1
  3
DIMENSION
350
62F
  3
FEA
350
630
  3
HATCH (1)
350
631
  3
HATCH (2)
350
632
  3
SYMBOLS
350
633
  0
ACAD_PROXY_OBJECT
  5
222DA
102
{ACAD_REACTORS
330
C
102
}
330
C
100
AcDbProxyObject
 90
      499
 91
      544
 95
       25
 70
     0
 93
       34
310
0500004280
  0
DICTIONARY
  5
2230F
102
{ACAD_REACTORS
330
C
102
}
330
C
100
AcDbDictionary
281
     1
  3
ASEBlockHierarchyIndexRecord
350
22311
1001
DCO15
1040
1562583533.437
  0
ACAD_PROXY_OBJECT
  5
222EA
102
{ACAD_REACTORS
330
C
102
}
330
C
100
AcDbProxyObject
 90
      499
 91
      554
 95
       25
 70
     0
 93
       98
310
0900004E400000000000000000
330
222F1
330
0
330
222F2
330
0
330
0
330
0
330
0
330
0
 94
        0
  0
ACAD_PROXY_OBJECT
  5
222E5
102
{ACAD_REACTORS
330
C
102
}
330
C
100
AcDbProxyObject
 90
      499
 91
      507
 95
       25
 70
     0
 93
       56
310
90441600000000
330
222E6
330
222E7
330
222E8
330
222E9
 94
        0
  0
XRECORD
  5
22BBA
102
{ACAD_REACTORS
330
C
102
}
330
C
100
AcDbXrecord
280
     1
  1
DWGPROPS COOKIE
  2

  3

  4

  6

  7

  8

  9

300
AmdtFileType=82
301
=
302
=
303
=
304
=
305
=
306
=
307
=
308
=
309
=
 40
0.0
 41
2451943.235431667
 42
2455482.213269491
  1

 90
        1
  0
DICTIONARY
  5
2A40
102
{ACAD_REACTORS
330
C
102
}
330
C
100
AcDbDictionary
281
     1
  3
eng_id
350
2A41
  0
DICTIONARY
  5
2916
102
{ACAD_REACTORS
330
C
102
}
330
C
100
AcDbDictionary
281
     1
  3
FILENAME
350
2917
  0
ACAD_PROXY_OBJECT
  5
222DB
102
{ACAD_REACTORS
330
C
102
}
330
C
100
AcDbProxyObject
 90
      499
 91
      545
 95
       25
 70
     0
 93
        8
310
05
  0
DICTIONARY
  5
2A3E
102
{ACAD_REACTORS
330
C
102
}
330
C
100
AcDbDictionary
281
     1
  3
line_data
350
2A3F
  0
DICTIONARY
  5
1688
102
{ACAD_REACTORS
330
C
102
}
330
C
100
AcDbDictionary
281
     1
  3
input_data
350
168A
  3
table_data
350
1689
  0
DICTIONARY
  5
2918
102
{ACAD_REACTORS
330
C
102
}
330
C
100
AcDbDictionary
281
     1
  3
ZWKSIZE
350
2919
  0
LAYOUT
  5
22
102
{ACAD_REACTORS
330
1A
102
}
330
1A
100
AcDbPlotSettings
  1

  2
SII LP-2150 (D-SCAN C2)
  4
User120
  6
AM_VIEW1
 40
3.174999952316284
 41
3.174999952316284
 42
3.17498779296875
 43
3.17498779296875
 44
296.9259948730469
 45
419.9889831542969
 46
0.0
 47
0.0
 48
0.0
 49
0.0
140
420.0
141
297.0
142
1.0
143
1.022107788374329
 70
 11952
 72
     1
 73
     1
 74
     4
  7
sei_cad.ctb
 75
     0
147
0.9783703943695685
148
0.0
149
0.0
100
AcDbLayout
  1
Model
 70
     1
 71
     0
 10
0.0
 20
0.0
 11
12.0
 21
9.0
 12
0.0
 22
0.0
 32
0.0
 14
0.0
 24
0.0
 34
0.0
 15
0.0
 25
0.0
 35
0.0
146
0.0
 13
0.0
 23
0.0
 33
0.0
 16
1.0
 26
0.0
 36
0.0
 17
0.0
 27
1.0
 37
0.0
 76
     0
330
1F
1001
ACAD_PSEXT
1000
SII LP-2150 (D-SCAN C2)
1000
SII LP-2150 (D-SCAN C2)
1000
133.153.16.130#3000
1000

1070
     0
  0
LAYOUT
  5
1E
102
{ACAD_REACTORS
330
1A
102
}
330
1A
100
AcDbPlotSettings
  1

  2
Canon LASER SHOT LBP-2030
  4

  6

 40
0.0
 41
0.0
 42
0.0
 43
0.0
 44
0.0
 45
0.0
 46
0.0
 47
0.0
 48
0.0
 49
0.0
140
0.0
141
0.0
142
1.0
143
1.0
 70
   688
 72
     0
 73
     0
 74
     5
  7
sei_cad.ctb
 75
    16
147
1.0
148
0.0
149
0.0
100
AcDbLayout
  1
ﾚｲｱｳﾄ1
 70
     1
 71
     1
 10
0.0
 20
0.0
 11
420.0
 21
297.0
 12
0.0
 22
0.0
 32
0.0
 14
1.000000000000000E+20
 24
1.000000000000000E+20
 34
1.000000000000000E+20
 15
-1.000000000000000E+20
 25
-1.000000000000000E+20
 35
-1.000000000000000E+20
146
0.0
 13
0.0
 23
0.0
 33
0.0
 16
1.0
 26
0.0
 36
0.0
 17
0.0
 27
1.0
 37
0.0
 76
     0
330
1B
  0
LAYOUT
  5
26
102
{ACAD_REACTORS
330
1A
102
}
330
1A
100
AcDbPlotSettings
  1

  2
Canon LASER SHOT LBP-2030
  4

  6

 40
0.0
 41
0.0
 42
0.0
 43
0.0
 44
0.0
 45
0.0
 46
0.0
 47
0.0
 48
0.0
 49
0.0
140
0.0
141
0.0
142
1.0
143
1.0
 70
   688
 72
     0
 73
     0
 74
     5
  7
sei_cad.ctb
 75
    16
147
1.0
148
0.0
149
0.0
100
AcDbLayout
  1
ﾚｲｱｳﾄ2
 70
     1
 71
     2
 10
0.0
 20
0.0
 11
12.0
 21
9.0
 12
0.0
 22
0.0
 32
0.0
 14
0.0
 24
0.0
 34
0.0
 15
0.0
 25
0.0
 35
0.0
146
0.0
 13
0.0
 23
0.0
 33
0.0
 16
1.0
 26
0.0
 36
0.0
 17
0.0
 27
1.0
 37
0.0
 76
     0
330
23
  0
MLINESTYLE
  5
18
102
{ACAD_REACTORS
330
17
102
}
330
17
100
AcDbMlineStyle
  2
STANDARD
 70
     0
  3

 62
   256
 51
90.0
 52
90.0
 71
     2
 49
0.5
 62
   256
  6
BYLAYER
 49
-0.5
 62
   256
  6
BYLAYER
  0
ACDBPLACEHOLDER
  5
F
102
{ACAD_REACTORS
330
E
102
}
330
E
  0
TABLESTYLE
  5
2229E
102
{ACAD_REACTORS
330
2229D
102
}
330
2229D
100
AcDbTableStyle
  3
Standard
 70
     0
 71
     8
 40
1.5
 41
1.5
280
     0
281
     0
  7
STANDARD
140
4.5
170
     2
 62
     0
 63
     7
283
     0
274
    -2
284
     1
 64
     0
275
    -2
285
     1
 65
     0
276
    -2
286
     1
 66
     0
277
    -2
287
     1
 67
     0
278
    -2
288
     1
 68
     0
279
    -2
289
     1
 69
     0
  7
STANDARD
140
6.0
170
     5
 62
     0
 63
     7
283
     0
274
    -2
284
     1
 64
     0
275
    -2
285
     1
 65
     0
276
    -2
286
     1
 66
     0
277
    -2
287
     1
 67
     0
278
    -2
288
     1
 68
     0
279
    -2
289
     1
 69
     0
  7
STANDARD
140
4.5
170
     5
 62
     0
 63
     7
283
     0
274
    -2
284
     1
 64
     0
275
    -2
285
     1
 65
     0
276
    -2
286
     1
 66
     0
277
    -2
287
     1
 67
     0
278
    -2
288
     1
 68
     0
279
    -2
289
     1
 69
     0
  0
XRECORD
  5
22BB8
102
{ACAD_REACTORS
330
22BB7
102
}
330
22BB7
100
AcDbXrecord
280
     1
340
2229C
  0
XRECORD
  5
22BB9
102
{ACAD_REACTORS
330
22BB7
102
}
330
22BB7
100
AcDbXrecord
280
     1
340
2229B
  0
DICTIONARYVAR
  5
22313
102
{ACAD_REACTORS
330
30
102
}
330
30
100
DictionaryVariables
280
     0
  1
STANDARD
  0
DICTIONARYVAR
  5
22BB6
102
{ACAD_REACTORS
330
30
102
}
330
30
100
DictionaryVariables
280
     0
  1
0
  0
DICTIONARYVAR
  5
22BB5
102
{ACAD_REACTORS
330
30
102
}
330
30
100
DictionaryVariables
280
     0
  1
1
  0
ACAD_PROXY_OBJECT
  5
4E
102
{ACAD_REACTORS
330
4D
102
}
330
4D
100
AcDbProxyObject
 90
      499
 91
      520
 95
       25
 70
     0
 93
      118
310
405010040CA904C415CD5B075DD0C8
350
4F
 94
        0
  0
DICTIONARY
  5
17E
102
{ACAD_REACTORS
330
4D
102
}
330
4D
100
AcDbDictionary
281
     1
  3
JIS
350
17F
  0
XRECORD
  5
222F8
102
{ACAD_REACTORS
330
4D
102
}
330
4D
100
AcDbXrecord
280
     1
 90
-1023410169
  0
ACAD_PROXY_OBJECT
  5
33
330
2E
100
AcDbProxyObject
 90
      499
 91
      508
 95
       25
 70
     0
 93
      156
310
00010143D050D351505391D5531054925390D490
330
2E
 94
        0
  0
ACAD_PROXY_OBJECT
  5
34
330
2E
100
AcDbProxyObject
 90
      499
 91
      508
 95
       25
 70
     0
 93
      148
310
000101439050D351531253915054925390D490
330
2E
 94
        0
  0
ACAD_PROXY_OBJECT
  5
35
330
2E
100
AcDbProxyObject
 90
      499
 91
      509
 95
       25
 70
     0
 93
      156
310
000101439050D35154D6535093D314D256915080
330
2E
 94
        0
  0
ACAD_PROXY_OBJECT
  5
37
330
2E
100
AcDbProxyObject
 90
      499
 91
      511
 95
       25
 70
     0
 93
       88
310
000101411093D34C402B00
330
2E
330
0
330
0
 94
        0
  0
ACAD_PROXY_OBJECT
  5
6B
330
2E
100
AcDbProxyObject
 90
      499
 91
      509
 95
       25
 70
     0
 93
      108
310
00010142505351D153D35054D4E0
330
2E
 94
        0
  0
ACAD_PROXY_OBJECT
  5
6C
330
2E
100
AcDbProxyObject
 90
      499
 91
      522
 95
       25
 70
     0
 93
      140
310
00010142105350D55494D511005034A49530
330
2E
 94
        0
  0
ACAD_PROXY_OBJECT
  5
222B0
330
2E
100
AcDbProxyObject
 90
      499
 91
      536
 95
       25
 70
     0
 93
      358
310
0001014124FEA55D00507392E322E302E32014124FEA55D00507392E322E302E3240501000041505391D311658
330
2E
330
222B1
330
222B7
 94
        0
  0
ACAD_PROXY_OBJECT
  5
222B1
330
2E
100
AcDbProxyObject
 90
      499
 91
      537
 95
       25
 70
     0
 93
       56
310
000190240E0000
330
2E
330
222B2
330
222B4
 94
        0
  0
ACAD_PROXY_OBJECT
  5
222B2
330
2E
100
AcDbProxyObject
 90
      499
 91
      538
 95
       25
 70
     0
 93
       48
310
0001AA000000
330
2E
330
1E
330
222B3
330
0
 94
        0
  0
ACAD_PROXY_OBJECT
  5
222B3
330
2E
100
AcDbProxyObject
 90
      499
 91
      539
 95
       25
 70
     0
 93
       28
310
0001AAA0
330
2E
 94
        0
  0
ACAD_PROXY_OBJECT
  5
222B4
330
2E
100
AcDbProxyObject
 90
      499
 91
      538
 95
       25
 70
     0
 93
       48
310
0001AA000000
330
2E
330
26
330
222B5
330
0
 94
        0
  0
ACAD_PROXY_OBJECT
  5
222B5
330
2E
100
AcDbProxyObject
 90
      499
 91
      539
 95
       25
 70
     0
 93
       28
310
0001AAA0
330
2E
 94
        0
  0
ACAD_PROXY_OBJECT
  5
222B8
330
2E
100
AcDbProxyObject
 90
      499
 91
      509
 95
       25
 70
     0
 93
      108
310
000101421053521310D05310D010
330
2E
 94
        0
  0
ACAD_PROXY_OBJECT
  5
222B9
330
2E
100
AcDbProxyObject
 90
      499
 91
      509
 95
       25
 70
     0
 93
      124
310
00010142905354915554D15112535010
330
2E
 94
        0
  0
ACAD_PROXY_OBJECT
  5
222BA
330
2E
100
AcDbProxyObject
 90
      499
 91
      509
 95
       25
 70
     0
 93
      132
310
00010143105354D150D51253D391125360
330
2E
 94
        0
  0
ACAD_PROXY_OBJECT
  5
222BB
330
2E
100
AcDbProxyObject
 90
      499
 91
      509
 95
       25
 70
     0
 93
      124
310
00010142905355941093D49111549010
330
2E
 94
        0
  0
ACAD_PROXY_OBJECT
  5
222BC
330
2E
100
AcDbProxyObject
 90
      499
 91
      509
 95
       25
 70
     0
 93
      116
310
0001014290535115D1D0D3D313D4A0
330
2E
 94
        0
  0
ACAD_PROXY_OBJECT
  5
222BD
330
2E
100
AcDbProxyObject
 90
      499
 91
      509
 95
       25
 70
     0
 93
      148
310
00010143505355925155D49151949154D21010
330
2E
 94
        0
  0
ACAD_PROXY_OBJECT
  5
222BE
330
2E
100
AcDbProxyObject
 90
      499
 91
      509
 95
       25
 70
     0
 93
      172
310
00010144105350539393D51154149154D15495915010
330
2E
 94
        0
  0
ACAD_PROXY_OBJECT
  5
222BF
330
2E
100
AcDbProxyObject
 90
      499
 91
      509
 95
       25
 70
     0
 93
      172
310
00010144105350555513D11253505494905391D15010
330
2E
 94
        0
  0
ACAD_PROXY_OBJECT
  5
222C0
330
2E
100
AcDbProxyObject
 90
      499
 91
      509
 95
       25
 70
     0
 93
      124
310
00010142D05351561514915191125360
330
2E
 94
        0
  0
ACAD_PROXY_OBJECT
  5
222C1
330
2E
100
AcDbProxyObject
 90
      499
 91
      509
 95
       25
 70
     0
 93
      132
310
00010142D05355105410539393D5115010
330
2E
 94
        0
  0
ACAD_PROXY_OBJECT
  5
222C2
330
2E
100
AcDbProxyObject
 90
      499
 91
      509
 95
       25
 70
     0
 93
      108
310
00010142105350555513D0D31010
330
2E
 94
        0
  0
ACAD_PROXY_OBJECT
  5
222C3
330
2E
100
AcDbProxyObject
 90
      499
 91
      509
 95
       25
 70
     0
 93
      108
310
00010142105350D3119150551050
330
2E
 94
        0
  0
ACAD_PROXY_OBJECT
  5
222C4
330
2E
100
AcDbProxyObject
 90
      499
 91
      509
 95
       25
 70
     0
 93
      108
310
00010142105350D315925155D3F0
330
2E
 94
        0
  0
ACAD_PROXY_OBJECT
  5
222C5
330
2E
100
AcDbProxyObject
 90
      499
 91
      509
 95
       25
 70
     0
 93
      148
310
0001014350535212511156915493D112535010
330
2E
 94
        0
  0
ACAD_PROXY_OBJECT
  5
222C6
330
2E
100
AcDbProxyObject
 90
      499
 91
      509
 95
       25
 70
     0
 93
      124
310
00010142905352105510D21254D3D010
330
2E
 94
        0
  0
ACAD_PROXY_OBJECT
  5
222C7
330
2E
100
AcDbProxyObject
 90
      499
 91
      509
 95
       25
 70
     0
 93
      148
310
00010143905354D25391D31152105513105660
330
2E
 94
        0
  0
ACAD_PROXY_OBJECT
  5
222C8
330
2E
100
AcDbProxyObject
 90
      499
 91
      509
 95
       25
 70
     0
 93
      124
310
00010142D0535115D1D193111254D420
330
2E
 94
        0
  0
ACAD_PROXY_OBJECT
  5
222C9
330
2E
100
AcDbProxyObject
 90
      499
 91
      509
 95
       25
 70
     0
 93
      100
310
00010142105350555513D213A0
330
2E
 94
        0
  0
ACAD_PROXY_OBJECT
  5
222CA
330
2E
100
AcDbProxyObject
 90
      499
 91
      509
 95
       25
 70
     0
 93
      116
310
000101425053521390D3D553951010
330
2E
 94
        0
  0
ACAD_PROXY_OBJECT
  5
222CB
330
2E
100
AcDbProxyObject
 90
      499
 91
      509
 95
       25
 70
     0
 93
      108
310
0001014210535213941493D29010
330
2E
 94
        0
  0
ACAD_PROXY_OBJECT
  5
222CC
330
2E
100
AcDbProxyObject
 90
      499
 91
      509
 95
       25
 70
     0
 93
      108
310
0001014210535213951654115070
330
2E
 94
        0
  0
ACAD_PROXY_OBJECT
  5
222CD
330
2E
100
AcDbProxyObject
 90
      499
 91
      509
 95
       25
 70
     0
 93
      108
310
000101421053521395925155D0F0
330
2E
 94
        0
  0
ACAD_PROXY_OBJECT
  5
222CE
330
2E
100
AcDbProxyObject
 90
      499
 91
      509
 95
       25
 70
     0
 93
      140
310
00010143505354D150D51253D390D3D41660
330
2E
 94
        0
  0
ACAD_PROXY_OBJECT
  5
222CF
330
2E
100
AcDbProxyObject
 90
      499
 91
      509
 95
       25
 70
     0
 93
      108
310
00010142105350D3141493D29030
330
2E
 94
        0
  0
ACAD_PROXY_OBJECT
  5
222D0
330
2E
100
AcDbProxyObject
 90
      499
 91
      508
 95
       25
 70
     0
 93
      212
310
00010143905350555513D2105510D21493D500000000000002E400
330
2E
 94
        0
  0
ACAD_PROXY_OBJECT
  5
222D1
330
2E
100
AcDbProxyObject
 90
      499
 91
      509
 95
       25
 70
     0
 93
      156
310
00010143905350555513D2105510D21111551010
330
2E
 94
        0
  0
ACAD_PROXY_OBJECT
  5
222DD
330
2E
100
AcDbProxyObject
 90
      499
 91
      547
 95
       25
 70
     0
 93
      698
310
0001000000009AA6A9AA4051E546875204A756E2030312030373A30323A303520323030362028555443290141CE4B8C8B8C0B8C80518547565204F63742031322031343A30373A303620323031300141CE4B8C8B8C0B8C80
330
2E
330
222DE
330
222DF
330
222E1
330
0
 94
        0
  0
ACAD_PROXY_OBJECT
  5
222DE
330
2E
100
AcDbProxyObject
 90
      499
 91
      548
 95
       25
 70
     0
 93
       70
310
0001AAA80820000000
330
2E
330
222DE
330
222DE
 94
        0
  0
ACAD_PROXY_OBJECT
  5
222DF
330
2E
100
AcDbProxyObject
 90
      499
 91
      549
 95
       25
 70
     0
 93
       48
310
000100000000
330
2E
330
0
330
222E0
330
0
330
0
 94
        0
  0
ACAD_PROXY_OBJECT
  5
222E0
330
2E
100
AcDbProxyObject
 90
      499
 91
      550
 95
       25
 70
     0
 93
       40
310
000100AAAA
330
2E
330
0
 94
        0
  0
ACAD_PROXY_OBJECT
  5
222E6
330
2E
100
AcDbProxyObject
 90
      499
 91
      522
 95
       25
 70
     0
 93
      180
310
00010143105050D3D35411119390535140504434F4D500
330
2E
 94
        0
  0
ACAD_PROXY_OBJECT
  5
222E7
330
2E
100
AcDbProxyObject
 90
      499
 91
      522
 95
       25
 70
     0
 93
      212
310
0001014390505193D311115491119390535140506466F6C6465720
330
2E
 94
        0
  0
ACAD_PROXY_OBJECT
  5
222E8
330
2E
100
AcDbProxyObject
 90
      499
 91
      522
 95
       25
 70
     0
 93
      180
310
00010143105050539393D1119390535140504284156290
330
2E
 94
        0
  0
ACAD_PROXY_OBJECT
  5
222E9
330
2E
100
AcDbProxyObject
 90
      499
 91
      522
 95
       25
 70
     0
 93
      436
310
00010143905050D3D35415925155D31254D50052295BD96CA0A90B396CA0A894591A496CA0A8DB691A496CA0A89BA96CA0A95E28F95310
330
2E
 94
        0
  0
ACAD_PROXY_OBJECT
  5
222EE
330
2E
100
AcDbProxyObject
 90
      499
 91
      555
 95
       25
 70
     0
 93
       32
310
00010000
330
2E
340
222EB
330
222F0
330
222EB
 94
        0
  0
ACAD_PROXY_OBJECT
  5
222EF
330
2E
100
AcDbProxyObject
 90
      499
 91
      556
 95
       25
 70
     0
 93
       18
310
000180
330
2E
 94
        0
  0
ACAD_PROXY_OBJECT
  5
222F0
330
2E
100
AcDbProxyObject
 90
      499
 91
      557
 95
       25
 70
     0
 93
      226
310
00010144508C4C134B54D11550D48C0DCC0C8B4C4CD050055401550000
330
2E
330
222EE
330
222EF
 94
        0
  0
ACAD_PROXY_OBJECT
  5
222F1
330
2E
100
AcDbProxyObject
 90
      499
 91
      558
 95
       25
 70
     0
 93
      178
310
000100AAAAAAB7E9601517490F93AAAD291D5951C43B80
330
2E
330
222F0
 94
        0
  0
ACAD_PROXY_OBJECT
  5
222F2
330
2E
100
AcDbProxyObject
 90
      499
 91
      559
 95
       25
 70
     0
 93
      108
310
000190140A000000000000AAAAA0
330
2E
330
222F3
330
222F3
330
222F3
330
222F3
330
222F3
330
0
 94
        0
  0
ACAD_PROXY_OBJECT
  5
222F3
330
2E
100
AcDbProxyObject
 90
      499
 91
      560
 95
       25
 70
     0
 93
       51
310
00010000AAAA80
330
2E
330
222F2
330
222F0
 94
        0
  0
DICTIONARY
  5
40
102
{ACAD_REACTORS
330
3F
102
}
330
3F
100
AcDbDictionary
281
     1
  3
DWGSETTINGS
350
41
  3
FEM
350
69
  3
Shaft
350
56
  3
TRANSSETTINGS
350
4C
  0
ACAD_PROXY_OBJECT
  5
42
102
{ACAD_REACTORS
330
3F
102
}
330
3F
100
AcDbProxyObject
 90
      499
 91
      519
 95
       25
 70
     0
 93
    23232
310
41502491013041105357CC201C00030C011E441013141105357CC603800030C011E441013241105357CCA01400030C011E441013341105357CCE01800030C010D9013441105357CD200C00030C010D9013541105357CD600C00030C010D9013641105357CDA00800030C011E9013741105357CDE01000030C010D901384110
310
5357CE200400030C011E9013941105357CE63F400030C0241102324141505357CC4C201C00030C011E902344141505357CC4C600C00030C010D902495041505357CC4CA01C00030C011E40902304E41505357CC13A01C00030C011E902314E41505357CC53A03800030C011E902324E41505357CC93A01400030C011E90233
310
4E41505357CCD3A01800030C010D902344E41505357CD13A00C00030C010D902354E41505357CD53A00C00030C010D902364E41505357CD93A00800030C011E902374E41505357CDD3A01000030C010D902384E41505357CE13A00400030C011E902394E41505357CE53A3F400030C024110332414E41905357CC4C13A01C0
310
0030C011E90334414E41905357CC4C53A00C00030C010D90349504E41905357CC4C93A01C00030C011E409044B4C494E41505357D0D3200400030C011E42504494E464F42105357D410549151A01000030C010D42D055241484D3541905357D093D4A01C00030C011E425045649455742105357D5925155D4E00400030C011
310
E42D06424548494E4441905357D25395A3F400030C0243505545241494C41505357D514A00C00030C010D4250348494441905357D21251201C00030C011E4250356495341905357D59254E01C00030C011E4250650415244494D42505357D41054911253600C00030C010D4250652454644494D42505357D49151911253601
310
000030C010D425774110531514901348070000C300479034110915312501348000000C0003FFFFFFFD034110921395901398000000C0003FFFFFFFE415092139594D06424548494E448000000C0003FFFFFFFE411093125110234418000000C0003FFFFFFFD03411093D05410234418000000C0003FFFFFFFD03411093D48C
310
9055241484D358010000C30047A411093D48CD055241484D358020000C30047A411093D48D5055241484D358000000C0003FFFFFFFE411093D48DD055241484D3581E0000C30047903411094105410234418000000C0003FFFFFFFD03411094115610234418000000C0003FFFFFFFD034110951112501358000000C0003FFF
310
FFFFD034110D0530C901348000000C0003FFFFFFFE4110D0530CD01348020000C30047A4110D0530D501348070000C30047A4110D0530DD013481E0000C30047A4110D15393901378000000C0003FFFFFFFE4110D15395D01378000000C0003FFFFFFFE4110D312539044B4C494E8000000C0003FFFFFFFE4110D3D38C5013
310
08000000C0003FFFFFFFD034110D3D38C901318000000C0003FFFFFFFD034110D3D38CD01328000000C0003FFFFFFFD034110D3D38D101328000000C0003FFFFFFFD034111115494101348000000C0003FFFFFFFD034111115510501348000000C0003FFFFFFFE4111125051D01358000000C0003FFFFFFFE4111125312501
310
358000000C0003FFFFFFFE411112535410650415244494D8000000C0003FFFFFFFE411112535490652454644494D8000000C0003FFFFFFFE411156135410234418000000C0003FFFFFFFD034111915353901388000000C0003FFFFFFFE415191535413901388030000C3004364151915354D410234418000000C0003FFFFFF
310
FE4151915354D510234418030000C300436415191535593901328000000C0003FFFFFFFE415191535595101328030000C3004364111931055101308000000C0003FFFFFFFD03411194905490234418000000C0003FFFFFFFD034111D49312501358000000C0003FFFFFFFD034111D5931250234418000000C0003FFFFFFFD0
310
34112105510D01388000000C0003FFFFFFFD014112125113901338000000C0003FFFFFFFD034112125115D01338000000C0003FFFFFFFD034112131253901348000000C0003FFFFFFFD01411213D0D3901378000000C0003FFFFFFFE411213D0D5D01378000000C0003FFFFFFFE4112539193D04494E464F8000000C0003FF
310
FFFFFE4113105112501348000000C0003FFFFFFFD034113115051101358000000C0003FFFFFFFE419397D0921395902394E8000000C0003FFFFFFFE419397D0D3D38C502304E8000000C0003FFFFFFFD03419397D0D3D38C902314E8000000C0003FFFFFFFD03419397D0D3D38CD02324E8000000C0003FFFFFFFD03419397
310
D0D3D38D102324E8000000C0003FFFFFFFD03419397D0D15393902374E8000000C0003FFFFFFFE419397D0D15395D02374E8000000C0003FFFFFFFE419397D1125312502354E8000000C0003FFFFFFFE419397D2105510D02384E8000000C0003FFFFFFFD01419397D2125113902334E8000000C0003FFFFFFFD03419397D2
310
125115D02334E8000000C0003FFFFFFFD03419397D3115051102354E8000000C0003FFFFFFFE419397D391D25410349504E8000000C0003FFFFFFFE419397D412105390334414E8000000C0003FFFFFFFE419397D510D3D3902304E8000000C0003FFFFFFFD03419397D5121312502344E8000000C0003FFFFFFFD01419397
310
D5131153902304E8000000C0003FFFFFFFD03419397D516150CD02364E8000000C0003FFFFFFFD03419397D594131250332414E8000000C0003FFFFFFFE411391D25410249508000000C0003FFFFFFFE411410530C9055241484D358010000C30047A411410530CD055241484D358020000C30047A411410530D5055241484
310
D358000000C0003FFFFFFFE411410530DD055241484D3581E0000C30047903411412105390234418000000C0003FFFFFFFE411413D4D3901368070000C30047A419413D4D49151901368050000C30047903411413D4D6101368000000C0003FFFFFFFD03411414D150D0234418000000C0003FFFFFFFD03411490D1D390137
310
8000000C0003FFFFFFFE411490D1D5D01378000000C0003FFFFFFFE4114919112501348000000C0003FFFFFFFD034114945514901348070000C30047903411494D093D01348000000C0003FFFFFFFD034114D09492D01348000000C0003FFFFFFFD014114D0D153901378000000C0003FFFFFFFD034114D150D51013480000
310
00C0003FFFFFFFD014114D15313901378000000C0003FFFFFFFD034114D15315D01378000000C0003FFFFFFFD034114D4D654D01308000000C0003FFFFFFFD034114D51312501348070000C300479034114D6508C501358000000C0003FFFFFFFD034114D6508C901358000000C0003FFFFFFFD034114D6508CD0135802000
310
0C30047A4114D6508D501358070000C300479034114D65353901378000000C0003FFFFFFFD034114D65355D01378000000C0003FFFFFFFD03411510D3D3901308000000C0003FFFFFFFD034115121312501348000000C0003FFFFFFFD01411512550C9055241484D358010000C30047A411512550CD055241484D358020000
310
C30047A411512550D5055241484D358000000C0003FFFFFFFE411512550DD055241484D3581E0000C300479034115131153901308000000C0003FFFFFFFD03415514905253105545241494C8000000C0003FFFFFFFE41151492D3901378000000C0003FFFFFFFD0341151492D5D01378000000C0003FFFFFFFD03411514931
310
2501348000000C0003FFFFFFFD01411516150C501368030000C300436411516150C901368030000C300436411516150CD01368000000C0003FFFFFFFE411516150D501368070000C30047A411516150DD013681E0000C30047A4115925155D04564945578000000C0003FFFFFFFE41159151121034849448000000C0003FFF
310
FFFFD0241159151159035649538000000C0003FFFFFFFD02411594131250232418000000C0003FFFFFFFE4116925690501348000000C0003FFFFFFFD01411354D653501358020000C30047AAAA3F400030C01013F90A4051E4091E40D0D4110D4151E4190D41D1E4391E4791E7F6
340
16
340
16
340
16
340
43
340
16
340
16
340
16
340
44
340
16
340
16
340
44
340
45
340
16
340
16
340
16
340
16
340
43
340
16
340
16
340
16
340
44
340
16
340
16
340
44
340
45
340
16
340
46
340
16
340
16
340
16
340
16
340
16
340
43
340
16
340
16
340
16
340
47
340
15
340
15
340
15
340
15
340
15
340
15
340
15
340
15
340
15
340
15
340
15
340
15
340
15
340
15
340
15
340
15
340
48
340
15
340
15
340
15
340
15
340
15
340
15
340
15
340
15
340
15
340
15
340
15
340
15
340
15
340
15
340
15
340
16
340
15
340
15
340
15
340
15
340
15
340
15
340
15
340
15
340
47
340
15
340
15
340
48
340
15
340
15
340
15
340
15
340
15
340
15
340
15
340
15
340
15
340
48
340
15
340
15
340
15
340
47
340
15
340
15
340
15
340
15
340
15
340
15
340
15
340
15
340
15
340
15
340
15
340
15
340
15
340
15
340
15
340
15
340
15
340
15
340
15
340
48
340
15
340
15
340
48
340
15
340
15
340
16
340
15
340
48
340
15
340
15
340
47
340
15
340
15
340
16
340
15
340
48
340
15
340
15
340
15
340
15
340
15
340
15
340
15
340
15
340
15
340
48
340
15
340
15
340
15
340
15
340
15
340
15
340
15
340
15
340
15
340
15
340
15
340
4B
340
16
 94
        0
  0
ACAD_PROXY_OBJECT
  5
62F
102
{ACAD_REACTORS
330
73
102
}
330
73
100
AcDbProxyObject
 90
      499
 91
      523
 95
       25
 70
     0
 93
      253
310
43D1444494D454E53494F4E2C414D44545F2A5F44494D404A9012A404A9012A0
  0
ACAD_PROXY_OBJECT
  5
630
102
{ACAD_REACTORS
330
73
102
}
330
73
100
AcDbProxyObject
 90
      499
 91
      523
 95
       25
 70
     0
 93
      181
310
43D012A42D05357D191504B505357CA9012A404A9012A8
  0
ACAD_PROXY_OBJECT
  5
631
102
{ACAD_REACTORS
330
73
102
}
330
73
100
AcDbProxyObject
 90
      499
 91
      523
 95
       25
 70
     0
 93
      133
310
43D054841544348404A9012A404A9012A8
  0
ACAD_PROXY_OBJECT
  5
632
102
{ACAD_REACTORS
330
73
102
}
330
73
100
AcDbProxyObject
 90
      499
 91
      523
 95
       25
 70
     0
 93
      549
310
43D044C494E4549CE0B0E138B0A8B4E0B0A8B4E138B105357CE0B105357CE138B0A8B505357CE0B0A8B505357CE139012A404A910494E534552542C5354445041525432448
  0
ACAD_PROXY_OBJECT
  5
633
102
{ACAD_REACTORS
330
73
102
}
330
73
100
AcDbProxyObject
 90
      499
 91
      523
 95
       25
 70
     0
 93
      909
310
43D6641434D46434652414D452C41434D444154554D5441524745542C41434D444154554D49442C41434D57454C4453594D2C41434D5355524653594D2C41434D4645415449442C41434D504152545245462C41434D42414C4C4F4F4E2C414D44544544474553594D404A9012A404A9012A8
  0
XRECORD
  5
22311
102
{ACAD_REACTORS
330
2230F
102
}
330
2230F
100
AcDbXrecord
280
     1
330
0
330
0
330
0
330
0
330
0
330
0
330
0
330
0
330
0
330
0
330
0
330
0
330
0
330
0
330
0
330
0
330
0
330
0
330
0
330
0
330
0
330
0
330
0
330
0
330
0
330
0
330
0
330
0
330
0
330
0
330
0
330
0
330
0
330
0
330
0
330
0
330
0
330
0
330
0
330
0
330
0
330
0
330
0
330
0
330
0
330
0
330
0
330
0
330
0
330
0
330
0
330
0
330
0
330
0
330
0
330
0
330
0
330
0
330
0
330
0
330
0
330
0
  0
XRECORD
  5
2A41
102
{ACAD_REACTORS
330
2A40
102
}
330
2A40
100
AcDbXrecord
280
     1
  1
LINE
  0

  0
XRECORD
  5
2917
102
{ACAD_REACTORS
330
2916
102
}
330
2916
100
AcDbXrecord
280
     1
  1
25000259__00___
  0

  0
XRECORD
  5
2A3F
102
{ACAD_REACTORS
330
2A3E
102
}
330
2A3E
100
AcDbXrecord
280
     1
  1
110 ^M^J ^M^J ^M^J ^M^J ^M^J ^M^J ^M^J ^M^J ^M^J ^M^J ^M^Jボーリングクイル ^M^J鋼 ^M^J特型 ^M^J直付け ^M^Jストレート ^M^J25 ^M^J2 ^M^J ^M^Jアルミ ^M^J ^M^J
  0

  0
XRECORD
  5
168A
102
{ACAD_REACTORS
330
1688
102
}
330
1688
100
AcDbXrecord
280
     1
  1
1,,,,,,,,,^M^J2,,,,,,,,,^M^J3,,,,,,,,,^M^J4,,,,,,,,,^M^J5,,,,,,,,,^M^J6,,,,,,,,,^M^J7,,,,,,,,,^M^J8,,,,,,,,,^M^J9,,,,,,,,,^M^J10,,,,,,,,,
  0

  0
XRECORD
  5
1689
102
{ACAD_REACTORS
330
1688
102
}
330
1688
100
AcDbXrecord
280
     1
  1
10,10
  0

  0
XRECORD
  5
2919
102
{ACAD_REACTORS
330
2918
102
}
330
2918
100
AcDbXrecord
280
     1
  1
3
  0

  0
ACAD_PROXY_OBJECT
  5
4F
102
{ACAD_REACTORS
330
4E
102
}
330
4E
100
AcDbProxyObject
 90
      499
 91
      521
 95
       25
 70
     0
 93
      157
310
057356C1D77406406AA8FFFFFFFF05DD01009010
330
1F
330
0
330
222F0
 94
        0
  0
ACAD_PROXY_OBJECT
  5
17F
102
{ACAD_REACTORS
330
17E
102
}
330
17E
100
AcDbProxyObject
 90
      499
 91
      526
 95
       25
 70
     0
 93
     2379
310
5DC33333333333309408000000C00040D29254D01640600800030C0200800030C003333333333330940C8121E8720B1B6A9BAB9332A32BC3A29BA3220480A1282C6DA8C868CA6E8C88120286A0B1B6ABB2B63234B733A9BA3220480A1082C6DA92C8A6E8C88120285A0B1B6A230BA3AB6A9BA3220480A1282C6DA849E9AA6E
310
8C88120286A0B1A0B6B3AA34BA3632A9BA3220480A2082DAC8E888CAE8C2D2D8A6F2DAA6E8C88120288A0B6B23A29B2B1BA34B7B729BCB6A9BA3220480A2282DAC8E886CADCE8CAE498D2DCCAA6E8C88120288A0B6B23A2A343932B0B22634B732A9BA3220480A1682DAC8E89CDEE8CAA6E8C88120285A0B1A0B6B3A630BCA
310
9BA3220480A1682C682DACE88D2DAA6E8C88120288A0B1A0B6B3A437B632A1B430B93A29BA3220480C812020
340
180
360
181
360
182
360
183
360
184
360
185
360
186
360
222F5
360
222F6
360
222F7
360
222F9
360
222FA
360
222FB
360
22301
360
22302
360
22303
340
0
340
0
 94
        0
  0
ACAD_PROXY_OBJECT
  5
41
102
{ACAD_REACTORS
330
40
102
}
330
40
100
AcDbProxyObject
 90
      499
 91
      518
 95
       25
 70
     0
 93
     2938
310
4050B44574753455454494E4753A0E8482A68AA6A88882A069492A684A1A0A723A0A92920ACA0A811A1AA0C868A9C829C8E82A12686AF87260F862666A8321A2A72224A0A50000000000000122020E868A9C889282A682A106260F86460F8666083A1A2A72224A9AA250000000000000042020C868A9C988A9C94000000000
310
000048808321A2A727A323250000000000000122020E868A9C9E8C8C62940000000000000488083A1A2A727A32319250000000000000122021CC6D0C2DACCCAE4C8D2DADADEC8CA9FC84A1A624A720A92920ACA0A809BA108698929C8AA8B2A082A0AB098929C8A84A22BA3AAA9A1A0A622A50A0E9882A6A89E849482A0260
310
8426A0A5A2AB24A2ABA7E8120CA0A68682988A0C00800010652455649534941501304154D0D0531150540CC4E8C5085354414E44415244415034A4953425512535154D51053541282A0D8FD09E4ADCD050756455253494F4E4150531352E3030441ED115D1D4D15515125391D4D153911F40
  0
ACAD_PROXY_OBJECT
  5
69
102
{ACAD_REACTORS
330
40
102
}
330
40
100
AcDbProxyObject
 90
      499
 91
      518
 95
       25
 70
     0
 93
      411
310
4050346454D21092DCC6E486DECACC942842630BCA3B937BAB820A8320A6AFA322A0A20F688AE8EA68AA8A8929C8EA68A9C88FA0
  0
ACAD_PROXY_OBJECT
  5
56
102
{ACAD_REACTORS
330
40
102
}
330
40
100
AcDbProxyObject
 90
      499
 91
      518
 95
       25
 70
     0
 93
      583
310
40505536861667421292DCE8CAE4E4EAE0E89FA0484A634B3B43A2634B732A7F21A98D2CED0E898D2DCCAACD2CAEE9FC8229B4B232A7E80A20F688AE8EA68AA8A8929C8EA68A9C88FA
  0
ACAD_PROXY_OBJECT
  5
4C
102
{ACAD_REACTORS
330
40
102
}
330
40
100
AcDbProxyObject
 90
      499
 91
      518
 95
       25
 70
     0
 93
      852
310
4050D5452414E5353455454494E4753A2488A482AE929C8EA8A4829CA69882A8929E9C0C00800050D4F524947494E414C4C595F4F4E0600400028529A7AAA921A2A620A723A0A81A52827212AAA0A48AA68AA4AC8A0C0080001107B44574753455454494E4753454E447D0
  0
ACAD_PROXY_OBJECT
  5
181
330
17F
100
AcDbProxyObject
 90
      499
 91
      527
 95
       25
 70
     0
 93
       86
310
5DEA0C80A0280A0280A034
  0
ACAD_PROXY_OBJECT
  5
182
330
17F
100
AcDbProxyObject
 90
      499
 91
      528
 95
       25
 70
     0
 93
      282
310
5DD0E4050140501405014050140501405014050141101405014041000000000000001000
340
187
 94
        0
  0
ACAD_PROXY_OBJECT
  5
183
330
17F
100
AcDbProxyObject
 90
      499
 91
      529
 95
       25
 70
     0
 93
      323
310
5DCC199999999999E99F91740501405014050140501405014050140501405014050140501405014040
340
0
 94
        0
  0
ACAD_PROXY_OBJECT
  5
184
330
17F
100
AcDbProxyObject
 90
      499
 91
      530
 95
       25
 70
     0
 93
       10
310
5DC0
  0
ACAD_PROXY_OBJECT
  5
185
330
17F
100
AcDbProxyObject
 90
      499
 91
      531
 95
       25
 70
     0
 93
      257
310
5DE0C16A22A7D90F49F80000000000001081400000000000004204010000618000
340
188
340
189
 94
        0
  0
ACAD_PROXY_OBJECT
  5
186
330
17F
100
AcDbProxyObject
 90
      499
 91
      532
 95
       25
 70
     0
 93
     5277
310
5DD06411255115350141236025B6901405014069010000000000000910240690120281A8AA2CA0282484A4BE52028120280A032020000000000001220480D202405044E414D454050496BC914F4051C40640A80000000000004E4090193C3D3C4946284953424C414E4B28504152543A4E414D45292C424C4F434B3A4E414D
310
452C504152543A4E414D45293E3C41435F44455343524950544E3E40480A109A82A88AA492829880A091BBD2F7E80A3A80C81D0E27A15AF46E08A81203480901411393D5115014124A363B7D0147501904A0000000000000F902406428F4F1050D7D393D5114F901202832B22A72227A92028366EF6EE06F582028EA0320B4
310
0000000000001F20480C879E9E20A1AFAB27222FA620A122A61F20240506445020000000000000490201C00030C00010180000000000003E400000000000000F901073D3C4954454D3E4050180000000000003E400000000000000F901073D3C4954454D3E40501800000000000034400000000000000D101073D3C4954454
310
D3E40501800000000000034400000000000000D101073D3C4954454D3E405029010000000000000F9000000000000003E4041CF4F125511534F901418F4F1455164F9014060000000000000F9000000000000003E4041CF4F125511534F901800000000000034400000000000000D101073D3C4954454D3E40640400000000
310
0000003E400000000000000F90288800000000000020810000001800120881A068120480A032208521122080D21480D211480A1485214852050000000000003C2FC000000000000F0BF40600800030C0200400030C00CDCCCCCCCCCCEC3F3373333333333B0FC3333333333330940C80D069014090341504901A1999999999
310
9984A040100006180400800061804010000618008098A02808
340
0
340
0
 94
        0
  0
ACAD_PROXY_OBJECT
  5
222F5
330
17F
100
AcDbProxyObject
 90
      499
 91
      561
 95
       25
 70
     0
 93
     3042
310
5DD9740D29254D064A49535F413342929254D7D512551311505134A49535F42525F5265766973696F6E6C6973744190F4134522028323937783231306D6D2941D29254D7D04D1490E41312028353934783834316D6D2941929254D7D04C50E41332028323937783432306D6D2941929254D7D04CD0F41344C2028323130783
310
239376D6D2941D29254D7D04D1310E41322028343230783539346D6D2941929254D7D04C90F4130202838343178313138396D6D2941929254D7D04C10243129254C82557247A25E4C81050A4A49535F5449544C454143129254C82557247A25E4C81090A4A49535F5449544C45424110E979A97F0838A835883675F42525F4
310
4D29254D7D09497D4995D9A5CDA5BDB9B1A5CDD10E979A97F0838A835883675F54525F44D29254D7D51497D4995D9A5CDA5BDB9B1A5CDD10E979A97F0838A835883675F424C5F44D29254D7D09317D4995D9A5CDA5BDB9B1A5CDD10E979A97F0838A835883675F544C5F44D29254D7D51317D4995D9A5CDA5BDB9B1A5CDD00
  0
ACAD_PROXY_OBJECT
  5
222F6
330
17F
100
AcDbProxyObject
 90
      499
 91
      562
 95
       25
 70
     0
 93
      898
310
5DC4000000000000124048CF4F11115510525317D3105091530F880A0F11115510525317D05094D4D0D053114F8A50241C9A9999999999B93F26A666666666724FC000000000000E03F400000000000000400000000000000510000000000000024408070000C300000000000000049000
340
16
340
180
 94
        0
  0
ACAD_PROXY_OBJECT
  5
222F7
330
17F
100
AcDbProxyObject
 90
      499
 91
      563
 95
       25
 70
     0
 93
      823
310
5DC0B00000000000002480959E9E29A2A1AA24A7A72FA620A122A62FA324A929AA1F169E29A2A1AA24A7A72FA620A122A62FA620A9AA1F000000000000048803FFFE01C00030C008140380006180000000000000048800000000000000A2000000000000002480
340
652
340
180
 94
        0
  0
ACAD_PROXY_OBJECT
  5
222F9
330
17F
100
AcDbProxyObject
 90
      499
 91
      564
 95
       25
 70
     0
 93
      152
310
5DE8273108AC1C5A0640A3D0A5723F0BD1F200
  0
ACAD_PROXY_OBJECT
  5
222FA
330
17F
100
AcDbProxyObject
 90
      499
 91
      565
 95
       25
 70
     0
 93
       14
310
5DE0
340
0
 94
        0
  0
ACAD_PROXY_OBJECT
  5
222FB
330
17F
100
AcDbProxyObject
 90
      499
 91
      566
 95
       25
 70
     0
 93
     6059
310
5DD084050BA4050AA405024050E836583938376838C815B83672031405983D3C486F6C653A6469613E3C696628657175616C28486F6C653A7465726D696E6174696F6E2C223022292C2220905B82B320222C22208368838A838B22293E3C696628657175616C28486F6C653A7465726D696E6174696F6E2C223022292C486F
310
6C653A64657074682C2222293E2C203C486F6C653A63746469613E2082B482AE82E882CC905B82B3203C486F6C653A637464657074683E406901405034050E836583938376838C815B83672031405EF3D3C486F6C653A6374616E676C653E252564202525633C486F6C653A63746469613E208E4D8C8A2C203C69662865717
310
5616C28486F6C653A7461707065642C223022292C22252563222C486F6C653A6E6F6D696E616C202220782022293E3C696628657175616C28486F6C653A7461707065642C223022292C486F6C653A6469612C486F6C653A706974636864657363293E203C696628657175616C28486F6C653A7465726D696E6174696F6E2C2
310
23022292C22905B82B320222C222022293E3C696628657175616C28486F6C653A7465726D696E6174696F6E2C223022292C486F6C653A64657074682C2222293E406901405014050E836583938376838C815B83672031405C73D3C696628657175616C28486F6C653A7461707065642C223022292C22252563222C486F6C65
310
3A6E6F6D696E616C202220782022293E3C696628657175616C28486F6C653A7461707065642C223022292C486F6C653A6469612C486F6C653A706974636864657363293E203C696628657175616C28486F6C653A7465726D696E6174696F6E2C223022292C22905B82B320222C222022293E3C696628657175616C28486F6C
310
653A7465726D696E6174696F6E2C223022292C486F6C653A64657074682C2222293E4069014051E4090E836583938376838C815B83672032405173D3C535444503A444553433E203C535444503A5354443E40690E836583938376838C815B836720314050C3D3C535444503A444553433E40690240515AAABBA120
360
222FF
330
222FF
360
22300
330
22300
360
222FE
330
222FE
360
222FD
360
222FC
330
222FD
330
222FC
 94
        0
  0
ACAD_PROXY_OBJECT
  5
22301
330
17F
100
AcDbProxyObject
 90
      499
 91
      568
 95
       25
 70
     0
 93
       26
310
5DD02A80
340
42
 94
        0
  0
ACAD_PROXY_OBJECT
  5
22302
330
17F
100
AcDbProxyObject
 90
      499
 91
      569
 95
       25
 70
     0
 93
      250
310
5DD020000000000000A1000000000000002440408F0F9023C3E409A0DCFFFF80
340
58
340
1B97
340
1B98
340
5F
340
60
340
61
340
62
340
63
340
68
340
0
 94
        0
  0
ACAD_PROXY_OBJECT
  5
22303
330
17F
100
AcDbProxyObject
 90
      499
 91
      570
 95
       25
 70
     0
 93
    13889
310
5DD1D003FFFFFFFD030300030CCCCCCCCCCCC250200800030C01030300030CCCCCCCCCCCC250200800030C00050C8DC0955782CC838A83588367014ED1D15395149050D3CB1294138B0C0B23702555E0B320E2A0D620D9CB11D15395149055160B095CCB0A11D1539354D1C819D95B991A5B5E880CCC0A78000C0000000000
310
00000000000000000000010CCCCCCCCCCCC250200800030C010CCCCCCCCCCCC250200800030C020143CF4F111959985D5B1D151A5D1B194F8050A8C8A8365815B8375838B014E51D15395149050D3CB1294138B0C0B2322A0D96056E0DD60E2CB11D15395149055160B095CCB0A11D1539354D1C819D95B991A5B5E880CCC4
310
A78000C000000000000000000000000000000010CCCCCCCCCCCC250200800030C010CCCCCCCCCCCC250200800030C020143CF4F111959985D5B1D151A5D1B194F90D44111409034110541D0C4350F4050E44D03449074510F000141232D24D7C053247454E545241434F2C4A504E2C302C8CB4935F2C47454E54524154582C
310
25732C2847454E4D53472067656E64696D7A20312900010104002214000281464500A608E8A9CA8A482869E5894A09C5860591914588E8A9CA8A482A8B0584AE658508E8A9C9AA68E40CECADCC8D2DAF4406452029E9E9E27B934B3B4B71F1E24A31427A91424A9A12620A7259427B934B3B4B7149624A9A12620A7259424B
310
A32B6949496111116111711149F1E24BA32B69F00808200111A000140560052F47454E545241434F2C4A504E2C302C582C47454E54524154582C25732C2847454E4D53472067656E64696D7A20332900010100002054000280AC80A5E8E8A9CA8A482869E5894A09C586058B2588E8A9CA8A482A8B0584AE658508E8A9C9AA
310
68E40CECADCC8D2DAF4406852000202000040E800050152014BD1D15395149050D3CB1294138B0C0B148B11D15395149055160B095CCB0A11D1539354D1C819D95B991A5B5E880D8A400040400008250000A0507A6029823A2A72A2920A1A79625282716181641E99623A2A72A2920AA2C1612B9961423A2A726A9A39033B2
310
B73234B6BD101B948000808180105A000140A0F4C053047454E545241434F2C4A504E2C302C83D32C47454E54524154582C25732C2847454E4D53472067656E64696D7A203829000101010020F400028248704B5F00A668E8A9CA8A482869E5894A09C58605921C12D7C588E8A9CA8A482A8B0584AE658508E8A9C9AA68E40
310
CECADCC8D2DAF440646052000200080043280005048B4B8A69014CD1D15395149050D3CB1294138B0C0B22D2E29A4B11D15395149055160B095CCB0A11D1539354D1C819D95B991A5B5E880C8C4A4000400100086D0000A09196926BE029923A2A72A2920A1A796252827161816465A49AF9623A2A72A2920AA2C1612B9961
310
423A2A726A9A39033B2B73234B6BD10189480A02620202080043E80005048D8096DA014CD1D15395149050D3CB1294138B0C0B236025B68B11D15395149055160B095CCB0A11D1539354D1C819D95B991A5B5E880C4D0A4000404140280D0000A190687072706CD06C5069D06B0029DA3A2A72A2920A1A7962528271618164
310
1A1C1C9C1B341B141A741AC1623A2A72A2920AA2C1612B9961423A2A726A9A39033B2B73234B6BD10189A94800080820050EA000143A322A0D0E0E4E0D9A0D8A0D3A0D60053D47454E545241434F2C4A504E2C302C8C8A8343839383668362834E83582C47454E54524154582C25732C2847454E4D53472067656E64696D7A
310
2031372900010105002274000281464500A628E8A9CA8A482869E5894A09C5860591914588E8A9CA8A482A8B0584AE658508E8A9C9AA68E40CECADCC8D2DAF440626C52000202080044A8000504909497CA014CD1D15395149050D3CB1294138B0C0B242525F28B11D15395149055160B095CCB0A11D1539354D1C819D95B9
310
91A5B5E880C4E4A400040418008A521E000000000000001CA040C00000000000034408080000000000006881010000000000000D102040000000000001A204080000000000003440818000000000000728103000000000000125020600000000004028A040000000000000034408000000000000004881000000000000000D
310
102000000000000001A204000000000000003440818000000000000508143C0000000000000039408180000000000006881030000000000000D102060000000000001A2040C00000000000034408180000000000006881030000000000000E5020600000000000024A040C0000000000805140800000000000000688100000
310
00000000009102000000000000001A2040000000000000034408180000000000006881030000000000000A10284220000000878000002020000008380000020400000081800000208000000828000002028900000000
340
0
340
0
340
0
340
0
340
180
340
180
 94
        0
  0
ACAD_PROXY_OBJECT
  5
222FF
330
222FB
100
AcDbProxyObject
 90
      499
 91
      567
 95
       25
 70
     0
 93
     1376
310
5DE0143A0D960E4E0DDA0E32056E0D9C80C405983D3C486F6C653A6469613E3C696628657175616C28486F6C653A7465726D696E6174696F6E2C223022292C2220905B82B320222C22208368838A838B22293E3C696628657175616C28486F6C653A7465726D696E6174696F6E2C223022292C486F6C653A64657074682C22
310
22293E2C203C486F6C653A63746469613E2082B482AE82E882CC905B82B3203C486F6C653A637464657074683E
  0
ACAD_PROXY_OBJECT
  5
22300
330
222FB
100
AcDbProxyObject
 90
      499
 91
      567
 95
       25
 70
     0
 93
     2072
310
5DE0143A0D960E4E0DDA0E32056E0D9C80C405EF3D3C486F6C653A6374616E676C653E252564202525633C486F6C653A63746469613E208E4D8C8A2C203C696628657175616C28486F6C653A7461707065642C223022292C22252563222C486F6C653A6E6F6D696E616C202220782022293E3C696628657175616C28486F6C
310
653A7461707065642C223022292C486F6C653A6469612C486F6C653A706974636864657363293E203C696628657175616C28486F6C653A7465726D696E6174696F6E2C223022292C22905B82B320222C222022293E3C696628657175616C28486F6C653A7465726D696E6174696F6E2C223022292C486F6C653A6465707468
310
2C2222293E
  0
ACAD_PROXY_OBJECT
  5
222FE
330
222FB
100
AcDbProxyObject
 90
      499
 91
      567
 95
       25
 70
     0
 93
     1752
310
5DE0143A0D960E4E0DDA0E32056E0D9C80C405C73D3C696628657175616C28486F6C653A7461707065642C223022292C22252563222C486F6C653A6E6F6D696E616C202220782022293E3C696628657175616C28486F6C653A7461707065642C223022292C486F6C653A6469612C486F6C653A706974636864657363293E20
310
3C696628657175616C28486F6C653A7465726D696E6174696F6E2C223022292C22905B82B320222C222022293E3C696628657175616C28486F6C653A7465726D696E6174696F6E2C223022292C486F6C653A64657074682C2222293E
  0
ACAD_PROXY_OBJECT
  5
222FD
330
222FB
100
AcDbProxyObject
 90
      499
 91
      567
 95
       25
 70
     0
 93
      344
310
5DE0143A0D960E4E0DDA0E32056E0D9C80C805173D3C535444503A444553433E203C535444503A5354443E
  0
ACAD_PROXY_OBJECT
  5
222FC
330
222FB
100
AcDbProxyObject
 90
      499
 91
      567
 95
       25
 70
     0
 93
      256
310
5DE0143A0D960E4E0DDA0E32056E0D9C80C4050C3D3C535444503A444553433E
  0
ENDSEC
  0
EOF
