  0
SECTION
  2
HEADER
  9
$ACADVER
  1
AC1015
  9
$ACADMAINTVER
 70
     6
  9
$DWGCODEPAGE
  3
ANSI_932
  9
$INSBASE
 10
0.0
 20
0.0
 30
0.0
  9
$EXTMIN
 10
-80.10413121413339
 20
-107.0998105705465
 30
-0.0000000000000001
  9
$EXTMAX
 10
155.4588124887483
 20
35.11098779261827
 30
0.0000000000000001
  9
$LIMMIN
 10
0.0
 20
0.0
  9
$LIMMAX
 10
420.0
 20
297.0
  9
$ORTHOMODE
 70
     0
  9
$REGENMODE
 70
     1
  9
$FILLMODE
 70
     1
  9
$QTEXTMODE
 70
     0
  9
$MIRRTEXT
 70
     1
  9
$LTSCALE
 40
1.0
  9
$ATTMODE
 70
     1
  9
$TEXTSIZE
 40
4.0
  9
$TRACEWID
 40
1.0
  9
$TEXTSTYLE
  7
STANDARD
  9
$CLAYER
  8
AM_0
  9
$CELTYPE
  6
ByLayer
  9
$CECOLOR
 62
   256
  9
$CELTSCALE
 40
1.0
  9
$DISPSILH
 70
     0
  9
$DIMSCALE
 40
1.0
  9
$DIMASZ
 40
2.5
  9
$DIMEXO
 40
0.0
  9
$DIMDLI
 40
10.0
  9
$DIMRND
 40
0.0
  9
$DIMDLE
 40
0.0
  9
$DIMEXE
 40
1.0
  9
$DIMTP
 40
0.1
  9
$DIMTM
 40
0.1000000001
  9
$DIMTXT
 40
3.8
  9
$DIMCEN
 40
0.0
  9
$DIMTSZ
 40
0.0
  9
$DIMTOL
 70
     0
  9
$DIMLIM
 70
     0
  9
$DIMTIH
 70
     0
  9
$DIMTOH
 70
     0
  9
$DIMSE1
 70
     0
  9
$DIMSE2
 70
     0
  9
$DIMTAD
 70
     3
  9
$DIMZIN
 70
     1
  9
$DIMBLK
  1
Open30
  9
$DIMASO
 70
     1
  9
$DIMSHO
 70
     1
  9
$DIMPOST
  1

  9
$DIMAPOST
  1
"
  9
$DIMALT
 70
     0
  9
$DIMALTD
 70
     2
  9
$DIMALTF
 40
0.0393701
  9
$DIMLFAC
 40
1.0
  9
$DIMTOFL
 70
     1
  9
$DIMTVP
 40
0.0
  9
$DIMTIX
 70
     0
  9
$DIMSOXD
 70
     0
  9
$DIMSAH
 70
     0
  9
$DIMBLK1
  1

  9
$DIMBLK2
  1

  9
$DIMSTYLE
  2
AM_JIS
  9
$DIMCLRD
 70
   256
  9
$DIMCLRE
 70
   256
  9
$DIMCLRT
 70
     2
  9
$DIMTFAC
 40
0.71
  9
$DIMGAP
 40
1.5
  9
$DIMJUST
 70
     0
  9
$DIMSD1
 70
     0
  9
$DIMSD2
 70
     0
  9
$DIMTOLJ
 70
     0
  9
$DIMTZIN
 70
     8
  9
$DIMALTZ
 70
     0
  9
$DIMALTTZ
 70
     0
  9
$DIMUPT
 70
     0
  9
$DIMDEC
 70
     0
  9
$DIMTDEC
 70
     3
  9
$DIMALTU
 70
     2
  9
$DIMALTTD
 70
     2
  9
$DIMTXSTY
  7
STANDARD
  9
$DIMAUNIT
 70
     1
  9
$DIMADEC
 70
     0
  9
$DIMALTRND
 40
0.0
  9
$DIMAZIN
 70
     2
  9
$DIMDSEP
 70
    46
  9
$DIMATFIT
 70
     3
  9
$DIMFRAC
 70
     0
  9
$DIMLDRBLK
  1
Open30
  9
$DIMLUNIT
 70
     2
  9
$DIMLWD
 70
    -1
  9
$DIMLWE
 70
    -1
  9
$DIMTMOVE
 70
     0
  9
$LUNITS
 70
     2
  9
$LUPREC
 70
     4
  9
$SKETCHINC
 40
1.0
  9
$FILLETRAD
 40
0.4
  9
$AUNITS
 70
     0
  9
$AUPREC
 70
     4
  9
$MENU
  1
.
  9
$ELEVATION
 40
0.0
  9
$PELEVATION
 40
0.0
  9
$THICKNESS
 40
0.0
  9
$LIMCHECK
 70
     0
  9
$CHAMFERA
 40
2.0
  9
$CHAMFERB
 40
2.0
  9
$CHAMFERC
 40
20.0
  9
$CHAMFERD
 40
0.0
  9
$SKPOLY
 70
     0
  9
$TDCREATE
 40
2451943.610431667
  9
$TDUCREATE
 40
2451943.235431667
  9
$TDUPDATE
 40
2455478.577877234
  9
$TDUUPDATE
 40
2455478.202877234
  9
$TDINDWG
 40
1.8515078588
  9
$TDUSRTIMER
 40
1.8515076852
  9
$USRTIMER
 70
     1
  9
$ANGBASE
 50
0.0
  9
$ANGDIR
 70
     0
  9
$PDMODE
 70
     0
  9
$PDSIZE
 40
0.0
  9
$PLINEWID
 40
0.0
  9
$SPLFRAME
 70
     0
  9
$SPLINETYPE
 70
     6
  9
$SPLINESEGS
 70
     8
  9
$HANDSEED
  5
1DDBB
  9
$SURFTAB1
 70
     6
  9
$SURFTAB2
 70
     6
  9
$SURFTYPE
 70
     6
  9
$SURFU
 70
     6
  9
$SURFV
 70
     6
  9
$UCSBASE
  2

  9
$UCSNAME
  2

  9
$UCSORG
 10
0.0
 20
0.0
 30
0.0
  9
$UCSXDIR
 10
1.0
 20
0.0
 30
0.0
  9
$UCSYDIR
 10
0.0
 20
1.0
 30
0.0
  9
$UCSORTHOREF
  2

  9
$UCSORTHOVIEW
 70
     0
  9
$UCSORGTOP
 10
0.0
 20
0.0
 30
0.0
  9
$UCSORGBOTTOM
 10
0.0
 20
0.0
 30
0.0
  9
$UCSORGLEFT
 10
0.0
 20
0.0
 30
0.0
  9
$UCSORGRIGHT
 10
0.0
 20
0.0
 30
0.0
  9
$UCSORGFRONT
 10
0.0
 20
0.0
 30
0.0
  9
$UCSORGBACK
 10
0.0
 20
0.0
 30
0.0
  9
$PUCSBASE
  2

  9
$PUCSNAME
  2

  9
$PUCSORG
 10
0.0
 20
0.0
 30
0.0
  9
$PUCSXDIR
 10
1.0
 20
0.0
 30
0.0
  9
$PUCSYDIR
 10
0.0
 20
1.0
 30
0.0
  9
$PUCSORTHOREF
  2

  9
$PUCSORTHOVIEW
 70
     0
  9
$PUCSORGTOP
 10
0.0
 20
0.0
 30
0.0
  9
$PUCSORGBOTTOM
 10
0.0
 20
0.0
 30
0.0
  9
$PUCSORGLEFT
 10
0.0
 20
0.0
 30
0.0
  9
$PUCSORGRIGHT
 10
0.0
 20
0.0
 30
0.0
  9
$PUCSORGFRONT
 10
0.0
 20
0.0
 30
0.0
  9
$PUCSORGBACK
 10
0.0
 20
0.0
 30
0.0
  9
$USERI1
 70
     0
  9
$USERI2
 70
     0
  9
$USERI3
 70
     0
  9
$USERI4
 70
     0
  9
$USERI5
 70
     0
  9
$USERR1
 40
0.0
  9
$USERR2
 40
0.0
  9
$USERR3
 40
0.0
  9
$USERR4
 40
0.0
  9
$USERR5
 40
0.0
  9
$WORLDVIEW
 70
     1
  9
$SHADEDGE
 70
     3
  9
$SHADEDIF
 70
    70
  9
$TILEMODE
 70
     1
  9
$MAXACTVP
 70
    64
  9
$PINSBASE
 10
0.0
 20
0.0
 30
0.0
  9
$PLIMCHECK
 70
     0
  9
$PEXTMIN
 10
1.000000000000000E+20
 20
1.000000000000000E+20
 30
1.000000000000000E+20
  9
$PEXTMAX
 10
-1.000000000000000E+20
 20
-1.000000000000000E+20
 30
-1.000000000000000E+20
  9
$PLIMMIN
 10
0.0
 20
0.0
  9
$PLIMMAX
 10
420.0
 20
297.0
  9
$UNITMODE
 70
     0
  9
$VISRETAIN
 70
     1
  9
$PLINEGEN
 70
     0
  9
$PSLTSCALE
 70
     1
  9
$TREEDEPTH
 70
  3020
  9
$CMLSTYLE
  2
Standard
  9
$CMLJUST
 70
     0
  9
$CMLSCALE
 40
20.0
  9
$PROXYGRAPHICS
 70
     1
  9
$MEASUREMENT
 70
     1
  9
$CELWEIGHT
370
    -1
  9
$ENDCAPS
280
     0
  9
$JOINSTYLE
280
     0
  9
$LWDISPLAY
290
     0
  9
$INSUNITS
 70
     4
  9
$HYPERLINKBASE
  1

  9
$STYLESHEET
  1
sei_cad.ctb
  9
$XEDIT
290
     1
  9
$CEPSNTYPE
380
     0
  9
$PSTYLEMODE
290
     1
  9
$FINGERPRINTGUID
  2
{C77AB3BE-9CA2-11D3-BAF3-006094EB760E}
  9
$VERSIONGUID
  2
{11A2B0AC-27DF-41B9-82C6-08B08AE43CF5}
  9
$EXTNAMES
290
     1
  9
$PSVPSCALE
 40
0.0
  9
$OLESTARTUP
290
     0
  0
ENDSEC
  0
SECTION
  2
CLASSES
  0
CLASS
  1
ACDBDICTIONARYWDFLT
  2
AcDbDictionaryWithDefault
  3
ObjectDBX Classes
 90
        0
280
     0
281
     0
  0
CLASS
  1
ACDBPLACEHOLDER
  2
AcDbPlaceHolder
  3
ObjectDBX Classes
 90
        0
280
     0
281
     0
  0
CLASS
  1
LAYOUT
  2
AcDbLayout
  3
ObjectDBX Classes
 90
        0
280
     0
281
     0
  0
CLASS
  1
ACME_DOCUMENT
  2
AcMeDbDoc
  3
AcMeServices
 90
        0
280
     1
281
     0
  0
CLASS
  1
ACMESCOPE
  2
AcMeScope
  3
AcMeServices
 90
        0
280
     1
281
     0
  0
CLASS
  1
ACMECOMMANDHISTORY
  2
AcMeCommandHistory
  3
AcMeServices
 90
        0
280
     1
281
     0
  0
CLASS
  1
DICTIONARYVAR
  2
AcDbDictionaryVar
  3
ObjectDBX Classes
 90
        0
280
     0
281
     0
  0
CLASS
  1
ACIMSYSVARMAN
  2
AcImSysVarManager
  3
AcMeServices
 90
        0
280
     1
281
     0
  0
CLASS
  1
ACIMREALSYSVAR
  2
AcImRealSysVar
  3
AcMeServices
 90
        0
280
     1
281
     0
  0
CLASS
  1
ACIMINTSYSVAR
  2
AcImIntSysVar
  3
AcMeServices
 90
        0
280
     1
281
     0
  0
CLASS
  1
ACMEDRAWINGMAN
  2
AcMeDrawingMan
  3
AcMeServices
 90
        0
280
     1
281
     0
  0
CLASS
  1
ACMEVIEW
  2
AcMeView
  3
AcMeServices
 90
        0
280
     1
281
     0
  0
CLASS
  1
ACDBENTITYCACHE
  2
AcMeEntityCache
  3
AcMeServices
 90
        0
280
     1
281
     0
  0
CLASS
  1
GSMANAGER
  2
AcMeGSManager
  3
AcMeServices
 90
        0
280
     1
281
     0
  0
CLASS
  1
AMDTINTERNALREACTOR
  2
AmdtInternalReactor
  3
AcMeServices
 90
        0
280
     1
281
     0
  0
CLASS
  1
ACMESTATEMGR
  2
AcMeStateMgr
  3
AcMeServices
 90
        0
280
     1
281
     0
  0
CLASS
  1
ACME_DATABASE
  2
AcMeDbDatabase
  3
AcMeServices
 90
        0
280
     1
281
     0
  0
CLASS
  1
ACRFINSADJUSTERMGR
  2
AcRfInsAdjusterMgr
  3
AcMeServices
 90
        0
280
     1
281
     0
  0
CLASS
  1
AMGSETTINGSOBJ
  2
AmgSettingsObj
  3
"AcadM|Product Description: AutoCAD Mechanical 2000|Company: Autodesk"
 90
        0
280
     1
281
     0
  0
CLASS
  1
AMGOBJPROPCFG
  2
AmgObjPropCfg
  3
"AmgLay|Product Description: AutoCAD Mechanical 2000|Company: Autodesk"
 90
        1
280
     1
281
     0
  0
CLASS
  1
ACMDATADICTIONARY
  2
AcmDataDictionary
  3
"AcmSymBB|Product Description: AutoCAD Mechanical 2004 DX|Company: Autodesk"
 90
        0
280
     1
281
     0
  0
CLASS
  1
ACMDATAENTRYBLOCK
  2
AcmDataEntryBlock
  3
"AcmSymBB|Product Description: AutoCAD Mechanical 2004 DX|Company: Autodesk"
 90
        0
280
     1
281
     0
  0
CLASS
  1
ACIMSTRSYSVAR
  2
AcImStrSysVar
  3
AcMeServices
 90
        0
280
     1
281
     0
  0
CLASS
  1
ACAMGFILTERDAT
  2
AcAmgFilterDat
  3
"AcadM|Product Description: AutoCAD Mechanical 2000|Company: Autodesk"
 90
        0
280
     1
281
     0
  0
CLASS
  1
LAYER_INDEX
  2
AcDbLayerIndex
  3
ObjectDBX Classes
 90
        0
280
     0
281
     0
  0
CLASS
  1
IDBUFFER
  2
AcDbIdBuffer
  3
ObjectDBX Classes
 90
        0
280
     0
281
     0
  0
CLASS
  1
ACMSTANDARDJIS
  2
AcmStandardJIS
  3
"Amdt_StdImp|Product Description: AutoCAD Mechanical 2004 DX|Company: Autodesk"
 90
        0
280
     1
281
     0
  0
CLASS
  1
ACMSURFSTANDARDJIS
  2
AcmSurfTextStdJIS
  3
"Amdt_StdImp|Product Description: AutoCAD Mechanical 2004 DX|Company: Autodesk"
 90
        0
280
     1
281
     0
  0
CLASS
  1
ACMFCFSTANDARDJIS
  2
AcmFCFStdJIS
  3
"Amdt_StdImp|Product Description: AutoCAD Mechanical 2004 DX|Company: Autodesk"
 90
        0
280
     1
281
     0
  0
CLASS
  1
ACMWELDSTANDARDJIS
  2
AcmWeldingStdJIS
  3
"Amdt_StdImp|Product Description: AutoCAD Mechanical 2004 DX|Company: Autodesk"
 90
        0
280
     1
281
     0
  0
CLASS
  1
ACMIDSTANDARDJIS
  2
AcmIdStdJIS
  3
"Amdt_StdImp|Product Description: AutoCAD Mechanical 2004 DX|Company: Autodesk"
 90
        0
280
     1
281
     0
  0
CLASS
  1
ACMDATUMSTANDARDJIS
  2
AcmDatumStdJIS
  3
"Amdt_StdImp|Product Description: AutoCAD Mechanical 2004 DX|Company: Autodesk"
 90
        0
280
     1
281
     0
  0
CLASS
  1
ACMBOMSTANDARDJIS
  2
AcmBOMStdJIS
  3
"Amdt_StdImp|Product Description: AutoCAD Mechanical 2004 DX|Company: Autodesk"
 90
        0
280
     1
281
     0
  0
CLASS
  1
AMDTNOTE
  2
AmdtNote
  3
"AcmSymBB|Product Description: AutoCAD Mechanical 2004 DX|Company: Autodesk"
 90
     1023
280
     1
281
     1
  0
CLASS
  1
TABLESTYLE
  2
AcDbTableStyle
  3
ObjectDBX Classes
 90
     2047
280
     0
281
     0
  0
CLASS
  1
ACGREFMASTER
  2
AcGrefMaster
  3
AcAttribServices
 90
        0
280
     1
281
     0
  0
CLASS
  1
AM_DRAWING_MGR
  2
AcDmDwgMgr
  3
AcMechDwgViewMgmt
 90
        0
280
     1
281
     0
  0
CLASS
  1
AM_DWG_DOCUMENT
  2
AcDmDwgDocument
  3
AcMechDwgViewMgmt
 90
        0
280
     1
281
     0
  0
CLASS
  1
AM_DWG_SHEET
  2
AcDmSheet
  3
AcMechDwgViewMgmt
 90
        0
280
     1
281
     0
  0
CLASS
  1
AM_VIEWDIMPARMAP
  2
AcDmViewDimParMap
  3
AcMechDwgViewMgmt
 90
        0
280
     1
281
     0
  0
CLASS
  1
AM_DWGMGR_NAME
  2
AcDmDwgMgrName
  3
AcMechDwgViewMgmt
 90
        0
280
     1
281
     0
  0
CLASS
  1
ACGREFACADMASTER
  2
AcGrefacadMaster
  3
AcGrefServices
 90
        0
280
     1
281
     0
  0
CLASS
  1
AMDTMENUSTATEMGR
  2
AmdtMenuStateMgr
  3
McadcomServices
 90
        0
280
     1
281
     0
  0
CLASS
  1
AMDTMCOMMENUSTATE
  2
AmdtMcomMenuState
  3
McadcomServices
 90
        0
280
     1
281
     0
  0
CLASS
  1
AMIMASTER
  2
AmiMaster
  3
AmiServices
 90
        0
280
     1
281
     0
  0
CLASS
  1
MAPIAMMOUDLE
  2
MApiAmModule
  3
MApiAmServices
 90
        0
280
     1
281
     0
  0
CLASS
  1
AMDTADMENUSTATE
  2
AmdtAdMenuState
  3
DesignerServices
 90
        0
280
     1
281
     0
  0
CLASS
  1
ADAPPL
  2
AcAdAppl
  3
DesignerServices
 90
        0
280
     1
281
     0
  0
CLASS
  1
DEPMGR
  2
AcAdDepMgr
  3
DesignerServices
 90
        0
280
     1
281
     0
  0
CLASS
  1
PARAMMGR
  2
AcAdParamMgr
  3
DesignerServices
 90
        0
280
     1
281
     0
  0
CLASS
  1
PARAMSCOPE
  2
AcAdParamScope
  3
DesignerServices
 90
        0
280
     1
281
     0
  0
CLASS
  1
NAMEDAPPL
  2
AcAdNamedAppl
  3
DesignerServices
 90
        0
280
     1
281
     0
  0
CLASS
  1
AMDTDMMENUSTATE
  2
AmdtDmMenuState
  3
AcMechDwgViewMgmt
 90
        0
280
     1
281
     0
  0
CLASS
  1
AMDTAMMENUSTATE
  2
AmdtAmMenuState
  3
DesignerAssemblies
 90
        0
280
     1
281
     0
  0
CLASS
  1
ACAMPROJECT
  2
AcAmProject
  3
DesignerAssemblies
 90
        0
280
     1
281
     0
  0
CLASS
  1
ACAMGRCOMPDEF
  2
AcAmGrCompDef
  3
DesignerAssemblies
 90
        0
280
     1
281
     0
  0
CLASS
  1
ACCMCONTEXT
  2
AcCmContext
  3
DesignerAssemblies
 90
        0
280
     1
281
     0
  0
CLASS
  1
ACAMCOMPDEF
  2
AcAmCompDef
  3
DesignerAssemblies
 90
        0
280
     1
281
     0
  0
CLASS
  1
ACAMCOMPDEFMGR
  2
AcAmCompDefMgr
  3
DesignerAssemblies
 90
        0
280
     1
281
     0
  0
CLASS
  1
AMCONTEXTMGR
  2
AcAmContextMgr
  3
DesignerAssemblies
 90
        0
280
     1
281
     0
  0
CLASS
  1
ACAMCONTEXTMODELER
  2
AcAmContextModeler
  3
DesignerAssemblies
 90
        0
280
     1
281
     0
  0
CLASS
  1
ACAMGTITLESTD
  2
AcAmgTitleStd
  3
"TITLEAPP"
 90
        0
280
     1
281
     0
  0
CLASS
  1
ACMDETAILSTANDARDJIS
  2
AmdtDetailSymStdJIS
  3
"Amdt_StdImp|Product Description: AutoCAD Mechanical 2004 DX|Company: Autodesk"
 90
        0
280
     1
281
     0
  0
CLASS
  1
ACMSECTIONSTANDARDJIS
  2
AmdtSectionSymStdJIS
  3
"Amdt_StdImp|Product Description: AutoCAD Mechanical 2004 DX|Company: Autodesk"
 90
        0
280
     1
281
     0
  0
CLASS
  1
ACMCENTERLINESTANDARDJIS
  2
AmdtCenterLineStdJIS
  3
"Amdt_StdImp|Product Description: AutoCAD Mechanical 2004 DX|Company: Autodesk"
 90
        0
280
     1
281
     0
  0
CLASS
  1
ACMTHREADLINESTANDARDJIS
  2
AmdtThreadLineStdJIS
  3
"Amdt_StdImp|Product Description: AutoCAD Mechanical 2004 DX|Company: Autodesk"
 90
        0
280
     1
281
     0
  0
CLASS
  1
ACMNOTESTANDARDJIS
  2
AmdtNoteStdJIS
  3
"Amdt_StdImp|Product Description: AutoCAD Mechanical 2004 DX|Company: Autodesk"
 90
        0
280
     1
281
     0
  0
CLASS
  1
AMDTNOTETEMPLATEDB
  2
AmdtNoteTemplateDB
  3
AMDT_STDIMP_MODULE_NAME
 90
        0
280
     1
281
     0
  0
CLASS
  1
ACAMGLAYSTD
  2
AcAmgLayStd
  3
"AcAmgLayStd|Product Description: AutoCAD Mechanical 2000|Company: Autodesk"
 90
        0
280
     1
281
     0
  0
CLASS
  1
ACAMGDIMSTD
  2
AcAmgDimStd
  3
"AcAmgDimStd|Product Description: AutoCAD Mechanical 2000|Company: Autodesk"
 90
        0
280
     1
281
     0
  0
CLASS
  1
ACAMGHOLECHARTSTDJIS
  2
AcAmgHoleChartStdJIS
  3
ACMSYMBB_MODULE_NAME
 90
        0
280
     1
281
     0
  0
CLASS
  1
CATALOGSTATE
  2
AcAmCatalogState
  3
DesignerAssemblies
 90
        0
280
     1
281
     0
  0
CLASS
  1
ACAMGRCOMPDEFSET
  2
AcAmGrCompDefSet
  3
DesignerAssemblies
 90
        0
280
     1
281
     0
  0
CLASS
  1
AMDTBROWSERDBTAB
  2
AmdtBrowserDbTab
  3
McadcomServices
 90
        0
280
     1
281
     0
  0
CLASS
  1
CBROWSERAPPOBJECT
  2
CBrowserAppObject
  3
McadcomServices
 90
        0
280
     1
281
     0
  0
CLASS
  1
DM_PLACEHOLDER
  2
AcDmSelsetPlaceholder
  3
AcMechDwgViewMgmt
 90
        0
280
     1
281
     0
  0
CLASS
  1
SORTENTSTABLE
  2
AcDbSortentsTable
  3
ObjectDBX Classes
 90
        0
280
     0
281
     0
  0
ENDSEC
  0
SECTION
  2
TABLES
  0
TABLE
  2
VPORT
  5
8
330
0
100
AcDbSymbolTable
 70
     3
  0
VPORT
  5
1DDB3
330
8
100
AcDbSymbolTableRecord
100
AcDbViewportTableRecord
  2
*Active
 70
     0
 10
0.0
 20
0.0
 11
1.0
 21
1.0
 12
86.901992169182
 22
-35.99893021562281
 13
0.0
 23
0.0
 14
2.5
 24
2.5
 15
10.0
 25
10.0
 16
0.0
 26
0.0
 36
1.0
 17
0.0
 27
0.0
 37
0.0
 40
172.643859471221
 41
1.943262411347518
 42
50.0
 43
0.0
 44
0.0
 50
0.0
 51
0.0
 71
    16
 72
  2000
 73
     1
 74
     3
 75
     0
 76
     0
 77
     0
 78
     0
281
     0
 65
     1
110
0.0
120
0.0
130
0.0
111
1.0
121
0.0
131
0.0
112
0.0
122
1.0
132
0.0
 79
     0
146
0.0
  0
ENDTAB
  0
TABLE
  2
LTYPE
  5
5
330
0
100
AcDbSymbolTable
 70
    13
  0
LTYPE
  5
14
330
5
100
AcDbSymbolTableRecord
100
AcDbLinetypeTableRecord
  2
ByBlock
 70
     0
  3

 72
    65
 73
     0
 40
0.0
  0
LTYPE
  5
15
330
5
100
AcDbSymbolTableRecord
100
AcDbLinetypeTableRecord
  2
ByLayer
 70
     0
  3

 72
    65
 73
     0
 40
0.0
  0
LTYPE
  5
16
330
5
100
AcDbSymbolTableRecord
100
AcDbLinetypeTableRecord
  2
Continuous
 70
     0
  3
Solid line
 72
    65
 73
     0
 40
0.0
  0
LTYPE
  5
43
330
5
100
AcDbSymbolTableRecord
100
AcDbLinetypeTableRecord
  2
AM_ISO02W050
 70
     0
  3
__ __ __ __ __ __ __ __ __ __ __ __ __ __ __
 72
    65
 73
     2
 40
7.5
 49
6.0
 74
     0
 49
-1.5
 74
     0
  0
LTYPE
  5
44
330
5
100
AcDbSymbolTableRecord
100
AcDbLinetypeTableRecord
  2
AM_ISO08W050
 70
     0
  3
____ . ____ . ____ . ____ . ____ . ____ . ____
 72
    65
 73
     4
 40
18.0
 49
12.0
 74
     0
 49
-1.5
 74
     0
 49
3.0
 74
     0
 49
-1.5
 74
     0
  0
LTYPE
  5
45
330
5
100
AcDbSymbolTableRecord
100
AcDbLinetypeTableRecord
  2
AM_ISO09W050
 70
     0
  3
_____ . . _____ . . _____ . . ____ .. ____
 72
    65
 73
     6
 40
22.5
 49
12.0
 74
     0
 49
-1.5
 74
     0
 49
3.0
 74
     0
 49
-1.5
 74
     0
 49
3.0
 74
     0
 49
-1.5
 74
     0
  0
LTYPE
  5
46
330
5
100
AcDbSymbolTableRecord
100
AcDbLinetypeTableRecord
  2
Amconstr
 70
     0
  3
_______________________
 72
    65
 73
     2
 40
9999.0
 49
9999.0
 74
     0
 49
0.0
 74
     0
  0
LTYPE
  5
47
330
5
100
AcDbSymbolTableRecord
100
AcDbLinetypeTableRecord
  2
AM_ISO02W050x2
 70
     0
  3
 _ _ _ _ _ _ _ _ _ _ _ _
 72
    65
 73
     2
 40
3.75
 49
3.0
 74
     0
 49
-0.75
 74
     0
  0
LTYPE
  5
48
330
5
100
AcDbSymbolTableRecord
100
AcDbLinetypeTableRecord
  2
AM_ISO08W050x2
 70
     0
  3
__ . __ . __ . __ . __ . __
 72
    65
 73
     4
 40
9.0
 49
6.0
 74
     0
 49
-0.75
 74
     0
 49
1.5
 74
     0
 49
-0.75
 74
     0
  0
LTYPE
  5
4B
330
5
100
AcDbSymbolTableRecord
100
AcDbLinetypeTableRecord
  2
Amzigzag
 70
     0
  3
/\/-/\/-/\/-/\/-/\/-/\/
 72
    65
 73
     2
 40
11.0001
 49
0.0001
 74
     4
 75
   135
340
4A
 46
0.04
 50
0.0
 44
0.0
 45
0.0
 49
-11.0
 74
     0
  0
LTYPE
  5
188
330
5
100
AcDbSymbolTableRecord
100
AcDbLinetypeTableRecord
  2
ACJISTGB
 70
     0
  3
__ . . __ . .
 72
    65
 73
     6
 40
9.0
 49
4.0
 74
     0
 49
-1.0
 74
     0
 49
1.0
 74
     0
 49
-1.0
 74
     0
 49
1.0
 74
     0
 49
-1.0
 74
     0
  0
LTYPE
  5
189
330
5
100
AcDbSymbolTableRecord
100
AcDbLinetypeTableRecord
  2
ACJISTGL
 70
     0
  3
_ _ _ _ _
 72
    65
 73
     2
 40
3.0
 49
2.0
 74
     0
 49
-1.0
 74
     0
  0
LTYPE
  5
652
330
5
100
AcDbSymbolTableRecord
100
AcDbLinetypeTableRecord
  2
CENTER
 70
     0
  3
____ _ ____ _ ____ _ ____ _ ____ _ ____ _ ____
 72
    65
 73
     4
 40
17.5
 49
13.0
 74
     0
 49
-1.5
 74
     0
 49
1.5
 74
     0
 49
-1.5
 74
     0
  0
LTYPE
  5
12AB
330
5
100
AcDbSymbolTableRecord
100
AcDbLinetypeTableRecord
  2
HIDDEN
 70
     0
  3
Hidden __ __ __ __ __ __ __ __ __ __ __ __ __ _
 72
    65
 73
     2
 40
0.375
 49
0.25
 74
     0
 49
-0.125
 74
     0
  0
LTYPE
  5
12AC
330
5
100
AcDbSymbolTableRecord
100
AcDbLinetypeTableRecord
  2
PHANTOM2
 70
     0
  3
Phantom (.5x) ___ _ _ ___ _ _ ___ _ _ ___ _ _
 72
    65
 73
     6
 40
1.25
 49
0.625
 74
     0
 49
-0.125
 74
     0
 49
0.125
 74
     0
 49
-0.125
 74
     0
 49
0.125
 74
     0
 49
-0.125
 74
     0
  0
ENDTAB
  0
TABLE
  2
LAYER
  5
2
102
{ACAD_XDICTIONARY
360
1D8F5
102
}
330
0
100
AcDbSymbolTable
 70
     7
  0
LAYER
  5
10
330
2
100
AcDbSymbolTableRecord
100
AcDbLayerTableRecord
  2
0
 70
     0
 62
     7
  6
Continuous
370
    -3
390
F
  0
LAYER
  5
7D
330
2
100
AcDbSymbolTableRecord
100
AcDbLayerTableRecord
  2
AM_5
 70
     0
 62
     3
  6
Continuous
370
    13
390
F
  0
LAYER
  5
7F
330
2
100
AcDbSymbolTableRecord
100
AcDbLayerTableRecord
  2
Defpoints
 70
     0
 62
     7
  6
Continuous
290
     0
370
    -3
390
F
  0
LAYER
  5
12B1
330
2
100
AcDbSymbolTableRecord
100
AcDbLayerTableRecord
  2
AM_0
 70
     0
 62
     7
  6
Continuous
370
    30
390
F
  0
LAYER
  5
1AFF
330
2
100
AcDbSymbolTableRecord
100
AcDbLayerTableRecord
  2
AM_7
 70
     0
 62
     4
  6
AM_ISO08W050
370
    13
390
F
  0
LAYER
  5
361D
330
2
100
AcDbSymbolTableRecord
100
AcDbLayerTableRecord
  2
AM_11
 70
     0
 62
     3
  6
AM_ISO09W050
370
    13
390
F
  0
ENDTAB
  0
TABLE
  2
STYLE
  5
3
330
0
100
AcDbSymbolTable
 70
     4
  0
STYLE
  5
11
330
3
100
AcDbSymbolTableRecord
100
AcDbTextStyleTableRecord
  2
STANDARD
 70
     0
 40
0.0
 41
1.0
 50
0.0
 71
     0
 42
4.0
  3
ISOCP.SHX
  4
EXTFONT.SHX
  0
STYLE
  5
4A
330
3
100
AcDbSymbolTableRecord
100
AcDbTextStyleTableRecord
  2

 70
     1
 40
0.0
 41
1.0
 50
0.0
 71
     0
 42
2.5
  3
ltypeshp.shx
  4

  0
STYLE
  5
180
330
3
100
AcDbSymbolTableRecord
100
AcDbTextStyleTableRecord
  2
ACJISTS
 70
     0
 40
1.0
 41
1.0
 50
0.0
 71
     0
 42
2.5
  3
isocp.shx
  4
bigfont.shx
  0
STYLE
  5
187
330
3
100
AcDbSymbolTableRecord
100
AcDbTextStyleTableRecord
  2
ACJISGDT
 70
     0
 40
0.0
 41
1.0
 50
0.0
 71
     0
 42
2.5
  3
amgdt.shx
  4

  0
ENDTAB
  0
TABLE
  2
VIEW
  5
6
330
0
100
AcDbSymbolTable
 70
     6
  0
VIEW
  5
A30
330
6
100
AcDbSymbolTableRecord
100
AcDbViewTableRecord
  2
AM_VIEW1
 70
     0
 40
148.5
 10
108.6929657794677
 20
222.75
 41
217.3859315589354
 11
0.0
 21
0.0
 31
1.0
 12
0.0
 22
0.0
 32
0.0
 42
50.0
 43
0.0
 44
0.0
 50
0.0
 71
    16
281
     0
 72
     0
  0
VIEW
  5
A31
330
6
100
AcDbSymbolTableRecord
100
AcDbViewTableRecord
  2
AM_VIEW2
 70
     0
 40
148.5
 10
311.3070342205323
 20
222.75
 41
217.3859315589354
 11
0.0
 21
0.0
 31
1.0
 12
0.0
 22
0.0
 32
0.0
 42
50.0
 43
0.0
 44
0.0
 50
0.0
 71
    16
281
     0
 72
     0
  0
VIEW
  5
A32
330
6
100
AcDbSymbolTableRecord
100
AcDbViewTableRecord
  2
AM_VIEW3
 70
     0
 40
148.5
 10
108.6929657794677
 20
74.25
 41
217.3859315589354
 11
0.0
 21
0.0
 31
1.0
 12
0.0
 22
0.0
 32
0.0
 42
50.0
 43
0.0
 44
0.0
 50
0.0
 71
    16
281
     0
 72
     0
  0
VIEW
  5
A33
330
6
100
AcDbSymbolTableRecord
100
AcDbViewTableRecord
  2
AM_VIEW4
 70
     0
 40
148.5
 10
311.3070342205323
 20
74.25
 41
217.3859315589354
 11
0.0
 21
0.0
 31
1.0
 12
0.0
 22
0.0
 32
0.0
 42
50.0
 43
0.0
 44
0.0
 50
0.0
 71
    16
281
     0
 72
     0
  0
VIEW
  5
A34
330
6
100
AcDbSymbolTableRecord
100
AcDbViewTableRecord
  2
AM_VIEW5
 70
     0
 40
148.5
 10
210.0
 20
148.5
 41
217.3859315589353
 11
0.0
 21
0.0
 31
1.0
 12
0.0
 22
0.0
 32
0.0
 42
50.0
 43
0.0
 44
0.0
 50
0.0
 71
    16
281
     0
 72
     0
  0
VIEW
  5
A35
330
6
100
AcDbSymbolTableRecord
100
AcDbViewTableRecord
  2
AM_VIEW6
 70
     0
 40
296.99703
 10
210.0
 20
148.5
 41
434.7675153992395
 11
0.0
 21
0.0
 31
1.0
 12
0.0
 22
0.0
 32
0.0
 42
50.0
 43
0.0
 44
0.0
 50
0.0
 71
    16
281
     0
 72
     0
  0
ENDTAB
  0
TABLE
  2
UCS
  5
7
330
0
100
AcDbSymbolTable
 70
     0
  0
ENDTAB
  0
TABLE
  2
APPID
  5
9
330
0
100
AcDbSymbolTable
 70
    42
  0
APPID
  5
12
330
9
100
AcDbSymbolTableRecord
100
AcDbRegAppTableRecord
  2
ACAD
 70
     0
  0
APPID
  5
2C
330
9
100
AcDbSymbolTableRecord
100
AcDbRegAppTableRecord
  2
MCAD_NO_VIS
 70
     0
  0
APPID
  5
2D
330
9
100
AcDbSymbolTableRecord
100
AcDbRegAppTableRecord
  2
ACAD_TEMP_GRAPHIC
 70
     0
  0
APPID
  5
B9
330
9
100
AcDbSymbolTableRecord
100
AcDbRegAppTableRecord
  2
GENIUS_GENDTOL_13
 70
     0
  0
APPID
  5
359
330
9
100
AcDbSymbolTableRecord
100
AcDbRegAppTableRecord
  2
GENIUS_GENREC_14
 70
     0
  0
APPID
  5
35A
330
9
100
AcDbSymbolTableRecord
100
AcDbRegAppTableRecord
  2
GENIUS_GENODEF_13
 70
     0
  0
APPID
  5
35B
330
9
100
AcDbSymbolTableRecord
100
AcDbRegAppTableRecord
  2
GENIUS_GENOBJ-N-REC_13
 70
     0
  0
APPID
  5
667
330
9
100
AcDbSymbolTableRecord
100
AcDbRegAppTableRecord
  2
GENIUS_GENCFG_13
 70
     0
  0
APPID
  5
668
330
9
100
AcDbSymbolTableRecord
100
AcDbRegAppTableRecord
  2
GENIUS_GENCFG0_13
 70
     0
  0
APPID
  5
669
330
9
100
AcDbSymbolTableRecord
100
AcDbRegAppTableRecord
  2
GENIUS_GENCFG1_13
 70
     0
  0
APPID
  5
66A
330
9
100
AcDbSymbolTableRecord
100
AcDbRegAppTableRecord
  2
GENIUS_GENCFG2_13
 70
     0
  0
APPID
  5
66B
330
9
100
AcDbSymbolTableRecord
100
AcDbRegAppTableRecord
  2
GENIUS_GENCFG3_13
 70
     0
  0
APPID
  5
66C
330
9
100
AcDbSymbolTableRecord
100
AcDbRegAppTableRecord
  2
GENIUS_GENCFG4_13
 70
     0
  0
APPID
  5
A76
330
9
100
AcDbSymbolTableRecord
100
AcDbRegAppTableRecord
  2
GENIUS_GENBLLY_14
 70
     0
  0
APPID
  5
A77
330
9
100
AcDbSymbolTableRecord
100
AcDbRegAppTableRecord
  2
GENIUS_GENOBJ-N-CEN_13
 70
     0
  0
APPID
  5
A83
330
9
100
AcDbSymbolTableRecord
100
AcDbRegAppTableRecord
  2
GENIUS_GENTRA_14
 70
     0
  0
APPID
  5
A8D
330
9
100
AcDbSymbolTableRecord
100
AcDbRegAppTableRecord
  2
GENIUS_GENOBJ-N-TIT_13
 70
     0
  0
APPID
  5
A8E
330
9
100
AcDbSymbolTableRecord
100
AcDbRegAppTableRecord
  2
GENIUS_GENTITLE_13
 70
     0
  0
APPID
  5
A8F
330
9
100
AcDbSymbolTableRecord
100
AcDbRegAppTableRecord
  2
GENIUS_GENOENT_13
 70
     0
  0
APPID
  5
A90
330
9
100
AcDbSymbolTableRecord
100
AcDbRegAppTableRecord
  2
GENIUS_GENOREF_13
 70
     0
  0
APPID
  5
A91
330
9
100
AcDbSymbolTableRecord
100
AcDbRegAppTableRecord
  2
GENIUS_GENOLIS_13
 70
     0
  0
APPID
  5
A92
330
9
100
AcDbSymbolTableRecord
100
AcDbRegAppTableRecord
  2
GENIUS_GENZVEED_13
 70
     0
  0
APPID
  5
A93
330
9
100
AcDbSymbolTableRecord
100
AcDbRegAppTableRecord
  2
GENIUS_GENSCREG_15
 70
     0
  0
APPID
  5
A94
330
9
100
AcDbSymbolTableRecord
100
AcDbRegAppTableRecord
  2
GENIUS_GENOBJ-N-SDF_13
 70
     0
  0
APPID
  5
12B5
330
9
100
AcDbSymbolTableRecord
100
AcDbRegAppTableRecord
  2
GENIUS_GENOBJ-N-RSBK_13
 70
     0
  0
APPID
  5
12B6
330
9
100
AcDbSymbolTableRecord
100
AcDbRegAppTableRecord
  2
GENIUS_GENOBJ-N-LIB_13
 70
     0
  0
APPID
  5
12B7
330
9
100
AcDbSymbolTableRecord
100
AcDbRegAppTableRecord
  2
GENIUS_GENSCALE_13
 70
     0
  0
APPID
  5
12B8
330
9
100
AcDbSymbolTableRecord
100
AcDbRegAppTableRecord
  2
GENIUS_GENOBJ-N-HTC_13
 70
     0
  0
APPID
  5
12B9
330
9
100
AcDbSymbolTableRecord
100
AcDbRegAppTableRecord
  2
GENIUS_GENHATCH_13
 70
     0
  0
APPID
  5
1687
330
9
100
AcDbSymbolTableRecord
100
AcDbRegAppTableRecord
  2
BASE_TYPE
 70
     0
  0
APPID
  5
1ABF
330
9
100
AcDbSymbolTableRecord
100
AcDbRegAppTableRecord
  2
GENIUS_GENFIL_13
 70
     0
  0
APPID
  5
1AC0
330
9
100
AcDbSymbolTableRecord
100
AcDbRegAppTableRecord
  2
GENIUS_GENOBJ-N-CHA_13
 70
     0
  0
APPID
  5
1AE7
330
9
100
AcDbSymbolTableRecord
100
AcDbRegAppTableRecord
  2
GENIUS_GENOBJ-N-FIL_13
 70
     0
  0
APPID
  5
20E9
330
9
100
AcDbSymbolTableRecord
100
AcDbRegAppTableRecord
  2
GENIUS_GENDIMSH_14
 70
     0
  0
APPID
  5
1D4BB
330
9
100
AcDbSymbolTableRecord
100
AcDbRegAppTableRecord
  2
AD_DRAW
 70
     0
  0
APPID
  5
1D4BE
330
9
100
AcDbSymbolTableRecord
100
AcDbRegAppTableRecord
  2
ACATTRIBSERVICES
 70
     0
  0
APPID
  5
1D4DC
330
9
100
AcDbSymbolTableRecord
100
AcDbRegAppTableRecord
  2
DESIGNERASSEMBLIES
 70
     0
  0
APPID
  5
1D4EF
330
9
100
AcDbSymbolTableRecord
100
AcDbRegAppTableRecord
  2
ACADM_DIM_EDIT
 70
     0
  0
APPID
  5
1D4F0
330
9
100
AcDbSymbolTableRecord
100
AcDbRegAppTableRecord
  2
AMDT_DM_ADJ
 70
     0
  0
APPID
  5
1D583
330
9
100
AcDbSymbolTableRecord
100
AcDbRegAppTableRecord
  2
DCO15
 70
     0
  0
APPID
  5
1D73A
330
9
100
AcDbSymbolTableRecord
100
AcDbRegAppTableRecord
  2
ACAD_DSTYLE_DIMTEXT_FILL
 70
     0
  0
APPID
  5
1D73B
330
9
100
AcDbSymbolTableRecord
100
AcDbRegAppTableRecord
  2
ACAD_PSEXT
 70
     0
  0
ENDTAB
  0
TABLE
  2
DIMSTYLE
  5
A
330
0
100
AcDbSymbolTable
 70
    10
100
AcDbDimStyleTable
  0
DIMSTYLE
105
58
330
A
100
AcDbSymbolTableRecord
100
AcDbDimStyleTableRecord
  2
AM_JIS
 70
     0
  4
"
 41
2.5
 42
0.0
 43
10.0
 44
1.0
 47
0.1
 48
0.1000000001
 73
     0
 74
     0
 77
     3
 78
     1
 79
     2
140
3.8
141
0.0
143
0.0393701
146
0.71
147
1.5
172
     1
176
   256
177
   256
178
     2
179
     2
271
     3
272
     3
275
     1
283
     0
284
     8
340
11
341
59
342
59
371
    -1
372
    -1
  0
DIMSTYLE
105
5F
102
{ACAD_REACTORS
330
171D5
330
1B9BD
102
}
330
A
100
AcDbSymbolTableRecord
100
AcDbDimStyleTableRecord
  2
AM_JIS$3
 70
     0
  4
"
 41
2.5
 42
0.0
 43
10.0
 44
1.0
 47
0.1
 48
0.1000000001
 73
     0
 77
     3
 78
     1
 79
     2
140
3.8
141
0.0
143
0.0393701
146
0.71
147
1.5
172
     1
176
   256
177
   256
178
     2
179
     2
271
     3
272
     3
275
     1
283
     0
284
     8
288
     1
289
     0
340
11
341
59
342
59
371
    -1
372
    -1
  0
DIMSTYLE
105
60
330
A
100
AcDbSymbolTableRecord
100
AcDbDimStyleTableRecord
  2
AM_JIS$4
 70
     0
  4
"
 41
2.5
 42
0.0
 43
10.0
 44
1.0
 47
0.1
 48
0.1000000001
 73
     0
 77
     3
 78
     1
 79
     2
140
3.8
141
0.0
143
0.0393701
146
0.71
147
1.5
172
     1
176
   256
177
   256
178
     2
179
     2
271
     3
272
     3
275
     1
283
     0
284
     8
288
     1
289
     0
340
11
341
59
342
59
371
    -1
372
    -1
  0
DIMSTYLE
105
61
330
A
100
AcDbSymbolTableRecord
100
AcDbDimStyleTableRecord
  2
AM_JIS$6
 70
     0
  4
"
 41
2.5
 42
0.0
 43
10.0
 44
1.0
 47
0.1
 48
0.1000000001
 73
     0
 74
     0
 78
     1
 79
     2
140
3.8
141
0.0
143
0.0393701
146
0.71
147
1.5
172
     1
176
   256
177
   256
178
     2
179
     2
271
     3
272
     3
275
     1
283
     0
284
     8
340
11
341
59
342
59
371
    -1
372
    -1
  0
DIMSTYLE
105
62
330
A
100
AcDbSymbolTableRecord
100
AcDbDimStyleTableRecord
  2
AM_JIS$7
 70
     0
  4
"
 41
2.5
 42
0.0
 43
10.0
 44
1.0
 47
0.1
 48
0.1000000001
 73
     0
 74
     0
 77
     3
 78
     1
 79
     2
140
5.0
141
0.0
143
0.0393701
146
0.71
147
1.5
172
     1
176
   256
177
   256
178
     2
179
     2
271
     3
272
     3
275
     1
283
     0
284
     8
340
11
341
59
342
59
371
    -1
372
    -1
  0
DIMSTYLE
105
63
330
A
100
AcDbSymbolTableRecord
100
AcDbDimStyleTableRecord
  2
AM_JIS$SF
 70
     0
  4
"
 41
2.5
 42
1.0
 43
10.0
 44
1.0
 47
0.1
 48
0.1
 73
     0
 74
     0
 75
     1
 76
     1
 77
     3
 78
     8
 79
     2
140
3.5
141
0.0
143
0.0393701
146
0.71
147
1.5
176
   256
177
   256
178
     2
271
     2
272
     3
274
     4
340
11
341
59
342
59
343
59
344
59
371
    -1
372
    -1
  0
DIMSTYLE
105
68
330
A
100
AcDbSymbolTableRecord
100
AcDbDimStyleTableRecord
  2
AM_JIS$SH
 70
     0
  4
"
 41
2.5
 42
1.0
 43
10.0
 44
1.0
 47
0.1
 48
0.1
 73
     0
 74
     0
 75
     1
 76
     1
 77
     3
 78
     8
 79
     2
140
3.5
141
0.0
143
0.0393701
144
2.0
146
0.71
147
1.5
173
     1
176
   256
177
   256
178
     2
271
     2
272
     3
274
     4
340
11
341
59
342
59
343
64
344
59
371
    -1
372
    -1
  0
DIMSTYLE
105
65F
330
A
100
AcDbSymbolTableRecord
100
AcDbDimStyleTableRecord
  2
STANDARD
 70
     0
340
11
  0
DIMSTYLE
105
1B97
102
{ACAD_REACTORS
330
1748D
330
1D98E
330
1DA60
330
1DAE6
102
}
330
A
100
AcDbSymbolTableRecord
100
AcDbDimStyleTableRecord
  2
AM_JIS$0
 70
     0
  4
"
 41
2.5
 42
0.0
 43
10.0
 44
1.0
 47
0.1
 48
0.1000000001
 73
     0
 74
     0
 77
     3
 78
     1
 79
     2
140
3.8
141
0.0
143
0.0393701
146
0.71
147
1.5
172
     1
176
     3
177
     3
178
     2
271
     3
272
     3
275
     1
283
     0
284
     8
289
     0
340
11
341
59
342
59
371
    13
372
    13
  0
DIMSTYLE
105
1B98
102
{ACAD_REACTORS
330
1DA8D
330
1DB28
102
}
330
A
100
AcDbSymbolTableRecord
100
AcDbDimStyleTableRecord
  2
AM_JIS$2
 70
     0
  4
"
 41
2.5
 42
0.0
 43
10.0
 44
1.0
 47
0.1
 48
0.1000000001
 73
     0
 74
     0
 77
     3
 78
     1
 79
     2
140
3.8
141
0.0
143
0.0393701
146
0.71
147
1.5
172
     1
176
     3
177
     3
178
     2
271
     3
272
     3
275
     1
283
     0
284
     8
289
     0
340
11
341
59
342
59
371
    13
372
    13
  0
ENDTAB
  0
TABLE
  2
BLOCK_RECORD
  5
1
330
0
100
AcDbSymbolTable
 70
    12
  0
BLOCK_RECORD
  5
1F
102
{ACAD_XDICTIONARY
360
165
102
}
330
1
100
AcDbSymbolTableRecord
100
AcDbBlockTableRecord
  2
*Model_Space
340
22
  0
BLOCK_RECORD
  5
1B
330
1
100
AcDbSymbolTableRecord
100
AcDbBlockTableRecord
  2
*Paper_Space
340
1E
  0
BLOCK_RECORD
  5
23
330
1
100
AcDbSymbolTableRecord
100
AcDbBlockTableRecord
  2
*Paper_Space0
340
26
  0
BLOCK_RECORD
  5
59
330
1
100
AcDbSymbolTableRecord
100
AcDbBlockTableRecord
  2
_Open30
340
0
102
{BLKREFS
331
1DD4D
331
1DD4E
331
1DD54
331
1DD55
331
1DD5F
331
1DD60
331
1DD66
331
1DD67
331
1DD6F
331
1DD70
331
1DD78
331
1DD79
331
1DD83
331
1DD84
331
1DD8E
331
1DD8F
102
}
  0
BLOCK_RECORD
  5
64
330
1
100
AcDbSymbolTableRecord
100
AcDbBlockTableRecord
  2
GENAXEH
340
0
  0
BLOCK_RECORD
  5
171D6
330
1
100
AcDbSymbolTableRecord
100
AcDbBlockTableRecord
  2
*D3
340
0
  0
BLOCK_RECORD
  5
1748E
330
1
100
AcDbSymbolTableRecord
100
AcDbBlockTableRecord
  2
*D4
340
0
  0
BLOCK_RECORD
  5
1B9BE
330
1
100
AcDbSymbolTableRecord
100
AcDbBlockTableRecord
  2
*D5
340
0
  0
BLOCK_RECORD
  5
1D4D3
330
1
100
AcDbSymbolTableRecord
100
AcDbBlockTableRecord
  2
*U6
340
0
  0
BLOCK_RECORD
  5
1D98F
330
1
100
AcDbSymbolTableRecord
100
AcDbBlockTableRecord
  2
*D7
340
0
  0
BLOCK_RECORD
  5
1DA61
330
1
100
AcDbSymbolTableRecord
100
AcDbBlockTableRecord
  2
*D8
340
0
  0
BLOCK_RECORD
  5
1DA8E
330
1
100
AcDbSymbolTableRecord
100
AcDbBlockTableRecord
  2
*D9
340
0
  0
BLOCK_RECORD
  5
1DAE7
330
1
100
AcDbSymbolTableRecord
100
AcDbBlockTableRecord
  2
*D10
340
0
  0
BLOCK_RECORD
  5
1DB29
330
1
100
AcDbSymbolTableRecord
100
AcDbBlockTableRecord
  2
*D11
340
0
  0
ENDTAB
  0
ENDSEC
  0
SECTION
  2
BLOCKS
  0
BLOCK
  5
20
330
1F
100
AcDbEntity
  8
0
100
AcDbBlockBegin
  2
*Model_Space
 70
     0
 71
     0
 10
0.0
 20
0.0
 30
0.0
  3
*Model_Space
  1

  0
ENDBLK
  5
21
330
1F
100
AcDbEntity
  8
0
100
AcDbBlockEnd
  0
BLOCK
  5
1C
330
1B
100
AcDbEntity
 67
     1
  8
0
100
AcDbBlockBegin
  2
*Paper_Space
 70
     0
 71
     0
 10
0.0
 20
0.0
 30
0.0
  3
*Paper_Space
  1

  0
ENDBLK
  5
1D
330
1B
100
AcDbEntity
 67
     1
  8
0
100
AcDbBlockEnd
  0
BLOCK
  5
24
330
23
100
AcDbEntity
  8
0
100
AcDbBlockBegin
  2
*Paper_Space0
 70
     0
 71
     0
 10
0.0
 20
0.0
 30
0.0
  3
*Paper_Space0
  1

  0
ENDBLK
  5
25
330
23
100
AcDbEntity
  8
0
100
AcDbBlockEnd
  0
BLOCK
  5
5D
330
59
100
AcDbEntity
  8
0
100
AcDbBlockBegin
  2
_Open30
 70
     0
 71
     0
 10
0.0
 20
0.0
 30
0.0
  3
_Open30
  1

  0
LINE
  5
5A
330
59
100
AcDbEntity
  8
0
 62
     0
370
    -2
100
AcDbLine
 10
-1.0
 20
0.26794919
 30
0.0
 11
0.0
 21
0.0
 31
0.0
  0
LINE
  5
5B
330
59
100
AcDbEntity
  8
0
 62
     0
370
    -2
100
AcDbLine
 10
0.0
 20
0.0
 30
0.0
 11
-1.0
 21
-0.26794919
 31
0.0
  0
LINE
  5
5C
330
59
100
AcDbEntity
  8
0
 62
     0
370
    -2
100
AcDbLine
 10
0.0
 20
0.0
 30
0.0
 11
-1.0
 21
0.0
 31
0.0
  0
ENDBLK
  5
5E
330
59
100
AcDbEntity
  8
0
100
AcDbBlockEnd
  0
BLOCK
  5
66
330
64
100
AcDbEntity
  8
0
100
AcDbBlockBegin
  2
GENAXEH
 70
     0
 71
     0
 10
0.0
 20
0.0
 30
0.0
  3
GENAXEH
  1

  0
LINE
  5
65
330
64
100
AcDbEntity
  8
0
100
AcDbLine
 10
-1.0
 20
0.0
 30
0.0
 11
1.0
 21
0.0
 31
0.0
  0
ENDBLK
  5
67
330
64
100
AcDbEntity
  8
0
100
AcDbBlockEnd
  0
BLOCK
  5
171DC
330
171D6
100
AcDbEntity
  8
0
100
AcDbBlockBegin
  2
*D3
 70
     1
 71
     0
 10
0.0
 20
0.0
 30
0.0
  3
*D3
  1

  0
LINE
  5
1DD48
330
171D6
100
AcDbEntity
  8
AM_5
100
AcDbLine
 10
116.0636131039544
 20
29.60393893820798
 30
0.0
 11
107.4953886945053
 21
29.60393893820799
 31
0.0
  0
LINE
  5
1DD49
330
171D6
100
AcDbEntity
  8
AM_5
100
AcDbLine
 10
107.4953886945053
 20
29.60393893820799
 30
0.0
 11
103.7157031844191
 21
17.13451337243628
 31
0.0
  0
LINE
  5
1DD4A
330
171D6
100
AcDbEntity
  8
AM_5
100
AcDbLine
 10
98.78429681558087
 20
0.8654866275636692
 30
0.0
 11
98.05908999663409
 21
-1.52701730550584
 31
0.0
  0
MTEXT
  5
1DD4B
330
171D6
100
AcDbEntity
  8
AM_5
 62
     2
100
AcDbMText
 10
112.52950089923
 20
33.00431295395604
 30
0.0
 40
3.8
 41
0.0
 71
     5
 72
     1
  1
\U+220512
 73
     1
 44
1.0
  0
LINE
  5
1DD4C
330
171D6
100
AcDbEntity
  8
AM_5
100
AcDbLine
 10
99.50950363452768
 20
3.257990560633179
 30
0.0
 11
102.9904963654723
 21
14.74200943936677
 31
0.0
  0
INSERT
  5
1DD4D
330
171D6
100
AcDbEntity
  8
AM_5
100
AcDbBlockReference
  2
_Open30
 10
99.50950363452768
 20
3.257990560633179
 30
0.0
 41
2.5
 42
2.5
 43
2.5
 50
73.13709113400682
  0
INSERT
  5
1DD4E
330
171D6
100
AcDbEntity
  8
AM_5
100
AcDbBlockReference
  2
_Open30
 10
102.9904963654723
 20
14.74200943936677
 30
0.0
 41
2.5
 42
2.5
 43
2.5
 50
253.1370911340069
  0
POINT
  5
1DD4F
330
171D6
100
AcDbEntity
  8
Defpoints
 62
     0
100
AcDbPoint
 10
102.9904963654723
 20
14.74200943936677
 30
0.0
  0
POINT
  5
1DD50
330
171D6
100
AcDbEntity
  8
Defpoints
 62
     0
100
AcDbPoint
 10
99.50950363452768
 20
3.257990560633179
 30
0.0
  0
ENDBLK
  5
171DD
330
171D6
100
AcDbEntity
  8
0
100
AcDbBlockEnd
  0
BLOCK
  5
17498
330
1748E
100
AcDbEntity
  8
0
100
AcDbBlockBegin
  2
*D4
 70
     1
 71
     0
 10
0.0
 20
0.0
 30
0.0
  3
*D4
  1

  0
LINE
  5
1DD51
330
1748E
100
AcDbEntity
  8
AM_5
 62
     3
370
    13
100
AcDbLine
 10
0.0000000000002274
 20
-64.65925477060318
 30
0.0
 11
0.0000000000002258
 21
-89.94084034318678
 31
0.0
  0
LINE
  5
1DD52
330
1748E
100
AcDbEntity
  8
AM_5
 62
     3
370
    13
100
AcDbLine
 10
25.00000000000011
 20
-70.65925477060318
 30
0.0
 11
25.00000000000011
 21
-89.94084034318678
 31
0.0
  0
LINE
  5
1DD53
330
1748E
100
AcDbEntity
  8
AM_5
 62
     3
370
    13
100
AcDbLine
 10
2.500000000000226
 20
-88.94084034318678
 30
0.0
 11
22.50000000000011
 21
-88.94084034318678
 31
0.0
  0
INSERT
  5
1DD54
330
1748E
100
AcDbEntity
  8
AM_5
 62
     3
370
    13
100
AcDbBlockReference
  2
_Open30
 10
0.0000000000002259
 20
-88.94084034318678
 30
0.0
 41
2.5
 42
2.5
 43
2.5
 50
180.0
  0
INSERT
  5
1DD55
330
1748E
100
AcDbEntity
  8
AM_5
 62
     3
370
    13
100
AcDbBlockReference
  2
_Open30
 10
25.00000000000011
 20
-88.94084034318678
 30
0.0
 41
2.5
 42
2.5
 43
2.5
  0
MTEXT
  5
1DD56
330
1748E
100
AcDbEntity
  8
AM_5
 62
     2
100
AcDbMText
 10
12.50000000000017
 20
-85.54046632743875
 30
0.0
 40
3.8
 41
0.0
 71
     5
 72
     1
  1
25
 73
     1
 44
1.0
  0
POINT
  5
1DD57
330
1748E
100
AcDbEntity
  8
Defpoints
 62
     0
100
AcDbPoint
 10
0.0000000000002274
 20
-64.65925477060318
 30
0.0
  0
POINT
  5
1DD58
330
1748E
100
AcDbEntity
  8
Defpoints
 62
     0
100
AcDbPoint
 10
25.00000000000011
 20
-70.65925477060318
 30
0.0
  0
POINT
  5
1DD59
330
1748E
100
AcDbEntity
  8
Defpoints
 62
     0
100
AcDbPoint
 10
25.00000000000011
 20
-88.94084034318678
 30
0.0
  0
ENDBLK
  5
17499
330
1748E
100
AcDbEntity
  8
0
100
AcDbBlockEnd
  0
BLOCK
  5
1B9C4
330
1B9BE
100
AcDbEntity
  8
0
100
AcDbBlockBegin
  2
*D5
 70
     1
 71
     0
 10
0.0
 20
0.0
 30
0.0
  3
*D5
  1

  0
LINE
  5
1DD5A
330
1B9BE
100
AcDbEntity
  8
AM_5
100
AcDbLine
 10
-80.10413121413339
 20
23.47765445928493
 30
0.0
 11
-56.23640520464434
 21
23.47765445928492
 31
0.0
  0
LINE
  5
1DD5B
330
1B9BE
100
AcDbEntity
  8
AM_5
100
AcDbLine
 10
-56.23640520464434
 20
23.47765445928492
 30
0.0
 11
-50.908919800398
 21
16.47956165419586
 31
0.0
  0
LINE
  5
1DD5C
330
1B9BE
100
AcDbEntity
  8
AM_5
100
AcDbLine
 10
-38.1886525758087
 20
-0.2295616541957841
 30
0.0
 11
-36.67433504907187
 21
-2.218743000432891
 31
0.0
  0
MTEXT
  5
1DD5D
330
1B9BE
100
AcDbEntity
  8
AM_5
 62
     2
100
AcDbMText
 10
-68.92026820938887
 20
30.04432112595159
 30
0.0
 40
3.8
 41
0.0
 71
     5
 72
     1
  1
最小加工径\P\U+220516
 73
     1
 44
1.0
  0
LINE
  5
1DD5E
330
1B9BE
100
AcDbEntity
  8
AM_5
100
AcDbLine
 10
-39.70297010254552
 20
1.759619692041319
 30
0.0
 11
-49.39460227366118
 21
14.49038030795875
 31
0.0
  0
INSERT
  5
1DD5F
330
1B9BE
100
AcDbEntity
  8
AM_5
100
AcDbBlockReference
  2
_Open30
 10
-39.70297010254552
 20
1.759619692041319
 30
0.0
 41
2.5
 42
2.5
 43
2.5
 50
127.2811751795133
  0
INSERT
  5
1DD60
330
1B9BE
100
AcDbEntity
  8
AM_5
100
AcDbBlockReference
  2
_Open30
 10
-49.39460227366118
 20
14.49038030795875
 30
0.0
 41
2.5
 42
2.5
 43
2.5
 50
307.2811751795133
  0
POINT
  5
1DD61
330
1B9BE
100
AcDbEntity
  8
Defpoints
 62
     0
100
AcDbPoint
 10
-49.39460227366118
 20
14.49038030795875
 30
0.0
  0
POINT
  5
1DD62
330
1B9BE
100
AcDbEntity
  8
Defpoints
 62
     0
100
AcDbPoint
 10
-39.70297010254552
 20
1.759619692041319
 30
0.0
  0
ENDBLK
  5
1B9C5
330
1B9BE
100
AcDbEntity
  8
0
100
AcDbBlockEnd
  0
BLOCK
  5
1D4D4
330
1D4D3
100
AcDbEntity
  8
0
100
AcDbBlockBegin
  2
*U6
 70
     1
 71
     0
 10
0.0
 20
0.0
 30
0.0
  3
*U6
  1

  0
ENDBLK
  5
1D4D5
330
1D4D3
100
AcDbEntity
  8
0
100
AcDbBlockEnd
  0
BLOCK
  5
1D9BC
330
1D98F
100
AcDbEntity
  8
0
100
AcDbBlockBegin
  2
*D7
 70
     1
 71
     0
 10
0.0
 20
0.0
 30
0.0
  3
*D7
  1

  0
LINE
  5
1DD63
330
1D98F
100
AcDbEntity
  8
AM_5
 62
     3
370
    13
100
AcDbLine
 10
95.75000000000006
 20
6.602084238343636
 30
0.0
 11
95.75000000000006
 21
-9.140768003899481
 31
0.0
  0
LINE
  5
1DD64
330
1D98F
100
AcDbEntity
  8
AM_5
 62
     3
370
    13
100
AcDbLine
 10
106.7500000000001
 20
6.602084238343636
 30
0.0
 11
106.7500000000001
 21
-9.140768003899481
 31
0.0
  0
LINE
  5
1DD65
330
1D98F
100
AcDbEntity
  8
AM_5
 62
     3
370
    13
100
AcDbLine
 10
98.25000000000006
 20
-8.140768003899481
 30
0.0
 11
104.2500000000001
 21
-8.140768003899481
 31
0.0
  0
INSERT
  5
1DD66
330
1D98F
100
AcDbEntity
  8
AM_5
 62
     3
370
    13
100
AcDbBlockReference
  2
_Open30
 10
95.75000000000006
 20
-8.140768003899481
 30
0.0
 41
2.5
 42
2.5
 43
2.5
 50
180.0
  0
INSERT
  5
1DD67
330
1D98F
100
AcDbEntity
  8
AM_5
 62
     3
370
    13
100
AcDbBlockReference
  2
_Open30
 10
106.7500000000001
 20
-8.140768003899481
 30
0.0
 41
2.5
 42
2.5
 43
2.5
  0
MTEXT
  5
1DD68
330
1D98F
100
AcDbEntity
  8
AM_5
 62
     2
100
AcDbMText
 10
101.2500000000001
 20
-4.740768003899481
 30
0.0
 40
3.8
 41
0.0
 71
     5
 72
     1
  1
11
 73
     1
 44
1.0
  0
POINT
  5
1DD69
330
1D98F
100
AcDbEntity
  8
Defpoints
 62
     0
100
AcDbPoint
 10
95.75000000000006
 20
6.602084238343636
 30
0.0
  0
POINT
  5
1DD6A
330
1D98F
100
AcDbEntity
  8
Defpoints
 62
     0
100
AcDbPoint
 10
106.7500000000001
 20
6.602084238343636
 30
0.0
  0
POINT
  5
1DD6B
330
1D98F
100
AcDbEntity
  8
Defpoints
 62
     0
100
AcDbPoint
 10
106.7500000000001
 20
-8.140768003899481
 30
0.0
  0
ENDBLK
  5
1D9BD
330
1D98F
100
AcDbEntity
  8
0
100
AcDbBlockEnd
  0
BLOCK
  5
1DA80
330
1DA61
100
AcDbEntity
  8
0
100
AcDbBlockBegin
  2
*D8
 70
     1
 71
     0
 10
0.0
 20
0.0
 30
0.0
  3
*D8
  1

  0
LINE
  5
1DD6C
330
1DA61
100
AcDbEntity
  8
AM_5
 62
     3
370
    13
100
AcDbLine
 10
-1.814815841909422
 20
0.0
 30
0.0
 11
-9.641905764872606
 21
0.0000000000000022
 31
0.0
  0
LINE
  5
1DD6D
330
1DA61
100
AcDbEntity
  8
AM_5
 62
     3
370
    13
100
AcDbLine
 10
-2.165548451965719
 20
8.999999999999993
 30
0.0
 11
-9.641905764872604
 21
8.999999999999995
 31
0.0
  0
LINE
  5
1DD6E
330
1DA61
100
AcDbEntity
  8
AM_5
 62
     3
370
    13
100
AcDbLine
 10
-8.641905764872606
 20
2.500000000000002
 30
0.0
 11
-8.641905764872604
 21
6.499999999999995
 31
0.0
  0
INSERT
  5
1DD6F
330
1DA61
100
AcDbEntity
  8
AM_5
 62
     3
370
    13
100
AcDbBlockReference
  2
_Open30
 10
-8.641905764872606
 20
0.0000000000000019
 30
0.0
 41
2.5
 42
2.5
 43
2.5
 50
270.0
  0
INSERT
  5
1DD70
330
1DA61
100
AcDbEntity
  8
AM_5
 62
     3
370
    13
100
AcDbBlockReference
  2
_Open30
 10
-8.641905764872604
 20
8.999999999999995
 30
0.0
 41
2.5
 42
2.5
 43
2.5
 50
90.0
  0
MTEXT
  5
1DD71
330
1DA61
100
AcDbEntity
  8
AM_5
 62
     2
100
AcDbMText
 10
-12.04190576487261
 20
4.499999999999997
 30
0.0
 40
3.8
 41
0.0
 71
     5
 72
     1
  1
9
 11
6.123031769111886E-17
 21
1.0
 31
0.0
 73
     1
 44
1.0
  0
POINT
  5
1DD72
330
1DA61
100
AcDbEntity
  8
Defpoints
 62
     0
100
AcDbPoint
 10
-1.814815841909422
 20
0.0
 30
0.0
  0
POINT
  5
1DD73
330
1DA61
100
AcDbEntity
  8
Defpoints
 62
     0
100
AcDbPoint
 10
-2.165548451965719
 20
8.999999999999993
 30
0.0
  0
POINT
  5
1DD74
330
1DA61
100
AcDbEntity
  8
Defpoints
 62
     0
100
AcDbPoint
 10
-8.641905764872604
 20
8.999999999999995
 30
0.0
  0
ENDBLK
  5
1DA81
330
1DA61
100
AcDbEntity
  8
0
100
AcDbBlockEnd
  0
BLOCK
  5
1DAD5
330
1DA8E
100
AcDbEntity
  8
0
100
AcDbBlockBegin
  2
*D9
 70
     1
 71
     0
 10
0.0
 20
0.0
 30
0.0
  3
*D9
  1

  0
LINE
  5
1DD75
330
1DA8E
100
AcDbEntity
  8
AM_5
 62
     3
370
    13
100
AcDbLine
 10
0.485246256488324
 20
5.957234450959609
 30
0.0
 11
2.252204721684201
 21
26.15366212495511
 31
0.0
  0
LINE
  5
1DD76
330
1DA8E
100
AcDbEntity
  8
AM_5
 62
     3
370
    13
100
AcDbLine
 10
-1.814815841909421
 20
0.0
 30
0.0
 11
-26.28950908937276
 21
0.0000000000000018
 31
0.0
  0
ARC
  5
1DD77
330
1DA8E
100
AcDbEntity
  8
AM_5
 62
     3
370
    13
100
AcDbCircle
 10
-0.0359442239367324
 20
0.0000000000000001
 30
0.0
 40
25.25356486543603
100
AcDbArc
 50
90.67436735056852
 51
174.3256326494314
  0
INSERT
  5
1DD78
330
1DA8E
100
AcDbEntity
  8
AM_5
 62
     3
370
    13
100
AcDbBlockReference
  2
_Open30
 10
2.165048978936543
 20
25.15746742686336
 30
0.0
 41
2.5
 42
2.5
 43
2.5
 50
357.8371836752842
  0
INSERT
  5
1DD79
330
1DA8E
100
AcDbEntity
  8
AM_5
 62
     3
370
    13
100
AcDbBlockReference
  2
_Open30
 10
-25.28950908937276
 20
0.0000000000000018
 30
0.0
 41
2.5
 42
2.5
 43
2.5
 50
267.1628163247157
  0
MTEXT
  5
1DD7A
330
1DA8E
100
AcDbEntity
  8
AM_5
 62
     2
100
AcDbMText
 10
-19.39401206030543
 20
21.12562399410483
 30
0.0
 40
3.8
 41
0.0
 71
     5
 72
     1
  1
95°
 11
0.737277336810124
 21
0.6755902076156604
 31
0.0
 73
     1
 44
1.0
  0
POINT
  5
1DD7B
330
1DA8E
100
AcDbEntity
  8
Defpoints
 62
     0
100
AcDbPoint
 10
-11.3697234326836
 20
22.56740984827817
 30
0.0
  0
POINT
  5
1DD7C
330
1DA8E
100
AcDbEntity
  8
Defpoints
 62
     0
100
AcDbPoint
 10
0.001476477053302
 20
0.42772056952208
 30
0.0
  0
POINT
  5
1DD7D
330
1DA8E
100
AcDbEntity
  8
Defpoints
 62
     0
100
AcDbPoint
 10
-1.814815841909421
 20
0.0
 30
0.0
  0
POINT
  5
1DD7E
330
1DA8E
100
AcDbEntity
  8
Defpoints
 62
     0
100
AcDbPoint
 10
0.3999837067995031
 20
0.0
 30
0.0
  0
POINT
  5
1DD7F
330
1DA8E
100
AcDbEntity
  8
Defpoints
 62
     0
100
AcDbPoint
 10
0.485246256488324
 20
5.957234450959609
 30
0.0
  0
ENDBLK
  5
1DAD6
330
1DA8E
100
AcDbEntity
  8
0
100
AcDbBlockEnd
  0
BLOCK
  5
1DAFD
330
1DAE7
100
AcDbEntity
  8
0
100
AcDbBlockBegin
  2
*D10
 70
     1
 71
     0
 10
0.0
 20
0.0
 30
0.0
  3
*D10
  1

  0
LINE
  5
1DD80
330
1DAE7
100
AcDbEntity
  8
AM_5
 62
     3
370
    13
100
AcDbLine
 10
0.0
 20
-1.283263316160088
 30
0.0
 11
-0.0000000000000016
 21
-27.94192904356772
 31
0.0
  0
LINE
  5
1DD81
330
1DAE7
100
AcDbEntity
  8
AM_5
 62
     3
370
    13
100
AcDbLine
 10
150.0
 20
3.99999999999995
 30
0.0
 11
150.0
 21
-27.94192904356772
 31
0.0
  0
LINE
  5
1DD82
330
1DAE7
100
AcDbEntity
  8
AM_5
 62
     3
370
    13
100
AcDbLine
 10
2.499999999999998
 20
-26.94192904356772
 30
0.0
 11
147.5
 21
-26.94192904356772
 31
0.0
  0
INSERT
  5
1DD83
330
1DAE7
100
AcDbEntity
  8
AM_5
 62
     3
370
    13
100
AcDbBlockReference
  2
_Open30
 10
-0.0000000000000016
 20
-26.94192904356772
 30
0.0
 41
2.5
 42
2.5
 43
2.5
 50
180.0
  0
INSERT
  5
1DD84
330
1DAE7
100
AcDbEntity
  8
AM_5
 62
     3
370
    13
100
AcDbBlockReference
  2
_Open30
 10
150.0
 20
-26.94192904356772
 30
0.0
 41
2.5
 42
2.5
 43
2.5
  0
MTEXT
  5
1DD85
330
1DAE7
100
AcDbEntity
  8
AM_5
 62
     2
100
AcDbMText
 10
75.0
 20
-23.54192904356772
 30
0.0
 40
3.8
 41
0.0
 71
     5
 72
     1
  1
150
 73
     1
 44
1.0
  0
POINT
  5
1DD86
330
1DAE7
100
AcDbEntity
  8
Defpoints
 62
     0
100
AcDbPoint
 10
0.0
 20
-1.283263316160088
 30
0.0
  0
POINT
  5
1DD87
330
1DAE7
100
AcDbEntity
  8
Defpoints
 62
     0
100
AcDbPoint
 10
150.0
 20
3.99999999999995
 30
0.0
  0
POINT
  5
1DD88
330
1DAE7
100
AcDbEntity
  8
Defpoints
 62
     0
100
AcDbPoint
 10
150.0
 20
-26.94192904356772
 30
0.0
  0
ENDBLK
  5
1DAFE
330
1DAE7
100
AcDbEntity
  8
0
100
AcDbBlockEnd
  0
BLOCK
  5
1DB59
330
1DB29
100
AcDbEntity
  8
0
100
AcDbBlockBegin
  2
*D11
 70
     1
 71
     0
 10
0.0
 20
0.0
 30
0.0
  3
*D11
  1

  0
LINE
  5
1DD89
330
1DB29
100
AcDbEntity
  8
AM_5
 62
     3
370
    13
100
AcDbLine
 10
-44.54878618810347
 20
-0.0005794920366959
 30
0.0
 11
-47.30667497490004
 21
-15.64134402954701
 31
0.0
  0
LINE
  5
1DD8A
330
1DB29
100
AcDbEntity
  8
AM_5
 62
     3
370
    13
100
AcDbLine
 10
-44.54878618810346
 20
-1.58884505729747
 30
0.0
 11
-44.54878618810347
 21
-15.88262803365054
 31
0.0
  0
ARC
  5
1DD8B
330
1DB29
100
AcDbEntity
  8
AM_5
 62
     3
370
    13
100
AcDbCircle
 10
-44.54878618810347
 20
-0.0005794920366959
 30
0.0
 40
14.88204854161385
100
AcDbArc
 50
240.7273292897265
 51
250.3636646449959
  0
ARC
  5
1DD8C
330
1DB29
100
AcDbEntity
  8
AM_5
 62
     3
370
    13
100
AcDbCircle
 10
-44.54878618810347
 20
-0.0005794920366959
 30
0.0
 40
14.88204854161385
100
AcDbArc
 50
279.6363353552694
 51
289.2726707105387
  0
ARC
  5
1DD8D
330
1DB29
100
AcDbEntity
  8
AM_5
 62
     3
370
    13
100
AcDbCircle
 10
-44.54878618810347
 20
-0.0005794920366959
 30
0.0
 40
14.88204854161385
100
AcDbArc
 50
260.0000000002652
 51
270.0
  0
INSERT
  5
1DD8E
330
1DB29
100
AcDbEntity
  8
AM_5
 62
     3
370
    13
100
AcDbBlockReference
  2
_Open30
 10
-47.13302679723767
 20
-14.656536276534
 30
0.0
 41
2.5
 42
2.5
 43
2.5
 50
345.1818323226306
  0
INSERT
  5
1DD8F
330
1DB29
100
AcDbEntity
  8
AM_5
 62
     3
370
    13
100
AcDbBlockReference
  2
_Open30
 10
-44.54878618810347
 20
-14.88262803365054
 30
0.0
 41
2.5
 42
2.5
 43
2.5
 50
184.8181676776347
  0
MTEXT
  5
1DD90
330
1DB29
100
AcDbEntity
  8
AM_5
 62
     2
100
AcDbMText
 10
-46.54262299318561
 20
-11.30818991628976
 30
0.0
 40
3.8
 41
0.0
 71
     5
 72
     1
  1
10°
 11
0.9848077530130118
 21
-0.1736481776623722
 31
0.0
 73
     1
 44
1.0
  0
POINT
  5
1DD91
330
1DB29
100
AcDbEntity
  8
Defpoints
 62
     0
100
AcDbPoint
 10
-45.41410035437008
 20
-14.85744996292016
 30
0.0
  0
POINT
  5
1DD92
330
1DB29
100
AcDbEntity
  8
Defpoints
 62
     0
100
AcDbPoint
 10
-44.47326533142928
 20
0.4277205694332116
 30
0.0
  0
POINT
  5
1DD93
330
1DB29
100
AcDbEntity
  8
Defpoints
 62
     0
100
AcDbPoint
 10
-44.54878618810346
 20
-1.58884505729747
 30
0.0
  0
POINT
  5
1DD94
330
1DB29
100
AcDbEntity
  8
Defpoints
 62
     0
100
AcDbPoint
 10
-44.54878618810347
 20
19.50552737384306
 30
0.0
  0
POINT
  5
1DD95
330
1DB29
100
AcDbEntity
  8
Defpoints
 62
     0
100
AcDbPoint
 10
-43.49826284395624
 20
5.957234450870751
 30
0.0
  0
ENDBLK
  5
1DB5A
330
1DB29
100
AcDbEntity
  8
0
100
AcDbBlockEnd
  0
ENDSEC
  0
SECTION
  2
ENTITIES
  0
LINE
  5
EF21
330
1F
100
AcDbEntity
  8
AM_7
100
AcDbLine
 10
153.4412382185366
 20
8.999999999999979
 30
0.0
 11
-2.165548451965719
 21
8.999999999999993
 31
0.0
1001
GENIUS_GENODEF_13
1002
{
1000
HIER
1070
     0
1002
}
1002
{
1000
MANEDIT
1070
     0
1002
}
1002
{
1000
NOSEL
1070
     0
1002
}
1002
{
1000
BEHIND
1070
     0
1002
}
1002
{
1000
REACTOR
1002
}
1001
GENIUS_GENOBJ-N-CEN_13
1002
{
1000
OWNER
1000
GEN
1002
}
  0
LINE
  5
EF61
330
1F
100
AcDbEntity
  8
AM_7
  6
AM_ISO08W050x2
100
AcDbLine
 10
101.2500000000001
 20
20.20813857451877
 30
0.0
 11
101.2500000000001
 21
-2.183904590500916
 31
0.0
1001
GENIUS_GENODEF_13
1002
{
1000
HIER
1070
     0
1002
}
1002
{
1000
MANEDIT
1070
     0
1002
}
1002
{
1000
NOSEL
1070
     0
1002
}
1002
{
1000
BEHIND
1070
     0
1002
}
1002
{
1000
REACTOR
1002
}
1001
GENIUS_GENOBJ-N-CEN_13
1002
{
1000
OWNER
1000
GEN
1002
}
  0
LINE
  5
166A2
330
1F
100
AcDbEntity
  8
AM_7
100
AcDbLine
 10
155.4588124887483
 20
-64.65925477060318
 30
0.0
 11
-1.300096829471272
 21
-64.65925477060316
 31
0.0
1001
GENIUS_GENODEF_13
1002
{
1000
HIER
1070
     0
1002
}
1002
{
1000
MANEDIT
1070
     0
1002
}
1002
{
1000
NOSEL
1070
     0
1002
}
1002
{
1000
BEHIND
1070
     0
1002
}
1002
{
1000
REACTOR
1002
}
1001
GENIUS_GENOBJ-N-CEN_13
1002
{
1000
OWNER
1000
GEN
1002
}
  0
ARC
  5
1679D
330
1F
100
AcDbEntity
  8
AM_0
100
AcDbCircle
 10
101.2500000000001
 20
8.999999999999986
 30
0.0
 40
6.0
100
AcDbArc
 50
203.5564643091011
 51
336.4435356908988
  0
ARC
  5
167AF
330
1F
100
AcDbEntity
  8
AM_0
100
AcDbCircle
 10
101.2500000000001
 20
8.999999999999986
 30
0.0
 40
6.0
100
AcDbArc
 50
23.55646430910121
 51
156.4435356908989
  0
LINE
  5
167CD
330
1F
100
AcDbEntity
  8
AM_0
100
AcDbLine
 10
106.7500000000001
 20
11.39791576165634
 30
0.0
 11
106.7500000000001
 21
6.602084238343636
 31
0.0
  0
LINE
  5
167CE
330
1F
100
AcDbEntity
  8
AM_0
100
AcDbLine
 10
95.75000000000006
 20
11.39791576165634
 30
0.0
 11
95.75000000000006
 21
6.602084238343636
 31
0.0
  0
LINE
  5
16820
330
1F
100
AcDbEntity
  8
AM_7
  6
AM_ISO08W050x2
100
AcDbLine
 10
-35.46281828153394
 20
9.000000000000007
 30
0.0
 11
-54.45074654299958
 21
9.000000000000007
 31
0.0
1001
GENIUS_GENODEF_13
1002
{
1000
HIER
1070
     0
1002
}
1002
{
1000
MANEDIT
1070
     0
1002
}
1002
{
1000
NOSEL
1070
     0
1002
}
1002
{
1000
BEHIND
1070
     0
1002
}
1002
{
1000
REACTOR
1002
}
1001
GENIUS_GENOBJ-N-CEN_13
1002
{
1000
OWNER
1000
GEN
1002
}
  0
LINE
  5
1682C
330
1F
100
AcDbEntity
  8
AM_7
  6
AM_ISO08W050x2
100
AcDbLine
 10
-44.54878618810346
 20
-1.588845057297469
 30
0.0
 11
-44.54878618810346
 21
19.50552737384305
 31
0.0
1001
GENIUS_GENODEF_13
1002
{
1000
HIER
1070
     0
1002
}
1002
{
1000
MANEDIT
1070
     0
1002
}
1002
{
1000
NOSEL
1070
     0
1002
}
1002
{
1000
BEHIND
1070
     0
1002
}
1002
{
1000
REACTOR
1002
}
1001
GENIUS_GENOBJ-N-CEN_13
1002
{
1000
OWNER
1000
GEN
1002
}
  0
DIMENSION
  5
171D5
330
1F
100
AcDbEntity
  8
AM_5
100
AcDbDimension
  2
*D3
 10
99.50950363452768
 20
3.257990560633179
 30
0.0
 11
112.52950089923
 21
29.60393893820801
 31
0.0
 70
   163
  1
<>
 71
     5
 42
11.99999999999994
  3
AM_JIS$3
100
AcDbDiametricDimension
 15
102.9904963654723
 25
14.74200943936677
 35
0.0
 40
0.0
1001
GENIUS_GENDTOL_13
1000

1000
h7
1000

1040
0.0
1001
ACAD
1000
DSTYLE
1002
{
1070
   271
1070
     0
1070
   289
1070
     3
1002
}
  0
DIMENSION
  5
1748D
330
1F
100
AcDbEntity
  8
AM_5
100
AcDbDimension
  2
*D4
 10
25.00000000000011
 20
-88.94084034318678
 30
0.0
 11
12.50000000000017
 21
-85.54046632743875
 31
0.0
 70
    32
  1
<>
 71
     5
 42
24.99999999999989
  3
AM_JIS$0
100
AcDbAlignedDimension
 13
0.0000000000002274
 23
-64.65925477060318
 33
0.0
 14
25.00000000000011
 24
-70.65925477060318
 34
0.0
100
AcDbRotatedDimension
1001
GENIUS_GENDTOL_13
1000

1000
h7
1000

1040
0.0
1001
ACAD
1000
DSTYLE
1002
{
1070
   271
1070
     0
1002
}
  0
ARC
  5
192D7
330
1F
100
AcDbEntity
  8
AM_0
100
AcDbCircle
 10
3.448644615878493
 20
4.3105441468553
 30
0.0
 40
0.1874999999999716
100
AcDbArc
 50
13.53115216736183
 51
166.4688478326351
  0
CIRCLE
  5
192D8
330
1F
100
AcDbEntity
  8
AM_0
100
AcDbCircle
 10
3.448644615878493
 20
3.4042941468553
 30
0.0
 40
1.3
  0
CIRCLE
  5
192D9
330
1F
100
AcDbEntity
  8
AM_0
100
AcDbCircle
 10
3.448644615878493
 20
3.4042941468553
 30
0.0
 40
1.725
  0
CIRCLE
  5
192DA
330
1F
100
AcDbEntity
  8
AM_0
100
AcDbCircle
 10
3.448644615878493
 20
3.4042941468553
 30
0.0
 40
1.09375
  0
ARC
  5
192DD
330
1F
100
AcDbEntity
  8
AM_0
100
AcDbCircle
 10
3.448644615878493
 20
2.498044146855413
 30
0.0
 40
0.1874999999999716
100
AcDbArc
 50
193.5311521673618
 51
346.4688478326303
  0
ARC
  5
192DE
330
1F
100
AcDbEntity
  8
AM_0
100
AcDbCircle
 10
2.840992834258259
 20
4.456777905931567
 30
0.0
 40
0.4375
100
AcDbArc
 50
253.5311521673744
 51
346.4688478326208
  0
ARC
  5
192DF
330
1F
100
AcDbEntity
  8
AM_0
100
AcDbCircle
 10
4.056296397498954
 20
4.456777905931453
 30
0.0
 40
0.4375
100
AcDbArc
 50
193.5311521673586
 51
286.4688478326256
  0
ARC
  5
192E0
330
1F
100
AcDbEntity
  8
AM_0
100
AcDbCircle
 10
4.663948179119075
 20
3.4042941468553
 30
0.0
 40
0.4375
100
AcDbArc
 50
133.5311521673598
 51
226.4688478326401
  0
ARC
  5
192E1
330
1F
100
AcDbEntity
  8
AM_0
100
AcDbCircle
 10
4.233480138058212
 20
3.857419146855243
 30
0.0
 40
0.1874999999999716
100
AcDbArc
 50
313.5311521673621
 51
106.4688478326328
  0
ARC
  5
192E2
330
1F
100
AcDbEntity
  8
AM_0
100
AcDbCircle
 10
2.840992834258032
 20
2.351810387779317
 30
0.0
 40
0.4375
100
AcDbArc
 50
13.53115216735863
 51
106.4688478326194
  0
ARC
  5
192E3
330
1F
100
AcDbEntity
  8
AM_0
100
AcDbCircle
 10
4.056296397498727
 20
2.35181038777926
 30
0.0
 40
0.4375
100
AcDbArc
 50
73.53115216735387
 51
166.4688478326319
  0
ARC
  5
192E4
330
1F
100
AcDbEntity
  8
AM_0
100
AcDbCircle
 10
4.233480138058212
 20
2.951169146855357
 30
0.0
 40
0.1874999999999716
100
AcDbArc
 50
253.5311521673539
 51
46.46884783263796
  0
ARC
  5
192E5
330
1F
100
AcDbEntity
  8
AM_0
100
AcDbCircle
 10
2.663809093699001
 20
3.857419146855413
 30
0.0
 40
0.1874999999999716
100
AcDbArc
 50
73.53115216737449
 51
226.4688478326379
  0
ARC
  5
192E6
330
1F
100
AcDbEntity
  8
AM_0
100
AcDbCircle
 10
2.233341052637911
 20
3.404294146855413
 30
0.0
 40
0.4375
100
AcDbArc
 50
313.5311521673598
 51
46.46884783262653
  0
ARC
  5
192E7
330
1F
100
AcDbEntity
  8
AM_0
100
AcDbCircle
 10
2.663809093698887
 20
2.951169146855357
 30
0.0
 40
0.1874999999999716
100
AcDbArc
 50
133.5311521673621
 51
286.4688478326256
  0
LINE
  5
192F2
330
1F
100
AcDbEntity
  8
AM_7
  6
AM_ISO08W050x2
100
AcDbLine
 10
3.448644615878493
 20
7.704294146855311
 30
0.0
 11
3.448644615878493
 21
-0.8957058531447046
 31
0.0
1001
GENIUS_GENODEF_13
1002
{
1000
HIER
1070
     0
1002
}
1002
{
1000
MANEDIT
1070
     0
1002
}
1002
{
1000
NOSEL
1070
     0
1002
}
1002
{
1000
BEHIND
1070
     0
1002
}
1002
{
1000
REACTOR
1002
}
1001
GENIUS_GENOBJ-N-CEN_13
1002
{
1000
OWNER
1000
GEN
1002
}
  0
LINE
  5
192FA
330
1F
100
AcDbEntity
  8
AM_7
  6
AM_ISO08W050x2
100
AcDbLine
 10
7.748644615878447
 20
3.4042941468553
 30
0.0
 11
-0.8513553841214616
 21
3.4042941468553
 31
0.0
1001
GENIUS_GENODEF_13
1002
{
1000
HIER
1070
     0
1002
}
1002
{
1000
MANEDIT
1070
     0
1002
}
1002
{
1000
NOSEL
1070
     0
1002
}
1002
{
1000
BEHIND
1070
     0
1002
}
1002
{
1000
REACTOR
1002
}
1001
GENIUS_GENOBJ-N-CEN_13
1002
{
1000
OWNER
1000
GEN
1002
}
  0
LINE
  5
1965A
330
1F
100
AcDbEntity
  8
AM_0
100
AcDbLine
 10
150.0
 20
13.99999999999995
 30
0.0
 11
149.0
 21
14.99999999999995
 31
0.0
  0
LINE
  5
1965E
330
1F
100
AcDbEntity
  8
AM_0
100
AcDbLine
 10
149.0
 20
11.39791576165641
 30
0.0
 11
149.0
 21
15.00000000000001
 31
0.0
  0
LINE
  5
19663
330
1F
100
AcDbEntity
  8
AM_0
100
AcDbLine
 10
149.0
 20
11.39791576165641
 30
0.0
 11
111.7500000000001
 21
11.39791576165642
 31
0.0
  0
LINE
  5
196FE
330
1F
100
AcDbEntity
  8
AM_0
100
AcDbLine
 10
150.0
 20
3.99999999999995
 30
0.0
 11
149.0
 21
2.99999999999995
 31
0.0
  0
SPLINE
  5
196FF
330
1F
100
AcDbEntity
  8
AM_0
100
AcDbSpline
210
0.0
220
0.0
230
1.0
 70
    12
 71
     2
 72
     6
 73
     3
 74
     0
 42
0.0000000001
 43
0.0000000001
 40
0.0
 40
0.0
 40
0.0
 40
4.898979485566507
 40
4.898979485566507
 40
4.898979485566507
 10
149.0
 20
6.602084238343487
 30
0.0
 41
1.0
 10
149.9583333333332
 20
8.99999999999995
 30
0.0
 41
1.090909090909097
 10
149.0
 20
11.39791576165641
 30
0.0
 41
1.0
  0
LINE
  5
19701
330
1F
100
AcDbEntity
  8
AM_0
100
AcDbLine
 10
149.0
 20
2.99999999999995
 30
0.0
 11
149.0
 21
6.602084238343544
 31
0.0
  0
LINE
  5
19705
330
1F
100
AcDbEntity
  8
AM_0
100
AcDbLine
 10
150.0
 20
3.99999999999995
 30
0.0
 11
150.0
 21
14.00000000000001
 31
0.0
  0
LINE
  5
197A2
330
1F
100
AcDbEntity
  8
AM_0
100
AcDbLine
 10
111.7500000000001
 20
14.99999999999996
 30
0.0
 11
149.0
 21
14.99999999999995
 31
0.0
  0
LINE
  5
197A4
330
1F
100
AcDbEntity
  8
AM_0
100
AcDbLine
 10
111.7500000000001
 20
2.999999999999957
 30
0.0
 11
149.0
 21
2.99999999999995
 31
0.0
  0
LINE
  5
197A5
330
1F
100
AcDbEntity
  8
AM_0
100
AcDbLine
 10
111.7500000000001
 20
6.602084238343494
 30
0.0
 11
149.0
 21
6.602084238343487
 31
0.0
  0
LINE
  5
1AF56
330
1F
100
AcDbEntity
  8
AM_0
100
AcDbLine
 10
23.5
 20
-59.15925477060316
 30
0.0
 11
149.5
 21
-59.15925477060318
 31
0.0
  0
LINE
  5
1AF57
330
1F
100
AcDbEntity
  8
AM_0
100
AcDbLine
 10
25.00000000000011
 20
-70.15925477060316
 30
0.0
 11
149.5
 21
-70.15925477060316
 31
0.0
  0
LINE
  5
1AF58
330
1F
100
AcDbEntity
  8
AM_0
100
AcDbLine
 10
23.50000000000006
 20
3.000000000000021
 30
0.0
 11
90.75000000000006
 21
3.000000000000014
 31
0.0
  0
LINE
  5
1AF59
330
1F
100
AcDbEntity
  8
AM_0
100
AcDbLine
 10
43.95478919920129
 20
14.99999999999999
 30
0.0
 11
90.75000000000006
 21
14.99999999999993
 31
0.0
  0
LINE
  5
1AF5A
330
1F
100
AcDbEntity
  8
AM_0
100
AcDbLine
 10
23.5
 20
6.602084238343643
 30
0.0
 11
90.75000000000006
 21
6.602084238343608
 31
0.0
  0
LINE
  5
1AF5B
330
1F
100
AcDbEntity
  8
AM_0
100
AcDbLine
 10
90.75000000000006
 20
11.39791576165636
 30
0.0
 11
23.5
 21
11.39791576165637
 31
0.0
  0
LINE
  5
1AF88
330
1F
100
AcDbEntity
  8
AM_0
100
AcDbLine
 10
15.25
 20
-70.40925477060318
 30
0.0
 11
23.25
 21
-70.40925477060318
 31
0.0
  0
LINE
  5
1AF89
330
1F
100
AcDbEntity
  8
AM_0
100
AcDbLine
 10
22.33438402174647
 20
-59.15925477060316
 30
0.0
 11
23.25
 21
-59.15925477060316
 31
0.0
  0
SPLINE
  5
1AF8A
330
1F
100
AcDbEntity
  8
AM_0
100
AcDbSpline
210
0.0
220
0.0
230
1.0
 70
     8
 71
     3
 72
    10
 73
     6
 74
     0
 42
0.0000000001
 43
0.0000000001
 40
3.38686741065608
 40
3.38686741065608
 40
3.38686741065608
 40
3.38686741065608
 40
3.986060856630359
 40
3.986060856630359
 40
4.60215087468809
 40
4.60215087468809
 40
4.60215087468809
 40
4.60215087468809
 10
22.33438402174647
 20
-59.15925477060316
 30
0.0
 10
22.50663378709203
 20
-59.19186794046369
 30
0.0
 10
22.66972900367182
 20
-59.23121321374544
 30
0.0
 10
22.97712144287567
 20
-59.32796774330908
 30
0.0
 10
23.1207823374973
 20
-59.38586930632463
 30
0.0
 10
23.25
 20
-59.4542493562471
 30
0.0
  0
SPLINE
  5
1AF8B
330
1F
100
AcDbEntity
  8
AM_0
100
AcDbSpline
210
0.0
220
0.0
230
1.0
 70
     8
 71
     3
 72
    14
 73
    10
 74
     0
 42
0.0000000001
 43
0.0000000001
 40
8.752839381010555
 40
8.752839381010555
 40
8.752839381010555
 40
8.752839381010555
 40
9.368929399068287
 40
9.368929399068287
 40
10.38182855298136
 40
10.38182855298136
 40
11.39472770689443
 40
11.39472770689443
 40
12.40762686080751
 40
12.40762686080751
 40
12.40762686080751
 40
12.40762686080751
 10
23.25
 20
-62.21581075926881
 30
0.0
 10
23.1207823374973
 20
-62.36147340937635
 30
0.0
 10
22.97712144287567
 20
-62.50073408757695
 30
0.0
 10
22.56508674493995
 20
-62.84473863464761
 30
0.0
 10
22.27578479267874
 20
-63.03366861344325
 30
0.0
 10
21.65500589390081
 20
-63.34144051693532
 30
0.0
 10
21.32298262592781
 20
-63.46040208721647
 30
0.0
 10
20.64458075224923
 20
-63.61789097690394
 30
0.0
 10
20.29818876957643
 20
-63.65634283770223
 30
0.0
 10
19.96055571827208
 20
-63.65634283770223
 30
0.0
  0
LINE
  5
1AF92
330
1F
100
AcDbEntity
  8
AM_0
100
AcDbLine
 10
6.048907401534166
 20
-64.57367884237769
 30
0.0
 11
0.4353879278991144
 21
-64.65899042509105
 31
0.0
  0
LINE
  5
1AF93
330
1F
100
AcDbEntity
  8
AM_0
100
AcDbLine
 10
0.4089852511913819
 20
-66.95226726386062
 30
0.0
 11
6.022504724826433
 21
-66.86695568114726
 31
0.0
  0
SPLINE
  5
1AF96
330
1F
100
AcDbEntity
  8
AM_0
100
AcDbSpline
210
0.0
220
0.0
230
1.0
 70
     8
 71
     3
 72
    24
 73
    20
 74
     0
 42
0.0000000001
 43
0.0000000001
 40
1.718139859471965
 40
1.718139859471965
 40
1.718139859471965
 40
1.718139859471965
 40
1.884052414188479
 40
1.884052414188479
 40
2.355282560552165
 40
2.355282560552165
 40
2.82651270691585
 40
2.82651270691585
 40
3.297687847217138
 40
3.297687847217138
 40
3.768862987518426
 40
3.768862987518426
 40
4.239972352107856
 40
4.239972352107856
 40
4.711081716697286
 40
4.711081716697286
 40
5.182377636081387
 40
5.182377636081387
 40
5.335461029586223
 40
5.335461029586223
 40
5.335461029586223
 40
5.335461029586223
 10
5.479499900763358
 20
-63.40155866081997
 30
0.0
 10
5.524868137521935
 20
-63.39546614451498
 30
0.0
 10
5.572056636568505
 20
-63.38968126218725
 30
0.0
 10
5.755972793907858
 20
-63.36892890940523
 30
0.0
 10
5.916698047178784
 20
-63.35461408048302
 30
0.0
 10
6.247180321078133
 20
-63.3340417321996
 30
0.0
 10
6.416941806151726
 20
-63.32792023898144
 30
0.0
 10
6.720001853745202
 20
-63.32672112752893
 30
0.0
 10
6.873550725135829
 20
-63.33158515123369
 30
0.0
 10
7.138033364980402
 20
-63.35574930884399
 30
0.0
 10
7.248966401013718
 20
-63.37519244178798
 30
0.0
 10
7.406013814311564
 20
-63.4224682237783
 30
0.0
 10
7.462540376362995
 20
-63.45343135450167
 30
0.0
 10
7.50601831032759
 20
-63.5219581692674
 30
0.0
 10
7.492977759759299
 20
-63.55938113709237
 30
0.0
 10
7.411802149067739
 20
-63.62736552183502
 30
0.0
 10
7.338222511442837
 20
-63.66244608073438
 30
0.0
 10
7.203819861147053
 20
-63.70152303532287
 30
0.0
 10
7.168044623841638
 20
-63.7105423861881
 30
0.0
 10
7.129998921861386
 20
-63.71884621082352
 30
0.0
  0
LINE
  5
1AF9F
330
1F
100
AcDbEntity
  8
AM_0
100
AcDbLine
 10
0.2917030430390355
 20
-66.93400184725758
 30
0.0
 11
0.0000934270611879
 21
-64.59119808447881
 31
0.0
  0
ELLIPSE
  5
1AFA0
330
1F
100
AcDbEntity
  8
AM_0
100
AcDbEllipse
 10
0.3999999893434278
 20
-64.58978766569638
 30
0.0
 11
-0.3999999890120635
 21
9.375686106679952E-5
 31
-2.233350071315222E-20
210
-5.583375024913629E-20
220
1.308699327186427E-23
230
1.0
 40
0.1736677590899333
 41
6.197278753121291
 42
7.942608005115635
  0
ELLIPSE
  5
1AFA1
330
1F
100
AcDbEntity
  8
AM_0
100
AcDbEllipse
 10
0.3994506129918136
 20
-66.93362183549795
 30
0.0
 11
0.1077727420905863
 21
-2.526108571135580E-5
 31
-6.065702249546565E-21
210
5.628233817415919E-20
220
-1.319213876415914E-23
230
1.0
 40
0.1736677590899333
 41
3.163247094105198
 42
4.801015351525828
  0
ELLIPSE
  5
1AFA6
330
1F
100
AcDbEntity
  8
AM_0
100
AcDbEllipse
 10
3.448644615878493
 20
-64.05963063060318
 30
0.0
 11
-1.249999965662698
 21
0.0002929901908337484
 31
2.507541395961320E-20
210
2.006033061663646E-20
220
-4.701984205607863E-24
230
1.0
 40
0.1736677590899333
 41
0.0013496576337071
 42
6.284534964813293
  0
ELLIPSE
  5
1AFA7
330
1F
100
AcDbEntity
  8
AM_0
100
AcDbEllipse
 10
6.244948339935604
 20
-63.57335549093343
 30
0.0
 11
-1.249999965662699
 21
0.000292990190833798
 31
2.507541395955157E-20
210
2.006033061658715E-20
220
-4.701984205597119E-24
230
1.0
 40
0.173667759089934
 41
5.371470433827824
 42
5.499147052323591
  0
LINE
  5
1AFA8
330
1F
100
AcDbEntity
  8
AM_0
100
AcDbLine
 10
4.999704053843004
 20
-63.48249261021146
 30
0.0
 11
5.359899635468651
 21
-63.41985486622965
 31
0.0
  0
LINE
  5
1AFAC
330
1F
100
AcDbEntity
  8
AM_0
100
AcDbLine
 10
6.867094244281702
 20
-63.77198157098126
 30
0.0
 11
6.897195099572116
 21
-63.53107148405228
 31
0.0
  0
ELLIPSE
  5
1AFAD
330
1F
100
AcDbEntity
  8
AM_0
100
AcDbEllipse
 10
6.497289242413501
 20
-63.52947359550995
 30
0.0
 11
-0.3999999890120635
 21
9.375686106679952E-5
 31
-2.233350071315222E-20
210
-5.583375024913629E-20
220
1.308699327186427E-23
230
1.0
 40
0.1736677590899333
 41
3.055686099531347
 42
4.801015351525843
  0
LINE
  5
1AFAE
330
1F
100
AcDbEntity
  8
AM_0
100
AcDbLine
 10
6.769593114075633
 20
-63.78991377113731
 30
0.0
 11
6.412042975268662
 21
-64.51052983595289
 31
0.0
  0
LINE
  5
1AFAF
330
1F
100
AcDbEntity
  8
AM_0
100
AcDbLine
 10
6.895812754703627
 20
-63.53552734847985
 30
0.0
 11
6.769801496961179
 21
-63.78949379072434
 31
0.0
  0
LINE
  5
1AFB0
330
1F
100
AcDbEntity
  8
AM_0
100
AcDbLine
 10
6.120345018844148
 20
-66.84994132672316
 30
0.0
 11
6.247621169734373
 21
-66.59342558516752
 31
0.0
  0
ELLIPSE
  5
1AFB1
330
1F
100
AcDbEntity
  8
AM_0
100
AcDbEllipse
 10
6.013519462978479
 20
-64.50447608298302
 30
0.0
 11
-0.3999999890120635
 21
9.375686106679952E-5
 31
-2.233350071315222E-20
210
-5.583375024913629E-20
220
1.308699327186427E-23
230
1.0
 40
0.1736677590899333
 41
1.659422697936049
 42
3.055686099531497
  0
ELLIPSE
  5
1AFB2
330
1F
100
AcDbEntity
  8
AM_0
100
AcDbEllipse
 10
6.012970086626865
 20
-66.84831025278459
 30
0.0
 11
0.1077727420905863
 21
-2.526108571135580E-5
 31
-6.065702249546565E-21
210
5.628233817415919E-20
220
-1.319213876415914E-23
230
1.0
 40
0.1736677590899333
 41
4.801015351525828
 42
6.197278753121235
  0
LINE
  5
1AFB3
330
1F
100
AcDbEntity
  8
AM_0
100
AcDbLine
 10
6.769593114257418
 20
-63.78991377077093
 30
0.0
 11
6.430868960758687
 21
-64.47258744380235
 31
0.0
  0
SPLINE
  5
1AFB4
330
1F
100
AcDbEntity
  8
AM_0
100
AcDbSpline
210
0.0
220
0.0
230
1.0
 70
    12
 71
     2
 72
     6
 73
     3
 74
     0
 42
0.0000000001
 43
0.0000000001
 40
1.291188363778215
 40
1.291188363778215
 40
1.291188363778215
 40
1.419010063692893
 40
1.419010063692893
 40
1.419010063692893
 10
6.249569437302512
 20
-66.83790709382359
 30
0.0
 41
1.000228349184135
 10
6.187522400691307
 20
-66.83884147561815
 30
0.0
 41
1.000237193699615
 10
6.125388205632021
 20
-66.83977715386246
 30
0.0
 41
1.000245551505596
  0
ELLIPSE
  5
1AFB5
330
1F
100
AcDbEntity
  8
AM_0
100
AcDbEllipse
 10
6.915154841440369
 20
-64.66957881692363
 30
0.0
 11
-0.118862334448592
 21
-7.768105143026382
 31
-2.220461243525029E-17
210
-4.372759506550838E-20
220
-2.857764469260556E-18
230
1.0
 40
0.0847927266970564
 41
4.867631577999187
 42
4.996576446107566
  0
ELLIPSE
  5
1AFB6
330
1F
100
AcDbEntity
  8
AM_0
100
AcDbEllipse
 10
6.88509395500256
 20
-64.75209862886624
 30
0.0
 11
-1.065392303614271
 21
-7.770553009362957
 31
-1.990253960852933E-16
210
-3.446879068445951E-18
220
-2.514018209757985E-17
230
1.0
 40
0.0622403225606055
 41
4.684945301494464
 42
4.864075646563748
  0
LINE
  5
1AFB8
330
1F
100
AcDbEntity
  8
AM_0
100
AcDbLine
 10
6.768785245421498
 20
-63.78967057949449
 30
0.0
 11
6.769593114203815
 21
-63.78991377120092
 31
0.0
  0
ELLIPSE
  5
1AFB9
330
1F
100
AcDbEntity
  8
AM_0
100
AcDbEllipse
 10
6.7722477021141
 20
-49.01760648398564
 30
0.0
 11
2.927478461968421
 21
14.74611551081821
 31
7.338527166143532E-17
210
-9.505161182905888E-19
220
-4.787881672674373E-18
230
1.0
 40
0.7169569249487623
 41
3.41140882872305
 42
3.444341557867709
  0
LINE
  5
1AFC4
330
1F
100
AcDbEntity
  8
AM_0
100
AcDbLine
 10
17.38284798807104
 20
-59.15925477060316
 30
0.0
 11
19.96055571827208
 21
-59.15925477060316
 31
0.0
  0
LINE
  5
1AFC7
330
1F
100
AcDbEntity
  8
AM_0
100
AcDbLine
 10
19.96055571827208
 20
-59.15925477060316
 30
0.0
 11
22.33438402174647
 21
-59.15925477060316
 31
0.0
  0
LINE
  5
1AFF7
330
1F
100
AcDbEntity
  8
AM_0
100
AcDbLine
 10
23.5
 20
-70.65925477060318
 30
0.0
 11
23.5
 21
-61.9338540005804
 31
0.0
  0
LINE
  5
1AFF8
330
1F
100
AcDbEntity
  8
AM_0
100
AcDbLine
 10
23.25
 20
-70.40925477060318
 30
0.0
 11
23.25
 21
-62.21581075926881
 31
0.0
  0
LINE
  5
1AFF9
330
1F
100
AcDbEntity
  8
AM_0
100
AcDbLine
 10
23.25
 20
-70.40925477060318
 30
0.0
 11
23.5
 21
-70.65925477060318
 31
0.0
  0
LINE
  5
1AFFA
330
1F
100
AcDbEntity
  8
AM_0
100
AcDbLine
 10
23.50000000000006
 20
-70.65925477060316
 30
0.0
 11
25.00000000000011
 21
-70.65925477060316
 31
0.0
  0
LINE
  5
1AFFB
330
1F
100
AcDbEntity
  8
AM_0
100
AcDbLine
 10
25.00000000000011
 20
-70.15925477060316
 30
0.0
 11
25.00000000000011
 21
-70.65925477060316
 31
0.0
  0
LINE
  5
1AFFC
330
1F
100
AcDbEntity
  8
AM_0
100
AcDbLine
 10
23.25
 20
-59.4542493562471
 30
0.0
 11
23.25
 21
-59.15925477060319
 31
0.0
  0
SPLINE
  5
1AFFD
330
1F
100
AcDbEntity
  8
AM_0
100
AcDbSpline
210
0.0
220
0.0
230
1.0
 70
    28
 71
     2
 72
     6
 73
     3
 74
     0
 42
0.0000000001
 43
0.0000000001
 40
0.0
 40
0.0
 40
0.0
 40
0.7632067745941114
 40
0.7632067745941114
 40
0.7632067745941114
 10
23.25
 20
-59.15925477060316
 30
0.0
 41
1.0
 10
23.3528874030244
 20
-59.15925477060313
 30
0.0
 41
1.001887252317923
 10
23.5
 20
-59.15925477060316
 30
0.0
 41
1.0
  0
LINE
  5
1AFFE
330
1F
100
AcDbEntity
  8
AM_0
100
AcDbLine
 10
23.5
 20
-59.31395864758424
 30
0.0
 11
23.5
 21
-59.15925477060316
 31
0.0
  0
SPLINE
  5
1AFFF
330
1F
100
AcDbEntity
  8
AM_0
100
AcDbSpline
210
0.0
220
0.0
230
1.0
 70
     8
 71
     3
 72
    10
 73
     6
 74
     0
 42
0.0000000001
 43
0.0000000001
 40
1.383235906571971
 40
1.383235906571971
 40
1.383235906571971
 40
1.383235906571971
 40
1.514436016228508
 40
1.514436016228508
 40
1.768728238182614
 40
1.768728238182614
 40
1.768728238182614
 40
1.768728238182614
 10
23.25
 20
-59.4542493562471
 30
0.0
 10
23.27970443857413
 20
-59.4355965511505
 30
0.0
 10
23.30900645420877
 20
-59.41782685904662
 30
0.0
 10
23.39375107070566
 20
-59.36836530084313
 30
0.0
 10
23.44792778430667
 20
-59.33925927914144
 30
0.0
 10
23.5
 20
-59.31395864758424
 30
0.0
  0
SPLINE
  5
1B000
330
1F
100
AcDbEntity
  8
AM_0
100
AcDbSpline
210
0.0
220
0.0
230
1.0
 70
     8
 71
     3
 72
    18
 73
    14
 74
     0
 42
0.0000000001
 43
0.0000000001
 40
1.389390615473358
 40
1.389390615473358
 40
1.389390615473358
 40
1.389390615473358
 40
1.678431935873381
 40
1.678431935873381
 40
2.517647903810072
 40
2.517647903810072
 40
3.356863871746763
 40
3.356863871746763
 40
4.196079839683454
 40
4.196079839683454
 40
5.035295807620146
 40
5.035295807620146
 40
5.324337128020174
 40
5.324337128020174
 40
5.324337128020174
 40
5.324337128020174
 10
23.5
 20
-59.31395864758424
 30
0.0
 10
23.55605419308142
 20
-59.35148418541065
 30
0.0
 10
23.60866232221247
 20
-59.39151111431463
 30
0.0
 10
23.79936008622337
 20
-59.55759631161065
 30
0.0
 10
23.90967376646665
 20
-59.70315344403839
 30
0.0
 10
24.05714065068514
 20
-60.03373311548015
 30
0.0
 10
24.09433064158668
 20
-60.21880898288107
 30
0.0
 10
24.09433064158668
 20
-60.61441918408645
 30
0.0
 10
24.05714065068514
 20
-60.8278153773085
 30
0.0
 10
23.90967376646665
 20
-61.26625639775987
 30
0.0
 10
23.79936008622337
 20
-61.49124863895469
 30
0.0
 10
23.60866232221247
 20
-61.78551740584619
 30
0.0
 10
23.55605419308142
 20
-61.86025560945053
 30
0.0
 10
23.5
 20
-61.93385400058038
 30
0.0
  0
SPLINE
  5
1B001
330
1F
100
AcDbEntity
  8
AM_0
100
AcDbSpline
210
0.0
220
0.0
230
1.0
 70
     8
 71
     3
 72
    10
 73
     6
 74
     0
 42
0.0000000001
 43
0.0000000001
 40
6.566501048431808
 40
6.566501048431808
 40
6.566501048431808
 40
6.566501048431808
 40
6.820793270385913
 40
6.820793270385913
 40
6.951993380042448
 40
6.951993380042448
 40
6.951993380042448
 40
6.951993380042448
 10
23.5
 20
-61.93385400058038
 30
0.0
 10
23.44792778430667
 20
-61.99886973270191
 30
0.0
 10
23.39375107070566
 20
-62.06224588694386
 30
0.0
 10
23.30900645420877
 20
-62.15477226832477
 30
0.0
 10
23.27970443857413
 20
-62.18564327029075
 30
0.0
 10
23.25
 20
-62.21581075926881
 30
0.0
  0
LINE
  5
1B01A
330
1F
100
AcDbEntity
  8
AM_0
100
AcDbLine
 10
41.96055571885182
 20
14.08693892622633
 30
0.0
 11
23.5
 21
14.08693892622634
 31
0.0
  0
LINE
  5
1B01B
330
1F
100
AcDbEntity
  8
AM_0
100
AcDbLine
 10
23.5
 20
14.86835572572749
 30
0.0
 11
41.96055571885182
 21
14.86835572572749
 31
0.0
  0
SPLINE
  5
1B01E
330
1F
100
AcDbEntity
  8
AM_0
100
AcDbSpline
210
0.0
220
0.0
230
1.0
 70
     8
 71
     3
 72
    38
 73
    34
 74
     0
 42
0.0000000001
 43
0.0000000001
 40
-6.85358074113212
 40
-6.85358074113212
 40
-6.85358074113212
 40
-6.85358074113212
 40
-6.425067873996742
 40
-6.425067873996742
 40
-5.996555006861365
 40
-5.996555006861365
 40
-5.568042139725987
 40
-5.568042139725987
 40
-5.139529272590609
 40
-5.139529272590609
 40
-4.711344547084464
 40
-4.711344547084464
 40
-4.283159821578318
 40
-4.283159821578318
 40
-3.854975096072172
 40
-3.854975096072172
 40
-3.426790370566026
 40
-3.426790370566026
 40
-2.998605645059881
 40
-2.998605645059881
 40
-2.570420919553737
 40
-2.570420919553737
 40
-2.142236194047593
 40
-2.142236194047593
 40
-1.714051468541447
 40
-1.714051468541447
 40
-1.285538601406085
 40
-1.285538601406085
 40
-0.8570257342707226
 40
-0.8570257342707226
 40
-0.4285128671353622
 40
-0.4285128671353622
 40
0.0
 40
0.0
 40
0.0
 40
0.0
 10
41.96055571885188
 20
14.86835572572746
 30
0.0
 10
42.10339334123034
 20
14.86835572572746
 30
0.0
 10
42.25059961601028
 20
14.87152676188173
 30
0.0
 10
42.54245982664594
 20
14.88397702086771
 30
0.0
 10
42.6871193318018
 20
14.89323391681341
 30
0.0
 10
42.96380526597216
 20
14.91509515638372
 30
0.0
 10
43.09607865331316
 20
14.92766978114059
 30
0.0
 10
43.34037621610196
 20
14.95213290124206
 30
0.0
 10
43.45240170717489
 20
14.96396515429779
 30
0.0
 10
43.65061432431594
 20
14.98322812211821
 30
0.0
 10
43.74380872963212
 20
14.99138861079896
 30
0.0
 10
43.90852449952899
 20
15.00054740371774
 30
0.0
 10
43.98005840569556
 20
15.00150010003011
 30
0.0
 10
44.095313220435
 20
14.99314303023819
 30
0.0
 10
44.13912569658459
 20
14.98379356877273
 30
0.0
 10
44.19675531656048
 20
14.95404447294177
 30
0.0
 10
44.21055571885188
 20
14.93363101716954
 30
0.0
 10
44.21055571885188
 20
14.88406201897691
 30
0.0
 10
44.19675531656048
 20
14.8533645540107
 30
0.0
 10
44.13912569658453
 20
14.78174547307074
 30
0.0
 10
44.09531322043495
 20
14.74083619471153
 30
0.0
 10
43.98005840569556
 20
14.65306230860102
 30
0.0
 10
43.90852449952899
 20
14.60615219116266
 30
0.0
 10
43.74380872963207
 20
14.51214301923786
 30
0.0
 10
43.65061432431594
 20
14.4650890803758
 30
0.0
 10
43.45240170717489
 20
14.37698759304106
 30
0.0
 10
43.3403762161019
 20
14.3327859735736
 30
0.0
 10
43.0960786533131
 20
14.25112898172258
 30
0.0
 10
42.96380526597204
 20
14.21372435896429
 30
0.0
 10
42.6871193318018
 20
14.15185077928063
 30
0.0
 10
42.54245982664588
 20
14.12737981910532
 30
0.0
 10
42.25059961601028
 20
14.09490960725386
 30
0.0
 10
42.10339334123034
 20
14.08693892622633
 30
0.0
 10
41.96055571885188
 20
14.08693892622633
 30
0.0
  0
LINE
  5
1B021
330
1F
100
AcDbEntity
  8
AM_0
100
AcDbLine
 10
150.0
 20
-69.65925477060316
 30
0.0
 11
150.0
 21
-59.65925477060321
 31
0.0
  0
LINE
  5
1B022
330
1F
100
AcDbEntity
  8
AM_0
100
AcDbLine
 10
149.0
 20
-70.15925477060321
 30
0.0
 11
149.0
 21
-59.15925477060318
 31
0.0
  0
LINE
  5
1B023
330
1F
100
AcDbEntity
  8
AM_0
100
AcDbLine
 10
150.0
 20
-69.65925477060316
 30
0.0
 11
149.5
 21
-70.15925477060318
 31
0.0
  0
SPLINE
  5
1B024
330
1F
100
AcDbEntity
  8
AM_0
100
AcDbSpline
210
0.0
220
0.0
230
1.0
 70
    28
 71
     2
 72
     6
 73
     3
 74
     0
 42
0.0000000001
 43
0.0000000001
 40
0.0
 40
0.0
 40
0.0
 40
2.449489742783089
 40
2.449489742783089
 40
2.449489742783089
 10
149.0
 20
-70.15925477060318
 30
0.0
 41
1.0
 10
149.4999999999997
 20
-70.15925477060318
 30
0.0
 41
1.045454545454537
 10
149.5000000000001
 20
-70.15925477060318
 30
0.0
 41
1.045454545454537
  0
LINE
  5
1B025
330
1F
100
AcDbEntity
  8
AM_0
100
AcDbLine
 10
150.0
 20
-59.65925477060321
 30
0.0
 11
149.5
 21
-59.15925477060318
 31
0.0
  0
SPLINE
  5
1B026
330
1F
100
AcDbEntity
  8
AM_0
100
AcDbSpline
210
0.0
220
0.0
230
1.0
 70
    28
 71
     2
 72
     6
 73
     3
 74
     0
 42
0.0000000001
 43
0.0000000001
 40
0.0
 40
0.0
 40
0.0
 40
2.449489742783103
 40
2.449489742783103
 40
2.449489742783103
 10
149.0
 20
-59.15925477060318
 30
0.0
 41
1.0
 10
149.5000000000001
 20
-59.15925477060318
 30
0.0
 41
1.045454545454537
 10
149.5000000000001
 20
-59.15925477060318
 30
0.0
 41
1.045454545454537
  0
LINE
  5
1B7AE
330
1F
100
AcDbEntity
  8
AM_5
100
AcDbLine
 10
0.0
 20
0.393905684911573
 30
0.0
 11
0.0
 21
-1.283263316160088
 31
0.0
  0
LINE
  5
1B7B3
330
1F
100
AcDbEntity
  8
AM_5
100
AcDbLine
 10
-1.814815841909422
 20
0.0
 30
0.0
 11
0.3999837067995031
 21
0.0
 31
0.0
  0
CIRCLE
  5
1B9B0
330
1F
100
AcDbEntity
  8
AM_11
  6
ACJISTGB
100
AcDbCircle
 10
-44.54878618810346
 20
8.125000000000028
 30
0.0
 40
8.0
  0
DIMENSION
  5
1B9BD
330
1F
100
AcDbEntity
  8
AM_5
100
AcDbDimension
  2
*D5
 10
-39.70297010254552
 20
1.759619692041319
 30
0.0
 11
-68.92026820938887
 21
23.47765445928492
 31
0.0
 70
   163
  1
最小加工径\P<>
 71
     5
 42
15.99999999999995
  3
AM_JIS$3
100
AcDbDiametricDimension
 15
-49.39460227366118
 25
14.49038030795875
 35
0.0
 40
0.0
1001
GENIUS_GENDTOL_13
1000

1000
h7
1000

1040
0.0
1001
ACAD
1000
DSTYLE
1002
{
1070
   271
1070
     0
1070
   288
1070
     1
1070
   289
1070
     3
1070
   172
1070
     1
1070
    74
1070
     1
1002
}
  0
LINE
  5
1C60D
330
1F
100
AcDbEntity
  8
AM_0
100
AcDbLine
 10
0.001476477053302
 20
-64.5837339127265
 30
0.0
 11
0.485246256488324
 21
-63.60873142525343
 31
0.0
  0
ELLIPSE
  5
1C82A
330
1F
100
AcDbEntity
  8
AM_0
100
AcDbEllipse
 10
0.9915663465567377
 20
-64.65925477060316
 30
0.0
 11
-1.838015698682658E-14
 21
-8.286329619282265
 31
-3.243425800098267E-30
210
-8.682179761300215E-46
220
-3.914188729049379E-31
230
1.0
 40
0.0874912265222797
 41
4.99096403481312
 42
5.415182706005384
  0
LINE
  5
1C82E
330
1F
100
AcDbEntity
  8
AM_0
100
AcDbLine
 10
3.169544700082611
 20
-62.70619580046456
 30
0.0
 11
1.084604208764631
 21
-62.9179837994155
 31
0.0
  0
LINE
  5
1C82F
330
1F
100
AcDbEntity
  8
AM_0
100
AcDbLine
 10
0.7726356308912159
 20
-63.54673357331725
 30
0.0
 11
4.999704053842947
 21
-63.48249261021143
 31
0.0
  0
LINE
  5
1C830
330
1F
100
AcDbEntity
  8
AM_0
100
AcDbLine
 10
0.8483818302228201
 20
-63.54558241882864
 30
0.0
 11
6.461901303857871
 21
-63.46027083611528
 31
0.0
  0
LINE
  5
1C831
330
1F
100
AcDbEntity
  8
AM_0
100
AcDbLine
 10
1.084604208764631
 20
-62.9179837994155
 30
0.0
 11
0.7726356308911591
 21
-63.54673357331725
 31
0.0
  0
ELLIPSE
  5
1C832
330
1F
100
AcDbEntity
  8
AM_0
100
AcDbEllipse
 10
0.8837697687785067
 20
-63.61478517822331
 30
0.0
 11
-0.3999999890120635
 21
9.375686106679952E-5
 31
-8.576815202256851E-21
210
-2.144203741663276E-20
220
5.025845445710064E-24
230
1.0
 40
0.1736677590899333
 41
4.801015351525913
 42
6.197278753121291
  0
SPLINE
  5
1C833
330
1F
100
AcDbEntity
  8
AM_0
100
AcDbSpline
210
0.0
220
0.0
230
1.0
 70
     8
 71
     3
 72
    16
 73
    12
 74
     0
 42
0.0000000001
 43
0.0000000001
 40
1.469999924466196
 40
1.469999924466196
 40
1.469999924466196
 40
1.469999924466196
 40
2.637478518841042
 40
2.637478518841042
 40
5.274957037682083
 40
5.274957037682083
 40
7.912435556523125
 40
7.912435556523125
 40
9.231174815943646
 40
9.231174815943646
 40
9.603181290460645
 40
9.603181290460645
 40
9.603181290460645
 40
9.603181290460645
 10
12.14447945919869
 20
-60.82367151482075
 30
0.0
 10
11.78306796113162
 20
-60.98535925048744
 30
0.0
 10
11.4121962249319
 20
-61.13483416180923
 30
0.0
 10
10.17906765646626
 20
-61.58460101805314
 30
0.0
 10
9.286176205213963
 20
-61.83789620307612
 30
0.0
 10
7.468993972589374
 20
-62.23852797653705
 30
0.0
 10
6.544706172720339
 20
-62.38583970042003
 30
0.0
 10
5.168929459059996
 20
-62.53262894661076
 30
0.0
 10
4.712091790529826
 20
-62.56916478217615
 30
0.0
 10
4.132447607026279
 20
-62.60036540762743
 30
0.0
 10
4.00528795238688
 20
-62.60625848200805
 30
0.0
 10
3.878573233630277
 20
-62.61118195408371
 30
0.0
  0
ELLIPSE
  5
1C834
330
1F
100
AcDbEntity
  8
AM_0
100
AcDbEllipse
 10
2.031102528947145
 20
-47.59038561555891
 30
0.0
 11
-0.04882312457817588
 21
15.17280186349571
 31
-6.074719443830809E-18
210
-1.288296198281008E-21
220
4.003648501994917E-19
230
1.0
 40
0.8561752828176925
 41
3.225582256617674
 42
3.280533327757525
  0
ELLIPSE
  5
1C835
330
1F
100
AcDbEntity
  8
AM_0
100
AcDbEllipse
 10
11.42640585704191
 20
-59.15925477060312
 30
0.0
 11
9.343492165840663
 21
4.184930268123244
 31
-2.566647838213209E-17
210
2.287990392259271E-18
220
1.024786030296789E-18
230
1.0
 40
0.1770423981719481
 41
4.709945108385544
 42
4.743817700877093
  0
ELLIPSE
  5
1C836
330
1F
100
AcDbEntity
  8
AM_0
100
AcDbEllipse
 10
12.26683162325367
 20
-58.79690696713957
 30
0.0
 11
3.948760736275284
 21
2.111148716142571
 31
1.162789499157795E-16
210
-2.290102406052960E-17
220
-1.224370651267710E-17
230
1.0
 40
0.3966191245105823
 41
4.551448088151808
 42
5.20870585279005
  0
LINE
  5
1C837
330
1F
100
AcDbEntity
  8
AM_0
100
AcDbLine
 10
14.9296634861023
 20
-59.15925477060316
 30
0.0
 11
17.38284798807104
 21
-59.15925477060316
 31
0.0
  0
ELLIPSE
  5
1C838
330
1F
100
AcDbEntity
  8
AM_0
100
AcDbEllipse
 10
6.179094658174904
 20
-64.65925477060313
 30
0.0
 11
-11.93890665635196
 21
-5.347410898157479
 31
-1.639278245683257E-17
210
-1.143629255136883E-18
220
-5.122291109560716E-19
230
1.0
 40
0.1770423981719481
 41
3.813981214240707
 42
3.819611744531801
  0
ARC
  5
1CC6B
330
1F
100
AcDbEntity
  8
AM_0
100
AcDbCircle
 10
-44.54878618810346
 20
8.999999999999972
 30
0.0
 40
6.000000000000023
100
AcDbArc
 50
23.55646430910137
 51
57.9756871629584
  0
SPLINE
  5
1CC6C
330
1F
100
AcDbEntity
  8
AM_0
100
AcDbSpline
210
0.0
220
0.0
230
1.0
 70
     8
 71
     3
 72
    34
 73
    30
 74
     0
 42
0.0000000001
 43
0.0000000001
 40
0.9473633948911291
 40
0.9473633948911291
 40
0.9473633948911291
 40
0.9473633948911291
 40
1.960262548804151
 40
1.960262548804151
 40
2.973161702717173
 40
2.973161702717173
 40
3.986060856630195
 40
3.986060856630195
 40
4.998960010543216
 40
4.998960010543216
 40
5.418593789869656
 40
5.418593789869656
 40
5.838227569196096
 40
5.838227569196096
 40
6.257861348522536
 40
6.257861348522536
 40
6.677495127848976
 40
6.677495127848976
 40
7.097128907175417
 40
7.097128907175417
 40
7.516762686501857
 40
7.516762686501857
 40
7.936396465828297
 40
7.936396465828297
 40
8.356030245154738
 40
8.356030245154738
 40
9.36892939906776
 40
9.36892939906776
 40
9.910896950678165
 40
9.910896950678165
 40
9.910896950678165
 40
9.910896950678165
 10
-43.54587425520253
 20
14.66186079437188
 30
0.0
 10
-43.54587425520253
 20
14.66186079437188
 30
0.0
 10
-43.50742239440433
 20
14.65548465636607
 30
0.0
 10
-43.34993350471677
 20
14.62420639152146
 30
0.0
 10
-43.23097193443573
 20
14.59921457130284
 30
0.0
 10
-42.92320003094369
 20
14.51772718539587
 30
0.0
 10
-42.73427005214808
 20
14.46097864712022
 30
0.0
 10
-42.30646866382017
 20
14.29969515395539
 30
0.0
 10
-42.06778441081031
 20
14.1950520159252
 30
0.0
 10
-41.71265963709982
 20
14.0032852619805
 30
0.0
 10
-41.601876850287
 20
13.93926210256061
 30
0.0
 10
-41.37418870200781
 20
13.79609378229529
 30
0.0
 10
-41.25729748664128
 20
13.71692181250362
 30
0.0
 10
-41.02523964241755
 20
13.54619292176074
 30
0.0
 10
-40.90994826608539
 20
13.45451898132632
 30
0.0
 10
-40.68824238651393
 20
13.26381077635205
 30
0.0
 10
-40.58183082660651
 20
13.1647726221483
 30
0.0
 10
-40.38401356595534
 20
12.96695536149722
 30
0.0
 10
-40.28497541175159
 20
12.86054380158976
 30
0.0
 10
-40.09426720677732
 20
12.63883792201833
 30
0.0
 10
-40.00259326634296
 20
12.52354654568606
 30
0.0
 10
-39.83186437560005
 20
12.29148870146239
 30
0.0
 10
-39.75269240580838
 20
12.17459748609591
 30
0.0
 10
-39.60952408554306
 20
11.94690933781664
 30
0.0
 10
-39.54550092612317
 20
11.83612655100391
 30
0.0
 10
-39.35373417217841
 20
11.48100177729342
 30
0.0
 10
-39.24909103414825
 20
11.24231752428359
 30
0.0
 10
-39.12530065842134
 20
10.91396591459074
 30
0.0
 10
-39.08899029720965
 20
10.8065969816702
 30
0.0
 10
-39.05831600723627
 20
10.70799215250199
 30
0.0
  0
SPLINE
  5
1CC6D
330
1F
100
AcDbEntity
  8
AM_0
100
AcDbSpline
210
0.0
220
0.0
230
1.0
 70
     8
 71
     3
 72
    16
 73
    12
 74
     0
 42
0.0000000001
 43
0.0000000001
 40
1.469999924466196
 40
1.469999924466196
 40
1.469999924466196
 40
1.469999924466196
 40
2.637478518841042
 40
2.637478518841042
 40
5.274957037682083
 40
5.274957037682083
 40
7.912435556523125
 40
7.912435556523125
 40
9.231174815943646
 40
9.231174815943646
 40
9.603181290460645
 40
9.603181290460645
 40
9.603181290460645
 40
9.603181290460645
 10
-40.71320293232111
 20
10.31912486415036
 30
0.0
 10
-40.87489066798776
 20
10.38349315208863
 30
0.0
 10
-41.02436557930957
 20
10.45382634717559
 30
0.0
 10
-41.47413243555343
 20
10.69311101526521
 30
0.0
 10
-41.72742762057646
 20
10.87469811260892
 30
0.0
 10
-42.12805939403734
 20
11.2081912899719
 30
0.0
 10
-42.27537111792037
 20
11.35989924819905
 30
0.0
 10
-42.42216036411105
 20
11.52080254660266
 30
0.0
 10
-42.45869619967652
 20
11.56334681074657
 30
0.0
 10
-42.48989682512774
 20
11.60019475789765
 30
0.0
 10
-42.4957898995084
 20
11.60721167176474
 30
0.0
 10
-42.50071337158408
 20
11.61309876859722
 30
0.0
  0
ELLIPSE
  5
1CC6E
330
1F
100
AcDbEntity
  8
AM_0
100
AcDbEllipse
 10
-27.47991703305922
 20
10.54646105994488
 30
0.0
 11
15.17285864605162
 21
-0.009958482611535504
 31
-3.282118818867853E-17
210
2.163150320961099E-18
220
-1.419751897776643E-21
230
1.0
 40
0.4943142354783805
 41
3.000221416764968
 42
3.055172487904819
  0
ARC
  5
1CC6F
330
1F
100
AcDbEntity
  8
AM_0
100
AcDbCircle
 10
-44.54878618810346
 20
7.5
 30
0.0
 40
7.25
100
AcDbArc
 50
90.0
 51
159.8287286535353
  0
LINE
  5
1CC70
330
1F
100
AcDbEntity
  8
AM_0
100
AcDbLine
 10
23.5
 20
11.39791576165637
 30
0.0
 11
23.5
 21
14.08693892622631
 31
0.0
  0
LINE
  5
1CC71
330
1F
100
AcDbEntity
  8
AM_0
100
AcDbLine
 10
23.25
 20
10.67705098312487
 30
0.0
 11
23.25
 21
13.82040440760664
 31
0.0
  0
SPLINE
  5
1CC72
330
1F
100
AcDbEntity
  8
AM_0
100
AcDbSpline
210
0.0
220
0.0
230
1.0
 70
     8
 71
     3
 72
    34
 73
    30
 74
     0
 42
0.0000000001
 43
0.0000000001
 40
0.9473633948911291
 40
0.9473633948911291
 40
0.9473633948911291
 40
0.9473633948911291
 40
1.960262548804151
 40
1.960262548804151
 40
2.973161702717173
 40
2.973161702717173
 40
3.986060856630195
 40
3.986060856630195
 40
4.998960010543216
 40
4.998960010543216
 40
5.418593789869656
 40
5.418593789869656
 40
5.838227569196096
 40
5.838227569196096
 40
6.257861348522536
 40
6.257861348522536
 40
6.677495127848976
 40
6.677495127848976
 40
7.097128907175417
 40
7.097128907175417
 40
7.516762686501857
 40
7.516762686501857
 40
7.936396465828297
 40
7.936396465828297
 40
8.356030245154738
 40
8.356030245154738
 40
9.36892939906776
 40
9.36892939906776
 40
9.910896950678165
 40
9.910896950678165
 40
9.910896950678165
 40
9.910896950678165
 10
12.46055571827208
 20
14.66186079437182
 30
0.0
 10
12.79818876957643
 20
14.66186079437182
 30
0.0
 10
13.14458075224923
 20
14.65548465636601
 30
0.0
 10
13.82298262592769
 20
14.62420639152139
 30
0.0
 10
14.15500589390075
 20
14.59921457130278
 30
0.0
 10
14.77578479267862
 20
14.51772718539581
 30
0.0
 10
15.06508674493978
 20
14.46097864712015
 30
0.0
 10
15.57748990157586
 20
14.29969515395532
 30
0.0
 10
15.80071327977043
 20
14.19505201592514
 30
0.0
 10
16.05591641659873
 20
14.00328526198043
 30
0.0
 10
16.12651703276958
 20
13.93926210256054
 30
0.0
 10
16.25120084322771
 20
13.79609378229523
 30
0.0
 10
16.30527908476051
 20
13.71692181250355
 30
0.0
 10
16.39203319738272
 20
13.54619292176067
 30
0.0
 10
16.42475593812338
 20
13.45451898132626
 30
0.0
 10
16.46753186005583
 20
13.26381077635199
 30
0.0
 10
16.47758295493571
 20
13.16477262214823
 30
0.0
 10
16.47758295493571
 20
12.96695536149715
 30
0.0
 10
16.46753186005583
 20
12.8605438015897
 30
0.0
 10
16.42475593812338
 20
12.63883792201827
 30
0.0
 10
16.39203319738272
 20
12.523546545686
 30
0.0
 10
16.30527908476051
 20
12.29148870146232
 30
0.0
 10
16.25120084322771
 20
12.17459748609585
 30
0.0
 10
16.12651703276958
 20
11.94690933781657
 30
0.0
 10
16.05591641659873
 20
11.83612655100384
 30
0.0
 10
15.80071327977043
 20
11.48100177729335
 30
0.0
 10
15.57748990157586
 20
11.24231752428351
 30
0.0
 10
15.18420365734289
 20
10.91396591459067
 30
0.0
 10
15.03768581389397
 20
10.80659698167013
 30
0.0
 10
14.88348486850714
 20
10.70799215250192
 30
0.0
  0
SPLINE
  5
1CC73
330
1F
100
AcDbEntity
  8
AM_0
100
AcDbSpline
210
0.0
220
0.0
230
1.0
 70
     8
 71
     3
 72
    16
 73
    12
 74
     0
 42
0.0000000001
 43
0.0000000001
 40
1.469999924466196
 40
1.469999924466196
 40
1.469999924466196
 40
1.469999924466196
 40
2.637478518841042
 40
2.637478518841042
 40
5.274957037682083
 40
5.274957037682083
 40
7.912435556523125
 40
7.912435556523125
 40
9.231174815943646
 40
9.231174815943646
 40
9.603181290460645
 40
9.603181290460645
 40
9.603181290460645
 40
9.603181290460645
 10
12.14447945919869
 20
10.31912486415029
 30
0.0
 10
11.78306796113162
 20
10.38349315208856
 30
0.0
 10
11.4121962249319
 20
10.45382634717551
 30
0.0
 10
10.17906765646626
 20
10.69311101526514
 30
0.0
 10
9.286176205213963
 20
10.87469811260885
 30
0.0
 10
7.468993972589374
 20
11.20819128997183
 30
0.0
 10
6.544706172720339
 20
11.35989924819898
 30
0.0
 10
5.168929459059996
 20
11.52080254660259
 30
0.0
 10
4.712091790529826
 20
11.5633468107465
 30
0.0
 10
4.132447607026279
 20
11.60019475789758
 30
0.0
 10
4.00528795238688
 20
11.60721167176467
 30
0.0
 10
3.878573233630277
 20
11.61309876859715
 30
0.0
  0
LINE
  5
1CC74
330
1F
100
AcDbEntity
  8
AM_0
100
AcDbLine
 10
3.87857323362266
 20
11.61309876860917
 30
0.0
 11
3.169544700116376
 21
11.20374095392619
 31
0.0
  0
LINE
  5
1CC75
330
1F
100
AcDbEntity
  8
AM_0
100
AcDbLine
 10
-46.84186990651028
 20
0.7011159240718783
 30
0.0
 11
-44.54878619243516
 21
0.0000000008501289
 31
0.0
  0
LINE
  5
1CC76
330
1F
100
AcDbEntity
  8
AM_0
100
AcDbLine
 10
-44.82473593067311
 20
6.381904193687099
 30
0.0
 11
-45.80930397692384
 21
6.556932167773034
 31
0.0
  0
LINE
  5
1CC77
330
1F
100
AcDbEntity
  8
AM_0
100
AcDbLine
 10
-51.35411498251165
 20
10.00000000000001
 30
0.0
 11
-42.80751521691582
 21
10.00000000000001
 31
0.0
  0
LINE
  5
1CC78
330
1F
100
AcDbEntity
  8
AM_0
100
AcDbLine
 10
-45.84651969278912
 20
6.345871354986919
 30
0.0
 11
-46.82152218026226
 21
0.8163574735494379
 31
0.0
  0
LINE
  5
1CC79
330
1F
100
AcDbEntity
  8
AM_0
100
AcDbLine
 10
-45.80930397692566
 20
6.556932167773347
 30
0.0
 11
-46.81708602552567
 21
0.8415161572567129
 31
0.0
  0
ARC
  5
1CC7A
330
1F
100
AcDbEntity
  8
AM_0
100
AcDbCircle
 10
-44.54878618810346
 20
7.5
 30
0.0
 40
7.25
100
AcDbArc
 50
159.8287286535353
 51
222.3755706281355
  0
ELLIPSE
  5
1CC7B
330
1F
100
AcDbEntity
  8
AM_0
100
AcDbEllipse
 10
-44.54878618810346
 20
8.936572368825928
 30
0.0
 11
-1.380650149672391E-13
 21
-8.286572368825592
 31
-6.302898832391417E-18
210
-1.267284507342008E-32
220
-7.606159159489354E-19
230
1.0
 40
0.9999707056751069
 41
5.580391581558922
 42
6.008538919808927
  0
LINE
  5
1CC7C
330
1F
100
AcDbEntity
  8
AM_0
100
AcDbLine
 10
-46.84179868256342
 20
0.7015324770739895
 30
0.0
 11
-46.81746893080629
 21
0.8416251494778138
 31
0.0
  0
ELLIPSE
  5
1CC7D
330
1F
100
AcDbEntity
  8
AM_0
100
AcDbEllipse
 10
-46.82315325420075
 20
0.8072509865764417
 30
0.0
 11
0.01871665162262952
 21
0.1061350626696174
 31
-1.324610496467211E-20
210
2.134511305321676E-20
220
1.210400747564351E-19
230
1.0
 40
0.0002308303998509
 41
3.053006988809818
 42
4.798336240804041
  0
LINE
  5
1CC7E
330
1F
100
AcDbEntity
  8
AM_0
100
AcDbLine
 10
-44.47326533142928
 20
0.4277205694332125
 30
0.0
 11
-43.49826284395624
 21
5.95723445087075
 31
0.0
  0
SPLINE
  5
1CC7F
330
1F
100
AcDbEntity
  8
AM_0
100
AcDbSpline
210
0.0
220
0.0
230
1.0
 70
     8
 71
     3
 72
    18
 73
    14
 74
     0
 42
0.0000000001
 43
0.0000000001
 40
1.389390615473358
 40
1.389390615473358
 40
1.389390615473358
 40
1.389390615473358
 40
1.678431935873381
 40
1.678431935873381
 40
2.517647903810072
 40
2.517647903810072
 40
3.356863871746763
 40
3.356863871746763
 40
4.196079839683454
 40
4.196079839683454
 40
5.035295807620146
 40
5.035295807620146
 40
5.324337128020174
 40
5.324337128020174
 40
5.324337128020174
 40
5.324337128020174
 10
-39.20349006508457
 20
6.274599229977532
 30
0.0
 10
-39.24101560291092
 20
6.201000838847683
 30
0.0
 10
-39.28104253181493
 20
6.126262635243315
 30
0.0
 10
-39.447127729111
 20
5.831993868351823
 30
0.0
 10
-39.59268486153871
 20
5.607001627157025
 30
0.0
 10
-39.92326453298051
 20
5.168560606705604
 30
0.0
 10
-40.10834040038139
 20
4.955164413483551
 30
0.0
 10
-40.50395060158678
 20
4.559554212278165
 30
0.0
 10
-40.71734679480881
 20
4.374478344877225
 30
0.0
 10
-41.15578781526017
 20
4.043898673435429
 30
0.0
 10
-41.38078005645502
 20
3.89834154100766
 30
0.0
 10
-41.67504882334652
 20
3.732256343711647
 30
0.0
 10
-41.7497870269508
 20
3.692229414807663
 30
0.0
 10
-41.82338541808076
 20
3.654703876981223
 30
0.0
  0
SPLINE
  5
1CC80
330
1F
100
AcDbEntity
  8
AM_0
100
AcDbSpline
210
0.0
220
0.0
230
1.0
 70
     8
 71
     3
 72
    34
 73
    30
 74
     0
 42
0.0000000001
 43
0.0000000001
 40
3.419848664587351
 40
3.419848664587351
 40
3.419848664587351
 40
3.419848664587351
 40
4.079495375004655
 40
4.079495375004655
 40
4.882223450328468
 40
4.882223450328468
 40
5.68495152565228
 40
5.68495152565228
 40
6.164651227018689
 40
6.164651227018689
 40
6.6443509283851
 40
6.6443509283851
 40
6.919998576577035
 40
6.919998576577035
 40
7.19564622476897
 40
7.19564622476897
 40
7.471293872960905
 40
7.471293872960905
 40
7.746941521152839
 40
7.746941521152839
 40
8.25414342289498
 40
8.25414342289498
 40
8.761345324637121
 40
8.761345324637121
 40
9.775749128121404
 40
9.775749128121404
 40
11.22768582735269
 40
11.22768582735269
 40
11.76225268587374
 40
11.76225268587374
 40
11.76225268587374
 40
11.76225268587374
 10
-43.41063707583862
 20
2.393538598745444
 30
0.0
 10
-43.43617663486475
 20
2.494219696237003
 30
0.0
 10
-43.45806425112528
 20
2.595156260919431
 30
0.0
 10
-43.49861039935399
 20
2.818401261384317
 30
0.0
 10
-43.5184215723076
 20
2.957396232249899
 30
0.0
 10
-43.544472793512
 20
3.253299249476562
 30
0.0
 10
-43.55068857770459
 20
3.410419140964059
 30
0.0
 10
-43.54680447672718
 20
3.66374596111465
 30
0.0
 10
-43.54209260163611
 20
3.773501619572535
 30
0.0
 10
-43.52093555966826
 20
4.014281704358531
 30
0.0
 10
-43.50436857490706
 20
4.145725621584411
 30
0.0
 10
-43.46647170146878
 20
4.360457150169459
 30
0.0
 10
-43.4492412459025
 20
4.445667166058946
 30
0.0
 10
-43.40738468295876
 20
4.622902596297571
 30
0.0
 10
-43.38270615093177
 20
4.714967202805617
 30
0.0
 10
-43.32762505076107
 20
4.89661955892155
 30
0.0
 10
-43.29705334551829
 20
4.986816907270914
 30
0.0
 10
-43.23299802655663
 20
5.158544436716234
 30
0.0
 10
-43.19951527930095
 20
5.240138568119626
 30
0.0
 10
-43.10623175294677
 20
5.451818953106802
 30
0.0
 10
-43.04155051655425
 20
5.58026095379882
 30
0.0
 10
-42.90432172470469
 20
5.824757687277419
 30
0.0
 10
-42.83178216183364
 20
5.940625076160025
 30
0.0
 10
-42.60553654472221
 20
6.269540894183258
 30
0.0
 10
-42.4426843534369
 20
6.463539740188317
 30
0.0
 10
-42.06082405808809
 20
6.858919618666938
 30
0.0
 10
-41.80928811568458
 20
7.069110464008567
 30
0.0
 10
-41.43286560080298
 20
7.31849836692826
 30
0.0
 10
-41.32842358408857
 20
7.381784857887233
 30
0.0
 10
-41.22116437875002
 20
7.440910173653528
 30
0.0
  0
SPLINE
  5
1CC81
330
1F
100
AcDbEntity
  8
AM_0
100
AcDbSpline
210
0.0
220
0.0
230
1.0
 70
     8
 71
     3
 72
    18
 73
    14
 74
     0
 42
0.0000000001
 43
0.0000000001
 40
2.412951296429878
 40
2.412951296429878
 40
2.412951296429878
 40
2.412951296429878
 40
2.82651270691585
 40
2.82651270691585
 40
3.297687847217138
 40
3.297687847217138
 40
3.768862987518426
 40
3.768862987518426
 40
4.239972352107856
 40
4.239972352107856
 40
4.711081716697286
 40
4.711081716697286
 40
4.981794630031034
 40
4.981794630031034
 40
4.981794630031034
 40
4.981794630031034
 10
-43.2302724911624
 20
7.514449979166763
 30
0.0
 10
-43.22215756326796
 20
7.524897574562353
 30
0.0
 10
-43.21737827909033
 20
7.509421455795952
 30
0.0
 10
-43.21625254502931
 20
7.431812001297352
 30
0.0
 10
-43.22111656873403
 20
7.357957195806456
 30
0.0
 10
-43.24528072634439
 20
7.15619666262851
 30
0.0
 10
-43.26472385928832
 20
7.02830712699123
 30
0.0
 10
-43.31199964127859
 20
6.76043276135605
 30
0.0
 10
-43.34296277200201
 20
6.602704935320993
 30
0.0
 10
-43.41148958676774
 20
6.279243849908575
 30
0.0
 10
-43.44891255459265
 20
6.113481880840546
 30
0.0
 10
-43.50242703717322
 20
5.880677855924581
 30
0.0
 10
-43.52231292823865
 20
5.795112239196591
 30
0.0
 10
-43.541292375838
 20
5.713201848996427
 30
0.0
  0
ELLIPSE
  5
1CC82
330
1F
100
AcDbEntity
  8
AM_0
100
AcDbEllipse
 10
-44.47931908439921
 20
0.393921719942405
 30
0.0
 11
0.06946710548666994
 21
0.3939217197049484
 31
2.899749092577791E-20
210
-1.258982350618605E-20
220
-7.139213432881917E-20
230
1.0
 40
0.0002308303998509
 41
3.141564311179323
 42
4.798336240803984
  0
ARC
  5
1CC83
330
1F
100
AcDbEntity
  8
AM_0
100
AcDbCircle
 10
-44.54878618810346
 20
8.999999999999972
 30
0.0
 40
6.000000000000023
100
AcDbArc
 50
279.7779108962478
 51
297.0156246449549
  0
SPLINE
  5
1CC84
330
1F
100
AcDbEntity
  8
AM_0
100
AcDbSpline
210
0.0
220
0.0
230
1.0
 70
     8
 71
     3
 72
    10
 73
     6
 74
     0
 42
0.0000000001
 43
0.0000000001
 40
6.566501048431808
 40
6.566501048431808
 40
6.566501048431808
 40
6.566501048431808
 40
6.820793270385913
 40
6.820793270385913
 40
6.951993380042448
 40
6.951993380042448
 40
6.951993380042448
 40
6.951993380042448
 10
-41.82338541808076
 20
3.654703876981223
 30
0.0
 10
-41.8884011502023
 20
3.680004508538424
 30
0.0
 10
-41.95177730444425
 20
3.709110530240146
 30
0.0
 10
-42.04430368582507
 20
3.758572088443607
 30
0.0
 10
-42.07517468779111
 20
3.77634178054749
 30
0.0
 10
-42.10534217676923
 20
3.794994585644083
 30
0.0
  0
SPLINE
  5
1CC85
330
1F
100
AcDbEntity
  8
AM_0
100
AcDbSpline
210
0.0
220
0.0
230
1.0
 70
     8
 71
     3
 72
    14
 73
    10
 74
     0
 42
0.0000000001
 43
0.0000000001
 40
8.752839381010555
 40
8.752839381010555
 40
8.752839381010555
 40
8.752839381010555
 40
9.368929399068287
 40
9.368929399068287
 40
10.38182855298136
 40
10.38182855298136
 40
11.39472770689443
 40
11.39472770689443
 40
12.40762686080751
 40
12.40762686080751
 40
12.40762686080751
 40
12.40762686080751
 10
-42.10534217676923
 20
3.794994585644083
 30
0.0
 10
-42.25100482687662
 20
3.726614535721616
 30
0.0
 10
-42.39026550507731
 20
3.66871297270604
 30
0.0
 10
-42.73427005214796
 20
3.539021352879821
 30
0.0
 10
-42.92320003094358
 20
3.482272814604166
 30
0.0
 10
-43.23097193443562
 20
3.400785428697198
 30
0.0
 10
-43.34993350471677
 20
3.375793608478553
 30
0.0
 10
-43.50742239440433
 20
3.344515343633937
 30
0.0
 10
-43.54587425520253
 20
3.338139205628131
 30
0.0
 10
-43.54587425520253
 20
3.338139205628131
 30
0.0
  0
SPLINE
  5
1CC86
330
1F
100
AcDbEntity
  8
AM_0
100
AcDbSpline
210
0.0
220
0.0
230
1.0
 70
     8
 71
     3
 72
    10
 73
     6
 74
     0
 42
0.0000000001
 43
0.0000000001
 40
17.14592718558569
 40
17.14592718558569
 40
17.14592718558569
 40
17.14592718558569
 40
17.85289967175491
 40
17.85289967175491
 40
18.32686363555543
 40
18.32686363555543
 40
18.32686363555543
 40
18.32686363555543
 10
-43.41063707583862
 20
2.393538598745444
 30
0.0
 10
-43.5088942927232
 20
2.267730128107452
 30
0.0
 10
-43.60250405488648
 20
2.142049789380543
 30
0.0
 10
-43.74977766026939
 20
1.932010402681904
 30
0.0
 10
-43.80644362049429
 20
1.847684883967055
 30
0.0
 10
-43.86047678671037
 20
1.763303691099459
 30
0.0
  0
SPLINE
  5
1CC87
330
1F
100
AcDbEntity
  8
AM_0
100
AcDbSpline
210
0.0
220
0.0
230
1.0
 70
     8
 71
     3
 72
    12
 73
     8
 74
     0
 42
0.0000000001
 43
0.0000000001
 40
34.80668298289353
 40
34.80668298289353
 40
34.80668298289353
 40
34.80668298289353
 40
34.91347236454083
 40
34.91347236454083
 40
36.79070423968248
 40
36.79070423968248
 40
37.44928195628207
 40
37.44928195628207
 40
37.44928195628207
 40
37.44928195628207
 10
-43.86047678671037
 20
1.763303691099459
 30
0.0
 10
-43.86950916039837
 20
1.759186124180395
 30
0.0
 10
-43.8784059493812
 20
1.75509569726345
 30
0.0
 10
-44.04117808067781
 20
1.67958045656102
 30
0.0
 10
-44.15297033515549
 20
1.615670465480356
 30
0.0
 10
-44.24979904561803
 20
1.533507825421886
 30
0.0
 10
-44.27001946668452
 20
1.512571103857262
 30
0.0
 10
-44.28560009427031
 20
1.492023017136468
 30
0.0
  0
ARC
  5
1CC89
330
1F
100
AcDbEntity
  8
AM_0
100
AcDbCircle
 10
-39.04878618810346
 20
3.500000000000256
 30
0.0
 40
4.500000000000001
100
AcDbArc
 50
90.0
 51
118.8652097996563
  0
ELLIPSE
  5
1CC8A
330
1F
100
AcDbEntity
  8
AM_0
100
AcDbEllipse
 10
-43.50431659692617
 20
5.923435601379914
 30
0.0
 11
0.06946710548666994
 21
0.3939217197049484
 31
2.899749092577791E-20
210
-1.258982350618605E-20
220
-7.139213432881917E-20
230
1.0
 40
0.0002308303998509
 41
4.798336240803984
 42
6.079153584510689
  0
LINE
  5
1CC8B
330
1F
100
AcDbEntity
  8
AM_0
100
AcDbLine
 10
-42.80751521691582
 20
10.00000000000001
 30
0.0
 11
-43.43528033622204
 21
6.309131266514648
 31
0.0
  0
LINE
  5
1CC8C
330
1F
100
AcDbEntity
  8
AM_0
100
AcDbLine
 10
-43.43626499202014
 20
6.309182837996964
 30
0.0
 11
-44.82473593067311
 21
6.381904193687099
 31
0.0
  0
LINE
  5
1CC8D
330
1F
100
AcDbEntity
  8
AM_0
100
AcDbLine
 10
-42.59572721796485
 20
11.20374095390677
 30
0.0
 11
-42.80751521691582
 21
10.00000000000001
 31
0.0
  0
SPLINE
  5
1CC8E
330
1F
100
AcDbEntity
  8
AM_0
100
AcDbSpline
210
0.0
220
0.0
230
1.0
 70
    28
 71
     2
 72
     6
 73
     3
 74
     0
 42
0.0000000001
 43
0.0000000001
 40
0.0
 40
0.0
 40
0.0
 40
0.7632067745941116
 40
0.7632067745941116
 40
0.7632067745941116
 10
-39.04878618810346
 20
11.39791576165644
 30
0.0
 41
1.0
 10
-39.04878618810299
 20
11.02981459815096
 30
0.0
 41
1.00188725231726
 10
-39.04878618810346
 20
10.67705098312494
 30
0.0
 41
1.0
  0
SPLINE
  5
1CC8F
330
1F
100
AcDbEntity
  8
AM_0
100
AcDbSpline
210
0.0
220
0.0
230
1.0
 70
    28
 71
     2
 72
     6
 73
     3
 74
     0
 42
0.0000000001
 43
0.0000000001
 40
0.0
 40
0.0
 40
0.0
 40
0.7632067745941114
 40
0.7632067745941114
 40
0.7632067745941114
 10
-39.04878618810346
 20
7.322949016875079
 30
0.0
 41
1.0
 10
-39.04878618810335
 20
6.97018540184903
 30
0.0
 41
1.001887252317923
 10
-39.04878618810346
 20
6.602084238343601
 30
0.0
 41
1.0
  0
ARC
  5
1CC90
330
1F
100
AcDbEntity
  8
AM_0
100
AcDbCircle
 10
-44.54878618810346
 20
8.999999999999972
 30
0.0
 40
6.000000000000023
100
AcDbArc
 50
332.9843753550488
 51
336.4435356908987
  0
LINE
  5
1CC91
330
1F
100
AcDbEntity
  8
AM_0
100
AcDbLine
 10
-39.04878618810346
 20
8.000000000000263
 30
0.0
 11
-39.04878618810346
 21
7.32294901687505
 31
0.0
  0
SPLINE
  5
1CC92
330
1F
100
AcDbEntity
  8
AM_0
100
AcDbSpline
210
0.0
220
0.0
230
1.0
 70
     8
 71
     3
 72
    10
 73
     6
 74
     0
 42
0.0000000001
 43
0.0000000001
 40
3.38686741065608
 40
3.38686741065608
 40
3.38686741065608
 40
3.38686741065608
 40
3.986060856630359
 40
3.986060856630359
 40
4.60215087468809
 40
4.60215087468809
 40
4.60215087468809
 40
4.60215087468809
 10
-39.04878618810346
 20
7.322949016875079
 30
0.0
 10
-39.08139935796407
 20
7.215991961879276
 30
0.0
 10
-39.12074463124577
 20
7.098118860563581
 30
0.0
 10
-39.21749916080944
 20
6.84147931697408
 30
0.0
 10
-39.27540072382499
 20
6.702218638773481
 30
0.0
 10
-39.34378077374743
 20
6.55655598866597
 30
0.0
  0
SPLINE
  5
1CC93
330
1F
100
AcDbEntity
  8
AM_0
100
AcDbSpline
210
0.0
220
0.0
230
1.0
 70
     8
 71
     3
 72
    10
 73
     6
 74
     0
 42
0.0000000001
 43
0.0000000001
 40
1.383235906571971
 40
1.383235906571971
 40
1.383235906571971
 40
1.383235906571971
 40
1.514436016228508
 40
1.514436016228508
 40
1.768728238182614
 40
1.768728238182614
 40
1.768728238182614
 40
1.768728238182614
 10
-39.34378077374743
 20
6.55655598866597
 30
0.0
 10
-39.3251279686508
 20
6.526388499687904
 30
0.0
 10
-39.30735827654689
 20
6.495517497721927
 30
0.0
 10
-39.25789671834343
 20
6.402991116341021
 30
0.0
 10
-39.22879069664168
 20
6.33961496209907
 30
0.0
 10
-39.20349006508457
 20
6.274599229977532
 30
0.0
  0
LINE
  5
1CC94
330
1F
100
AcDbEntity
  8
AM_0
100
AcDbLine
 10
-39.04878618810346
 20
10.67705098312488
 30
0.0
 11
-39.04878618810346
 21
8.000000000000263
 31
0.0
  0
ARC
  5
1CC95
330
1F
100
AcDbEntity
  8
AM_0
100
AcDbCircle
 10
-44.54878618810346
 20
9.0
 30
0.0
 40
5.750000000000001
100
AcDbArc
 50
16.95742629417282
 51
17.28003191627284
  0
ELLIPSE
  5
1CC96
330
1F
100
AcDbEntity
  8
AM_0
100
AcDbEllipse
 10
-38.68643838463993
 20
14.32247594440588
 30
0.0
 11
1.970013580697201
 21
4.021033044615318
 31
-1.243292700295246E-16
210
1.221618458034606E-17
220
2.493469200314197E-17
230
1.0
 40
0.4328127853184341
 41
3.189603465295062
 42
3.846861229933304
  0
ARC
  5
1CC97
330
1F
100
AcDbEntity
  8
AM_0
100
AcDbCircle
 10
-39.04878618810346
 20
14.50000000000023
 30
0.0
 40
4.500000000000001
100
AcDbArc
 50
248.2923760247774
 51
250.2331326157098
  0
LINE
  5
1CC9C
330
1F
100
AcDbEntity
  8
AM_0
100
AcDbLine
 10
15.25
 20
3.249999999999908
 30
0.0
 11
23.25
 21
3.249999999999908
 31
0.0
  0
LINE
  5
1CC9D
330
1F
100
AcDbEntity
  8
AM_0
100
AcDbLine
 10
22.33438402174647
 20
7.322949016875008
 30
0.0
 11
23.25
 21
7.322949016875008
 31
0.0
  0
SPLINE
  5
1CC9E
330
1F
100
AcDbEntity
  8
AM_0
100
AcDbSpline
210
0.0
220
0.0
230
1.0
 70
     8
 71
     3
 72
    10
 73
     6
 74
     0
 42
0.0000000001
 43
0.0000000001
 40
3.38686741065608
 40
3.38686741065608
 40
3.38686741065608
 40
3.38686741065608
 40
3.986060856630359
 40
3.986060856630359
 40
4.60215087468809
 40
4.60215087468809
 40
4.60215087468809
 40
4.60215087468809
 10
22.33438402174647
 20
7.322949016875008
 30
0.0
 10
22.50663378709203
 20
7.215991961879205
 30
0.0
 10
22.66972900367182
 20
7.09811886056351
 30
0.0
 10
22.97712144287567
 20
6.841479316974009
 30
0.0
 10
23.1207823374973
 20
6.70221863877341
 30
0.0
 10
23.25
 20
6.556555988665899
 30
0.0
  0
SPLINE
  5
1CC9F
330
1F
100
AcDbEntity
  8
AM_0
100
AcDbSpline
210
0.0
220
0.0
230
1.0
 70
     8
 71
     3
 72
    14
 73
    10
 74
     0
 42
0.0000000001
 43
0.0000000001
 40
8.752839381010555
 40
8.752839381010555
 40
8.752839381010555
 40
8.752839381010555
 40
9.368929399068287
 40
9.368929399068287
 40
10.38182855298136
 40
10.38182855298136
 40
11.39472770689443
 40
11.39472770689443
 40
12.40762686080751
 40
12.40762686080751
 40
12.40762686080751
 40
12.40762686080751
 10
23.25
 20
3.794994585644012
 30
0.0
 10
23.1207823374973
 20
3.726614535721545
 30
0.0
 10
22.97712144287567
 20
3.668712972705968
 30
0.0
 10
22.56508674493995
 20
3.53902135287975
 30
0.0
 10
22.27578479267874
 20
3.482272814604094
 30
0.0
 10
21.65500589390081
 20
3.400785428697127
 30
0.0
 10
21.32298262592781
 20
3.375793608478482
 30
0.0
 10
20.64458075224923
 20
3.344515343633866
 30
0.0
 10
20.29818876957643
 20
3.33813920562806
 30
0.0
 10
19.96055571827208
 20
3.33813920562806
 30
0.0
  0
LINE
  5
1CCA0
330
1F
100
AcDbEntity
  8
AM_0
100
AcDbLine
 10
23.25
 20
10.67705098312484
 30
0.0
 11
14.9296634861023
 21
10.67705098312484
 31
0.0
  0
LINE
  5
1CCA1
330
1F
100
AcDbEntity
  8
AM_0
100
AcDbLine
 10
0.8658825499500154
 20
-71.90925477060316
 30
0.0
 11
11.08459881222029
 21
-71.90925477060316
 31
0.0
  0
SPLINE
  5
1CCA5
330
1F
100
AcDbEntity
  8
AM_0
100
AcDbSpline
210
0.0
220
0.0
230
1.0
 70
     8
 71
     3
 72
    12
 73
     8
 74
     0
 42
0.0000000001
 43
0.0000000001
 40
6.081299956052172
 40
6.081299956052172
 40
6.081299956052172
 40
6.081299956052172
 40
7.661985738066813
 40
7.661985738066813
 40
11.49297860710022
 40
11.49297860710022
 40
14.25058834415102
 40
14.25058834415102
 40
14.25058834415102
 40
14.25058834415102
 10
4.684687847839484
 20
-71.31782195343487
 30
0.0
 10
5.188707880252593
 20
-71.41865980330547
 30
0.0
 10
5.698557606868349
 20
-71.5052021165541
 30
0.0
 10
7.455818648249306
 20
-71.75627115927179
 30
0.0
 10
8.719343824357452
 20
-71.85627252194789
 30
0.0
 10
10.86353502851057
 20
-71.91932523058546
 30
0.0
 10
11.75226502996168
 20
-71.91286784980184
 30
0.0
 10
12.61839742162368
 20
-71.8794864497944
 30
0.0
  0
SPLINE
  5
1CCA9
330
1F
100
AcDbEntity
  8
AM_0
100
AcDbSpline
210
0.0
220
0.0
230
1.0
 70
     8
 71
     3
 72
    12
 73
     8
 74
     0
 42
0.0000000001
 43
0.0000000001
 40
1.417701826547591
 40
1.417701826547591
 40
1.417701826547591
 40
1.417701826547591
 40
1.915496434516703
 40
1.915496434516703
 40
3.830992869033406
 40
3.830992869033406
 40
3.97360024733942
 40
3.97360024733942
 40
3.97360024733942
 40
3.97360024733942
 10
0.438377144016215
 20
-70.01513990970881
 30
0.0
 10
0.579529259389119
 20
-70.07774512843625
 30
0.0
 10
0.7219969260511334
 20
-70.13837975879798
 30
0.0
 10
1.418634788767918
 20
-70.42324614022226
 30
0.0
 10
1.989716970650875
 20
-70.6217488022973
 30
0.0
 10
2.617996389847235
 20
-70.8095238495865
 30
0.0
 10
2.661605856944789
 20
-70.82240236720651
 30
0.0
 10
2.705289066369005
 20
-70.83514958354056
 30
0.0
  0
ELLIPSE
  5
1CCAA
330
1F
100
AcDbEntity
  8
AM_0
100
AcDbEllipse
 10
0.8658825499500154
 20
-64.65925477060316
 30
0.0
 11
8.878396065212235E-16
 21
7.25
 31
0.0
210
0.0
220
0.0
230
1.0
 40
0.0874886635258627
 41
2.401999423717421
 42
3.141592653589792
  0
SPLINE
  5
1CCAB
330
1F
100
AcDbEntity
  8
AM_0
100
AcDbSpline
210
0.0
220
0.0
230
1.0
 70
     8
 71
     3
 72
    22
 73
    18
 74
     0
 42
0.0000000001
 43
0.0000000001
 40
3.548092366384416
 40
3.548092366384416
 40
3.548092366384416
 40
3.548092366384416
 40
3.967587900160772
 40
3.967587900160772
 40
4.247062983214404
 40
4.247062983214404
 40
4.526538066268036
 40
4.526538066268036
 40
4.761218445682927
 40
4.761218445682927
 40
4.995898825097816
 40
4.995898825097816
 40
5.465259583927596
 40
5.465259583927596
 40
6.145008443308406
 40
6.145008443308406
 40
6.503285218467739
 40
6.503285218467739
 40
6.503285218467739
 40
6.503285218467739
 10
2.705289066369005
 20
-70.83514958354056
 30
0.0
 10
2.794553993664067
 20
-70.75549958961037
 30
0.0
 10
2.899552896279033
 20
-70.67708599234535
 30
0.0
 10
3.094446725945545
 20
-70.56906686609491
 30
0.0
 10
3.177724068633097
 20
-70.53188815404334
 30
0.0
 10
3.351863388880588
 20
-70.47653055110078
 30
0.0
 10
3.4427341949675
 20
-70.45838490255844
 30
0.0
 10
3.613467176869506
 20
-70.44765380129928
 30
0.0
 10
3.69128469788393
 20
-70.45164263657682
 30
0.0
 10
3.841305141138946
 20
-70.47619517202438
 30
0.0
 10
3.913523961307931
 20
-70.49670801615898
 30
0.0
 10
4.115720910246694
 20
-70.57618547860477
 30
0.0
 10
4.231358233345986
 20
-70.65335081973032
 30
0.0
 10
4.450261983127348
 20
-70.84293724820739
 30
0.0
 10
4.550859227415913
 20
-70.97635709239475
 30
0.0
 10
4.648270425739952
 20
-71.17978482536643
 30
0.0
 10
4.671725304741472
 20
-71.25005518157448
 30
0.0
 10
4.684687847839484
 20
-71.31782195343487
 30
0.0
  0
SPLINE
  5
1CCAC
330
1F
100
AcDbEntity
  8
AM_0
100
AcDbSpline
210
0.0
220
0.0
230
1.0
 70
     8
 71
     3
 72
    31
 73
    27
 74
     0
 42
0.0000000001
 43
0.0000000001
 40
4.943783971907267
 40
4.943783971907267
 40
4.943783971907267
 40
4.943783971907267
 40
5.153975637622828
 40
5.153975637622828
 40
5.713294367733862
 40
5.713294367733862
 40
6.272613097844896
 40
6.272613097844896
 40
6.794028473185039
 40
6.794028473185039
 40
7.315443848525182
 40
7.315443848525182
 40
7.794794277318761
 40
7.794794277318761
 40
8.27414470611234
 40
8.27414470611234
 40
8.27414470611234
 40
8.740194403806132
 40
8.740194403806132
 40
9.206244101499925
 40
9.206244101499925
 40
9.741009151984827
 40
9.741009151984827
 40
10.27577420246973
 40
10.27577420246973
 40
10.478920910322
 40
10.478920910322
 40
10.478920910322
 40
10.478920910322
 10
2.705289066369005
 20
-70.83514958354056
 30
0.0
 10
2.653218349794088
 20
-70.8620323345323
 30
0.0
 10
2.605679709420883
 20
-70.89024246417682
 30
0.0
 10
2.450123182358254
 20
-70.99316645995671
 30
0.0
 10
2.35535369755064
 20
-71.07935628165296
 30
0.0
 10
2.22866402800139
 20
-71.24694750502894
 30
0.0
 10
2.196947351823269
 20
-71.32817588165079
 30
0.0
 10
2.196903695419621
 20
-71.46118206047299
 30
0.0
 10
2.224777795381101
 20
-71.52395698078627
 30
0.0
 10
2.348983347834064
 20
-71.62841427418607
 30
0.0
 10
2.445600937177233
 20
-71.67036598656486
 30
0.0
 10
2.670801436431589
 20
-71.72894390504982
 30
0.0
 10
2.809505694307802
 20
-71.75073734671082
 30
0.0
 10
3.117618999073216
 20
-71.77832925671828
 30
0.0
 10
3.286999607180746
 20
-71.78450285934557
 30
0.0
 10
3.446783083445212
 20
-71.78450285934557
 30
0.0
 10
3.602132982676494
 20
-71.78450285934557
 30
0.0
 10
3.767163152241551
 20
-71.77865410700198
 30
0.0
 10
4.06880110471991
 20
-71.7525329354408
 30
0.0
 10
4.205387651574995
 20
-71.73192432133496
 30
0.0
 10
4.435688119971132
 20
-71.6751008105648
 30
0.0
 10
4.537068239956966
 20
-71.63293541803895
 30
0.0
 10
4.667533924943086
 20
-71.52694826865394
 30
0.0
 10
4.696903222760966
 20
-71.46282500786455
 30
0.0
 10
4.696933030808509
 20
-71.37201004904227
 30
0.0
 10
4.692930029987167
 20
-71.34549872905305
 30
0.0
 10
4.684687847839484
 20
-71.31782195343487
 30
0.0
  0
SPLINE
  5
1CCBA
330
1F
100
AcDbEntity
  8
AM_0
100
AcDbSpline
210
0.0
220
0.0
230
1.0
 70
     8
 71
     3
 72
    34
 73
    30
 74
     0
 42
0.0000000001
 43
0.0000000001
 40
3.419848664587351
 40
3.419848664587351
 40
3.419848664587351
 40
3.419848664587351
 40
4.079495375004655
 40
4.079495375004655
 40
4.882223450328468
 40
4.882223450328468
 40
5.68495152565228
 40
5.68495152565228
 40
6.164651227018689
 40
6.164651227018689
 40
6.6443509283851
 40
6.6443509283851
 40
6.919998576577035
 40
6.919998576577035
 40
7.19564622476897
 40
7.19564622476897
 40
7.471293872960905
 40
7.471293872960905
 40
7.746941521152839
 40
7.746941521152839
 40
8.25414342289498
 40
8.25414342289498
 40
8.761345324637121
 40
8.761345324637121
 40
9.775749128121404
 40
9.775749128121404
 40
11.22768582735269
 40
11.22768582735269
 40
11.76225268587374
 40
11.76225268587374
 40
11.76225268587374
 40
11.76225268587374
 10
13.59799820426497
 20
-63.52110565833835
 30
0.0
 10
13.39114037110596
 20
-63.54664521736445
 30
0.0
 10
13.18920591230011
 20
-63.56853283362489
 30
0.0
 10
12.75777429924983
 20
-63.60907898185366
 30
0.0
 10
12.49914891355866
 20
-63.62889015480727
 30
0.0
 10
11.99243008181077
 20
-63.65494137601164
 30
0.0
 10
11.74445912700094
 20
-63.66115716020425
 30
0.0
 10
11.40015388032543
 20
-63.65727305922686
 30
0.0
 10
11.2629314239241
 20
-63.65256118413577
 30
0.0
 10
11.01338935710874
 20
-63.63140414216789
 30
0.0
 10
10.90148520054925
 20
-63.61483715740675
 30
0.0
 10
10.77559397897676
 20
-63.57694028396846
 30
0.0
 10
10.73716232214463
 20
-63.55970982840218
 30
0.0
 10
10.68778275630615
 20
-63.51785326545839
 30
0.0
 10
10.67702015087798
 20
-63.49317473343142
 30
0.0
 10
10.68485708901869
 20
-63.43809363326079
 30
0.0
 10
10.70327612752033
 20
-63.40752192801798
 30
0.0
 10
10.7606874739314
 20
-63.34346660905626
 30
0.0
 10
10.7994892860213
 20
-63.30998386180064
 30
0.0
 10
10.92025526850875
 20
-63.21670033544645
 30
0.0
 10
11.01878335953643
 20
-63.15201909905397
 30
0.0
 10
11.23787450939659
 20
-63.01479030720432
 30
0.0
 10
11.35865155016325
 20
-62.94225074433324
 30
0.0
 10
11.73615096807987
 20
-62.71600512722184
 30
0.0
 10
12.00749271463008
 20
-62.55315293593655
 30
0.0
 10
12.61882574571951
 20
-62.17129264058776
 30
0.0
 10
13.0025688742237
 20
-61.91975669818428
 30
0.0
 10
13.53967128132251
 20
-61.54333418330266
 30
0.0
 10
13.68545792514317
 20
-61.43889216658827
 30
0.0
 10
13.83189800328563
 20
-61.33163296124963
 30
0.0
  0
LINE
  5
1CCBB
330
1F
100
AcDbEntity
  8
AM_0
100
AcDbLine
 10
15.25
 20
-70.40925477060318
 30
0.0
 11
12.92362976821545
 21
-71.75238525015871
 31
0.0
  0
SPLINE
  5
1CCBC
330
1F
100
AcDbEntity
  8
AM_0
100
AcDbSpline
210
0.0
220
0.0
230
1.0
 70
     8
 71
     3
 72
    12
 73
     8
 74
     0
 42
0.0000000001
 43
0.0000000001
 40
1.09092825951859
 40
1.09092825951859
 40
1.09092825951859
 40
1.09092825951859
 40
1.103222817744998
 40
1.103222817744998
 40
2.206445635489995
 40
2.206445635489995
 40
2.897796737997428
 40
2.897796737997428
 40
2.897796737997428
 40
2.897796737997428
 10
15.25
 20
-63.65634283770223
 30
0.0
 10
15.24610961999588
 20
-63.65626125646711
 30
0.0
 10
15.24221907827632
 20
-63.65617796794289
 30
0.0
 10
14.88920947003231
 20
-63.6484661903252
 30
0.0
 10
14.53913465100408
 20
-63.6263829259045
 30
0.0
 10
14.02108578303489
 20
-63.57623576638239
 30
0.0
 10
13.81189774809758
 20
-63.55156282453056
 30
0.0
 10
13.59799820426497
 20
-63.52110565833835
 30
0.0
  0
LINE
  5
1CCBD
330
1F
100
AcDbEntity
  8
AM_0
100
AcDbLine
 10
12.61839742162368
 20
-71.87948644979443
 30
0.0
 11
12.61839742162368
 21
-63.97094536921001
 31
0.0
  0
SPLINE
  5
1CCBE
330
1F
100
AcDbEntity
  8
AM_0
100
AcDbSpline
210
0.0
220
0.0
230
1.0
 70
     8
 71
     3
 72
    10
 73
     6
 74
     0
 42
0.0000000001
 43
0.0000000001
 40
3.038081387712101
 40
3.038081387712101
 40
3.038081387712101
 40
3.038081387712101
 40
3.841720559253694
 40
3.841720559253694
 40
3.908976340760752
 40
3.908976340760752
 40
3.908976340760752
 40
3.908976340760752
 10
12.61839742162368
 20
-71.8794864497944
 30
0.0
 10
12.71183650243336
 20
-71.85572152665282
 30
0.0
 10
12.80592268992848
 20
-71.81771453658419
 30
0.0
 10
12.90788091649836
 20
-71.76138012277855
 30
0.0
 10
12.91575539178291
 20
-71.75693064633518
 30
0.0
 10
12.92362976821545
 20
-71.75238525015871
 30
0.0
  0
SPLINE
  5
1CCBF
330
1F
100
AcDbEntity
  8
AM_0
100
AcDbSpline
210
0.0
220
0.0
230
1.0
 70
     8
 71
     3
 72
    12
 73
     8
 74
     0
 42
0.0000000001
 43
0.0000000001
 40
34.80668298289353
 40
34.80668298289353
 40
34.80668298289353
 40
34.80668298289353
 40
34.91347236454083
 40
34.91347236454083
 40
36.79070423968248
 40
36.79070423968248
 40
38.35211563932751
 40
38.35211563932751
 40
38.35211563932751
 40
38.35211563932751
 10
12.61839742162368
 20
-63.97094536921001
 30
0.0
 10
12.58132034260711
 20
-63.97997774289804
 30
0.0
 10
12.54419788542339
 20
-63.98887453188087
 30
0.0
 10
11.85373198206287
 20
-64.15164666317742
 30
0.0
 10
11.18734461498218
 20
-64.26343891765515
 30
0.0
 10
9.980344457912793
 20
-64.39474191261289
 30
0.0
 10
9.437418689799983
 20
-64.42666821144837
 30
0.0
 10
8.911548183265154
 20
-64.43470376647431
 30
0.0
  0
SPLINE
  5
1CCCB
330
1F
100
AcDbEntity
  8
AM_0
100
AcDbSpline
210
0.0
220
0.0
230
1.0
 70
    12
 71
     2
 72
     6
 73
     3
 74
     0
 42
0.0000000001
 43
0.0000000001
 40
3.912082658504035
 40
3.912082658504035
 40
3.912082658504035
 40
6.435445125941254
 40
6.435445125941254
 40
6.435445125941254
 10
8.91154818326541
 20
-64.43470376647431
 30
0.0
 41
1.001079740254228
 10
7.689401541082589
 20
-64.45337875668352
 30
0.0
 41
1.001267484929634
 10
6.430868960758602
 20
-64.47258744380233
 30
0.0
 41
1.00124820331287
  0
SPLINE
  5
1CCCE
330
1F
100
AcDbEntity
  8
AM_0
100
AcDbSpline
210
0.0
220
0.0
230
1.0
 70
     8
 71
     3
 72
    10
 73
     6
 74
     0
 42
0.0000000001
 43
0.0000000001
 40
17.14592718558569
 40
17.14592718558569
 40
17.14592718558569
 40
17.14592718558569
 40
17.85289967175491
 40
17.85289967175491
 40
18.32686363555543
 40
18.32686363555543
 40
18.32686363555543
 40
18.32686363555543
 10
13.59799820426497
 20
-63.52110565833835
 30
0.0
 10
13.41214877745369
 20
-63.6193628752229
 30
0.0
 10
13.21975241314283
 20
-63.71297263738618
 30
0.0
 10
12.88977861520914
 20
-63.86024624276906
 30
0.0
 10
12.7550317617571
 20
-63.91691220299402
 30
0.0
 10
12.61839742162368
 20
-63.97094536921001
 30
0.0
  0
LINE
  5
1CCCF
330
1F
100
AcDbEntity
  8
AM_0
100
AcDbLine
 10
15.25
 20
-70.40925477060318
 30
0.0
 11
15.25
 21
-63.65634283770226
 31
0.0
  0
LINE
  5
1CCD0
330
1F
100
AcDbEntity
  8
AM_0
100
AcDbLine
 10
19.96055571827208
 20
-63.65634283770223
 30
0.0
 11
15.25
 21
-63.65634283770223
 31
0.0
  0
ELLIPSE
  5
1CCD1
330
1F
100
AcDbEntity
  8
AM_0
100
AcDbEllipse
 10
21.50653869416817
 20
-59.15925477060313
 30
0.0
 11
9.343492165840663
 21
4.184930268123244
 31
-2.534632053632834E-17
210
2.259450517629825E-18
220
1.012003081152585E-18
230
1.0
 40
0.1770423981719481
 41
1.947221965948242
 42
2.451014916231165
  0
LINE
  5
1CCD8
330
1F
100
AcDbEntity
  8
AM_0
100
AcDbLine
 10
6.048907401534166
 20
0.4927770152472348
 30
0.0
 11
0.4353879278991144
 21
0.0015460430367114
 31
0.0
  0
LINE
  5
1CCD9
330
1F
100
AcDbEntity
  8
AM_0
100
AcDbLine
 10
0.8483818302228201
 20
6.315811278463364
 30
0.0
 11
6.461901303857871
 21
6.807042250673895
 31
0.0
  0
LINE
  5
1CCDA
330
1F
100
AcDbEntity
  8
AM_0
100
AcDbLine
 10
6.487205227862205
 20
6.933714349815823
 30
0.0
 11
5.138000074195929
 21
6.815647357715811
 31
0.0
  0
SPLINE
  5
1CCDB
330
1F
100
AcDbEntity
  8
AM_0
100
AcDbSpline
210
0.0
220
0.0
230
1.0
 70
     8
 71
     3
 72
    24
 73
    20
 74
     0
 42
0.0000000001
 43
0.0000000001
 40
1.718139859471965
 40
1.718139859471965
 40
1.718139859471965
 40
1.718139859471965
 40
1.884052414188479
 40
1.884052414188479
 40
2.355282560552165
 40
2.355282560552165
 40
2.82651270691585
 40
2.82651270691585
 40
3.297687847217138
 40
3.297687847217138
 40
3.768862987518426
 40
3.768862987518426
 40
4.239972352107856
 40
4.239972352107856
 40
4.711081716697286
 40
4.711081716697286
 40
5.182377636081387
 40
5.182377636081387
 40
5.335461029586223
 40
5.335461029586223
 40
5.335461029586223
 40
5.335461029586223
 10
5.479499900763301
 20
7.138671064800171
 30
0.0
 10
5.524868137521821
 20
7.173279725021523
 30
0.0
 10
5.572056636568505
 20
7.20426144567147
 30
0.0
 10
5.755972793907858
 20
7.308423980976976
 30
0.0
 10
5.916698047178784
 20
7.363297370195191
 30
0.0
 10
6.247180321078133
 20
7.403809202616422
 30
0.0
 10
6.416941806151726
 20
7.389480181050395
 30
0.0
 10
6.720001853745202
 20
7.306812001297253
 30
0.0
 10
6.873550725135829
 20
7.232957195806357
 30
0.0
 10
7.138033364980402
 20
7.03119666262841
 30
0.0
 10
7.248966401013718
 20
6.90330712699113
 30
0.0
 10
7.406013814311564
 20
6.635432761355951
 30
0.0
 10
7.462540376362995
 20
6.477704935320894
 30
0.0
 10
7.50601831032759
 20
6.154243849908475
 30
0.0
 10
7.492977759759299
 20
5.988481880840446
 30
0.0
 10
7.411802149067739
 20
5.692729448296426
 30
0.0
 10
7.338222511442837
 20
5.542979559328323
 30
0.0
 10
7.203819861147053
 20
5.371951235859648
 30
0.0
 10
7.168044623841638
 20
5.332083340652126
 30
0.0
 10
7.129998921861386
 20
5.294813283724231
 30
0.0
  0
LINE
  5
1CCDC
330
1F
100
AcDbEntity
  8
AM_0
100
AcDbLine
 10
0.001476477053302
 20
0.42772056952208
 30
0.0
 11
0.485246256488324
 21
5.957234450959611
 31
0.0
  0
ELLIPSE
  5
1CCDD
330
1F
100
AcDbEntity
  8
AM_0
100
AcDbEllipse
 10
0.3999999893434278
 20
0.3939217200312726
 30
0.0
 11
-0.3999996466728364
 21
-0.0005316592951136478
 31
0.0
210
0.0
220
0.0
230
1.0
 40
0.9848042730258675
 41
6.195929095487601
 42
7.941258347481945
  0
LINE
  5
1CCE3
330
1F
100
AcDbEntity
  8
AM_0
100
AcDbLine
 10
0.7726356308912159
 20
6.309182838085825
 30
0.0
 11
4.999704053842947
 21
6.679087483604484
 31
0.0
  0
LINE
  5
1CCE4
330
1F
100
AcDbEntity
  8
AM_0
100
AcDbLine
 10
3.169544700082611
 20
11.20374095390672
 30
0.0
 11
1.084604208764631
 21
9.999999999999965
 31
0.0
  0
LINE
  5
1CCE5
330
1F
100
AcDbEntity
  8
AM_0
100
AcDbLine
 10
0.7791332350723224
 20
6.508450793718986
 30
0.0
 11
0.5415041927182074
 21
6.127288904494428
 31
0.0
  0
ELLIPSE
  5
1CCE6
330
1F
100
AcDbEntity
  8
AM_0
100
AcDbEllipse
 10
0.8837697687785067
 20
5.923435601468775
 30
0.0
 11
-0.3999996466728364
 21
-0.0005316592951136478
 31
0.0
210
0.0
220
0.0
230
1.0
 40
0.9848042730258675
 41
4.799665693892223
 42
6.195929095487601
  0
LINE
  5
1CCE7
330
1F
100
AcDbEntity
  8
AM_0
100
AcDbLine
 10
1.084604208764631
 20
9.999999999999965
 30
0.0
 11
0.7607437343454535
 21
6.298257838589016
 31
0.0
  0
ELLIPSE
  5
1CCE8
330
1F
100
AcDbEntity
  8
AM_0
100
AcDbEllipse
 10
6.244948339935604
 20
6.165493518752236
 30
0.0
 11
-1.249998895852614
 21
-0.00166143529723048
 31
0.0
210
0.0
220
0.0
230
1.0
 40
0.9848042730258675
 41
5.370120776194112
 42
5.497797394689878
  0
LINE
  5
1CCE9
330
1F
100
AcDbEntity
  8
AM_0
100
AcDbLine
 10
4.999704053843004
 20
6.679087483604228
 30
0.0
 11
5.359899635468651
 21
7.034761227192512
 31
0.0
  0
LINE
  5
1CCEA
330
1F
100
AcDbEntity
  8
AM_0
100
AcDbLine
 10
15.25
 20
3.249999999999908
 30
0.0
 11
12.61839742162374
 21
1.730643542974256
 31
0.0
  0
SPLINE
  5
1CCEB
330
1F
100
AcDbEntity
  8
AM_0
100
AcDbSpline
210
0.0
220
0.0
230
1.0
 70
     8
 71
     3
 72
    12
 73
     8
 74
     0
 42
0.0000000001
 43
0.0000000001
 40
1.09092825951859
 40
1.09092825951859
 40
1.09092825951859
 40
1.09092825951859
 40
1.103222817744998
 40
1.103222817744998
 40
2.206445635489995
 40
2.206445635489995
 40
2.897796737997428
 40
2.897796737997428
 40
2.897796737997428
 40
2.897796737997428
 10
15.25
 20
3.33813920562806
 30
0.0
 10
15.24610961999588
 20
3.335872578923208
 30
0.0
 10
15.24221907827632
 20
3.333606186104895
 30
0.0
 10
14.88920947003231
 20
3.127993951808485
 30
0.0
 10
14.53913465100408
 20
2.926785909355623
 30
0.0
 10
14.02108578303489
 20
2.631924124344515
 30
0.0
 10
13.81189774809758
 20
2.513605703881375
 30
0.0
 10
13.59799820426497
 20
2.393538598745373
 30
0.0
  0
ELLIPSE
  5
1CCEC
330
1F
100
AcDbEntity
  8
AM_0
100
AcDbEllipse
 10
21.50653869416817
 20
3.50000000000022
 30
0.0
 11
9.321686720615722
 21
-2.390575090057212
 31
0.0
210
0.0
220
0.0
230
1.0
 40
0.4089924271739005
 41
2.130858541832734
 42
2.634651492115655
  0
ELLIPSE
  5
1CCED
330
1F
100
AcDbEntity
  8
AM_0
100
AcDbEllipse
 10
12.26683162325367
 20
14.32247594440585
 30
0.0
 11
-3.02515985679088
 21
3.301222212284525
 31
0.0
210
0.0
220
0.0
230
1.0
 40
0.8095470109495546
 41
2.342387593634168
 42
2.999645358272408
  0
LINE
  5
1CCEE
330
1F
100
AcDbEntity
  8
AM_0
100
AcDbLine
 10
6.895812754703627
 20
6.380867724188498
 30
0.0
 11
6.769801461712177
 21
4.940552054557308
 31
0.0
  0
LINE
  5
1CCEF
330
1F
100
AcDbEntity
  8
AM_0
100
AcDbLine
 10
6.809434456734891
 20
5.393559260582201
 30
0.0
 11
7.12944766805083
 21
5.709555076946025
 31
0.0
  0
SPLINE
  5
1CCF0
330
1F
100
AcDbEntity
  8
AM_0
100
AcDbSpline
210
0.0
220
0.0
230
1.0
 70
     8
 71
     3
 72
    34
 73
    30
 74
     0
 42
0.0000000001
 43
0.0000000001
 40
3.419848664587351
 40
3.419848664587351
 40
3.419848664587351
 40
3.419848664587351
 40
4.079495375004655
 40
4.079495375004655
 40
4.882223450328468
 40
4.882223450328468
 40
5.68495152565228
 40
5.68495152565228
 40
6.164651227018689
 40
6.164651227018689
 40
6.6443509283851
 40
6.6443509283851
 40
6.919998576577035
 40
6.919998576577035
 40
7.19564622476897
 40
7.19564622476897
 40
7.471293872960905
 40
7.471293872960905
 40
7.746941521152839
 40
7.746941521152839
 40
8.25414342289498
 40
8.25414342289498
 40
8.761345324637121
 40
8.761345324637121
 40
9.775749128121404
 40
9.775749128121404
 40
11.22768582735269
 40
11.22768582735269
 40
11.76225268587374
 40
11.76225268587374
 40
11.76225268587374
 40
11.76225268587374
 10
13.59799820426497
 20
2.393538598745373
 30
0.0
 10
13.39114037110596
 20
2.494219696236932
 30
0.0
 10
13.18920591230011
 20
2.59515626091936
 30
0.0
 10
12.75777429924983
 20
2.818401261384246
 30
0.0
 10
12.49914891355866
 20
2.957396232249828
 30
0.0
 10
11.99243008181077
 20
3.253299249476491
 30
0.0
 10
11.74445912700094
 20
3.410419140963988
 30
0.0
 10
11.40015388032543
 20
3.663745961114579
 30
0.0
 10
11.2629314239241
 20
3.773501619572464
 30
0.0
 10
11.01338935710874
 20
4.01428170435846
 30
0.0
 10
10.90148520054925
 20
4.14572562158434
 30
0.0
 10
10.77559397897676
 20
4.360457150169388
 30
0.0
 10
10.73716232214463
 20
4.445667166058875
 30
0.0
 10
10.68778275630615
 20
4.6229025962975
 30
0.0
 10
10.67702015087798
 20
4.714967202805546
 30
0.0
 10
10.68485708901869
 20
4.896619558921479
 30
0.0
 10
10.70327612752033
 20
4.986816907270843
 30
0.0
 10
10.7606874739314
 20
5.158544436716163
 30
0.0
 10
10.7994892860213
 20
5.240138568119555
 30
0.0
 10
10.92025526850875
 20
5.451818953106731
 30
0.0
 10
11.01878335953643
 20
5.580260953798749
 30
0.0
 10
11.23787450939659
 20
5.824757687277348
 30
0.0
 10
11.35865155016325
 20
5.940625076159954
 30
0.0
 10
11.73615096807987
 20
6.269540894183187
 30
0.0
 10
12.00749271463008
 20
6.463539740188246
 30
0.0
 10
12.61882574571951
 20
6.858919618666867
 30
0.0
 10
13.0025688742237
 20
7.069110464008496
 30
0.0
 10
13.53967128132251
 20
7.318498366928189
 30
0.0
 10
13.68545792514317
 20
7.381784857887162
 30
0.0
 10
13.83189800328563
 20
7.440910173653457
 30
0.0
  0
LINE
  5
1CCF1
330
1F
100
AcDbEntity
  8
AM_0
100
AcDbLine
 10
12.61839742162363
 20
1.730643542974256
 30
0.0
 11
6.44169271363819
 21
1.190251903077829
 31
0.0
  0
SPLINE
  5
1CCF2
330
1F
100
AcDbEntity
  8
AM_0
100
AcDbSpline
210
0.0
220
0.0
230
1.0
 70
     8
 71
     3
 72
    12
 73
     8
 74
     0
 42
0.0000000001
 43
0.0000000001
 40
34.80668298289353
 40
34.80668298289353
 40
34.80668298289353
 40
34.80668298289353
 40
34.91347236454083
 40
34.91347236454083
 40
36.79070423968248
 40
36.79070423968248
 40
38.35211563932751
 40
38.35211563932751
 40
38.35211563932751
 40
38.35211563932751
 10
12.61839742162368
 20
1.763303691099388
 30
0.0
 10
12.58132034260711
 20
1.759186124180324
 30
0.0
 10
12.54419788542339
 20
1.755095697263378
 30
0.0
 10
11.85373198206287
 20
1.679580456560949
 30
0.0
 10
11.18734461498218
 20
1.615670465480285
 30
0.0
 10
9.980344457912793
 20
1.504255156304104
 30
0.0
 10
9.437418689799983
 20
1.455922622500587
 30
0.0
 10
8.911548183265154
 20
1.409657064072256
 30
0.0
  0
LINE
  5
1CCF3
330
1F
100
AcDbEntity
  8
AM_0
100
AcDbLine
 10
6.769593114264012
 20
4.938170632327704
 30
0.0
 11
6.412042975268662
 21
0.8513538427509886
 31
0.0
  0
ELLIPSE
  5
1CCF4
330
1F
100
AcDbEntity
  8
AM_0
100
AcDbEllipse
 10
6.013519462978479
 20
0.8851526922418245
 30
0.0
 11
-0.3999996466728364
 21
-0.0005316592951136478
 31
0.0
210
0.0
220
0.0
230
1.0
 40
0.9848042730258675
 41
1.658073040302359
 42
3.054336441897808
  0
LINE
  5
1CCF5
330
1F
100
AcDbEntity
  8
AM_0
100
AcDbLine
 10
6.769593114257418
 20
4.938170632252444
 30
0.0
 11
6.430868960758687
 21
1.066535841552955
 31
0.0
  0
LINE
  5
1CCF6
330
1F
100
AcDbEntity
  8
AM_0
100
AcDbLine
 10
6.768785246116408
 20
4.939548607486152
 30
0.0
 11
6.769801462776741
 21
4.940552066724159
 31
0.0
  0
SPLINE
  5
1CCF7
330
1F
100
AcDbEntity
  8
AM_0
100
AcDbSpline
210
0.0
220
0.0
230
1.0
 70
    12
 71
     2
 72
     6
 73
     3
 74
     0
 42
0.0000000001
 43
0.0000000001
 40
3.912082658504035
 40
3.912082658504035
 40
3.912082658504035
 40
6.424396240911925
 40
6.424396240911925
 40
6.424396240911925
 10
8.91154818326541
 20
1.409657064072249
 30
0.0
 41
1.001079740254228
 10
7.694751877002801
 20
1.302604548475764
 30
0.0
 41
1.001266662864092
 10
6.441889776065324
 20
1.19250433692573
 30
0.0
 41
1.00124836819802
  0
LINE
  5
1CCF8
330
1F
100
AcDbEntity
  8
AM_0
100
AcDbLine
 10
6.768785245293543
 20
4.939548607094302
 30
0.0
 11
6.769593114203815
 21
4.938170632332962
 31
0.0
  0
ELLIPSE
  5
1CCF9
330
1F
100
AcDbEntity
  8
AM_0
100
AcDbEllipse
 10
6.7722477021141
 20
2.334532221213145
 30
0.0
 11
-10.89123488170929
 21
-11.06600937173909
 31
0.0
210
0.0
220
0.0
230
1.0
 40
0.1186969632234887
 41
4.559749810120661
 42
4.592682539201982
  0
LINE
  5
1CCFA
330
1F
100
AcDbEntity
  8
AM_0
100
AcDbLine
 10
12.61839742162368
 20
1.730643542974256
 30
0.0
 11
12.61839742162368
 21
1.763303691099388
 31
0.0
  0
SPLINE
  5
1CCFB
330
1F
100
AcDbEntity
  8
AM_0
100
AcDbSpline
210
0.0
220
0.0
230
1.0
 70
     8
 71
     3
 72
    10
 73
     6
 74
     0
 42
0.0000000001
 43
0.0000000001
 40
17.14592718558569
 40
17.14592718558569
 40
17.14592718558569
 40
17.14592718558569
 40
17.85289967175491
 40
17.85289967175491
 40
18.32686363555543
 40
18.32686363555543
 40
18.32686363555543
 40
18.32686363555543
 10
13.59799820426497
 20
2.393538598745373
 30
0.0
 10
13.41214877745369
 20
2.267730128107381
 30
0.0
 10
13.21975241314283
 20
2.142049789380472
 30
0.0
 10
12.88977861520914
 20
1.932010402681833
 30
0.0
 10
12.7550317617571
 20
1.847684883966984
 30
0.0
 10
12.61839742162368
 20
1.763303691099388
 30
0.0
  0
LINE
  5
1CCFC
330
1F
100
AcDbEntity
  8
AM_0
100
AcDbLine
 10
6.573999294388273
 20
6.901996643606076
 30
0.0
 11
6.784038654947494
 21
6.689321555354461
 31
0.0
  0
ELLIPSE
  5
1CCFD
330
1F
100
AcDbEntity
  8
AM_0
100
AcDbEllipse
 10
6.497289242413501
 20
6.414666573679362
 30
0.0
 11
-0.3999996466728364
 21
-0.0005316592951136478
 31
0.0
210
0.0
220
0.0
230
1.0
 40
0.9848042730258675
 41
3.054336441897658
 42
4.799665693892152
  0
ELLIPSE
  5
1CCFE
330
1F
100
AcDbEntity
  8
AM_0
100
AcDbEllipse
 10
6.49673986606183
 20
6.827995840313399
 30
0.0
 11
0.1077726498534907
 21
0.0001432459541658088
 31
0.0
210
0.0
220
0.0
230
1.0
 40
0.9848042730258675
 41
0.770179730804329
 42
1.658073040302963
  0
ELLIPSE
  5
1CCFF
330
1F
100
AcDbEntity
  8
AM_0
100
AcDbEllipse
 10
6.24439896358399
 20
6.578822785386301
 30
0.0
 11
1.249998895852614
 21
0.00166143529723015
 31
0.0
210
0.0
220
0.0
230
1.0
 40
0.9848042730258675
 41
5.497797394689814
 42
6.110189367421705
  0
ELLIPSE
  5
1CD00
330
1F
100
AcDbEntity
  8
AM_0
100
AcDbEllipse
 10
11.42640585704191
 20
14.5000000000002
 30
0.0
 11
9.321686720615722
 21
-2.390575090057212
 31
0.0
210
0.0
220
0.0
230
1.0
 40
0.4089924271739005
 41
4.893581684270035
 42
4.927454276761583
  0
LINE
  5
1CD01
330
1F
100
AcDbEntity
  8
AM_0
100
AcDbLine
 10
19.96055571827208
 20
3.33813920562806
 30
0.0
 11
15.25
 21
3.33813920562806
 31
0.0
  0
LINE
  5
1CD02
330
1F
100
AcDbEntity
  8
AM_0
100
AcDbLine
 10
15.25
 20
3.249999999999908
 30
0.0
 11
15.25
 21
3.33813920562806
 31
0.0
  0
LINE
  5
1CD03
330
1F
100
AcDbEntity
  8
AM_0
100
AcDbLine
 10
17.38284798807104
 20
8.00000000000022
 30
0.0
 11
19.96055571827208
 21
8.00000000000022
 31
0.0
  0
LINE
  5
1CD04
330
1F
100
AcDbEntity
  8
AM_0
100
AcDbLine
 10
14.9296634861023
 20
10.67705098312484
 30
0.0
 11
17.38284798807104
 21
8.00000000000022
 31
0.0
  0
ELLIPSE
  5
1CD05
330
1F
100
AcDbEntity
  8
AM_0
100
AcDbEllipse
 10
6.179094658174904
 20
8.999999999999965
 30
0.0
 11
-11.91104414300897
 21
3.054623726184213
 31
0.0
210
0.0
220
0.0
230
1.0
 40
0.4089924271739003
 41
3.997617790125202
 42
4.003248320416297
  0
ARC
  5
1CD06
330
1F
100
AcDbEntity
  8
AM_0
100
AcDbCircle
 10
19.96055571827208
 20
3.50000000000022
 30
0.0
 40
4.5
100
AcDbArc
 50
58.16213144424106
 51
90.0
  0
SPLINE
  5
1CD12
330
1F
100
AcDbEntity
  8
AM_0
100
AcDbSpline
210
0.0
220
0.0
230
1.0
 70
     8
 71
     3
 72
    18
 73
    14
 74
     0
 42
0.0000000001
 43
0.0000000001
 40
1.389390615473358
 40
1.389390615473358
 40
1.389390615473358
 40
1.389390615473358
 40
1.678431935873381
 40
1.678431935873381
 40
2.517647903810072
 40
2.517647903810072
 40
3.356863871746763
 40
3.356863871746763
 40
4.196079839683454
 40
4.196079839683454
 40
5.035295807620146
 40
5.035295807620146
 40
5.324337128020174
 40
5.324337128020174
 40
5.324337128020174
 40
5.324337128020174
 10
23.5
 20
6.274599229977461
 30
0.0
 10
23.55605419308142
 20
6.201000838847612
 30
0.0
 10
23.60866232221247
 20
6.126262635243243
 30
0.0
 10
23.79936008622337
 20
5.831993868351752
 30
0.0
 10
23.90967376646665
 20
5.607001627156954
 30
0.0
 10
24.05714065068514
 20
5.168560606705533
 30
0.0
 10
24.09433064158668
 20
4.95516441348348
 30
0.0
 10
24.09433064158668
 20
4.559554212278094
 30
0.0
 10
24.05714065068514
 20
4.374478344877154
 30
0.0
 10
23.90967376646665
 20
4.043898673435358
 30
0.0
 10
23.79936008622337
 20
3.898341541007589
 30
0.0
 10
23.60866232221247
 20
3.732256343711576
 30
0.0
 10
23.55605419308142
 20
3.692229414807592
 30
0.0
 10
23.5
 20
3.654703876981152
 30
0.0
  0
LINE
  5
1CD13
330
1F
100
AcDbEntity
  8
AM_0
100
AcDbLine
 10
23.25
 20
3.249999999999908
 30
0.0
 11
23.5
 21
2.999999999999908
 31
0.0
  0
LINE
  5
1CD14
330
1F
100
AcDbEntity
  8
AM_0
100
AcDbLine
 10
23.5
 20
2.999999999999908
 30
0.0
 11
23.5
 21
3.654703876981152
 31
0.0
  0
SPLINE
  5
1CD15
330
1F
100
AcDbEntity
  8
AM_0
100
AcDbSpline
210
0.0
220
0.0
230
1.0
 70
     8
 71
     3
 72
    10
 73
     6
 74
     0
 42
0.0000000001
 43
0.0000000001
 40
6.566501048431808
 40
6.566501048431808
 40
6.566501048431808
 40
6.566501048431808
 40
6.820793270385913
 40
6.820793270385913
 40
6.951993380042448
 40
6.951993380042448
 40
6.951993380042448
 40
6.951993380042448
 10
23.5
 20
3.654703876981152
 30
0.0
 10
23.44792778430667
 20
3.680004508538353
 30
0.0
 10
23.39375107070566
 20
3.709110530240075
 30
0.0
 10
23.30900645420877
 20
3.758572088443536
 30
0.0
 10
23.27970443857413
 20
3.776341780547419
 30
0.0
 10
23.25
 20
3.794994585644012
 30
0.0
  0
LINE
  5
1CD16
330
1F
100
AcDbEntity
  8
AM_0
100
AcDbLine
 10
23.25
 20
3.249999999999908
 30
0.0
 11
23.25
 21
3.794994585644012
 31
0.0
  0
SPLINE
  5
1CD17
330
1F
100
AcDbEntity
  8
AM_0
100
AcDbSpline
210
0.0
220
0.0
230
1.0
 70
    12
 71
     2
 72
     6
 73
     3
 74
     0
 42
0.0000000001
 43
0.0000000001
 40
0.0
 40
0.0
 40
0.0
 40
0.7632067745941116
 40
0.7632067745941116
 40
0.7632067745941116
 10
23.5
 20
11.39791576165637
 30
0.0
 41
1.0
 10
23.3528874030244
 20
11.0298145981509
 30
0.0
 41
1.00188725231726
 10
23.25
 20
10.67705098312487
 30
0.0
 41
1.0
  0
LINE
  5
1CD18
330
1F
100
AcDbEntity
  8
AM_0
100
AcDbLine
 10
23.25
 20
6.556555988665899
 30
0.0
 11
23.25
 21
7.322949016875008
 31
0.0
  0
SPLINE
  5
1CD19
330
1F
100
AcDbEntity
  8
AM_0
100
AcDbSpline
210
0.0
220
0.0
230
1.0
 70
    12
 71
     2
 72
     6
 73
     3
 74
     0
 42
0.0000000001
 43
0.0000000001
 40
0.0
 40
0.0
 40
0.0
 40
0.7632067745941114
 40
0.7632067745941114
 40
0.7632067745941114
 10
23.25
 20
7.322949016875008
 30
0.0
 41
1.0
 10
23.3528874030244
 20
6.970185401848958
 30
0.0
 41
1.001887252317923
 10
23.5
 20
6.602084238343529
 30
0.0
 41
1.0
  0
LINE
  5
1CD1A
330
1F
100
AcDbEntity
  8
AM_0
100
AcDbLine
 10
23.5
 20
6.274599229977461
 30
0.0
 11
23.5
 21
6.602084238343529
 31
0.0
  0
SPLINE
  5
1CD1B
330
1F
100
AcDbEntity
  8
AM_0
100
AcDbSpline
210
0.0
220
0.0
230
1.0
 70
     8
 71
     3
 72
    10
 73
     6
 74
     0
 42
0.0000000001
 43
0.0000000001
 40
1.383235906571971
 40
1.383235906571971
 40
1.383235906571971
 40
1.383235906571971
 40
1.514436016228508
 40
1.514436016228508
 40
1.768728238182614
 40
1.768728238182614
 40
1.768728238182614
 40
1.768728238182614
 10
23.25
 20
6.556555988665899
 30
0.0
 10
23.27970443857413
 20
6.526388499687833
 30
0.0
 10
23.30900645420877
 20
6.495517497721856
 30
0.0
 10
23.39375107070566
 20
6.402991116340949
 30
0.0
 10
23.44792778430667
 20
6.339614962098999
 30
0.0
 10
23.5
 20
6.274599229977461
 30
0.0
  0
SPLINE
  5
1CD1C
330
1F
100
AcDbEntity
  8
AM_0
100
AcDbSpline
210
0.0
220
0.0
230
1.0
 70
     8
 71
     3
 72
    38
 73
    34
 74
     0
 42
0.0000000001
 43
0.0000000001
 40
-6.85358074113212
 40
-6.85358074113212
 40
-6.85358074113212
 40
-6.85358074113212
 40
-6.425067873996742
 40
-6.425067873996742
 40
-5.996555006861365
 40
-5.996555006861365
 40
-5.568042139725987
 40
-5.568042139725987
 40
-5.139529272590609
 40
-5.139529272590609
 40
-4.711344547084464
 40
-4.711344547084464
 40
-4.283159821578318
 40
-4.283159821578318
 40
-3.854975096072172
 40
-3.854975096072172
 40
-3.426790370566026
 40
-3.426790370566026
 40
-2.998605645059881
 40
-2.998605645059881
 40
-2.570420919553737
 40
-2.570420919553737
 40
-2.142236194047593
 40
-2.142236194047593
 40
-1.714051468541447
 40
-1.714051468541447
 40
-1.285538601406085
 40
-1.285538601406085
 40
-0.8570257342707226
 40
-0.8570257342707226
 40
-0.4285128671353622
 40
-0.4285128671353622
 40
0.0
 40
0.0
 40
0.0
 40
0.0
 10
-45.79874661800568
 20
14.86835572572747
 30
0.0
 10
-45.79874661800568
 20
14.86835572572747
 30
0.0
 10
-45.78415425597518
 20
14.87152676188174
 30
0.0
 10
-45.72342451311999
 20
14.88397702086772
 30
0.0
 10
-45.67730932466816
 20
14.89323391681342
 30
0.0
 10
-45.55646634221603
 20
14.91509515638373
 30
0.0
 10
-45.48165103918643
 20
14.9276697811406
 30
0.0
 10
-45.31011383719658
 20
14.95213290124207
 30
0.0
 10
-45.21338579579515
 20
14.9639651542978
 30
0.0
 10
-45.00871884858327
 20
14.98322812211822
 30
0.0
 10
-44.89356309347534
 20
14.99138861079897
 30
0.0
 10
-44.64386223967972
 20
15.00054740371775
 30
0.0
 10
-44.50932374350714
 20
15.00150010003012
 30
0.0
 10
-44.22972920853169
 20
14.99314303023821
 30
0.0
 10
-44.0844310461971
 20
14.98379356877274
 30
0.0
 10
-43.79329589316444
 20
14.95404447294178
 30
0.0
 10
-43.64745700123524
 20
14.93363101716955
 30
0.0
 10
-43.3663372429686
 20
14.88406201897692
 30
0.0
 10
-43.22231169933014
 20
14.85336455401071
 30
0.0
 10
-42.93855935435408
 20
14.78174547307075
 30
0.0
 10
-42.79882603924409
 20
14.74083619471154
 30
0.0
 10
-42.53323483170755
 20
14.65306230860103
 30
0.0
 10
-42.40713584097182
 20
14.60615219116267
 30
0.0
 10
-42.17562628292296
 20
14.51214301923787
 30
0.0
 10
-42.07020632111517
 20
14.46508908037581
 30
0.0
 10
-41.88447062411626
 20
14.37698759304107
 30
0.0
 10
-41.7976228662742
 20
14.33278597357361
 30
0.0
 10
-41.64479750321743
 20
14.25112898172259
 30
0.0
 10
-41.57879489000015
 20
14.2137243589643
 30
0.0
 10
-41.47271661540731
 20
14.15185077928064
 30
0.0
 10
-41.43254855799114
 20
14.12737981910533
 30
0.0
 10
-41.3797395061307
 20
14.09490960725387
 30
0.0
 10
-41.3671117294507
 20
14.08693892622634
 30
0.0
 10
-41.3671117294507
 20
14.08693892622634
 30
0.0
  0
ARC
  5
1CD1D
330
1F
100
AcDbEntity
  8
AM_0
100
AcDbCircle
 10
-44.54878618810346
 20
8.999999999999972
 30
0.0
 40
6.000000000000023
100
AcDbArc
 50
102.0243128370422
 51
127.3316239817983
  0
SPLINE
  5
1CD1E
330
1F
100
AcDbEntity
  8
AM_0
100
AcDbSpline
210
0.0
220
0.0
230
1.0
 70
    28
 71
     2
 72
     6
 73
     3
 74
     0
 42
0.0000000001
 43
0.0000000001
 40
0.0454349538265474
 40
0.0454349538265474
 40
0.0454349538265474
 40
0.3684419925851884
 40
0.3684419925851884
 40
0.3684419925851884
 10
-45.84005542419197
 20
14.63408184421306
 30
0.0
 41
1.000057380586889
 10
-45.81978647046151
 20
14.74903279300748
 30
0.0
 41
1.000232655873821
 10
-45.79874661800568
 20
14.86835572572753
 30
0.0
 41
1.0
  0
SPLINE
  5
1CD1F
330
1F
100
AcDbEntity
  8
AM_0
100
AcDbSpline
210
0.0
220
0.0
230
1.0
 70
    28
 71
     2
 72
     6
 73
     3
 74
     0
 42
0.0000000001
 43
0.0000000001
 40
0.0
 40
0.0
 40
0.0
 40
0.3684419925851865
 40
0.3684419925851865
 40
0.3684419925851865
 10
-41.3671117294507
 20
14.08693892622637
 30
0.0
 41
1.0
 10
-41.3911103134111
 20
13.95083619331567
 30
0.0
 41
1.00026538181106
 10
-41.41410895637353
 20
13.82040440760671
 30
0.0
 41
1.0
  0
ARC
  5
1CD20
330
1F
100
AcDbEntity
  8
AM_0
100
AcDbCircle
 10
-44.54878618810346
 20
9.0
 30
0.0
 40
5.750000000000025
100
AcDbArc
 50
79.95512356972051
 51
90.0
  0
ARC
  5
1CD21
330
1F
100
AcDbEntity
  8
AM_0
100
AcDbCircle
 10
-39.04878618810346
 20
14.50000000000023
 30
0.0
 40
4.5
100
AcDbArc
 50
177.9386797152798
 51
219.9062719958355
  0
LINE
  5
1CD22
330
1F
100
AcDbEntity
  8
AM_0
100
AcDbLine
 10
17.96055571885188
 20
14.6018212071078
 30
0.0
 11
23.25
 21
14.6018212071078
 31
0.0
  0
LINE
  5
1CD23
330
1F
100
AcDbEntity
  8
AM_0
100
AcDbLine
 10
23.25
 20
13.82040440760664
 30
0.0
 11
17.96055571885188
 21
13.82040440760664
 31
0.0
  0
LINE
  5
1CD24
330
1F
100
AcDbEntity
  8
AM_0
100
AcDbLine
 10
9.159183962430177
 20
14.66186079437182
 30
0.0
 11
3.878573233616805
 21
11.61309876860582
 31
0.0
  0
LINE
  5
1CD25
330
1F
100
AcDbEntity
  8
AM_0
100
AcDbLine
 10
9.311845544716903
 20
14.74999999999994
 30
0.0
 11
15.25
 21
14.74999999999994
 31
0.0
  0
LINE
  5
1CD26
330
1F
100
AcDbEntity
  8
AM_0
100
AcDbLine
 10
9.159183962430177
 20
14.66186079437182
 30
0.0
 11
12.46055571827208
 21
14.66186079437182
 31
0.0
  0
LINE
  5
1CD27
330
1F
100
AcDbEntity
  8
AM_0
100
AcDbLine
 10
9.159183962430177
 20
14.66186079437182
 30
0.0
 11
9.311845544716903
 21
14.74999999999997
 31
0.0
  0
LINE
  5
1CD28
330
1F
100
AcDbEntity
  8
AM_0
100
AcDbLine
 10
15.25
 20
14.74999999999997
 30
0.0
 11
15.94423638963656
 21
14.74999999999997
 31
0.0
  0
SPLINE
  5
1CD29
330
1F
100
AcDbEntity
  8
AM_0
100
AcDbSpline
210
0.0
220
0.0
230
1.0
 70
     8
 71
     3
 72
    38
 73
    34
 74
     0
 42
0.0000000001
 43
0.0000000001
 40
0.0
 40
0.0
 40
0.0
 40
0.0
 40
0.4289870169782306
 40
0.4289870169782306
 40
0.8579740339564612
 40
0.8579740339564612
 40
1.286961050934692
 40
1.286961050934692
 40
1.715948067912922
 40
1.715948067912922
 40
2.144540500616558
 40
2.144540500616558
 40
2.573132933320194
 40
2.573132933320194
 40
3.001725366023829
 40
3.001725366023829
 40
3.430317798727465
 40
3.430317798727465
 40
3.858910231431101
 40
3.858910231431101
 40
4.287502664134737
 40
4.287502664134737
 40
4.716095096838373
 40
4.716095096838373
 40
5.14468752954201
 40
5.14468752954201
 40
5.573674546520232
 40
5.573674546520232
 40
6.002661563498456
 40
6.002661563498456
 40
6.431648580476679
 40
6.431648580476679
 40
6.860635597454902
 40
6.860635597454902
 40
6.860635597454902
 40
6.860635597454902
 10
17.96055571885188
 20
13.82040440760664
 30
0.0
 10
17.81756004652584
 20
13.82040440760664
 30
0.0
 10
17.67024583916657
 20
13.82867903863146
 30
0.0
 10
17.37826975643384
 20
13.86232897180676
 30
0.0
 10
17.23360186674256
 20
13.88767300878879
 30
0.0
 10
16.95697090047565
 20
13.95164867236477
 30
0.0
 10
16.82475845487181
 20
13.99028076449383
 30
0.0
 10
16.58059693788124
 20
14.07447842213361
 30
0.0
 10
16.46864591088843
 20
14.1199910664842
 30
0.0
 10
16.27057614613921
 20
14.21055040496753
 30
0.0
 10
16.177432864445
 20
14.25884919098632
 30
0.0
 10
16.0127632592114
 20
14.3551692987055
 30
0.0
 10
15.94122429994752
 20
14.40314427031384
 30
0.0
 10
15.82592674818477
 20
14.49269085933883
 30
0.0
 10
15.78207652665515
 20
14.53430917984118
 30
0.0
 10
15.72438245305875
 20
14.60688841802408
 30
0.0
 10
15.71055571885188
 20
14.63783648151991
 30
0.0
 10
15.71055571885188
 20
14.68745267812045
 30
0.0
 10
15.72438245305875
 20
14.70765045568598
 30
0.0
 10
15.7820765266552
 20
14.73648108890961
 30
0.0
 10
15.82592674818477
 20
14.74512833871014
 30
0.0
 10
15.94122429994752
 20
14.75170141109799
 30
0.0
 10
16.0127632592114
 20
14.74966647480775
 30
0.0
 10
16.177432864445
 20
14.73815067460449
 30
0.0
 10
16.27057614613921
 20
14.72871689449647
 30
0.0
 10
16.46864591088843
 20
14.70694646341238
 30
0.0
 10
16.5805969378813
 20
14.69378615000872
 30
0.0
 10
16.82475845487187
 20
14.66676415298238
 30
0.0
 10
16.95697090047565
 20
14.65296112980161
 30
0.0
 10
17.23360186674262
 20
14.62900954223673
 30
0.0
 10
17.37826975643384
 20
14.61889224123615
 30
0.0
 10
17.67024583916663
 20
14.6052856704901
 30
0.0
 10
17.81756004652584
 20
14.6018212071078
 30
0.0
 10
17.96055571885188
 20
14.6018212071078
 30
0.0
  0
SPLINE
  5
1CD2C
330
1F
100
AcDbEntity
  8
AM_0
100
AcDbSpline
210
0.0
220
0.0
230
1.0
 70
    12
 71
     2
 72
     6
 73
     3
 74
     0
 42
0.0000000001
 43
0.0000000001
 40
0.0
 40
0.0
 40
0.0
 40
0.3684419925851865
 40
0.3684419925851865
 40
0.3684419925851865
 10
23.5
 20
14.08693892622631
 30
0.0
 41
1.0
 10
23.37188300472681
 20
13.95083619331561
 30
0.0
 41
1.00026538181106
 10
23.25
 20
13.82040440760664
 30
0.0
 41
1.0
  0
SPLINE
  5
1CD2D
330
1F
100
AcDbEntity
  8
AM_0
100
AcDbSpline
210
0.0
220
0.0
230
1.0
 70
    12
 71
     2
 72
     6
 73
     3
 74
     0
 42
0.0000000001
 43
0.0000000001
 40
0.0
 40
0.0
 40
0.0
 40
0.3684419925851884
 40
0.3684419925851884
 40
0.3684419925851884
 10
23.25
 20
14.6018212071078
 30
0.0
 41
1.0
 10
23.37188300472587
 20
14.73225299281579
 30
0.0
 41
1.000265381813557
 10
23.5
 20
14.86835572572747
 30
0.0
 41
1.0
  0
TEXT
  5
1D409
330
1F
100
AcDbEntity
  8
AM_0
100
AcDbText
 10
31.35256565374527
 20
-107.1168154417116
 30
0.0
 40
5.0
  1
B12M-SCLCR0602-16
100
AcDbText
  0
DIMENSION
  5
1D98E
330
1F
100
AcDbEntity
  8
AM_5
100
AcDbDimension
  2
*D7
 10
106.7500000000001
 20
-8.140768003899481
 30
0.0
 11
101.2500000000001
 21
-4.740768003899481
 31
0.0
 70
    32
 71
     5
 42
11.0
  3
AM_JIS$0
100
AcDbAlignedDimension
 13
95.75000000000006
 23
6.602084238343636
 33
0.0
 14
106.7500000000001
 24
6.602084238343636
 34
0.0
100
AcDbRotatedDimension
1001
ACAD
1000
DSTYLE
1002
{
1070
   179
1070
     2
1070
   271
1070
     0
1002
}
  0
DIMENSION
  5
1DA60
330
1F
100
AcDbEntity
  8
AM_5
100
AcDbDimension
  2
*D8
 10
-8.641905764872604
 20
8.999999999999995
 30
0.0
 11
-12.04190576487261
 21
4.499999999999997
 31
0.0
 70
    32
 71
     5
 42
8.999999999999993
  3
AM_JIS$0
100
AcDbAlignedDimension
 13
-1.814815841909422
 23
0.0
 33
0.0
 14
-2.165548451965719
 24
8.999999999999993
 34
0.0
 50
90.0
100
AcDbRotatedDimension
1001
ACAD
1000
DSTYLE
1002
{
1070
   179
1070
     2
1070
   271
1070
     0
1002
}
  0
DIMENSION
  5
1DA8D
330
1F
100
AcDbEntity
  8
AM_5
100
AcDbDimension
  2
*D9
 10
0.485246256488324
 20
5.957234450959611
 30
0.0
 11
-19.39401206030543
 21
21.12562399410483
 31
0.0
 70
    34
 71
     5
 42
1.658062789394614
  3
AM_JIS$2
100
AcDb2LineAngularDimension
 13
-1.814815841909422
 23
0.0
 33
0.0
 14
0.3999837067995031
 24
0.0
 34
0.0
 15
0.001476477053302
 25
0.42772056952208
 35
0.0
 16
-11.3697234326836
 26
22.56740984827817
 36
0.0
1001
ACAD
1000
DSTYLE
1002
{
1070
   271
1070
     0
1002
}
  0
DIMENSION
  5
1DAE6
330
1F
100
AcDbEntity
  8
AM_5
100
AcDbDimension
  2
*D10
 10
150.0
 20
-26.94192904356772
 30
0.0
 11
75.0
 21
-23.54192904356772
 31
0.0
 70
    32
 71
     5
 42
150.0
  3
AM_JIS$0
100
AcDbAlignedDimension
 13
0.0
 23
-1.283263316160088
 33
0.0
 14
150.0
 24
3.99999999999995
 34
0.0
100
AcDbRotatedDimension
1001
ACAD
1000
DSTYLE
1002
{
1070
   179
1070
     0
1070
   271
1070
     0
1002
}
  0
DIMENSION
  5
1DB28
330
1F
100
AcDbEntity
  8
AM_5
100
AcDbDimension
  2
*D11
 10
-43.49826284395624
 20
5.95723445087075
 30
0.0
 11
-47.13302679723768
 21
-14.656536276534
 31
0.0
 70
   162
 71
     5
 42
0.1745329251948036
  3
AM_JIS$2
100
AcDb2LineAngularDimension
 13
-44.54878618810346
 23
-1.588845057297469
 33
0.0
 14
-44.54878618810346
 24
19.50552737384305
 34
0.0
 15
-44.47326533142928
 25
0.4277205694332125
 35
0.0
 16
-45.41410035437008
 26
-14.85744996292016
 36
0.0
1001
ACAD
1000
DSTYLE
1002
{
1070
   179
1070
     0
1070
   271
1070
     0
1002
}
  0
ENDSEC
  0
SECTION
  2
OBJECTS
  0
DICTIONARY
  5
C
330
0
100
AcDbDictionary
281
     1
  3
ACAD_COLOR
350
1D484
  3
ACAD_GROUP
350
D
  3
ACAD_LAYOUT
350
1A
  3
ACAD_MATERIAL
350
1D483
  3
ACAD_MLINESTYLE
350
17
  3
ACAD_PLOTSETTINGS
350
19
  3
ACAD_PLOTSTYLENAME
350
E
  3
ACAD_TABLESTYLE
350
1D485
  3
AcAmCatalogState
350
1D4EC
  3
ACDBHEADERROUNDTRIPXREC
350
1DDB7
  3
AcDbVariableDictionary
350
30
  3
ACDMSYSVARMGR
350
1D49F
  3
ACGREF_MASTER
350
1D497
  3
ACGREFACAD_MASTER
350
1D4BF
  3
AcmDictionary
350
4D
  3
ACME_BOM_MANAGER_NAME
350
36
  3
ACME_COMMAND_HISTORY
350
2F
  3
ACME_SCOPE_NAME
350
2E
  3
ACMESTATEMGR
350
3B
  3
AcmeSysVarManager
350
32
  3
AcmSystemVariableManager
350
6A
  3
AD_APPL
350
1D4CA
  3
ADSYSVARMGR
350
1D4C9
  3
AmdtNamedDwgMgr
350
1D4BA
  3
AMG
350
3F
  3
AMGSNAPSETTINGS
350
73
  3
AMI_MASTER
350
1D4C2
  3
ASE_INDEX_DICTIONARY
350
1D582
  3
AUTOCAD_ASSEMBLIES_PROJECT
350
1D4D2
  3
Designer_Assemblies_SysVars
350
1D4CD
  3
DWGPROPS
350
1DDBA
  3
eng_data
350
2A40
  3
FILENAME
350
2916
  3
GREFAM_MODULE
350
1D4C3
  3
line_dic_data
350
2A3E
  3
table_dic_data
350
1688
  3
ZWKSIZE
350
2918
  0
DICTIONARY
  5
1D8F5
330
2
100
AcDbDictionary
280
     1
281
     1
  3
ACAD_LAYERSTATES
360
1D8F6
  0
DICTIONARY
  5
165
330
1F
100
AcDbDictionary
280
     1
281
     1
  0
DICTIONARY
  5
1D484
102
{ACAD_REACTORS
330
C
102
}
330
C
100
AcDbDictionary
281
     1
  0
DICTIONARY
  5
D
102
{ACAD_REACTORS
330
C
102
}
330
C
100
AcDbDictionary
281
     1
  0
DICTIONARY
  5
1A
102
{ACAD_REACTORS
330
C
102
}
330
C
100
AcDbDictionary
281
     1
  3
Model
350
22
  3
ﾚｲｱｳﾄ1
350
1E
  3
ﾚｲｱｳﾄ2
350
26
  0
DICTIONARY
  5
1D483
102
{ACAD_REACTORS
330
C
102
}
330
C
100
AcDbDictionary
281
     1
  0
DICTIONARY
  5
17
102
{ACAD_REACTORS
330
C
102
}
330
C
100
AcDbDictionary
281
     1
  3
Standard
350
18
  0
DICTIONARY
  5
19
102
{ACAD_REACTORS
330
C
102
}
330
C
100
AcDbDictionary
281
     1
  0
ACDBDICTIONARYWDFLT
  5
E
102
{ACAD_REACTORS
330
C
102
}
330
C
100
AcDbDictionary
281
     1
  3
Normal
350
F
100
AcDbDictionaryWithDefault
340
F
  0
DICTIONARY
  5
1D485
102
{ACAD_REACTORS
330
C
102
}
330
C
100
AcDbDictionary
281
     1
  3
Standard
350
1D486
  0
ACAD_PROXY_OBJECT
  5
1D4EC
102
{ACAD_REACTORS
330
C
102
}
330
C
100
AcDbProxyObject
 90
      499
 91
      571
 95
       25
 70
     0
 93
      696
310
3FFFFFFFE00A02814029F2E2E2816B9B2B93B32B92E483ECB652E4AABC7C0483ECB652E487CC6F6CBB846A445F7AE41BDC1B341A12E4B34482AE76F586C6EDC6F14413BC1B7C0AD94C008FF0200010040407FCFFFF0000
  0
DICTIONARY
  5
1DDB7
102
{ACAD_REACTORS
330
C
102
}
330
C
100
AcDbDictionary
281
     1
  3
COLORDICT
350
1DDB8
  3
MATERIALDICT
350
1DDB9
  0
DICTIONARY
  5
30
102
{ACAD_REACTORS
330
C
102
}
330
C
100
AcDbDictionary
281
     1
  3
CTABLESTYLE
350
1D534
  3
HIDETEXT
350
1DDB6
  3
INDEXCTL
350
1DDB5
  0
ACAD_PROXY_OBJECT
  5
1D49F
102
{ACAD_REACTORS
330
C
102
}
330
C
100
AcDbProxyObject
 90
      499
 91
      507
 95
       25
 70
     0
 93
      240
310
4C51A47A0000000000000000000000000000000000000000000000000000
330
1D4A0
330
1D4A1
330
1D4A2
330
1D4A3
330
1D4A4
330
1D4A5
330
1D4A6
330
1D4A7
330
1D4A8
330
1D4A9
330
1D4AA
330
1D4AB
330
1D4AC
330
1D4AD
330
1D4AE
330
1D4AF
330
1D4B0
330
1D4B1
330
1D4B2
330
1D4B3
330
1D4B4
330
1D4B5
330
1D4B6
330
1D4B7
330
1D4B8
330
1D4B9
 94
        0
  0
ACAD_PROXY_OBJECT
  5
1D497
102
{ACAD_REACTORS
330
C
102
}
330
C
100
AcDbProxyObject
 90
      499
 91
      535
 95
       25
 70
     0
 93
       34
310
0400004280
  0
ACAD_PROXY_OBJECT
  5
1D4BF
102
{ACAD_REACTORS
330
C
102
}
330
C
100
AcDbProxyObject
 90
      499
 91
      541
 95
       25
 70
     0
 93
      114
310
04000041C080000000000000000000
  0
DICTIONARY
  5
4D
102
{ACAD_REACTORS
330
C
102
}
330
C
100
AcDbDictionary
281
     1
  3
AcmBOMDATA
350
4E
  3
AcmStdDictionary
350
17E
  3
AMDTSECTSYM_ARROWCOLOR
350
1D4E0
  0
ACAD_PROXY_OBJECT
  5
36
102
{ACAD_REACTORS
330
C
102
}
330
C
100
AcDbProxyObject
 90
      499
 91
      510
 95
       25
 70
     0
 93
       50
310
00010040400000
330
0
330
0
330
37
 94
        0
  0
ACAD_PROXY_OBJECT
  5
2F
102
{ACAD_REACTORS
330
C
102
}
330
C
100
AcDbProxyObject
 90
      499
 91
      505
 95
       25
 70
     0
 93
     6376
310
47805055153415645404052D4D5347202D205050413A2020206465736B746F702E6172782046696C6556657273696F6E3A20392E322E302E34014390535115149154D15511109353D1102014213880B4815539113C05084E202D20554E444F014115539113E014115539113E0142111493D411D153D3501014B5354D1C80B4
310
81414104E88080819195CDADD1BDC0B985C9E08119A5B1955995C9CDA5BDB8E880E4B8C8B8C0B8D0050E414D4454524553455444424D4F4440805084E202D20554E444F014213880B4815539113C0504554E444F80504554E444F805054552415345404052D4D5347202D205050413A2020206465736B746F702E617278204
310
6696C6556657273696F6E3A20392E322E302E34014154155491D1601415454D05591501014B5354D1C80B481414104E88080819195CDADD1BDC0B985C9E08119A5B1955995C9CDA5BDB8E880E4B8C8B8C0B8D0050E414D4454524553455444424D4F4440805084E202D20554E444F014213880B4815539113C0504554E444F
310
80504554E444F8050844524F5047454F4D805055153415645404052D4D5347202D205050413A2020206465736B746F702E6172782046696C6556657273696F6E3A20392E322E302E34014390535115149154D15511109353D1102014213880B4815539113C05084E202D20554E444F014115539113E014115539113E014194
310
93D510551160142111493D411D153D36014311D4925417D4D514915510D2101014B5354D1C80B481414104E88080819195CDADD1BDC0B985C9E08119A5B1955995C9CDA5BDB8E880E4B8C8B8C0B8D005044D4F564540405184D5347202D20436F6D6D616E642043414E43454C4C45442E01411693D3D3601415454D0559150
310
1014B5354D1C80B481414104E88080819195CDADD1BDC0B985C9E08119A5B1955995C9CDA5BDB8E880E4B8C8B8C0B8D0050E414D4454524553455444424D4F4440805084E202D20554E444F014213880B4815539113C0504554E444F80504554E444F805055055524745805055153415645404052D4D5347202D205050413A
310
2020206465736B746F702E6172782046696C6556657273696F6E3A20392E322E302E34
  0
ACAD_PROXY_OBJECT
  5
2E
102
{ACAD_REACTORS
330
C
102
}
330
C
100
AcDbProxyObject
 90
      499
 91
      504
 95
       25
 70
     0
 93
      586
310
09000046408000000000000000001344E200000000000000000000000000000000000000000000000000000000000000000000000000000000000000000000000000000000AAA406AA80
360
33
360
34
360
35
360
37
360
6B
360
6C
360
1D498
360
1D499
360
1D49A
360
1D49B
360
1D49C
360
1D49D
360
1D4A0
360
1D4A1
360
1D4A2
360
1D4A3
360
1D4A4
360
1D4A5
360
1D4A6
360
1D4A7
360
1D4A8
360
1D4A9
360
1D4AA
360
1D4AB
360
1D4AC
360
1D4AD
360
1D4AE
360
1D4AF
360
1D4B0
360
1D4B1
360
1D4B2
360
1D4B3
360
1D4B4
360
1D4B5
360
1D4B6
360
1D4B7
360
1D4B8
360
1D4B9
360
1D4C5
360
1D4C6
360
1D4C7
360
1D4C8
360
1D4CE
360
1D4CF
360
1D4D0
360
1D4D1
360
1D4D6
360
1D4D7
360
1D4D8
360
1D4D9
360
1D4DA
360
1D4DB
 94
        0
  0
ACAD_PROXY_OBJECT
  5
3B
102
{ACAD_REACTORS
330
C
102
}
330
C
100
AcDbProxyObject
 90
      499
 91
      515
 95
       25
 70
     0
 93
       50
310
09000042641280
  0
ACAD_PROXY_OBJECT
  5
32
102
{ACAD_REACTORS
330
C
102
}
330
C
100
AcDbProxyObject
 90
      499
 91
      507
 95
       25
 70
     0
 93
       48
310
903412000000
330
33
330
34
330
35
 94
        0
  0
ACAD_PROXY_OBJECT
  5
6A
102
{ACAD_REACTORS
330
C
102
}
330
C
100
AcDbProxyObject
 90
      499
 91
      507
 95
       25
 70
     0
 93
       40
310
90240E0000
330
6B
330
6C
 94
        0
  0
ACAD_PROXY_OBJECT
  5
1D4CA
102
{ACAD_REACTORS
330
C
102
}
330
C
100
AcDbProxyObject
 90
      499
 91
      551
 95
       25
 70
     0
 93
       42
310
000900004040
330
1D4C5
 94
        0
  0
ACAD_PROXY_OBJECT
  5
1D4C9
102
{ACAD_REACTORS
330
C
102
}
330
C
100
AcDbProxyObject
 90
      499
 91
      507
 95
       25
 70
     0
 93
        8
310
AA
  0
ACAD_PROXY_OBJECT
  5
1D4BA
102
{ACAD_REACTORS
330
C
102
}
330
C
100
AcDbProxyObject
 90
      499
 91
      540
 95
       25
 70
     0
 93
       42
310
000100005E80
330
1D498
 94
        0
  0
DICTIONARY
  5
3F
102
{ACAD_REACTORS
330
C
102
}
330
C
100
AcDbDictionary
281
     1
  3
AcMgSettings
350
40
  3
AMGLAYCFG
350
42
  0
DICTIONARY
  5
73
102
{ACAD_REACTORS
330
C
102
}
330
C
100
AcDbDictionary
281
     1
  3
DIMENSION
350
62F
  3
FEA
350
630
  3
HATCH (1)
350
631
  3
HATCH (2)
350
632
  3
SYMBOLS
350
633
  0
ACAD_PROXY_OBJECT
  5
1D4C2
102
{ACAD_REACTORS
330
C
102
}
330
C
100
AcDbProxyObject
 90
      499
 91
      544
 95
       25
 70
     0
 93
       34
310
0500004280
  0
DICTIONARY
  5
1D582
102
{ACAD_REACTORS
330
C
102
}
330
C
100
AcDbDictionary
281
     1
  3
ASEBlockHierarchyIndexRecord
350
1D584
1001
DCO15
1040
1562583529.687
  0
ACAD_PROXY_OBJECT
  5
1D4D2
102
{ACAD_REACTORS
330
C
102
}
330
C
100
AcDbProxyObject
 90
      499
 91
      554
 95
       25
 70
     0
 93
       98
310
0900004E400000000000000000
330
1D4D9
330
0
330
1D4DA
330
0
330
0
330
0
330
0
330
0
 94
        0
  0
ACAD_PROXY_OBJECT
  5
1D4CD
102
{ACAD_REACTORS
330
C
102
}
330
C
100
AcDbProxyObject
 90
      499
 91
      507
 95
       25
 70
     0
 93
       56
310
90441600000000
330
1D4CE
330
1D4CF
330
1D4D0
330
1D4D1
 94
        0
  0
XRECORD
  5
1DDBA
102
{ACAD_REACTORS
330
C
102
}
330
C
100
AcDbXrecord
280
     1
  1
DWGPROPS COOKIE
  2

  3

  4

  6

  7

  8

  9

300
AmdtFileType=82
301
=
302
=
303
=
304
=
305
=
306
=
307
=
308
=
309
=
 40
0.0
 41
2451943.235431667
 42
2455478.202877234
  1

 90
        1
  0
DICTIONARY
  5
2A40
102
{ACAD_REACTORS
330
C
102
}
330
C
100
AcDbDictionary
281
     1
  3
eng_id
350
2A41
  0
DICTIONARY
  5
2916
102
{ACAD_REACTORS
330
C
102
}
330
C
100
AcDbDictionary
281
     1
  3
FILENAME
350
2917
  0
ACAD_PROXY_OBJECT
  5
1D4C3
102
{ACAD_REACTORS
330
C
102
}
330
C
100
AcDbProxyObject
 90
      499
 91
      545
 95
       25
 70
     0
 93
        8
310
05
  0
DICTIONARY
  5
2A3E
102
{ACAD_REACTORS
330
C
102
}
330
C
100
AcDbDictionary
281
     1
  3
line_data
350
2A3F
  0
DICTIONARY
  5
1688
102
{ACAD_REACTORS
330
C
102
}
330
C
100
AcDbDictionary
281
     1
  3
input_data
350
168A
  3
table_data
350
1689
  0
DICTIONARY
  5
2918
102
{ACAD_REACTORS
330
C
102
}
330
C
100
AcDbDictionary
281
     1
  3
ZWKSIZE
350
2919
  0
DICTIONARY
  5
1D8F6
102
{ACAD_REACTORS
330
1D8F5
102
}
330
1D8F5
100
AcDbDictionary
281
     1
  0
LAYOUT
  5
22
102
{ACAD_REACTORS
330
1A
102
}
330
1A
100
AcDbPlotSettings
  1

  2
SII LP-2150 (D-SCAN C2)
  4
User262
  6
AM_VIEW1
 40
3.174999952316284
 41
3.174999952316284
 42
3.17498779296875
 43
3.17498779296875
 44
296.9259948730469
 45
419.9889831542969
 46
0.0
 47
0.0
 48
0.0
 49
0.0
140
420.0
141
297.0
142
1.0
143
1.022107788374329
 70
 11952
 72
     1
 73
     1
 74
     4
  7
sei_cad.ctb
 75
     0
147
0.9783703943695685
148
0.0
149
0.0
100
AcDbLayout
  1
Model
 70
     1
 71
     0
 10
0.0
 20
0.0
 11
12.0
 21
9.0
 12
0.0
 22
0.0
 32
0.0
 14
0.0
 24
0.0
 34
0.0
 15
0.0
 25
0.0
 35
0.0
146
0.0
 13
0.0
 23
0.0
 33
0.0
 16
1.0
 26
0.0
 36
0.0
 17
0.0
 27
1.0
 37
0.0
 76
     0
330
1F
  0
LAYOUT
  5
1E
102
{ACAD_REACTORS
330
1A
102
}
330
1A
100
AcDbPlotSettings
  1

  2
Canon LASER SHOT LBP-2030
  4

  6

 40
0.0
 41
0.0
 42
0.0
 43
0.0
 44
0.0
 45
0.0
 46
0.0
 47
0.0
 48
0.0
 49
0.0
140
0.0
141
0.0
142
1.0
143
1.0
 70
   688
 72
     0
 73
     0
 74
     5
  7
sei_cad.ctb
 75
    16
147
1.0
148
0.0
149
0.0
100
AcDbLayout
  1
ﾚｲｱｳﾄ1
 70
     1
 71
     1
 10
0.0
 20
0.0
 11
420.0
 21
297.0
 12
0.0
 22
0.0
 32
0.0
 14
1.000000000000000E+20
 24
1.000000000000000E+20
 34
1.000000000000000E+20
 15
-1.000000000000000E+20
 25
-1.000000000000000E+20
 35
-1.000000000000000E+20
146
0.0
 13
0.0
 23
0.0
 33
0.0
 16
1.0
 26
0.0
 36
0.0
 17
0.0
 27
1.0
 37
0.0
 76
     0
330
1B
  0
LAYOUT
  5
26
102
{ACAD_REACTORS
330
1A
102
}
330
1A
100
AcDbPlotSettings
  1

  2
Canon LASER SHOT LBP-2030
  4

  6

 40
0.0
 41
0.0
 42
0.0
 43
0.0
 44
0.0
 45
0.0
 46
0.0
 47
0.0
 48
0.0
 49
0.0
140
0.0
141
0.0
142
1.0
143
1.0
 70
   688
 72
     0
 73
     0
 74
     5
  7
sei_cad.ctb
 75
    16
147
1.0
148
0.0
149
0.0
100
AcDbLayout
  1
ﾚｲｱｳﾄ2
 70
     1
 71
     2
 10
0.0
 20
0.0
 11
12.0
 21
9.0
 12
0.0
 22
0.0
 32
0.0
 14
0.0
 24
0.0
 34
0.0
 15
0.0
 25
0.0
 35
0.0
146
0.0
 13
0.0
 23
0.0
 33
0.0
 16
1.0
 26
0.0
 36
0.0
 17
0.0
 27
1.0
 37
0.0
 76
     0
330
23
  0
MLINESTYLE
  5
18
102
{ACAD_REACTORS
330
17
102
}
330
17
100
AcDbMlineStyle
  2
STANDARD
 70
     0
  3

 62
   256
 51
90.0
 52
90.0
 71
     2
 49
0.5
 62
   256
  6
BYLAYER
 49
-0.5
 62
   256
  6
BYLAYER
  0
ACDBPLACEHOLDER
  5
F
102
{ACAD_REACTORS
330
E
102
}
330
E
  0
TABLESTYLE
  5
1D486
102
{ACAD_REACTORS
330
1D485
102
}
330
1D485
100
AcDbTableStyle
  3
Standard
 70
     0
 71
     8
 40
1.5
 41
1.5
280
     0
281
     0
  7
STANDARD
140
4.5
170
     2
 62
     0
 63
     7
283
     0
274
    -2
284
     1
 64
     0
275
    -2
285
     1
 65
     0
276
    -2
286
     1
 66
     0
277
    -2
287
     1
 67
     0
278
    -2
288
     1
 68
     0
279
    -2
289
     1
 69
     0
  7
STANDARD
140
6.0
170
     5
 62
     0
 63
     7
283
     0
274
    -2
284
     1
 64
     0
275
    -2
285
     1
 65
     0
276
    -2
286
     1
 66
     0
277
    -2
287
     1
 67
     0
278
    -2
288
     1
 68
     0
279
    -2
289
     1
 69
     0
  7
STANDARD
140
4.5
170
     5
 62
     0
 63
     7
283
     0
274
    -2
284
     1
 64
     0
275
    -2
285
     1
 65
     0
276
    -2
286
     1
 66
     0
277
    -2
287
     1
 67
     0
278
    -2
288
     1
 68
     0
279
    -2
289
     1
 69
     0
  0
XRECORD
  5
1DDB8
102
{ACAD_REACTORS
330
1DDB7
102
}
330
1DDB7
100
AcDbXrecord
280
     1
340
1D484
  0
XRECORD
  5
1DDB9
102
{ACAD_REACTORS
330
1DDB7
102
}
330
1DDB7
100
AcDbXrecord
280
     1
340
1D483
  0
DICTIONARYVAR
  5
1D534
102
{ACAD_REACTORS
330
30
102
}
330
30
100
DictionaryVariables
280
     0
  1
STANDARD
  0
DICTIONARYVAR
  5
1DDB6
102
{ACAD_REACTORS
330
30
102
}
330
30
100
DictionaryVariables
280
     0
  1
0
  0
DICTIONARYVAR
  5
1DDB5
102
{ACAD_REACTORS
330
30
102
}
330
30
100
DictionaryVariables
280
     0
  1
1
  0
ACAD_PROXY_OBJECT
  5
4E
102
{ACAD_REACTORS
330
4D
102
}
330
4D
100
AcDbProxyObject
 90
      499
 91
      520
 95
       25
 70
     0
 93
      118
310
405010040CA904C415CD5B075DD0D8
350
4F
 94
        0
  0
DICTIONARY
  5
17E
102
{ACAD_REACTORS
330
4D
102
}
330
4D
100
AcDbDictionary
281
     1
  3
JIS
350
17F
  0
XRECORD
  5
1D4E0
102
{ACAD_REACTORS
330
4D
102
}
330
4D
100
AcDbXrecord
280
     1
 90
-1023410169
  0
ACAD_PROXY_OBJECT
  5
33
330
2E
100
AcDbProxyObject
 90
      499
 91
      508
 95
       25
 70
     0
 93
      156
310
00010143D050D351505391D5531054925390D490
330
2E
 94
        0
  0
ACAD_PROXY_OBJECT
  5
34
330
2E
100
AcDbProxyObject
 90
      499
 91
      508
 95
       25
 70
     0
 93
      148
310
000101439050D351531253915054925390D490
330
2E
 94
        0
  0
ACAD_PROXY_OBJECT
  5
35
330
2E
100
AcDbProxyObject
 90
      499
 91
      509
 95
       25
 70
     0
 93
      156
310
000101439050D35154D6535093D314D256915080
330
2E
 94
        0
  0
ACAD_PROXY_OBJECT
  5
37
330
2E
100
AcDbProxyObject
 90
      499
 91
      511
 95
       25
 70
     0
 93
       88
310
000101411093D34C402B00
330
2E
330
0
330
0
 94
        0
  0
ACAD_PROXY_OBJECT
  5
6B
330
2E
100
AcDbProxyObject
 90
      499
 91
      509
 95
       25
 70
     0
 93
      108
310
00010142505351D153D35054D4E0
330
2E
 94
        0
  0
ACAD_PROXY_OBJECT
  5
6C
330
2E
100
AcDbProxyObject
 90
      499
 91
      522
 95
       25
 70
     0
 93
      140
310
00010142105350D55494D511005034A49530
330
2E
 94
        0
  0
ACAD_PROXY_OBJECT
  5
1D498
330
2E
100
AcDbProxyObject
 90
      499
 91
      536
 95
       25
 70
     0
 93
      358
310
0001014124FEA55D00507392E322E302E32014124FEA55D00507392E322E302E3240501000041505391D311658
330
2E
330
1D499
330
1D49F
 94
        0
  0
ACAD_PROXY_OBJECT
  5
1D499
330
2E
100
AcDbProxyObject
 90
      499
 91
      537
 95
       25
 70
     0
 93
       56
310
000190240E0000
330
2E
330
1D49A
330
1D49C
 94
        0
  0
ACAD_PROXY_OBJECT
  5
1D49A
330
2E
100
AcDbProxyObject
 90
      499
 91
      538
 95
       25
 70
     0
 93
       48
310
0001AA000000
330
2E
330
1E
330
1D49B
330
0
 94
        0
  0
ACAD_PROXY_OBJECT
  5
1D49B
330
2E
100
AcDbProxyObject
 90
      499
 91
      539
 95
       25
 70
     0
 93
       28
310
0001AAA0
330
2E
 94
        0
  0
ACAD_PROXY_OBJECT
  5
1D49C
330
2E
100
AcDbProxyObject
 90
      499
 91
      538
 95
       25
 70
     0
 93
       48
310
0001AA000000
330
2E
330
26
330
1D49D
330
0
 94
        0
  0
ACAD_PROXY_OBJECT
  5
1D49D
330
2E
100
AcDbProxyObject
 90
      499
 91
      539
 95
       25
 70
     0
 93
       28
310
0001AAA0
330
2E
 94
        0
  0
ACAD_PROXY_OBJECT
  5
1D4A0
330
2E
100
AcDbProxyObject
 90
      499
 91
      509
 95
       25
 70
     0
 93
      108
310
000101421053521310D05310D010
330
2E
 94
        0
  0
ACAD_PROXY_OBJECT
  5
1D4A1
330
2E
100
AcDbProxyObject
 90
      499
 91
      509
 95
       25
 70
     0
 93
      124
310
00010142905354915554D15112535010
330
2E
 94
        0
  0
ACAD_PROXY_OBJECT
  5
1D4A2
330
2E
100
AcDbProxyObject
 90
      499
 91
      509
 95
       25
 70
     0
 93
      132
310
00010143105354D150D51253D391125360
330
2E
 94
        0
  0
ACAD_PROXY_OBJECT
  5
1D4A3
330
2E
100
AcDbProxyObject
 90
      499
 91
      509
 95
       25
 70
     0
 93
      124
310
00010142905355941093D49111549010
330
2E
 94
        0
  0
ACAD_PROXY_OBJECT
  5
1D4A4
330
2E
100
AcDbProxyObject
 90
      499
 91
      509
 95
       25
 70
     0
 93
      116
310
0001014290535115D1D0D3D313D4A0
330
2E
 94
        0
  0
ACAD_PROXY_OBJECT
  5
1D4A5
330
2E
100
AcDbProxyObject
 90
      499
 91
      509
 95
       25
 70
     0
 93
      148
310
00010143505355925155D49151949154D21010
330
2E
 94
        0
  0
ACAD_PROXY_OBJECT
  5
1D4A6
330
2E
100
AcDbProxyObject
 90
      499
 91
      509
 95
       25
 70
     0
 93
      172
310
00010144105350539393D51154149154D15495915010
330
2E
 94
        0
  0
ACAD_PROXY_OBJECT
  5
1D4A7
330
2E
100
AcDbProxyObject
 90
      499
 91
      509
 95
       25
 70
     0
 93
      172
310
00010144105350555513D11253505494905391D15010
330
2E
 94
        0
  0
ACAD_PROXY_OBJECT
  5
1D4A8
330
2E
100
AcDbProxyObject
 90
      499
 91
      509
 95
       25
 70
     0
 93
      124
310
00010142D05351561514915191125360
330
2E
 94
        0
  0
ACAD_PROXY_OBJECT
  5
1D4A9
330
2E
100
AcDbProxyObject
 90
      499
 91
      509
 95
       25
 70
     0
 93
      132
310
00010142D05355105410539393D5115010
330
2E
 94
        0
  0
ACAD_PROXY_OBJECT
  5
1D4AA
330
2E
100
AcDbProxyObject
 90
      499
 91
      509
 95
       25
 70
     0
 93
      108
310
00010142105350555513D0D31010
330
2E
 94
        0
  0
ACAD_PROXY_OBJECT
  5
1D4AB
330
2E
100
AcDbProxyObject
 90
      499
 91
      509
 95
       25
 70
     0
 93
      108
310
00010142105350D3119150551050
330
2E
 94
        0
  0
ACAD_PROXY_OBJECT
  5
1D4AC
330
2E
100
AcDbProxyObject
 90
      499
 91
      509
 95
       25
 70
     0
 93
      108
310
00010142105350D315925155D3F0
330
2E
 94
        0
  0
ACAD_PROXY_OBJECT
  5
1D4AD
330
2E
100
AcDbProxyObject
 90
      499
 91
      509
 95
       25
 70
     0
 93
      148
310
0001014350535212511156915493D112535010
330
2E
 94
        0
  0
ACAD_PROXY_OBJECT
  5
1D4AE
330
2E
100
AcDbProxyObject
 90
      499
 91
      509
 95
       25
 70
     0
 93
      124
310
00010142905352105510D21254D3D010
330
2E
 94
        0
  0
ACAD_PROXY_OBJECT
  5
1D4AF
330
2E
100
AcDbProxyObject
 90
      499
 91
      509
 95
       25
 70
     0
 93
      148
310
00010143905354D25391D31152105513105660
330
2E
 94
        0
  0
ACAD_PROXY_OBJECT
  5
1D4B0
330
2E
100
AcDbProxyObject
 90
      499
 91
      509
 95
       25
 70
     0
 93
      124
310
00010142D0535115D1D193111254D420
330
2E
 94
        0
  0
ACAD_PROXY_OBJECT
  5
1D4B1
330
2E
100
AcDbProxyObject
 90
      499
 91
      509
 95
       25
 70
     0
 93
      100
310
00010142105350555513D213A0
330
2E
 94
        0
  0
ACAD_PROXY_OBJECT
  5
1D4B2
330
2E
100
AcDbProxyObject
 90
      499
 91
      509
 95
       25
 70
     0
 93
      116
310
000101425053521390D3D553951010
330
2E
 94
        0
  0
ACAD_PROXY_OBJECT
  5
1D4B3
330
2E
100
AcDbProxyObject
 90
      499
 91
      509
 95
       25
 70
     0
 93
      108
310
0001014210535213941493D29010
330
2E
 94
        0
  0
ACAD_PROXY_OBJECT
  5
1D4B4
330
2E
100
AcDbProxyObject
 90
      499
 91
      509
 95
       25
 70
     0
 93
      108
310
0001014210535213951654115070
330
2E
 94
        0
  0
ACAD_PROXY_OBJECT
  5
1D4B5
330
2E
100
AcDbProxyObject
 90
      499
 91
      509
 95
       25
 70
     0
 93
      108
310
000101421053521395925155D0F0
330
2E
 94
        0
  0
ACAD_PROXY_OBJECT
  5
1D4B6
330
2E
100
AcDbProxyObject
 90
      499
 91
      509
 95
       25
 70
     0
 93
      140
310
00010143505354D150D51253D390D3D41660
330
2E
 94
        0
  0
ACAD_PROXY_OBJECT
  5
1D4B7
330
2E
100
AcDbProxyObject
 90
      499
 91
      509
 95
       25
 70
     0
 93
      108
310
00010142105350D3141493D29030
330
2E
 94
        0
  0
ACAD_PROXY_OBJECT
  5
1D4B8
330
2E
100
AcDbProxyObject
 90
      499
 91
      508
 95
       25
 70
     0
 93
      212
310
00010143905350555513D2105510D21493D500000000000002E400
330
2E
 94
        0
  0
ACAD_PROXY_OBJECT
  5
1D4B9
330
2E
100
AcDbProxyObject
 90
      499
 91
      509
 95
       25
 70
     0
 93
      156
310
00010143905350555513D2105510D21111551010
330
2E
 94
        0
  0
ACAD_PROXY_OBJECT
  5
1D4C5
330
2E
100
AcDbProxyObject
 90
      499
 91
      547
 95
       25
 70
     0
 93
      698
310
0001000000009AA6A9AA4051E4D6F6E204665622030362030383A34373A323320323030362028555443290141CE4B8C8B8C0B8C80518467269204F63742030382031333A35323A303820323031300141CE4B8C8B8C0B8C80
330
2E
330
1D4C6
330
1D4C7
330
1D4C9
330
0
 94
        0
  0
ACAD_PROXY_OBJECT
  5
1D4C6
330
2E
100
AcDbProxyObject
 90
      499
 91
      548
 95
       25
 70
     0
 93
       70
310
0001AAA80820000000
330
2E
330
1D4C6
330
1D4C6
 94
        0
  0
ACAD_PROXY_OBJECT
  5
1D4C7
330
2E
100
AcDbProxyObject
 90
      499
 91
      549
 95
       25
 70
     0
 93
       48
310
000100000000
330
2E
330
0
330
1D4C8
330
0
330
0
 94
        0
  0
ACAD_PROXY_OBJECT
  5
1D4C8
330
2E
100
AcDbProxyObject
 90
      499
 91
      550
 95
       25
 70
     0
 93
       40
310
000100AAAA
330
2E
330
0
 94
        0
  0
ACAD_PROXY_OBJECT
  5
1D4CE
330
2E
100
AcDbProxyObject
 90
      499
 91
      522
 95
       25
 70
     0
 93
      180
310
00010143105050D3D35411119390535140504434F4D500
330
2E
 94
        0
  0
ACAD_PROXY_OBJECT
  5
1D4CF
330
2E
100
AcDbProxyObject
 90
      499
 91
      522
 95
       25
 70
     0
 93
      212
310
0001014390505193D311115491119390535140506466F6C6465720
330
2E
 94
        0
  0
ACAD_PROXY_OBJECT
  5
1D4D0
330
2E
100
AcDbProxyObject
 90
      499
 91
      522
 95
       25
 70
     0
 93
      180
310
00010143105050539393D1119390535140504284156290
330
2E
 94
        0
  0
ACAD_PROXY_OBJECT
  5
1D4D1
330
2E
100
AcDbProxyObject
 90
      499
 91
      522
 95
       25
 70
     0
 93
      436
310
00010143905050D3D35415925155D31254D50052295BD96CA0A90B396CA0A894591A496CA0A8DB691A496CA0A89BA96CA0A95E28F95310
330
2E
 94
        0
  0
ACAD_PROXY_OBJECT
  5
1D4D6
330
2E
100
AcDbProxyObject
 90
      499
 91
      555
 95
       25
 70
     0
 93
       32
310
00010000
330
2E
340
1D4D3
330
1D4D8
330
1D4D3
 94
        0
  0
ACAD_PROXY_OBJECT
  5
1D4D7
330
2E
100
AcDbProxyObject
 90
      499
 91
      556
 95
       25
 70
     0
 93
       18
310
000180
330
2E
 94
        0
  0
ACAD_PROXY_OBJECT
  5
1D4D8
330
2E
100
AcDbProxyObject
 90
      499
 91
      557
 95
       25
 70
     0
 93
      226
310
00010144508C4C934B54D0D310D48C0D8C0C8B4C4D9050055401550000
330
2E
330
1D4D6
330
1D4D7
 94
        0
  0
ACAD_PROXY_OBJECT
  5
1D4D9
330
2E
100
AcDbProxyObject
 90
      499
 91
      558
 95
       25
 70
     0
 93
      178
310
000100AAAAAA9CA2630AFE5A4ED2E00A55BC46BE7E0280
330
2E
330
1D4D8
 94
        0
  0
ACAD_PROXY_OBJECT
  5
1D4DA
330
2E
100
AcDbProxyObject
 90
      499
 91
      559
 95
       25
 70
     0
 93
      108
310
000190140A000000000000AAAAA0
330
2E
330
1D4DB
330
1D4DB
330
1D4DB
330
1D4DB
330
1D4DB
330
0
 94
        0
  0
ACAD_PROXY_OBJECT
  5
1D4DB
330
2E
100
AcDbProxyObject
 90
      499
 91
      560
 95
       25
 70
     0
 93
       51
310
00010000AAAA80
330
2E
330
1D4DA
330
1D4D8
 94
        0
  0
DICTIONARY
  5
40
102
{ACAD_REACTORS
330
3F
102
}
330
3F
100
AcDbDictionary
281
     1
  3
DWGSETTINGS
350
41
  3
FEM
350
69
  3
Shaft
350
56
  3
TRANSSETTINGS
350
4C
  0
ACAD_PROXY_OBJECT
  5
42
102
{ACAD_REACTORS
330
3F
102
}
330
3F
100
AcDbProxyObject
 90
      499
 91
      519
 95
       25
 70
     0
 93
    23232
310
41502491013041105357CC201C00030C011E441013141105357CC603800030C011E441013241105357CCA01400030C011E441013341105357CCE01800030C010D9013441105357CD200C00030C010D9013541105357CD600C00030C010D9013641105357CDA00800030C011E9013741105357CDE01000030C010D901384110
310
5357CE200400030C011E9013941105357CE63F400030C0241102324141505357CC4C201C00030C011E902344141505357CC4C600C00030C010D902495041505357CC4CA01C00030C011E40902304E41505357CC13A01C00030C011E902314E41505357CC53A03800030C011E902324E41505357CC93A01400030C011E90233
310
4E41505357CCD3A01800030C010D902344E41505357CD13A00C00030C010D902354E41505357CD53A00C00030C010D902364E41505357CD93A00800030C011E902374E41505357CDD3A01000030C010D902384E41505357CE13A00400030C011E902394E41505357CE53A3F400030C024110332414E41905357CC4C13A01C0
310
0030C011E90334414E41905357CC4C53A00C00030C010D90349504E41905357CC4C93A01C00030C011E409044B4C494E41505357D0D3200400030C011E42504494E464F42105357D410549151A01000030C010D42D055241484D3541905357D093D4A01C00030C011E425045649455742105357D5925155D4E00400030C011
310
E42D06424548494E4441905357D25395A3F400030C0243505545241494C41505357D514A00C00030C010D4250348494441905357D21251201C00030C011E4250356495341905357D59254E01C00030C011E4250650415244494D42505357D41054911253600C00030C010D4250652454644494D42505357D49151911253601
310
000030C010D425774110531514901348070000C300479034110915312501348000000C0003FFFFFFFD034110921395901398000000C0003FFFFFFFE415092139594D06424548494E448000000C0003FFFFFFFE411093125110234418000000C0003FFFFFFFD03411093D05410234418000000C0003FFFFFFFD03411093D48C
310
9055241484D358010000C30047A411093D48CD055241484D358020000C30047A411093D48D5055241484D358000000C0003FFFFFFFE411093D48DD055241484D3581E0000C30047903411094105410234418000000C0003FFFFFFFD03411094115610234418000000C0003FFFFFFFD034110951112501358000000C0003FFF
310
FFFFD034110D0530C901348000000C0003FFFFFFFE4110D0530CD01348020000C30047A4110D0530D501348070000C30047A4110D0530DD013481E0000C30047A4110D15393901378000000C0003FFFFFFFE4110D15395D01378000000C0003FFFFFFFE4110D312539044B4C494E8000000C0003FFFFFFFE4110D3D38C5013
310
08000000C0003FFFFFFFD034110D3D38C901318000000C0003FFFFFFFD034110D3D38CD01328000000C0003FFFFFFFD034110D3D38D101328000000C0003FFFFFFFD034111115494101348000000C0003FFFFFFFD034111115510501348000000C0003FFFFFFFE4111125051D01358000000C0003FFFFFFFE4111125312501
310
358000000C0003FFFFFFFE411112535410650415244494D8000000C0003FFFFFFFE411112535490652454644494D8000000C0003FFFFFFFE411156135410234418000000C0003FFFFFFFD034111915353901388000000C0003FFFFFFFE415191535413901388030000C3004364151915354D410234418000000C0003FFFFFF
310
FE4151915354D510234418030000C300436415191535593901328000000C0003FFFFFFFE415191535595101328030000C3004364111931055101308000000C0003FFFFFFFD03411194905490234418000000C0003FFFFFFFD034111D49312501358000000C0003FFFFFFFD034111D5931250234418000000C0003FFFFFFFD0
310
34112105510D01388000000C0003FFFFFFFD014112125113901338000000C0003FFFFFFFD034112125115D01338000000C0003FFFFFFFD034112131253901348000000C0003FFFFFFFD01411213D0D3901378000000C0003FFFFFFFE411213D0D5D01378000000C0003FFFFFFFE4112539193D04494E464F8000000C0003FF
310
FFFFFE4113105112501348000000C0003FFFFFFFD034113115051101358000000C0003FFFFFFFE419397D0921395902394E8000000C0003FFFFFFFE419397D0D3D38C502304E8000000C0003FFFFFFFD03419397D0D3D38C902314E8000000C0003FFFFFFFD03419397D0D3D38CD02324E8000000C0003FFFFFFFD03419397
310
D0D3D38D102324E8000000C0003FFFFFFFD03419397D0D15393902374E8000000C0003FFFFFFFE419397D0D15395D02374E8000000C0003FFFFFFFE419397D1125312502354E8000000C0003FFFFFFFE419397D2105510D02384E8000000C0003FFFFFFFD01419397D2125113902334E8000000C0003FFFFFFFD03419397D2
310
125115D02334E8000000C0003FFFFFFFD03419397D3115051102354E8000000C0003FFFFFFFE419397D391D25410349504E8000000C0003FFFFFFFE419397D412105390334414E8000000C0003FFFFFFFE419397D510D3D3902304E8000000C0003FFFFFFFD03419397D5121312502344E8000000C0003FFFFFFFD01419397
310
D5131153902304E8000000C0003FFFFFFFD03419397D516150CD02364E8000000C0003FFFFFFFD03419397D594131250332414E8000000C0003FFFFFFFE411391D25410249508000000C0003FFFFFFFE411410530C9055241484D358010000C30047A411410530CD055241484D358020000C30047A411410530D5055241484
310
D358000000C0003FFFFFFFE411410530DD055241484D3581E0000C30047903411412105390234418000000C0003FFFFFFFE411413D4D3901368070000C30047A419413D4D49151901368050000C30047903411413D4D6101368000000C0003FFFFFFFD03411414D150D0234418000000C0003FFFFFFFD03411490D1D390137
310
8000000C0003FFFFFFFE411490D1D5D01378000000C0003FFFFFFFE4114919112501348000000C0003FFFFFFFD034114945514901348070000C30047903411494D093D01348000000C0003FFFFFFFD034114D09492D01348000000C0003FFFFFFFD014114D0D153901378000000C0003FFFFFFFD034114D150D51013480000
310
00C0003FFFFFFFD014114D15313901378000000C0003FFFFFFFD034114D15315D01378000000C0003FFFFFFFD034114D4D654D01308000000C0003FFFFFFFD034114D51312501348070000C300479034114D6508C501358000000C0003FFFFFFFD034114D6508C901358000000C0003FFFFFFFD034114D6508CD0135802000
310
0C30047A4114D6508D501358070000C300479034114D65353901378000000C0003FFFFFFFD034114D65355D01378000000C0003FFFFFFFD03411510D3D3901308000000C0003FFFFFFFD034115121312501348000000C0003FFFFFFFD01411512550C9055241484D358010000C30047A411512550CD055241484D358020000
310
C30047A411512550D5055241484D358000000C0003FFFFFFFE411512550DD055241484D3581E0000C300479034115131153901308000000C0003FFFFFFFD03415514905253105545241494C8000000C0003FFFFFFFE41151492D3901378000000C0003FFFFFFFD0341151492D5D01378000000C0003FFFFFFFD03411514931
310
2501348000000C0003FFFFFFFD01411516150C501368030000C300436411516150C901368030000C300436411516150CD01368000000C0003FFFFFFFE411516150D501368070000C30047A411516150DD013681E0000C30047A4115925155D04564945578000000C0003FFFFFFFE41159151121034849448000000C0003FFF
310
FFFFD0241159151159035649538000000C0003FFFFFFFD02411594131250232418000000C0003FFFFFFFE4116925690501348000000C0003FFFFFFFD01411354D653501358020000C30047AAAA3F400030C01013F90A4391E41D1E4190D4151E4110D40D0D4091E4051E4791E7F6
340
16
340
16
340
16
340
43
340
16
340
16
340
16
340
44
340
16
340
16
340
44
340
45
340
16
340
16
340
16
340
16
340
43
340
16
340
16
340
16
340
44
340
16
340
16
340
44
340
45
340
16
340
46
340
16
340
16
340
16
340
16
340
16
340
43
340
16
340
16
340
16
340
47
340
15
340
15
340
15
340
15
340
15
340
15
340
15
340
15
340
15
340
15
340
15
340
15
340
15
340
15
340
15
340
15
340
48
340
15
340
15
340
15
340
15
340
15
340
15
340
15
340
15
340
15
340
15
340
15
340
15
340
15
340
15
340
15
340
16
340
15
340
15
340
15
340
15
340
15
340
15
340
15
340
15
340
47
340
15
340
15
340
48
340
15
340
15
340
15
340
15
340
15
340
15
340
15
340
15
340
15
340
48
340
15
340
15
340
15
340
47
340
15
340
15
340
15
340
15
340
15
340
15
340
15
340
15
340
15
340
15
340
15
340
15
340
15
340
15
340
15
340
15
340
15
340
15
340
15
340
48
340
15
340
15
340
48
340
15
340
15
340
16
340
15
340
48
340
15
340
15
340
47
340
15
340
15
340
16
340
15
340
48
340
15
340
15
340
15
340
15
340
15
340
15
340
15
340
15
340
15
340
48
340
15
340
15
340
15
340
15
340
15
340
15
340
15
340
15
340
15
340
15
340
15
340
4B
340
16
 94
        0
  0
ACAD_PROXY_OBJECT
  5
62F
102
{ACAD_REACTORS
330
73
102
}
330
73
100
AcDbProxyObject
 90
      499
 91
      523
 95
       25
 70
     0
 93
      253
310
43D1444494D454E53494F4E2C414D44545F2A5F44494D404A9012A404A9012A0
  0
ACAD_PROXY_OBJECT
  5
630
102
{ACAD_REACTORS
330
73
102
}
330
73
100
AcDbProxyObject
 90
      499
 91
      523
 95
       25
 70
     0
 93
      181
310
43D012A42D05357D191504B505357CA9012A404A9012A8
  0
ACAD_PROXY_OBJECT
  5
631
102
{ACAD_REACTORS
330
73
102
}
330
73
100
AcDbProxyObject
 90
      499
 91
      523
 95
       25
 70
     0
 93
      133
310
43D054841544348404A9012A404A9012A8
  0
ACAD_PROXY_OBJECT
  5
632
102
{ACAD_REACTORS
330
73
102
}
330
73
100
AcDbProxyObject
 90
      499
 91
      523
 95
       25
 70
     0
 93
      549
310
43D044C494E4549CE0B0E138B0A8B4E0B0A8B4E138B105357CE0B105357CE138B0A8B505357CE0B0A8B505357CE139012A404A910494E534552542C5354445041525432448
  0
ACAD_PROXY_OBJECT
  5
633
102
{ACAD_REACTORS
330
73
102
}
330
73
100
AcDbProxyObject
 90
      499
 91
      523
 95
       25
 70
     0
 93
      909
310
43D6641434D46434652414D452C41434D444154554D5441524745542C41434D444154554D49442C41434D57454C4453594D2C41434D5355524653594D2C41434D4645415449442C41434D504152545245462C41434D42414C4C4F4F4E2C414D44544544474553594D404A9012A404A9012A8
  0
XRECORD
  5
1D584
102
{ACAD_REACTORS
330
1D582
102
}
330
1D582
100
AcDbXrecord
280
     1
330
0
330
0
330
0
330
0
330
0
330
0
330
0
330
0
330
0
330
0
330
0
330
0
330
0
330
0
330
0
330
0
330
0
330
0
330
0
330
0
330
0
330
0
330
0
330
0
330
0
330
0
330
0
330
0
330
0
330
0
330
0
330
0
330
0
330
0
330
0
330
0
330
0
330
0
330
0
330
0
330
0
330
0
330
0
330
0
330
0
330
0
330
0
330
0
330
0
330
0
330
0
330
0
330
0
330
0
330
0
330
0
330
0
330
0
330
0
330
0
330
0
330
0
330
0
330
0
330
0
330
0
  0
XRECORD
  5
2A41
102
{ACAD_REACTORS
330
2A40
102
}
330
2A40
100
AcDbXrecord
280
     1
  1
LINE
  0

  0
XRECORD
  5
2917
102
{ACAD_REACTORS
330
2916
102
}
330
2916
100
AcDbXrecord
280
     1
  1
25000259__00___
  0

  0
XRECORD
  5
2A3F
102
{ACAD_REACTORS
330
2A3E
102
}
330
2A3E
100
AcDbXrecord
280
     1
  1
110 ^M^J ^M^J ^M^J ^M^J ^M^J ^M^J ^M^J ^M^J ^M^J ^M^J ^M^Jボーリングクイル ^M^J鋼 ^M^J特型 ^M^J直付け ^M^Jストレート ^M^J25 ^M^J2 ^M^J ^M^Jアルミ ^M^J ^M^J
  0

  0
XRECORD
  5
168A
102
{ACAD_REACTORS
330
1688
102
}
330
1688
100
AcDbXrecord
280
     1
  1
1,,,,,,,,,^M^J2,,,,,,,,,^M^J3,,,,,,,,,^M^J4,,,,,,,,,^M^J5,,,,,,,,,^M^J6,,,,,,,,,^M^J7,,,,,,,,,^M^J8,,,,,,,,,^M^J9,,,,,,,,,^M^J10,,,,,,,,,
  0

  0
XRECORD
  5
1689
102
{ACAD_REACTORS
330
1688
102
}
330
1688
100
AcDbXrecord
280
     1
  1
10,10
  0

  0
XRECORD
  5
2919
102
{ACAD_REACTORS
330
2918
102
}
330
2918
100
AcDbXrecord
280
     1
  1
3
  0

  0
ACAD_PROXY_OBJECT
  5
4F
102
{ACAD_REACTORS
330
4E
102
}
330
4E
100
AcDbProxyObject
 90
      499
 91
      521
 95
       25
 70
     0
 93
      157
310
057356C1D77406406AA8FFFFFFFF05DD01009010
330
1F
330
0
330
1D4D8
 94
        0
  0
ACAD_PROXY_OBJECT
  5
17F
102
{ACAD_REACTORS
330
17E
102
}
330
17E
100
AcDbProxyObject
 90
      499
 91
      526
 95
       25
 70
     0
 93
     2379
310
5DC33333333333309408000000C00040D29254D01640600800030C0200800030C003333333333330940C8121E8720B1B6A9BAB9332A32BC3A29BA3220480A1282C6DA8C868CA6E8C88120286A0B1B6ABB2B63234B733A9BA3220480A1082C6DA92C8A6E8C88120285A0B1B6A230BA3AB6A9BA3220480A1282C6DA849E9AA6E
310
8C88120286A0B1A0B6B3AA34BA3632A9BA3220480A2082DAC8E888CAE8C2D2D8A6F2DAA6E8C88120288A0B6B23A29B2B1BA34B7B729BCB6A9BA3220480A2282DAC8E886CADCE8CAE498D2DCCAA6E8C88120288A0B6B23A2A343932B0B22634B732A9BA3220480A1682DAC8E89CDEE8CAA6E8C88120285A0B1A0B6B3A630BCA
310
9BA3220480A1682C682DACE88D2DAA6E8C88120288A0B1A0B6B3A437B632A1B430B93A29BA3220480C812020
340
180
360
181
360
182
360
183
360
184
360
185
360
186
360
1D4DD
360
1D4DE
360
1D4DF
360
1D4E1
360
1D4E2
360
1D4E3
360
1D4E9
360
1D4EA
360
1D4EB
340
0
340
0
 94
        0
  0
ACAD_PROXY_OBJECT
  5
41
102
{ACAD_REACTORS
330
40
102
}
330
40
100
AcDbProxyObject
 90
      499
 91
      518
 95
       25
 70
     0
 93
     2946
310
4050B44574753455454494E4753A0E8482A68AA6A88882A069492A684A1A0A723A0A92920ACA0A81969B1820C868A9C829C8E82A12686AF87260F862666A8321A2A72224A0A50000000000000122020E868A9C889282A682A106260F86460F8666083A1A2A72224A9AA250000000000000042020C868A9C988A9C940000000
310
00000048808321A2A727A323250000000000000122020E868A9C9E8C8C62940000000000000488083A1A2A727A32319250000000000000122021CC6D0C2DACCCAE4C8D2DADADEC8CA9FC84A1A624A720A92920ACA0A809CA108698929C8AA8B2A082A0AB098929C8A84A22BA3AAA9A1A0A622A50A0E9882A6A89E849482A02
310
608426A0A5A2AB24A2ABA7E8120CA0A68682988A0C00800010652455649534941501304154D0D0531150540CC4E8C5085354414E44415244415034A4953425512535154D51053541283D9ECA409E4ADCD050756455253494F4E4150531352E3030441ED115D1D4D15515125391D4D153911F40
  0
ACAD_PROXY_OBJECT
  5
69
102
{ACAD_REACTORS
330
40
102
}
330
40
100
AcDbProxyObject
 90
      499
 91
      518
 95
       25
 70
     0
 93
      411
310
4050346454D21092DCC6E486DECACC942842630BCA3B937BAB820A8320A6AFA322A0A20F688AE8EA68AA8A8929C8EA68A9C88FA0
  0
ACAD_PROXY_OBJECT
  5
56
102
{ACAD_REACTORS
330
40
102
}
330
40
100
AcDbProxyObject
 90
      499
 91
      518
 95
       25
 70
     0
 93
      583
310
40505536861667421292DCE8CAE4E4EAE0E89FA0484A634B3B43A2634B732A7F21A98D2CED0E898D2DCCAACD2CAEE9FC8229B4B232A7E80A20F688AE8EA68AA8A8929C8EA68A9C88FA
  0
ACAD_PROXY_OBJECT
  5
4C
102
{ACAD_REACTORS
330
40
102
}
330
40
100
AcDbProxyObject
 90
      499
 91
      518
 95
       25
 70
     0
 93
      852
310
4050D5452414E5353455454494E4753A2488A482AE929C8EA8A4829CA69882A8929E9C0C00800050D4F524947494E414C4C595F4F4E0600400028529A7AAA921A2A620A723A0A81A52827212AAA0A48AA68AA4AC8A0C0080001107B44574753455454494E4753454E447D0
  0
ACAD_PROXY_OBJECT
  5
181
330
17F
100
AcDbProxyObject
 90
      499
 91
      527
 95
       25
 70
     0
 93
       86
310
5DEA0C80A0280A0280A034
  0
ACAD_PROXY_OBJECT
  5
182
330
17F
100
AcDbProxyObject
 90
      499
 91
      528
 95
       25
 70
     0
 93
      282
310
5DD0E4050140501405014050140501405014050141101405014041000000000000001000
340
187
 94
        0
  0
ACAD_PROXY_OBJECT
  5
183
330
17F
100
AcDbProxyObject
 90
      499
 91
      529
 95
       25
 70
     0
 93
      323
310
5DCC199999999999E99F91740501405014050140501405014050140501405014050140501405014040
340
0
 94
        0
  0
ACAD_PROXY_OBJECT
  5
184
330
17F
100
AcDbProxyObject
 90
      499
 91
      530
 95
       25
 70
     0
 93
       10
310
5DC0
  0
ACAD_PROXY_OBJECT
  5
185
330
17F
100
AcDbProxyObject
 90
      499
 91
      531
 95
       25
 70
     0
 93
      257
310
5DE0C16A22A7D90F49F80000000000001081400000000000004204010000618000
340
188
340
189
 94
        0
  0
ACAD_PROXY_OBJECT
  5
186
330
17F
100
AcDbProxyObject
 90
      499
 91
      532
 95
       25
 70
     0
 93
     5277
310
5DD06411255115350141236025B6901405014069010000000000000910240690120281A8AA2CA0282484A4BE52028120280A032020000000000001220480D202405044E414D454050496BC914F4051C40640A80000000000004E4090193C3D3C4946284953424C414E4B28504152543A4E414D45292C424C4F434B3A4E414D
310
452C504152543A4E414D45293E3C41435F44455343524950544E3E40480A109A82A88AA492829880A091BBD2F7E80A3A80C81D0E27A15AF46E08A81203480901411393D5115014124A363B7D0147501904A0000000000000F902406428F4F1050D7D393D5114F901202832B22A72227A92028366EF6EE06F582028EA0320B4
310
0000000000001F20480C879E9E20A1AFAB27222FA620A122A61F20240506445020000000000000490201C00030C00010180000000000003E400000000000000F901073D3C4954454D3E4050180000000000003E400000000000000F901073D3C4954454D3E40501800000000000034400000000000000D101073D3C4954454
310
D3E40501800000000000034400000000000000D101073D3C4954454D3E405029010000000000000F9000000000000003E4041CF4F125511534F901418F4F1455164F9014060000000000000F9000000000000003E4041CF4F125511534F901800000000000034400000000000000D101073D3C4954454D3E40640400000000
310
0000003E400000000000000F90288800000000000020810000001800120881A068120480A032208521122080D21480D211480A1485214852050000000000003C2FC000000000000F0BF40600800030C0200400030C00CDCCCCCCCCCCEC3F3373333333333B0FC3333333333330940C80D069014090341504901A1999999999
310
9984A040100006180400800061804010000618008098A02808
340
0
340
0
 94
        0
  0
ACAD_PROXY_OBJECT
  5
1D4DD
330
17F
100
AcDbProxyObject
 90
      499
 91
      561
 95
       25
 70
     0
 93
     3042
310
5DD9740D29254D064A49535F413342929254D7D512551311505134A49535F42525F5265766973696F6E6C6973744190F4134522028323937783231306D6D2941D29254D7D04D1490E41312028353934783834316D6D2941929254D7D04C50F41344C2028323130783239376D6D2941D29254D7D04D1310E413320283239377
310
83432306D6D2941929254D7D04CD0E41322028343230783539346D6D2941929254D7D04C90F4130202838343178313138396D6D2941929254D7D04C10243129254C82557247A25E4C81050A4A49535F5449544C454143129254C82557247A25E4C81090A4A49535F5449544C45424110E979A97F0838A835883675F42525F4
310
4D29254D7D09497D4995D9A5CDA5BDB9B1A5CDD10E979A97F0838A835883675F54525F44D29254D7D51497D4995D9A5CDA5BDB9B1A5CDD10E979A97F0838A835883675F424C5F44D29254D7D09317D4995D9A5CDA5BDB9B1A5CDD10E979A97F0838A835883675F544C5F44D29254D7D51317D4995D9A5CDA5BDB9B1A5CDD00
  0
ACAD_PROXY_OBJECT
  5
1D4DE
330
17F
100
AcDbProxyObject
 90
      499
 91
      562
 95
       25
 70
     0
 93
      898
310
5DC4000000000000124048CF4F11115510525317D3105091530F880A0F11115510525317D05094D4D0D053114F8A50241C9A9999999999B93F26A666666666724FC000000000000E03F400000000000000400000000000000510000000000000024408070000C300000000000000049000
340
16
340
180
 94
        0
  0
ACAD_PROXY_OBJECT
  5
1D4DF
330
17F
100
AcDbProxyObject
 90
      499
 91
      563
 95
       25
 70
     0
 93
      823
310
5DC0B00000000000002480959E9E29A2A1AA24A7A72FA620A122A62FA324A929AA1F169E29A2A1AA24A7A72FA620A122A62FA620A9AA1F000000000000048803FFFE01C00030C008140380006180000000000000048800000000000000A2000000000000002480
340
652
340
180
 94
        0
  0
ACAD_PROXY_OBJECT
  5
1D4E1
330
17F
100
AcDbProxyObject
 90
      499
 91
      564
 95
       25
 70
     0
 93
      152
310
5DE8273108AC1C5A0640A3D0A5723F0BD1F200
  0
ACAD_PROXY_OBJECT
  5
1D4E2
330
17F
100
AcDbProxyObject
 90
      499
 91
      565
 95
       25
 70
     0
 93
       14
310
5DE0
340
0
 94
        0
  0
ACAD_PROXY_OBJECT
  5
1D4E3
330
17F
100
AcDbProxyObject
 90
      499
 91
      566
 95
       25
 70
     0
 93
     6059
310
5DD084050BA4050AA405024050E836583938376838C815B83672031405983D3C486F6C653A6469613E3C696628657175616C28486F6C653A7465726D696E6174696F6E2C223022292C2220905B82B320222C22208368838A838B22293E3C696628657175616C28486F6C653A7465726D696E6174696F6E2C223022292C486F
310
6C653A64657074682C2222293E2C203C486F6C653A63746469613E2082B482AE82E882CC905B82B3203C486F6C653A637464657074683E406901405034050E836583938376838C815B83672031405EF3D3C486F6C653A6374616E676C653E252564202525633C486F6C653A63746469613E208E4D8C8A2C203C69662865717
310
5616C28486F6C653A7461707065642C223022292C22252563222C486F6C653A6E6F6D696E616C202220782022293E3C696628657175616C28486F6C653A7461707065642C223022292C486F6C653A6469612C486F6C653A706974636864657363293E203C696628657175616C28486F6C653A7465726D696E6174696F6E2C2
310
23022292C22905B82B320222C222022293E3C696628657175616C28486F6C653A7465726D696E6174696F6E2C223022292C486F6C653A64657074682C2222293E406901405014050E836583938376838C815B83672031405C73D3C696628657175616C28486F6C653A7461707065642C223022292C22252563222C486F6C65
310
3A6E6F6D696E616C202220782022293E3C696628657175616C28486F6C653A7461707065642C223022292C486F6C653A6469612C486F6C653A706974636864657363293E203C696628657175616C28486F6C653A7465726D696E6174696F6E2C223022292C22905B82B320222C222022293E3C696628657175616C28486F6C
310
653A7465726D696E6174696F6E2C223022292C486F6C653A64657074682C2222293E4069014051E4090E836583938376838C815B83672032405173D3C535444503A444553433E203C535444503A5354443E40690E836583938376838C815B836720314050C3D3C535444503A444553433E40690240515AAABBA120
360
1D4E7
330
1D4E7
360
1D4E8
330
1D4E8
360
1D4E6
330
1D4E6
360
1D4E5
360
1D4E4
330
1D4E5
330
1D4E4
 94
        0
  0
ACAD_PROXY_OBJECT
  5
1D4E9
330
17F
100
AcDbProxyObject
 90
      499
 91
      568
 95
       25
 70
     0
 93
       26
310
5DD02A80
340
42
 94
        0
  0
ACAD_PROXY_OBJECT
  5
1D4EA
330
17F
100
AcDbProxyObject
 90
      499
 91
      569
 95
       25
 70
     0
 93
      250
310
5DD020000000000000A1000000000000002440408F0F9023C3E409A0DCFFFF80
340
58
340
1B97
340
1B98
340
5F
340
60
340
61
340
62
340
63
340
68
340
0
 94
        0
  0
ACAD_PROXY_OBJECT
  5
1D4EB
330
17F
100
AcDbProxyObject
 90
      499
 91
      570
 95
       25
 70
     0
 93
    13889
310
5DD1D003FFFFFFFD030300030CCCCCCCCCCCC250200800030C01030300030CCCCCCCCCCCC250200800030C00050C8DC0955782CC838A83588367014ED1D15395149050D3CB1294138B0C0B23702555E0B320E2A0D620D9CB11D15395149055160B095CCB0A11D1539354D1C819D95B991A5B5E880CCC0A78000C0000000000
310
00000000000000000000010CCCCCCCCCCCC250200800030C010CCCCCCCCCCCC250200800030C020143CF4F111959985D5B1D151A5D1B194F8050A8C8A8365815B8375838B014E51D15395149050D3CB1294138B0C0B2322A0D96056E0DD60E2CB11D15395149055160B095CCB0A11D1539354D1C819D95B991A5B5E880CCC4
310
A78000C000000000000000000000000000000010CCCCCCCCCCCC250200800030C010CCCCCCCCCCCC250200800030C020143CF4F111959985D5B1D151A5D1B194F90D44111409034110541D0C4350F4050E44D03449074510F000141232D24D7C053247454E545241434F2C4A504E2C302C8CB4935F2C47454E54524154582C
310
25732C2847454E4D53472067656E64696D7A20312900010104002214000281464500A608E8A9CA8A482869E5894A09C5860591914588E8A9CA8A482A8B0584AE658508E8A9C9AA68E40CECADCC8D2DAF4406452029E9E9E27B934B3B4B71F1E24A31427A91424A9A12620A7259427B934B3B4B7149624A9A12620A7259424B
310
A32B6949496111116111711149F1E24BA32B69F00808200111A000140560052F47454E545241434F2C4A504E2C302C582C47454E54524154582C25732C2847454E4D53472067656E64696D7A20332900010100002054000280AC80A5E8E8A9CA8A482869E5894A09C586058B2588E8A9CA8A482A8B0584AE658508E8A9C9AA
310
68E40CECADCC8D2DAF4406852000202000040E800050152014BD1D15395149050D3CB1294138B0C0B148B11D15395149055160B095CCB0A11D1539354D1C819D95B991A5B5E880D8A400040400008250000A0507A6029823A2A72A2920A1A79625282716181641E99623A2A72A2920AA2C1612B9961423A2A726A9A39033B2
310
B73234B6BD101B948000808180105A000140A0F4C053047454E545241434F2C4A504E2C302C83D32C47454E54524154582C25732C2847454E4D53472067656E64696D7A203829000101010020F400028248704B5F00A668E8A9CA8A482869E5894A09C58605921C12D7C588E8A9CA8A482A8B0584AE658508E8A9C9AA68E40
310
CECADCC8D2DAF440646052000200080043280005048B4B8A69014CD1D15395149050D3CB1294138B0C0B22D2E29A4B11D15395149055160B095CCB0A11D1539354D1C819D95B991A5B5E880C8C4A4000400100086D0000A09196926BE029923A2A72A2920A1A796252827161816465A49AF9623A2A72A2920AA2C1612B9961
310
423A2A726A9A39033B2B73234B6BD10189480A02620202080043E80005048D8096DA014CD1D15395149050D3CB1294138B0C0B236025B68B11D15395149055160B095CCB0A11D1539354D1C819D95B991A5B5E880C4D0A4000404140280D0000A190687072706CD06C5069D06B0029DA3A2A72A2920A1A7962528271618164
310
1A1C1C9C1B341B141A741AC1623A2A72A2920AA2C1612B9961423A2A726A9A39033B2B73234B6BD10189A94800080820050EA000143A322A0D0E0E4E0D9A0D8A0D3A0D60053D47454E545241434F2C4A504E2C302C8C8A8343839383668362834E83582C47454E54524154582C25732C2847454E4D53472067656E64696D7A
310
2031372900010105002274000281464500A628E8A9CA8A482869E5894A09C5860591914588E8A9CA8A482A8B0584AE658508E8A9C9AA68E40CECADCC8D2DAF440626C52000202080044A8000504909497CA014CD1D15395149050D3CB1294138B0C0B242525F28B11D15395149055160B095CCB0A11D1539354D1C819D95B9
310
91A5B5E880C4E4A400040418008A521E000000000000001CA040C00000000000034408080000000000006881010000000000000D102040000000000001A204080000000000003440818000000000000728103000000000000125020600000000004028A040000000000000034408000000000000004881000000000000000D
310
102000000000000001A204000000000000003440818000000000000508143C0000000000000039408180000000000006881030000000000000D102060000000000001A2040C00000000000034408180000000000006881030000000000000E5020600000000000024A040C0000000000805140800000000000000688100000
310
00000000009102000000000000001A2040000000000000034408180000000000006881030000000000000A10284220000000878000002020000008380000020400000081800000208000000828000002028900000000
340
0
340
0
340
0
340
0
340
180
340
180
 94
        0
  0
ACAD_PROXY_OBJECT
  5
1D4E7
330
1D4E3
100
AcDbProxyObject
 90
      499
 91
      567
 95
       25
 70
     0
 93
     1376
310
5DE0143A0D960E4E0DDA0E32056E0D9C80C405983D3C486F6C653A6469613E3C696628657175616C28486F6C653A7465726D696E6174696F6E2C223022292C2220905B82B320222C22208368838A838B22293E3C696628657175616C28486F6C653A7465726D696E6174696F6E2C223022292C486F6C653A64657074682C22
310
22293E2C203C486F6C653A63746469613E2082B482AE82E882CC905B82B3203C486F6C653A637464657074683E
  0
ACAD_PROXY_OBJECT
  5
1D4E8
330
1D4E3
100
AcDbProxyObject
 90
      499
 91
      567
 95
       25
 70
     0
 93
     2072
310
5DE0143A0D960E4E0DDA0E32056E0D9C80C405EF3D3C486F6C653A6374616E676C653E252564202525633C486F6C653A63746469613E208E4D8C8A2C203C696628657175616C28486F6C653A7461707065642C223022292C22252563222C486F6C653A6E6F6D696E616C202220782022293E3C696628657175616C28486F6C
310
653A7461707065642C223022292C486F6C653A6469612C486F6C653A706974636864657363293E203C696628657175616C28486F6C653A7465726D696E6174696F6E2C223022292C22905B82B320222C222022293E3C696628657175616C28486F6C653A7465726D696E6174696F6E2C223022292C486F6C653A6465707468
310
2C2222293E
  0
ACAD_PROXY_OBJECT
  5
1D4E6
330
1D4E3
100
AcDbProxyObject
 90
      499
 91
      567
 95
       25
 70
     0
 93
     1752
310
5DE0143A0D960E4E0DDA0E32056E0D9C80C405C73D3C696628657175616C28486F6C653A7461707065642C223022292C22252563222C486F6C653A6E6F6D696E616C202220782022293E3C696628657175616C28486F6C653A7461707065642C223022292C486F6C653A6469612C486F6C653A706974636864657363293E20
310
3C696628657175616C28486F6C653A7465726D696E6174696F6E2C223022292C22905B82B320222C222022293E3C696628657175616C28486F6C653A7465726D696E6174696F6E2C223022292C486F6C653A64657074682C2222293E
  0
ACAD_PROXY_OBJECT
  5
1D4E5
330
1D4E3
100
AcDbProxyObject
 90
      499
 91
      567
 95
       25
 70
     0
 93
      344
310
5DE0143A0D960E4E0DDA0E32056E0D9C80C805173D3C535444503A444553433E203C535444503A5354443E
  0
ACAD_PROXY_OBJECT
  5
1D4E4
330
1D4E3
100
AcDbProxyObject
 90
      499
 91
      567
 95
       25
 70
     0
 93
      256
310
5DE0143A0D960E4E0DDA0E32056E0D9C80C4050C3D3C535444503A444553433E
  0
ENDSEC
  0
EOF
