  0
SECTION
  2
HEADER
  9
$ACADVER
  1
AC1015
  9
$ACADMAINTVER
 70
     6
  9
$DWGCODEPAGE
  3
ANSI_932
  9
$INSBASE
 10
0.0
 20
0.0
 30
0.0
  9
$EXTMIN
 10
-88.54053147389166
 20
-97.90732930230564
 30
0.0
  9
$EXTMAX
 10
155.4588124887482
 20
34.92547103381426
 30
0.0
  9
$LIMMIN
 10
0.0
 20
0.0
  9
$LIMMAX
 10
420.0
 20
297.0
  9
$ORTHOMODE
 70
     0
  9
$REGENMODE
 70
     1
  9
$FILLMODE
 70
     1
  9
$QTEXTMODE
 70
     0
  9
$MIRRTEXT
 70
     1
  9
$LTSCALE
 40
1.0
  9
$ATTMODE
 70
     1
  9
$TEXTSIZE
 40
4.0
  9
$TRACEWID
 40
1.0
  9
$TEXTSTYLE
  7
STANDARD
  9
$CLAYER
  8
AM_0
  9
$CELTYPE
  6
ByLayer
  9
$CECOLOR
 62
   256
  9
$CELTSCALE
 40
1.0
  9
$DISPSILH
 70
     0
  9
$DIMSCALE
 40
1.0
  9
$DIMASZ
 40
2.5
  9
$DIMEXO
 40
0.0
  9
$DIMDLI
 40
10.0
  9
$DIMRND
 40
0.0
  9
$DIMDLE
 40
0.0
  9
$DIMEXE
 40
1.0
  9
$DIMTP
 40
0.1
  9
$DIMTM
 40
0.1000000001
  9
$DIMTXT
 40
3.8
  9
$DIMCEN
 40
0.0
  9
$DIMTSZ
 40
0.0
  9
$DIMTOL
 70
     0
  9
$DIMLIM
 70
     0
  9
$DIMTIH
 70
     0
  9
$DIMTOH
 70
     0
  9
$DIMSE1
 70
     0
  9
$DIMSE2
 70
     0
  9
$DIMTAD
 70
     3
  9
$DIMZIN
 70
     1
  9
$DIMBLK
  1
Open30
  9
$DIMASO
 70
     1
  9
$DIMSHO
 70
     1
  9
$DIMPOST
  1

  9
$DIMAPOST
  1
"
  9
$DIMALT
 70
     0
  9
$DIMALTD
 70
     2
  9
$DIMALTF
 40
0.0393701
  9
$DIMLFAC
 40
1.0
  9
$DIMTOFL
 70
     1
  9
$DIMTVP
 40
0.0
  9
$DIMTIX
 70
     0
  9
$DIMSOXD
 70
     0
  9
$DIMSAH
 70
     0
  9
$DIMBLK1
  1

  9
$DIMBLK2
  1

  9
$DIMSTYLE
  2
AM_JIS
  9
$DIMCLRD
 70
   256
  9
$DIMCLRE
 70
   256
  9
$DIMCLRT
 70
     2
  9
$DIMTFAC
 40
0.71
  9
$DIMGAP
 40
1.5
  9
$DIMJUST
 70
     0
  9
$DIMSD1
 70
     0
  9
$DIMSD2
 70
     0
  9
$DIMTOLJ
 70
     0
  9
$DIMTZIN
 70
     8
  9
$DIMALTZ
 70
     0
  9
$DIMALTTZ
 70
     0
  9
$DIMUPT
 70
     0
  9
$DIMDEC
 70
     0
  9
$DIMTDEC
 70
     3
  9
$DIMALTU
 70
     2
  9
$DIMALTTD
 70
     2
  9
$DIMTXSTY
  7
STANDARD
  9
$DIMAUNIT
 70
     1
  9
$DIMADEC
 70
     0
  9
$DIMALTRND
 40
0.0
  9
$DIMAZIN
 70
     2
  9
$DIMDSEP
 70
    46
  9
$DIMATFIT
 70
     3
  9
$DIMFRAC
 70
     0
  9
$DIMLDRBLK
  1
Open30
  9
$DIMLUNIT
 70
     2
  9
$DIMLWD
 70
    -1
  9
$DIMLWE
 70
    -1
  9
$DIMTMOVE
 70
     0
  9
$LUNITS
 70
     2
  9
$LUPREC
 70
     4
  9
$SKETCHINC
 40
1.0
  9
$FILLETRAD
 40
0.4
  9
$AUNITS
 70
     0
  9
$AUPREC
 70
     4
  9
$MENU
  1
.
  9
$ELEVATION
 40
0.0
  9
$PELEVATION
 40
0.0
  9
$THICKNESS
 40
0.0
  9
$LIMCHECK
 70
     0
  9
$CHAMFERA
 40
2.0
  9
$CHAMFERB
 40
2.0
  9
$CHAMFERC
 40
20.0
  9
$CHAMFERD
 40
0.0
  9
$SKPOLY
 70
     0
  9
$TDCREATE
 40
2451943.610431667
  9
$TDUCREATE
 40
2451943.235431667
  9
$TDUPDATE
 40
2455482.588102755
  9
$TDUUPDATE
 40
2455482.213102755
  9
$TDINDWG
 40
1.7948408218
  9
$TDUSRTIMER
 40
1.7948406481
  9
$USRTIMER
 70
     1
  9
$ANGBASE
 50
0.0
  9
$ANGDIR
 70
     0
  9
$PDMODE
 70
     0
  9
$PDSIZE
 40
0.0
  9
$PLINEWID
 40
0.0
  9
$SPLFRAME
 70
     0
  9
$SPLINETYPE
 70
     6
  9
$SPLINESEGS
 70
     8
  9
$HANDSEED
  5
1CD8D
  9
$SURFTAB1
 70
     6
  9
$SURFTAB2
 70
     6
  9
$SURFTYPE
 70
     6
  9
$SURFU
 70
     6
  9
$SURFV
 70
     6
  9
$UCSBASE
  2

  9
$UCSNAME
  2

  9
$UCSORG
 10
0.0
 20
0.0
 30
0.0
  9
$UCSXDIR
 10
1.0
 20
0.0
 30
0.0
  9
$UCSYDIR
 10
0.0
 20
1.0
 30
0.0
  9
$UCSORTHOREF
  2

  9
$UCSORTHOVIEW
 70
     0
  9
$UCSORGTOP
 10
0.0
 20
0.0
 30
0.0
  9
$UCSORGBOTTOM
 10
0.0
 20
0.0
 30
0.0
  9
$UCSORGLEFT
 10
0.0
 20
0.0
 30
0.0
  9
$UCSORGRIGHT
 10
0.0
 20
0.0
 30
0.0
  9
$UCSORGFRONT
 10
0.0
 20
0.0
 30
0.0
  9
$UCSORGBACK
 10
0.0
 20
0.0
 30
0.0
  9
$PUCSBASE
  2

  9
$PUCSNAME
  2

  9
$PUCSORG
 10
0.0
 20
0.0
 30
0.0
  9
$PUCSXDIR
 10
1.0
 20
0.0
 30
0.0
  9
$PUCSYDIR
 10
0.0
 20
1.0
 30
0.0
  9
$PUCSORTHOREF
  2

  9
$PUCSORTHOVIEW
 70
     0
  9
$PUCSORGTOP
 10
0.0
 20
0.0
 30
0.0
  9
$PUCSORGBOTTOM
 10
0.0
 20
0.0
 30
0.0
  9
$PUCSORGLEFT
 10
0.0
 20
0.0
 30
0.0
  9
$PUCSORGRIGHT
 10
0.0
 20
0.0
 30
0.0
  9
$PUCSORGFRONT
 10
0.0
 20
0.0
 30
0.0
  9
$PUCSORGBACK
 10
0.0
 20
0.0
 30
0.0
  9
$USERI1
 70
     0
  9
$USERI2
 70
     0
  9
$USERI3
 70
     0
  9
$USERI4
 70
     0
  9
$USERI5
 70
     0
  9
$USERR1
 40
0.0
  9
$USERR2
 40
0.0
  9
$USERR3
 40
0.0
  9
$USERR4
 40
0.0
  9
$USERR5
 40
0.0
  9
$WORLDVIEW
 70
     1
  9
$SHADEDGE
 70
     3
  9
$SHADEDIF
 70
    70
  9
$TILEMODE
 70
     1
  9
$MAXACTVP
 70
    64
  9
$PINSBASE
 10
0.0
 20
0.0
 30
0.0
  9
$PLIMCHECK
 70
     0
  9
$PEXTMIN
 10
1.000000000000000E+20
 20
1.000000000000000E+20
 30
1.000000000000000E+20
  9
$PEXTMAX
 10
-1.000000000000000E+20
 20
-1.000000000000000E+20
 30
-1.000000000000000E+20
  9
$PLIMMIN
 10
0.0
 20
0.0
  9
$PLIMMAX
 10
420.0
 20
297.0
  9
$UNITMODE
 70
     0
  9
$VISRETAIN
 70
     1
  9
$PLINEGEN
 70
     0
  9
$PSLTSCALE
 70
     1
  9
$TREEDEPTH
 70
  3020
  9
$CMLSTYLE
  2
Standard
  9
$CMLJUST
 70
     0
  9
$CMLSCALE
 40
20.0
  9
$PROXYGRAPHICS
 70
     1
  9
$MEASUREMENT
 70
     1
  9
$CELWEIGHT
370
    -1
  9
$ENDCAPS
280
     0
  9
$JOINSTYLE
280
     0
  9
$LWDISPLAY
290
     0
  9
$INSUNITS
 70
     4
  9
$HYPERLINKBASE
  1

  9
$STYLESHEET
  1
sei_cad.ctb
  9
$XEDIT
290
     1
  9
$CEPSNTYPE
380
     0
  9
$PSTYLEMODE
290
     1
  9
$FINGERPRINTGUID
  2
{C77AB3BE-9CA2-11D3-BAF3-006094EB760E}
  9
$VERSIONGUID
  2
{8D3E6D41-FC6F-4918-A16E-BD6B39FBBC31}
  9
$EXTNAMES
290
     1
  9
$PSVPSCALE
 40
0.0
  9
$OLESTARTUP
290
     0
  0
ENDSEC
  0
SECTION
  2
CLASSES
  0
CLASS
  1
ACDBDICTIONARYWDFLT
  2
AcDbDictionaryWithDefault
  3
ObjectDBX Classes
 90
        0
280
     0
281
     0
  0
CLASS
  1
ACDBPLACEHOLDER
  2
AcDbPlaceHolder
  3
ObjectDBX Classes
 90
        0
280
     0
281
     0
  0
CLASS
  1
LAYOUT
  2
AcDbLayout
  3
ObjectDBX Classes
 90
        0
280
     0
281
     0
  0
CLASS
  1
ACME_DOCUMENT
  2
AcMeDbDoc
  3
AcMeServices
 90
        0
280
     1
281
     0
  0
CLASS
  1
ACMESCOPE
  2
AcMeScope
  3
AcMeServices
 90
        0
280
     1
281
     0
  0
CLASS
  1
ACMECOMMANDHISTORY
  2
AcMeCommandHistory
  3
AcMeServices
 90
        0
280
     1
281
     0
  0
CLASS
  1
DICTIONARYVAR
  2
AcDbDictionaryVar
  3
ObjectDBX Classes
 90
        0
280
     0
281
     0
  0
CLASS
  1
ACIMSYSVARMAN
  2
AcImSysVarManager
  3
AcMeServices
 90
        0
280
     1
281
     0
  0
CLASS
  1
ACIMREALSYSVAR
  2
AcImRealSysVar
  3
AcMeServices
 90
        0
280
     1
281
     0
  0
CLASS
  1
ACIMINTSYSVAR
  2
AcImIntSysVar
  3
AcMeServices
 90
        0
280
     1
281
     0
  0
CLASS
  1
ACMEDRAWINGMAN
  2
AcMeDrawingMan
  3
AcMeServices
 90
        0
280
     1
281
     0
  0
CLASS
  1
ACMEVIEW
  2
AcMeView
  3
AcMeServices
 90
        0
280
     1
281
     0
  0
CLASS
  1
ACDBENTITYCACHE
  2
AcMeEntityCache
  3
AcMeServices
 90
        0
280
     1
281
     0
  0
CLASS
  1
GSMANAGER
  2
AcMeGSManager
  3
AcMeServices
 90
        0
280
     1
281
     0
  0
CLASS
  1
AMDTINTERNALREACTOR
  2
AmdtInternalReactor
  3
AcMeServices
 90
        0
280
     1
281
     0
  0
CLASS
  1
ACMESTATEMGR
  2
AcMeStateMgr
  3
AcMeServices
 90
        0
280
     1
281
     0
  0
CLASS
  1
ACME_DATABASE
  2
AcMeDbDatabase
  3
AcMeServices
 90
        0
280
     1
281
     0
  0
CLASS
  1
ACRFINSADJUSTERMGR
  2
AcRfInsAdjusterMgr
  3
AcMeServices
 90
        0
280
     1
281
     0
  0
CLASS
  1
AMGSETTINGSOBJ
  2
AmgSettingsObj
  3
"AcadM|Product Description: AutoCAD Mechanical 2000|Company: Autodesk"
 90
        0
280
     1
281
     0
  0
CLASS
  1
AMGOBJPROPCFG
  2
AmgObjPropCfg
  3
"AmgLay|Product Description: AutoCAD Mechanical 2000|Company: Autodesk"
 90
        1
280
     1
281
     0
  0
CLASS
  1
ACMDATADICTIONARY
  2
AcmDataDictionary
  3
"AcmSymBB|Product Description: AutoCAD Mechanical 2004 DX|Company: Autodesk"
 90
        0
280
     1
281
     0
  0
CLASS
  1
ACMDATAENTRYBLOCK
  2
AcmDataEntryBlock
  3
"AcmSymBB|Product Description: AutoCAD Mechanical 2004 DX|Company: Autodesk"
 90
        0
280
     1
281
     0
  0
CLASS
  1
ACIMSTRSYSVAR
  2
AcImStrSysVar
  3
AcMeServices
 90
        0
280
     1
281
     0
  0
CLASS
  1
ACAMGFILTERDAT
  2
AcAmgFilterDat
  3
"AcadM|Product Description: AutoCAD Mechanical 2000|Company: Autodesk"
 90
        0
280
     1
281
     0
  0
CLASS
  1
LAYER_INDEX
  2
AcDbLayerIndex
  3
ObjectDBX Classes
 90
        0
280
     0
281
     0
  0
CLASS
  1
IDBUFFER
  2
AcDbIdBuffer
  3
ObjectDBX Classes
 90
        0
280
     0
281
     0
  0
CLASS
  1
ACMSTANDARDJIS
  2
AcmStandardJIS
  3
"Amdt_StdImp|Product Description: AutoCAD Mechanical 2004 DX|Company: Autodesk"
 90
        0
280
     1
281
     0
  0
CLASS
  1
ACMSURFSTANDARDJIS
  2
AcmSurfTextStdJIS
  3
"Amdt_StdImp|Product Description: AutoCAD Mechanical 2004 DX|Company: Autodesk"
 90
        0
280
     1
281
     0
  0
CLASS
  1
ACMFCFSTANDARDJIS
  2
AcmFCFStdJIS
  3
"Amdt_StdImp|Product Description: AutoCAD Mechanical 2004 DX|Company: Autodesk"
 90
        0
280
     1
281
     0
  0
CLASS
  1
ACMWELDSTANDARDJIS
  2
AcmWeldingStdJIS
  3
"Amdt_StdImp|Product Description: AutoCAD Mechanical 2004 DX|Company: Autodesk"
 90
        0
280
     1
281
     0
  0
CLASS
  1
ACMIDSTANDARDJIS
  2
AcmIdStdJIS
  3
"Amdt_StdImp|Product Description: AutoCAD Mechanical 2004 DX|Company: Autodesk"
 90
        0
280
     1
281
     0
  0
CLASS
  1
ACMDATUMSTANDARDJIS
  2
AcmDatumStdJIS
  3
"Amdt_StdImp|Product Description: AutoCAD Mechanical 2004 DX|Company: Autodesk"
 90
        0
280
     1
281
     0
  0
CLASS
  1
ACMBOMSTANDARDJIS
  2
AcmBOMStdJIS
  3
"Amdt_StdImp|Product Description: AutoCAD Mechanical 2004 DX|Company: Autodesk"
 90
        0
280
     1
281
     0
  0
CLASS
  1
AMDTNOTE
  2
AmdtNote
  3
"AcmSymBB|Product Description: AutoCAD Mechanical 2004 DX|Company: Autodesk"
 90
     1023
280
     1
281
     1
  0
CLASS
  1
TABLESTYLE
  2
AcDbTableStyle
  3
ObjectDBX Classes
 90
     2047
280
     0
281
     0
  0
CLASS
  1
ACGREFMASTER
  2
AcGrefMaster
  3
AcAttribServices
 90
        0
280
     1
281
     0
  0
CLASS
  1
AM_DRAWING_MGR
  2
AcDmDwgMgr
  3
AcMechDwgViewMgmt
 90
        0
280
     1
281
     0
  0
CLASS
  1
AM_DWG_DOCUMENT
  2
AcDmDwgDocument
  3
AcMechDwgViewMgmt
 90
        0
280
     1
281
     0
  0
CLASS
  1
AM_DWG_SHEET
  2
AcDmSheet
  3
AcMechDwgViewMgmt
 90
        0
280
     1
281
     0
  0
CLASS
  1
AM_VIEWDIMPARMAP
  2
AcDmViewDimParMap
  3
AcMechDwgViewMgmt
 90
        0
280
     1
281
     0
  0
CLASS
  1
AM_DWGMGR_NAME
  2
AcDmDwgMgrName
  3
AcMechDwgViewMgmt
 90
        0
280
     1
281
     0
  0
CLASS
  1
ACGREFACADMASTER
  2
AcGrefacadMaster
  3
AcGrefServices
 90
        0
280
     1
281
     0
  0
CLASS
  1
AMDTMENUSTATEMGR
  2
AmdtMenuStateMgr
  3
McadcomServices
 90
        0
280
     1
281
     0
  0
CLASS
  1
AMDTMCOMMENUSTATE
  2
AmdtMcomMenuState
  3
McadcomServices
 90
        0
280
     1
281
     0
  0
CLASS
  1
AMIMASTER
  2
AmiMaster
  3
AmiServices
 90
        0
280
     1
281
     0
  0
CLASS
  1
MAPIAMMOUDLE
  2
MApiAmModule
  3
MApiAmServices
 90
        0
280
     1
281
     0
  0
CLASS
  1
AMDTADMENUSTATE
  2
AmdtAdMenuState
  3
DesignerServices
 90
        0
280
     1
281
     0
  0
CLASS
  1
ADAPPL
  2
AcAdAppl
  3
DesignerServices
 90
        0
280
     1
281
     0
  0
CLASS
  1
DEPMGR
  2
AcAdDepMgr
  3
DesignerServices
 90
        0
280
     1
281
     0
  0
CLASS
  1
PARAMMGR
  2
AcAdParamMgr
  3
DesignerServices
 90
        0
280
     1
281
     0
  0
CLASS
  1
PARAMSCOPE
  2
AcAdParamScope
  3
DesignerServices
 90
        0
280
     1
281
     0
  0
CLASS
  1
NAMEDAPPL
  2
AcAdNamedAppl
  3
DesignerServices
 90
        0
280
     1
281
     0
  0
CLASS
  1
AMDTDMMENUSTATE
  2
AmdtDmMenuState
  3
AcMechDwgViewMgmt
 90
        0
280
     1
281
     0
  0
CLASS
  1
AMDTAMMENUSTATE
  2
AmdtAmMenuState
  3
DesignerAssemblies
 90
        0
280
     1
281
     0
  0
CLASS
  1
ACAMPROJECT
  2
AcAmProject
  3
DesignerAssemblies
 90
        0
280
     1
281
     0
  0
CLASS
  1
ACAMGRCOMPDEF
  2
AcAmGrCompDef
  3
DesignerAssemblies
 90
        0
280
     1
281
     0
  0
CLASS
  1
ACCMCONTEXT
  2
AcCmContext
  3
DesignerAssemblies
 90
        0
280
     1
281
     0
  0
CLASS
  1
ACAMCOMPDEF
  2
AcAmCompDef
  3
DesignerAssemblies
 90
        0
280
     1
281
     0
  0
CLASS
  1
ACAMCOMPDEFMGR
  2
AcAmCompDefMgr
  3
DesignerAssemblies
 90
        0
280
     1
281
     0
  0
CLASS
  1
AMCONTEXTMGR
  2
AcAmContextMgr
  3
DesignerAssemblies
 90
        0
280
     1
281
     0
  0
CLASS
  1
ACAMCONTEXTMODELER
  2
AcAmContextModeler
  3
DesignerAssemblies
 90
        0
280
     1
281
     0
  0
CLASS
  1
ACAMGTITLESTD
  2
AcAmgTitleStd
  3
"TITLEAPP"
 90
        0
280
     1
281
     0
  0
CLASS
  1
ACMDETAILSTANDARDJIS
  2
AmdtDetailSymStdJIS
  3
"Amdt_StdImp|Product Description: AutoCAD Mechanical 2004 DX|Company: Autodesk"
 90
        0
280
     1
281
     0
  0
CLASS
  1
ACMSECTIONSTANDARDJIS
  2
AmdtSectionSymStdJIS
  3
"Amdt_StdImp|Product Description: AutoCAD Mechanical 2004 DX|Company: Autodesk"
 90
        0
280
     1
281
     0
  0
CLASS
  1
ACMCENTERLINESTANDARDJIS
  2
AmdtCenterLineStdJIS
  3
"Amdt_StdImp|Product Description: AutoCAD Mechanical 2004 DX|Company: Autodesk"
 90
        0
280
     1
281
     0
  0
CLASS
  1
ACMTHREADLINESTANDARDJIS
  2
AmdtThreadLineStdJIS
  3
"Amdt_StdImp|Product Description: AutoCAD Mechanical 2004 DX|Company: Autodesk"
 90
        0
280
     1
281
     0
  0
CLASS
  1
ACMNOTESTANDARDJIS
  2
AmdtNoteStdJIS
  3
"Amdt_StdImp|Product Description: AutoCAD Mechanical 2004 DX|Company: Autodesk"
 90
        0
280
     1
281
     0
  0
CLASS
  1
AMDTNOTETEMPLATEDB
  2
AmdtNoteTemplateDB
  3
AMDT_STDIMP_MODULE_NAME
 90
        0
280
     1
281
     0
  0
CLASS
  1
ACAMGLAYSTD
  2
AcAmgLayStd
  3
"AcAmgLayStd|Product Description: AutoCAD Mechanical 2000|Company: Autodesk"
 90
        0
280
     1
281
     0
  0
CLASS
  1
ACAMGDIMSTD
  2
AcAmgDimStd
  3
"AcAmgDimStd|Product Description: AutoCAD Mechanical 2000|Company: Autodesk"
 90
        0
280
     1
281
     0
  0
CLASS
  1
ACAMGHOLECHARTSTDJIS
  2
AcAmgHoleChartStdJIS
  3
ACMSYMBB_MODULE_NAME
 90
        0
280
     1
281
     0
  0
CLASS
  1
CATALOGSTATE
  2
AcAmCatalogState
  3
DesignerAssemblies
 90
        0
280
     1
281
     0
  0
CLASS
  1
ACAMGRCOMPDEFSET
  2
AcAmGrCompDefSet
  3
DesignerAssemblies
 90
        0
280
     1
281
     0
  0
CLASS
  1
AMDTBROWSERDBTAB
  2
AmdtBrowserDbTab
  3
McadcomServices
 90
        0
280
     1
281
     0
  0
CLASS
  1
CBROWSERAPPOBJECT
  2
CBrowserAppObject
  3
McadcomServices
 90
        0
280
     1
281
     0
  0
CLASS
  1
DM_PLACEHOLDER
  2
AcDmSelsetPlaceholder
  3
AcMechDwgViewMgmt
 90
        0
280
     1
281
     0
  0
CLASS
  1
SORTENTSTABLE
  2
AcDbSortentsTable
  3
ObjectDBX Classes
 90
        0
280
     0
281
     0
  0
ENDSEC
  0
SECTION
  2
TABLES
  0
TABLE
  2
VPORT
  5
8
330
0
100
AcDbSymbolTable
 70
     3
  0
VPORT
  5
1CD85
330
8
100
AcDbSymbolTableRecord
100
AcDbViewportTableRecord
  2
*Active
 70
     0
 10
0.0
 20
0.0
 11
1.0
 21
1.0
 12
54.71318346538288
 22
-31.50069271982454
 13
0.0
 23
0.0
 14
2.5
 24
2.5
 15
10.0
 25
10.0
 16
0.0
 26
0.0
 36
1.0
 17
0.0
 27
0.0
 37
0.0
 40
178.8705151077465
 41
1.610603290676417
 42
50.0
 43
0.0
 44
0.0
 50
0.0
 51
0.0
 71
    16
 72
  2000
 73
     1
 74
     3
 75
     0
 76
     0
 77
     0
 78
     0
281
     0
 65
     1
110
0.0
120
0.0
130
0.0
111
1.0
121
0.0
131
0.0
112
0.0
122
1.0
132
0.0
 79
     0
146
0.0
  0
ENDTAB
  0
TABLE
  2
LTYPE
  5
5
330
0
100
AcDbSymbolTable
 70
    13
  0
LTYPE
  5
14
330
5
100
AcDbSymbolTableRecord
100
AcDbLinetypeTableRecord
  2
ByBlock
 70
     0
  3

 72
    65
 73
     0
 40
0.0
  0
LTYPE
  5
15
330
5
100
AcDbSymbolTableRecord
100
AcDbLinetypeTableRecord
  2
ByLayer
 70
     0
  3

 72
    65
 73
     0
 40
0.0
  0
LTYPE
  5
16
330
5
100
AcDbSymbolTableRecord
100
AcDbLinetypeTableRecord
  2
Continuous
 70
     0
  3
Solid line
 72
    65
 73
     0
 40
0.0
  0
LTYPE
  5
43
330
5
100
AcDbSymbolTableRecord
100
AcDbLinetypeTableRecord
  2
AM_ISO02W050
 70
     0
  3
__ __ __ __ __ __ __ __ __ __ __ __ __ __ __
 72
    65
 73
     2
 40
7.5
 49
6.0
 74
     0
 49
-1.5
 74
     0
  0
LTYPE
  5
44
330
5
100
AcDbSymbolTableRecord
100
AcDbLinetypeTableRecord
  2
AM_ISO08W050
 70
     0
  3
____ . ____ . ____ . ____ . ____ . ____ . ____
 72
    65
 73
     4
 40
18.0
 49
12.0
 74
     0
 49
-1.5
 74
     0
 49
3.0
 74
     0
 49
-1.5
 74
     0
  0
LTYPE
  5
45
330
5
100
AcDbSymbolTableRecord
100
AcDbLinetypeTableRecord
  2
AM_ISO09W050
 70
     0
  3
_____ . . _____ . . _____ . . ____ .. ____
 72
    65
 73
     6
 40
22.5
 49
12.0
 74
     0
 49
-1.5
 74
     0
 49
3.0
 74
     0
 49
-1.5
 74
     0
 49
3.0
 74
     0
 49
-1.5
 74
     0
  0
LTYPE
  5
46
330
5
100
AcDbSymbolTableRecord
100
AcDbLinetypeTableRecord
  2
Amconstr
 70
     0
  3
_______________________
 72
    65
 73
     2
 40
9999.0
 49
9999.0
 74
     0
 49
0.0
 74
     0
  0
LTYPE
  5
47
330
5
100
AcDbSymbolTableRecord
100
AcDbLinetypeTableRecord
  2
AM_ISO02W050x2
 70
     0
  3
 _ _ _ _ _ _ _ _ _ _ _ _
 72
    65
 73
     2
 40
3.75
 49
3.0
 74
     0
 49
-0.75
 74
     0
  0
LTYPE
  5
48
330
5
100
AcDbSymbolTableRecord
100
AcDbLinetypeTableRecord
  2
AM_ISO08W050x2
 70
     0
  3
__ . __ . __ . __ . __ . __
 72
    65
 73
     4
 40
9.0
 49
6.0
 74
     0
 49
-0.75
 74
     0
 49
1.5
 74
     0
 49
-0.75
 74
     0
  0
LTYPE
  5
4B
330
5
100
AcDbSymbolTableRecord
100
AcDbLinetypeTableRecord
  2
Amzigzag
 70
     0
  3
/\/-/\/-/\/-/\/-/\/-/\/
 72
    65
 73
     2
 40
11.0001
 49
0.0001
 74
     4
 75
   135
340
4A
 46
0.04
 50
0.0
 44
0.0
 45
0.0
 49
-11.0
 74
     0
  0
LTYPE
  5
188
330
5
100
AcDbSymbolTableRecord
100
AcDbLinetypeTableRecord
  2
ACJISTGB
 70
     0
  3
__ . . __ . .
 72
    65
 73
     6
 40
9.0
 49
4.0
 74
     0
 49
-1.0
 74
     0
 49
1.0
 74
     0
 49
-1.0
 74
     0
 49
1.0
 74
     0
 49
-1.0
 74
     0
  0
LTYPE
  5
189
330
5
100
AcDbSymbolTableRecord
100
AcDbLinetypeTableRecord
  2
ACJISTGL
 70
     0
  3
_ _ _ _ _
 72
    65
 73
     2
 40
3.0
 49
2.0
 74
     0
 49
-1.0
 74
     0
  0
LTYPE
  5
652
330
5
100
AcDbSymbolTableRecord
100
AcDbLinetypeTableRecord
  2
CENTER
 70
     0
  3
____ _ ____ _ ____ _ ____ _ ____ _ ____ _ ____
 72
    65
 73
     4
 40
17.5
 49
13.0
 74
     0
 49
-1.5
 74
     0
 49
1.5
 74
     0
 49
-1.5
 74
     0
  0
LTYPE
  5
12AB
330
5
100
AcDbSymbolTableRecord
100
AcDbLinetypeTableRecord
  2
HIDDEN
 70
     0
  3
Hidden __ __ __ __ __ __ __ __ __ __ __ __ __ _
 72
    65
 73
     2
 40
0.375
 49
0.25
 74
     0
 49
-0.125
 74
     0
  0
LTYPE
  5
12AC
330
5
100
AcDbSymbolTableRecord
100
AcDbLinetypeTableRecord
  2
PHANTOM2
 70
     0
  3
Phantom (.5x) ___ _ _ ___ _ _ ___ _ _ ___ _ _
 72
    65
 73
     6
 40
1.25
 49
0.625
 74
     0
 49
-0.125
 74
     0
 49
0.125
 74
     0
 49
-0.125
 74
     0
 49
0.125
 74
     0
 49
-0.125
 74
     0
  0
ENDTAB
  0
TABLE
  2
LAYER
  5
2
102
{ACAD_XDICTIONARY
360
1C899
102
}
330
0
100
AcDbSymbolTable
 70
     7
  0
LAYER
  5
10
330
2
100
AcDbSymbolTableRecord
100
AcDbLayerTableRecord
  2
0
 70
     0
 62
     7
  6
Continuous
370
    -3
390
F
  0
LAYER
  5
7D
330
2
100
AcDbSymbolTableRecord
100
AcDbLayerTableRecord
  2
AM_5
 70
     0
 62
     3
  6
Continuous
370
    13
390
F
  0
LAYER
  5
7F
330
2
100
AcDbSymbolTableRecord
100
AcDbLayerTableRecord
  2
Defpoints
 70
     0
 62
     7
  6
Continuous
290
     0
370
    -3
390
F
  0
LAYER
  5
12B1
330
2
100
AcDbSymbolTableRecord
100
AcDbLayerTableRecord
  2
AM_0
 70
     0
 62
     7
  6
Continuous
370
    30
390
F
  0
LAYER
  5
1AFF
330
2
100
AcDbSymbolTableRecord
100
AcDbLayerTableRecord
  2
AM_7
 70
     0
 62
     4
  6
AM_ISO08W050
370
    13
390
F
  0
LAYER
  5
361D
330
2
100
AcDbSymbolTableRecord
100
AcDbLayerTableRecord
  2
AM_11
 70
     0
 62
     3
  6
AM_ISO09W050
370
    13
390
F
  0
ENDTAB
  0
TABLE
  2
STYLE
  5
3
330
0
100
AcDbSymbolTable
 70
     4
  0
STYLE
  5
11
330
3
100
AcDbSymbolTableRecord
100
AcDbTextStyleTableRecord
  2
STANDARD
 70
     0
 40
0.0
 41
1.0
 50
0.0
 71
     0
 42
4.0
  3
ISOCP.SHX
  4
EXTFONT.SHX
  0
STYLE
  5
4A
330
3
100
AcDbSymbolTableRecord
100
AcDbTextStyleTableRecord
  2

 70
     1
 40
0.0
 41
1.0
 50
0.0
 71
     0
 42
2.5
  3
ltypeshp.shx
  4

  0
STYLE
  5
180
330
3
100
AcDbSymbolTableRecord
100
AcDbTextStyleTableRecord
  2
ACJISTS
 70
     0
 40
1.0
 41
1.0
 50
0.0
 71
     0
 42
2.5
  3
isocp.shx
  4
bigfont.shx
  0
STYLE
  5
187
330
3
100
AcDbSymbolTableRecord
100
AcDbTextStyleTableRecord
  2
ACJISGDT
 70
     0
 40
0.0
 41
1.0
 50
0.0
 71
     0
 42
2.5
  3
amgdt.shx
  4

  0
ENDTAB
  0
TABLE
  2
VIEW
  5
6
330
0
100
AcDbSymbolTable
 70
     6
  0
VIEW
  5
A30
330
6
100
AcDbSymbolTableRecord
100
AcDbViewTableRecord
  2
AM_VIEW1
 70
     0
 40
148.5
 10
108.6929657794677
 20
222.75
 41
217.3859315589354
 11
0.0
 21
0.0
 31
1.0
 12
0.0
 22
0.0
 32
0.0
 42
50.0
 43
0.0
 44
0.0
 50
0.0
 71
    16
281
     0
 72
     0
  0
VIEW
  5
A31
330
6
100
AcDbSymbolTableRecord
100
AcDbViewTableRecord
  2
AM_VIEW2
 70
     0
 40
148.5
 10
311.3070342205323
 20
222.75
 41
217.3859315589354
 11
0.0
 21
0.0
 31
1.0
 12
0.0
 22
0.0
 32
0.0
 42
50.0
 43
0.0
 44
0.0
 50
0.0
 71
    16
281
     0
 72
     0
  0
VIEW
  5
A32
330
6
100
AcDbSymbolTableRecord
100
AcDbViewTableRecord
  2
AM_VIEW3
 70
     0
 40
148.5
 10
108.6929657794677
 20
74.25
 41
217.3859315589354
 11
0.0
 21
0.0
 31
1.0
 12
0.0
 22
0.0
 32
0.0
 42
50.0
 43
0.0
 44
0.0
 50
0.0
 71
    16
281
     0
 72
     0
  0
VIEW
  5
A33
330
6
100
AcDbSymbolTableRecord
100
AcDbViewTableRecord
  2
AM_VIEW4
 70
     0
 40
148.5
 10
311.3070342205323
 20
74.25
 41
217.3859315589354
 11
0.0
 21
0.0
 31
1.0
 12
0.0
 22
0.0
 32
0.0
 42
50.0
 43
0.0
 44
0.0
 50
0.0
 71
    16
281
     0
 72
     0
  0
VIEW
  5
A34
330
6
100
AcDbSymbolTableRecord
100
AcDbViewTableRecord
  2
AM_VIEW5
 70
     0
 40
148.5
 10
210.0
 20
148.5
 41
217.3859315589353
 11
0.0
 21
0.0
 31
1.0
 12
0.0
 22
0.0
 32
0.0
 42
50.0
 43
0.0
 44
0.0
 50
0.0
 71
    16
281
     0
 72
     0
  0
VIEW
  5
A35
330
6
100
AcDbSymbolTableRecord
100
AcDbViewTableRecord
  2
AM_VIEW6
 70
     0
 40
296.99703
 10
210.0
 20
148.5
 41
434.7675153992395
 11
0.0
 21
0.0
 31
1.0
 12
0.0
 22
0.0
 32
0.0
 42
50.0
 43
0.0
 44
0.0
 50
0.0
 71
    16
281
     0
 72
     0
  0
ENDTAB
  0
TABLE
  2
UCS
  5
7
330
0
100
AcDbSymbolTable
 70
     0
  0
ENDTAB
  0
TABLE
  2
APPID
  5
9
330
0
100
AcDbSymbolTable
 70
    42
  0
APPID
  5
12
330
9
100
AcDbSymbolTableRecord
100
AcDbRegAppTableRecord
  2
ACAD
 70
     0
  0
APPID
  5
2C
330
9
100
AcDbSymbolTableRecord
100
AcDbRegAppTableRecord
  2
MCAD_NO_VIS
 70
     0
  0
APPID
  5
2D
330
9
100
AcDbSymbolTableRecord
100
AcDbRegAppTableRecord
  2
ACAD_TEMP_GRAPHIC
 70
     0
  0
APPID
  5
B9
330
9
100
AcDbSymbolTableRecord
100
AcDbRegAppTableRecord
  2
GENIUS_GENDTOL_13
 70
     0
  0
APPID
  5
359
330
9
100
AcDbSymbolTableRecord
100
AcDbRegAppTableRecord
  2
GENIUS_GENREC_14
 70
     0
  0
APPID
  5
35A
330
9
100
AcDbSymbolTableRecord
100
AcDbRegAppTableRecord
  2
GENIUS_GENODEF_13
 70
     0
  0
APPID
  5
35B
330
9
100
AcDbSymbolTableRecord
100
AcDbRegAppTableRecord
  2
GENIUS_GENOBJ-N-REC_13
 70
     0
  0
APPID
  5
667
330
9
100
AcDbSymbolTableRecord
100
AcDbRegAppTableRecord
  2
GENIUS_GENCFG_13
 70
     0
  0
APPID
  5
668
330
9
100
AcDbSymbolTableRecord
100
AcDbRegAppTableRecord
  2
GENIUS_GENCFG0_13
 70
     0
  0
APPID
  5
669
330
9
100
AcDbSymbolTableRecord
100
AcDbRegAppTableRecord
  2
GENIUS_GENCFG1_13
 70
     0
  0
APPID
  5
66A
330
9
100
AcDbSymbolTableRecord
100
AcDbRegAppTableRecord
  2
GENIUS_GENCFG2_13
 70
     0
  0
APPID
  5
66B
330
9
100
AcDbSymbolTableRecord
100
AcDbRegAppTableRecord
  2
GENIUS_GENCFG3_13
 70
     0
  0
APPID
  5
66C
330
9
100
AcDbSymbolTableRecord
100
AcDbRegAppTableRecord
  2
GENIUS_GENCFG4_13
 70
     0
  0
APPID
  5
A76
330
9
100
AcDbSymbolTableRecord
100
AcDbRegAppTableRecord
  2
GENIUS_GENBLLY_14
 70
     0
  0
APPID
  5
A77
330
9
100
AcDbSymbolTableRecord
100
AcDbRegAppTableRecord
  2
GENIUS_GENOBJ-N-CEN_13
 70
     0
  0
APPID
  5
A83
330
9
100
AcDbSymbolTableRecord
100
AcDbRegAppTableRecord
  2
GENIUS_GENTRA_14
 70
     0
  0
APPID
  5
A8D
330
9
100
AcDbSymbolTableRecord
100
AcDbRegAppTableRecord
  2
GENIUS_GENOBJ-N-TIT_13
 70
     0
  0
APPID
  5
A8E
330
9
100
AcDbSymbolTableRecord
100
AcDbRegAppTableRecord
  2
GENIUS_GENTITLE_13
 70
     0
  0
APPID
  5
A8F
330
9
100
AcDbSymbolTableRecord
100
AcDbRegAppTableRecord
  2
GENIUS_GENOENT_13
 70
     0
  0
APPID
  5
A90
330
9
100
AcDbSymbolTableRecord
100
AcDbRegAppTableRecord
  2
GENIUS_GENOREF_13
 70
     0
  0
APPID
  5
A91
330
9
100
AcDbSymbolTableRecord
100
AcDbRegAppTableRecord
  2
GENIUS_GENOLIS_13
 70
     0
  0
APPID
  5
A92
330
9
100
AcDbSymbolTableRecord
100
AcDbRegAppTableRecord
  2
GENIUS_GENZVEED_13
 70
     0
  0
APPID
  5
A93
330
9
100
AcDbSymbolTableRecord
100
AcDbRegAppTableRecord
  2
GENIUS_GENSCREG_15
 70
     0
  0
APPID
  5
A94
330
9
100
AcDbSymbolTableRecord
100
AcDbRegAppTableRecord
  2
GENIUS_GENOBJ-N-SDF_13
 70
     0
  0
APPID
  5
12B5
330
9
100
AcDbSymbolTableRecord
100
AcDbRegAppTableRecord
  2
GENIUS_GENOBJ-N-RSBK_13
 70
     0
  0
APPID
  5
12B6
330
9
100
AcDbSymbolTableRecord
100
AcDbRegAppTableRecord
  2
GENIUS_GENOBJ-N-LIB_13
 70
     0
  0
APPID
  5
12B7
330
9
100
AcDbSymbolTableRecord
100
AcDbRegAppTableRecord
  2
GENIUS_GENSCALE_13
 70
     0
  0
APPID
  5
12B8
330
9
100
AcDbSymbolTableRecord
100
AcDbRegAppTableRecord
  2
GENIUS_GENOBJ-N-HTC_13
 70
     0
  0
APPID
  5
12B9
330
9
100
AcDbSymbolTableRecord
100
AcDbRegAppTableRecord
  2
GENIUS_GENHATCH_13
 70
     0
  0
APPID
  5
1687
330
9
100
AcDbSymbolTableRecord
100
AcDbRegAppTableRecord
  2
BASE_TYPE
 70
     0
  0
APPID
  5
1ABF
330
9
100
AcDbSymbolTableRecord
100
AcDbRegAppTableRecord
  2
GENIUS_GENFIL_13
 70
     0
  0
APPID
  5
1AC0
330
9
100
AcDbSymbolTableRecord
100
AcDbRegAppTableRecord
  2
GENIUS_GENOBJ-N-CHA_13
 70
     0
  0
APPID
  5
1AE7
330
9
100
AcDbSymbolTableRecord
100
AcDbRegAppTableRecord
  2
GENIUS_GENOBJ-N-FIL_13
 70
     0
  0
APPID
  5
20E9
330
9
100
AcDbSymbolTableRecord
100
AcDbRegAppTableRecord
  2
GENIUS_GENDIMSH_14
 70
     0
  0
APPID
  5
1C454
330
9
100
AcDbSymbolTableRecord
100
AcDbRegAppTableRecord
  2
AD_DRAW
 70
     0
  0
APPID
  5
1C457
330
9
100
AcDbSymbolTableRecord
100
AcDbRegAppTableRecord
  2
ACATTRIBSERVICES
 70
     0
  0
APPID
  5
1C475
330
9
100
AcDbSymbolTableRecord
100
AcDbRegAppTableRecord
  2
DESIGNERASSEMBLIES
 70
     0
  0
APPID
  5
1C488
330
9
100
AcDbSymbolTableRecord
100
AcDbRegAppTableRecord
  2
ACADM_DIM_EDIT
 70
     0
  0
APPID
  5
1C489
330
9
100
AcDbSymbolTableRecord
100
AcDbRegAppTableRecord
  2
AMDT_DM_ADJ
 70
     0
  0
APPID
  5
1C51D
330
9
100
AcDbSymbolTableRecord
100
AcDbRegAppTableRecord
  2
DCO15
 70
     0
  0
APPID
  5
1C6E0
330
9
100
AcDbSymbolTableRecord
100
AcDbRegAppTableRecord
  2
ACAD_DSTYLE_DIMTEXT_FILL
 70
     0
  0
APPID
  5
1C6E1
330
9
100
AcDbSymbolTableRecord
100
AcDbRegAppTableRecord
  2
ACAD_PSEXT
 70
     0
  0
ENDTAB
  0
TABLE
  2
DIMSTYLE
  5
A
330
0
100
AcDbSymbolTable
 70
    10
100
AcDbDimStyleTable
  0
DIMSTYLE
105
58
330
A
100
AcDbSymbolTableRecord
100
AcDbDimStyleTableRecord
  2
AM_JIS
 70
     0
  4
"
 41
2.5
 42
0.0
 43
10.0
 44
1.0
 47
0.1
 48
0.1000000001
 73
     0
 74
     0
 77
     3
 78
     1
 79
     2
140
3.8
141
0.0
143
0.0393701
146
0.71
147
1.5
172
     1
176
   256
177
   256
178
     2
179
     2
271
     3
272
     3
275
     1
283
     0
284
     8
340
11
341
59
342
59
371
    -1
372
    -1
  0
DIMSTYLE
105
5F
102
{ACAD_REACTORS
330
171D5
330
1ACCC
102
}
330
A
100
AcDbSymbolTableRecord
100
AcDbDimStyleTableRecord
  2
AM_JIS$3
 70
     0
  4
"
 41
2.5
 42
0.0
 43
10.0
 44
1.0
 47
0.1
 48
0.1000000001
 73
     0
 77
     3
 78
     1
 79
     2
140
3.8
141
0.0
143
0.0393701
146
0.71
147
1.5
172
     1
176
   256
177
   256
178
     2
179
     2
271
     3
272
     3
275
     1
283
     0
284
     8
288
     1
289
     0
340
11
341
59
342
59
371
    -1
372
    -1
  0
DIMSTYLE
105
60
330
A
100
AcDbSymbolTableRecord
100
AcDbDimStyleTableRecord
  2
AM_JIS$4
 70
     0
  4
"
 41
2.5
 42
0.0
 43
10.0
 44
1.0
 47
0.1
 48
0.1000000001
 73
     0
 77
     3
 78
     1
 79
     2
140
3.8
141
0.0
143
0.0393701
146
0.71
147
1.5
172
     1
176
   256
177
   256
178
     2
179
     2
271
     3
272
     3
275
     1
283
     0
284
     8
288
     1
289
     0
340
11
341
59
342
59
371
    -1
372
    -1
  0
DIMSTYLE
105
61
330
A
100
AcDbSymbolTableRecord
100
AcDbDimStyleTableRecord
  2
AM_JIS$6
 70
     0
  4
"
 41
2.5
 42
0.0
 43
10.0
 44
1.0
 47
0.1
 48
0.1000000001
 73
     0
 74
     0
 78
     1
 79
     2
140
3.8
141
0.0
143
0.0393701
146
0.71
147
1.5
172
     1
176
   256
177
   256
178
     2
179
     2
271
     3
272
     3
275
     1
283
     0
284
     8
340
11
341
59
342
59
371
    -1
372
    -1
  0
DIMSTYLE
105
62
330
A
100
AcDbSymbolTableRecord
100
AcDbDimStyleTableRecord
  2
AM_JIS$7
 70
     0
  4
"
 41
2.5
 42
0.0
 43
10.0
 44
1.0
 47
0.1
 48
0.1000000001
 73
     0
 74
     0
 77
     3
 78
     1
 79
     2
140
5.0
141
0.0
143
0.0393701
146
0.71
147
1.5
172
     1
176
   256
177
   256
178
     2
179
     2
271
     3
272
     3
275
     1
283
     0
284
     8
340
11
341
59
342
59
371
    -1
372
    -1
  0
DIMSTYLE
105
63
330
A
100
AcDbSymbolTableRecord
100
AcDbDimStyleTableRecord
  2
AM_JIS$SF
 70
     0
  4
"
 41
2.5
 42
1.0
 43
10.0
 44
1.0
 47
0.1
 48
0.1
 73
     0
 74
     0
 75
     1
 76
     1
 77
     3
 78
     8
 79
     2
140
3.5
141
0.0
143
0.0393701
146
0.71
147
1.5
176
   256
177
   256
178
     2
271
     2
272
     3
274
     4
340
11
341
59
342
59
343
59
344
59
371
    -1
372
    -1
  0
DIMSTYLE
105
68
330
A
100
AcDbSymbolTableRecord
100
AcDbDimStyleTableRecord
  2
AM_JIS$SH
 70
     0
  4
"
 41
2.5
 42
1.0
 43
10.0
 44
1.0
 47
0.1
 48
0.1
 73
     0
 74
     0
 75
     1
 76
     1
 77
     3
 78
     8
 79
     2
140
3.5
141
0.0
143
0.0393701
144
2.0
146
0.71
147
1.5
173
     1
176
   256
177
   256
178
     2
271
     2
272
     3
274
     4
340
11
341
59
342
59
343
64
344
59
371
    -1
372
    -1
  0
DIMSTYLE
105
65F
330
A
100
AcDbSymbolTableRecord
100
AcDbDimStyleTableRecord
  2
STANDARD
 70
     0
340
11
  0
DIMSTYLE
105
1B97
102
{ACAD_REACTORS
330
F478
330
1B349
330
1C9B7
330
1CA9D
102
}
330
A
100
AcDbSymbolTableRecord
100
AcDbDimStyleTableRecord
  2
AM_JIS$0
 70
     0
  4
"
 41
2.5
 42
0.0
 43
10.0
 44
1.0
 47
0.1
 48
0.1000000001
 73
     0
 74
     0
 77
     3
 78
     1
 79
     2
140
3.8
141
0.0
143
0.0393701
146
0.71
147
1.5
172
     1
176
     3
177
     3
178
     2
271
     3
272
     3
275
     1
283
     0
284
     8
289
     0
340
11
341
59
342
59
371
    13
372
    13
  0
DIMSTYLE
105
1B98
102
{ACAD_REACTORS
330
1C9F7
330
1CB2A
102
}
330
A
100
AcDbSymbolTableRecord
100
AcDbDimStyleTableRecord
  2
AM_JIS$2
 70
     0
  4
"
 41
2.5
 42
0.0
 43
10.0
 44
1.0
 47
0.1
 48
0.1000000001
 73
     0
 74
     0
 77
     3
 78
     1
 79
     2
140
3.8
141
0.0
143
0.0393701
146
0.71
147
1.5
172
     1
176
     3
177
     3
178
     2
271
     3
272
     3
275
     1
283
     0
284
     8
289
     0
340
11
341
59
342
59
371
    13
372
    13
  0
ENDTAB
  0
TABLE
  2
BLOCK_RECORD
  5
1
330
0
100
AcDbSymbolTable
 70
    12
  0
BLOCK_RECORD
  5
1F
102
{ACAD_XDICTIONARY
360
165
102
}
330
1
100
AcDbSymbolTableRecord
100
AcDbBlockTableRecord
  2
*Model_Space
340
22
  0
BLOCK_RECORD
  5
1B
330
1
100
AcDbSymbolTableRecord
100
AcDbBlockTableRecord
  2
*Paper_Space
340
1E
  0
BLOCK_RECORD
  5
23
330
1
100
AcDbSymbolTableRecord
100
AcDbBlockTableRecord
  2
*Paper_Space0
340
26
  0
BLOCK_RECORD
  5
59
330
1
100
AcDbSymbolTableRecord
100
AcDbBlockTableRecord
  2
_Open30
340
0
102
{BLKREFS
331
1CD1C
331
1CD1D
331
1CD26
331
1CD27
331
1CD2F
331
1CD30
331
1CD38
331
1CD39
331
1CD41
331
1CD42
331
1CD4A
331
1CD4B
331
1CD55
331
1CD56
331
1CD60
331
1CD61
102
}
  0
BLOCK_RECORD
  5
64
330
1
100
AcDbSymbolTableRecord
100
AcDbBlockTableRecord
  2
GENAXEH
340
0
  0
BLOCK_RECORD
  5
F479
330
1
100
AcDbSymbolTableRecord
100
AcDbBlockTableRecord
  2
*D3
340
0
  0
BLOCK_RECORD
  5
171D6
330
1
100
AcDbSymbolTableRecord
100
AcDbBlockTableRecord
  2
*D4
340
0
  0
BLOCK_RECORD
  5
1ACCD
330
1
100
AcDbSymbolTableRecord
100
AcDbBlockTableRecord
  2
*D5
340
0
  0
BLOCK_RECORD
  5
1B34A
330
1
100
AcDbSymbolTableRecord
100
AcDbBlockTableRecord
  2
*D6
340
0
  0
BLOCK_RECORD
  5
1C46C
330
1
100
AcDbSymbolTableRecord
100
AcDbBlockTableRecord
  2
*U7
340
0
  0
BLOCK_RECORD
  5
1C9B8
330
1
100
AcDbSymbolTableRecord
100
AcDbBlockTableRecord
  2
*D8
340
0
  0
BLOCK_RECORD
  5
1C9F8
330
1
100
AcDbSymbolTableRecord
100
AcDbBlockTableRecord
  2
*D9
340
0
  0
BLOCK_RECORD
  5
1CA9E
330
1
100
AcDbSymbolTableRecord
100
AcDbBlockTableRecord
  2
*D10
340
0
  0
BLOCK_RECORD
  5
1CB2B
330
1
100
AcDbSymbolTableRecord
100
AcDbBlockTableRecord
  2
*D11
340
0
  0
ENDTAB
  0
ENDSEC
  0
SECTION
  2
BLOCKS
  0
BLOCK
  5
20
330
1F
100
AcDbEntity
  8
0
100
AcDbBlockBegin
  2
*Model_Space
 70
     0
 71
     0
 10
0.0
 20
0.0
 30
0.0
  3
*Model_Space
  1

  0
ENDBLK
  5
21
330
1F
100
AcDbEntity
  8
0
100
AcDbBlockEnd
  0
BLOCK
  5
1C
330
1B
100
AcDbEntity
 67
     1
  8
0
100
AcDbBlockBegin
  2
*Paper_Space
 70
     0
 71
     0
 10
0.0
 20
0.0
 30
0.0
  3
*Paper_Space
  1

  0
ENDBLK
  5
1D
330
1B
100
AcDbEntity
 67
     1
  8
0
100
AcDbBlockEnd
  0
BLOCK
  5
24
330
23
100
AcDbEntity
  8
0
100
AcDbBlockBegin
  2
*Paper_Space0
 70
     0
 71
     0
 10
0.0
 20
0.0
 30
0.0
  3
*Paper_Space0
  1

  0
ENDBLK
  5
25
330
23
100
AcDbEntity
  8
0
100
AcDbBlockEnd
  0
BLOCK
  5
5D
330
59
100
AcDbEntity
  8
0
100
AcDbBlockBegin
  2
_Open30
 70
     0
 71
     0
 10
0.0
 20
0.0
 30
0.0
  3
_Open30
  1

  0
LINE
  5
5A
330
59
100
AcDbEntity
  8
0
 62
     0
370
    -2
100
AcDbLine
 10
-1.0
 20
0.26794919
 30
0.0
 11
0.0
 21
0.0
 31
0.0
  0
LINE
  5
5B
330
59
100
AcDbEntity
  8
0
 62
     0
370
    -2
100
AcDbLine
 10
0.0
 20
0.0
 30
0.0
 11
-1.0
 21
-0.26794919
 31
0.0
  0
LINE
  5
5C
330
59
100
AcDbEntity
  8
0
 62
     0
370
    -2
100
AcDbLine
 10
0.0
 20
0.0
 30
0.0
 11
-1.0
 21
0.0
 31
0.0
  0
ENDBLK
  5
5E
330
59
100
AcDbEntity
  8
0
100
AcDbBlockEnd
  0
BLOCK
  5
66
330
64
100
AcDbEntity
  8
0
100
AcDbBlockBegin
  2
GENAXEH
 70
     0
 71
     0
 10
0.0
 20
0.0
 30
0.0
  3
GENAXEH
  1

  0
LINE
  5
65
330
64
100
AcDbEntity
  8
0
100
AcDbLine
 10
-1.0
 20
0.0
 30
0.0
 11
1.0
 21
0.0
 31
0.0
  0
ENDBLK
  5
67
330
64
100
AcDbEntity
  8
0
100
AcDbBlockEnd
  0
BLOCK
  5
F484
330
F479
100
AcDbEntity
  8
0
100
AcDbBlockBegin
  2
*D3
 70
     1
 71
     0
 10
0.0
 20
0.0
 30
0.0
  3
*D3
  1

  0
LINE
  5
1CD18
330
F479
100
AcDbEntity
  8
AM_5
 62
     3
370
    13
100
AcDbLine
 10
95.74999999999994
 20
6.60208423834364
 30
0.0
 11
95.74999999999994
 21
-14.06693416393828
 31
0.0
  0
LINE
  5
1CD19
330
F479
100
AcDbEntity
  8
AM_5
 62
     3
370
    13
100
AcDbLine
 10
106.7499999999999
 20
6.602084238343638
 30
0.0
 11
106.7499999999999
 21
-14.06693416393828
 31
0.0
  0
LINE
  5
1CD1A
330
F479
100
AcDbEntity
  8
AM_5
 62
     3
370
    13
100
AcDbLine
 10
98.24999999999994
 20
-13.06693416393828
 30
0.0
 11
104.2499999999999
 21
-13.06693416393828
 31
0.0
  0
MTEXT
  5
1CD1B
330
F479
100
AcDbEntity
  8
AM_5
 62
     2
100
AcDbMText
 10
100.7087101407872
 20
-8.832950908868934
 30
0.0
 40
3.8
 41
0.0
 71
     5
 72
     1
  1
11
 73
     1
 44
1.0
  0
INSERT
  5
1CD1C
330
F479
100
AcDbEntity
  8
AM_5
 62
     3
370
    13
100
AcDbBlockReference
  2
_Open30
 10
95.74999999999994
 20
-13.06693416393828
 30
0.0
 41
2.5
 42
2.5
 43
2.5
 50
180.0
  0
INSERT
  5
1CD1D
330
F479
100
AcDbEntity
  8
AM_5
 62
     3
370
    13
100
AcDbBlockReference
  2
_Open30
 10
106.7499999999999
 20
-13.06693416393828
 30
0.0
 41
2.5
 42
2.5
 43
2.5
  0
POINT
  5
1CD1E
330
F479
100
AcDbEntity
  8
Defpoints
 62
     0
100
AcDbPoint
 10
95.74999999999994
 20
6.60208423834364
 30
0.0
  0
POINT
  5
1CD1F
330
F479
100
AcDbEntity
  8
Defpoints
 62
     0
100
AcDbPoint
 10
106.7499999999999
 20
6.602084238343638
 30
0.0
  0
POINT
  5
1CD20
330
F479
100
AcDbEntity
  8
Defpoints
 62
     0
100
AcDbPoint
 10
106.7499999999999
 20
-13.06693416393828
 30
0.0
  0
ENDBLK
  5
F485
330
F479
100
AcDbEntity
  8
0
100
AcDbBlockEnd
  0
BLOCK
  5
171DC
330
171D6
100
AcDbEntity
  8
0
100
AcDbBlockBegin
  2
*D4
 70
     1
 71
     0
 10
0.0
 20
0.0
 30
0.0
  3
*D4
  1

  0
LINE
  5
1CD21
330
171D6
100
AcDbEntity
  8
AM_5
100
AcDbLine
 10
115.1066429933715
 20
27.11382683623171
 30
0.0
 11
106.5384185839225
 21
27.11382683623171
 31
0.0
  0
LINE
  5
1CD22
330
171D6
100
AcDbEntity
  8
AM_5
100
AcDbLine
 10
106.5384185839225
 20
27.11382683623171
 30
0.0
 11
103.632166540115
 21
17.15936778035884
 31
0.0
  0
LINE
  5
1CD23
330
171D6
100
AcDbEntity
  8
AM_5
100
AcDbLine
 10
98.86783345988502
 20
0.8406322196412717
 30
0.0
 11
98.16719624220416
 21
-1.559181833405422
 31
0.0
  0
MTEXT
  5
1CD24
330
171D6
100
AcDbEntity
  8
AM_5
 62
     2
100
AcDbMText
 10
111.5725307886471
 20
30.51420085197975
 30
0.0
 40
3.8
 41
0.0
 71
     5
 72
     1
  1
\U+220512
 73
     1
 44
1.0
  0
LINE
  5
1CD25
330
171D6
100
AcDbEntity
  8
AM_5
100
AcDbLine
 10
99.5684706775659
 20
3.240446272687969
 30
0.0
 11
102.9315293224341
 21
14.75955372731215
 31
0.0
  0
INSERT
  5
1CD26
330
171D6
100
AcDbEntity
  8
AM_5
100
AcDbBlockReference
  2
_Open30
 10
99.5684706775659
 20
3.240446272687969
 30
0.0
 41
2.5
 42
2.5
 43
2.5
 50
73.72458225087976
  0
INSERT
  5
1CD27
330
171D6
100
AcDbEntity
  8
AM_5
100
AcDbBlockReference
  2
_Open30
 10
102.9315293224341
 20
14.75955372731215
 30
0.0
 41
2.5
 42
2.5
 43
2.5
 50
253.7245822508798
  0
POINT
  5
1CD28
330
171D6
100
AcDbEntity
  8
Defpoints
 62
     0
100
AcDbPoint
 10
102.9315293224341
 20
14.75955372731215
 30
0.0
  0
POINT
  5
1CD29
330
171D6
100
AcDbEntity
  8
Defpoints
 62
     0
100
AcDbPoint
 10
99.5684706775659
 20
3.240446272687969
 30
0.0
  0
ENDBLK
  5
171DD
330
171D6
100
AcDbEntity
  8
0
100
AcDbBlockEnd
  0
BLOCK
  5
1ACD3
330
1ACCD
100
AcDbEntity
  8
0
100
AcDbBlockBegin
  2
*D5
 70
     1
 71
     0
 10
0.0
 20
0.0
 30
0.0
  3
*D5
  1

  0
LINE
  5
1CD2A
330
1ACCD
100
AcDbEntity
  8
AM_5
100
AcDbLine
 10
-88.54053147389166
 20
23.29213770048091
 30
0.0
 11
-64.67280546440259
 21
23.29213770048091
 31
0.0
  0
LINE
  5
1CD2B
330
1ACCD
100
AcDbEntity
  8
AM_5
100
AcDbLine
 10
-64.67280546440259
 20
23.29213770048091
 30
0.0
 11
-60.00376815819283
 21
16.67801358617678
 31
0.0
  0
LINE
  5
1CD2C
330
1ACCD
100
AcDbEntity
  8
AM_5
100
AcDbLine
 10
-47.89299891501624
 20
-0.4780135861767469
 30
0.0
 11
-46.45124067178094
 21
-2.52039777336168
 31
0.0
  0
MTEXT
  5
1CD2D
330
1ACCD
100
AcDbEntity
  8
AM_5
 62
     2
100
AcDbMText
 10
-77.35666846914712
 20
29.85880436714758
 30
0.0
 40
3.8
 41
0.0
 71
     5
 72
     1
  1
最小加工径\P\U+220516
 73
     1
 44
1.0
  0
LINE
  5
1CD2E
330
1ACCD
100
AcDbEntity
  8
AM_5
100
AcDbLine
 10
-49.33475715825155
 20
1.564370601008186
 30
0.0
 11
-58.56200991495752
 21
14.63562939899185
 31
0.0
  0
INSERT
  5
1CD2F
330
1ACCD
100
AcDbEntity
  8
AM_5
100
AcDbBlockReference
  2
_Open30
 10
-49.33475715825155
 20
1.564370601008186
 30
0.0
 41
2.5
 42
2.5
 43
2.5
 50
125.2190026169337
  0
INSERT
  5
1CD30
330
1ACCD
100
AcDbEntity
  8
AM_5
100
AcDbBlockReference
  2
_Open30
 10
-58.56200991495752
 20
14.63562939899185
 30
0.0
 41
2.5
 42
2.5
 43
2.5
 50
305.2190026169337
  0
POINT
  5
1CD31
330
1ACCD
100
AcDbEntity
  8
Defpoints
 62
     0
100
AcDbPoint
 10
-58.56200991495752
 20
14.63562939899185
 30
0.0
  0
POINT
  5
1CD32
330
1ACCD
100
AcDbEntity
  8
Defpoints
 62
     0
100
AcDbPoint
 10
-49.33475715825155
 20
1.564370601008186
 30
0.0
  0
ENDBLK
  5
1ACD4
330
1ACCD
100
AcDbEntity
  8
0
100
AcDbBlockEnd
  0
BLOCK
  5
1B356
330
1B34A
100
AcDbEntity
  8
0
100
AcDbBlockBegin
  2
*D6
 70
     1
 71
     0
 10
0.0
 20
0.0
 30
0.0
  3
*D6
  1

  0
LINE
  5
1CD33
330
1B34A
100
AcDbEntity
  8
AM_5
 62
     3
370
    13
100
AcDbLine
 10
8.818714667544498
 20
3.499999999990848
 30
0.0
 11
28.174722527624
 21
3.499999999990842
 31
0.0
  0
LINE
  5
1CD34
330
1B34A
100
AcDbEntity
  8
AM_5
 62
     3
370
    13
100
AcDbLine
 10
0.3999959912888471
 20
0.0
 30
0.0
 11
28.174722527624
 21
-0.0000000000000079
 31
0.0
  0
LINE
  5
1CD35
330
1B34A
100
AcDbEntity
  8
AM_5
 62
     3
370
    13
100
AcDbLine
 10
27.174722527624
 20
5.999999999990842
 30
0.0
 11
27.174722527624
 21
8.499999999990843
 31
0.0
  0
LINE
  5
1CD36
330
1B34A
100
AcDbEntity
  8
AM_5
 62
     3
370
    13
100
AcDbLine
 10
27.174722527624
 20
-2.500000000000008
 30
0.0
 11
27.174722527624
 21
-13.47740115370178
 31
0.0
  0
LINE
  5
1CD37
330
1B34A
100
AcDbEntity
  8
AM_5
 62
     3
370
    13
100
AcDbLine
 10
27.174722527624
 20
3.499999999990842
 30
0.0
 11
27.174722527624
 21
-0.0000000000000076
 31
0.0
  0
INSERT
  5
1CD38
330
1B34A
100
AcDbEntity
  8
AM_5
 62
     3
370
    13
100
AcDbBlockReference
  2
_Open30
 10
27.174722527624
 20
3.499999999990842
 30
0.0
 41
2.5
 42
2.5
 43
2.5
 50
270.0
  0
INSERT
  5
1CD39
330
1B34A
100
AcDbEntity
  8
AM_5
 62
     3
370
    13
100
AcDbBlockReference
  2
_Open30
 10
27.174722527624
 20
-0.0000000000000076
 30
0.0
 41
2.5
 42
2.5
 43
2.5
 50
90.0
  0
MTEXT
  5
1CD3A
330
1B34A
100
AcDbEntity
  8
AM_5
 62
     2
100
AcDbMText
 10
23.774722527624
 20
-9.238700576850892
 30
0.0
 40
3.8
 41
0.0
 71
     5
 72
     1
  1
3.5
 11
6.123031769111886E-17
 21
1.0
 31
0.0
 73
     1
 44
1.0
  0
POINT
  5
1CD3B
330
1B34A
100
AcDbEntity
  8
Defpoints
 62
     0
100
AcDbPoint
 10
8.818714667544498
 20
3.499999999990848
 30
0.0
  0
POINT
  5
1CD3C
330
1B34A
100
AcDbEntity
  8
Defpoints
 62
     0
100
AcDbPoint
 10
0.3999959912888471
 20
0.0
 30
0.0
  0
POINT
  5
1CD3D
330
1B34A
100
AcDbEntity
  8
Defpoints
 62
     0
100
AcDbPoint
 10
27.174722527624
 20
-0.0000000000000076
 30
0.0
  0
ENDBLK
  5
1B357
330
1B34A
100
AcDbEntity
  8
0
100
AcDbBlockEnd
  0
BLOCK
  5
1C46D
330
1C46C
100
AcDbEntity
  8
0
100
AcDbBlockBegin
  2
*U7
 70
     1
 71
     0
 10
0.0
 20
0.0
 30
0.0
  3
*U7
  1

  0
ENDBLK
  5
1C46E
330
1C46C
100
AcDbEntity
  8
0
100
AcDbBlockEnd
  0
BLOCK
  5
1C9E5
330
1C9B8
100
AcDbEntity
  8
0
100
AcDbBlockBegin
  2
*D8
 70
     1
 71
     0
 10
0.0
 20
0.0
 30
0.0
  3
*D8
  1

  0
LINE
  5
1CD3E
330
1C9B8
100
AcDbEntity
  8
AM_5
 62
     3
370
    13
100
AcDbLine
 10
0.0
 20
0.0
 30
0.0
 11
-10.58277473098286
 21
0.000000000000003
 31
0.0
  0
LINE
  5
1CD3F
330
1C9B8
100
AcDbEntity
  8
AM_5
 62
     3
370
    13
100
AcDbLine
 10
-2.165548451965833
 20
9.000000000000002
 30
0.0
 11
-10.58277473098286
 21
9.000000000000004
 31
0.0
  0
LINE
  5
1CD40
330
1C9B8
100
AcDbEntity
  8
AM_5
 62
     3
370
    13
100
AcDbLine
 10
-9.582774730982864
 20
2.500000000000003
 30
0.0
 11
-9.582774730982862
 21
6.500000000000004
 31
0.0
  0
INSERT
  5
1CD41
330
1C9B8
100
AcDbEntity
  8
AM_5
 62
     3
370
    13
100
AcDbBlockReference
  2
_Open30
 10
-9.582774730982864
 20
0.0000000000000027
 30
0.0
 41
2.5
 42
2.5
 43
2.5
 50
270.0
  0
INSERT
  5
1CD42
330
1C9B8
100
AcDbEntity
  8
AM_5
 62
     3
370
    13
100
AcDbBlockReference
  2
_Open30
 10
-9.582774730982862
 20
9.000000000000004
 30
0.0
 41
2.5
 42
2.5
 43
2.5
 50
90.0
  0
MTEXT
  5
1CD43
330
1C9B8
100
AcDbEntity
  8
AM_5
 62
     2
100
AcDbMText
 10
-12.98277473098286
 20
4.500000000000002
 30
0.0
 40
3.8
 41
0.0
 71
     5
 72
     1
  1
9
 11
6.123031769111886E-17
 21
1.0
 31
0.0
 73
     1
 44
1.0
  0
POINT
  5
1CD44
330
1C9B8
100
AcDbEntity
  8
Defpoints
 62
     0
100
AcDbPoint
 10
0.0
 20
0.0
 30
0.0
  0
POINT
  5
1CD45
330
1C9B8
100
AcDbEntity
  8
Defpoints
 62
     0
100
AcDbPoint
 10
-2.165548451965833
 20
9.000000000000002
 30
0.0
  0
POINT
  5
1CD46
330
1C9B8
100
AcDbEntity
  8
Defpoints
 62
     0
100
AcDbPoint
 10
-9.582774730982862
 20
9.000000000000004
 30
0.0
  0
ENDBLK
  5
1C9E6
330
1C9B8
100
AcDbEntity
  8
0
100
AcDbBlockEnd
  0
BLOCK
  5
1CA3F
330
1C9F8
100
AcDbEntity
  8
0
100
AcDbBlockBegin
  2
*D9
 70
     1
 71
     0
 10
0.0
 20
0.0
 30
0.0
  3
*D9
  1

  0
LINE
  5
1CD47
330
1C9F8
100
AcDbEntity
  8
AM_5
 62
     3
370
    13
100
AcDbLine
 10
0.3624797721676036
 20
7.322900752136491
 30
0.0
 11
1.254897711408173
 21
24.35124943337024
 31
0.0
  0
LINE
  5
1CD48
330
1C9F8
100
AcDbEntity
  8
AM_5
 62
     3
370
    13
100
AcDbLine
 10
-4.545079675469481
 20
0.000000000000004
 30
0.0
 11
-24.40596496723639
 21
0.0000000000000036
 31
0.0
  0
ARC
  5
1CD49
330
1C9F8
100
AcDbEntity
  8
AM_5
 62
     3
370
    13
100
AcDbCircle
 10
-0.0212971941619004
 20
0.0000000000000004
 30
0.0
 40
23.38466777307449
100
AcDbArc
 50
93.12827820872501
 51
173.8717217912757
  0
INSERT
  5
1CD4A
330
1C9F8
100
AcDbEntity
  8
AM_5
 62
     3
370
    13
100
AcDbBlockReference
  2
_Open30
 10
1.202561755165242
 20
23.35261989861566
 30
0.0
 41
2.5
 42
2.5
 43
2.5
 50
0.0641391043628167
  0
INSERT
  5
1CD4B
330
1C9F8
100
AcDbEntity
  8
AM_5
 62
     3
370
    13
100
AcDbBlockReference
  2
_Open30
 10
-23.40596496723639
 20
0.0000000000000036
 30
0.0
 41
2.5
 42
2.5
 43
2.5
 50
266.9358608956379
  0
MTEXT
  5
1CD4C
330
1C9F8
100
AcDbEntity
  8
AM_5
 62
     2
100
AcDbMText
 10
-18.45864581419486
 20
19.42891153866689
 30
0.0
 40
3.8
 41
0.0
 71
     5
 72
     1
  1
93°
 11
0.7253743710122838
 21
0.688354575693758
 31
0.0
 73
     1
 44
1.0
  0
POINT
  5
1CD4D
330
1C9F8
100
AcDbEntity
  8
Defpoints
 62
     0
100
AcDbPoint
 10
-10.99973371881619
 20
20.64743612004176
 30
0.0
  0
POINT
  5
1CD4E
330
1C9F8
100
AcDbEntity
  8
Defpoints
 62
     0
100
AcDbPoint
 10
0.0005375895952398
 20
0.4166324934170689
 30
0.0
  0
POINT
  5
1CD4F
330
1C9F8
100
AcDbEntity
  8
Defpoints
 62
     0
100
AcDbPoint
 10
-4.545079675469481
 20
0.000000000000004
 30
0.0
  0
POINT
  5
1CD50
330
1C9F8
100
AcDbEntity
  8
Defpoints
 62
     0
100
AcDbPoint
 10
0.399995991288904
 20
-0.0000000000000001
 30
0.0
  0
POINT
  5
1CD51
330
1C9F8
100
AcDbEntity
  8
Defpoints
 62
     0
100
AcDbPoint
 10
0.3624797721676036
 20
7.322900752136491
 30
0.0
  0
ENDBLK
  5
1CA40
330
1C9F8
100
AcDbEntity
  8
0
100
AcDbBlockEnd
  0
BLOCK
  5
1CAB4
330
1CA9E
100
AcDbEntity
  8
0
100
AcDbBlockBegin
  2
*D10
 70
     1
 71
     0
 10
0.0
 20
0.0
 30
0.0
  3
*D10
  1

  0
LINE
  5
1CD52
330
1CA9E
100
AcDbEntity
  8
AM_5
 62
     3
370
    13
100
AcDbLine
 10
0.0
 20
0.0
 30
0.0
 11
-0.0000000000000019
 21
-30.88019250889453
 31
0.0
  0
LINE
  5
1CD53
330
1CA9E
100
AcDbEntity
  8
AM_5
 62
     3
370
    13
100
AcDbLine
 10
150.0
 20
3.999999999999954
 30
0.0
 11
150.0
 21
-30.88019250889453
 31
0.0
  0
LINE
  5
1CD54
330
1CA9E
100
AcDbEntity
  8
AM_5
 62
     3
370
    13
100
AcDbLine
 10
2.499999999999998
 20
-29.88019250889453
 30
0.0
 11
147.5
 21
-29.88019250889453
 31
0.0
  0
INSERT
  5
1CD55
330
1CA9E
100
AcDbEntity
  8
AM_5
 62
     3
370
    13
100
AcDbBlockReference
  2
_Open30
 10
-0.0000000000000018
 20
-29.88019250889453
 30
0.0
 41
2.5
 42
2.5
 43
2.5
 50
180.0
  0
INSERT
  5
1CD56
330
1CA9E
100
AcDbEntity
  8
AM_5
 62
     3
370
    13
100
AcDbBlockReference
  2
_Open30
 10
150.0
 20
-29.88019250889453
 30
0.0
 41
2.5
 42
2.5
 43
2.5
  0
MTEXT
  5
1CD57
330
1CA9E
100
AcDbEntity
  8
AM_5
 62
     2
100
AcDbMText
 10
75.0
 20
-26.48019250889453
 30
0.0
 40
3.8
 41
0.0
 71
     5
 72
     1
  1
150
 73
     1
 44
1.0
  0
POINT
  5
1CD58
330
1CA9E
100
AcDbEntity
  8
Defpoints
 62
     0
100
AcDbPoint
 10
0.0
 20
0.0
 30
0.0
  0
POINT
  5
1CD59
330
1CA9E
100
AcDbEntity
  8
Defpoints
 62
     0
100
AcDbPoint
 10
150.0
 20
3.999999999999954
 30
0.0
  0
POINT
  5
1CD5A
330
1CA9E
100
AcDbEntity
  8
Defpoints
 62
     0
100
AcDbPoint
 10
150.0
 20
-29.88019250889453
 30
0.0
  0
ENDBLK
  5
1CAB5
330
1CA9E
100
AcDbEntity
  8
0
100
AcDbBlockEnd
  0
BLOCK
  5
1CB5A
330
1CB2B
100
AcDbEntity
  8
0
100
AcDbBlockBegin
  2
*D11
 70
     1
 71
     0
 10
0.0
 20
0.0
 30
0.0
  3
*D11
  1

  0
LINE
  5
1CD5B
330
1CB2B
100
AcDbEntity
  8
AM_5
 62
     3
370
    13
100
AcDbLine
 10
-53.94838353660452
 20
-0.0002158098850078
 30
0.0
 11
-56.26817052254833
 21
-16.5063578918933
 31
0.0
  0
LINE
  5
1CD5C
330
1CB2B
100
AcDbEntity
  8
AM_5
 62
     3
370
    13
100
AcDbLine
 10
-53.94838353660452
 20
-1.922109247976656
 30
0.0
 11
-53.94838353660452
 21
-16.66857320020993
 31
0.0
  0
ARC
  5
1CD5D
330
1CB2B
100
AcDbEntity
  8
AM_5
 62
     3
370
    13
100
AcDbCircle
 10
-53.94838353660452
 20
-0.0002158098850078
 30
0.0
 40
15.66835739032492
100
AcDbArc
 50
243.6966352794768
 51
252.8483176397008
  0
ARC
  5
1CD5E
330
1CB2B
100
AcDbEntity
  8
AM_5
 62
     3
370
    13
100
AcDbCircle
 10
-53.94838353660452
 20
-0.0002158098850078
 30
0.0
 40
15.66835739032492
100
AcDbArc
 50
279.151682360224
 51
288.303364720448
  0
ARC
  5
1CD5F
330
1CB2B
100
AcDbEntity
  8
AM_5
 62
     3
370
    13
100
AcDbCircle
 10
-53.94838353660452
 20
-0.0002158098850078
 30
0.0
 40
15.66835739032492
100
AcDbArc
 50
261.9999999999249
 51
270.0
  0
INSERT
  5
1CD60
330
1CB2B
100
AcDbEntity
  8
AM_5
 62
     3
370
    13
100
AcDbBlockReference
  2
_Open30
 10
-56.12899742158696
 20
-15.51608982315191
 30
0.0
 41
2.5
 42
2.5
 43
2.5
 50
347.4241588198128
  0
INSERT
  5
1CD61
330
1CB2B
100
AcDbEntity
  8
AM_5
 62
     3
370
    13
100
AcDbBlockReference
  2
_Open30
 10
-53.94838353660453
 20
-15.66857320020993
 30
0.0
 41
2.5
 42
2.5
 43
2.5
 50
184.575841180112
  0
MTEXT
  5
1CD62
330
1CB2B
100
AcDbEntity
  8
AM_5
 62
     2
100
AcDbMText
 10
-55.6558088783186
 20
-12.14917838943116
 30
0.0
 40
3.8
 41
0.0
 71
     5
 72
     1
  1
8°
 11
0.9902680687413846
 21
-0.1391731009613867
 31
0.0
 73
     1
 44
1.0
  0
POINT
  5
1CD63
330
1CB2B
100
AcDbEntity
  8
Defpoints
 62
     0
100
AcDbPoint
 10
-54.67735875582211
 20
-15.65160611364768
 30
0.0
  0
POINT
  5
1CD64
330
1CB2B
100
AcDbEntity
  8
Defpoints
 62
     0
100
AcDbPoint
 10
-53.94838353660452
 20
17.10000000000003
 30
0.0
  0
POINT
  5
1CD65
330
1CB2B
100
AcDbEntity
  8
Defpoints
 62
     0
100
AcDbPoint
 10
-53.88979932815834
 20
0.4166324930988363
 30
0.0
  0
POINT
  5
1CD66
330
1CB2B
100
AcDbEntity
  8
Defpoints
 62
     0
100
AcDbPoint
 10
-52.91918662239004
 20
7.32290075181826
 30
0.0
  0
POINT
  5
1CD67
330
1CB2B
100
AcDbEntity
  8
Defpoints
 62
     0
100
AcDbPoint
 10
-53.94838353660452
 20
-1.922109247976656
 30
0.0
  0
ENDBLK
  5
1CB5B
330
1CB2B
100
AcDbEntity
  8
0
100
AcDbBlockEnd
  0
ENDSEC
  0
SECTION
  2
ENTITIES
  0
LINE
  5
EF21
330
1F
100
AcDbEntity
  8
AM_7
100
AcDbLine
 10
153.4412382185365
 20
8.999999999999982
 30
0.0
 11
-2.165548451965833
 21
9.000000000000002
 31
0.0
1001
GENIUS_GENODEF_13
1002
{
1000
HIER
1070
     0
1002
}
1002
{
1000
MANEDIT
1070
     0
1002
}
1002
{
1000
NOSEL
1070
     0
1002
}
1002
{
1000
BEHIND
1070
     0
1002
}
1002
{
1000
REACTOR
1002
}
1001
GENIUS_GENOBJ-N-CEN_13
1002
{
1000
OWNER
1000
GEN
1002
}
  0
LINE
  5
EF61
330
1F
100
AcDbEntity
  8
AM_7
  6
AM_ISO08W050x2
100
AcDbLine
 10
101.2499999999999
 20
20.20813857451877
 30
0.0
 11
101.2499999999999
 21
-2.183904590500912
 31
0.0
1001
GENIUS_GENODEF_13
1002
{
1000
HIER
1070
     0
1002
}
1002
{
1000
MANEDIT
1070
     0
1002
}
1002
{
1000
NOSEL
1070
     0
1002
}
1002
{
1000
BEHIND
1070
     0
1002
}
1002
{
1000
REACTOR
1002
}
1001
GENIUS_GENOBJ-N-CEN_13
1002
{
1000
OWNER
1000
GEN
1002
}
  0
DIMENSION
  5
F478
330
1F
100
AcDbEntity
  8
AM_5
100
AcDbDimension
  2
*D3
 10
106.7499999999999
 20
-13.06693416393828
 30
0.0
 11
100.7087101407872
 21
-8.832950908868934
 31
0.0
 70
   160
  1
<>
 71
     5
 42
11.0
  3
AM_JIS$0
100
AcDbAlignedDimension
 13
95.74999999999994
 23
6.60208423834364
 33
0.0
 14
106.7499999999999
 24
6.602084238343638
 34
0.0
100
AcDbRotatedDimension
1001
GENIUS_GENDTOL_13
1000

1000
h7
1000

1040
0.0
1001
ACAD
1000
DSTYLE
1002
{
1070
   271
1070
     0
1070
   279
1070
     2
1002
}
  0
LINE
  5
166A2
330
1F
100
AcDbEntity
  8
AM_7
100
AcDbLine
 10
155.4588124887482
 20
-59.07930163851752
 30
0.0
 11
-1.300096829471386
 21
-59.07930163851751
 31
0.0
1001
GENIUS_GENODEF_13
1002
{
1000
HIER
1070
     0
1002
}
1002
{
1000
MANEDIT
1070
     0
1002
}
1002
{
1000
NOSEL
1070
     0
1002
}
1002
{
1000
BEHIND
1070
     0
1002
}
1002
{
1000
REACTOR
1002
}
1001
GENIUS_GENOBJ-N-CEN_13
1002
{
1000
OWNER
1000
GEN
1002
}
  0
ARC
  5
1679D
330
1F
100
AcDbEntity
  8
AM_0
100
AcDbCircle
 10
101.2499999999999
 20
8.999999999999988
 30
0.0
 40
6.0
100
AcDbArc
 50
203.5564643091012
 51
246.4435356908995
  0
ARC
  5
167AF
330
1F
100
AcDbEntity
  8
AM_0
100
AcDbCircle
 10
101.2499999999999
 20
8.999999999999988
 30
0.0
 40
6.0
100
AcDbArc
 50
23.55646430910113
 51
156.4435356908989
  0
LINE
  5
167CD
330
1F
100
AcDbEntity
  8
AM_0
100
AcDbLine
 10
106.7499999999999
 20
11.39791576165634
 30
0.0
 11
106.7499999999999
 21
6.602084238343638
 31
0.0
  0
LINE
  5
167CE
330
1F
100
AcDbEntity
  8
AM_0
100
AcDbLine
 10
95.74999999999994
 20
11.39791576165634
 30
0.0
 11
95.74999999999994
 21
6.60208423834364
 31
0.0
  0
DIMENSION
  5
171D5
330
1F
100
AcDbEntity
  8
AM_5
100
AcDbDimension
  2
*D4
 10
99.5684706775659
 20
3.240446272687969
 30
0.0
 11
111.5725307886471
 21
27.11382683623172
 31
0.0
 70
   163
  1
<>
 71
     5
 42
12.00000000000005
  3
AM_JIS$3
100
AcDbDiametricDimension
 15
102.9315293224341
 25
14.75955372731215
 35
0.0
 40
0.0
1001
GENIUS_GENDTOL_13
1000

1000
h7
1000

1040
0.0
1001
ACAD
1000
DSTYLE
1002
{
1070
   271
1070
     0
1070
   289
1070
     3
1002
}
  0
ARC
  5
192D7
330
1F
100
AcDbEntity
  8
AM_0
100
AcDbCircle
 10
3.447551306404876
 20
6.431714076429614
 30
0.0
 40
0.1874999999999716
100
AcDbArc
 50
13.53115216736183
 51
166.4688478326351
  0
CIRCLE
  5
192D8
330
1F
100
AcDbEntity
  8
AM_0
100
AcDbCircle
 10
3.447551306404876
 20
5.525464076429614
 30
0.0
 40
1.3
  0
CIRCLE
  5
192D9
330
1F
100
AcDbEntity
  8
AM_0
100
AcDbCircle
 10
3.447551306404876
 20
5.525464076429614
 30
0.0
 40
1.725
  0
CIRCLE
  5
192DA
330
1F
100
AcDbEntity
  8
AM_0
100
AcDbCircle
 10
3.447551306404876
 20
5.525464076429614
 30
0.0
 40
1.09375
  0
ARC
  5
192DD
330
1F
100
AcDbEntity
  8
AM_0
100
AcDbCircle
 10
3.447551306404876
 20
4.619214076429728
 30
0.0
 40
0.1874999999999716
100
AcDbArc
 50
193.5311521673617
 51
346.4688478326303
  0
ARC
  5
192DE
330
1F
100
AcDbEntity
  8
AM_0
100
AcDbCircle
 10
2.839899524784642
 20
6.577947835505881
 30
0.0
 40
0.4375
100
AcDbArc
 50
253.5311521673744
 51
346.4688478326208
  0
ARC
  5
192DF
330
1F
100
AcDbEntity
  8
AM_0
100
AcDbCircle
 10
4.055203088025337
 20
6.577947835505768
 30
0.0
 40
0.4375
100
AcDbArc
 50
193.5311521673586
 51
286.4688478326256
  0
ARC
  5
192E0
330
1F
100
AcDbEntity
  8
AM_0
100
AcDbCircle
 10
4.662854869645457
 20
5.525464076429614
 30
0.0
 40
0.4375
100
AcDbArc
 50
133.5311521673598
 51
226.4688478326401
  0
ARC
  5
192E1
330
1F
100
AcDbEntity
  8
AM_0
100
AcDbCircle
 10
4.232386828584595
 20
5.978589076429557
 30
0.0
 40
0.1874999999999716
100
AcDbArc
 50
313.5311521673621
 51
106.4688478326328
  0
ARC
  5
192E2
330
1F
100
AcDbEntity
  8
AM_0
100
AcDbCircle
 10
2.839899524784414
 20
4.472980317353631
 30
0.0
 40
0.4375
100
AcDbArc
 50
13.53115216735863
 51
106.4688478326194
  0
ARC
  5
192E3
330
1F
100
AcDbEntity
  8
AM_0
100
AcDbCircle
 10
4.05520308802511
 20
4.472980317353574
 30
0.0
 40
0.4375
100
AcDbArc
 50
73.53115216735387
 51
166.4688478326319
  0
ARC
  5
192E4
330
1F
100
AcDbEntity
  8
AM_0
100
AcDbCircle
 10
4.232386828584595
 20
5.072339076429671
 30
0.0
 40
0.1874999999999716
100
AcDbArc
 50
253.5311521673539
 51
46.46884783263796
  0
ARC
  5
192E5
330
1F
100
AcDbEntity
  8
AM_0
100
AcDbCircle
 10
2.662715784225384
 20
5.978589076429728
 30
0.0
 40
0.1874999999999716
100
AcDbArc
 50
73.53115216737449
 51
226.4688478326379
  0
ARC
  5
192E6
330
1F
100
AcDbEntity
  8
AM_0
100
AcDbCircle
 10
2.232247743164294
 20
5.525464076429728
 30
0.0
 40
0.4375
100
AcDbArc
 50
313.5311521673598
 51
46.46884783262645
  0
ARC
  5
192E7
330
1F
100
AcDbEntity
  8
AM_0
100
AcDbCircle
 10
2.66271578422527
 20
5.072339076429671
 30
0.0
 40
0.1874999999999716
100
AcDbArc
 50
133.5311521673621
 51
286.4688478326256
  0
LINE
  5
192F2
330
1F
100
AcDbEntity
  8
AM_7
  6
AM_ISO08W050x2
100
AcDbLine
 10
3.447551306404876
 20
9.825464076429626
 30
0.0
 11
3.447551306404876
 21
1.225464076429603
 31
0.0
1001
GENIUS_GENODEF_13
1002
{
1000
HIER
1070
     0
1002
}
1002
{
1000
MANEDIT
1070
     0
1002
}
1002
{
1000
NOSEL
1070
     0
1002
}
1002
{
1000
BEHIND
1070
     0
1002
}
1002
{
1000
REACTOR
1002
}
1001
GENIUS_GENOBJ-N-CEN_13
1002
{
1000
OWNER
1000
GEN
1002
}
  0
LINE
  5
192FA
330
1F
100
AcDbEntity
  8
AM_7
  6
AM_ISO08W050x2
100
AcDbLine
 10
7.74755130640483
 20
5.525464076429614
 30
0.0
 11
-0.852448693595079
 21
5.525464076429614
 31
0.0
1001
GENIUS_GENODEF_13
1002
{
1000
HIER
1070
     0
1002
}
1002
{
1000
MANEDIT
1070
     0
1002
}
1002
{
1000
NOSEL
1070
     0
1002
}
1002
{
1000
BEHIND
1070
     0
1002
}
1002
{
1000
REACTOR
1002
}
1001
GENIUS_GENOBJ-N-CEN_13
1002
{
1000
OWNER
1000
GEN
1002
}
  0
LINE
  5
1965A
330
1F
100
AcDbEntity
  8
AM_0
100
AcDbLine
 10
150.0
 20
13.99999999999995
 30
0.0
 11
149.0
 21
14.99999999999995
 31
0.0
  0
LINE
  5
1965E
330
1F
100
AcDbEntity
  8
AM_0
100
AcDbLine
 10
149.0
 20
11.39791576165642
 30
0.0
 11
149.0
 21
15.00000000000001
 31
0.0
  0
LINE
  5
19663
330
1F
100
AcDbEntity
  8
AM_0
100
AcDbLine
 10
149.0
 20
11.39791576165642
 30
0.0
 11
111.7499999999999
 21
11.39791576165642
 31
0.0
  0
SPLINE
  5
196FC
330
1F
100
AcDbEntity
  8
AM_0
100
AcDbSpline
210
0.0
220
0.0
230
1.0
 70
    28
 71
     2
 72
     6
 73
     3
 74
     0
 42
0.0000000001
 43
0.0000000001
 40
0.0
 40
0.0
 40
0.0
 40
2.449489742783253
 40
2.449489742783253
 40
2.449489742783253
 10
149.0
 20
-53.57930163851755
 30
0.0
 41
1.0
 10
149.4999999999999
 20
-53.57930163851762
 30
0.0
 41
1.045454545454548
 10
149.4999999999999
 20
-53.57930163851762
 30
0.0
 41
1.045454545454548
  0
SPLINE
  5
196FD
330
1F
100
AcDbEntity
  8
AM_0
100
AcDbSpline
210
0.0
220
0.0
230
1.0
 70
    28
 71
     2
 72
     6
 73
     3
 74
     0
 42
0.0000000001
 43
0.0000000001
 40
0.0
 40
0.0
 40
0.0
 40
2.449489742783234
 40
2.449489742783234
 40
2.449489742783234
 10
149.0
 20
-64.57930163851755
 30
0.0
 41
1.0
 10
149.4999999999999
 20
-64.57930163851755
 30
0.0
 41
1.045454545454548
 10
149.4999999999999
 20
-64.57930163851755
 30
0.0
 41
1.045454545454548
  0
LINE
  5
196FE
330
1F
100
AcDbEntity
  8
AM_0
100
AcDbLine
 10
150.0
 20
3.999999999999954
 30
0.0
 11
149.5000000000001
 21
3.499999999999982
 31
0.0
  0
SPLINE
  5
196FF
330
1F
100
AcDbEntity
  8
AM_0
100
AcDbSpline
210
0.0
220
0.0
230
1.0
 70
    12
 71
     2
 72
     6
 73
     3
 74
     0
 42
0.0000000001
 43
0.0000000001
 40
0.0
 40
0.0
 40
0.0
 40
4.898979485566507
 40
4.898979485566507
 40
4.898979485566507
 10
149.0
 20
6.60208423834349
 30
0.0
 41
1.0
 10
149.9583333333333
 20
8.999999999999952
 30
0.0
 41
1.090909090909097
 10
149.0
 20
11.39791576165642
 30
0.0
 41
1.0
  0
LINE
  5
19701
330
1F
100
AcDbEntity
  8
AM_0
100
AcDbLine
 10
149.0000000000001
 20
3.500000000000011
 30
0.0
 11
149.0
 21
6.602084238343547
 31
0.0
  0
LINE
  5
19702
330
1F
100
AcDbEntity
  8
AM_0
100
AcDbLine
 10
150.0
 20
-64.07930163851755
 30
0.0
 11
150.0
 21
-54.07930163851749
 31
0.0
  0
LINE
  5
19703
330
1F
100
AcDbEntity
  8
AM_0
100
AcDbLine
 10
150.0
 20
-64.07930163851755
 30
0.0
 11
149.5000000000001
 21
-64.57930163851749
 31
0.0
  0
LINE
  5
19704
330
1F
100
AcDbEntity
  8
AM_0
100
AcDbLine
 10
150.0
 20
-54.07930163851755
 30
0.0
 11
149.5000000000001
 21
-53.57930163851761
 31
0.0
  0
LINE
  5
19705
330
1F
100
AcDbEntity
  8
AM_0
100
AcDbLine
 10
150.0
 20
3.999999999999954
 30
0.0
 11
150.0
 21
14.00000000000001
 31
0.0
  0
LINE
  5
197A2
330
1F
100
AcDbEntity
  8
AM_0
100
AcDbLine
 10
111.7499999999999
 20
14.99999999999996
 30
0.0
 11
149.0
 21
14.99999999999995
 31
0.0
  0
LINE
  5
197A5
330
1F
100
AcDbEntity
  8
AM_0
100
AcDbLine
 10
111.7499999999999
 20
6.602084238343496
 30
0.0
 11
149.0
 21
6.60208423834349
 31
0.0
  0
LINE
  5
1A855
330
1F
100
AcDbEntity
  8
AM_0
100
AcDbLine
 10
25.51787535606366
 20
-53.57930163851748
 30
0.0
 11
149.4999999999999
 21
-53.57930163851749
 31
0.0
  0
LINE
  5
1A856
330
1F
100
AcDbEntity
  8
AM_0
100
AcDbLine
 10
149.5
 20
-64.57930163851751
 30
0.0
 11
22.24999999999989
 21
-64.57930163851748
 31
0.0
  0
LINE
  5
1A857
330
1F
100
AcDbEntity
  8
AM_0
100
AcDbLine
 10
23.21449164867181
 20
-56.68138587686102
 30
0.0
 11
149.0
 21
-56.68138587686103
 31
0.0
  0
LINE
  5
1A858
330
1F
100
AcDbEntity
  8
AM_0
100
AcDbLine
 10
149.0000000000001
 20
-61.47721740017396
 30
0.0
 11
22.24999999999989
 21
-61.47721740017394
 31
0.0
  0
LINE
  5
1A859
330
1F
100
AcDbEntity
  8
AM_0
100
AcDbLine
 10
43.95494680438901
 20
15.00000000000005
 30
0.0
 11
90.74999999999994
 21
15.00000000000005
 31
0.0
  0
LINE
  5
1A85A
330
1F
100
AcDbEntity
  8
AM_0
100
AcDbLine
 10
90.74999999999994
 20
11.39791576165645
 30
0.0
 11
22.24999999999989
 21
11.39791576165646
 31
0.0
  0
LINE
  5
1A85B
330
1F
100
AcDbEntity
  8
AM_0
100
AcDbLine
 10
23.01787535606366
 20
6.602084238343535
 30
0.0
 11
90.74999999999994
 21
6.602084238343526
 31
0.0
  0
LINE
  5
1A85C
330
1F
100
AcDbEntity
  8
AM_0
100
AcDbLine
 10
23.21449164890254
 20
3.499999999999996
 30
0.0
 11
90.74999999999994
 21
3.499999999999989
 31
0.0
  0
LINE
  5
1A85D
330
1F
100
AcDbEntity
  8
AM_0
100
AcDbLine
 10
-59.44838353660452
 20
10.67705098312485
 30
0.0
 11
-59.44838353660452
 21
2.919026411719138
 31
0.0
  0
LINE
  5
1A85E
330
1F
100
AcDbEntity
  8
AM_0
100
AcDbLine
 10
-52.91918662238993
 20
7.322900751818317
 30
0.0
 11
-52.27591727357344
 21
11.99999999999989
 31
0.0
  0
SPLINE
  5
1A85F
330
1F
100
AcDbEntity
  8
AM_0
100
AcDbSpline
210
0.0
220
0.0
230
1.0
 70
     8
 71
     3
 72
    16
 73
    12
 74
     0
 42
0.0000000001
 43
0.0000000001
 40
2.744030777293935
 40
2.744030777293935
 40
2.744030777293935
 40
2.744030777293935
 40
2.944256307260462
 40
2.944256307260462
 40
3.43402293461745
 40
3.43402293461745
 40
3.923789561974437
 40
3.923789561974437
 40
4.413744360957436
 40
4.413744360957436
 40
4.90332439785835
 40
4.90332439785835
 40
4.90332439785835
 40
4.90332439785835
 10
-52.32951166314115
 20
11.6186561031837
 30
0.0
 10
-52.33468830077254
 20
11.57805386159448
 30
0.0
 10
-52.34004997225782
 20
11.53359912311817
 30
0.0
 10
-52.3591008594417
 20
11.37206597221212
 30
0.0
 10
-52.37550525253505
 20
11.22676730918028
 30
0.0
 10
-52.41406804780922
 20
10.90876231361836
 30
0.0
 10
-52.43641635938502
 20
10.73607824403872
 30
0.0
 10
-52.48186784551888
 20
10.41268279727229
 30
0.0
 10
-52.50799495502633
 20
10.24046661857626
 30
0.0
 10
-52.55857981830332
 20
9.924178484480827
 30
0.0
 10
-52.58285053842042
 20
9.780052167078686
 30
0.0
 10
-52.60145162688059
 20
9.666139842738296
 30
0.0
  0
LINE
  5
1A860
330
1F
100
AcDbEntity
  8
AM_0
100
AcDbLine
 10
-48.44838353660452
 20
10.67705098312479
 30
0.0
 11
-48.44838353660452
 21
7.800000000000019
 31
0.0
  0
ELLIPSE
  5
1A861
330
1F
100
AcDbEntity
  8
AM_0
100
AcDbEllipse
 10
-53.34826789207693
 20
8.640881142973178
 30
0.0
 11
-7.19997477760203
 21
4.308580748284911
 31
0.0
210
0.0
220
0.0
230
1.0
 40
0.9965203608896375
 41
1.2935855745753
 42
1.756311684853977
  0
SPLINE
  5
1A862
330
1F
100
AcDbEntity
  8
AM_0
100
AcDbSpline
210
0.0
220
0.0
230
1.0
 70
     8
 71
     3
 72
    26
 73
    22
 74
     0
 42
0.0000000001
 43
0.0000000001
 40
4.24823001404333
 40
4.24823001404333
 40
4.24823001404333
 40
4.24823001404333
 40
5.057911992311746
 40
5.057911992311746
 40
5.489040311107422
 40
5.489040311107422
 40
5.920168629903099
 40
5.920168629903099
 40
6.351296948698776
 40
6.351296948698776
 40
6.782425267494452
 40
6.782425267494452
 40
7.213553586290129
 40
7.213553586290129
 40
7.644681905085806
 40
7.644681905085806
 40
8.075810223881483
 40
8.075810223881483
 40
8.506938542677158
 40
8.506938542677158
 40
9.028742127016043
 40
9.028742127016043
 40
9.028742127016043
 40
9.028742127016043
 10
-48.44838353660452
 20
6.602084238343544
 30
0.0
 10
-48.5260460249641
 20
6.423953007543851
 30
0.0
 10
-48.61995693031429
 20
6.232304121769865
 30
0.0
 10
-48.79317845559001
 20
5.927756464558009
 30
0.0
 10
-48.86153729203625
 20
5.815168950988216
 30
0.0
 10
-49.01379203926854
 20
5.584014009800519
 30
0.0
 10
-49.09771450996641
 20
5.465461645779904
 30
0.0
 10
-49.27808131320649
 20
5.23035417965253
 30
0.0
 10
-49.37464596494249
 20
5.113675527573612
 30
0.0
 10
-49.57497971784619
 20
4.889533807426467
 30
0.0
 10
-49.67875245585628
 20
4.78207363301113
 30
0.0
 10
-49.88558453135545
 20
4.58249882331905
 30
0.0
 10
-49.99668118212026
 20
4.482628885758579
 30
0.0
 10
-50.22783249642896
 20
4.290425365612926
 30
0.0
 10
-50.34788439801071
 20
4.198088045192328
 30
0.0
 10
-50.58928158904428
 20
4.026230253687352
 30
0.0
 10
-50.71075464544288
 20
3.946593951211192
 30
0.0
 10
-50.94719814952759
 20
3.8026891762159
 30
0.0
 10
-51.0621544914859
 20
3.738393622904148
 30
0.0
 10
-51.30064507391512
 20
3.613796312449786
 30
0.0
 10
-51.42801701187727
 20
3.553386656887717
 30
0.0
 10
-51.55046777315249
 20
3.500000000391431
 30
0.0
  0
SPLINE
  5
1A863
330
1F
100
AcDbEntity
  8
AM_0
100
AcDbSpline
210
0.0
220
0.0
230
1.0
 70
     8
 71
     3
 72
    28
 73
    24
 74
     0
 42
0.0000000001
 43
0.0000000001
 40
9.744885012254468
 40
9.744885012254468
 40
9.744885012254468
 40
9.744885012254468
 40
10.17923750272997
 40
10.17923750272997
 40
10.62073973281601
 40
10.62073973281601
 40
11.06224196290205
 40
11.06224196290205
 40
11.94524642307414
 40
11.94524642307414
 40
12.77877196696044
 40
12.77877196696044
 40
13.61229751084674
 40
13.61229751084674
 40
14.44582305473304
 40
14.44582305473304
 40
15.27934859861934
 40
15.27934859861934
 40
16.54913020032943
 40
16.54913020032943
 40
17.81891180203953
 40
17.81891180203953
 40
18.56662843637271
 40
18.56662843637271
 40
18.56662843637271
 40
18.56662843637271
 10
-52.94393689520234
 20
3.500000000000007
 30
0.0
 10
-52.93771426259821
 20
3.639870884512227
 30
0.0
 10
-52.9247381203038
 20
3.782920381627555
 30
0.0
 10
-52.88410524485926
 20
4.072030552175427
 30
0.0
 10
-52.85658882299731
 20
4.215394611635027
 30
0.0
 10
-52.78999809195125
 20
4.491891020902422
 30
0.0
 10
-52.75093590466111
 20
4.625112707301874
 30
0.0
 10
-52.62152486310652
 20
5.004820803664821
 30
0.0
 10
-52.51819472140574
 20
5.232356485304315
 30
0.0
 10
-52.31848367387215
 20
5.605326480370032
 30
0.0
 10
-52.20992327880322
 20
5.778328883684772
 30
0.0
 10
-51.97123411945199
 20
6.107279651987547
 30
0.0
 10
-51.84107889646703
 20
6.263122326281412
 30
0.0
 10
-51.56312415012076
 20
6.554053644558515
 30
0.0
 10
-51.41529770853799
 20
6.68908953609003
 30
0.0
 10
-51.10901724570488
 20
6.934492516301027
 30
0.0
 10
-50.95055412850729
 20
7.04481729833072
 30
0.0
 10
-50.55035197863117
 20
7.288963043132874
 30
0.0
 10
-50.28077745848464
 20
7.421826431951452
 30
0.0
 10
-49.69510602722278
 20
7.635066739791974
 30
0.0
 10
-49.3789694582681
 20
7.71540411628667
 30
0.0
 10
-48.85248400218268
 20
7.786141193074123
 30
0.0
 10
-48.65200438453167
 20
7.799999999999962
 30
0.0
 10
-48.44838353660452
 20
7.799999999999962
 30
0.0
  0
LINE
  5
1A864
330
1F
100
AcDbEntity
  8
AM_0
100
AcDbLine
 10
-53.88979932815835
 20
0.4166324930988381
 30
0.0
 11
-52.91918662239004
 21
7.32290075181826
 31
0.0
  0
LINE
  5
1A865
330
1F
100
AcDbEntity
  8
AM_0
100
AcDbLine
 10
-55.29929500393928
 20
7.488705234941428
 30
0.0
 11
-56.24876461158533
 21
0.7328779364378093
 31
0.0
  0
LINE
  5
1A866
330
1F
100
AcDbEntity
  8
AM_0
100
AcDbLine
 10
-56.25348425411153
 20
0.6992959349065941
 30
0.0
 11
-55.27846206825302
 21
7.636939274749899
 31
0.0
  0
LINE
  5
1A867
330
1F
100
AcDbEntity
  8
AM_0
100
AcDbLine
 10
-53.42731981189286
 20
3.500000000000007
 30
0.0
 11
-52.94393689520234
 21
3.500000000000007
 31
0.0
  0
LINE
  5
1A868
330
1F
100
AcDbEntity
  8
AM_0
100
AcDbLine
 10
-56.2645490637376
 20
0.6206238677239995
 30
0.0
 11
-53.94838353567684
 21
-0.0000000002485407
 31
0.0
  0
LINE
  5
1A869
330
1F
100
AcDbEntity
  8
AM_0
100
AcDbLine
 10
-56.26226985726646
 20
0.6368701055540456
 30
0.0
 11
-56.25350254266027
 21
0.6993027366947686
 31
0.0
  0
ELLIPSE
  5
1A86A
330
1F
100
AcDbEntity
  8
AM_0
100
AcDbEllipse
 10
-53.89271282956145
 20
0.3961070212348332
 30
0.0
 11
0.05567070587043417
 21
0.3961070215331806
 31
0.0
210
0.0
220
0.0
230
1.0
 40
0.0000712886601674
 41
3.141583900443307
 42
4.764240212652189
  0
ELLIPSE
  5
1A86B
330
1F
100
AcDbEntity
  8
AM_0
100
AcDbEllipse
 10
-56.24954960169498
 20
0.7273477203221788
 30
0.0
 11
0.01499946197647081
 21
0.1067238526116018
 31
0.0
210
0.0
220
0.0
230
1.0
 40
0.0000712886601674
 41
2.582578647657639
 42
4.446431072970715
  0
LINE
  5
1A86D
330
1F
100
AcDbEntity
  8
AM_0
100
AcDbLine
 10
-53.45646028504007
 20
3.500000000000036
 30
0.0
 11
-53.42731981190127
 21
3.500000000000007
 31
0.0
  0
LINE
  5
1A86E
330
1F
100
AcDbEntity
  8
AM_0
100
AcDbLine
 10
-52.94393689520234
 20
3.500000000000007
 30
0.0
 11
-51.55046777317648
 21
3.500000000000007
 31
0.0
  0
LINE
  5
1A86F
330
1F
100
AcDbEntity
  8
AM_0
100
AcDbLine
 10
-52.91918662239004
 20
7.322900751818317
 30
0.0
 11
-55.29929500393928
 21
7.488705234941541
 31
0.0
  0
LINE
  5
1A870
330
1F
100
AcDbEntity
  8
AM_0
100
AcDbLine
 10
-52.91918662239004
 20
7.322900751818317
 30
0.0
 11
-54.29924946510062
 21
7.41903948570414
 31
0.0
  0
LINE
  5
1A871
330
1F
100
AcDbEntity
  8
AM_0
100
AcDbLine
 10
-55.27846206825302
 20
7.636939274749899
 30
0.0
 11
-54.29924946510062
 21
7.419039485704083
 31
0.0
  0
ELLIPSE
  5
1A872
330
1F
100
AcDbEntity
  8
AM_0
100
AcDbEllipse
 10
-40.75842823694302
 20
7.731390747208257
 30
0.0
 11
-7.222002307496807
 21
9.583994377993436
 31
0.0
210
0.0
220
0.0
230
1.0
 40
0.9999287138806918
 41
0.7631281521999973
 42
0.7760317845848314
  0
LINE
  5
1A873
330
1F
100
AcDbEntity
  8
AM_0
100
AcDbLine
 10
-48.44838353660452
 20
7.799999999999962
 30
0.0
 11
-48.44838353660452
 21
6.602084238343544
 31
0.0
  0
LINE
  5
1A874
330
1F
100
AcDbEntity
  8
AM_0
100
AcDbLine
 10
-52.27591727357344
 20
11.99999999999989
 30
0.0
 11
-58.56147967817344
 21
12.43246908050765
 31
0.0
  0
ARC
  5
1A875
330
1F
100
AcDbEntity
  8
AM_0
100
AcDbCircle
 10
-53.94838353660452
 20
9.000000000000007
 30
0.0
 40
5.999999999999986
100
AcDbArc
 50
102.0243128370404
 51
156.4435356908994
  0
ARC
  5
1A876
330
1F
100
AcDbEntity
  8
AM_0
100
AcDbCircle
 10
-53.94838353660452
 20
9.000000000000007
 30
0.0
 40
5.749999999999986
100
AcDbArc
 50
69.56269136831922
 51
143.3481498965186
  0
SPLINE
  5
1A877
330
1F
100
AcDbEntity
  8
AM_0
100
AcDbSpline
210
0.0
220
0.0
230
1.0
 70
    28
 71
     2
 72
     6
 73
     3
 74
     0
 42
0.0000000001
 43
0.0000000001
 40
0.0
 40
0.0
 40
0.0
 40
0.7632067745941477
 40
0.7632067745941477
 40
0.7632067745941477
 10
-59.44838353660452
 20
10.6770509831248
 30
0.0
 41
1.0
 10
-59.44838353660452
 20
11.0298145981509
 30
0.0
 41
1.001887252316674
 10
-59.44838353660452
 20
11.39791576165636
 30
0.0
 41
1.0
  0
ARC
  5
1A878
330
1F
100
AcDbEntity
  8
AM_0
100
AcDbCircle
 10
-53.94838353660452
 20
9.000000000000007
 30
0.0
 40
5.749999999999986
100
AcDbArc
 50
143.3481498965186
 51
163.0425737058288
  0
ARC
  5
1A879
330
1F
100
AcDbEntity
  8
AM_0
100
AcDbCircle
 10
-53.94838353660452
 20
9.000000000000007
 30
0.0
 40
5.999999999999986
100
AcDbArc
 50
23.55646430910065
 51
57.97568716295801
  0
SPLINE
  5
1A87A
330
1F
100
AcDbEntity
  8
AM_0
100
AcDbSpline
210
0.0
220
0.0
230
1.0
 70
     8
 71
     3
 72
    28
 73
    24
 74
     0
 42
0.0000000001
 43
0.0000000001
 40
0.9479880179793155
 40
0.9479880179793155
 40
0.9479880179793155
 40
0.9479880179793155
 40
1.894635976755016
 40
1.894635976755016
 40
2.841283935530716
 40
2.841283935530716
 40
3.787931894306417
 40
3.787931894306417
 40
4.734579853082117
 40
4.734579853082117
 40
5.11639669243529
 40
5.11639669243529
 40
5.498213531788461
 40
5.498213531788461
 40
5.880030371141633
 40
5.880030371141633
 40
6.261847210494805
 40
6.261847210494805
 40
6.643664049847978
 40
6.643664049847978
 40
7.025480889201149
 40
7.025480889201149
 40
7.064344584796817
 40
7.064344584796817
 40
7.064344584796817
 40
7.064344584796817
 10
-51.93189925866614
 20
14.3848204386801
 30
0.0
 10
-51.93189925866614
 20
14.3848204386801
 30
0.0
 10
-51.89900536799405
 20
14.37287787627407
 30
0.0
 10
-51.76404418663515
 20
14.31943880313975
 30
0.0
 10
-51.66205460119841
 20
14.27790026251046
 30
0.0
 10
-51.39888834024725
 20
14.15592956966885
 30
0.0
 10
-51.2376665326351
 20
14.07529970304166
 30
0.0
 10
-50.87444830924972
 20
13.86390542426285
 30
0.0
 10
-50.67263614176886
 20
13.73310872190132
 30
0.0
 10
-50.37668090168017
 20
13.50742532238292
 30
0.0
 10
-50.28639866727826
 20
13.43477589621518
 30
0.0
 10
-50.10167285967486
 20
13.2755335812741
 30
0.0
 10
-50.00724358374851
 20
13.18891881820913
 30
0.0
 10
-49.82075161342004
 20
13.00528159503632
 30
0.0
 10
-49.72859169456706
 20
12.90813829097244
 30
0.0
 10
-49.55241179892607
 20
12.70885704435774
 30
0.0
 10
-49.46839487779539
 20
12.60671593699085
 30
0.0
 10
-49.31319632071063
 20
12.4049578127806
 30
0.0
 10
-49.23602338257911
 20
12.29755210310663
 30
0.0
 10
-49.08860066391515
 20
12.076149951125
 30
0.0
 10
-49.01834704065959
 20
11.96215565044776
 30
0.0
 10
-48.94691989412331
 20
11.83690655673991
 30
0.0
 10
-48.9403756304871
 20
11.82533761165474
 30
0.0
 10
-48.93388719647123
 20
11.81377441438503
 30
0.0
  0
SPLINE
  5
1A87B
330
1F
100
AcDbEntity
  8
AM_0
100
AcDbSpline
210
0.0
220
0.0
230
1.0
 70
     8
 71
     3
 72
    26
 73
    22
 74
     0
 42
0.0000000001
 43
0.0000000001
 40
3.874213318761647
 40
3.874213318761647
 40
3.874213318761647
 40
3.874213318761647
 40
3.954430889517282
 40
3.954430889517282
 40
4.498404660008561
 40
4.498404660008561
 40
4.973334231060774
 40
4.973334231060774
 40
5.448263802112988
 40
5.448263802112988
 40
5.923193373165202
 40
5.923193373165202
 40
6.398122944217416
 40
6.398122944217416
 40
6.873052515269629
 40
6.873052515269629
 40
7.347982086321843
 40
7.347982086321843
 40
7.822911657374057
 40
7.822911657374057
 40
8.246398654676504
 40
8.246398654676504
 40
8.246398654676504
 40
8.246398654676504
 10
-48.93388719647123
 20
11.81377441438503
 30
0.0
 10
-48.95221782571662
 20
11.79839530800508
 30
0.0
 10
-48.97064300003081
 20
11.78327804811318
 30
0.0
 10
-49.11441592204039
 20
11.66791814370829
 30
0.0
 10
-49.24215810609837
 20
11.58146718761385
 30
0.0
 10
-49.46016350447792
 20
11.45407813171631
 30
0.0
 10
-49.56600981219515
 20
11.40085254706077
 30
0.0
 10
-49.77884246678093
 20
11.31218444024234
 30
0.0
 10
-49.88581528357304
 20
11.27673037303749
 30
0.0
 10
-50.09413487547181
 20
11.22584090529848
 30
0.0
 10
-50.1955441702894
 20
11.21038161236334
 30
0.0
 10
-50.38728364863846
 20
11.19873909971501
 30
0.0
 10
-50.47761461224934
 20
11.20255373577221
 30
0.0
 10
-50.64314817476372
 20
11.22581858534432
 30
0.0
 10
-50.72565539528364
 20
11.24629542403728
 30
0.0
 10
-50.88372036608416
 20
11.30710106569405
 30
0.0
 10
-50.95927703820928
 20
11.34743197099443
 30
0.0
 10
-51.09897581255063
 20
11.44723354342046
 30
0.0
 10
-51.16317013709886
 20
11.5067442293223
 30
0.0
 10
-51.27161284867418
 20
11.63414375607909
 30
0.0
 10
-51.31729100765085
 20
11.70041528955319
 30
0.0
 10
-51.35733953745921
 20
11.77063619313004
 30
0.0
  0
SPLINE
  5
1A87C
330
1F
100
AcDbEntity
  8
AM_0
100
AcDbSpline
210
0.0
220
0.0
230
1.0
 70
     8
 71
     3
 72
    38
 73
    34
 74
     0
 42
0.0000000001
 43
0.0000000001
 40
-6.853580741132116
 40
-6.853580741132116
 40
-6.853580741132116
 40
-6.853580741132116
 40
-6.42506787399674
 40
-6.42506787399674
 40
-5.996555006861364
 40
-5.996555006861364
 40
-5.568042139725987
 40
-5.568042139725987
 40
-5.139529272590613
 40
-5.139529272590613
 40
-4.711344547084471
 40
-4.711344547084471
 40
-4.283159821578327
 40
-4.283159821578327
 40
-3.854975096072183
 40
-3.854975096072183
 40
-3.426790370566041
 40
-3.426790370566041
 40
-2.998605645059891
 40
-2.998605645059891
 40
-2.570420919553742
 40
-2.570420919553742
 40
-2.142236194047593
 40
-2.142236194047593
 40
-1.714051468541443
 40
-1.714051468541443
 40
-1.285538601406083
 40
-1.285538601406083
 40
-0.8570257342707226
 40
-0.8570257342707226
 40
-0.4285128671353622
 40
-0.4285128671353622
 40
0.0
 40
0.0
 40
0.0
 40
0.0
 10
-55.1983439665064
 20
14.86835572572762
 30
0.0
 10
-55.1983439665064
 20
14.86835572572762
 30
0.0
 10
-55.1837516044759
 20
14.87152676188192
 30
0.0
 10
-55.1230218616206
 20
14.88397702086787
 30
0.0
 10
-55.07690667316888
 20
14.89323391681354
 30
0.0
 10
-54.95606369071675
 20
14.91509515638388
 30
0.0
 10
-54.88124838768704
 20
14.92766978114072
 30
0.0
 10
-54.70971118569719
 20
14.95213290124219
 30
0.0
 10
-54.61298314429587
 20
14.96396515429786
 30
0.0
 10
-54.40831619708388
 20
14.98322812211831
 30
0.0
 10
-54.29316044197606
 20
14.99138861079906
 30
0.0
 10
-54.04345958818044
 20
15.00054740371787
 30
0.0
 10
-53.90892109200786
 20
15.00150010003018
 30
0.0
 10
-53.6293265570323
 20
14.99314303023824
 30
0.0
 10
-53.48402839469782
 20
14.98379356877275
 30
0.0
 10
-53.19289324166516
 20
14.95404447294181
 30
0.0
 10
-53.04705434973585
 20
14.93363101716955
 30
0.0
 10
-52.76593459146932
 20
14.88406201897693
 30
0.0
 10
-52.62190904783074
 20
14.85336455401069
 30
0.0
 10
-52.33815670285469
 20
14.78174547307072
 30
0.0
 10
-52.1984233877447
 20
14.74083619471151
 30
0.0
 10
-51.93283218020827
 20
14.65306230860097
 30
0.0
 10
-51.80673318947254
 20
14.60615219116267
 30
0.0
 10
-51.57522363142357
 20
14.51214301923779
 30
0.0
 10
-51.46980366961589
 20
14.46508908037573
 30
0.0
 10
-51.28406797261698
 20
14.37698759304102
 30
0.0
 10
-51.19722021477492
 20
14.33278597357356
 30
0.0
 10
-51.04439485171815
 20
14.25112898172251
 30
0.0
 10
-50.97839223850087
 20
14.21372435896422
 30
0.0
 10
-50.87231396390803
 20
14.15185077928056
 30
0.0
 10
-50.83214590649186
 20
14.12737981910522
 30
0.0
 10
-50.77933685463131
 20
14.09490960725379
 30
0.0
 10
-50.76670907795142
 20
14.08693892622626
 30
0.0
 10
-50.76670907795142
 20
14.08693892622626
 30
0.0
  0
SPLINE
  5
1A87D
330
1F
100
AcDbEntity
  8
AM_0
100
AcDbSpline
210
0.0
220
0.0
230
1.0
 70
    28
 71
     2
 72
     6
 73
     3
 74
     0
 42
0.0000000001
 43
0.0000000001
 40
0.0
 40
0.0
 40
0.0
 40
0.3684419925851881
 40
0.3684419925851881
 40
0.3684419925851881
 10
-55.24534119342934
 20
14.60182120710784
 30
0.0
 41
1.0
 10
-55.22234255046735
 20
14.73225299281439
 30
0.0
 41
1.000265381787584
 10
-55.19834396650663
 20
14.8683557257275
 30
0.0
 41
1.0
  0
LINE
  5
1A87E
330
1F
100
AcDbEntity
  8
AM_0
100
AcDbLine
 10
-51.94058535487989
 20
14.38806518716365
 30
0.0
 11
-52.27591727357344
 21
11.99999999999989
 31
0.0
  0
SPLINE
  5
1A87F
330
1F
100
AcDbEntity
  8
AM_0
100
AcDbSpline
210
0.0
220
0.0
230
1.0
 70
    28
 71
     2
 72
     6
 73
     3
 74
     0
 42
0.0000000001
 43
0.0000000001
 40
0.0
 40
0.0
 40
0.0
 40
0.3684419925851875
 40
0.3684419925851875
 40
0.3684419925851875
 10
-50.76670907795165
 20
14.08693892622632
 30
0.0
 41
1.0
 10
-50.79070766191205
 20
13.95083619331593
 30
0.0
 41
1.000265381803856
 10
-50.81370630487447
 20
13.8204044076066
 30
0.0
 41
1.0
  0
SPLINE
  5
1A880
330
1F
100
AcDbEntity
  8
AM_0
100
AcDbSpline
210
0.0
220
0.0
230
1.0
 70
     8
 71
     3
 72
     8
 73
     4
 74
     0
 42
0.0000000001
 43
0.0000000001
 40
12.79381076760759
 40
12.79381076760759
 40
12.79381076760759
 40
12.79381076760759
 40
13.18718199177983
 40
13.18718199177983
 40
13.18718199177983
 40
13.18718199177983
 10
-51.94058535487557
 20
14.38806518719344
 30
0.0
 10
-51.93982214965308
 20
14.38778139175071
 30
0.0
 10
-51.9369694910506
 20
14.38671911738351
 30
0.0
 10
-51.93189925866557
 20
14.38482043867987
 30
0.0
  0
SPLINE
  5
1A881
330
1F
100
AcDbEntity
  8
AM_0
100
AcDbSpline
210
0.0
220
0.0
230
1.0
 70
     8
 71
     3
 72
    20
 73
    16
 74
     0
 42
0.0000000001
 43
0.0000000001
 40
1.176636089425619
 40
1.176636089425619
 40
1.176636089425619
 40
1.176636089425619
 40
2.093474244310189
 40
2.093474244310189
 40
3.140211366465283
 40
3.140211366465283
 40
4.186948488620377
 40
4.186948488620377
 40
4.814239458626026
 40
4.814239458626026
 40
5.441530428631674
 40
5.441530428631674
 40
6.068821398637323
 40
6.068821398637323
 40
6.155102163350969
 40
6.155102163350969
 40
6.155102163350969
 40
6.155102163350969
 10
-51.35733953745921
 20
11.77063619313004
 30
0.0
 10
-51.44974900441207
 20
11.93266651732734
 30
0.0
 10
-51.53212796322373
 20
12.10075831138671
 30
0.0
 10
-51.68403646619015
 20
12.4658305606547
 30
0.0
 10
-51.75008519443463
 20
12.66356461861347
 30
0.0
 10
-51.85241349090825
 20
13.05384100272591
 30
0.0
 10
-51.88871703218717
 20
13.24635116120425
 30
0.0
 10
-51.92632187672302
 20
13.54122357514235
 30
0.0
 10
-51.93643304450029
 20
13.65426054016451
 30
0.0
 10
-51.94797161595056
 20
13.87417758648696
 30
0.0
 10
-51.94942459357844
 20
13.98101238521276
 30
0.0
 10
-51.94593279701667
 20
14.17827446246304
 30
0.0
 10
-51.94109184669696
 20
14.26906299893791
 30
0.0
 10
-51.93375102536402
 20
14.36277886408607
 30
0.0
 10
-51.93283835177135
 20
14.37387913130619
 30
0.0
 10
-51.93189925866591
 20
14.38482043867999
 30
0.0
  0
SPLINE
  5
1A882
330
1F
100
AcDbEntity
  8
AM_0
100
AcDbSpline
210
0.0
220
0.0
230
1.0
 70
    28
 71
     2
 72
     6
 73
     3
 74
     0
 42
0.0000000001
 43
0.0000000001
 40
0.0
 40
0.0
 40
0.0
 40
0.7632067745941477
 40
0.7632067745941477
 40
0.7632067745941477
 10
-48.44838353660452
 20
11.39791576165636
 30
0.0
 41
1.0
 10
-48.44838353660396
 20
11.0298145981509
 30
0.0
 41
1.001887252316674
 10
-48.44838353660452
 20
10.67705098312479
 30
0.0
 41
1.0
  0
SPLINE
  5
1A883
330
1F
100
AcDbEntity
  8
AM_0
100
AcDbSpline
210
0.0
220
0.0
230
1.0
 70
     8
 71
     3
 72
    10
 73
     6
 74
     0
 42
0.0000000001
 43
0.0000000001
 40
21.86207358524202
 40
21.86207358524202
 40
21.86207358524202
 40
21.86207358524202
 40
22.12887178618342
 40
22.12887178618342
 40
23.18987485273981
 40
23.18987485273981
 40
23.18987485273981
 40
23.18987485273981
 10
-48.93388719647123
 20
11.81377441438503
 30
0.0
 10
-48.89577950464468
 20
11.74586176288802
 30
0.0
 10
-48.85844966961622
 20
11.67609917599953
 30
0.0
 10
-48.67762886775631
 20
11.32021380104664
 30
0.0
 10
-48.54921749000869
 20
11.00774262536095
 30
0.0
 10
-48.44838353660452
 20
10.67705098312479
 30
0.0
  0
LINE
  5
1A884
330
1F
100
AcDbEntity
  8
AM_0
100
AcDbLine
 10
21.99999999999989
 20
-64.57930163851748
 30
0.0
 11
4.720986860670848
 21
-64.57930163851748
 31
0.0
  0
SPLINE
  5
1A885
330
1F
100
AcDbEntity
  8
AM_0
100
AcDbSpline
210
0.0
220
0.0
230
1.0
 70
     8
 71
     3
 72
    26
 73
    22
 74
     0
 42
0.0000000001
 43
0.0000000001
 40
3.874213318761647
 40
3.874213318761647
 40
3.874213318761647
 40
3.874213318761647
 40
3.954430889517282
 40
3.954430889517282
 40
4.498404660008561
 40
4.498404660008561
 40
4.973334231060774
 40
4.973334231060774
 40
5.448263802112988
 40
5.448263802112988
 40
5.923193373165202
 40
5.923193373165202
 40
6.398122944217416
 40
6.398122944217416
 40
6.873052515269629
 40
6.873052515269629
 40
7.347982086321843
 40
7.347982086321843
 40
7.822911657374057
 40
7.822911657374057
 40
8.246398654676504
 40
8.246398654676504
 40
8.246398654676504
 40
8.246398654676504
 10
16.10264915189896
 20
-54.06480529838424
 30
0.0
 10
16.08594034219459
 20
-54.08313592762957
 30
0.0
 10
16.06899891200521
 20
-54.10156110194382
 30
0.0
 10
15.93562998475352
 20
-54.2453340239534
 30
0.0
 10
15.80973563571467
 20
-54.37307620801138
 30
0.0
 10
15.58258539374475
 20
-54.59108160639093
 30
0.0
 10
15.46711321996406
 20
-54.69692791410816
 30
0.0
 10
15.2216837241557
 20
-54.90976056869394
 30
0.0
 10
15.09171884039768
 20
-55.01673338548599
 30
0.0
 10
14.82365686524219
 20
-55.22505297738482
 30
0.0
 10
14.68546698374263
 20
-55.32646227220235
 30
0.0
 10
14.40858258085405
 20
-55.51820175055141
 30
0.0
 10
14.26988868982789
 20
-55.60853271416235
 30
0.0
 10
14.00099200005434
 20
-55.77406627667673
 30
0.0
 10
13.8589233987297
 20
-55.85657349719659
 30
0.0
 10
13.56757706329745
 20
-56.01463846799723
 30
0.0
 10
13.41829918302932
 20
-56.09019514012229
 30
0.0
 10
13.12103177578678
 20
-56.22989391446365
 30
0.0
 10
12.97294864918786
 20
-56.29408823901193
 30
0.0
 10
12.70192284438042
 20
-56.40253095058719
 30
0.0
 10
12.57799453566668
 20
-56.44820910956386
 30
0.0
 10
12.46071332521166
 20
-56.48825763937222
 30
0.0
  0
SPLINE
  5
1A886
330
1F
100
AcDbEntity
  8
AM_0
100
AcDbSpline
210
0.0
220
0.0
230
1.0
 70
     8
 71
     3
 72
    28
 73
    24
 74
     0
 42
0.0000000001
 43
0.0000000001
 40
9.744885012254468
 40
9.744885012254468
 40
9.744885012254468
 40
9.744885012254468
 40
10.17923750272997
 40
10.17923750272997
 40
10.62073973281601
 40
10.62073973281601
 40
11.06224196290205
 40
11.06224196290205
 40
11.94524642307414
 40
11.94524642307414
 40
12.77877196696044
 40
12.77877196696044
 40
13.61229751084674
 40
13.61229751084674
 40
14.44582305473304
 40
14.44582305473304
 40
15.27934859861934
 40
15.27934859861934
 40
16.54913020032943
 40
16.54913020032943
 40
17.81891180203953
 40
17.81891180203953
 40
18.56662843637271
 40
18.56662843637271
 40
18.56662843637271
 40
18.56662843637271
 10
11.30077946238328
 20
-58.07485499711527
 30
0.0
 10
11.25715733435965
 20
-58.06863236451122
 30
0.0
 10
11.23330243553806
 20
-58.0556562222169
 30
0.0
 10
11.23330243553806
 20
-58.01502334677221
 30
0.0
 10
11.25796203530979
 20
-57.98750692491026
 30
0.0
 10
11.34793665700067
 20
-57.92091619386434
 30
0.0
 10
11.41298589582732
 20
-57.88185400657409
 30
0.0
 10
11.64596950245084
 20
-57.75244296501955
 30
0.0
 10
11.85107616708962
 20
-57.64911282331877
 30
0.0
 10
12.23629690861264
 20
-57.44940177578516
 30
0.0
 10
12.44218216546489
 20
-57.34084138071623
 30
0.0
 10
12.87270950458469
 20
-57.10215222136495
 30
0.0
 10
13.09741766295895
 20
-56.97199699837998
 30
0.0
 10
13.55016809741358
 20
-56.69404225203371
 30
0.0
 10
13.77825392088903
 20
-56.54621581045095
 30
0.0
 10
14.22414623709318
 20
-56.23993534761789
 30
0.0
 10
14.44196976471142
 20
-56.0814722304203
 30
0.0
 10
14.96329082163027
 20
-55.68127008054418
 30
0.0
 10
15.28803779706436
 20
-55.41169556039765
 30
0.0
 10
15.93010714053969
 20
-54.82602412913579
 30
0.0
 10
16.2474064654005
 20
-54.50988756018111
 30
0.0
 10
16.72752292310793
 20
-53.98340210409569
 30
0.0
 10
16.90039541401609
 20
-53.78292248644462
 30
0.0
 10
17.06631150002534
 20
-53.57930163851748
 30
0.0
  0
LINE
  5
1A887
330
1F
100
AcDbEntity
  8
AM_0
100
AcDbLine
 10
21.99999999999989
 20
-60.75635262164226
 30
0.0
 11
9.217888946369271
 21
-60.75635262164226
 31
0.0
  0
LINE
  5
1A889
330
1F
100
AcDbEntity
  8
AM_0
100
AcDbLine
 10
0.2920736167982341
 20
-61.38071878761201
 30
0.0
 11
0.0000594940884184
 21
-59.02456283314899
 31
0.0
  0
LINE
  5
1A88A
330
1F
100
AcDbEntity
  8
AM_0
100
AcDbLine
 10
6.364408459188212
 20
-59.93738604550333
 30
0.0
 11
6.24850294189207
 21
-60.88935413544991
 31
0.0
  0
LINE
  5
1A88B
330
1F
100
AcDbEntity
  8
AM_0
100
AcDbLine
 10
6.364338553644529
 20
-60.90844078871513
 30
0.0
 11
6.364409842304724
 21
-59.91817323702804
 31
0.0
  0
ELLIPSE
  5
1A88C
330
1F
100
AcDbEntity
  8
AM_0
100
AcDbEllipse
 10
7.199076367536861
 20
-76.7081670570719
 30
0.0
 11
0.001551752386769745
 21
21.5553221605023
 31
0.0
210
0.0
220
0.0
230
1.0
 40
0.1391767643224316
 41
5.545529783379456
 42
5.713408773900738
  0
SPLINE
  5
1A88D
330
1F
100
AcDbEntity
  8
AM_0
100
AcDbSpline
210
0.0
220
0.0
230
1.0
 70
     8
 71
     3
 72
    26
 73
    22
 74
     0
 42
0.0000000001
 43
0.0000000001
 40
17.27712140816086
 40
17.27712140816086
 40
17.27712140816086
 40
17.27712140816086
 40
17.91233168687109
 40
17.91233168687109
 40
18.67018272592787
 40
18.67018272592787
 40
19.42803376498464
 40
19.42803376498464
 40
19.96194090051695
 40
19.96194090051695
 40
20.49584803604925
 40
20.49584803604925
 40
21.02973677005168
 40
21.02973677005168
 40
21.5636255040541
 40
21.5636255040541
 40
22.32145523132465
 40
22.32145523132465
 40
23.0792849585952
 40
23.0792849585952
 40
23.46879952915194
 40
23.46879952915194
 40
23.46879952915194
 40
23.46879952915194
 10
9.217888946369328
 20
-60.75635262344946
 30
0.0
 10
9.180713213869296
 20
-60.96383102219966
 30
0.0
 10
9.128697133754542
 20
-61.16565633369854
 30
0.0
 10
8.976914937349136
 20
-61.58218914655055
 30
0.0
 10
8.869771799453417
 20
-61.79199009269831
 30
0.0
 10
8.597913819203995
 20
-62.16080293692073
 30
0.0
 10
8.433481807963972
 20
-62.32002985987893
 30
0.0
 10
8.095073518690697
 20
-62.535840040702
 30
0.0
 10
7.927342526077268
 20
-62.61357430321056
 30
0.0
 10
7.568847863014526
 20
-62.71594313909057
 30
0.0
 10
7.378020861438699
 20
-62.74072268860033
 30
0.0
 10
7.022088904927159
 20
-62.74072268860033
 30
0.0
 10
6.831268076483127
 20
-62.71594472146543
 30
0.0
 10
6.47278825977105
 20
-62.61357716497
 30
0.0
 10
6.305066020279242
 20
-62.53584243098345
 30
0.0
 10
5.966680967985099
 20
-62.32002566367743
 30
0.0
 10
5.802271993096838
 20
-62.16079454369475
 30
0.0
 10
5.530469771824357
 20
-61.79197558797122
 30
0.0
 10
5.423359584725404
 20
-61.58217266124061
 30
0.0
 10
5.298399543188452
 20
-61.23909995904543
 30
0.0
 10
5.262445833731476
 20
-61.11817541318627
 30
0.0
 10
5.232411875883713
 20
-60.99419513243049
 30
0.0
  0
LINE
  5
1A88E
330
1F
100
AcDbEntity
  8
AM_0
100
AcDbLine
 10
0.4569876665839843
 20
-61.3931879591795
 30
0.0
 11
6.24850294189207
 21
-60.88935413544994
 31
0.0
  0
SPLINE
  5
1A88F
330
1F
100
AcDbEntity
  8
AM_0
100
AcDbSpline
210
0.0
220
0.0
230
1.0
 70
    28
 71
     2
 72
     6
 73
     3
 74
     0
 42
0.0000000001
 43
0.0000000001
 40
3.194924414521619
 40
3.194924414521619
 40
3.194924414521619
 40
6.229182822420871
 40
6.229182822420871
 40
6.229182822420871
 10
3.276285423915283
 20
-64.57930163851725
 30
0.0
 41
1.033626622480395
 10
2.333325238063935
 20
-64.57930163851742
 30
0.0
 41
1.03604771995792
 10
0.801314892991627
 20
-64.57930163851742
 30
0.0
 41
1.012737872491037
  0
ELLIPSE
  5
1A890
330
1F
100
AcDbEntity
  8
AM_0
100
AcDbEllipse
 10
0.3998303319723959
 20
-61.38046770360805
 30
0.0
 11
0.1077727447718227
 21
-7.758483621058347E-6
 31
0.0
210
0.0
220
0.0
230
0.9999999999999999
 40
0.139176764322432
 41
3.15885021807002
 42
5.271413005552098
  0
ELLIPSE
  5
1A891
330
1F
100
AcDbEntity
  8
AM_0
100
AcDbEllipse
 10
0.4950160486869208
 20
-58.47918599398994
 30
0.0
 11
0.9656942246214386
 21
-8.38273767071394
 31
0.0
210
0.0
220
0.0
230
1.0
 40
0.0674892943758374
 41
5.058516575650277
 42
5.519544516537633
  0
SPLINE
  5
1A892
330
1F
100
AcDbEntity
  8
AM_0
100
AcDbSpline
210
0.0
220
0.0
230
1.0
 70
    28
 71
     2
 72
     6
 73
     3
 74
     0
 42
0.0000000001
 43
0.0000000001
 40
5.301905256998944
 40
5.301905256998944
 40
5.301905256998944
 40
5.306463566986762
 40
5.306463566986762
 40
5.306463566986762
 10
0.2950921527063031
 20
-61.38399462766341
 30
0.0
 41
1.002146706303224
 10
0.2927677165674822
 20
-61.38419845707264
 30
0.0
 41
1.002130516090047
 10
0.2904424728370714
 20
-61.38440235602448
 30
0.0
 41
1.002114296451039
  0
LINE
  5
1A893
330
1F
100
AcDbEntity
  8
AM_0
100
AcDbLine
 10
0.2904424728370714
 20
-61.38440235602448
 30
0.0
 11
0.2920093734865077
 21
-61.3802004316502
 31
0.0
  0
LINE
  5
1A894
330
1F
100
AcDbEntity
  8
AM_0
100
AcDbLine
 10
6.24850294189207
 20
-60.88935413544994
 30
0.0
 11
6.364362294577973
 21
-60.57865655662727
 31
0.0
  0
SPLINE
  5
1A895
330
1F
100
AcDbEntity
  8
AM_0
100
AcDbSpline
210
0.0
220
0.0
230
1.0
 70
    28
 71
     2
 72
     6
 73
     3
 74
     0
 42
0.0000000001
 43
0.0000000001
 40
0.0
 40
0.0
 40
0.0
 40
0.4536893043534052
 40
0.4536893043534052
 40
0.4536893043534052
 10
4.720986860670905
 20
-64.57930163851748
 30
0.0
 41
1.0
 10
4.655822787332113
 20
-64.57930163851746
 30
0.0
 41
1.004413077966873
 10
4.579725905702389
 20
-64.57930163851754
 30
0.0
 41
1.008250891281158
  0
SPLINE
  5
1A896
330
1F
100
AcDbEntity
  8
AM_0
100
AcDbSpline
210
0.0
220
0.0
230
1.0
 70
     8
 71
     3
 72
    24
 73
    20
 74
     0
 42
0.0000000001
 43
0.0000000001
 40
1.717899616361609
 40
1.717899616361609
 40
1.717899616361609
 40
1.717899616361609
 40
1.96907676055992
 40
1.96907676055992
 40
2.533081680183479
 40
2.533081680183479
 40
2.727240667767413
 40
2.727240667767413
 40
2.921399655351347
 40
2.921399655351347
 40
3.115558642935281
 40
3.115558642935281
 40
3.309717630519215
 40
3.309717630519215
 40
3.809607269795978
 40
3.809607269795978
 40
4.309496909072741
 40
4.309496909072741
 40
4.676978672913563
 40
4.676978672913563
 40
4.676978672913563
 40
4.676978672913563
 10
3.276285423915283
 20
-64.57930163851731
 30
0.0
 10
3.33980155977963
 20
-64.51955860378186
 30
0.0
 10
3.406194979620636
 20
-64.46020363396681
 30
0.0
 10
3.627603080285894
 20
-64.27558905400397
 30
0.0
 10
3.7901831933832
 20
-64.16042994117763
 30
0.0
 10
4.00450301274384
 20
-64.05295773971761
 30
0.0
 10
4.061119199702148
 20
-64.02862024106511
 30
0.0
 10
4.172053293114118
 20
-63.99099072905804
 30
0.0
 10
4.226363859855496
 20
-63.97772098494934
 30
0.0
 10
4.327584371051444
 20
-63.96369339329385
 30
0.0
 10
4.374686696367007
 20
-63.9628835013603
 30
0.0
 10
4.458492183971941
 20
-63.97191419794021
 30
0.0
 10
4.495210732614396
 20
-63.98170978642628
 30
0.0
 10
4.605923433725934
 20
-64.02826954927821
 30
0.0
 10
4.658516330193493
 20
-64.08763523266873
 30
0.0
 10
4.705591858008575
 20
-64.22902481424976
 30
0.0
 10
4.699818009985961
 20
-64.31106705230533
 30
0.0
 10
4.655419618601115
 20
-64.44867121067529
 30
0.0
 10
4.623861576788329
 20
-64.51270710475282
 30
0.0
 10
4.579725905702389
 20
-64.57930163851748
 30
0.0
  0
LINE
  5
1A897
330
1F
100
AcDbEntity
  8
AM_0
100
AcDbLine
 10
4.579725905702389
 20
-64.57930163851748
 30
0.0
 11
3.27628542391534
 21
-64.57930163851748
 31
0.0
  0
ELLIPSE
  5
1A898
330
1F
100
AcDbEntity
  8
AM_0
100
AcDbEllipse
 10
7.200184906893526
 20
-61.30949703510532
 30
0.0
 11
-2.999999992226315
 21
0.0002159678762208109
 31
0.0
210
0.0
220
0.0
230
1.0
 40
0.1391767643224321
 41
4.994751173825573
 42
5.427805549186813
  0
LINE
  5
1A899
330
1F
100
AcDbEntity
  8
AM_0
100
AcDbLine
 10
4.720986860670905
 20
-64.57930163851748
 30
0.0
 11
4.720986860670905
 21
-61.02224064811983
 31
0.0
  0
LINE
  5
1A89A
330
1F
100
AcDbEntity
  8
AM_0
100
AcDbLine
 10
5.232411875883713
 20
-60.99419513243049
 30
0.0
 11
5.043515947947526
 21
-60.99418217706392
 31
0.0
  0
LINE
  5
1A89B
330
1F
100
AcDbEntity
  8
AM_0
100
AcDbLine
 10
7.799144536038625
 20
-57.7725569546962
 30
0.0
 11
6.771377482294383
 21
-57.91552569338225
 31
0.0
  0
ELLIPSE
  5
1A89C
330
1F
100
AcDbEntity
  8
AM_0
100
AcDbEllipse
 10
7.147551297002963
 20
-57.60732422607143
 30
0.0
 11
-1.299999996631403
 21
9.358607969542324E-5
 31
0.0
210
0.0
220
0.0
230
0.9999999999999999
 40
0.1391767643224315
 41
4.187384478884137
 42
5.497797163019034
  0
ELLIPSE
  5
1A89D
330
1F
100
AcDbEntity
  8
AM_0
100
AcDbEllipse
 10
7.20035457390469
 20
-58.95266026297171
 30
0.0
 11
-2.999999992226315
 21
0.0002159678762202075
 31
0.0
210
0.0
220
0.0
230
1.0
 40
0.1391767643224315
 41
4.511452724272381
 42
4.935536254316287
  0
LINE
  5
1A89E
330
1F
100
AcDbEntity
  8
AM_0
100
AcDbLine
 10
4.738605615260042
 20
-57.07150345679284
 30
0.0
 11
7.799144536038682
 21
-57.07171281882089
 31
0.0
  0
LINE
  5
1A89F
330
1F
100
AcDbEntity
  8
AM_0
100
AcDbLine
 10
6.532622840642262
 20
-58.55578897273196
 30
0.0
 11
0.6121402189789933
 21
-59.07084233196503
 31
0.0
  0
LINE
  5
1A8A0
330
1F
100
AcDbEntity
  8
AM_0
100
AcDbLine
 10
0.3624797721676032
 20
-58.05010472430303
 30
0.0
 11
6.282962393830871
 21
-57.53505136506996
 31
0.0
  0
ELLIPSE
  5
1A8A1
330
1F
100
AcDbEntity
  8
AM_0
100
AcDbEllipse
 10
3.447551306404932
 20
-58.30294684851748
 30
0.0
 11
-1.249999996760964
 21
8.998661509200450E-5
 31
0.0
210
0.0
220
0.0
230
1.0
 40
0.139176764322432
 41
0.0005172507507994
 42
6.283702557930385
  0
LINE
  5
1A8A2
330
1F
100
AcDbEntity
  8
AM_0
100
AcDbLine
 10
0.3624797721676032
 20
-58.05010472430303
 30
0.0
 11
5.067655653597171
 21
-57.64077717478108
 31
0.0
  0
LINE
  5
1A8A3
330
1F
100
AcDbEntity
  8
AM_0
100
AcDbLine
 10
4.738605615260042
 20
-57.07150345679284
 30
0.0
 11
0.6023553793061183
 21
-57.40683537548648
 31
0.0
  0
ELLIPSE
  5
1A8A4
330
1F
100
AcDbEntity
  8
AM_0
100
AcDbEllipse
 10
0.3999999989836169
 20
-59.02363093147443
 30
0.0
 11
-0.3999999989635082
 21
2.879571682944144E-5
 31
0.0
210
0.0
220
0.0
230
1.0
 40
0.1391767643224321
 41
6.231344094148826
 42
8.413005659141751
  0
LINE
  5
1A8A5
330
1F
100
AcDbEntity
  8
AM_0
100
AcDbLine
 10
0.0005375895952398
 20
-59.02071743007136
 30
0.0
 11
0.3624797721676032
 21
-58.05010472430303
 31
0.0
  0
LINE
  5
1A8A6
330
1F
100
AcDbEntity
  8
AM_0
100
AcDbLine
 10
0.3624797721676032
 20
-58.05010472430303
 30
0.0
 11
0.6023553793061183
 21
-57.40683537548648
 31
0.0
  0
LINE
  5
1A8A7
330
1F
100
AcDbEntity
  8
AM_0
100
AcDbLine
 10
6.855261435447233
 20
-57.90385691791764
 30
0.0
 11
6.895042980402195
 21
-57.58325225009293
 31
0.0
  0
ELLIPSE
  5
1A8A8
330
1F
100
AcDbEntity
  8
AM_0
100
AcDbEllipse
 10
6.495102613826248
 20
-57.58226276556053
 30
0.0
 11
-0.3999999989635082
 21
2.879571682944144E-5
 31
0.0
210
0.0
220
0.0
230
1.0
 40
0.1391767643224321
 41
3.089751440559174
 42
5.271413005552055
  0
LINE
  5
1A8A9
330
1F
100
AcDbEntity
  8
AM_0
100
AcDbLine
 10
6.894565023214568
 20
-57.5851762669636
 30
0.0
 11
6.532622840642205
 21
-58.55578897273196
 31
0.0
  0
LINE
  5
1A8AA
330
1F
100
AcDbEntity
  8
AM_0
100
AcDbLine
 10
6.532622840642262
 20
-58.55578897273193
 30
0.0
 11
6.444273500337317
 21
-59.28142960399987
 31
0.0
  0
LINE
  5
1A8AB
330
1F
100
AcDbEntity
  8
AM_0
100
AcDbLine
 10
6.771377482294383
 20
-57.91552569338225
 30
0.0
 11
6.536484026693529
 21
-58.54543451165725
 31
0.0
  0
LINE
  5
1A8AC
330
1F
100
AcDbEntity
  8
AM_0
100
AcDbLine
 10
5.067655653597171
 20
-57.64077717478108
 30
0.0
 11
6.228312483796174
 21
-57.47932264823595
 31
0.0
  0
ELLIPSE
  5
1A8AD
330
1F
100
AcDbEntity
  8
AM_0
100
AcDbEllipse
 10
7.200827534688756
 20
-52.38278342176139
 30
0.0
 11
-2.999999531948551
 21
-24.17698711034197
 31
0.0
210
0.0
220
0.0
230
1.0
 40
0.0042266953812496
 41
1.254364318531041
 42
1.313579238040322
  0
SPLINE
  5
1A8AE
330
1F
100
AcDbEntity
  8
AM_0
100
AcDbSpline
210
0.0
220
0.0
230
1.0
 70
     8
 71
     3
 72
    20
 73
    16
 74
     0
 42
0.0000000001
 43
0.0000000001
 40
1.176636089425619
 40
1.176636089425619
 40
1.176636089425619
 40
1.176636089425619
 40
2.093474244310189
 40
2.093474244310189
 40
3.140211366465283
 40
3.140211366465283
 40
4.186948488620377
 40
4.186948488620377
 40
4.814239458626026
 40
4.814239458626026
 40
5.441530428631674
 40
5.441530428631674
 40
6.068821398637323
 40
6.068821398637323
 40
6.155102163350969
 40
6.155102163350969
 40
6.155102163350969
 40
6.155102163350969
 10
12.46071332521166
 20
-56.48825763937222
 30
0.0
 10
12.19009429890593
 20
-56.58066710632502
 30
0.0
 10
11.91298636566751
 20
-56.66304606513668
 30
0.0
 10
11.31619915430719
 20
-56.81495456810316
 30
0.0
 10
10.99595306420343
 20
-56.88100329634764
 30
0.0
 10
10.36667149197285
 20
-56.9833315928212
 30
0.0
 10
10.05761995869125
 20
-57.01963513410018
 30
0.0
 10
9.585379992638764
 20
-57.05723997863609
 30
0.0
 10
9.40461939616921
 20
-57.0673511464133
 30
0.0
 10
9.054264517789534
 20
-57.07888971786363
 30
0.0
 10
8.884642656823473
 20
-57.08034269549151
 30
0.0
 10
8.576058959666852
 20
-57.07685089892968
 30
0.0
 10
8.435799564790614
 20
-57.07200994861003
 30
0.0
 10
8.302271909407182
 20
-57.06466912727703
 30
0.0
 10
8.286693658524257
 20
-57.06375645368442
 30
0.0
 10
8.271621461302402
 20
-57.06281736057886
 30
0.0
  0
ELLIPSE
  5
1A8AF
330
1F
100
AcDbEntity
  8
AM_0
100
AcDbEllipse
 10
7.80000000009494
 20
-46.48404549061294
 30
0.0
 11
-2.940637662689938E-14
 21
-12.11793717117413
 31
0.0
210
0.0
220
0.0
230
1.0
 40
0.9902675538329513
 41
0.0849951887826202
 42
0.2960367118832333
  0
ELLIPSE
  5
1A8B0
330
1F
100
AcDbEntity
  8
AM_0
100
AcDbEllipse
 10
7.800000000094997
 20
-45.88934633885609
 30
0.0
 11
-9.056810135763282
 21
-9.056170794198462
 31
0.0
210
0.0
220
0.0
230
1.0
 40
0.8692822779221002
 41
0.8551775388222147
 42
0.8774831863461776
  0
SPLINE
  5
1A8B1
330
1F
100
AcDbEntity
  8
AM_0
100
AcDbSpline
210
0.0
220
0.0
230
1.0
 70
     8
 71
     3
 72
    16
 73
    12
 74
     0
 42
0.0000000001
 43
0.0000000001
 40
2.616762073191644
 40
2.616762073191644
 40
2.616762073191644
 40
2.616762073191644
 40
2.944256307260462
 40
2.944256307260462
 40
3.43402293461745
 40
3.43402293461745
 40
3.923789561974437
 40
3.923789561974437
 40
4.413744360957436
 40
4.413744360957436
 40
4.90332439785835
 40
4.90332439785835
 40
4.90332439785835
 40
4.90332439785835
 10
7.799144536038625
 20
-57.45080865942586
 30
0.0
 10
7.898900238062254
 20
-57.45885767480317
 30
0.0
 10
7.98960867207478
 20
-57.46745414767452
 30
0.0
 10
8.182215246397163
 20
-57.49001896135465
 30
0.0
 10
8.282252740814897
 20
-57.50642335444812
 30
0.0
 10
8.414922342265982
 20
-57.54498614972221
 30
0.0
 10
8.447552543445568
 20
-57.56733446129798
 30
0.0
 10
8.447552543445568
 20
-57.61278594743192
 30
0.0
 10
8.41489747038554
 20
-57.6389130569394
 30
0.0
 10
8.28218495847841
 20
-57.68949792021627
 30
0.0
 10
8.182183024330243
 20
-57.71376864033343
 30
0.0
 10
8.066790323015425
 20
-57.73236972879363
 30
0.0
  0
SPLINE
  5
1A8B2
330
1F
100
AcDbEntity
  8
AM_0
100
AcDbSpline
210
0.0
220
0.0
230
1.0
 70
     8
 71
     3
 72
    10
 73
     6
 74
     0
 42
0.0000000001
 43
0.0000000001
 40
5.14398171756865
 40
5.14398171756865
 40
5.14398171756865
 40
5.14398171756865
 40
5.688005514465569
 40
5.688005514465569
 40
6.191579016376051
 40
6.191579016376051
 40
6.191579016376051
 40
6.191579016376051
 10
7.799144536038511
 20
-58.54357372519999
 30
0.0
 10
7.985341103982194
 20
-58.54886547996802
 30
0.0
 10
8.170291642177176
 20
-58.55233789382402
 30
0.0
 10
8.512233598458806
 20
-58.55656383695117
 30
0.0
 10
8.670551633751018
 20
-58.55752758543792
 30
0.0
 10
8.818714667544498
 20
-58.5582379138084
 30
0.0
  0
SPLINE
  5
1A8B3
330
1F
100
AcDbEntity
  8
AM_0
100
AcDbSpline
210
0.0
220
0.0
230
1.0
 70
     8
 71
     3
 72
    10
 73
     6
 74
     0
 42
0.0000000001
 43
0.0000000001
 40
12.72074425187252
 40
12.72074425187252
 40
12.72074425187252
 40
12.72074425187252
 40
12.72159969372145
 40
12.72159969372145
 40
13.18718199177983
 40
13.18718199177983
 40
13.18718199177983
 40
13.18718199177983
 10
7.799144536038682
 20
-57.0717128186902
 30
0.0
 10
7.79942969812555
 20
-57.07171283819733
 30
0.0
 10
7.799714852812144
 20
-57.07171284795012
 30
0.0
 10
7.955194099447908
 20
-57.07171284795012
 30
0.0
 10
8.112582962904128
 20
-57.068818334469
 30
0.0
 10
8.271621461302402
 20
-57.06281736057886
 30
0.0
  0
LINE
  5
1A8B4
330
1F
100
AcDbEntity
  8
AM_0
100
AcDbLine
 10
8.271621461302402
 20
-57.06281736057915
 30
0.0
 11
9.467259358162721
 21
-57.06281736057915
 31
0.0
  0
SPLINE
  5
1A8B5
330
1F
100
AcDbEntity
  8
AM_0
100
AcDbSpline
210
0.0
220
0.0
230
1.0
 70
    28
 71
     2
 72
     6
 73
     3
 74
     0
 42
0.0000000001
 43
0.0000000001
 40
0.0
 40
0.0
 40
0.0
 40
0.7632067745941477
 40
0.7632067745941477
 40
0.7632067745941477
 10
22.24999999999989
 20
-64.57930163851748
 30
0.0
 41
1.0
 10
22.10288740302428
 20
-64.57930163851758
 30
0.0
 41
1.001887252316674
 10
21.99999999999989
 20
-64.57930163851748
 30
0.0
 41
1.0
  0
LINE
  5
1A8B6
330
1F
100
AcDbEntity
  8
AM_0
100
AcDbLine
 10
21.99999999999989
 20
-64.57930163851748
 30
0.0
 11
21.99999999999989
 21
-60.75635262164226
 31
0.0
  0
LINE
  5
1A8B7
330
1F
100
AcDbEntity
  8
AM_0
100
AcDbLine
 10
22.24999999999989
 20
-64.57930163851748
 30
0.0
 11
22.24999999999989
 21
-61.4772174001738
 31
0.0
  0
SPLINE
  5
1A8B8
330
1F
100
AcDbEntity
  8
AM_0
100
AcDbSpline
210
0.0
220
0.0
230
1.0
 70
    12
 71
     2
 72
     6
 73
     3
 74
     0
 42
0.0000000001
 43
0.0000000001
 40
0.0010542307409951
 40
0.0010542307409951
 40
0.0010542307409951
 40
0.7642500812092903
 40
0.7642500812092903
 40
0.7642500812092903
 10
22.24999999999989
 20
-61.47721740017369
 30
0.0
 41
1.000005224200782
 10
22.10288740302428
 20
-61.10911623666831
 30
0.0
 41
1.001893611417177
 10
21.99999999999986
 20
-60.75635262164221
 30
0.0
 41
1.000007470044839
  0
LINE
  5
1A8B9
330
1F
100
AcDbEntity
  8
AM_0
100
AcDbLine
 10
22.46071332521166
 20
-53.57930163851748
 30
0.0
 11
25.51787535606366
 21
-53.57930163851748
 31
0.0
  0
LINE
  5
1A8BB
330
1F
100
AcDbEntity
  8
AM_0
100
AcDbLine
 10
17.06631150002534
 20
-53.57930163851748
 30
0.0
 11
22.46071332521166
 21
-53.57930163851748
 31
0.0
  0
LINE
  5
1A8BC
330
1F
100
AcDbEntity
  8
AM_0
100
AcDbLine
 10
16.72177560794512
 20
-53.57930163851748
 30
0.0
 11
17.06631150002534
 21
-53.57930163851748
 31
0.0
  0
SPLINE
  5
1A8BD
330
1F
100
AcDbEntity
  8
AM_0
100
AcDbSpline
210
0.0
220
0.0
230
1.0
 70
     8
 71
     3
 72
    10
 73
     6
 74
     0
 42
0.0000000001
 43
0.0000000001
 40
21.86207358524202
 40
21.86207358524202
 40
21.86207358524202
 40
21.86207358524202
 40
22.12887178618342
 40
22.12887178618342
 40
23.18987485273981
 40
23.18987485273981
 40
23.18987485273981
 40
23.18987485273981
 10
16.10264915189896
 20
-54.06480529838424
 30
0.0
 10
16.15189195572941
 20
-54.02669760655769
 30
0.0
 10
16.19975760083878
 20
-53.98936777152929
 30
0.0
 10
16.43046477586904
 20
-53.80854696966932
 30
0.0
 10
16.59056000320095
 20
-53.6801355919217
 30
0.0
 10
16.72177560794512
 20
-53.57930163851748
 30
0.0
  0
LINE
  5
1A8BF
330
1F
100
AcDbEntity
  8
AM_0
100
AcDbLine
 10
5.365495100120484
 20
14.75
 30
0.0
 11
15.94439399482451
 21
14.75
 31
0.0
  0
SPLINE
  5
1A8C0
330
1F
100
AcDbEntity
  8
AM_0
100
AcDbSpline
210
0.0
220
0.0
230
1.0
 70
     8
 71
     3
 72
    28
 73
    24
 74
     0
 42
0.0000000001
 43
0.0000000001
 40
0.9479880179793155
 40
0.9479880179793155
 40
0.9479880179793155
 40
0.9479880179793155
 40
1.894635976755016
 40
1.894635976755016
 40
2.841283935530716
 40
2.841283935530716
 40
3.787931894306417
 40
3.787931894306417
 40
4.734579853082117
 40
4.734579853082117
 40
5.11639669243529
 40
5.11639669243529
 40
5.498213531788461
 40
5.498213531788461
 40
5.880030371141633
 40
5.880030371141633
 40
6.261847210494805
 40
6.261847210494805
 40
6.643664049847978
 40
6.643664049847978
 40
7.025480889201149
 40
7.025480889201149
 40
7.064344584796817
 40
7.064344584796817
 40
7.064344584796817
 40
7.064344584796817
 10
12.46071332521166
 20
14.38482043868009
 30
0.0
 10
12.77626264480358
 20
14.38482043868009
 30
0.0
 10
13.10065041184606
 20
14.37287787627406
 30
0.0
 10
13.73728062713178
 20
14.31943880313975
 30
0.0
 10
14.04953601720558
 20
14.27790026251046
 30
0.0
 10
14.63460561987387
 20
14.15592956966884
 30
0.0
 10
14.90787084844004
 20
14.07529970304165
 30
0.0
 10
15.3926877543077
 20
13.86390542426284
 30
0.0
 10
15.60436336248677
 20
13.73310872190132
 30
0.0
 10
15.84429766166056
 20
13.50742532238292
 30
0.0
 10
15.90953764376923
 20
13.43477589621517
 30
0.0
 10
16.02489647509685
 20
13.27553358127409
 30
0.0
 10
16.07500802170006
 20
13.18891881820912
 30
0.0
 10
16.15545940313405
 20
13.00528159503631
 30
0.0
 10
16.18584034873913
 20
12.90813829097243
 30
0.0
 10
16.22556358998196
 20
12.70885704435773
 30
0.0
 10
16.23490356080208
 20
12.60671593699084
 30
0.0
 10
16.23490356080208
 20
12.40495781278059
 30
0.0
 10
16.22556358998196
 20
12.29755210310663
 30
0.0
 10
16.18584034873913
 20
12.07614995112499
 30
0.0
 10
16.15545940313405
 20
11.96215565044776
 30
0.0
 10
16.1111392911186
 20
11.8369065567399
 30
0.0
 10
16.10694389128736
 20
11.82533761165473
 30
0.0
 10
16.10264915189896
 20
11.81377441438502
 30
0.0
  0
SPLINE
  5
1A8C1
330
1F
100
AcDbEntity
  8
AM_0
100
AcDbSpline
210
0.0
220
0.0
230
1.0
 70
     8
 71
     3
 72
    26
 73
    22
 74
     0
 42
0.0000000001
 43
0.0000000001
 40
3.874213318761647
 40
3.874213318761647
 40
3.874213318761647
 40
3.874213318761647
 40
3.954430889517282
 40
3.954430889517282
 40
4.498404660008561
 40
4.498404660008561
 40
4.973334231060774
 40
4.973334231060774
 40
5.448263802112988
 40
5.448263802112988
 40
5.923193373165202
 40
5.923193373165202
 40
6.398122944217416
 40
6.398122944217416
 40
6.873052515269629
 40
6.873052515269629
 40
7.347982086321843
 40
7.347982086321843
 40
7.822911657374057
 40
7.822911657374057
 40
8.246398654676504
 40
8.246398654676504
 40
8.246398654676504
 40
8.246398654676504
 10
16.10264915189896
 20
11.81377441438502
 30
0.0
 10
16.08594034219459
 20
11.79839530800507
 30
0.0
 10
16.06899891200521
 20
11.78327804811317
 30
0.0
 10
15.93562998475352
 20
11.66791814370828
 30
0.0
 10
15.80973563571467
 20
11.58146718761384
 30
0.0
 10
15.58258539374475
 20
11.4540781317163
 30
0.0
 10
15.46711321996406
 20
11.40085254706076
 30
0.0
 10
15.2216837241557
 20
11.31218444024233
 30
0.0
 10
15.09171884039768
 20
11.27673037303748
 30
0.0
 10
14.82365686524219
 20
11.22584090529847
 30
0.0
 10
14.68546698374263
 20
11.21038161236334
 30
0.0
 10
14.40858258085405
 20
11.198739099715
 30
0.0
 10
14.26988868982789
 20
11.2025537357722
 30
0.0
 10
14.00099200005434
 20
11.22581858534431
 30
0.0
 10
13.8589233987297
 20
11.24629542403727
 30
0.0
 10
13.56757706329745
 20
11.30710106569404
 30
0.0
 10
13.41829918302932
 20
11.34743197099442
 30
0.0
 10
13.12103177578678
 20
11.44723354342045
 30
0.0
 10
12.97294864918786
 20
11.50674422932229
 30
0.0
 10
12.70192284438042
 20
11.63414375607908
 30
0.0
 10
12.57799453566668
 20
11.70041528955318
 30
0.0
 10
12.46071332521166
 20
11.77063619313003
 30
0.0
  0
LINE
  5
1A8C4
330
1F
100
AcDbEntity
  8
AM_0
100
AcDbLine
 10
6.894565023214568
 20
10.63429565944222
 30
0.0
 11
6.532622840642205
 21
3.728027400722681
 31
0.0
  0
LINE
  5
1A8C5
330
1F
100
AcDbEntity
  8
AM_0
100
AcDbLine
 10
0.3624797721676032
 20
7.322900752136491
 30
0.0
 11
6.282962393830871
 21
10.99063002148637
 31
0.0
  0
LINE
  5
1A8C6
330
1F
100
AcDbEntity
  8
AM_0
100
AcDbLine
 10
0.3624797721676032
 20
7.322900752136491
 30
0.0
 11
5.067655653597171
 21
10.2377494900777
 31
0.0
  0
LINE
  5
1A8C7
330
1F
100
AcDbEntity
  8
AM_0
100
AcDbLine
 10
0.3624797721676032
 20
7.422900752136513
 30
0.0
 11
0.6023553793061183
 21
11.99999999999989
 31
0.0
  0
ELLIPSE
  5
1A8C8
330
1F
100
AcDbEntity
  8
AM_0
100
AcDbEllipse
 10
7.147381629991799
 20
10.80807925506417
 30
0.0
 11
1.299999829462181
 21
0.0006658815967670015
 31
0.0
210
0.0
220
0.0
230
1.0
 40
0.9902675513166456
 41
5.497279912267962
 42
6.153252015634383
  0
SPLINE
  5
1A8C9
330
1F
100
AcDbEntity
  8
AM_0
100
AcDbSpline
210
0.0
220
0.0
230
1.0
 70
     8
 71
     3
 72
    16
 73
    12
 74
     0
 42
0.0000000001
 43
0.0000000001
 40
2.616762073191644
 40
2.616762073191644
 40
2.616762073191644
 40
2.616762073191644
 40
2.944256307260462
 40
2.944256307260462
 40
3.43402293461745
 40
3.43402293461745
 40
3.923789561974437
 40
3.923789561974437
 40
4.413744360957436
 40
4.413744360957436
 40
4.90332439785835
 40
4.90332439785835
 40
4.90332439785835
 40
4.90332439785835
 10
7.799144536038625
 20
11.59080854131781
 30
0.0
 10
7.898900238062254
 20
11.53358945496018
 30
0.0
 10
7.98960867207478
 20
11.4633938310248
 30
0.0
 10
8.182215246397163
 20
11.27206597221209
 30
0.0
 10
8.282252740814897
 20
11.12676730918025
 30
0.0
 10
8.414922342265982
 20
10.80876231361833
 30
0.0
 10
8.447552543445568
 20
10.63607824403869
 30
0.0
 10
8.447552543445568
 20
10.31268279727226
 30
0.0
 10
8.41489747038554
 20
10.14046661857623
 30
0.0
 10
8.28218495847841
 20
9.824178484480797
 30
0.0
 10
8.182183024330243
 20
9.680052167078657
 30
0.0
 10
8.066790323015425
 20
9.566139842738267
 30
0.0
  0
LINE
  5
1A8CA
330
1F
100
AcDbEntity
  8
AM_0
100
AcDbLine
 10
7.799144536038625
 20
9.301511918948108
 30
0.0
 11
6.771377482294383
 21
8.283737352918308
 31
0.0
  0
LINE
  5
1A8CB
330
1F
100
AcDbEntity
  8
AM_0
100
AcDbLine
 10
6.789696607586734
 20
8.633287086620612
 30
0.0
 11
8.066620443198417
 21
9.89779600224324
 31
0.0
  0
ELLIPSE
  5
1A8CC
330
1F
100
AcDbEntity
  8
AM_0
100
AcDbEllipse
 10
7.20035457390469
 20
1.004559266612148
 30
0.0
 11
-2.999999606451189
 21
-0.001536649838692831
 31
0.0
210
0.0
220
0.0
230
1.0
 40
0.9902675513166456
 41
4.510935473521585
 42
4.935019003565492
  0
LINE
  5
1A8CD
330
1F
100
AcDbEntity
  8
AM_0
100
AcDbLine
 10
0.0005375895952398
 20
0.4166324934170689
 30
0.0
 11
0.3624797721676032
 21
7.322900752136491
 31
0.0
  0
LINE
  5
1A8CF
330
1F
100
AcDbEntity
  8
AM_0
100
AcDbLine
 10
6.771377482294383
 20
8.283737352918308
 30
0.0
 11
6.536484026693529
 21
3.801703219544379
 31
0.0
  0
LINE
  5
1A8D0
330
1F
100
AcDbEntity
  8
AM_0
100
AcDbLine
 10
6.532622840642262
 20
3.728027400722681
 30
0.0
 11
0.6121402189789933
 21
0.0602981313728606
 31
0.0
  0
ELLIPSE
  5
1A8D1
330
1F
100
AcDbEntity
  8
AM_0
100
AcDbEllipse
 10
0.3999999989836169
 20
0.396107021553064
 30
0.0
 11
-0.3999999475268249
 21
-0.0002048866451596124
 31
0.0
210
0.0
220
0.0
230
1.0
 40
0.9902675513166456
 41
6.230826843398003
 42
8.412488408390928
  0
LINE
  5
1A8D6
330
1F
100
AcDbEntity
  8
AM_0
100
AcDbLine
 10
8.818714667544271
 20
3.5
 30
0.0
 11
11.30077946238328
 21
3.5
 31
0.0
  0
SPLINE
  5
1A8D7
330
1F
100
AcDbEntity
  8
AM_0
100
AcDbSpline
210
0.0
220
0.0
230
1.0
 70
     8
 71
     3
 72
    10
 73
     6
 74
     0
 42
0.0000000001
 43
0.0000000001
 40
5.14398171756865
 40
5.14398171756865
 40
5.14398171756865
 40
5.14398171756865
 40
5.688005514465569
 40
5.688005514465569
 40
6.191579016376051
 40
6.191579016376051
 40
6.191579016376051
 40
6.191579016376051
 10
7.799144536038511
 20
3.915589803357079
 30
0.0
 10
7.985341103982194
 20
3.878033395462467
 30
0.0
 10
8.170291642177176
 20
3.821635679246299
 30
0.0
 10
8.512233598458806
 20
3.679280088305291
 30
0.0
 10
8.670551633751018
 20
3.595755732931934
 30
0.0
 10
8.818714667544498
 20
3.499999999990848
 30
0.0
  0
ELLIPSE
  5
1A8D8
330
1F
100
AcDbEntity
  8
AM_0
100
AcDbEllipse
 10
7.800000000094997
 20
7.631390747208229
 30
0.0
 11
11.97073720900625
 21
11.97085597994558
 31
0.0
210
0.0
220
0.0
230
1.0
 40
0.0699637955822462
 41
1.478711303496142
 42
1.501016951020105
  0
ELLIPSE
  5
1A8D9
330
1F
100
AcDbEntity
  8
AM_0
100
AcDbEllipse
 10
7.147551297002963
 20
10.47683855597677
 30
0.0
 11
-1.299999829462181
 21
-0.0006658815967668935
 31
0.0
210
0.0
220
0.0
230
1.0
 40
0.9902675513166456
 41
4.186867228133345
 42
5.497279912268242
  0
LINE
  5
1A8DA
330
1F
100
AcDbEntity
  8
AM_0
100
AcDbLine
 10
4.738605615260042
 20
14.38806518716365
 30
0.0
 11
7.799144536038682
 21
14.38814319800281
 31
0.0
  0
LINE
  5
1A8DB
330
1F
100
AcDbEntity
  8
AM_0
100
AcDbLine
 10
4.738605615260042
 20
14.38806518716365
 30
0.0
 11
0.6023553793061183
 21
11.99999999999989
 31
0.0
  0
LINE
  5
1A8DC
330
1F
100
AcDbEntity
  8
AM_0
100
AcDbLine
 10
6.442444737888934
 20
11.07927254115117
 30
0.0
 11
6.300291916924152
 21
11.00077394419373
 31
0.0
  0
LINE
  5
1A8DD
330
1F
100
AcDbEntity
  8
AM_0
100
AcDbLine
 10
6.547325640062354
 20
11.07932626289869
 30
0.0
 11
6.689558802995407
 21
11.00097333318581
 31
0.0
  0
ELLIPSE
  5
1A8DE
330
1F
100
AcDbEntity
  8
AM_0
100
AcDbEllipse
 10
6.495102613826248
 20
10.65482113130622
 30
0.0
 11
-0.3999999475268249
 21
-0.0002048866451596124
 31
0.0
210
0.0
220
0.0
230
1.0
 40
0.9902675513166456
 41
3.089234189808352
 42
5.270895754801233
  0
ELLIPSE
  5
1A8DF
330
1F
100
AcDbEntity
  8
AM_0
100
AcDbEllipse
 10
6.494932946815084
 20
10.98606183039357
 30
0.0
 11
0.1077727309131412
 21
5.520299043289829E-5
 31
0.0
210
0.0
220
0.0
230
1.0
 40
0.9902675513166455
 41
1.06262133212063
 42
2.078971321468857
  0
LINE
  5
1A8E0
330
1F
100
AcDbEntity
  8
AM_0
100
AcDbLine
 10
5.067655653597171
 20
10.2377494900777
 30
0.0
 11
6.228312483796174
 21
11.38712180879742
 31
0.0
  0
LINE
  5
1A8E1
330
1F
100
AcDbEntity
  8
AM_0
100
AcDbLine
 10
4.738605615295001
 20
14.38806518718383
 30
0.0
 11
5.365495100120484
 21
14.75
 31
0.0
  0
LINE
  5
1A8E2
330
1F
100
AcDbEntity
  8
AM_0
100
AcDbLine
 10
8.271621461302402
 20
14.38482043868009
 30
0.0
 11
12.46071332521166
 21
14.38482043868009
 31
0.0
  0
SPLINE
  5
1A8E3
330
1F
100
AcDbEntity
  8
AM_0
100
AcDbSpline
210
0.0
220
0.0
230
1.0
 70
     8
 71
     3
 72
    20
 73
    16
 74
     0
 42
0.0000000001
 43
0.0000000001
 40
1.176636089425619
 40
1.176636089425619
 40
1.176636089425619
 40
1.176636089425619
 40
2.093474244310189
 40
2.093474244310189
 40
3.140211366465283
 40
3.140211366465283
 40
4.186948488620377
 40
4.186948488620377
 40
4.814239458626026
 40
4.814239458626026
 40
5.441530428631674
 40
5.441530428631674
 40
6.068821398637323
 40
6.068821398637323
 40
6.155102163350969
 40
6.155102163350969
 40
6.155102163350969
 40
6.155102163350969
 10
12.46071332521166
 20
11.77063619313003
 30
0.0
 10
12.19009429890593
 20
11.93266651732733
 30
0.0
 10
11.91298636566751
 20
12.1007583113867
 30
0.0
 10
11.31619915430719
 20
12.4658305606547
 30
0.0
 10
10.99595306420343
 20
12.66356461861346
 30
0.0
 10
10.36667149197285
 20
13.0538410027259
 30
0.0
 10
10.05761995869125
 20
13.24635116120425
 30
0.0
 10
9.585379992638764
 20
13.54122357514234
 30
0.0
 10
9.40461939616921
 20
13.6542605401645
 30
0.0
 10
9.054264517789534
 20
13.87417758648695
 30
0.0
 10
8.884642656823473
 20
13.98101238521275
 30
0.0
 10
8.576058959666852
 20
14.17827446246304
 30
0.0
 10
8.435799564790614
 20
14.2690629989379
 30
0.0
 10
8.302271909407182
 20
14.36277886408607
 30
0.0
 10
8.286693658524257
 20
14.37387913130618
 30
0.0
 10
8.271621461302402
 20
14.38482043867998
 30
0.0
  0
SPLINE
  5
1A8E4
330
1F
100
AcDbEntity
  8
AM_0
100
AcDbSpline
210
0.0
220
0.0
230
1.0
 70
     8
 71
     3
 72
    10
 73
     6
 74
     0
 42
0.0000000001
 43
0.0000000001
 40
12.72074425187252
 40
12.72074425187252
 40
12.72074425187252
 40
12.72074425187252
 40
12.72159969372145
 40
12.72159969372145
 40
13.18718199177983
 40
13.18718199177983
 40
13.18718199177983
 40
13.18718199177983
 10
7.799144536038682
 20
14.38814319877491
 30
0.0
 10
7.79942969812555
 20
14.38814320604314
 30
0.0
 10
7.799714852812144
 20
14.38814320967697
 30
0.0
 10
7.955194099447908
 20
14.38814320967697
 30
0.0
 10
8.112582962904128
 20
14.38706765743859
 30
0.0
 10
8.271621461302402
 20
14.38482043867998
 30
0.0
  0
LINE
  5
1A8EA
330
1F
100
AcDbEntity
  8
AM_0
100
AcDbLine
 10
41.96071332403977
 20
14.08693892622591
 30
0.0
 11
22.24999999999989
 21
14.08693892622591
 31
0.0
  0
LINE
  5
1A8EB
330
1F
100
AcDbEntity
  8
AM_0
100
AcDbLine
 10
22.24999999999989
 20
14.86835572572772
 30
0.0
 11
41.96071332403972
 21
14.86835572572772
 31
0.0
  0
LINE
  5
1A8EC
330
1F
100
AcDbEntity
  8
AM_0
100
AcDbLine
 10
17.96071332403977
 20
14.60182120710783
 30
0.0
 11
21.99999999999989
 21
14.60182120710783
 31
0.0
  0
LINE
  5
1A8ED
330
1F
100
AcDbEntity
  8
AM_0
100
AcDbLine
 10
21.99999999999989
 20
13.8204044076067
 30
0.0
 11
17.96071332403972
 21
13.8204044076067
 31
0.0
  0
LINE
  5
1A8EE
330
1F
100
AcDbEntity
  8
AM_0
100
AcDbLine
 10
21.99999999999989
 20
10.67705098312479
 30
0.0
 11
16.72177560794512
 21
10.67705098312479
 31
0.0
  0
SPLINE
  5
1A8EF
330
1F
100
AcDbEntity
  8
AM_0
100
AcDbSpline
210
0.0
220
0.0
230
1.0
 70
     8
 71
     3
 72
    38
 73
    34
 74
     0
 42
0.0000000001
 43
0.0000000001
 40
0.0
 40
0.0
 40
0.0
 40
0.0
 40
0.4289870169782313
 40
0.4289870169782313
 40
0.8579740339564626
 40
0.8579740339564626
 40
1.286961050934694
 40
1.286961050934694
 40
1.715948067912925
 40
1.715948067912925
 40
2.14454050061656
 40
2.14454050061656
 40
2.573132933320195
 40
2.573132933320195
 40
3.001725366023829
 40
3.001725366023829
 40
3.430317798727464
 40
3.430317798727464
 40
3.858910231431099
 40
3.858910231431099
 40
4.287502664134735
 40
4.287502664134735
 40
4.71609509683837
 40
4.71609509683837
 40
5.144687529542005
 40
5.144687529542005
 40
5.573674546520229
 40
5.573674546520229
 40
6.002661563498453
 40
6.002661563498453
 40
6.431648580476677
 40
6.431648580476677
 40
6.8606355974549
 40
6.8606355974549
 40
6.8606355974549
 40
6.8606355974549
 10
17.96071332403977
 20
13.8204044076067
 30
0.0
 10
17.81771765171368
 20
13.8204044076067
 30
0.0
 10
17.67040344435452
 20
13.82867903863149
 30
0.0
 10
17.37842736162179
 20
13.86232897180679
 30
0.0
 10
17.23375947193051
 20
13.88767300878885
 30
0.0
 10
16.95712850566355
 20
13.9516486723648
 30
0.0
 10
16.82491606005976
 20
13.99028076449383
 30
0.0
 10
16.58075454306913
 20
14.07447842213361
 30
0.0
 10
16.46880351607632
 20
14.1199910664842
 30
0.0
 10
16.2707337513271
 20
14.21055040496754
 30
0.0
 10
16.17759046963289
 20
14.25884919098633
 30
0.0
 10
16.01292086439929
 20
14.35516929870551
 30
0.0
 10
15.94138190513542
 20
14.40314427031387
 30
0.0
 10
15.82608435337266
 20
14.49269085933884
 30
0.0
 10
15.7822341318431
 20
14.53430917984122
 30
0.0
 10
15.72454005824665
 20
14.60688841802408
 30
0.0
 10
15.71071332403977
 20
14.63783648151991
 30
0.0
 10
15.71071332403977
 20
14.68745267812045
 30
0.0
 10
15.72454005824665
 20
14.70765045568601
 30
0.0
 10
15.7822341318431
 20
14.73648108890961
 30
0.0
 10
15.82608435337272
 20
14.74512833871017
 30
0.0
 10
15.94138190513542
 20
14.751701411098
 30
0.0
 10
16.01292086439929
 20
14.74966647480778
 30
0.0
 10
16.17759046963295
 20
14.73815067460453
 30
0.0
 10
16.2707337513271
 20
14.72871689449653
 30
0.0
 10
16.46880351607638
 20
14.70694646341241
 30
0.0
 10
16.58075454306919
 20
14.69378615000869
 30
0.0
 10
16.82491606005976
 20
14.66676415298241
 30
0.0
 10
16.9571285056636
 20
14.65296112980161
 30
0.0
 10
17.23375947193057
 20
14.62900954223676
 30
0.0
 10
17.37842736162179
 20
14.61889224123615
 30
0.0
 10
17.67040344435452
 20
14.60528567049016
 30
0.0
 10
17.81771765171368
 20
14.60182120710783
 30
0.0
 10
17.96071332403977
 20
14.60182120710783
 30
0.0
  0
SPLINE
  5
1A8F0
330
1F
100
AcDbEntity
  8
AM_0
100
AcDbSpline
210
0.0
220
0.0
230
1.0
 70
     8
 71
     3
 72
    10
 73
     6
 74
     0
 42
0.0000000001
 43
0.0000000001
 40
21.86207358524202
 40
21.86207358524202
 40
21.86207358524202
 40
21.86207358524202
 40
22.12887178618342
 40
22.12887178618342
 40
23.18987485273981
 40
23.18987485273981
 40
23.18987485273981
 40
23.18987485273981
 10
16.10264915189896
 20
11.81377441438502
 30
0.0
 10
16.15189195572941
 20
11.74586176288801
 30
0.0
 10
16.19975760083878
 20
11.67609917599952
 30
0.0
 10
16.43046477586904
 20
11.32021380104663
 30
0.0
 10
16.59056000320095
 20
11.00774262536095
 30
0.0
 10
16.72177560794512
 20
10.67705098312479
 30
0.0
  0
LINE
  5
1A8F1
330
1F
100
AcDbEntity
  8
AM_0
100
AcDbLine
 10
22.24999999999989
 20
11.39791576165635
 30
0.0
 11
22.24999999999989
 21
14.08693892622637
 31
0.0
  0
SPLINE
  5
1A8F2
330
1F
100
AcDbEntity
  8
AM_0
100
AcDbSpline
210
0.0
220
0.0
230
1.0
 70
    12
 71
     2
 72
     6
 73
     3
 74
     0
 42
0.0000000001
 43
0.0000000001
 40
0.0
 40
0.0
 40
0.0
 40
0.7632067745941477
 40
0.7632067745941477
 40
0.7632067745941477
 10
22.24999999999989
 20
11.39791576165635
 30
0.0
 41
1.0
 10
22.10288740302428
 20
11.02981459815089
 30
0.0
 41
1.001887252316674
 10
21.99999999999989
 20
10.67705098312479
 30
0.0
 41
1.0
  0
SPLINE
  5
1A8F3
330
1F
100
AcDbEntity
  8
AM_0
100
AcDbSpline
210
0.0
220
0.0
230
1.0
 70
    12
 71
     2
 72
     6
 73
     3
 74
     0
 42
0.0000000001
 43
0.0000000001
 40
0.0
 40
0.0
 40
0.0
 40
0.3684419925851875
 40
0.3684419925851875
 40
0.3684419925851875
 10
22.24999999999989
 20
14.08693892622631
 30
0.0
 41
1.0
 10
22.12188300472724
 20
13.95083619331592
 30
0.0
 41
1.000265381803856
 10
21.99999999999989
 20
13.82040440760659
 30
0.0
 41
1.0
  0
SPLINE
  5
1A8F4
330
1F
100
AcDbEntity
  8
AM_0
100
AcDbSpline
210
0.0
220
0.0
230
1.0
 70
    12
 71
     2
 72
     6
 73
     3
 74
     0
 42
0.0000000001
 43
0.0000000001
 40
0.0
 40
0.0
 40
0.0
 40
0.3684419925851881
 40
0.3684419925851881
 40
0.3684419925851881
 10
21.99999999999989
 20
14.60182120710783
 30
0.0
 41
1.0
 10
22.12188300472411
 20
14.73225299281438
 30
0.0
 41
1.000265381787584
 10
22.24999999999989
 20
14.8683557257275
 30
0.0
 41
1.0
  0
LINE
  5
1A8F5
330
1F
100
AcDbEntity
  8
AM_0
100
AcDbLine
 10
21.99999999999989
 20
10.67705098312479
 30
0.0
 11
21.99999999999989
 21
13.82040440760659
 31
0.0
  0
SPLINE
  5
1A8F6
330
1F
100
AcDbEntity
  8
AM_0
100
AcDbSpline
210
0.0
220
0.0
230
1.0
 70
     8
 71
     3
 72
    38
 73
    34
 74
     0
 42
0.0000000001
 43
0.0000000001
 40
-6.853580741132116
 40
-6.853580741132116
 40
-6.853580741132116
 40
-6.853580741132116
 40
-6.42506787399674
 40
-6.42506787399674
 40
-5.996555006861364
 40
-5.996555006861364
 40
-5.568042139725987
 40
-5.568042139725987
 40
-5.139529272590613
 40
-5.139529272590613
 40
-4.711344547084471
 40
-4.711344547084471
 40
-4.283159821578327
 40
-4.283159821578327
 40
-3.854975096072183
 40
-3.854975096072183
 40
-3.426790370566041
 40
-3.426790370566041
 40
-2.998605645059891
 40
-2.998605645059891
 40
-2.570420919553742
 40
-2.570420919553742
 40
-2.142236194047593
 40
-2.142236194047593
 40
-1.714051468541443
 40
-1.714051468541443
 40
-1.285538601406083
 40
-1.285538601406083
 40
-0.8570257342707226
 40
-0.8570257342707226
 40
-0.4285128671353622
 40
-0.4285128671353622
 40
0.0
 40
0.0
 40
0.0
 40
0.0
 10
41.96071332403977
 20
14.86835572572761
 30
0.0
 10
42.10355094641824
 20
14.86835572572761
 30
0.0
 10
42.25075722119817
 20
14.87152676188191
 30
0.0
 10
42.54261743183383
 20
14.88397702086786
 30
0.0
 10
42.68727693698975
 20
14.89323391681353
 30
0.0
 10
42.96396287116005
 20
14.91509515638387
 30
0.0
 10
43.09623625850111
 20
14.9276697811407
 30
0.0
 10
43.34053382128985
 20
14.95213290124218
 30
0.0
 10
43.45255931236284
 20
14.96396515429785
 30
0.0
 10
43.65077192950389
 20
14.9832281221183
 30
0.0
 10
43.74396633482002
 20
14.99138861079905
 30
0.0
 10
43.90868210471695
 20
15.00054740371786
 30
0.0
 10
43.98021601088351
 20
15.00150010003017
 30
0.0
 10
44.0954708256229
 20
14.99314303023823
 30
0.0
 10
44.13928330177248
 20
14.98379356877274
 30
0.0
 10
44.19691292174844
 20
14.9540444729418
 30
0.0
 10
44.21071332403977
 20
14.93363101716954
 30
0.0
 10
44.21071332403977
 20
14.88406201897692
 30
0.0
 10
44.19691292174844
 20
14.85336455401068
 30
0.0
 10
44.13928330177248
 20
14.78174547307071
 30
0.0
 10
44.0954708256229
 20
14.7408361947115
 30
0.0
 10
43.98021601088351
 20
14.65306230860096
 30
0.0
 10
43.90868210471689
 20
14.60615219116266
 30
0.0
 10
43.74396633482002
 20
14.51214301923778
 30
0.0
 10
43.65077192950389
 20
14.46508908037572
 30
0.0
 10
43.45255931236272
 20
14.376987593041
 30
0.0
 10
43.3405338212898
 20
14.33278597357355
 30
0.0
 10
43.09623625850099
 20
14.2511289817225
 30
0.0
 10
42.96396287115999
 20
14.21372435896421
 30
0.0
 10
42.68727693698969
 20
14.15185077928055
 30
0.0
 10
42.54261743183383
 20
14.12737981910521
 30
0.0
 10
42.25075722119811
 20
14.09490960725378
 30
0.0
 10
42.10355094641824
 20
14.08693892622625
 30
0.0
 10
41.96071332403977
 20
14.08693892622625
 30
0.0
  0
LINE
  5
1AAB0
330
1F
100
AcDbEntity
  8
AM_5
100
AcDbLine
 10
-4.545079675469481
 20
0.0000000000000036
 30
0.0
 11
0.399995991288904
 21
0.0
 31
0.0
  0
LINE
  5
1AAB1
330
1F
100
AcDbEntity
  8
AM_5
100
AcDbLine
 10
0.0
 20
-4.107297090713161
 30
0.0
 11
0.0
 21
0.3961030528630261
 31
0.0
  0
LINE
  5
1ACAA
330
1F
100
AcDbEntity
  8
AM_7
  6
AM_ISO08W050x2
100
AcDbLine
 10
-53.94838353660452
 20
17.10000000000003
 30
0.0
 11
-53.94838353660452
 21
-1.922109247976657
 31
0.0
1001
GENIUS_GENODEF_13
1002
{
1000
HIER
1070
     0
1002
}
1002
{
1000
MANEDIT
1070
     0
1002
}
1002
{
1000
NOSEL
1070
     0
1002
}
1002
{
1000
BEHIND
1070
     0
1002
}
1002
{
1000
REACTOR
1002
}
1001
GENIUS_GENOBJ-N-CEN_13
1002
{
1000
OWNER
1000
GEN
1002
}
  0
CIRCLE
  5
1ACBE
330
1F
100
AcDbEntity
  8
AM_11
  6
ACJISTGB
100
AcDbCircle
 10
-53.94838353660452
 20
8.10000000000003
 30
0.0
 40
8.0
  0
DIMENSION
  5
1ACCC
330
1F
100
AcDbEntity
  8
AM_5
100
AcDbDimension
  2
*D5
 10
-49.33475715825155
 20
1.564370601008186
 30
0.0
 11
-77.35666846914712
 21
23.29213770048091
 31
0.0
 70
   163
  1
最小加工径\P<>
 71
     5
 42
16.0000000000001
  3
AM_JIS$3
100
AcDbDiametricDimension
 15
-58.56200991495752
 25
14.63562939899185
 35
0.0
 40
0.0
1001
GENIUS_GENDTOL_13
1000

1000
h7
1000

1040
0.0
1001
ACAD
1000
DSTYLE
1002
{
1070
   271
1070
     0
1070
   288
1070
     1
1070
   289
1070
     3
1070
   172
1070
     1
1070
    74
1070
     1
1002
}
  0
LINE
  5
1AE66
330
1F
100
AcDbEntity
  8
AM_7
  6
AM_ISO08W050x2
100
AcDbLine
 10
-42.94838353660452
 20
8.10000000000003
 30
0.0
 11
-64.94838353660452
 21
8.100000000000032
 31
0.0
1001
GENIUS_GENODEF_13
1002
{
1000
HIER
1070
     0
1002
}
1002
{
1000
MANEDIT
1070
     0
1002
}
1002
{
1000
NOSEL
1070
     0
1002
}
1002
{
1000
BEHIND
1070
     0
1002
}
1002
{
1000
REACTOR
1002
}
1001
GENIUS_GENOBJ-N-CEN_13
1002
{
1000
OWNER
1000
GEN
1002
}
  0
LINE
  5
1AE72
330
1F
100
AcDbEntity
  8
AM_7
  6
AM_ISO08W050x2
100
AcDbLine
 10
-61.89748065255992
 20
9.000000000000009
 30
0.0
 11
-47.02423362387276
 21
9.000000000000007
 31
0.0
1001
GENIUS_GENODEF_13
1002
{
1000
HIER
1070
     0
1002
}
1002
{
1000
MANEDIT
1070
     0
1002
}
1002
{
1000
NOSEL
1070
     0
1002
}
1002
{
1000
BEHIND
1070
     0
1002
}
1002
{
1000
REACTOR
1002
}
1001
GENIUS_GENOBJ-N-CEN_13
1002
{
1000
OWNER
1000
GEN
1002
}
  0
DIMENSION
  5
1B349
330
1F
100
AcDbEntity
  8
AM_5
100
AcDbDimension
  2
*D6
 10
27.174722527624
 20
-0.0000000000000076
 30
0.0
 11
23.774722527624
 21
-9.238700576850892
 31
0.0
 70
    32
  1
3.5
 71
     5
 42
3.49999999999085
  3
AM_JIS$0
100
AcDbAlignedDimension
 13
8.818714667544498
 23
3.499999999990848
 33
0.0
 14
0.3999959912888471
 24
0.0
 34
0.0
 50
90.0
100
AcDbRotatedDimension
1001
ACAD
1000
DSTYLE
1002
{
1070
   271
1070
     0
1002
}
  0
LINE
  5
1B849
330
1F
100
AcDbEntity
  8
AM_0
100
AcDbLine
 10
111.7499999999999
 20
3.499999999999989
 30
0.0
 11
149.5000000000001
 21
3.499999999999982
 31
0.0
  0
SPLINE
  5
1B90F
330
1F
100
AcDbEntity
  8
AM_0
100
AcDbSpline
210
0.0
220
0.0
230
1.0
 70
    12
 71
     2
 72
     6
 73
     3
 74
     0
 42
0.0000000001
 43
0.0000000001
 40
0.0
 40
0.0
 40
0.0
 40
4.898979485566882
 40
4.898979485566882
 40
4.898979485566882
 10
149.0
 20
-56.68138587686097
 30
0.0
 41
1.0
 10
149.9583333333334
 20
-59.07930163851768
 30
0.0
 41
1.090909090909116
 10
149.0
 20
-61.47721740017421
 30
0.0
 41
1.0
  0
LINE
  5
1B911
330
1F
100
AcDbEntity
  8
AM_0
100
AcDbLine
 10
149.0
 20
-64.57930163851761
 30
0.0
 11
149.0
 21
-61.47721740017421
 31
0.0
  0
LINE
  5
1B913
330
1F
100
AcDbEntity
  8
AM_0
100
AcDbLine
 10
149.0
 20
-56.68138587686097
 30
0.0
 11
149.0
 21
-53.57930163851761
 31
0.0
  0
ARC
  5
1B938
330
1F
100
AcDbEntity
  8
AM_0
100
AcDbCircle
 10
101.2499999999999
 20
8.999999999999988
 30
0.0
 40
6.0
100
AcDbArc
 50
293.5564643091005
 51
336.4435356908988
  0
LINE
  5
1B939
330
1F
100
AcDbEntity
  8
AM_0
100
AcDbLine
 10
98.85208423834365
 20
3.499999999999961
 30
0.0
 11
103.6479157616562
 21
3.499999999999961
 31
0.0
  0
LINE
  5
1BCA0
330
1F
100
AcDbEntity
  8
AM_0
100
AcDbLine
 10
11.30077946238322
 20
-58.07485499711511
 30
0.0
 11
19.96071332521154
 21
-58.07485499711511
 31
0.0
  0
SPLINE
  5
1BCD1
330
1F
100
AcDbEntity
  8
AM_0
100
AcDbSpline
210
0.0
220
0.0
230
1.0
 70
     8
 71
     3
 72
    28
 73
    24
 74
     0
 42
0.0000000001
 43
0.0000000001
 40
1.982190775839579
 40
1.982190775839579
 40
1.982190775839579
 40
1.982190775839579
 40
2.157403161228529
 40
2.157403161228529
 40
2.876537548304705
 40
2.876537548304705
 40
3.282109034374901
 40
3.282109034374901
 40
3.687680520445098
 40
3.687680520445098
 40
4.093252006515296
 40
4.093252006515296
 40
4.498823492585492
 40
4.498823492585492
 40
4.904394978655689
 40
4.904394978655689
 40
5.309966464725886
 40
5.309966464725886
 40
5.715537950796083
 40
5.715537950796083
 40
6.12110943686628
 40
6.12110943686628
 40
6.737042413633556
 40
6.737042413633556
 40
6.737042413633556
 40
6.737042413633556
 10
23.0178753560636
 20
-53.57930163851731
 30
0.0
 10
23.06104088672834
 20
-53.59672526795984
 30
0.0
 10
23.10303812802539
 20
-53.61494213667683
 30
0.0
 10
23.31105162452121
 20
-53.71204390749873
 30
0.0
 10
23.45714463853113
 20
-53.80396204768854
 30
0.0
 10
23.6467897764631
 20
-53.96803901145577
 30
0.0
 10
23.71123638374422
 20
-54.03478427354614
 30
0.0
 10
23.82486490795196
 20
-54.18235290446162
 30
0.0
 10
23.87404164232777
 20
-54.26319845851154
 30
0.0
 10
23.9528073830121
 20
-54.43592466280725
 30
0.0
 10
23.98243369374808
 20
-54.52790770618819
 30
0.0
 10
24.02110449419871
 20
-54.71784476075445
 30
0.0
 10
24.03014847912442
 20
-54.81580095158157
 30
0.0
 10
24.03014847912442
 20
-55.0103722394559
 30
0.0
 10
24.02110449419871
 20
-55.11480674330434
 30
0.0
 10
23.98243369374808
 20
-55.33214225952716
 30
0.0
 10
23.9528073830121
 20
-55.44504147859519
 30
0.0
 10
23.87404164232783
 20
-55.67235366843633
 30
0.0
 10
23.82486490795196
 20
-55.78687489001678
 30
0.0
 10
23.71123638374422
 20
-56.01029374960498
 30
0.0
 10
23.6467897764631
 20
-56.11917988677342
 30
0.0
 10
23.47454620649666
 20
-56.37745165628721
 30
0.0
 10
23.35251488122418
 20
-56.53242607924145
 30
0.0
 10
23.21449164889901
 20
-56.68138587661579
 30
0.0
  0
ARC
  5
1BCD2
330
1F
100
AcDbEntity
  8
AM_0
100
AcDbCircle
 10
19.9607133252116
 20
-53.57930163851731
 30
0.0
 40
4.495553358597802
100
AcDbArc
 50
270.0
 51
316.3672072166491
  0
SPLINE
  5
1BCE0
330
1F
100
AcDbEntity
  8
AM_0
100
AcDbSpline
210
0.0
220
0.0
230
1.0
 70
     8
 71
     3
 72
    28
 73
    24
 74
     0
 42
0.0000000001
 43
0.0000000001
 40
9.744885012254468
 40
9.744885012254468
 40
9.744885012254468
 40
9.744885012254468
 40
10.17923750272997
 40
10.17923750272997
 40
10.62073973281601
 40
10.62073973281601
 40
11.06224196290205
 40
11.06224196290205
 40
11.94524642307414
 40
11.94524642307414
 40
12.77877196696044
 40
12.77877196696044
 40
13.61229751084674
 40
13.61229751084674
 40
14.44582305473304
 40
14.44582305473304
 40
15.27934859861934
 40
15.27934859861934
 40
16.54913020032943
 40
16.54913020032943
 40
17.81891180203953
 40
17.81891180203953
 40
18.56662843637271
 40
18.56662843637271
 40
18.56662843637271
 40
18.56662843637271
 10
11.30077946238333
 20
3.5
 30
0.0
 10
11.2571573343597
 20
3.63987088451222
 30
0.0
 10
11.23330243553812
 20
3.782920381627548
 30
0.0
 10
11.23330243553812
 20
4.07203055217542
 30
0.0
 10
11.25796203530985
 20
4.21539461163502
 30
0.0
 10
11.34793665700073
 20
4.491891020902415
 30
0.0
 10
11.41298589582738
 20
4.625112707301867
 30
0.0
 10
11.6459695024509
 20
5.004820803664813
 30
0.0
 10
11.85107616708967
 20
5.232356485304308
 30
0.0
 10
12.2362969086127
 20
5.605326480370025
 30
0.0
 10
12.44218216546494
 20
5.778328883684765
 30
0.0
 10
12.87270950458475
 20
6.10727965198754
 30
0.0
 10
13.097417662959
 20
6.263122326281405
 30
0.0
 10
13.55016809741363
 20
6.554053644558508
 30
0.0
 10
13.77825392088909
 20
6.689089536090023
 30
0.0
 10
14.22414623709324
 20
6.93449251630102
 30
0.0
 10
14.44196976471147
 20
7.044817298330713
 30
0.0
 10
14.96329082163032
 20
7.288963043132867
 30
0.0
 10
15.28803779706442
 20
7.421826431951445
 30
0.0
 10
15.93010714053975
 20
7.635066739791967
 30
0.0
 10
16.24740646540056
 20
7.715404116286663
 30
0.0
 10
16.72752292310798
 20
7.786141193074114
 30
0.0
 10
16.90039541401615
 20
7.799999999999953
 30
0.0
 10
17.06631150002539
 20
7.799999999999953
 30
0.0
  0
LINE
  5
1BCE1
330
1F
100
AcDbEntity
  8
AM_0
100
AcDbLine
 10
11.30077946238333
 20
3.5
 30
0.0
 11
19.96071332521166
 21
3.499999999999996
 31
0.0
  0
ELLIPSE
  5
1BD03
330
1F
100
AcDbEntity
  8
AM_0
100
AcDbEllipse
 10
7.800000000094144
 20
-46.98401553058119
 30
0.0
 11
1.448860934176148E-12
 21
86.22128864633532
 31
0.0
210
0.0
220
0.0
230
1.0
 40
0.1391767646760872
 41
5.400900513199503
 42
5.444924271445235
  0
SPLINE
  5
1BD04
330
1F
100
AcDbEntity
  8
AM_0
100
AcDbSpline
210
0.0
220
0.0
230
1.0
 70
     8
 71
     3
 72
    28
 73
    24
 74
     0
 42
0.0000000001
 43
0.0000000001
 40
1.982190775839579
 40
1.982190775839579
 40
1.982190775839579
 40
1.982190775839579
 40
2.157403161228529
 40
2.157403161228529
 40
2.876537548304705
 40
2.876537548304705
 40
3.282109034374901
 40
3.282109034374901
 40
3.687680520445098
 40
3.687680520445098
 40
4.093252006515296
 40
4.093252006515296
 40
4.498823492585492
 40
4.498823492585492
 40
4.904394978655689
 40
4.904394978655689
 40
5.309966464725886
 40
5.309966464725886
 40
5.715537950796083
 40
5.715537950796083
 40
6.12110943686628
 40
6.12110943686628
 40
6.737042413633556
 40
6.737042413633556
 40
6.737042413633556
 40
6.737042413633556
 10
23.01787535606371
 20
6.602084238343535
 30
0.0
 10
23.06104088672845
 20
6.562120381620046
 30
0.0
 10
23.1030381280255
 20
6.5215272012461
 30
0.0
 10
23.31105162452133
 20
6.311670584973738
 30
0.0
 10
23.45714463853125
 20
6.134070810155547
 30
0.0
 10
23.64678977646321
 20
5.855386491403008
 30
0.0
 10
23.71123638374434
 20
5.748815409124402
 30
0.0
 10
23.82486490795208
 20
5.53052600693445
 30
0.0
 10
23.87404164232788
 20
5.418819987781602
 30
0.0
 10
23.95280738301221
 20
5.19753354291697
 30
0.0
 10
23.98243369374819
 20
5.087848455402535
 30
0.0
 10
24.02110449419882
 20
4.8771599181523
 30
0.0
 10
24.03014847912453
 20
4.776158340736059
 30
0.0
 10
24.03014847912453
 20
4.588414115594103
 30
0.0
 10
24.02110449419882
 20
4.494126426218143
 30
0.0
 10
23.98243369374819
 20
4.311832658321064
 30
0.0
 10
23.95280738301221
 20
4.223824334700508
 30
0.0
 10
23.87404164232794
 20
4.059108820310254
 30
0.0
 10
23.82486490795208
 20
3.982303038416315
 30
0.0
 10
23.71123638374434
 20
3.842622055032617
 30
0.0
 10
23.64678977646321
 20
3.779724243289476
 30
0.0
 10
23.47454620649677
 20
3.639834612709588
 30
0.0
 10
23.3525148812243
 20
3.564944190238347
 30
0.0
 10
23.21449164889913
 20
3.500000000053429
 30
0.0
  0
LINE
  5
1BD05
330
1F
100
AcDbEntity
  8
AM_0
100
AcDbLine
 10
19.96071332521171
 20
3.499999999999996
 30
0.0
 11
23.21449164890254
 21
3.499999999999996
 31
0.0
  0
LINE
  5
1BD06
330
1F
100
AcDbEntity
  8
AM_0
100
AcDbLine
 10
17.06631150002539
 20
7.799999999999953
 30
0.0
 11
19.96071332521171
 21
7.799999999999953
 31
0.0
  0
LINE
  5
1BD07
330
1F
100
AcDbEntity
  8
AM_0
100
AcDbLine
 10
21.99999999999994
 20
7.311395935907283
 30
0.0
 11
21.99999999999994
 21
7.322949016875212
 31
0.0
  0
SPLINE
  5
1BD08
330
1F
100
AcDbEntity
  8
AM_0
100
AcDbSpline
210
0.0
220
0.0
230
1.0
 70
    12
 71
     2
 72
     6
 73
     3
 74
     0
 42
0.0000000001
 43
0.0000000001
 40
0.0
 40
0.0
 40
0.0
 40
0.0146516624263179
 40
0.0146516624263179
 40
0.0146516624263179
 10
21.99999999999994
 20
7.322949016875212
 30
0.0
 41
1.0
 10
22.00197883693983
 20
7.316164302206285
 30
0.0
 41
1.000036230527267
 10
22.00397369066599
 20
7.309374898779536
 30
0.0
 41
1.000071069983404
  0
LINE
  5
1BD09
330
1F
100
AcDbEntity
  8
AM_0
100
AcDbLine
 10
21.97711636221163
 20
7.322949016875212
 30
0.0
 11
21.99999999999994
 21
7.322949016875212
 31
0.0
  0
ARC
  5
1BD0A
330
1F
100
AcDbEntity
  8
AM_0
100
AcDbCircle
 10
19.96071332521171
 20
3.299999999999955
 30
0.0
 40
4.5
100
AcDbArc
 50
63.37882174154659
 51
90.0
  0
SPLINE
  5
1BD0B
330
1F
100
AcDbEntity
  8
AM_0
100
AcDbSpline
210
0.0
220
0.0
230
1.0
 70
     8
 71
     3
 72
     8
 73
     4
 74
     0
 42
0.0000000001
 43
0.0000000001
 40
2.954218624526058
 40
2.954218624526058
 40
2.954218624526058
 40
2.954218624526058
 40
2.978789948034608
 40
2.978789948034608
 40
2.978789948034608
 40
2.978789948034608
 10
21.97711636221163
 20
7.322949016875212
 30
0.0
 10
21.98475846373287
 20
7.319118603749983
 30
0.0
 10
21.99238664198578
 20
7.315267412437946
 30
0.0
 10
21.99999999999994
 20
7.311395935907283
 30
0.0
  0
SPLINE
  5
1BD0C
330
1F
100
AcDbEntity
  8
AM_0
100
AcDbSpline
210
0.0
220
0.0
230
1.0
 70
     8
 71
     3
 72
     8
 73
     4
 74
     0
 42
0.0000000001
 43
0.0000000001
 40
1.355096774186431
 40
1.355096774186431
 40
1.355096774186431
 40
1.355096774186431
 40
1.360485352973028
 40
1.360485352973028
 40
1.360485352973028
 40
1.360485352973028
 10
21.99999999999994
 20
7.311395935907283
 30
0.0
 10
22.00132452070562
 20
7.310723624260502
 30
0.0
 10
22.00264908544125
 20
7.310049944995965
 30
0.0
 10
22.00397369066599
 20
7.309374898779536
 30
0.0
  0
ARC
  5
1BD0D
330
1F
100
AcDbEntity
  8
AM_0
100
AcDbCircle
 10
19.96071332521171
 20
3.299999999999955
 30
0.0
 40
4.5
100
AcDbArc
 50
47.20561930295226
 51
62.9956684098401
  0
TEXT
  5
1C385
330
1F
100
AcDbEntity
  8
AM_0
100
AcDbText
 10
-0.6230543528226917
 20
-97.87255747817413
 30
0.0
 40
5.0
  1
B12M-SDUCR0702-16
100
AcDbText
  0
DIMENSION
  5
1C9B7
330
1F
100
AcDbEntity
  8
AM_5
100
AcDbDimension
  2
*D8
 10
-9.582774730982862
 20
9.000000000000004
 30
0.0
 11
-12.98277473098286
 21
4.500000000000002
 31
0.0
 70
    32
 71
     5
 42
9.000000000000002
  3
AM_JIS$0
100
AcDbAlignedDimension
 13
0.0
 23
0.0
 33
0.0
 14
-2.165548451965833
 24
9.000000000000002
 34
0.0
 50
90.0
100
AcDbRotatedDimension
1001
ACAD
1000
DSTYLE
1002
{
1070
   179
1070
     2
1070
   271
1070
     0
1002
}
  0
DIMENSION
  5
1C9F7
330
1F
100
AcDbEntity
  8
AM_5
100
AcDbDimension
  2
*D9
 10
0.3624797721676032
 20
7.322900752136491
 30
0.0
 11
-18.45864581419486
 21
19.42891153866689
 31
0.0
 70
    34
 71
     5
 42
1.623156204354715
  3
AM_JIS$2
100
AcDb2LineAngularDimension
 13
-4.545079675469481
 23
0.0000000000000036
 33
0.0
 14
0.399995991288904
 24
0.0
 34
0.0
 15
0.0005375895952398
 25
0.4166324934170689
 35
0.0
 16
-10.99973371881619
 26
20.64743612004176
 36
0.0
1001
ACAD
1000
DSTYLE
1002
{
1070
   271
1070
     0
1002
}
  0
DIMENSION
  5
1CA9D
330
1F
100
AcDbEntity
  8
AM_5
100
AcDbDimension
  2
*D10
 10
150.0
 20
-29.88019250889453
 30
0.0
 11
75.0
 21
-26.48019250889453
 31
0.0
 70
    32
 71
     5
 42
150.0
  3
AM_JIS$0
100
AcDbAlignedDimension
 13
0.0
 23
0.0
 33
0.0
 14
150.0
 24
3.999999999999954
 34
0.0
100
AcDbRotatedDimension
1001
ACAD
1000
DSTYLE
1002
{
1070
   179
1070
     0
1070
   271
1070
     0
1002
}
  0
DIMENSION
  5
1CB2A
330
1F
100
AcDbEntity
  8
AM_5
100
AcDbDimension
  2
*D11
 10
-53.94838353660452
 20
-1.922109247976657
 30
0.0
 11
-56.12899742158731
 21
-15.51608982315186
 31
0.0
 70
   162
 71
     5
 42
0.1396263401608584
  3
AM_JIS$2
100
AcDb2LineAngularDimension
 13
-53.88979932815835
 23
0.4166324930988381
 33
0.0
 14
-52.91918662239004
 24
7.32290075181826
 34
0.0
 15
-53.94838353660452
 25
17.10000000000003
 35
0.0
 16
-54.67735875582211
 26
-15.65160611364768
 36
0.0
1001
ACAD
1000
DSTYLE
1002
{
1070
   179
1070
     0
1070
   271
1070
     0
1002
}
  0
ENDSEC
  0
SECTION
  2
OBJECTS
  0
DICTIONARY
  5
C
330
0
100
AcDbDictionary
281
     1
  3
ACAD_COLOR
350
1C41D
  3
ACAD_GROUP
350
D
  3
ACAD_LAYOUT
350
1A
  3
ACAD_MATERIAL
350
1C41C
  3
ACAD_MLINESTYLE
350
17
  3
ACAD_PLOTSETTINGS
350
19
  3
ACAD_PLOTSTYLENAME
350
E
  3
ACAD_TABLESTYLE
350
1C41E
  3
AcAmCatalogState
350
1C485
  3
ACDBHEADERROUNDTRIPXREC
350
1CD89
  3
AcDbVariableDictionary
350
30
  3
ACDMSYSVARMGR
350
1C438
  3
ACGREF_MASTER
350
1C430
  3
ACGREFACAD_MASTER
350
1C458
  3
AcmDictionary
350
4D
  3
ACME_BOM_MANAGER_NAME
350
36
  3
ACME_COMMAND_HISTORY
350
2F
  3
ACME_SCOPE_NAME
350
2E
  3
ACMESTATEMGR
350
3B
  3
AcmeSysVarManager
350
32
  3
AcmSystemVariableManager
350
6A
  3
AD_APPL
350
1C463
  3
ADSYSVARMGR
350
1C462
  3
AmdtNamedDwgMgr
350
1C453
  3
AMG
350
3F
  3
AMGSNAPSETTINGS
350
73
  3
AMI_MASTER
350
1C45B
  3
ASE_INDEX_DICTIONARY
350
1C51C
  3
AUTOCAD_ASSEMBLIES_PROJECT
350
1C46B
  3
Designer_Assemblies_SysVars
350
1C466
  3
DWGPROPS
350
1CD8C
  3
eng_data
350
2A40
  3
FILENAME
350
2916
  3
GREFAM_MODULE
350
1C45C
  3
line_dic_data
350
2A3E
  3
table_dic_data
350
1688
  3
ZWKSIZE
350
2918
  0
DICTIONARY
  5
1C899
330
2
100
AcDbDictionary
280
     1
281
     1
  3
ACAD_LAYERSTATES
360
1C89A
  0
DICTIONARY
  5
165
330
1F
100
AcDbDictionary
280
     1
281
     1
  0
DICTIONARY
  5
1C41D
102
{ACAD_REACTORS
330
C
102
}
330
C
100
AcDbDictionary
281
     1
  0
DICTIONARY
  5
D
102
{ACAD_REACTORS
330
C
102
}
330
C
100
AcDbDictionary
281
     1
  0
DICTIONARY
  5
1A
102
{ACAD_REACTORS
330
C
102
}
330
C
100
AcDbDictionary
281
     1
  3
Model
350
22
  3
ﾚｲｱｳﾄ1
350
1E
  3
ﾚｲｱｳﾄ2
350
26
  0
DICTIONARY
  5
1C41C
102
{ACAD_REACTORS
330
C
102
}
330
C
100
AcDbDictionary
281
     1
  0
DICTIONARY
  5
17
102
{ACAD_REACTORS
330
C
102
}
330
C
100
AcDbDictionary
281
     1
  3
Standard
350
18
  0
DICTIONARY
  5
19
102
{ACAD_REACTORS
330
C
102
}
330
C
100
AcDbDictionary
281
     1
  0
ACDBDICTIONARYWDFLT
  5
E
102
{ACAD_REACTORS
330
C
102
}
330
C
100
AcDbDictionary
281
     1
  3
Normal
350
F
100
AcDbDictionaryWithDefault
340
F
  0
DICTIONARY
  5
1C41E
102
{ACAD_REACTORS
330
C
102
}
330
C
100
AcDbDictionary
281
     1
  3
Standard
350
1C41F
  0
ACAD_PROXY_OBJECT
  5
1C485
102
{ACAD_REACTORS
330
C
102
}
330
C
100
AcDbProxyObject
 90
      499
 91
      571
 95
       25
 70
     0
 93
      600
310
3FFFFFFFE00A02814029F2E2E2816B9B2B93B32B92E483ECB652E4AABC7C0483ECB652E487CC6F6CBB846A445F7AE41BDC1B341A12E4B34482AE76F586C6EDC6F14413BC1B7C0AD94C00AA
  0
DICTIONARY
  5
1CD89
102
{ACAD_REACTORS
330
C
102
}
330
C
100
AcDbDictionary
281
     1
  3
COLORDICT
350
1CD8A
  3
MATERIALDICT
350
1CD8B
  0
DICTIONARY
  5
30
102
{ACAD_REACTORS
330
C
102
}
330
C
100
AcDbDictionary
281
     1
  3
CTABLESTYLE
350
1C4CD
  3
HIDETEXT
350
1CD88
  3
INDEXCTL
350
1CD87
  0
ACAD_PROXY_OBJECT
  5
1C438
102
{ACAD_REACTORS
330
C
102
}
330
C
100
AcDbProxyObject
 90
      499
 91
      507
 95
       25
 70
     0
 93
      240
310
4C51A47A0000000000000000000000000000000000000000000000000000
330
1C439
330
1C43A
330
1C43B
330
1C43C
330
1C43D
330
1C43E
330
1C43F
330
1C440
330
1C441
330
1C442
330
1C443
330
1C444
330
1C445
330
1C446
330
1C447
330
1C448
330
1C449
330
1C44A
330
1C44B
330
1C44C
330
1C44D
330
1C44E
330
1C44F
330
1C450
330
1C451
330
1C452
 94
        0
  0
ACAD_PROXY_OBJECT
  5
1C430
102
{ACAD_REACTORS
330
C
102
}
330
C
100
AcDbProxyObject
 90
      499
 91
      535
 95
       25
 70
     0
 93
       34
310
0400004280
  0
ACAD_PROXY_OBJECT
  5
1C458
102
{ACAD_REACTORS
330
C
102
}
330
C
100
AcDbProxyObject
 90
      499
 91
      541
 95
       25
 70
     0
 93
      114
310
04000041C080000000000000000000
  0
DICTIONARY
  5
4D
102
{ACAD_REACTORS
330
C
102
}
330
C
100
AcDbDictionary
281
     1
  3
AcmBOMDATA
350
4E
  3
AcmStdDictionary
350
17E
  3
AMDTSECTSYM_ARROWCOLOR
350
1C479
  0
ACAD_PROXY_OBJECT
  5
36
102
{ACAD_REACTORS
330
C
102
}
330
C
100
AcDbProxyObject
 90
      499
 91
      510
 95
       25
 70
     0
 93
       50
310
00010040400000
330
0
330
0
330
37
 94
        0
  0
ACAD_PROXY_OBJECT
  5
2F
102
{ACAD_REACTORS
330
C
102
}
330
C
100
AcDbProxyObject
 90
      499
 91
      505
 95
       25
 70
     0
 93
     4884
310
47805064D4952524F528050844524F5047454F4D8050844524F5047454F4D80504554E444F8050545524153458050C475249505F535452455443488050C475249505F53545245544348404052D4D5347202D205050413A2020206465736B746F702E6172782046696C6556657273696F6E3A20392E322E302E340143905351
310
15149154D15511109353D1102014213880B4815539113C05084E202D20554E444F014115539113E014115539113E014154155491D1601415454D05591501014B5354D1C80B481414104E88080819195CDADD1BDC0B985C9E08119A5B1955995C9CDA5BDB8E880E4B8C8B8C0B8D0050E414D4454524553455444424D4F44408
310
05084E202D20554E444F014213880B4815539113C0504554E444F80504554E444F805055153415645404052D4D5347202D205050413A2020206465736B746F702E6172782046696C6556657273696F6E3A20392E322E302E34014390535115149154D15511109353D1102014213880B4815539113C05084E202D20554E444F
310
014115539113E014115539113E01419493D510551160142111493D411D153D36014311D4925417D4D514915510D2201411353D591601411693D3D3601415454D05591501014B5354D1C80B481414104E88080819195CDADD1BDC0B985C9E08119A5B1955995C9CDA5BDB8E880E4B8C8B8C0B8D0050E414D445452455345544
310
4424D4F4440805084E202D20554E444F014213880B4815539113C0504554E444F80504554E444F805055055524745805055153415645404052D4D5347202D205050413A2020206465736B746F702E6172782046696C6556657273696F6E3A20392E322E302E340
  0
ACAD_PROXY_OBJECT
  5
2E
102
{ACAD_REACTORS
330
C
102
}
330
C
100
AcDbProxyObject
 90
      499
 91
      504
 95
       25
 70
     0
 93
      586
310
09000046408000000000000000001344E200000000000000000000000000000000000000000000000000000000000000000000000000000000000000000000000000000000AAA406AA80
360
33
360
34
360
35
360
37
360
6B
360
6C
360
1C431
360
1C432
360
1C433
360
1C434
360
1C435
360
1C436
360
1C439
360
1C43A
360
1C43B
360
1C43C
360
1C43D
360
1C43E
360
1C43F
360
1C440
360
1C441
360
1C442
360
1C443
360
1C444
360
1C445
360
1C446
360
1C447
360
1C448
360
1C449
360
1C44A
360
1C44B
360
1C44C
360
1C44D
360
1C44E
360
1C44F
360
1C450
360
1C451
360
1C452
360
1C45E
360
1C45F
360
1C460
360
1C461
360
1C467
360
1C468
360
1C469
360
1C46A
360
1C46F
360
1C470
360
1C471
360
1C472
360
1C473
360
1C474
 94
        0
  0
ACAD_PROXY_OBJECT
  5
3B
102
{ACAD_REACTORS
330
C
102
}
330
C
100
AcDbProxyObject
 90
      499
 91
      515
 95
       25
 70
     0
 93
       50
310
09000042641280
  0
ACAD_PROXY_OBJECT
  5
32
102
{ACAD_REACTORS
330
C
102
}
330
C
100
AcDbProxyObject
 90
      499
 91
      507
 95
       25
 70
     0
 93
       48
310
903412000000
330
33
330
34
330
35
 94
        0
  0
ACAD_PROXY_OBJECT
  5
6A
102
{ACAD_REACTORS
330
C
102
}
330
C
100
AcDbProxyObject
 90
      499
 91
      507
 95
       25
 70
     0
 93
       40
310
90240E0000
330
6B
330
6C
 94
        0
  0
ACAD_PROXY_OBJECT
  5
1C463
102
{ACAD_REACTORS
330
C
102
}
330
C
100
AcDbProxyObject
 90
      499
 91
      551
 95
       25
 70
     0
 93
       42
310
000900004040
330
1C45E
 94
        0
  0
ACAD_PROXY_OBJECT
  5
1C462
102
{ACAD_REACTORS
330
C
102
}
330
C
100
AcDbProxyObject
 90
      499
 91
      507
 95
       25
 70
     0
 93
        8
310
AA
  0
ACAD_PROXY_OBJECT
  5
1C453
102
{ACAD_REACTORS
330
C
102
}
330
C
100
AcDbProxyObject
 90
      499
 91
      540
 95
       25
 70
     0
 93
       42
310
000100005E80
330
1C431
 94
        0
  0
DICTIONARY
  5
3F
102
{ACAD_REACTORS
330
C
102
}
330
C
100
AcDbDictionary
281
     1
  3
AcMgSettings
350
40
  3
AMGLAYCFG
350
42
  0
DICTIONARY
  5
73
102
{ACAD_REACTORS
330
C
102
}
330
C
100
AcDbDictionary
281
     1
  3
DIMENSION
350
62F
  3
FEA
350
630
  3
HATCH (1)
350
631
  3
HATCH (2)
350
632
  3
SYMBOLS
350
633
  0
ACAD_PROXY_OBJECT
  5
1C45B
102
{ACAD_REACTORS
330
C
102
}
330
C
100
AcDbProxyObject
 90
      499
 91
      544
 95
       25
 70
     0
 93
       34
310
0500004280
  0
DICTIONARY
  5
1C51C
102
{ACAD_REACTORS
330
C
102
}
330
C
100
AcDbDictionary
281
     1
  3
ASEBlockHierarchyIndexRecord
350
1C51E
1001
DCO15
1040
1562583534.843
  0
ACAD_PROXY_OBJECT
  5
1C46B
102
{ACAD_REACTORS
330
C
102
}
330
C
100
AcDbProxyObject
 90
      499
 91
      554
 95
       25
 70
     0
 93
       98
310
0900004E400000000000000000
330
1C472
330
0
330
1C473
330
0
330
0
330
0
330
0
330
0
 94
        0
  0
ACAD_PROXY_OBJECT
  5
1C466
102
{ACAD_REACTORS
330
C
102
}
330
C
100
AcDbProxyObject
 90
      499
 91
      507
 95
       25
 70
     0
 93
       56
310
90441600000000
330
1C467
330
1C468
330
1C469
330
1C46A
 94
        0
  0
XRECORD
  5
1CD8C
102
{ACAD_REACTORS
330
C
102
}
330
C
100
AcDbXrecord
280
     1
  1
DWGPROPS COOKIE
  2

  3

  4

  6

  7

  8

  9

300
AmdtFileType=82
301
=
302
=
303
=
304
=
305
=
306
=
307
=
308
=
309
=
 40
0.0
 41
2451943.235431667
 42
2455482.213102755
  1

 90
        1
  0
DICTIONARY
  5
2A40
102
{ACAD_REACTORS
330
C
102
}
330
C
100
AcDbDictionary
281
     1
  3
eng_id
350
2A41
  0
DICTIONARY
  5
2916
102
{ACAD_REACTORS
330
C
102
}
330
C
100
AcDbDictionary
281
     1
  3
FILENAME
350
2917
  0
ACAD_PROXY_OBJECT
  5
1C45C
102
{ACAD_REACTORS
330
C
102
}
330
C
100
AcDbProxyObject
 90
      499
 91
      545
 95
       25
 70
     0
 93
        8
310
05
  0
DICTIONARY
  5
2A3E
102
{ACAD_REACTORS
330
C
102
}
330
C
100
AcDbDictionary
281
     1
  3
line_data
350
2A3F
  0
DICTIONARY
  5
1688
102
{ACAD_REACTORS
330
C
102
}
330
C
100
AcDbDictionary
281
     1
  3
input_data
350
168A
  3
table_data
350
1689
  0
DICTIONARY
  5
2918
102
{ACAD_REACTORS
330
C
102
}
330
C
100
AcDbDictionary
281
     1
  3
ZWKSIZE
350
2919
  0
DICTIONARY
  5
1C89A
102
{ACAD_REACTORS
330
1C899
102
}
330
1C899
100
AcDbDictionary
281
     1
  0
LAYOUT
  5
22
102
{ACAD_REACTORS
330
1A
102
}
330
1A
100
AcDbPlotSettings
  1

  2
SII LP-2150 (D-SCAN C2)
  4
User262
  6
AM_VIEW1
 40
3.174999952316284
 41
3.174999952316284
 42
3.17498779296875
 43
3.17498779296875
 44
296.9259948730469
 45
419.9889831542969
 46
0.0
 47
0.0
 48
0.0
 49
0.0
140
420.0
141
297.0
142
1.0
143
1.022107788374329
 70
 11952
 72
     1
 73
     1
 74
     4
  7
sei_cad.ctb
 75
     0
147
0.9783703943695685
148
0.0
149
0.0
100
AcDbLayout
  1
Model
 70
     1
 71
     0
 10
0.0
 20
0.0
 11
12.0
 21
9.0
 12
0.0
 22
0.0
 32
0.0
 14
0.0
 24
0.0
 34
0.0
 15
0.0
 25
0.0
 35
0.0
146
0.0
 13
0.0
 23
0.0
 33
0.0
 16
1.0
 26
0.0
 36
0.0
 17
0.0
 27
1.0
 37
0.0
 76
     0
330
1F
  0
LAYOUT
  5
1E
102
{ACAD_REACTORS
330
1A
102
}
330
1A
100
AcDbPlotSettings
  1

  2
Canon LASER SHOT LBP-2030
  4

  6

 40
0.0
 41
0.0
 42
0.0
 43
0.0
 44
0.0
 45
0.0
 46
0.0
 47
0.0
 48
0.0
 49
0.0
140
0.0
141
0.0
142
1.0
143
1.0
 70
   688
 72
     0
 73
     0
 74
     5
  7
sei_cad.ctb
 75
    16
147
1.0
148
0.0
149
0.0
100
AcDbLayout
  1
ﾚｲｱｳﾄ1
 70
     1
 71
     1
 10
0.0
 20
0.0
 11
420.0
 21
297.0
 12
0.0
 22
0.0
 32
0.0
 14
1.000000000000000E+20
 24
1.000000000000000E+20
 34
1.000000000000000E+20
 15
-1.000000000000000E+20
 25
-1.000000000000000E+20
 35
-1.000000000000000E+20
146
0.0
 13
0.0
 23
0.0
 33
0.0
 16
1.0
 26
0.0
 36
0.0
 17
0.0
 27
1.0
 37
0.0
 76
     0
330
1B
  0
LAYOUT
  5
26
102
{ACAD_REACTORS
330
1A
102
}
330
1A
100
AcDbPlotSettings
  1

  2
Canon LASER SHOT LBP-2030
  4

  6

 40
0.0
 41
0.0
 42
0.0
 43
0.0
 44
0.0
 45
0.0
 46
0.0
 47
0.0
 48
0.0
 49
0.0
140
0.0
141
0.0
142
1.0
143
1.0
 70
   688
 72
     0
 73
     0
 74
     5
  7
sei_cad.ctb
 75
    16
147
1.0
148
0.0
149
0.0
100
AcDbLayout
  1
ﾚｲｱｳﾄ2
 70
     1
 71
     2
 10
0.0
 20
0.0
 11
12.0
 21
9.0
 12
0.0
 22
0.0
 32
0.0
 14
0.0
 24
0.0
 34
0.0
 15
0.0
 25
0.0
 35
0.0
146
0.0
 13
0.0
 23
0.0
 33
0.0
 16
1.0
 26
0.0
 36
0.0
 17
0.0
 27
1.0
 37
0.0
 76
     0
330
23
  0
MLINESTYLE
  5
18
102
{ACAD_REACTORS
330
17
102
}
330
17
100
AcDbMlineStyle
  2
STANDARD
 70
     0
  3

 62
   256
 51
90.0
 52
90.0
 71
     2
 49
0.5
 62
   256
  6
BYLAYER
 49
-0.5
 62
   256
  6
BYLAYER
  0
ACDBPLACEHOLDER
  5
F
102
{ACAD_REACTORS
330
E
102
}
330
E
  0
TABLESTYLE
  5
1C41F
102
{ACAD_REACTORS
330
1C41E
102
}
330
1C41E
100
AcDbTableStyle
  3
Standard
 70
     0
 71
     8
 40
1.5
 41
1.5
280
     0
281
     0
  7
STANDARD
140
4.5
170
     2
 62
     0
 63
     7
283
     0
274
    -2
284
     1
 64
     0
275
    -2
285
     1
 65
     0
276
    -2
286
     1
 66
     0
277
    -2
287
     1
 67
     0
278
    -2
288
     1
 68
     0
279
    -2
289
     1
 69
     0
  7
STANDARD
140
6.0
170
     5
 62
     0
 63
     7
283
     0
274
    -2
284
     1
 64
     0
275
    -2
285
     1
 65
     0
276
    -2
286
     1
 66
     0
277
    -2
287
     1
 67
     0
278
    -2
288
     1
 68
     0
279
    -2
289
     1
 69
     0
  7
STANDARD
140
4.5
170
     5
 62
     0
 63
     7
283
     0
274
    -2
284
     1
 64
     0
275
    -2
285
     1
 65
     0
276
    -2
286
     1
 66
     0
277
    -2
287
     1
 67
     0
278
    -2
288
     1
 68
     0
279
    -2
289
     1
 69
     0
  0
XRECORD
  5
1CD8A
102
{ACAD_REACTORS
330
1CD89
102
}
330
1CD89
100
AcDbXrecord
280
     1
340
1C41D
  0
XRECORD
  5
1CD8B
102
{ACAD_REACTORS
330
1CD89
102
}
330
1CD89
100
AcDbXrecord
280
     1
340
1C41C
  0
DICTIONARYVAR
  5
1C4CD
102
{ACAD_REACTORS
330
30
102
}
330
30
100
DictionaryVariables
280
     0
  1
STANDARD
  0
DICTIONARYVAR
  5
1CD88
102
{ACAD_REACTORS
330
30
102
}
330
30
100
DictionaryVariables
280
     0
  1
0
  0
DICTIONARYVAR
  5
1CD87
102
{ACAD_REACTORS
330
30
102
}
330
30
100
DictionaryVariables
280
     0
  1
1
  0
ACAD_PROXY_OBJECT
  5
4E
102
{ACAD_REACTORS
330
4D
102
}
330
4D
100
AcDbProxyObject
 90
      499
 91
      520
 95
       25
 70
     0
 93
      118
310
405010040CA904C415CD5B075DD0D8
350
4F
 94
        0
  0
DICTIONARY
  5
17E
102
{ACAD_REACTORS
330
4D
102
}
330
4D
100
AcDbDictionary
281
     1
  3
JIS
350
17F
  0
XRECORD
  5
1C479
102
{ACAD_REACTORS
330
4D
102
}
330
4D
100
AcDbXrecord
280
     1
 90
-1023410169
  0
ACAD_PROXY_OBJECT
  5
33
330
2E
100
AcDbProxyObject
 90
      499
 91
      508
 95
       25
 70
     0
 93
      156
310
00010143D050D351505391D5531054925390D490
330
2E
 94
        0
  0
ACAD_PROXY_OBJECT
  5
34
330
2E
100
AcDbProxyObject
 90
      499
 91
      508
 95
       25
 70
     0
 93
      148
310
000101439050D351531253915054925390D490
330
2E
 94
        0
  0
ACAD_PROXY_OBJECT
  5
35
330
2E
100
AcDbProxyObject
 90
      499
 91
      509
 95
       25
 70
     0
 93
      156
310
000101439050D35154D6535093D314D256915080
330
2E
 94
        0
  0
ACAD_PROXY_OBJECT
  5
37
330
2E
100
AcDbProxyObject
 90
      499
 91
      511
 95
       25
 70
     0
 93
       88
310
000101411093D34C402B00
330
2E
330
0
330
0
 94
        0
  0
ACAD_PROXY_OBJECT
  5
6B
330
2E
100
AcDbProxyObject
 90
      499
 91
      509
 95
       25
 70
     0
 93
      108
310
00010142505351D153D35054D4E0
330
2E
 94
        0
  0
ACAD_PROXY_OBJECT
  5
6C
330
2E
100
AcDbProxyObject
 90
      499
 91
      522
 95
       25
 70
     0
 93
      140
310
00010142105350D55494D511005034A49530
330
2E
 94
        0
  0
ACAD_PROXY_OBJECT
  5
1C431
330
2E
100
AcDbProxyObject
 90
      499
 91
      536
 95
       25
 70
     0
 93
      358
310
0001014124FEA55D00507392E322E302E32014124FEA55D00507392E322E302E3240501000041505391D311658
330
2E
330
1C432
330
1C438
 94
        0
  0
ACAD_PROXY_OBJECT
  5
1C432
330
2E
100
AcDbProxyObject
 90
      499
 91
      537
 95
       25
 70
     0
 93
       56
310
000190240E0000
330
2E
330
1C433
330
1C435
 94
        0
  0
ACAD_PROXY_OBJECT
  5
1C433
330
2E
100
AcDbProxyObject
 90
      499
 91
      538
 95
       25
 70
     0
 93
       48
310
0001AA000000
330
2E
330
1E
330
1C434
330
0
 94
        0
  0
ACAD_PROXY_OBJECT
  5
1C434
330
2E
100
AcDbProxyObject
 90
      499
 91
      539
 95
       25
 70
     0
 93
       28
310
0001AAA0
330
2E
 94
        0
  0
ACAD_PROXY_OBJECT
  5
1C435
330
2E
100
AcDbProxyObject
 90
      499
 91
      538
 95
       25
 70
     0
 93
       48
310
0001AA000000
330
2E
330
26
330
1C436
330
0
 94
        0
  0
ACAD_PROXY_OBJECT
  5
1C436
330
2E
100
AcDbProxyObject
 90
      499
 91
      539
 95
       25
 70
     0
 93
       28
310
0001AAA0
330
2E
 94
        0
  0
ACAD_PROXY_OBJECT
  5
1C439
330
2E
100
AcDbProxyObject
 90
      499
 91
      509
 95
       25
 70
     0
 93
      108
310
000101421053521310D05310D010
330
2E
 94
        0
  0
ACAD_PROXY_OBJECT
  5
1C43A
330
2E
100
AcDbProxyObject
 90
      499
 91
      509
 95
       25
 70
     0
 93
      124
310
00010142905354915554D15112535010
330
2E
 94
        0
  0
ACAD_PROXY_OBJECT
  5
1C43B
330
2E
100
AcDbProxyObject
 90
      499
 91
      509
 95
       25
 70
     0
 93
      132
310
00010143105354D150D51253D391125360
330
2E
 94
        0
  0
ACAD_PROXY_OBJECT
  5
1C43C
330
2E
100
AcDbProxyObject
 90
      499
 91
      509
 95
       25
 70
     0
 93
      124
310
00010142905355941093D49111549010
330
2E
 94
        0
  0
ACAD_PROXY_OBJECT
  5
1C43D
330
2E
100
AcDbProxyObject
 90
      499
 91
      509
 95
       25
 70
     0
 93
      116
310
0001014290535115D1D0D3D313D4A0
330
2E
 94
        0
  0
ACAD_PROXY_OBJECT
  5
1C43E
330
2E
100
AcDbProxyObject
 90
      499
 91
      509
 95
       25
 70
     0
 93
      148
310
00010143505355925155D49151949154D21010
330
2E
 94
        0
  0
ACAD_PROXY_OBJECT
  5
1C43F
330
2E
100
AcDbProxyObject
 90
      499
 91
      509
 95
       25
 70
     0
 93
      172
310
00010144105350539393D51154149154D15495915010
330
2E
 94
        0
  0
ACAD_PROXY_OBJECT
  5
1C440
330
2E
100
AcDbProxyObject
 90
      499
 91
      509
 95
       25
 70
     0
 93
      172
310
00010144105350555513D11253505494905391D15010
330
2E
 94
        0
  0
ACAD_PROXY_OBJECT
  5
1C441
330
2E
100
AcDbProxyObject
 90
      499
 91
      509
 95
       25
 70
     0
 93
      124
310
00010142D05351561514915191125360
330
2E
 94
        0
  0
ACAD_PROXY_OBJECT
  5
1C442
330
2E
100
AcDbProxyObject
 90
      499
 91
      509
 95
       25
 70
     0
 93
      132
310
00010142D05355105410539393D5115010
330
2E
 94
        0
  0
ACAD_PROXY_OBJECT
  5
1C443
330
2E
100
AcDbProxyObject
 90
      499
 91
      509
 95
       25
 70
     0
 93
      108
310
00010142105350555513D0D31010
330
2E
 94
        0
  0
ACAD_PROXY_OBJECT
  5
1C444
330
2E
100
AcDbProxyObject
 90
      499
 91
      509
 95
       25
 70
     0
 93
      108
310
00010142105350D3119150551050
330
2E
 94
        0
  0
ACAD_PROXY_OBJECT
  5
1C445
330
2E
100
AcDbProxyObject
 90
      499
 91
      509
 95
       25
 70
     0
 93
      108
310
00010142105350D315925155D3F0
330
2E
 94
        0
  0
ACAD_PROXY_OBJECT
  5
1C446
330
2E
100
AcDbProxyObject
 90
      499
 91
      509
 95
       25
 70
     0
 93
      148
310
0001014350535212511156915493D112535010
330
2E
 94
        0
  0
ACAD_PROXY_OBJECT
  5
1C447
330
2E
100
AcDbProxyObject
 90
      499
 91
      509
 95
       25
 70
     0
 93
      124
310
00010142905352105510D21254D3D010
330
2E
 94
        0
  0
ACAD_PROXY_OBJECT
  5
1C448
330
2E
100
AcDbProxyObject
 90
      499
 91
      509
 95
       25
 70
     0
 93
      148
310
00010143905354D25391D31152105513105660
330
2E
 94
        0
  0
ACAD_PROXY_OBJECT
  5
1C449
330
2E
100
AcDbProxyObject
 90
      499
 91
      509
 95
       25
 70
     0
 93
      124
310
00010142D0535115D1D193111254D420
330
2E
 94
        0
  0
ACAD_PROXY_OBJECT
  5
1C44A
330
2E
100
AcDbProxyObject
 90
      499
 91
      509
 95
       25
 70
     0
 93
      100
310
00010142105350555513D213A0
330
2E
 94
        0
  0
ACAD_PROXY_OBJECT
  5
1C44B
330
2E
100
AcDbProxyObject
 90
      499
 91
      509
 95
       25
 70
     0
 93
      116
310
000101425053521390D3D553951010
330
2E
 94
        0
  0
ACAD_PROXY_OBJECT
  5
1C44C
330
2E
100
AcDbProxyObject
 90
      499
 91
      509
 95
       25
 70
     0
 93
      108
310
0001014210535213941493D29010
330
2E
 94
        0
  0
ACAD_PROXY_OBJECT
  5
1C44D
330
2E
100
AcDbProxyObject
 90
      499
 91
      509
 95
       25
 70
     0
 93
      108
310
0001014210535213951654115070
330
2E
 94
        0
  0
ACAD_PROXY_OBJECT
  5
1C44E
330
2E
100
AcDbProxyObject
 90
      499
 91
      509
 95
       25
 70
     0
 93
      108
310
000101421053521395925155D0F0
330
2E
 94
        0
  0
ACAD_PROXY_OBJECT
  5
1C44F
330
2E
100
AcDbProxyObject
 90
      499
 91
      509
 95
       25
 70
     0
 93
      140
310
00010143505354D150D51253D390D3D41660
330
2E
 94
        0
  0
ACAD_PROXY_OBJECT
  5
1C450
330
2E
100
AcDbProxyObject
 90
      499
 91
      509
 95
       25
 70
     0
 93
      108
310
00010142105350D3141493D29030
330
2E
 94
        0
  0
ACAD_PROXY_OBJECT
  5
1C451
330
2E
100
AcDbProxyObject
 90
      499
 91
      508
 95
       25
 70
     0
 93
      212
310
00010143905350555513D2105510D21493D500000000000002E400
330
2E
 94
        0
  0
ACAD_PROXY_OBJECT
  5
1C452
330
2E
100
AcDbProxyObject
 90
      499
 91
      509
 95
       25
 70
     0
 93
      156
310
00010143905350555513D2105510D21111551010
330
2E
 94
        0
  0
ACAD_PROXY_OBJECT
  5
1C45E
330
2E
100
AcDbProxyObject
 90
      499
 91
      547
 95
       25
 70
     0
 93
      698
310
0001000000009AA6A9AA4051E4D6F6E204665622030362030383A31353A343820323030362028555443290141CE4B8C8B8C0B8C80518547565204F63742031322031343A30363A353220323031300141CE4B8C8B8C0B8C80
330
2E
330
1C45F
330
1C460
330
1C462
330
0
 94
        0
  0
ACAD_PROXY_OBJECT
  5
1C45F
330
2E
100
AcDbProxyObject
 90
      499
 91
      548
 95
       25
 70
     0
 93
       70
310
0001AAA80820000000
330
2E
330
1C45F
330
1C45F
 94
        0
  0
ACAD_PROXY_OBJECT
  5
1C460
330
2E
100
AcDbProxyObject
 90
      499
 91
      549
 95
       25
 70
     0
 93
       48
310
000100000000
330
2E
330
0
330
1C461
330
0
330
0
 94
        0
  0
ACAD_PROXY_OBJECT
  5
1C461
330
2E
100
AcDbProxyObject
 90
      499
 91
      550
 95
       25
 70
     0
 93
       40
310
000100AAAA
330
2E
330
0
 94
        0
  0
ACAD_PROXY_OBJECT
  5
1C467
330
2E
100
AcDbProxyObject
 90
      499
 91
      522
 95
       25
 70
     0
 93
      180
310
00010143105050D3D35411119390535140504434F4D500
330
2E
 94
        0
  0
ACAD_PROXY_OBJECT
  5
1C468
330
2E
100
AcDbProxyObject
 90
      499
 91
      522
 95
       25
 70
     0
 93
      212
310
0001014390505193D311115491119390535140506466F6C6465720
330
2E
 94
        0
  0
ACAD_PROXY_OBJECT
  5
1C469
330
2E
100
AcDbProxyObject
 90
      499
 91
      522
 95
       25
 70
     0
 93
      180
310
00010143105050539393D1119390535140504284156290
330
2E
 94
        0
  0
ACAD_PROXY_OBJECT
  5
1C46A
330
2E
100
AcDbProxyObject
 90
      499
 91
      522
 95
       25
 70
     0
 93
      436
310
00010143905050D3D35415925155D31254D50052295BD96CA0A90B396CA0A894591A496CA0A8DB691A496CA0A89BA96CA0A95E28F95310
330
2E
 94
        0
  0
ACAD_PROXY_OBJECT
  5
1C46F
330
2E
100
AcDbProxyObject
 90
      499
 91
      555
 95
       25
 70
     0
 93
       32
310
00010000
330
2E
340
1C46C
330
1C471
330
1C46C
 94
        0
  0
ACAD_PROXY_OBJECT
  5
1C470
330
2E
100
AcDbProxyObject
 90
      499
 91
      556
 95
       25
 70
     0
 93
       18
310
000180
330
2E
 94
        0
  0
ACAD_PROXY_OBJECT
  5
1C471
330
2E
100
AcDbProxyObject
 90
      499
 91
      557
 95
       25
 70
     0
 93
      226
310
00010144508C4C934B54D11550D48C0DCC0C8B4C4D9050055401550000
330
2E
330
1C46F
330
1C470
 94
        0
  0
ACAD_PROXY_OBJECT
  5
1C472
330
2E
100
AcDbProxyObject
 90
      499
 91
      558
 95
       25
 70
     0
 93
      178
310
000100AAAAAA84CAE35EABF4B1D125D563B3B722D51640
330
2E
330
1C471
 94
        0
  0
ACAD_PROXY_OBJECT
  5
1C473
330
2E
100
AcDbProxyObject
 90
      499
 91
      559
 95
       25
 70
     0
 93
      108
310
000190140A000000000000AAAAA0
330
2E
330
1C474
330
1C474
330
1C474
330
1C474
330
1C474
330
0
 94
        0
  0
ACAD_PROXY_OBJECT
  5
1C474
330
2E
100
AcDbProxyObject
 90
      499
 91
      560
 95
       25
 70
     0
 93
       51
310
00010000AAAA80
330
2E
330
1C473
330
1C471
 94
        0
  0
DICTIONARY
  5
40
102
{ACAD_REACTORS
330
3F
102
}
330
3F
100
AcDbDictionary
281
     1
  3
DWGSETTINGS
350
41
  3
FEM
350
69
  3
Shaft
350
56
  3
TRANSSETTINGS
350
4C
  0
ACAD_PROXY_OBJECT
  5
42
102
{ACAD_REACTORS
330
3F
102
}
330
3F
100
AcDbProxyObject
 90
      499
 91
      519
 95
       25
 70
     0
 93
    23232
310
41502491013041105357CC201C00030C011E441013141105357CC603800030C011E441013241105357CCA01400030C011E441013341105357CCE01800030C010D9013441105357CD200C00030C010D9013541105357CD600C00030C010D9013641105357CDA00800030C011E9013741105357CDE01000030C010D901384110
310
5357CE200400030C011E9013941105357CE63F400030C0241102324141505357CC4C201C00030C011E902344141505357CC4C600C00030C010D902495041505357CC4CA01C00030C011E40902304E41505357CC13A01C00030C011E902314E41505357CC53A03800030C011E902324E41505357CC93A01400030C011E90233
310
4E41505357CCD3A01800030C010D902344E41505357CD13A00C00030C010D902354E41505357CD53A00C00030C010D902364E41505357CD93A00800030C011E902374E41505357CDD3A01000030C010D902384E41505357CE13A00400030C011E902394E41505357CE53A3F400030C024110332414E41905357CC4C13A01C0
310
0030C011E90334414E41905357CC4C53A00C00030C010D90349504E41905357CC4C93A01C00030C011E409044B4C494E41505357D0D3200400030C011E42504494E464F42105357D410549151A01000030C010D42D055241484D3541905357D093D4A01C00030C011E425045649455742105357D5925155D4E00400030C011
310
E42D06424548494E4441905357D25395A3F400030C0243505545241494C41505357D514A00C00030C010D4250348494441905357D21251201C00030C011E4250356495341905357D59254E01C00030C011E4250650415244494D42505357D41054911253600C00030C010D4250652454644494D42505357D49151911253601
310
000030C010D425774110531514901348070000C300479034110915312501348000000C0003FFFFFFFD034110921395901398000000C0003FFFFFFFE415092139594D06424548494E448000000C0003FFFFFFFE411093125110234418000000C0003FFFFFFFD03411093D05410234418000000C0003FFFFFFFD03411093D48C
310
9055241484D358010000C30047A411093D48CD055241484D358020000C30047A411093D48D5055241484D358000000C0003FFFFFFFE411093D48DD055241484D3581E0000C30047903411094105410234418000000C0003FFFFFFFD03411094115610234418000000C0003FFFFFFFD034110951112501358000000C0003FFF
310
FFFFD034110D0530C901348000000C0003FFFFFFFE4110D0530CD01348020000C30047A4110D0530D501348070000C30047A4110D0530DD013481E0000C30047A4110D15393901378000000C0003FFFFFFFE4110D15395D01378000000C0003FFFFFFFE4110D312539044B4C494E8000000C0003FFFFFFFE4110D3D38C5013
310
08000000C0003FFFFFFFD034110D3D38C901318000000C0003FFFFFFFD034110D3D38CD01328000000C0003FFFFFFFD034110D3D38D101328000000C0003FFFFFFFD034111115494101348000000C0003FFFFFFFD034111115510501348000000C0003FFFFFFFE4111125051D01358000000C0003FFFFFFFE4111125312501
310
358000000C0003FFFFFFFE411112535410650415244494D8000000C0003FFFFFFFE411112535490652454644494D8000000C0003FFFFFFFE411156135410234418000000C0003FFFFFFFD034111915353901388000000C0003FFFFFFFE415191535413901388030000C3004364151915354D410234418000000C0003FFFFFF
310
FE4151915354D510234418030000C300436415191535593901328000000C0003FFFFFFFE415191535595101328030000C3004364111931055101308000000C0003FFFFFFFD03411194905490234418000000C0003FFFFFFFD034111D49312501358000000C0003FFFFFFFD034111D5931250234418000000C0003FFFFFFFD0
310
34112105510D01388000000C0003FFFFFFFD014112125113901338000000C0003FFFFFFFD034112125115D01338000000C0003FFFFFFFD034112131253901348000000C0003FFFFFFFD01411213D0D3901378000000C0003FFFFFFFE411213D0D5D01378000000C0003FFFFFFFE4112539193D04494E464F8000000C0003FF
310
FFFFFE4113105112501348000000C0003FFFFFFFD034113115051101358000000C0003FFFFFFFE419397D0921395902394E8000000C0003FFFFFFFE419397D0D3D38C502304E8000000C0003FFFFFFFD03419397D0D3D38C902314E8000000C0003FFFFFFFD03419397D0D3D38CD02324E8000000C0003FFFFFFFD03419397
310
D0D3D38D102324E8000000C0003FFFFFFFD03419397D0D15393902374E8000000C0003FFFFFFFE419397D0D15395D02374E8000000C0003FFFFFFFE419397D1125312502354E8000000C0003FFFFFFFE419397D2105510D02384E8000000C0003FFFFFFFD01419397D2125113902334E8000000C0003FFFFFFFD03419397D2
310
125115D02334E8000000C0003FFFFFFFD03419397D3115051102354E8000000C0003FFFFFFFE419397D391D25410349504E8000000C0003FFFFFFFE419397D412105390334414E8000000C0003FFFFFFFE419397D510D3D3902304E8000000C0003FFFFFFFD03419397D5121312502344E8000000C0003FFFFFFFD01419397
310
D5131153902304E8000000C0003FFFFFFFD03419397D516150CD02364E8000000C0003FFFFFFFD03419397D594131250332414E8000000C0003FFFFFFFE411391D25410249508000000C0003FFFFFFFE411410530C9055241484D358010000C30047A411410530CD055241484D358020000C30047A411410530D5055241484
310
D358000000C0003FFFFFFFE411410530DD055241484D3581E0000C30047903411412105390234418000000C0003FFFFFFFE411413D4D3901368070000C30047A419413D4D49151901368050000C30047903411413D4D6101368000000C0003FFFFFFFD03411414D150D0234418000000C0003FFFFFFFD03411490D1D390137
310
8000000C0003FFFFFFFE411490D1D5D01378000000C0003FFFFFFFE4114919112501348000000C0003FFFFFFFD034114945514901348070000C30047903411494D093D01348000000C0003FFFFFFFD034114D09492D01348000000C0003FFFFFFFD014114D0D153901378000000C0003FFFFFFFD034114D150D51013480000
310
00C0003FFFFFFFD014114D15313901378000000C0003FFFFFFFD034114D15315D01378000000C0003FFFFFFFD034114D4D654D01308000000C0003FFFFFFFD034114D51312501348070000C300479034114D6508C501358000000C0003FFFFFFFD034114D6508C901358000000C0003FFFFFFFD034114D6508CD0135802000
310
0C30047A4114D6508D501358070000C300479034114D65353901378000000C0003FFFFFFFD034114D65355D01378000000C0003FFFFFFFD03411510D3D3901308000000C0003FFFFFFFD034115121312501348000000C0003FFFFFFFD01411512550C9055241484D358010000C30047A411512550CD055241484D358020000
310
C30047A411512550D5055241484D358000000C0003FFFFFFFE411512550DD055241484D3581E0000C300479034115131153901308000000C0003FFFFFFFD03415514905253105545241494C8000000C0003FFFFFFFE41151492D3901378000000C0003FFFFFFFD0341151492D5D01378000000C0003FFFFFFFD03411514931
310
2501348000000C0003FFFFFFFD01411516150C501368030000C300436411516150C901368030000C300436411516150CD01368000000C0003FFFFFFFE411516150D501368070000C30047A411516150DD013681E0000C30047A4115925155D04564945578000000C0003FFFFFFFE41159151121034849448000000C0003FFF
310
FFFFD0241159151159035649538000000C0003FFFFFFFD02411594131250232418000000C0003FFFFFFFE4116925690501348000000C0003FFFFFFFD01411354D653501358020000C30047AAAA3F400030C01013F90A4051E4091E40D0D4110D4151E4190D41D1E4391E4791E7F6
340
16
340
16
340
16
340
43
340
16
340
16
340
16
340
44
340
16
340
16
340
44
340
45
340
16
340
16
340
16
340
16
340
43
340
16
340
16
340
16
340
44
340
16
340
16
340
44
340
45
340
16
340
46
340
16
340
16
340
16
340
16
340
16
340
43
340
16
340
16
340
16
340
47
340
15
340
15
340
15
340
15
340
15
340
15
340
15
340
15
340
15
340
15
340
15
340
15
340
15
340
15
340
15
340
15
340
48
340
15
340
15
340
15
340
15
340
15
340
15
340
15
340
15
340
15
340
15
340
15
340
15
340
15
340
15
340
15
340
16
340
15
340
15
340
15
340
15
340
15
340
15
340
15
340
15
340
47
340
15
340
15
340
48
340
15
340
15
340
15
340
15
340
15
340
15
340
15
340
15
340
15
340
48
340
15
340
15
340
15
340
47
340
15
340
15
340
15
340
15
340
15
340
15
340
15
340
15
340
15
340
15
340
15
340
15
340
15
340
15
340
15
340
15
340
15
340
15
340
15
340
48
340
15
340
15
340
48
340
15
340
15
340
16
340
15
340
48
340
15
340
15
340
47
340
15
340
15
340
16
340
15
340
48
340
15
340
15
340
15
340
15
340
15
340
15
340
15
340
15
340
15
340
48
340
15
340
15
340
15
340
15
340
15
340
15
340
15
340
15
340
15
340
15
340
15
340
4B
340
16
 94
        0
  0
ACAD_PROXY_OBJECT
  5
62F
102
{ACAD_REACTORS
330
73
102
}
330
73
100
AcDbProxyObject
 90
      499
 91
      523
 95
       25
 70
     0
 93
      253
310
43D1444494D454E53494F4E2C414D44545F2A5F44494D404A9012A404A9012A0
  0
ACAD_PROXY_OBJECT
  5
630
102
{ACAD_REACTORS
330
73
102
}
330
73
100
AcDbProxyObject
 90
      499
 91
      523
 95
       25
 70
     0
 93
      181
310
43D012A42D05357D191504B505357CA9012A404A9012A8
  0
ACAD_PROXY_OBJECT
  5
631
102
{ACAD_REACTORS
330
73
102
}
330
73
100
AcDbProxyObject
 90
      499
 91
      523
 95
       25
 70
     0
 93
      133
310
43D054841544348404A9012A404A9012A8
  0
ACAD_PROXY_OBJECT
  5
632
102
{ACAD_REACTORS
330
73
102
}
330
73
100
AcDbProxyObject
 90
      499
 91
      523
 95
       25
 70
     0
 93
      549
310
43D044C494E4549CE0B0E138B0A8B4E0B0A8B4E138B105357CE0B105357CE138B0A8B505357CE0B0A8B505357CE139012A404A910494E534552542C5354445041525432448
  0
ACAD_PROXY_OBJECT
  5
633
102
{ACAD_REACTORS
330
73
102
}
330
73
100
AcDbProxyObject
 90
      499
 91
      523
 95
       25
 70
     0
 93
      909
310
43D6641434D46434652414D452C41434D444154554D5441524745542C41434D444154554D49442C41434D57454C4453594D2C41434D5355524653594D2C41434D4645415449442C41434D504152545245462C41434D42414C4C4F4F4E2C414D44544544474553594D404A9012A404A9012A8
  0
XRECORD
  5
1C51E
102
{ACAD_REACTORS
330
1C51C
102
}
330
1C51C
100
AcDbXrecord
280
     1
330
0
330
0
330
0
330
0
330
0
330
0
330
0
330
0
330
0
330
0
330
0
330
0
330
0
330
0
330
0
330
0
330
0
330
0
330
0
330
0
330
0
330
0
330
0
330
0
330
0
330
0
330
0
330
0
330
0
330
0
330
0
330
0
330
0
330
0
330
0
330
0
330
0
330
0
330
0
330
0
330
0
330
0
330
0
330
0
330
0
330
0
330
0
330
0
330
0
330
0
330
0
330
0
330
0
330
0
330
0
330
0
330
0
330
0
330
0
330
0
330
0
330
0
330
0
  0
XRECORD
  5
2A41
102
{ACAD_REACTORS
330
2A40
102
}
330
2A40
100
AcDbXrecord
280
     1
  1
LINE
  0

  0
XRECORD
  5
2917
102
{ACAD_REACTORS
330
2916
102
}
330
2916
100
AcDbXrecord
280
     1
  1
25000259__00___
  0

  0
XRECORD
  5
2A3F
102
{ACAD_REACTORS
330
2A3E
102
}
330
2A3E
100
AcDbXrecord
280
     1
  1
110 ^M^J ^M^J ^M^J ^M^J ^M^J ^M^J ^M^J ^M^J ^M^J ^M^J ^M^Jボーリングクイル ^M^J鋼 ^M^J特型 ^M^J直付け ^M^Jストレート ^M^J25 ^M^J2 ^M^J ^M^Jアルミ ^M^J ^M^J
  0

  0
XRECORD
  5
168A
102
{ACAD_REACTORS
330
1688
102
}
330
1688
100
AcDbXrecord
280
     1
  1
1,,,,,,,,,^M^J2,,,,,,,,,^M^J3,,,,,,,,,^M^J4,,,,,,,,,^M^J5,,,,,,,,,^M^J6,,,,,,,,,^M^J7,,,,,,,,,^M^J8,,,,,,,,,^M^J9,,,,,,,,,^M^J10,,,,,,,,,
  0

  0
XRECORD
  5
1689
102
{ACAD_REACTORS
330
1688
102
}
330
1688
100
AcDbXrecord
280
     1
  1
10,10
  0

  0
XRECORD
  5
2919
102
{ACAD_REACTORS
330
2918
102
}
330
2918
100
AcDbXrecord
280
     1
  1
3
  0

  0
ACAD_PROXY_OBJECT
  5
4F
102
{ACAD_REACTORS
330
4E
102
}
330
4E
100
AcDbProxyObject
 90
      499
 91
      521
 95
       25
 70
     0
 93
      157
310
057356C1D77406406AA8FFFFFFFF05DD01009010
330
1F
330
0
330
1C471
 94
        0
  0
ACAD_PROXY_OBJECT
  5
17F
102
{ACAD_REACTORS
330
17E
102
}
330
17E
100
AcDbProxyObject
 90
      499
 91
      526
 95
       25
 70
     0
 93
     2379
310
5DC33333333333309408000000C00040D29254D01640600800030C0200800030C003333333333330940C8121E8720B1B6A9BAB9332A32BC3A29BA3220480A1282C6DA8C868CA6E8C88120286A0B1B6ABB2B63234B733A9BA3220480A1082C6DA92C8A6E8C88120285A0B1B6A230BA3AB6A9BA3220480A1282C6DA849E9AA6E
310
8C88120286A0B1A0B6B3AA34BA3632A9BA3220480A2082DAC8E888CAE8C2D2D8A6F2DAA6E8C88120288A0B6B23A29B2B1BA34B7B729BCB6A9BA3220480A2282DAC8E886CADCE8CAE498D2DCCAA6E8C88120288A0B6B23A2A343932B0B22634B732A9BA3220480A1682DAC8E89CDEE8CAA6E8C88120285A0B1A0B6B3A630BCA
310
9BA3220480A1682C682DACE88D2DAA6E8C88120288A0B1A0B6B3A437B632A1B430B93A29BA3220480C812020
340
180
360
181
360
182
360
183
360
184
360
185
360
186
360
1C476
360
1C477
360
1C478
360
1C47A
360
1C47B
360
1C47C
360
1C482
360
1C483
360
1C484
340
0
340
0
 94
        0
  0
ACAD_PROXY_OBJECT
  5
41
102
{ACAD_REACTORS
330
40
102
}
330
40
100
AcDbProxyObject
 90
      499
 91
      518
 95
       25
 70
     0
 93
     2954
310
4050B44574753455454494E4753A0E8482A68AA6A88882A069492A684A1A0A723A0A92920ACA0A811A1AA0C868A9C829C8E82A12686AF87260F862666A8321A2A72224A0A50000000000000122020E868A9C889282A682A106260F86460F8666083A1A2A72224A9AA250000000000000042020C868A9C988A9C94000000000
310
000048808321A2A727A323250000000000000122020E868A9C9E8C8C62940000000000000488083A1A2A727A32319250000000000000122021CC6D0C2DACCCAE4C8D2DADADEC8CA9FC84A1A624A720A92920ACA0A81989A982108698929C8AA8B2A082A0AB098929C8A84A22BA3AAA9A1A0A622A50A0E9882A6A89E849482A
310
02608426A0A5A2AB24A2ABA7E8120CA0A68682988A0C00800010652455649534941501304154D0D0531150540CC4E8C5085354414E44415244415034A4953425512535154D5105354128002A4FD09E4ADCD050756455253494F4E4150531352E3030441ED115D1D4D15515125391D4D153911F40
  0
ACAD_PROXY_OBJECT
  5
69
102
{ACAD_REACTORS
330
40
102
}
330
40
100
AcDbProxyObject
 90
      499
 91
      518
 95
       25
 70
     0
 93
      411
310
4050346454D21092DCC6E486DECACC942842630BCA3B937BAB820A8320A6AFA322A0A20F688AE8EA68AA8A8929C8EA68A9C88FA0
  0
ACAD_PROXY_OBJECT
  5
56
102
{ACAD_REACTORS
330
40
102
}
330
40
100
AcDbProxyObject
 90
      499
 91
      518
 95
       25
 70
     0
 93
      583
310
40505536861667421292DCE8CAE4E4EAE0E89FA0484A634B3B43A2634B732A7F21A98D2CED0E898D2DCCAACD2CAEE9FC8229B4B232A7E80A20F688AE8EA68AA8A8929C8EA68A9C88FA
  0
ACAD_PROXY_OBJECT
  5
4C
102
{ACAD_REACTORS
330
40
102
}
330
40
100
AcDbProxyObject
 90
      499
 91
      518
 95
       25
 70
     0
 93
      852
310
4050D5452414E5353455454494E4753A2488A482AE929C8EA8A4829CA69882A8929E9C0C00800050D4F524947494E414C4C595F4F4E0600400028529A7AAA921A2A620A723A0A81A52827212AAA0A48AA68AA4AC8A0C0080001107B44574753455454494E4753454E447D0
  0
ACAD_PROXY_OBJECT
  5
181
330
17F
100
AcDbProxyObject
 90
      499
 91
      527
 95
       25
 70
     0
 93
       86
310
5DEA0C80A0280A0280A034
  0
ACAD_PROXY_OBJECT
  5
182
330
17F
100
AcDbProxyObject
 90
      499
 91
      528
 95
       25
 70
     0
 93
      282
310
5DD0E4050140501405014050140501405014050141101405014041000000000000001000
340
187
 94
        0
  0
ACAD_PROXY_OBJECT
  5
183
330
17F
100
AcDbProxyObject
 90
      499
 91
      529
 95
       25
 70
     0
 93
      323
310
5DCC199999999999E99F91740501405014050140501405014050140501405014050140501405014040
340
0
 94
        0
  0
ACAD_PROXY_OBJECT
  5
184
330
17F
100
AcDbProxyObject
 90
      499
 91
      530
 95
       25
 70
     0
 93
       10
310
5DC0
  0
ACAD_PROXY_OBJECT
  5
185
330
17F
100
AcDbProxyObject
 90
      499
 91
      531
 95
       25
 70
     0
 93
      257
310
5DE0C16A22A7D90F49F80000000000001081400000000000004204010000618000
340
188
340
189
 94
        0
  0
ACAD_PROXY_OBJECT
  5
186
330
17F
100
AcDbProxyObject
 90
      499
 91
      532
 95
       25
 70
     0
 93
     5277
310
5DD06411255115350141236025B6901405014069010000000000000910240690120281A8AA2CA0282484A4BE52028120280A032020000000000001220480D202405044E414D454050496BC914F4051C40640A80000000000004E4090193C3D3C4946284953424C414E4B28504152543A4E414D45292C424C4F434B3A4E414D
310
452C504152543A4E414D45293E3C41435F44455343524950544E3E40480A109A82A88AA492829880A091BBD2F7E80A3A80C81D0E27A15AF46E08A81203480901411393D5115014124A363B7D0147501904A0000000000000F902406428F4F1050D7D393D5114F901202832B22A72227A92028366EF6EE06F582028EA0320B4
310
0000000000001F20480C879E9E20A1AFAB27222FA620A122A61F20240506445020000000000000490201C00030C00010180000000000003E400000000000000F901073D3C4954454D3E4050180000000000003E400000000000000F901073D3C4954454D3E40501800000000000034400000000000000D101073D3C4954454
310
D3E40501800000000000034400000000000000D101073D3C4954454D3E405029010000000000000F9000000000000003E4041CF4F125511534F901418F4F1455164F9014060000000000000F9000000000000003E4041CF4F125511534F901800000000000034400000000000000D101073D3C4954454D3E40640400000000
310
0000003E400000000000000F90288800000000000020810000001800120881A068120480A032208521122080D21480D211480A1485214852050000000000003C2FC000000000000F0BF40600800030C0200400030C00CDCCCCCCCCCCEC3F3373333333333B0FC3333333333330940C80D069014090341504901A1999999999
310
9984A040100006180400800061804010000618008098A02808
340
0
340
0
 94
        0
  0
ACAD_PROXY_OBJECT
  5
1C476
330
17F
100
AcDbProxyObject
 90
      499
 91
      561
 95
       25
 70
     0
 93
     3042
310
5DD9740D29254D064A49535F413342929254D7D512551311505134A49535F42525F5265766973696F6E6C6973744190F4134522028323937783231306D6D2941D29254D7D04D1490E41312028353934783834316D6D2941929254D7D04C50F41344C2028323130783239376D6D2941D29254D7D04D1310E413320283239377
310
83432306D6D2941929254D7D04CD0E41322028343230783539346D6D2941929254D7D04C90F4130202838343178313138396D6D2941929254D7D04C10243129254C82557247A25E4C81050A4A49535F5449544C454143129254C82557247A25E4C81090A4A49535F5449544C45424110E979A97F0838A835883675F42525F4
310
4D29254D7D09497D4995D9A5CDA5BDB9B1A5CDD10E979A97F0838A835883675F54525F44D29254D7D51497D4995D9A5CDA5BDB9B1A5CDD10E979A97F0838A835883675F424C5F44D29254D7D09317D4995D9A5CDA5BDB9B1A5CDD10E979A97F0838A835883675F544C5F44D29254D7D51317D4995D9A5CDA5BDB9B1A5CDD00
  0
ACAD_PROXY_OBJECT
  5
1C477
330
17F
100
AcDbProxyObject
 90
      499
 91
      562
 95
       25
 70
     0
 93
      898
310
5DC4000000000000124048CF4F11115510525317D3105091530F880A0F11115510525317D05094D4D0D053114F8A50241C9A9999999999B93F26A666666666724FC000000000000E03F400000000000000400000000000000510000000000000024408070000C300000000000000049000
340
16
340
180
 94
        0
  0
ACAD_PROXY_OBJECT
  5
1C478
330
17F
100
AcDbProxyObject
 90
      499
 91
      563
 95
       25
 70
     0
 93
      823
310
5DC0B00000000000002480959E9E29A2A1AA24A7A72FA620A122A62FA324A929AA1F169E29A2A1AA24A7A72FA620A122A62FA620A9AA1F000000000000048803FFFE01C00030C008140380006180000000000000048800000000000000A2000000000000002480
340
652
340
180
 94
        0
  0
ACAD_PROXY_OBJECT
  5
1C47A
330
17F
100
AcDbProxyObject
 90
      499
 91
      564
 95
       25
 70
     0
 93
      152
310
5DE8273108AC1C5A0640A3D0A5723F0BD1F200
  0
ACAD_PROXY_OBJECT
  5
1C47B
330
17F
100
AcDbProxyObject
 90
      499
 91
      565
 95
       25
 70
     0
 93
       14
310
5DE0
340
0
 94
        0
  0
ACAD_PROXY_OBJECT
  5
1C47C
330
17F
100
AcDbProxyObject
 90
      499
 91
      566
 95
       25
 70
     0
 93
     6059
310
5DD084050BA4050AA405024050E836583938376838C815B83672031405983D3C486F6C653A6469613E3C696628657175616C28486F6C653A7465726D696E6174696F6E2C223022292C2220905B82B320222C22208368838A838B22293E3C696628657175616C28486F6C653A7465726D696E6174696F6E2C223022292C486F
310
6C653A64657074682C2222293E2C203C486F6C653A63746469613E2082B482AE82E882CC905B82B3203C486F6C653A637464657074683E406901405034050E836583938376838C815B83672031405EF3D3C486F6C653A6374616E676C653E252564202525633C486F6C653A63746469613E208E4D8C8A2C203C69662865717
310
5616C28486F6C653A7461707065642C223022292C22252563222C486F6C653A6E6F6D696E616C202220782022293E3C696628657175616C28486F6C653A7461707065642C223022292C486F6C653A6469612C486F6C653A706974636864657363293E203C696628657175616C28486F6C653A7465726D696E6174696F6E2C2
310
23022292C22905B82B320222C222022293E3C696628657175616C28486F6C653A7465726D696E6174696F6E2C223022292C486F6C653A64657074682C2222293E406901405014050E836583938376838C815B83672031405C73D3C696628657175616C28486F6C653A7461707065642C223022292C22252563222C486F6C65
310
3A6E6F6D696E616C202220782022293E3C696628657175616C28486F6C653A7461707065642C223022292C486F6C653A6469612C486F6C653A706974636864657363293E203C696628657175616C28486F6C653A7465726D696E6174696F6E2C223022292C22905B82B320222C222022293E3C696628657175616C28486F6C
310
653A7465726D696E6174696F6E2C223022292C486F6C653A64657074682C2222293E4069014051E4090E836583938376838C815B83672032405173D3C535444503A444553433E203C535444503A5354443E40690E836583938376838C815B836720314050C3D3C535444503A444553433E40690240515AAABBA120
360
1C480
330
1C480
360
1C481
330
1C481
360
1C47F
330
1C47F
360
1C47E
360
1C47D
330
1C47E
330
1C47D
 94
        0
  0
ACAD_PROXY_OBJECT
  5
1C482
330
17F
100
AcDbProxyObject
 90
      499
 91
      568
 95
       25
 70
     0
 93
       26
310
5DD02A80
340
42
 94
        0
  0
ACAD_PROXY_OBJECT
  5
1C483
330
17F
100
AcDbProxyObject
 90
      499
 91
      569
 95
       25
 70
     0
 93
      250
310
5DD020000000000000A1000000000000002440408F0F9023C3E409A0DCFFFF80
340
58
340
1B97
340
1B98
340
5F
340
60
340
61
340
62
340
63
340
68
340
0
 94
        0
  0
ACAD_PROXY_OBJECT
  5
1C484
330
17F
100
AcDbProxyObject
 90
      499
 91
      570
 95
       25
 70
     0
 93
    13889
310
5DD1D003FFFFFFFD030300030CCCCCCCCCCCC250200800030C01030300030CCCCCCCCCCCC250200800030C00050C8DC0955782CC838A83588367014ED1D15395149050D3CB1294138B0C0B23702555E0B320E2A0D620D9CB11D15395149055160B095CCB0A11D1539354D1C819D95B991A5B5E880CCC0A78000C0000000000
310
00000000000000000000010CCCCCCCCCCCC250200800030C010CCCCCCCCCCCC250200800030C020143CF4F111959985D5B1D151A5D1B194F8050A8C8A8365815B8375838B014E51D15395149050D3CB1294138B0C0B2322A0D96056E0DD60E2CB11D15395149055160B095CCB0A11D1539354D1C819D95B991A5B5E880CCC4
310
A78000C000000000000000000000000000000010CCCCCCCCCCCC250200800030C010CCCCCCCCCCCC250200800030C020143CF4F111959985D5B1D151A5D1B194F90D44111409034110541D0C4350F4050E44D03449074510F000141232D24D7C053247454E545241434F2C4A504E2C302C8CB4935F2C47454E54524154582C
310
25732C2847454E4D53472067656E64696D7A20312900010104002214000281464500A608E8A9CA8A482869E5894A09C5860591914588E8A9CA8A482A8B0584AE658508E8A9C9AA68E40CECADCC8D2DAF4406452029E9E9E27B934B3B4B71F1E24A31427A91424A9A12620A7259427B934B3B4B7149624A9A12620A7259424B
310
A32B6949496111116111711149F1E24BA32B69F00808200111A000140560052F47454E545241434F2C4A504E2C302C582C47454E54524154582C25732C2847454E4D53472067656E64696D7A20332900010100002054000280AC80A5E8E8A9CA8A482869E5894A09C586058B2588E8A9CA8A482A8B0584AE658508E8A9C9AA
310
68E40CECADCC8D2DAF4406852000202000040E800050152014BD1D15395149050D3CB1294138B0C0B148B11D15395149055160B095CCB0A11D1539354D1C819D95B991A5B5E880D8A400040400008250000A0507A6029823A2A72A2920A1A79625282716181641E99623A2A72A2920AA2C1612B9961423A2A726A9A39033B2
310
B73234B6BD101B948000808180105A000140A0F4C053047454E545241434F2C4A504E2C302C83D32C47454E54524154582C25732C2847454E4D53472067656E64696D7A203829000101010020F400028248704B5F00A668E8A9CA8A482869E5894A09C58605921C12D7C588E8A9CA8A482A8B0584AE658508E8A9C9AA68E40
310
CECADCC8D2DAF440646052000200080043280005048B4B8A69014CD1D15395149050D3CB1294138B0C0B22D2E29A4B11D15395149055160B095CCB0A11D1539354D1C819D95B991A5B5E880C8C4A4000400100086D0000A09196926BE029923A2A72A2920A1A796252827161816465A49AF9623A2A72A2920AA2C1612B9961
310
423A2A726A9A39033B2B73234B6BD10189480A02620202080043E80005048D8096DA014CD1D15395149050D3CB1294138B0C0B236025B68B11D15395149055160B095CCB0A11D1539354D1C819D95B991A5B5E880C4D0A4000404140280D0000A190687072706CD06C5069D06B0029DA3A2A72A2920A1A7962528271618164
310
1A1C1C9C1B341B141A741AC1623A2A72A2920AA2C1612B9961423A2A726A9A39033B2B73234B6BD10189A94800080820050EA000143A322A0D0E0E4E0D9A0D8A0D3A0D60053D47454E545241434F2C4A504E2C302C8C8A8343839383668362834E83582C47454E54524154582C25732C2847454E4D53472067656E64696D7A
310
2031372900010105002274000281464500A628E8A9CA8A482869E5894A09C5860591914588E8A9CA8A482A8B0584AE658508E8A9C9AA68E40CECADCC8D2DAF440626C52000202080044A8000504909497CA014CD1D15395149050D3CB1294138B0C0B242525F28B11D15395149055160B095CCB0A11D1539354D1C819D95B9
310
91A5B5E880C4E4A400040418008A521E000000000000001CA040C00000000000034408080000000000006881010000000000000D102040000000000001A204080000000000003440818000000000000728103000000000000125020600000000004028A040000000000000034408000000000000004881000000000000000D
310
102000000000000001A204000000000000003440818000000000000508143C0000000000000039408180000000000006881030000000000000D102060000000000001A2040C00000000000034408180000000000006881030000000000000E5020600000000000024A040C0000000000805140800000000000000688100000
310
00000000009102000000000000001A2040000000000000034408180000000000006881030000000000000A10284220000000878000002020000008380000020400000081800000208000000828000002028900000000
340
0
340
0
340
0
340
0
340
180
340
180
 94
        0
  0
ACAD_PROXY_OBJECT
  5
1C480
330
1C47C
100
AcDbProxyObject
 90
      499
 91
      567
 95
       25
 70
     0
 93
     1376
310
5DE0143A0D960E4E0DDA0E32056E0D9C80C405983D3C486F6C653A6469613E3C696628657175616C28486F6C653A7465726D696E6174696F6E2C223022292C2220905B82B320222C22208368838A838B22293E3C696628657175616C28486F6C653A7465726D696E6174696F6E2C223022292C486F6C653A64657074682C22
310
22293E2C203C486F6C653A63746469613E2082B482AE82E882CC905B82B3203C486F6C653A637464657074683E
  0
ACAD_PROXY_OBJECT
  5
1C481
330
1C47C
100
AcDbProxyObject
 90
      499
 91
      567
 95
       25
 70
     0
 93
     2072
310
5DE0143A0D960E4E0DDA0E32056E0D9C80C405EF3D3C486F6C653A6374616E676C653E252564202525633C486F6C653A63746469613E208E4D8C8A2C203C696628657175616C28486F6C653A7461707065642C223022292C22252563222C486F6C653A6E6F6D696E616C202220782022293E3C696628657175616C28486F6C
310
653A7461707065642C223022292C486F6C653A6469612C486F6C653A706974636864657363293E203C696628657175616C28486F6C653A7465726D696E6174696F6E2C223022292C22905B82B320222C222022293E3C696628657175616C28486F6C653A7465726D696E6174696F6E2C223022292C486F6C653A6465707468
310
2C2222293E
  0
ACAD_PROXY_OBJECT
  5
1C47F
330
1C47C
100
AcDbProxyObject
 90
      499
 91
      567
 95
       25
 70
     0
 93
     1752
310
5DE0143A0D960E4E0DDA0E32056E0D9C80C405C73D3C696628657175616C28486F6C653A7461707065642C223022292C22252563222C486F6C653A6E6F6D696E616C202220782022293E3C696628657175616C28486F6C653A7461707065642C223022292C486F6C653A6469612C486F6C653A706974636864657363293E20
310
3C696628657175616C28486F6C653A7465726D696E6174696F6E2C223022292C22905B82B320222C222022293E3C696628657175616C28486F6C653A7465726D696E6174696F6E2C223022292C486F6C653A64657074682C2222293E
  0
ACAD_PROXY_OBJECT
  5
1C47E
330
1C47C
100
AcDbProxyObject
 90
      499
 91
      567
 95
       25
 70
     0
 93
      344
310
5DE0143A0D960E4E0DDA0E32056E0D9C80C805173D3C535444503A444553433E203C535444503A5354443E
  0
ACAD_PROXY_OBJECT
  5
1C47D
330
1C47C
100
AcDbProxyObject
 90
      499
 91
      567
 95
       25
 70
     0
 93
      256
310
5DE0143A0D960E4E0DDA0E32056E0D9C80C4050C3D3C535444503A444553433E
  0
ENDSEC
  0
EOF
