  0
SECTION
  2
HEADER
  9
$ACADVER
  1
AC1015
  9
$ACADMAINTVER
 70
     6
  9
$DWGCODEPAGE
  3
ANSI_932
  9
$INSBASE
 10
0.0
 20
0.0
 30
0.0
  9
$EXTMIN
 10
-109.1109294423114
 20
-139.9322968970392
 30
0.0
  9
$EXTMAX
 10
206.1047814322928
 20
37.50269778802539
 30
0.0
  9
$LIMMIN
 10
0.0
 20
0.0
  9
$LIMMAX
 10
420.0
 20
297.0
  9
$ORTHOMODE
 70
     0
  9
$REGENMODE
 70
     1
  9
$FILLMODE
 70
     1
  9
$QTEXTMODE
 70
     0
  9
$MIRRTEXT
 70
     1
  9
$LTSCALE
 40
1.0
  9
$ATTMODE
 70
     1
  9
$TEXTSIZE
 40
4.0
  9
$TRACEWID
 40
1.0
  9
$TEXTSTYLE
  7
STANDARD
  9
$CLAYER
  8
AM_0
  9
$CELTYPE
  6
ByLayer
  9
$CECOLOR
 62
   256
  9
$CELTSCALE
 40
1.0
  9
$DISPSILH
 70
     0
  9
$DIMSCALE
 40
1.0
  9
$DIMASZ
 40
2.5
  9
$DIMEXO
 40
0.0
  9
$DIMDLI
 40
10.0
  9
$DIMRND
 40
0.0
  9
$DIMDLE
 40
0.0
  9
$DIMEXE
 40
1.0
  9
$DIMTP
 40
0.1
  9
$DIMTM
 40
0.1000000001
  9
$DIMTXT
 40
3.8
  9
$DIMCEN
 40
0.0
  9
$DIMTSZ
 40
0.0
  9
$DIMTOL
 70
     0
  9
$DIMLIM
 70
     0
  9
$DIMTIH
 70
     0
  9
$DIMTOH
 70
     0
  9
$DIMSE1
 70
     0
  9
$DIMSE2
 70
     0
  9
$DIMTAD
 70
     3
  9
$DIMZIN
 70
     1
  9
$DIMBLK
  1
Open30
  9
$DIMASO
 70
     1
  9
$DIMSHO
 70
     1
  9
$DIMPOST
  1

  9
$DIMAPOST
  1
"
  9
$DIMALT
 70
     0
  9
$DIMALTD
 70
     2
  9
$DIMALTF
 40
0.0393701
  9
$DIMLFAC
 40
1.0
  9
$DIMTOFL
 70
     1
  9
$DIMTVP
 40
0.0
  9
$DIMTIX
 70
     0
  9
$DIMSOXD
 70
     0
  9
$DIMSAH
 70
     0
  9
$DIMBLK1
  1

  9
$DIMBLK2
  1

  9
$DIMSTYLE
  2
AM_JIS
  9
$DIMCLRD
 70
   256
  9
$DIMCLRE
 70
   256
  9
$DIMCLRT
 70
     2
  9
$DIMTFAC
 40
0.71
  9
$DIMGAP
 40
1.5
  9
$DIMJUST
 70
     0
  9
$DIMSD1
 70
     0
  9
$DIMSD2
 70
     0
  9
$DIMTOLJ
 70
     0
  9
$DIMTZIN
 70
     8
  9
$DIMALTZ
 70
     0
  9
$DIMALTTZ
 70
     0
  9
$DIMUPT
 70
     0
  9
$DIMDEC
 70
     0
  9
$DIMTDEC
 70
     3
  9
$DIMALTU
 70
     2
  9
$DIMALTTD
 70
     2
  9
$DIMTXSTY
  7
STANDARD
  9
$DIMAUNIT
 70
     1
  9
$DIMADEC
 70
     0
  9
$DIMALTRND
 40
0.0
  9
$DIMAZIN
 70
     2
  9
$DIMDSEP
 70
    46
  9
$DIMATFIT
 70
     3
  9
$DIMFRAC
 70
     0
  9
$DIMLDRBLK
  1
Open30
  9
$DIMLUNIT
 70
     2
  9
$DIMLWD
 70
    -1
  9
$DIMLWE
 70
    -1
  9
$DIMTMOVE
 70
     0
  9
$LUNITS
 70
     2
  9
$LUPREC
 70
     4
  9
$SKETCHINC
 40
1.0
  9
$FILLETRAD
 40
0.2
  9
$AUNITS
 70
     0
  9
$AUPREC
 70
     4
  9
$MENU
  1
.
  9
$ELEVATION
 40
0.0
  9
$PELEVATION
 40
0.0
  9
$THICKNESS
 40
0.0
  9
$LIMCHECK
 70
     0
  9
$CHAMFERA
 40
2.0
  9
$CHAMFERB
 40
2.0
  9
$CHAMFERC
 40
20.0
  9
$CHAMFERD
 40
0.0
  9
$SKPOLY
 70
     0
  9
$TDCREATE
 40
2451943.610431667
  9
$TDUCREATE
 40
2451943.235431667
  9
$TDUPDATE
 40
2455478.577757338
  9
$TDUUPDATE
 40
2455478.202757338
  9
$TDINDWG
 40
1.5755563079
  9
$TDUSRTIMER
 40
1.5755561343
  9
$USRTIMER
 70
     1
  9
$ANGBASE
 50
0.0
  9
$ANGDIR
 70
     0
  9
$PDMODE
 70
     0
  9
$PDSIZE
 40
0.0
  9
$PLINEWID
 40
0.0
  9
$SPLFRAME
 70
     0
  9
$SPLINETYPE
 70
     6
  9
$SPLINESEGS
 70
     8
  9
$HANDSEED
  5
18888
  9
$SURFTAB1
 70
     6
  9
$SURFTAB2
 70
     6
  9
$SURFTYPE
 70
     6
  9
$SURFU
 70
     6
  9
$SURFV
 70
     6
  9
$UCSBASE
  2

  9
$UCSNAME
  2

  9
$UCSORG
 10
0.0
 20
0.0
 30
0.0
  9
$UCSXDIR
 10
1.0
 20
0.0
 30
0.0
  9
$UCSYDIR
 10
0.0
 20
1.0
 30
0.0
  9
$UCSORTHOREF
  2

  9
$UCSORTHOVIEW
 70
     0
  9
$UCSORGTOP
 10
0.0
 20
0.0
 30
0.0
  9
$UCSORGBOTTOM
 10
0.0
 20
0.0
 30
0.0
  9
$UCSORGLEFT
 10
0.0
 20
0.0
 30
0.0
  9
$UCSORGRIGHT
 10
0.0
 20
0.0
 30
0.0
  9
$UCSORGFRONT
 10
0.0
 20
0.0
 30
0.0
  9
$UCSORGBACK
 10
0.0
 20
0.0
 30
0.0
  9
$PUCSBASE
  2

  9
$PUCSNAME
  2

  9
$PUCSORG
 10
0.0
 20
0.0
 30
0.0
  9
$PUCSXDIR
 10
1.0
 20
0.0
 30
0.0
  9
$PUCSYDIR
 10
0.0
 20
1.0
 30
0.0
  9
$PUCSORTHOREF
  2

  9
$PUCSORTHOVIEW
 70
     0
  9
$PUCSORGTOP
 10
0.0
 20
0.0
 30
0.0
  9
$PUCSORGBOTTOM
 10
0.0
 20
0.0
 30
0.0
  9
$PUCSORGLEFT
 10
0.0
 20
0.0
 30
0.0
  9
$PUCSORGRIGHT
 10
0.0
 20
0.0
 30
0.0
  9
$PUCSORGFRONT
 10
0.0
 20
0.0
 30
0.0
  9
$PUCSORGBACK
 10
0.0
 20
0.0
 30
0.0
  9
$USERI1
 70
     0
  9
$USERI2
 70
     0
  9
$USERI3
 70
     0
  9
$USERI4
 70
     0
  9
$USERI5
 70
     0
  9
$USERR1
 40
0.0
  9
$USERR2
 40
0.0
  9
$USERR3
 40
0.0
  9
$USERR4
 40
0.0
  9
$USERR5
 40
0.0
  9
$WORLDVIEW
 70
     1
  9
$SHADEDGE
 70
     3
  9
$SHADEDIF
 70
    70
  9
$TILEMODE
 70
     1
  9
$MAXACTVP
 70
    64
  9
$PINSBASE
 10
0.0
 20
0.0
 30
0.0
  9
$PLIMCHECK
 70
     0
  9
$PEXTMIN
 10
1.000000000000000E+20
 20
1.000000000000000E+20
 30
1.000000000000000E+20
  9
$PEXTMAX
 10
-1.000000000000000E+20
 20
-1.000000000000000E+20
 30
-1.000000000000000E+20
  9
$PLIMMIN
 10
0.0
 20
0.0
  9
$PLIMMAX
 10
420.0
 20
297.0
  9
$UNITMODE
 70
     0
  9
$VISRETAIN
 70
     1
  9
$PLINEGEN
 70
     0
  9
$PSLTSCALE
 70
     1
  9
$TREEDEPTH
 70
  3020
  9
$CMLSTYLE
  2
Standard
  9
$CMLJUST
 70
     0
  9
$CMLSCALE
 40
20.0
  9
$PROXYGRAPHICS
 70
     1
  9
$MEASUREMENT
 70
     1
  9
$CELWEIGHT
370
    -1
  9
$ENDCAPS
280
     0
  9
$JOINSTYLE
280
     0
  9
$LWDISPLAY
290
     0
  9
$INSUNITS
 70
     4
  9
$HYPERLINKBASE
  1

  9
$STYLESHEET
  1
sei_cad.ctb
  9
$XEDIT
290
     1
  9
$CEPSNTYPE
380
     0
  9
$PSTYLEMODE
290
     1
  9
$FINGERPRINTGUID
  2
{C77AB3BE-9CA2-11D3-BAF3-006094EB760E}
  9
$VERSIONGUID
  2
{8AA4EF28-E0B3-44A6-89D1-C8AA277E754C}
  9
$EXTNAMES
290
     1
  9
$PSVPSCALE
 40
0.0
  9
$OLESTARTUP
290
     0
  0
ENDSEC
  0
SECTION
  2
CLASSES
  0
CLASS
  1
ACDBDICTIONARYWDFLT
  2
AcDbDictionaryWithDefault
  3
ObjectDBX Classes
 90
        0
280
     0
281
     0
  0
CLASS
  1
ACDBPLACEHOLDER
  2
AcDbPlaceHolder
  3
ObjectDBX Classes
 90
        0
280
     0
281
     0
  0
CLASS
  1
LAYOUT
  2
AcDbLayout
  3
ObjectDBX Classes
 90
        0
280
     0
281
     0
  0
CLASS
  1
ACME_DOCUMENT
  2
AcMeDbDoc
  3
AcMeServices
 90
        0
280
     1
281
     0
  0
CLASS
  1
ACMESCOPE
  2
AcMeScope
  3
AcMeServices
 90
        0
280
     1
281
     0
  0
CLASS
  1
ACMECOMMANDHISTORY
  2
AcMeCommandHistory
  3
AcMeServices
 90
        0
280
     1
281
     0
  0
CLASS
  1
DICTIONARYVAR
  2
AcDbDictionaryVar
  3
ObjectDBX Classes
 90
        0
280
     0
281
     0
  0
CLASS
  1
ACIMSYSVARMAN
  2
AcImSysVarManager
  3
AcMeServices
 90
        0
280
     1
281
     0
  0
CLASS
  1
ACIMREALSYSVAR
  2
AcImRealSysVar
  3
AcMeServices
 90
        0
280
     1
281
     0
  0
CLASS
  1
ACIMINTSYSVAR
  2
AcImIntSysVar
  3
AcMeServices
 90
        0
280
     1
281
     0
  0
CLASS
  1
ACMEDRAWINGMAN
  2
AcMeDrawingMan
  3
AcMeServices
 90
        0
280
     1
281
     0
  0
CLASS
  1
ACMEVIEW
  2
AcMeView
  3
AcMeServices
 90
        0
280
     1
281
     0
  0
CLASS
  1
ACDBENTITYCACHE
  2
AcMeEntityCache
  3
AcMeServices
 90
        0
280
     1
281
     0
  0
CLASS
  1
GSMANAGER
  2
AcMeGSManager
  3
AcMeServices
 90
        0
280
     1
281
     0
  0
CLASS
  1
AMDTINTERNALREACTOR
  2
AmdtInternalReactor
  3
AcMeServices
 90
        0
280
     1
281
     0
  0
CLASS
  1
ACMESTATEMGR
  2
AcMeStateMgr
  3
AcMeServices
 90
        0
280
     1
281
     0
  0
CLASS
  1
ACME_DATABASE
  2
AcMeDbDatabase
  3
AcMeServices
 90
        0
280
     1
281
     0
  0
CLASS
  1
ACRFINSADJUSTERMGR
  2
AcRfInsAdjusterMgr
  3
AcMeServices
 90
        0
280
     1
281
     0
  0
CLASS
  1
AMGSETTINGSOBJ
  2
AmgSettingsObj
  3
"AcadM|Product Description: AutoCAD Mechanical 2000|Company: Autodesk"
 90
        0
280
     1
281
     0
  0
CLASS
  1
AMGOBJPROPCFG
  2
AmgObjPropCfg
  3
"AmgLay|Product Description: AutoCAD Mechanical 2000|Company: Autodesk"
 90
        1
280
     1
281
     0
  0
CLASS
  1
ACMDATADICTIONARY
  2
AcmDataDictionary
  3
"AcmSymBB|Product Description: AutoCAD Mechanical 2004 DX|Company: Autodesk"
 90
        0
280
     1
281
     0
  0
CLASS
  1
ACMDATAENTRYBLOCK
  2
AcmDataEntryBlock
  3
"AcmSymBB|Product Description: AutoCAD Mechanical 2004 DX|Company: Autodesk"
 90
        0
280
     1
281
     0
  0
CLASS
  1
ACIMSTRSYSVAR
  2
AcImStrSysVar
  3
AcMeServices
 90
        0
280
     1
281
     0
  0
CLASS
  1
ACAMGFILTERDAT
  2
AcAmgFilterDat
  3
"AcadM|Product Description: AutoCAD Mechanical 2000|Company: Autodesk"
 90
        0
280
     1
281
     0
  0
CLASS
  1
LAYER_INDEX
  2
AcDbLayerIndex
  3
ObjectDBX Classes
 90
        0
280
     0
281
     0
  0
CLASS
  1
IDBUFFER
  2
AcDbIdBuffer
  3
ObjectDBX Classes
 90
        0
280
     0
281
     0
  0
CLASS
  1
ACMSTANDARDJIS
  2
AcmStandardJIS
  3
"Amdt_StdImp|Product Description: AutoCAD Mechanical 2004 DX|Company: Autodesk"
 90
        0
280
     1
281
     0
  0
CLASS
  1
ACMSURFSTANDARDJIS
  2
AcmSurfTextStdJIS
  3
"Amdt_StdImp|Product Description: AutoCAD Mechanical 2004 DX|Company: Autodesk"
 90
        0
280
     1
281
     0
  0
CLASS
  1
ACMFCFSTANDARDJIS
  2
AcmFCFStdJIS
  3
"Amdt_StdImp|Product Description: AutoCAD Mechanical 2004 DX|Company: Autodesk"
 90
        0
280
     1
281
     0
  0
CLASS
  1
ACMWELDSTANDARDJIS
  2
AcmWeldingStdJIS
  3
"Amdt_StdImp|Product Description: AutoCAD Mechanical 2004 DX|Company: Autodesk"
 90
        0
280
     1
281
     0
  0
CLASS
  1
ACMIDSTANDARDJIS
  2
AcmIdStdJIS
  3
"Amdt_StdImp|Product Description: AutoCAD Mechanical 2004 DX|Company: Autodesk"
 90
        0
280
     1
281
     0
  0
CLASS
  1
ACMDATUMSTANDARDJIS
  2
AcmDatumStdJIS
  3
"Amdt_StdImp|Product Description: AutoCAD Mechanical 2004 DX|Company: Autodesk"
 90
        0
280
     1
281
     0
  0
CLASS
  1
ACMBOMSTANDARDJIS
  2
AcmBOMStdJIS
  3
"Amdt_StdImp|Product Description: AutoCAD Mechanical 2004 DX|Company: Autodesk"
 90
        0
280
     1
281
     0
  0
CLASS
  1
AMDTNOTE
  2
AmdtNote
  3
"AcmSymBB|Product Description: AutoCAD Mechanical 2004 DX|Company: Autodesk"
 90
     1023
280
     1
281
     1
  0
CLASS
  1
TABLESTYLE
  2
AcDbTableStyle
  3
ObjectDBX Classes
 90
     2047
280
     0
281
     0
  0
CLASS
  1
ACGREFMASTER
  2
AcGrefMaster
  3
AcAttribServices
 90
        0
280
     1
281
     0
  0
CLASS
  1
AM_DRAWING_MGR
  2
AcDmDwgMgr
  3
AcMechDwgViewMgmt
 90
        0
280
     1
281
     0
  0
CLASS
  1
AM_DWG_DOCUMENT
  2
AcDmDwgDocument
  3
AcMechDwgViewMgmt
 90
        0
280
     1
281
     0
  0
CLASS
  1
AM_DWG_SHEET
  2
AcDmSheet
  3
AcMechDwgViewMgmt
 90
        0
280
     1
281
     0
  0
CLASS
  1
AM_VIEWDIMPARMAP
  2
AcDmViewDimParMap
  3
AcMechDwgViewMgmt
 90
        0
280
     1
281
     0
  0
CLASS
  1
AM_DWGMGR_NAME
  2
AcDmDwgMgrName
  3
AcMechDwgViewMgmt
 90
        0
280
     1
281
     0
  0
CLASS
  1
ACGREFACADMASTER
  2
AcGrefacadMaster
  3
AcGrefServices
 90
        0
280
     1
281
     0
  0
CLASS
  1
AMDTMENUSTATEMGR
  2
AmdtMenuStateMgr
  3
McadcomServices
 90
        0
280
     1
281
     0
  0
CLASS
  1
AMDTMCOMMENUSTATE
  2
AmdtMcomMenuState
  3
McadcomServices
 90
        0
280
     1
281
     0
  0
CLASS
  1
AMIMASTER
  2
AmiMaster
  3
AmiServices
 90
        0
280
     1
281
     0
  0
CLASS
  1
MAPIAMMOUDLE
  2
MApiAmModule
  3
MApiAmServices
 90
        0
280
     1
281
     0
  0
CLASS
  1
AMDTADMENUSTATE
  2
AmdtAdMenuState
  3
DesignerServices
 90
        0
280
     1
281
     0
  0
CLASS
  1
ADAPPL
  2
AcAdAppl
  3
DesignerServices
 90
        0
280
     1
281
     0
  0
CLASS
  1
DEPMGR
  2
AcAdDepMgr
  3
DesignerServices
 90
        0
280
     1
281
     0
  0
CLASS
  1
PARAMMGR
  2
AcAdParamMgr
  3
DesignerServices
 90
        0
280
     1
281
     0
  0
CLASS
  1
PARAMSCOPE
  2
AcAdParamScope
  3
DesignerServices
 90
        0
280
     1
281
     0
  0
CLASS
  1
NAMEDAPPL
  2
AcAdNamedAppl
  3
DesignerServices
 90
        0
280
     1
281
     0
  0
CLASS
  1
AMDTDMMENUSTATE
  2
AmdtDmMenuState
  3
AcMechDwgViewMgmt
 90
        0
280
     1
281
     0
  0
CLASS
  1
AMDTAMMENUSTATE
  2
AmdtAmMenuState
  3
DesignerAssemblies
 90
        0
280
     1
281
     0
  0
CLASS
  1
ACAMPROJECT
  2
AcAmProject
  3
DesignerAssemblies
 90
        0
280
     1
281
     0
  0
CLASS
  1
ACAMGRCOMPDEF
  2
AcAmGrCompDef
  3
DesignerAssemblies
 90
        0
280
     1
281
     0
  0
CLASS
  1
ACCMCONTEXT
  2
AcCmContext
  3
DesignerAssemblies
 90
        0
280
     1
281
     0
  0
CLASS
  1
ACAMCOMPDEF
  2
AcAmCompDef
  3
DesignerAssemblies
 90
        0
280
     1
281
     0
  0
CLASS
  1
ACAMCOMPDEFMGR
  2
AcAmCompDefMgr
  3
DesignerAssemblies
 90
        0
280
     1
281
     0
  0
CLASS
  1
AMCONTEXTMGR
  2
AcAmContextMgr
  3
DesignerAssemblies
 90
        0
280
     1
281
     0
  0
CLASS
  1
ACAMCONTEXTMODELER
  2
AcAmContextModeler
  3
DesignerAssemblies
 90
        0
280
     1
281
     0
  0
CLASS
  1
ACAMGTITLESTD
  2
AcAmgTitleStd
  3
"TITLEAPP"
 90
        0
280
     1
281
     0
  0
CLASS
  1
ACMDETAILSTANDARDJIS
  2
AmdtDetailSymStdJIS
  3
"Amdt_StdImp|Product Description: AutoCAD Mechanical 2004 DX|Company: Autodesk"
 90
        0
280
     1
281
     0
  0
CLASS
  1
ACMSECTIONSTANDARDJIS
  2
AmdtSectionSymStdJIS
  3
"Amdt_StdImp|Product Description: AutoCAD Mechanical 2004 DX|Company: Autodesk"
 90
        0
280
     1
281
     0
  0
CLASS
  1
ACMCENTERLINESTANDARDJIS
  2
AmdtCenterLineStdJIS
  3
"Amdt_StdImp|Product Description: AutoCAD Mechanical 2004 DX|Company: Autodesk"
 90
        0
280
     1
281
     0
  0
CLASS
  1
ACMTHREADLINESTANDARDJIS
  2
AmdtThreadLineStdJIS
  3
"Amdt_StdImp|Product Description: AutoCAD Mechanical 2004 DX|Company: Autodesk"
 90
        0
280
     1
281
     0
  0
CLASS
  1
ACMNOTESTANDARDJIS
  2
AmdtNoteStdJIS
  3
"Amdt_StdImp|Product Description: AutoCAD Mechanical 2004 DX|Company: Autodesk"
 90
        0
280
     1
281
     0
  0
CLASS
  1
AMDTNOTETEMPLATEDB
  2
AmdtNoteTemplateDB
  3
AMDT_STDIMP_MODULE_NAME
 90
        0
280
     1
281
     0
  0
CLASS
  1
ACAMGLAYSTD
  2
AcAmgLayStd
  3
"AcAmgLayStd|Product Description: AutoCAD Mechanical 2000|Company: Autodesk"
 90
        0
280
     1
281
     0
  0
CLASS
  1
ACAMGDIMSTD
  2
AcAmgDimStd
  3
"AcAmgDimStd|Product Description: AutoCAD Mechanical 2000|Company: Autodesk"
 90
        0
280
     1
281
     0
  0
CLASS
  1
ACAMGHOLECHARTSTDJIS
  2
AcAmgHoleChartStdJIS
  3
ACMSYMBB_MODULE_NAME
 90
        0
280
     1
281
     0
  0
CLASS
  1
CATALOGSTATE
  2
AcAmCatalogState
  3
DesignerAssemblies
 90
        0
280
     1
281
     0
  0
CLASS
  1
ACAMGRCOMPDEFSET
  2
AcAmGrCompDefSet
  3
DesignerAssemblies
 90
        0
280
     1
281
     0
  0
CLASS
  1
AMDTBROWSERDBTAB
  2
AmdtBrowserDbTab
  3
McadcomServices
 90
        0
280
     1
281
     0
  0
CLASS
  1
CBROWSERAPPOBJECT
  2
CBrowserAppObject
  3
McadcomServices
 90
        0
280
     1
281
     0
  0
CLASS
  1
DM_PLACEHOLDER
  2
AcDmSelsetPlaceholder
  3
AcMechDwgViewMgmt
 90
        0
280
     1
281
     0
  0
CLASS
  1
SORTENTSTABLE
  2
AcDbSortentsTable
  3
ObjectDBX Classes
 90
        0
280
     0
281
     0
  0
ENDSEC
  0
SECTION
  2
TABLES
  0
TABLE
  2
VPORT
  5
8
330
0
100
AcDbSymbolTable
 70
     3
  0
VPORT
  5
18880
330
8
100
AcDbSymbolTableRecord
100
AcDbViewportTableRecord
  2
*Active
 70
     0
 10
0.0
 20
0.0
 11
1.0
 21
1.0
 12
114.3691136268745
 22
-51.21724933842346
 13
0.0
 23
0.0
 14
2.5
 24
2.5
 15
10.0
 25
10.0
 16
0.0
 26
0.0
 36
1.0
 17
0.0
 27
0.0
 37
0.0
 40
231.0500919362281
 41
1.943262411347518
 42
50.0
 43
0.0
 44
0.0
 50
0.0
 51
0.0
 71
    16
 72
  2000
 73
     1
 74
     3
 75
     0
 76
     0
 77
     0
 78
     0
281
     0
 65
     1
110
0.0
120
0.0
130
0.0
111
1.0
121
0.0
131
0.0
112
0.0
122
1.0
132
0.0
 79
     0
146
0.0
  0
ENDTAB
  0
TABLE
  2
LTYPE
  5
5
330
0
100
AcDbSymbolTable
 70
    13
  0
LTYPE
  5
14
330
5
100
AcDbSymbolTableRecord
100
AcDbLinetypeTableRecord
  2
ByBlock
 70
     0
  3

 72
    65
 73
     0
 40
0.0
  0
LTYPE
  5
15
330
5
100
AcDbSymbolTableRecord
100
AcDbLinetypeTableRecord
  2
ByLayer
 70
     0
  3

 72
    65
 73
     0
 40
0.0
  0
LTYPE
  5
16
330
5
100
AcDbSymbolTableRecord
100
AcDbLinetypeTableRecord
  2
Continuous
 70
     0
  3
Solid line
 72
    65
 73
     0
 40
0.0
  0
LTYPE
  5
43
330
5
100
AcDbSymbolTableRecord
100
AcDbLinetypeTableRecord
  2
AM_ISO02W050
 70
     0
  3
__ __ __ __ __ __ __ __ __ __ __ __ __ __ __
 72
    65
 73
     2
 40
7.5
 49
6.0
 74
     0
 49
-1.5
 74
     0
  0
LTYPE
  5
44
330
5
100
AcDbSymbolTableRecord
100
AcDbLinetypeTableRecord
  2
AM_ISO08W050
 70
     0
  3
____ . ____ . ____ . ____ . ____ . ____ . ____
 72
    65
 73
     4
 40
18.0
 49
12.0
 74
     0
 49
-1.5
 74
     0
 49
3.0
 74
     0
 49
-1.5
 74
     0
  0
LTYPE
  5
45
330
5
100
AcDbSymbolTableRecord
100
AcDbLinetypeTableRecord
  2
AM_ISO09W050
 70
     0
  3
_____ . . _____ . . _____ . . ____ .. ____
 72
    65
 73
     6
 40
22.5
 49
12.0
 74
     0
 49
-1.5
 74
     0
 49
3.0
 74
     0
 49
-1.5
 74
     0
 49
3.0
 74
     0
 49
-1.5
 74
     0
  0
LTYPE
  5
46
330
5
100
AcDbSymbolTableRecord
100
AcDbLinetypeTableRecord
  2
Amconstr
 70
     0
  3
_______________________
 72
    65
 73
     2
 40
9999.0
 49
9999.0
 74
     0
 49
0.0
 74
     0
  0
LTYPE
  5
47
330
5
100
AcDbSymbolTableRecord
100
AcDbLinetypeTableRecord
  2
AM_ISO02W050x2
 70
     0
  3
 _ _ _ _ _ _ _ _ _ _ _ _
 72
    65
 73
     2
 40
3.75
 49
3.0
 74
     0
 49
-0.75
 74
     0
  0
LTYPE
  5
48
330
5
100
AcDbSymbolTableRecord
100
AcDbLinetypeTableRecord
  2
AM_ISO08W050x2
 70
     0
  3
__ . __ . __ . __ . __ . __
 72
    65
 73
     4
 40
9.0
 49
6.0
 74
     0
 49
-0.75
 74
     0
 49
1.5
 74
     0
 49
-0.75
 74
     0
  0
LTYPE
  5
4B
330
5
100
AcDbSymbolTableRecord
100
AcDbLinetypeTableRecord
  2
Amzigzag
 70
     0
  3
/\/-/\/-/\/-/\/-/\/-/\/
 72
    65
 73
     2
 40
11.0001
 49
0.0001
 74
     4
 75
   135
340
4A
 46
0.04
 50
0.0
 44
0.0
 45
0.0
 49
-11.0
 74
     0
  0
LTYPE
  5
188
330
5
100
AcDbSymbolTableRecord
100
AcDbLinetypeTableRecord
  2
ACJISTGB
 70
     0
  3
__ . . __ . .
 72
    65
 73
     6
 40
9.0
 49
4.0
 74
     0
 49
-1.0
 74
     0
 49
1.0
 74
     0
 49
-1.0
 74
     0
 49
1.0
 74
     0
 49
-1.0
 74
     0
  0
LTYPE
  5
189
330
5
100
AcDbSymbolTableRecord
100
AcDbLinetypeTableRecord
  2
ACJISTGL
 70
     0
  3
_ _ _ _ _
 72
    65
 73
     2
 40
3.0
 49
2.0
 74
     0
 49
-1.0
 74
     0
  0
LTYPE
  5
652
330
5
100
AcDbSymbolTableRecord
100
AcDbLinetypeTableRecord
  2
CENTER
 70
     0
  3
____ _ ____ _ ____ _ ____ _ ____ _ ____ _ ____
 72
    65
 73
     4
 40
17.5
 49
13.0
 74
     0
 49
-1.5
 74
     0
 49
1.5
 74
     0
 49
-1.5
 74
     0
  0
LTYPE
  5
12AB
330
5
100
AcDbSymbolTableRecord
100
AcDbLinetypeTableRecord
  2
HIDDEN
 70
     0
  3
Hidden __ __ __ __ __ __ __ __ __ __ __ __ __ _
 72
    65
 73
     2
 40
0.375
 49
0.25
 74
     0
 49
-0.125
 74
     0
  0
LTYPE
  5
12AC
330
5
100
AcDbSymbolTableRecord
100
AcDbLinetypeTableRecord
  2
PHANTOM2
 70
     0
  3
Phantom (.5x) ___ _ _ ___ _ _ ___ _ _ ___ _ _
 72
    65
 73
     6
 40
1.25
 49
0.625
 74
     0
 49
-0.125
 74
     0
 49
0.125
 74
     0
 49
-0.125
 74
     0
 49
0.125
 74
     0
 49
-0.125
 74
     0
  0
ENDTAB
  0
TABLE
  2
LAYER
  5
2
102
{ACAD_XDICTIONARY
360
18440
102
}
330
0
100
AcDbSymbolTable
 70
     7
  0
LAYER
  5
10
330
2
100
AcDbSymbolTableRecord
100
AcDbLayerTableRecord
  2
0
 70
     0
 62
     7
  6
Continuous
370
    -3
390
F
  0
LAYER
  5
7D
330
2
100
AcDbSymbolTableRecord
100
AcDbLayerTableRecord
  2
AM_5
 70
     0
 62
     3
  6
Continuous
370
    13
390
F
  0
LAYER
  5
7F
330
2
100
AcDbSymbolTableRecord
100
AcDbLayerTableRecord
  2
Defpoints
 70
     0
 62
     7
  6
Continuous
290
     0
370
    -3
390
F
  0
LAYER
  5
12B1
330
2
100
AcDbSymbolTableRecord
100
AcDbLayerTableRecord
  2
AM_0
 70
     0
 62
     7
  6
Continuous
370
    30
390
F
  0
LAYER
  5
1AFF
330
2
100
AcDbSymbolTableRecord
100
AcDbLayerTableRecord
  2
AM_7
 70
     0
 62
     4
  6
AM_ISO08W050
370
    13
390
F
  0
LAYER
  5
361D
330
2
100
AcDbSymbolTableRecord
100
AcDbLayerTableRecord
  2
AM_11
 70
     0
 62
     3
  6
AM_ISO09W050
370
    13
390
F
  0
ENDTAB
  0
TABLE
  2
STYLE
  5
3
330
0
100
AcDbSymbolTable
 70
     4
  0
STYLE
  5
11
330
3
100
AcDbSymbolTableRecord
100
AcDbTextStyleTableRecord
  2
STANDARD
 70
     0
 40
0.0
 41
1.0
 50
0.0
 71
     0
 42
4.0
  3
ISOCP.SHX
  4
EXTFONT.SHX
  0
STYLE
  5
4A
330
3
100
AcDbSymbolTableRecord
100
AcDbTextStyleTableRecord
  2

 70
     1
 40
0.0
 41
1.0
 50
0.0
 71
     0
 42
2.5
  3
ltypeshp.shx
  4

  0
STYLE
  5
180
330
3
100
AcDbSymbolTableRecord
100
AcDbTextStyleTableRecord
  2
ACJISTS
 70
     0
 40
1.0
 41
1.0
 50
0.0
 71
     0
 42
2.5
  3
isocp.shx
  4
bigfont.shx
  0
STYLE
  5
187
330
3
100
AcDbSymbolTableRecord
100
AcDbTextStyleTableRecord
  2
ACJISGDT
 70
     0
 40
0.0
 41
1.0
 50
0.0
 71
     0
 42
2.5
  3
amgdt.shx
  4

  0
ENDTAB
  0
TABLE
  2
VIEW
  5
6
330
0
100
AcDbSymbolTable
 70
     6
  0
VIEW
  5
A30
330
6
100
AcDbSymbolTableRecord
100
AcDbViewTableRecord
  2
AM_VIEW1
 70
     0
 40
148.5
 10
108.6929657794677
 20
222.75
 41
217.3859315589354
 11
0.0
 21
0.0
 31
1.0
 12
0.0
 22
0.0
 32
0.0
 42
50.0
 43
0.0
 44
0.0
 50
0.0
 71
    16
281
     0
 72
     0
  0
VIEW
  5
A31
330
6
100
AcDbSymbolTableRecord
100
AcDbViewTableRecord
  2
AM_VIEW2
 70
     0
 40
148.5
 10
311.3070342205323
 20
222.75
 41
217.3859315589354
 11
0.0
 21
0.0
 31
1.0
 12
0.0
 22
0.0
 32
0.0
 42
50.0
 43
0.0
 44
0.0
 50
0.0
 71
    16
281
     0
 72
     0
  0
VIEW
  5
A32
330
6
100
AcDbSymbolTableRecord
100
AcDbViewTableRecord
  2
AM_VIEW3
 70
     0
 40
148.5
 10
108.6929657794677
 20
74.25
 41
217.3859315589354
 11
0.0
 21
0.0
 31
1.0
 12
0.0
 22
0.0
 32
0.0
 42
50.0
 43
0.0
 44
0.0
 50
0.0
 71
    16
281
     0
 72
     0
  0
VIEW
  5
A33
330
6
100
AcDbSymbolTableRecord
100
AcDbViewTableRecord
  2
AM_VIEW4
 70
     0
 40
148.5
 10
311.3070342205323
 20
74.25
 41
217.3859315589354
 11
0.0
 21
0.0
 31
1.0
 12
0.0
 22
0.0
 32
0.0
 42
50.0
 43
0.0
 44
0.0
 50
0.0
 71
    16
281
     0
 72
     0
  0
VIEW
  5
A34
330
6
100
AcDbSymbolTableRecord
100
AcDbViewTableRecord
  2
AM_VIEW5
 70
     0
 40
148.5
 10
210.0
 20
148.5
 41
217.3859315589353
 11
0.0
 21
0.0
 31
1.0
 12
0.0
 22
0.0
 32
0.0
 42
50.0
 43
0.0
 44
0.0
 50
0.0
 71
    16
281
     0
 72
     0
  0
VIEW
  5
A35
330
6
100
AcDbSymbolTableRecord
100
AcDbViewTableRecord
  2
AM_VIEW6
 70
     0
 40
296.99703
 10
210.0
 20
148.5
 41
434.7675153992395
 11
0.0
 21
0.0
 31
1.0
 12
0.0
 22
0.0
 32
0.0
 42
50.0
 43
0.0
 44
0.0
 50
0.0
 71
    16
281
     0
 72
     0
  0
ENDTAB
  0
TABLE
  2
UCS
  5
7
330
0
100
AcDbSymbolTable
 70
     0
  0
ENDTAB
  0
TABLE
  2
APPID
  5
9
330
0
100
AcDbSymbolTable
 70
    42
  0
APPID
  5
12
330
9
100
AcDbSymbolTableRecord
100
AcDbRegAppTableRecord
  2
ACAD
 70
     0
  0
APPID
  5
2C
330
9
100
AcDbSymbolTableRecord
100
AcDbRegAppTableRecord
  2
MCAD_NO_VIS
 70
     0
  0
APPID
  5
2D
330
9
100
AcDbSymbolTableRecord
100
AcDbRegAppTableRecord
  2
ACAD_TEMP_GRAPHIC
 70
     0
  0
APPID
  5
B9
330
9
100
AcDbSymbolTableRecord
100
AcDbRegAppTableRecord
  2
GENIUS_GENDTOL_13
 70
     0
  0
APPID
  5
359
330
9
100
AcDbSymbolTableRecord
100
AcDbRegAppTableRecord
  2
GENIUS_GENREC_14
 70
     0
  0
APPID
  5
35A
330
9
100
AcDbSymbolTableRecord
100
AcDbRegAppTableRecord
  2
GENIUS_GENODEF_13
 70
     0
  0
APPID
  5
35B
330
9
100
AcDbSymbolTableRecord
100
AcDbRegAppTableRecord
  2
GENIUS_GENOBJ-N-REC_13
 70
     0
  0
APPID
  5
667
330
9
100
AcDbSymbolTableRecord
100
AcDbRegAppTableRecord
  2
GENIUS_GENCFG_13
 70
     0
  0
APPID
  5
668
330
9
100
AcDbSymbolTableRecord
100
AcDbRegAppTableRecord
  2
GENIUS_GENCFG0_13
 70
     0
  0
APPID
  5
669
330
9
100
AcDbSymbolTableRecord
100
AcDbRegAppTableRecord
  2
GENIUS_GENCFG1_13
 70
     0
  0
APPID
  5
66A
330
9
100
AcDbSymbolTableRecord
100
AcDbRegAppTableRecord
  2
GENIUS_GENCFG2_13
 70
     0
  0
APPID
  5
66B
330
9
100
AcDbSymbolTableRecord
100
AcDbRegAppTableRecord
  2
GENIUS_GENCFG3_13
 70
     0
  0
APPID
  5
66C
330
9
100
AcDbSymbolTableRecord
100
AcDbRegAppTableRecord
  2
GENIUS_GENCFG4_13
 70
     0
  0
APPID
  5
A76
330
9
100
AcDbSymbolTableRecord
100
AcDbRegAppTableRecord
  2
GENIUS_GENBLLY_14
 70
     0
  0
APPID
  5
A77
330
9
100
AcDbSymbolTableRecord
100
AcDbRegAppTableRecord
  2
GENIUS_GENOBJ-N-CEN_13
 70
     0
  0
APPID
  5
A83
330
9
100
AcDbSymbolTableRecord
100
AcDbRegAppTableRecord
  2
GENIUS_GENTRA_14
 70
     0
  0
APPID
  5
A8D
330
9
100
AcDbSymbolTableRecord
100
AcDbRegAppTableRecord
  2
GENIUS_GENOBJ-N-TIT_13
 70
     0
  0
APPID
  5
A8E
330
9
100
AcDbSymbolTableRecord
100
AcDbRegAppTableRecord
  2
GENIUS_GENTITLE_13
 70
     0
  0
APPID
  5
A8F
330
9
100
AcDbSymbolTableRecord
100
AcDbRegAppTableRecord
  2
GENIUS_GENOENT_13
 70
     0
  0
APPID
  5
A90
330
9
100
AcDbSymbolTableRecord
100
AcDbRegAppTableRecord
  2
GENIUS_GENOREF_13
 70
     0
  0
APPID
  5
A91
330
9
100
AcDbSymbolTableRecord
100
AcDbRegAppTableRecord
  2
GENIUS_GENOLIS_13
 70
     0
  0
APPID
  5
A92
330
9
100
AcDbSymbolTableRecord
100
AcDbRegAppTableRecord
  2
GENIUS_GENZVEED_13
 70
     0
  0
APPID
  5
A93
330
9
100
AcDbSymbolTableRecord
100
AcDbRegAppTableRecord
  2
GENIUS_GENSCREG_15
 70
     0
  0
APPID
  5
A94
330
9
100
AcDbSymbolTableRecord
100
AcDbRegAppTableRecord
  2
GENIUS_GENOBJ-N-SDF_13
 70
     0
  0
APPID
  5
12B5
330
9
100
AcDbSymbolTableRecord
100
AcDbRegAppTableRecord
  2
GENIUS_GENOBJ-N-RSBK_13
 70
     0
  0
APPID
  5
12B6
330
9
100
AcDbSymbolTableRecord
100
AcDbRegAppTableRecord
  2
GENIUS_GENOBJ-N-LIB_13
 70
     0
  0
APPID
  5
12B7
330
9
100
AcDbSymbolTableRecord
100
AcDbRegAppTableRecord
  2
GENIUS_GENSCALE_13
 70
     0
  0
APPID
  5
12B8
330
9
100
AcDbSymbolTableRecord
100
AcDbRegAppTableRecord
  2
GENIUS_GENOBJ-N-HTC_13
 70
     0
  0
APPID
  5
12B9
330
9
100
AcDbSymbolTableRecord
100
AcDbRegAppTableRecord
  2
GENIUS_GENHATCH_13
 70
     0
  0
APPID
  5
1687
330
9
100
AcDbSymbolTableRecord
100
AcDbRegAppTableRecord
  2
BASE_TYPE
 70
     0
  0
APPID
  5
1ABF
330
9
100
AcDbSymbolTableRecord
100
AcDbRegAppTableRecord
  2
GENIUS_GENFIL_13
 70
     0
  0
APPID
  5
1AC0
330
9
100
AcDbSymbolTableRecord
100
AcDbRegAppTableRecord
  2
GENIUS_GENOBJ-N-CHA_13
 70
     0
  0
APPID
  5
1AE7
330
9
100
AcDbSymbolTableRecord
100
AcDbRegAppTableRecord
  2
GENIUS_GENOBJ-N-FIL_13
 70
     0
  0
APPID
  5
20E9
330
9
100
AcDbSymbolTableRecord
100
AcDbRegAppTableRecord
  2
GENIUS_GENDIMSH_14
 70
     0
  0
APPID
  5
17FA4
330
9
100
AcDbSymbolTableRecord
100
AcDbRegAppTableRecord
  2
AD_DRAW
 70
     0
  0
APPID
  5
17FA7
330
9
100
AcDbSymbolTableRecord
100
AcDbRegAppTableRecord
  2
ACATTRIBSERVICES
 70
     0
  0
APPID
  5
17FC5
330
9
100
AcDbSymbolTableRecord
100
AcDbRegAppTableRecord
  2
DESIGNERASSEMBLIES
 70
     0
  0
APPID
  5
17FD8
330
9
100
AcDbSymbolTableRecord
100
AcDbRegAppTableRecord
  2
ACADM_DIM_EDIT
 70
     0
  0
APPID
  5
17FD9
330
9
100
AcDbSymbolTableRecord
100
AcDbRegAppTableRecord
  2
AMDT_DM_ADJ
 70
     0
  0
APPID
  5
180D0
330
9
100
AcDbSymbolTableRecord
100
AcDbRegAppTableRecord
  2
DCO15
 70
     0
  0
APPID
  5
18287
330
9
100
AcDbSymbolTableRecord
100
AcDbRegAppTableRecord
  2
ACAD_DSTYLE_DIMTEXT_FILL
 70
     0
  0
APPID
  5
18288
330
9
100
AcDbSymbolTableRecord
100
AcDbRegAppTableRecord
  2
ACAD_PSEXT
 70
     0
  0
ENDTAB
  0
TABLE
  2
DIMSTYLE
  5
A
330
0
100
AcDbSymbolTable
 70
    10
100
AcDbDimStyleTable
  0
DIMSTYLE
105
58
330
A
100
AcDbSymbolTableRecord
100
AcDbDimStyleTableRecord
  2
AM_JIS
 70
     0
  4
"
 41
2.5
 42
0.0
 43
10.0
 44
1.0
 47
0.1
 48
0.1000000001
 73
     0
 74
     0
 77
     3
 78
     1
 79
     2
140
3.8
141
0.0
143
0.0393701
146
0.71
147
1.5
172
     1
176
   256
177
   256
178
     2
179
     2
271
     3
272
     3
275
     1
283
     0
284
     8
340
11
341
59
342
59
371
    -1
372
    -1
  0
DIMSTYLE
105
5F
102
{ACAD_REACTORS
330
F6A3
330
FF86
102
}
330
A
100
AcDbSymbolTableRecord
100
AcDbDimStyleTableRecord
  2
AM_JIS$3
 70
     0
  4
"
 41
2.5
 42
0.0
 43
10.0
 44
1.0
 47
0.1
 48
0.1000000001
 73
     0
 77
     3
 78
     1
 79
     2
140
3.8
141
0.0
143
0.0393701
146
0.71
147
1.5
172
     1
176
   256
177
   256
178
     2
179
     2
271
     3
272
     3
275
     1
283
     0
284
     8
288
     1
289
     0
340
11
341
59
342
59
371
    -1
372
    -1
  0
DIMSTYLE
105
60
330
A
100
AcDbSymbolTableRecord
100
AcDbDimStyleTableRecord
  2
AM_JIS$4
 70
     0
  4
"
 41
2.5
 42
0.0
 43
10.0
 44
1.0
 47
0.1
 48
0.1000000001
 73
     0
 77
     3
 78
     1
 79
     2
140
3.8
141
0.0
143
0.0393701
146
0.71
147
1.5
172
     1
176
   256
177
   256
178
     2
179
     2
271
     3
272
     3
275
     1
283
     0
284
     8
288
     1
289
     0
340
11
341
59
342
59
371
    -1
372
    -1
  0
DIMSTYLE
105
61
330
A
100
AcDbSymbolTableRecord
100
AcDbDimStyleTableRecord
  2
AM_JIS$6
 70
     0
  4
"
 41
2.5
 42
0.0
 43
10.0
 44
1.0
 47
0.1
 48
0.1000000001
 73
     0
 74
     0
 78
     1
 79
     2
140
3.8
141
0.0
143
0.0393701
146
0.71
147
1.5
172
     1
176
   256
177
   256
178
     2
179
     2
271
     3
272
     3
275
     1
283
     0
284
     8
340
11
341
59
342
59
371
    -1
372
    -1
  0
DIMSTYLE
105
62
330
A
100
AcDbSymbolTableRecord
100
AcDbDimStyleTableRecord
  2
AM_JIS$7
 70
     0
  4
"
 41
2.5
 42
0.0
 43
10.0
 44
1.0
 47
0.1
 48
0.1000000001
 73
     0
 74
     0
 77
     3
 78
     1
 79
     2
140
5.0
141
0.0
143
0.0393701
146
0.71
147
1.5
172
     1
176
   256
177
   256
178
     2
179
     2
271
     3
272
     3
275
     1
283
     0
284
     8
340
11
341
59
342
59
371
    -1
372
    -1
  0
DIMSTYLE
105
63
330
A
100
AcDbSymbolTableRecord
100
AcDbDimStyleTableRecord
  2
AM_JIS$SF
 70
     0
  4
"
 41
2.5
 42
1.0
 43
10.0
 44
1.0
 47
0.1
 48
0.1
 73
     0
 74
     0
 75
     1
 76
     1
 77
     3
 78
     8
 79
     2
140
3.5
141
0.0
143
0.0393701
146
0.71
147
1.5
176
   256
177
   256
178
     2
271
     2
272
     3
274
     4
340
11
341
59
342
59
343
59
344
59
371
    -1
372
    -1
  0
DIMSTYLE
105
68
330
A
100
AcDbSymbolTableRecord
100
AcDbDimStyleTableRecord
  2
AM_JIS$SH
 70
     0
  4
"
 41
2.5
 42
1.0
 43
10.0
 44
1.0
 47
0.1
 48
0.1
 73
     0
 74
     0
 75
     1
 76
     1
 77
     3
 78
     8
 79
     2
140
3.5
141
0.0
143
0.0393701
144
2.0
146
0.71
147
1.5
173
     1
176
   256
177
   256
178
     2
271
     2
272
     3
274
     4
340
11
341
59
342
59
343
64
344
59
371
    -1
372
    -1
  0
DIMSTYLE
105
65F
330
A
100
AcDbSymbolTableRecord
100
AcDbDimStyleTableRecord
  2
STANDARD
 70
     0
340
11
  0
DIMSTYLE
105
1B97
102
{ACAD_REACTORS
330
F478
330
10C41
330
184ED
330
185F6
102
}
330
A
100
AcDbSymbolTableRecord
100
AcDbDimStyleTableRecord
  2
AM_JIS$0
 70
     0
  4
"
 41
2.5
 42
0.0
 43
10.0
 44
1.0
 47
0.1
 48
0.1000000001
 73
     0
 74
     0
 77
     3
 78
     1
 79
     2
140
3.8
141
0.0
143
0.0393701
146
0.71
147
1.5
172
     1
176
     3
177
     3
178
     2
271
     3
272
     3
275
     1
283
     0
284
     8
289
     0
340
11
341
59
342
59
371
    13
372
    13
  0
DIMSTYLE
105
1B98
102
{ACAD_REACTORS
330
18528
330
18625
102
}
330
A
100
AcDbSymbolTableRecord
100
AcDbDimStyleTableRecord
  2
AM_JIS$2
 70
     0
  4
"
 41
2.5
 42
0.0
 43
10.0
 44
1.0
 47
0.1
 48
0.1000000001
 73
     0
 74
     0
 77
     3
 78
     1
 79
     2
140
3.8
141
0.0
143
0.0393701
146
0.71
147
1.5
172
     1
176
     3
177
     3
178
     2
271
     3
272
     3
275
     1
283
     0
284
     8
289
     0
340
11
341
59
342
59
371
    13
372
    13
  0
ENDTAB
  0
TABLE
  2
BLOCK_RECORD
  5
1
330
0
100
AcDbSymbolTable
 70
    12
  0
BLOCK_RECORD
  5
1F
102
{ACAD_XDICTIONARY
360
165
102
}
330
1
100
AcDbSymbolTableRecord
100
AcDbBlockTableRecord
  2
*Model_Space
340
22
  0
BLOCK_RECORD
  5
1B
330
1
100
AcDbSymbolTableRecord
100
AcDbBlockTableRecord
  2
*Paper_Space
340
1E
  0
BLOCK_RECORD
  5
23
330
1
100
AcDbSymbolTableRecord
100
AcDbBlockTableRecord
  2
*Paper_Space0
340
26
  0
BLOCK_RECORD
  5
59
330
1
100
AcDbSymbolTableRecord
100
AcDbBlockTableRecord
  2
_Open30
340
0
102
{BLKREFS
331
18818
331
18819
331
18823
331
18824
331
1882C
331
1882D
331
18833
331
18834
331
1883C
331
1883D
331
18845
331
18846
331
18850
331
18851
331
1885B
331
1885C
102
}
  0
BLOCK_RECORD
  5
64
330
1
100
AcDbSymbolTableRecord
100
AcDbBlockTableRecord
  2
GENAXEH
340
0
  0
BLOCK_RECORD
  5
F479
330
1
100
AcDbSymbolTableRecord
100
AcDbBlockTableRecord
  2
*D3
340
0
  0
BLOCK_RECORD
  5
F6A4
330
1
100
AcDbSymbolTableRecord
100
AcDbBlockTableRecord
  2
*D4
340
0
  0
BLOCK_RECORD
  5
FF87
330
1
100
AcDbSymbolTableRecord
100
AcDbBlockTableRecord
  2
*D5
340
0
  0
BLOCK_RECORD
  5
10C42
330
1
100
AcDbSymbolTableRecord
100
AcDbBlockTableRecord
  2
*D6
340
0
  0
BLOCK_RECORD
  5
17FBC
330
1
100
AcDbSymbolTableRecord
100
AcDbBlockTableRecord
  2
*U7
340
0
  0
BLOCK_RECORD
  5
184EE
330
1
100
AcDbSymbolTableRecord
100
AcDbBlockTableRecord
  2
*D8
340
0
  0
BLOCK_RECORD
  5
18529
330
1
100
AcDbSymbolTableRecord
100
AcDbBlockTableRecord
  2
*D9
340
0
  0
BLOCK_RECORD
  5
185F7
330
1
100
AcDbSymbolTableRecord
100
AcDbBlockTableRecord
  2
*D10
340
0
  0
BLOCK_RECORD
  5
18626
330
1
100
AcDbSymbolTableRecord
100
AcDbBlockTableRecord
  2
*D11
340
0
  0
ENDTAB
  0
ENDSEC
  0
SECTION
  2
BLOCKS
  0
BLOCK
  5
20
330
1F
100
AcDbEntity
  8
0
100
AcDbBlockBegin
  2
*Model_Space
 70
     0
 71
     0
 10
0.0
 20
0.0
 30
0.0
  3
*Model_Space
  1

  0
ENDBLK
  5
21
330
1F
100
AcDbEntity
  8
0
100
AcDbBlockEnd
  0
BLOCK
  5
1C
330
1B
100
AcDbEntity
 67
     1
  8
0
100
AcDbBlockBegin
  2
*Paper_Space
 70
     0
 71
     0
 10
0.0
 20
0.0
 30
0.0
  3
*Paper_Space
  1

  0
ENDBLK
  5
1D
330
1B
100
AcDbEntity
 67
     1
  8
0
100
AcDbBlockEnd
  0
BLOCK
  5
24
330
23
100
AcDbEntity
  8
0
100
AcDbBlockBegin
  2
*Paper_Space0
 70
     0
 71
     0
 10
0.0
 20
0.0
 30
0.0
  3
*Paper_Space0
  1

  0
ENDBLK
  5
25
330
23
100
AcDbEntity
  8
0
100
AcDbBlockEnd
  0
BLOCK
  5
5D
330
59
100
AcDbEntity
  8
0
100
AcDbBlockBegin
  2
_Open30
 70
     0
 71
     0
 10
0.0
 20
0.0
 30
0.0
  3
_Open30
  1

  0
LINE
  5
5A
330
59
100
AcDbEntity
  8
0
 62
     0
370
    -2
100
AcDbLine
 10
-1.0
 20
0.26794919
 30
0.0
 11
0.0
 21
0.0
 31
0.0
  0
LINE
  5
5B
330
59
100
AcDbEntity
  8
0
 62
     0
370
    -2
100
AcDbLine
 10
0.0
 20
0.0
 30
0.0
 11
-1.0
 21
-0.26794919
 31
0.0
  0
LINE
  5
5C
330
59
100
AcDbEntity
  8
0
 62
     0
370
    -2
100
AcDbLine
 10
0.0
 20
0.0
 30
0.0
 11
-1.0
 21
0.0
 31
0.0
  0
ENDBLK
  5
5E
330
59
100
AcDbEntity
  8
0
100
AcDbBlockEnd
  0
BLOCK
  5
66
330
64
100
AcDbEntity
  8
0
100
AcDbBlockBegin
  2
GENAXEH
 70
     0
 71
     0
 10
0.0
 20
0.0
 30
0.0
  3
GENAXEH
  1

  0
LINE
  5
65
330
64
100
AcDbEntity
  8
0
100
AcDbLine
 10
-1.0
 20
0.0
 30
0.0
 11
1.0
 21
0.0
 31
0.0
  0
ENDBLK
  5
67
330
64
100
AcDbEntity
  8
0
100
AcDbBlockEnd
  0
BLOCK
  5
F484
330
F479
100
AcDbEntity
  8
0
100
AcDbBlockBegin
  2
*D3
 70
     1
 71
     0
 10
0.0
 20
0.0
 30
0.0
  3
*D3
  1

  0
LINE
  5
18815
330
F479
100
AcDbEntity
  8
AM_5
 62
     3
370
    13
100
AcDbLine
 10
93.74999999999977
 20
8.216117818584948
 30
0.0
 11
93.74999999999977
 21
-13.28354136660107
 31
0.0
  0
LINE
  5
18816
330
F479
100
AcDbEntity
  8
AM_5
 62
     3
370
    13
100
AcDbLine
 10
108.7499999999998
 20
8.216117818584948
 30
0.0
 11
108.7499999999998
 21
-13.28354136660107
 31
0.0
  0
LINE
  5
18817
330
F479
100
AcDbEntity
  8
AM_5
 62
     3
370
    13
100
AcDbLine
 10
96.24999999999977
 20
-12.28354136660107
 30
0.0
 11
106.2499999999998
 21
-12.28354136660107
 31
0.0
  0
INSERT
  5
18818
330
F479
100
AcDbEntity
  8
AM_5
 62
     3
370
    13
100
AcDbBlockReference
  2
_Open30
 10
93.74999999999977
 20
-12.28354136660107
 30
0.0
 41
2.5
 42
2.5
 43
2.5
 50
180.0
  0
INSERT
  5
18819
330
F479
100
AcDbEntity
  8
AM_5
 62
     3
370
    13
100
AcDbBlockReference
  2
_Open30
 10
108.7499999999998
 20
-12.28354136660107
 30
0.0
 41
2.5
 42
2.5
 43
2.5
  0
MTEXT
  5
1881A
330
F479
100
AcDbEntity
  8
AM_5
 62
     2
100
AcDbMText
 10
101.2499999999998
 20
-8.883541366601071
 30
0.0
 40
3.8
 41
0.0
 71
     5
 72
     1
  1
15
 73
     1
 44
1.0
  0
POINT
  5
1881B
330
F479
100
AcDbEntity
  8
Defpoints
 62
     0
100
AcDbPoint
 10
93.74999999999977
 20
8.216117818584948
 30
0.0
  0
POINT
  5
1881C
330
F479
100
AcDbEntity
  8
Defpoints
 62
     0
100
AcDbPoint
 10
108.7499999999998
 20
8.216117818584948
 30
0.0
  0
POINT
  5
1881D
330
F479
100
AcDbEntity
  8
Defpoints
 62
     0
100
AcDbPoint
 10
108.7499999999998
 20
-12.28354136660107
 30
0.0
  0
ENDBLK
  5
F485
330
F479
100
AcDbEntity
  8
0
100
AcDbBlockEnd
  0
BLOCK
  5
F6AA
330
F6A4
100
AcDbEntity
  8
0
100
AcDbBlockBegin
  2
*D4
 70
     1
 71
     0
 10
0.0
 20
0.0
 30
0.0
  3
*D4
  1

  0
LINE
  5
1881E
330
F6A4
100
AcDbEntity
  8
AM_5
100
AcDbLine
 10
116.7411292048635
 20
26.62767036000098
 30
0.0
 11
108.2126252678552
 21
26.62767036000098
 31
0.0
  0
LINE
  5
1881F
330
F6A4
100
AcDbEntity
  8
AM_5
100
AcDbLine
 10
108.2126252678552
 20
26.62767036000098
 30
0.0
 11
105.5231614738465
 21
20.59114649134408
 31
0.0
  0
LINE
  5
18820
330
F6A4
100
AcDbEntity
  8
AM_5
100
AcDbLine
 10
96.97683852615205
 20
1.408853508655483
 30
0.0
 11
95.95941912761698
 21
-0.8747527988074637
 31
0.0
  0
MTEXT
  5
18821
330
F6A4
100
AcDbEntity
  8
AM_5
 62
     2
100
AcDbMText
 10
113.2268772363595
 20
30.027670360001
 30
0.0
 40
3.8
 41
0.0
 71
     5
 72
     1
  1
\U+220516
 73
     1
 44
1.0
  0
LINE
  5
18822
330
F6A4
100
AcDbEntity
  8
AM_5
100
AcDbLine
 10
97.99425792468711
 20
3.692459816118422
 30
0.0
 11
104.5057420753115
 21
18.30754018388114
 31
0.0
  0
INSERT
  5
18823
330
F6A4
100
AcDbEntity
  8
AM_5
100
AcDbBlockReference
  2
_Open30
 10
97.99425792468711
 20
3.692459816118422
 30
0.0
 41
2.5
 42
2.5
 43
2.5
 50
65.9855040199206
  0
INSERT
  5
18824
330
F6A4
100
AcDbEntity
  8
AM_5
100
AcDbBlockReference
  2
_Open30
 10
104.5057420753115
 20
18.30754018388114
 30
0.0
 41
2.5
 42
2.5
 43
2.5
 50
245.9855040199206
  0
POINT
  5
18825
330
F6A4
100
AcDbEntity
  8
Defpoints
 62
     0
100
AcDbPoint
 10
104.5057420753115
 20
18.30754018388114
 30
0.0
  0
POINT
  5
18826
330
F6A4
100
AcDbEntity
  8
Defpoints
 62
     0
100
AcDbPoint
 10
97.99425792468711
 20
3.692459816118422
 30
0.0
  0
ENDBLK
  5
F6AB
330
F6A4
100
AcDbEntity
  8
0
100
AcDbBlockEnd
  0
BLOCK
  5
FF8D
330
FF87
100
AcDbEntity
  8
0
100
AcDbBlockBegin
  2
*D5
 70
     1
 71
     0
 10
0.0
 20
0.0
 30
0.0
  3
*D5
  1

  0
LINE
  5
18827
330
FF87
100
AcDbEntity
  8
AM_5
100
AcDbLine
 10
-109.1109294423114
 20
25.86861642319599
 30
0.0
 11
-85.24320343282233
 21
25.86861642319601
 31
0.0
  0
LINE
  5
18828
330
FF87
100
AcDbEntity
  8
AM_5
100
AcDbLine
 10
-85.24320343282233
 20
25.86861642319601
 30
0.0
 11
-80.68329253759467
 21
19.99732092108745
 31
0.0
  0
LINE
  5
18829
330
FF87
100
AcDbEntity
  8
AM_5
100
AcDbLine
 10
-65.34871988217863
 20
0.2526790789125819
 30
0.0
 11
-63.81526261663701
 21
-1.721785105304914
 31
0.0
  0
MTEXT
  5
1882A
330
FF87
100
AcDbEntity
  8
AM_5
 62
     2
100
AcDbMText
 10
-97.92706643756685
 20
32.43565710561068
 30
0.0
 40
3.8
 41
0.0
 71
     5
 72
     1
  1
最小加工径\P\U+220520
 73
     1
 44
1.0
  0
LINE
  5
1882B
330
FF87
100
AcDbEntity
  8
AM_5
100
AcDbLine
 10
-66.88217714772024
 20
2.227143263130071
 30
0.0
 11
-79.14983527205305
 21
18.02285673686996
 31
0.0
  0
INSERT
  5
1882C
330
FF87
100
AcDbEntity
  8
AM_5
100
AcDbBlockReference
  2
_Open30
 10
-66.88217714772024
 20
2.227143263130071
 30
0.0
 41
2.5
 42
2.5
 43
2.5
 50
127.8345131218972
  0
INSERT
  5
1882D
330
FF87
100
AcDbEntity
  8
AM_5
100
AcDbBlockReference
  2
_Open30
 10
-79.14983527205305
 20
18.02285673686996
 30
0.0
 41
2.5
 42
2.5
 43
2.5
 50
307.8345131218972
  0
POINT
  5
1882E
330
FF87
100
AcDbEntity
  8
Defpoints
 62
     0
100
AcDbPoint
 10
-79.14983527205305
 20
18.02285673686996
 30
0.0
  0
POINT
  5
1882F
330
FF87
100
AcDbEntity
  8
Defpoints
 62
     0
100
AcDbPoint
 10
-66.88217714772024
 20
2.227143263130071
 30
0.0
  0
ENDBLK
  5
FF8E
330
FF87
100
AcDbEntity
  8
0
100
AcDbBlockEnd
  0
BLOCK
  5
10C4C
330
10C42
100
AcDbEntity
  8
0
100
AcDbBlockBegin
  2
*D6
 70
     1
 71
     0
 10
0.0
 20
0.0
 30
0.0
  3
*D6
  1

  0
LINE
  5
18830
330
10C42
100
AcDbEntity
  8
AM_5
 62
     3
370
    13
100
AcDbLine
 10
29.99999999999989
 20
-97.25393550969466
 30
0.0
 11
29.99999999999989
 21
-114.3185241203499
 31
0.0
  0
LINE
  5
18831
330
10C42
100
AcDbEntity
  8
AM_5
 62
     3
370
    13
100
AcDbLine
 10
0.0
 20
-89.25393550969466
 30
0.0
 11
-0.0000000000000015
 21
-114.3185241203499
 31
0.0
  0
LINE
  5
18832
330
10C42
100
AcDbEntity
  8
AM_5
 62
     3
370
    13
100
AcDbLine
 10
27.49999999999989
 20
-113.3185241203499
 30
0.0
 11
2.499999999999999
 21
-113.3185241203499
 31
0.0
  0
INSERT
  5
18833
330
10C42
100
AcDbEntity
  8
AM_5
 62
     3
370
    13
100
AcDbBlockReference
  2
_Open30
 10
29.99999999999989
 20
-113.3185241203499
 30
0.0
 41
2.5
 42
2.5
 43
2.5
  0
INSERT
  5
18834
330
10C42
100
AcDbEntity
  8
AM_5
 62
     3
370
    13
100
AcDbBlockReference
  2
_Open30
 10
-0.0000000000000015
 20
-113.3185241203499
 30
0.0
 41
2.5
 42
2.5
 43
2.5
 50
180.0
  0
MTEXT
  5
18835
330
10C42
100
AcDbEntity
  8
AM_5
 62
     2
100
AcDbMText
 10
14.99999999999994
 20
-109.9185241203499
 30
0.0
 40
3.8
 41
0.0
 71
     5
 72
     1
  1
30
 73
     1
 44
1.0
  0
POINT
  5
18836
330
10C42
100
AcDbEntity
  8
Defpoints
 62
     0
100
AcDbPoint
 10
29.99999999999989
 20
-97.25393550969466
 30
0.0
  0
POINT
  5
18837
330
10C42
100
AcDbEntity
  8
Defpoints
 62
     0
100
AcDbPoint
 10
0.0
 20
-89.25393550969466
 30
0.0
  0
POINT
  5
18838
330
10C42
100
AcDbEntity
  8
Defpoints
 62
     0
100
AcDbPoint
 10
-0.0000000000000015
 20
-113.3185241203499
 30
0.0
  0
ENDBLK
  5
10C4D
330
10C42
100
AcDbEntity
  8
0
100
AcDbBlockEnd
  0
BLOCK
  5
17FBD
330
17FBC
100
AcDbEntity
  8
0
100
AcDbBlockBegin
  2
*U7
 70
     1
 71
     0
 10
0.0
 20
0.0
 30
0.0
  3
*U7
  1

  0
ENDBLK
  5
17FBE
330
17FBC
100
AcDbEntity
  8
0
100
AcDbBlockEnd
  0
BLOCK
  5
18512
330
184EE
100
AcDbEntity
  8
0
100
AcDbBlockBegin
  2
*D8
 70
     1
 71
     0
 10
0.0
 20
0.0
 30
0.0
  3
*D8
  1

  0
LINE
  5
18839
330
184EE
100
AcDbEntity
  8
AM_5
 62
     3
370
    13
100
AcDbLine
 10
0.0
 20
0.0
 30
0.0
 11
-11.59394823434116
 21
0.0000000000000033
 31
0.0
  0
LINE
  5
1883A
330
184EE
100
AcDbEntity
  8
AM_5
 62
     3
370
    13
100
AcDbLine
 10
-2.165548451965947
 20
11.0
 30
0.0
 11
-11.59394823434116
 21
11.0
 31
0.0
  0
LINE
  5
1883B
330
184EE
100
AcDbEntity
  8
AM_5
 62
     3
370
    13
100
AcDbLine
 10
-10.59394823434116
 20
2.500000000000003
 30
0.0
 11
-10.59394823434116
 21
8.500000000000002
 31
0.0
  0
INSERT
  5
1883C
330
184EE
100
AcDbEntity
  8
AM_5
 62
     3
370
    13
100
AcDbBlockReference
  2
_Open30
 10
-10.59394823434116
 20
0.000000000000003
 30
0.0
 41
2.5
 42
2.5
 43
2.5
 50
270.0
  0
INSERT
  5
1883D
330
184EE
100
AcDbEntity
  8
AM_5
 62
     3
370
    13
100
AcDbBlockReference
  2
_Open30
 10
-10.59394823434116
 20
11.0
 30
0.0
 41
2.5
 42
2.5
 43
2.5
 50
90.0
  0
MTEXT
  5
1883E
330
184EE
100
AcDbEntity
  8
AM_5
 62
     2
100
AcDbMText
 10
-13.99394823434116
 20
5.500000000000001
 30
0.0
 40
3.8
 41
0.0
 71
     5
 72
     1
  1
11
 11
6.123031769111886E-17
 21
1.0
 31
0.0
 73
     1
 44
1.0
  0
POINT
  5
1883F
330
184EE
100
AcDbEntity
  8
Defpoints
 62
     0
100
AcDbPoint
 10
0.0
 20
0.0
 30
0.0
  0
POINT
  5
18840
330
184EE
100
AcDbEntity
  8
Defpoints
 62
     0
100
AcDbPoint
 10
-2.165548451965947
 20
11.0
 30
0.0
  0
POINT
  5
18841
330
184EE
100
AcDbEntity
  8
Defpoints
 62
     0
100
AcDbPoint
 10
-10.59394823434116
 20
11.0
 30
0.0
  0
ENDBLK
  5
18513
330
184EE
100
AcDbEntity
  8
0
100
AcDbBlockEnd
  0
BLOCK
  5
1856D
330
18529
100
AcDbEntity
  8
0
100
AcDbBlockBegin
  2
*D9
 70
     1
 71
     0
 10
0.0
 20
0.0
 30
0.0
  3
*D9
  1

  0
LINE
  5
18842
330
18529
100
AcDbEntity
  8
AM_5
 62
     3
370
    13
100
AcDbLine
 10
0.6975756396396946
 20
8.799779669202934
 30
0.0
 11
2.045051820629778
 21
24.20150289464552
 31
0.0
  0
LINE
  5
18843
330
18529
100
AcDbEntity
  8
AM_5
 62
     3
370
    13
100
AcDbLine
 10
-0.0723053229414328
 20
-0.0000000000000001
 30
0.0
 11
-24.36625402694934
 21
0.0
 31
0.0
  0
ARC
  5
18844
330
18529
100
AcDbEntity
  8
AM_5
 62
     3
370
    13
100
AcDbCircle
 10
-0.0723053229414328
 20
-0.0000000000000001
 30
0.0
 40
23.2939487040079
100
AcDbArc
 50
91.15216790778581
 51
173.8478320922145
  0
INSERT
  5
18845
330
18529
100
AcDbEntity
  8
AM_5
 62
     3
370
    13
100
AcDbBlockReference
  2
_Open30
 10
1.957896077882126
 20
23.20530819655377
 30
0.0
 41
2.5
 42
2.5
 43
2.5
 50
358.076083953893
  0
INSERT
  5
18846
330
18529
100
AcDbEntity
  8
AM_5
 62
     3
370
    13
100
AcDbBlockReference
  2
_Open30
 10
-23.36625402694934
 20
0.0
 30
0.0
 41
2.5
 42
2.5
 43
2.5
 50
266.9239160461073
  0
MTEXT
  5
18847
330
18529
100
AcDbEntity
  8
AM_5
 62
     2
100
AcDbMText
 10
-18.10647566996396
 20
19.68084340943697
 30
0.0
 40
3.8
 41
0.0
 71
     5
 72
     1
  1
95°
 11
0.737277336810123
 21
0.6755902076156614
 31
0.0
 73
     1
 44
1.0
  0
POINT
  5
18848
330
18529
100
AcDbEntity
  8
Defpoints
 62
     0
100
AcDbPoint
 10
-10.52661040493186
 20
20.81623288392068
 30
0.0
  0
POINT
  5
18849
330
18529
100
AcDbEntity
  8
Defpoints
 62
     0
100
AcDbPoint
 10
0.0029856068392746
 20
0.8605792653170568
 30
0.0
  0
POINT
  5
1884A
330
18529
100
AcDbEntity
  8
Defpoints
 62
     0
100
AcDbPoint
 10
0.0
 20
0.0
 30
0.0
  0
POINT
  5
1884B
330
18529
100
AcDbEntity
  8
Defpoints
 62
     0
100
AcDbPoint
 10
0.7999867427823801
 20
0.0000000000000001
 30
0.0
  0
POINT
  5
1884C
330
18529
100
AcDbEntity
  8
Defpoints
 62
     0
100
AcDbPoint
 10
0.6975756396396946
 20
8.799779669202934
 30
0.0
  0
ENDBLK
  5
1856E
330
18529
100
AcDbEntity
  8
0
100
AcDbBlockEnd
  0
BLOCK
  5
18616
330
185F7
100
AcDbEntity
  8
0
100
AcDbBlockBegin
  2
*D10
 70
     1
 71
     0
 10
0.0
 20
0.0
 30
0.0
  3
*D10
  1

  0
LINE
  5
1884D
330
185F7
100
AcDbEntity
  8
AM_5
 62
     3
370
    13
100
AcDbLine
 10
0.0
 20
0.0
 30
0.0
 11
-0.0000000000000025
 21
-40.07854510710234
 31
0.0
  0
LINE
  5
1884E
330
185F7
100
AcDbEntity
  8
AM_5
 62
     3
370
    13
100
AcDbLine
 10
199.9999999999999
 20
3.999999999999972
 30
0.0
 11
199.9999999999999
 21
-40.07854510710234
 31
0.0
  0
LINE
  5
1884F
330
185F7
100
AcDbEntity
  8
AM_5
 62
     3
370
    13
100
AcDbLine
 10
2.499999999999998
 20
-39.07854510710234
 30
0.0
 11
197.4999999999999
 21
-39.07854510710234
 31
0.0
  0
INSERT
  5
18850
330
185F7
100
AcDbEntity
  8
AM_5
 62
     3
370
    13
100
AcDbBlockReference
  2
_Open30
 10
-0.0000000000000024
 20
-39.07854510710234
 30
0.0
 41
2.5
 42
2.5
 43
2.5
 50
180.0
  0
INSERT
  5
18851
330
185F7
100
AcDbEntity
  8
AM_5
 62
     3
370
    13
100
AcDbBlockReference
  2
_Open30
 10
199.9999999999999
 20
-39.07854510710234
 30
0.0
 41
2.5
 42
2.5
 43
2.5
  0
MTEXT
  5
18852
330
185F7
100
AcDbEntity
  8
AM_5
 62
     2
100
AcDbMText
 10
99.99999999999997
 20
-35.67817109135432
 30
0.0
 40
3.8
 41
0.0
 71
     5
 72
     1
  1
200
 73
     1
 44
1.0
  0
POINT
  5
18853
330
185F7
100
AcDbEntity
  8
Defpoints
 62
     0
100
AcDbPoint
 10
0.0
 20
0.0
 30
0.0
  0
POINT
  5
18854
330
185F7
100
AcDbEntity
  8
Defpoints
 62
     0
100
AcDbPoint
 10
199.9999999999999
 20
3.999999999999972
 30
0.0
  0
POINT
  5
18855
330
185F7
100
AcDbEntity
  8
Defpoints
 62
     0
100
AcDbPoint
 10
199.9999999999999
 20
-39.07854510710234
 30
0.0
  0
ENDBLK
  5
18617
330
185F7
100
AcDbEntity
  8
0
100
AcDbBlockEnd
  0
BLOCK
  5
18655
330
18626
100
AcDbEntity
  8
0
100
AcDbBlockBegin
  2
*D11
 70
     1
 71
     0
 10
0.0
 20
0.0
 30
0.0
  3
*D11
  1

  0
LINE
  5
18856
330
18626
100
AcDbEntity
  8
AM_5
 62
     3
370
    13
100
AcDbLine
 10
-73.01600620988677
 20
-0.0007386588083307
 30
0.0
 11
-76.41854300359844
 21
-24.21104594043938
 31
0.0
  0
LINE
  5
18857
330
18626
100
AcDbEntity
  8
AM_5
 62
     3
370
    13
100
AcDbLine
 10
-73.01600620988675
 20
-3.105041805582101
 30
0.0
 11
-73.01600620988677
 21
-24.44897449094065
 31
0.0
  0
ARC
  5
18858
330
18626
100
AcDbEntity
  8
AM_5
 62
     3
370
    13
100
AcDbCircle
 10
-73.01600620988677
 20
-0.0007386588083307
 30
0.0
 40
23.44823583213233
100
AcDbArc
 50
249.7767026349948
 51
255.8883513175556
  0
ARC
  5
18859
330
18626
100
AcDbEntity
  8
AM_5
 62
     3
370
    13
100
AcDbCircle
 10
-73.01600620988677
 20
-0.0007386588083307
 30
0.0
 40
23.44823583213233
100
AcDbArc
 50
276.1116486825608
 51
282.2232973651216
  0
ARC
  5
1885A
330
18626
100
AcDbEntity
  8
AM_5
 62
     3
370
    13
100
AcDbCircle
 10
-73.01600620988677
 20
-0.0007386588083307
 30
0.0
 40
23.44823583213233
100
AcDbArc
 50
262.0000000001164
 51
270.0
  0
INSERT
  5
1885B
330
18626
100
AcDbEntity
  8
AM_5
 62
     3
370
    13
100
AcDbBlockReference
  2
_Open30
 10
-76.27936990264038
 20
-23.22077787169753
 30
0.0
 41
2.5
 42
2.5
 43
2.5
 50
348.944175658836
  0
INSERT
  5
1885C
330
18626
100
AcDbEntity
  8
AM_5
 62
     3
370
    13
100
AcDbBlockReference
  2
_Open30
 10
-73.01600620988677
 20
-23.44897449094065
 30
0.0
 41
2.5
 42
2.5
 43
2.5
 50
183.0558243412804
  0
MTEXT
  5
1885D
330
18626
100
AcDbEntity
  8
AM_5
 62
     2
100
AcDbMText
 10
-81.1245836544046
 20
-18.33602517980526
 30
0.0
 40
3.8
 41
0.0
 71
     5
 72
     1
  1
8°
 11
0.9145586012914916
 21
-0.4044534148746313
 31
0.0
 73
     1
 44
1.0
  0
POINT
  5
1885E
330
18626
100
AcDbEntity
  8
Defpoints
 62
     0
100
AcDbPoint
 10
-74.10694270244724
 20
-23.42358266222718
 30
0.0
  0
POINT
  5
1885F
330
18626
100
AcDbEntity
  8
Defpoints
 62
     0
100
AcDbPoint
 10
-72.89495586994144
 20
0.8605792649355735
 30
0.0
  0
POINT
  5
18860
330
18626
100
AcDbEntity
  8
Defpoints
 62
     0
100
AcDbPoint
 10
-73.01600620988677
 20
23.59843988049299
 30
0.0
  0
POINT
  5
18861
330
18626
100
AcDbEntity
  8
Defpoints
 62
     0
100
AcDbPoint
 10
-73.01600620988675
 20
-3.105041805582101
 30
0.0
  0
POINT
  5
18862
330
18626
100
AcDbEntity
  8
Defpoints
 62
     0
100
AcDbPoint
 10
-71.7791740183262
 20
8.799779668821447
 30
0.0
  0
ENDBLK
  5
18656
330
18626
100
AcDbEntity
  8
0
100
AcDbBlockEnd
  0
ENDSEC
  0
SECTION
  2
ENTITIES
  0
LINE
  5
EA92
330
1F
100
AcDbEntity
  8
AM_0
100
AcDbLine
 10
198.9999999999999
 20
8.216117818584991
 30
0.0
 11
113.7499999999998
 21
8.216117818585005
 31
0.0
  0
LINE
  5
EACB
330
1F
100
AcDbEntity
  8
AM_0
100
AcDbLine
 10
199.9999999999999
 20
3.999999999999972
 30
0.0
 11
199.9999999999999
 21
17.99999999999992
 31
0.0
  0
SPLINE
  5
EACC
330
1F
100
AcDbEntity
  8
AM_0
100
AcDbSpline
210
0.0
220
0.0
230
1.0
 70
    12
 71
     2
 72
     6
 73
     3
 74
     0
 42
0.0000000001
 43
0.0000000001
 40
0.0
 40
0.0
 40
0.0
 40
5.656854249492205
 40
5.656854249492205
 40
5.656854249492205
 10
198.9999999999999
 20
13.78388218141484
 30
0.0
 41
1.0
 10
199.9687499999999
 20
10.99999999999992
 30
0.0
 41
1.066666666666671
 10
198.9999999999999
 20
8.216117818584991
 30
0.0
 41
1.0
  0
LINE
  5
EACD
330
1F
100
AcDbEntity
  8
AM_0
100
AcDbLine
 10
198.9999999999999
 20
2.999999999999972
 30
0.0
 11
198.9999999999999
 21
8.216117818584991
 31
0.0
  0
LINE
  5
EACE
330
1F
100
AcDbEntity
  8
AM_0
100
AcDbLine
 10
199.9999999999999
 20
3.999999999999972
 30
0.0
 11
198.9999999999999
 21
2.999999999999972
 31
0.0
  0
LINE
  5
EACF
330
1F
100
AcDbEntity
  8
AM_0
100
AcDbLine
 10
198.9999999999999
 20
13.78388218141484
 30
0.0
 11
198.9999999999999
 21
18.99999999999992
 31
0.0
  0
LINE
  5
EAD0
330
1F
100
AcDbEntity
  8
AM_0
100
AcDbLine
 10
199.9999999999999
 20
17.99999999999992
 30
0.0
 11
198.9999999999999
 21
18.99999999999992
 31
0.0
  0
LINE
  5
EB7E
330
1F
100
AcDbEntity
  8
AM_0
100
AcDbLine
 10
199.9999999999999
 20
-96.25393550969474
 30
0.0
 11
199.9999999999999
 21
-82.25393550969477
 31
0.0
  0
LINE
  5
EB7F
330
1F
100
AcDbEntity
  8
AM_0
100
AcDbLine
 10
198.9999999999999
 20
-96.75393550969483
 30
0.0
 11
198.9999999999999
 21
-81.75393550969477
 31
0.0
  0
LINE
  5
EB80
330
1F
100
AcDbEntity
  8
AM_0
100
AcDbLine
 10
199.9999999999999
 20
-96.25393550969474
 30
0.0
 11
199.4999999999999
 21
-96.75393550969477
 31
0.0
  0
SPLINE
  5
EB81
330
1F
100
AcDbEntity
  8
AM_0
100
AcDbSpline
210
0.0
220
0.0
230
1.0
 70
    28
 71
     2
 72
     6
 73
     3
 74
     0
 42
0.0000000001
 43
0.0000000001
 40
0.0
 40
0.0
 40
0.0
 40
2.828427124746073
 40
2.828427124746073
 40
2.828427124746073
 10
198.9999999999999
 20
-96.75393550969477
 30
0.0
 41
1.0
 10
199.4999999999996
 20
-96.75393550969477
 30
0.0
 41
1.033333333333335
 10
199.4999999999999
 20
-96.75393550969474
 30
0.0
 41
1.033333333333335
  0
LINE
  5
EB82
330
1F
100
AcDbEntity
  8
AM_0
100
AcDbLine
 10
199.9999999999999
 20
-82.25393550969477
 30
0.0
 11
199.4999999999999
 21
-81.75393550969477
 31
0.0
  0
SPLINE
  5
EB83
330
1F
100
AcDbEntity
  8
AM_0
100
AcDbSpline
210
0.0
220
0.0
230
1.0
 70
    28
 71
     2
 72
     6
 73
     3
 74
     0
 42
0.0000000001
 43
0.0000000001
 40
2.828427124746073
 40
2.828427124746073
 40
2.828427124746073
 40
5.656854249492205
 40
5.656854249492205
 40
5.656854249492205
 10
199.4999999999999
 20
-81.75393550969477
 30
0.0
 41
1.033333333333335
 10
199.4999999999997
 20
-81.75393550969477
 30
0.0
 41
1.033333333333336
 10
198.9999999999999
 20
-81.75393550969477
 30
0.0
 41
1.0
  0
LINE
  5
EF21
330
1F
100
AcDbEntity
  8
AM_7
100
AcDbLine
 10
206.1047814322928
 20
10.99999999999994
 30
0.0
 11
-2.165548451965947
 21
11.0
 31
0.0
1001
GENIUS_GENODEF_13
1002
{
1000
HIER
1070
     0
1002
}
1002
{
1000
MANEDIT
1070
     0
1002
}
1002
{
1000
NOSEL
1070
     0
1002
}
1002
{
1000
BEHIND
1070
     0
1002
}
1002
{
1000
REACTOR
1002
}
1001
GENIUS_GENOBJ-N-CEN_13
1002
{
1000
OWNER
1000
GEN
1002
}
  0
ARC
  5
EF22
330
1F
100
AcDbEntity
  8
AM_0
100
AcDbCircle
 10
101.2499999999998
 20
10.99999999999994
 30
0.0
 40
8.0
100
AcDbArc
 50
200.3641348063178
 51
339.6358651936822
  0
ARC
  5
EF34
330
1F
100
AcDbEntity
  8
AM_0
100
AcDbCircle
 10
101.2499999999998
 20
10.99999999999994
 30
0.0
 40
8.0
100
AcDbArc
 50
20.36413480631778
 51
159.6358651936822
  0
LINE
  5
EF46
330
1F
100
AcDbEntity
  8
AM_0
100
AcDbLine
 10
113.7499999999998
 20
18.99999999999993
 30
0.0
 11
198.9999999999999
 21
18.99999999999992
 31
0.0
  0
LINE
  5
EF47
330
1F
100
AcDbEntity
  8
AM_0
100
AcDbLine
 10
113.7499999999998
 20
13.78388218141485
 30
0.0
 11
198.9999999999999
 21
13.78388218141484
 31
0.0
  0
LINE
  5
EF49
330
1F
100
AcDbEntity
  8
AM_0
100
AcDbLine
 10
113.7499999999998
 20
2.999999999999986
 30
0.0
 11
198.9999999999999
 21
3.0
 31
0.0
  0
LINE
  5
EF4A
330
1F
100
AcDbEntity
  8
AM_0
100
AcDbLine
 10
108.7499999999998
 20
13.78388218141497
 30
0.0
 11
108.7499999999998
 21
8.216117818584948
 31
0.0
  0
LINE
  5
EF4B
330
1F
100
AcDbEntity
  8
AM_0
100
AcDbLine
 10
93.74999999999977
 20
13.78388218141497
 30
0.0
 11
93.74999999999977
 21
8.216117818584948
 31
0.0
  0
LINE
  5
EF61
330
1F
100
AcDbEntity
  8
AM_7
  6
AM_ISO08W050x2
100
AcDbLine
 10
101.2499999999998
 20
22.20813857451877
 30
0.0
 11
101.2499999999998
 21
-0.1839045905009158
 31
0.0
1001
GENIUS_GENODEF_13
1002
{
1000
HIER
1070
     0
1002
}
1002
{
1000
MANEDIT
1070
     0
1002
}
1002
{
1000
NOSEL
1070
     0
1002
}
1002
{
1000
BEHIND
1070
     0
1002
}
1002
{
1000
REACTOR
1002
}
1001
GENIUS_GENOBJ-N-CEN_13
1002
{
1000
OWNER
1000
GEN
1002
}
  0
LINE
  5
EF96
330
1F
100
AcDbEntity
  8
AM_7
100
AcDbLine
 10
-1.773854710452611
 20
-89.25393550969466
 30
0.0
 11
206.1047814322928
 21
-89.25393550969471
 31
0.0
1001
GENIUS_GENODEF_13
1002
{
1000
HIER
1070
     0
1002
}
1002
{
1000
MANEDIT
1070
     0
1002
}
1002
{
1000
NOSEL
1070
     0
1002
}
1002
{
1000
BEHIND
1070
     0
1002
}
1002
{
1000
REACTOR
1002
}
1001
GENIUS_GENOBJ-N-CEN_13
1002
{
1000
OWNER
1000
GEN
1002
}
  0
CIRCLE
  5
F002
330
1F
100
AcDbEntity
  8
AM_11
  6
ACJISTGB
100
AcDbCircle
 10
-73.01600620988677
 20
10.12500000000009
 30
0.0
 40
10.0
  0
LINE
  5
F020
330
1F
100
AcDbEntity
  8
AM_7
  6
AM_ISO08W050x2
100
AcDbLine
 10
-73.01600620988677
 20
23.59843988049299
 30
0.0
 11
-73.01600620988677
 21
-3.105041805582104
 31
0.0
1001
GENIUS_GENODEF_13
1002
{
1000
HIER
1070
     0
1002
}
1002
{
1000
MANEDIT
1070
     0
1002
}
1002
{
1000
NOSEL
1070
     0
1002
}
1002
{
1000
BEHIND
1070
     0
1002
}
1002
{
1000
REACTOR
1002
}
1001
GENIUS_GENOBJ-N-CEN_13
1002
{
1000
OWNER
1000
GEN
1002
}
  0
LINE
  5
F032
330
1F
100
AcDbEntity
  8
AM_7
  6
AM_ISO08W050x2
100
AcDbLine
 10
-86.06246747245689
 20
10.99999999999999
 30
0.0
 11
-59.53198469397705
 21
10.99999999999999
 31
0.0
1001
GENIUS_GENODEF_13
1002
{
1000
HIER
1070
     0
1002
}
1002
{
1000
MANEDIT
1070
     0
1002
}
1002
{
1000
NOSEL
1070
     0
1002
}
1002
{
1000
BEHIND
1070
     0
1002
}
1002
{
1000
REACTOR
1002
}
1001
GENIUS_GENOBJ-N-CEN_13
1002
{
1000
OWNER
1000
GEN
1002
}
  0
DIMENSION
  5
F478
330
1F
100
AcDbEntity
  8
AM_5
100
AcDbDimension
  2
*D3
 10
108.7499999999998
 20
-12.28354136660107
 30
0.0
 11
101.2499999999998
 21
-12.28354136660107
 31
0.0
 70
   160
  1
<>
 71
     5
 42
15.0
  3
AM_JIS$0
100
AcDbAlignedDimension
 13
93.74999999999977
 23
8.216117818584948
 33
0.0
 14
108.7499999999998
 24
8.216117818584948
 34
0.0
100
AcDbRotatedDimension
1001
GENIUS_GENDTOL_13
1000

1000
h7
1000

1040
0.0
1001
ACAD
1000
DSTYLE
1002
{
1070
   271
1070
     0
1002
}
  0
DIMENSION
  5
F6A3
330
1F
100
AcDbEntity
  8
AM_5
100
AcDbDimension
  2
*D4
 10
97.99425792468711
 20
3.692459816118422
 30
0.0
 11
113.2268772363595
 21
26.627670360001
 31
0.0
 70
   163
  1
<>
 71
     5
 42
15.99999999999986
  3
AM_JIS$3
100
AcDbDiametricDimension
 15
104.5057420753115
 25
18.30754018388114
 35
0.0
 40
0.0
1001
GENIUS_GENDTOL_13
1000

1000
h7
1000

1040
0.0
1001
ACAD
1000
DSTYLE
1002
{
1070
   271
1070
     0
1070
   289
1070
     3
1002
}
  0
DIMENSION
  5
FF86
330
1F
100
AcDbEntity
  8
AM_5
100
AcDbDimension
  2
*D5
 10
-66.88217714772024
 20
2.227143263130071
 30
0.0
 11
-97.92706643756685
 21
25.86861642319598
 31
0.0
 70
   163
  1
最小加工径\P<>
 71
     5
 42
19.99999999999992
  3
AM_JIS$3
100
AcDbDiametricDimension
 15
-79.14983527205305
 25
18.02285673686996
 35
0.0
 40
0.0
1001
GENIUS_GENDTOL_13
1000

1000
h7
1000

1040
0.0
1001
ACAD
1000
DSTYLE
1002
{
1070
   271
1070
     0
1070
   288
1070
     1
1070
   289
1070
     3
1070
   172
1070
     1
1070
    74
1070
     1
1002
}
  0
DIMENSION
  5
10C41
330
1F
100
AcDbEntity
  8
AM_5
100
AcDbDimension
  2
*D6
 10
-0.0000000000000015
 20
-113.3185241203499
 30
0.0
 11
14.99999999999994
 21
-109.9185241203499
 31
0.0
 70
    32
  1
<>
 71
     5
 42
29.99999999999989
  3
AM_JIS$0
100
AcDbAlignedDimension
 13
29.99999999999989
 23
-97.25393550969466
 33
0.0
 14
0.0
 24
-89.25393550969466
 34
0.0
100
AcDbRotatedDimension
1001
GENIUS_GENDTOL_13
1000

1000
h7
1000

1040
0.0
1001
ACAD
1000
DSTYLE
1002
{
1070
   271
1070
     0
1002
}
  0
LINE
  5
15FA2
330
1F
100
AcDbEntity
  8
AM_0
100
AcDbLine
 10
0.4870332771998847
 20
-93.07466103677916
 30
0.0
 11
0.0001189091295828
 21
-89.14441531367942
 31
0.0
  0
LINE
  5
15FA3
330
1F
100
AcDbEntity
  8
AM_0
100
AcDbLine
 10
10.26058650006678
 20
-88.33337298672623
 30
0.0
 11
10.31050872581102
 21
-87.93119837999774
 31
0.0
  0
LINE
  5
15FA6
330
1F
100
AcDbEntity
  8
AM_0
100
AcDbLine
 10
18.24999999999989
 20
-97.00393550969466
 30
0.0
 11
15.99070384897016
 21
-98.30834075067077
 31
0.0
  0
LINE
  5
15FA7
330
1F
100
AcDbEntity
  8
AM_0
100
AcDbLine
 10
27.49999999999989
 20
-97.25393550969466
 30
0.0
 11
29.99999999999989
 21
-97.25393550969466
 31
0.0
  0
LINE
  5
15FA8
330
1F
100
AcDbEntity
  8
AM_0
100
AcDbLine
 10
27.24999999999989
 20
-97.00393550969466
 30
0.0
 11
27.49999999999989
 21
-97.25393550969466
 31
0.0
  0
LINE
  5
15FA9
330
1F
100
AcDbEntity
  8
AM_0
100
AcDbLine
 10
18.24999999999989
 20
-97.00393550969466
 30
0.0
 11
27.24999999999989
 21
-97.00393550969466
 31
0.0
  0
LINE
  5
15FAA
330
1F
100
AcDbEntity
  8
AM_0
100
AcDbLine
 10
1.389134480385678
 20
-98.50393550969466
 30
0.0
 11
12.37392479135212
 21
-98.50393550969466
 31
0.0
  0
LINE
  5
15FAB
330
1F
100
AcDbEntity
  8
AM_0
100
AcDbLine
 10
15.99070384897016
 20
-98.30834075067077
 30
0.0
 11
15.15444818063941
 21
-98.38150364145901
 31
0.0
  0
LINE
  5
15FAC
330
1F
100
AcDbEntity
  8
AM_0
100
AcDbLine
 10
10.30764248548303
 20
-87.938885392001
 30
0.0
 11
9.613052452682496
 21
-89.05466724361622
 31
0.0
  0
LINE
  5
15FAD
330
1F
100
AcDbEntity
  8
AM_0
100
AcDbLine
 10
9.126949052605824
 20
-92.98011311961369
 30
0.0
 11
9.36273885618948
 21
-92.6013429512976
 31
0.0
  0
ELLIPSE
  5
15FAE
330
1F
100
AcDbEntity
  8
AM_0
100
AcDbEllipse
 10
8.816038065077578
 20
-89.04496346962577
 30
0.0
 11
-0.7999999943343856
 21
9.521020267544392E-5
 31
0.0
210
0.0
220
0.0
230
0.9999999999999999
 40
0.1391832111909512
 41
1.658924381701862
 42
3.055187783297318
  0
ELLIPSE
  5
15FAF
330
1F
100
AcDbEntity
  8
AM_0
100
AcDbEllipse
 10
8.815570183267141
 20
-92.97632203350477
 30
0.0
 11
0.3125452910020164
 21
-3.719687589038074E-5
 31
0.0
210
0.0
220
0.0
230
1.0
 40
0.1391832111909511
 41
4.80051703529166
 42
6.196780436887111
  0
LINE
  5
15FB0
330
1F
100
AcDbEntity
  8
AM_0
100
AcDbLine
 10
8.886436083527883
 20
-89.15588630782807
 30
0.0
 11
0.8703980128944977
 21
-89.25351178194208
 31
0.0
  0
LINE
  5
15FB1
330
1F
100
AcDbEntity
  8
AM_0
100
AcDbLine
 10
0.8270353242818374
 20
-93.11728302135657
 30
0.0
 11
8.843073394915109
 21
-93.01965754724256
 31
0.0
  0
ELLIPSE
  5
15FB2
330
1F
100
AcDbEntity
  8
AM_0
100
AcDbEllipse
 10
0.7999999944441925
 20
-89.14258894373981
 30
0.0
 11
-0.7999999943343856
 21
9.521020267544392E-5
 31
0.0
210
0.0
220
0.0
230
0.9999999999999999
 40
0.1391832111909512
 41
6.196780436887088
 42
7.942109688881459
  0
ELLIPSE
  5
15FB3
330
1F
100
AcDbEntity
  8
AM_0
100
AcDbEllipse
 10
0.7995321126337558
 20
-93.07394750761878
 30
0.0
 11
0.3125452910020164
 21
-3.719687589038074E-5
 31
0.0
210
0.0
220
0.0
230
1.0
 40
0.1391832111909511
 41
3.158851033337589
 42
4.800517035291693
  0
LINE
  5
15FB4
330
1F
100
AcDbEntity
  8
AM_0
100
AcDbLine
 10
0.0029856068392746
 20
-89.13288516974936
 30
0.0
 11
0.6975756396396946
 21
-88.01710331813413
 31
0.0
  0
ELLIPSE
  5
15FB5
330
1F
100
AcDbEntity
  8
AM_0
100
AcDbEllipse
 10
1.494590027244726
 20
-88.02680709212459
 30
0.0
 11
-0.7999999943343856
 21
9.521020267544392E-5
 31
0.0
210
0.0
220
0.0
230
0.9999999999999999
 40
0.1391832111909512
 41
4.800517035291704
 42
6.19678043688711
  0
LINE
  5
15FB6
330
1F
100
AcDbEntity
  8
AM_0
100
AcDbLine
 10
1.424192008794307
 20
-87.91588425392229
 30
0.0
 11
9.440230079427693
 21
-87.81825877980828
 31
0.0
  0
ELLIPSE
  5
15FB7
330
1F
100
AcDbEntity
  8
AM_0
100
AcDbEllipse
 10
9.510628097878112
 20
-87.92918161801055
 30
0.0
 11
-0.7999999943343856
 21
9.521020267544392E-5
 31
0.0
210
0.0
220
0.0
230
0.9999999999999999
 40
0.1391832111909512
 41
3.055187783297318
 42
4.800517035291654
  0
ELLIPSE
  5
15FB8
330
1F
100
AcDbEntity
  8
AM_0
100
AcDbEllipse
 10
5.155314046161152
 20
-88.53588528087516
 30
0.0
 11
-1.999999985835964
 21
0.0002380255066886099
 31
0.0
210
0.0
220
0.0
230
1.0
 40
0.1391832111909512
 41
0.0008550796045175
 42
6.284040386784102
  0
LINE
  5
15FBA
330
1F
100
AcDbEntity
  8
AM_0
100
AcDbLine
 10
10.21077689716549
 20
-88.41699396435817
 30
0.0
 11
9.801161313221542
 21
-89.07499597003161
 31
0.0
  0
LINE
  5
15FBB
330
1F
100
AcDbEntity
  8
AM_0
100
AcDbLine
 10
9.571403056617555
 20
-89.27998923940993
 30
0.0
 11
10.12792849310301
 21
-88.38599284920969
 31
0.0
  0
LINE
  5
15FBC
330
1F
100
AcDbEntity
  8
AM_0
100
AcDbLine
 10
10.12792849310301
 20
-88.38599284920969
 30
0.0
 11
10.23898593833076
 21
-88.37052233250114
 31
0.0
  0
LINE
  5
15FBD
330
1F
100
AcDbEntity
  8
AM_0
100
AcDbLine
 10
7.897805907313227
 20
-87.8080321881028
 30
0.0
 11
7.897802454579278
 21
-87.83704364919581
 31
0.0
  0
LINE
  5
15FBE
330
1F
100
AcDbEntity
  8
AM_0
100
AcDbLine
 10
1.4192255702485
 20
-87.88799968918121
 30
0.0
 11
7.700338067147413
 21
-87.8115034724629
 31
0.0
  0
ELLIPSE
  5
15FC0
330
1F
100
AcDbEntity
  8
AM_0
100
AcDbEllipse
 10
10.21254471250211
 20
-73.56299435245995
 30
0.0
 11
0.5495810184826182
 21
15.29101026740343
 31
0.0
210
0.0
220
0.0
230
1.0
 40
0.1433615339696757
 41
3.386452462314666
 42
3.459080120035423
  0
ELLIPSE
  5
15FC1
330
1F
100
AcDbEntity
  8
AM_0
100
AcDbEllipse
 10
9.580224684337395
 20
-73.41048565146687
 30
0.0
 11
2.368502084702882
 21
14.83412056271393
 31
0.0
210
0.0
220
0.0
230
1.0
 40
0.7223430605482984
 41
3.431600126207211
 42
3.451302574386187
  0
SPLINE
  5
15FC2
330
1F
100
AcDbEntity
  8
AM_0
100
AcDbSpline
210
0.0
220
0.0
230
1.0
 70
     8
 71
     3
 72
    40
 73
    36
 74
     0
 42
0.0000000001
 43
0.0000000001
 40
2.192705659068084
 40
2.192705659068084
 40
2.192705659068084
 40
2.192705659068084
 40
2.308027435437229
 40
2.308027435437229
 40
2.637835992493462
 40
2.637835992493462
 40
2.968885082343642
 40
2.968885082343642
 40
3.299934172193823
 40
3.299934172193823
 40
3.630983262044004
 40
3.630983262044004
 40
3.962032351894184
 40
3.962032351894184
 40
4.292510756675897
 40
4.292510756675897
 40
4.622989161457611
 40
4.622989161457611
 40
4.953467566239326
 40
4.953467566239326
 40
5.283945971021039
 40
5.283945971021039
 40
5.6139410345212
 40
5.6139410345212
 40
5.943936098021361
 40
5.943936098021361
 40
6.273931161521522
 40
6.273931161521522
 40
6.603926225021683
 40
6.603926225021683
 40
6.935458470304738
 40
6.935458470304738
 40
7.266990715587793
 40
7.266990715587793
 40
7.484074432047888
 40
7.484074432047888
 40
7.484074432047888
 40
7.484074432047888
 10
8.113282200245067
 20
-87.7716560526388
 30
0.0
 10
8.141956057724542
 20
-87.76643400628061
 30
0.0
 10
8.171540181450041
 20
-87.76120332900254
 30
0.0
 10
8.288659452865772
 20
-87.74104063106054
 30
0.0
 10
8.381741089968273
 20
-87.72614365100924
 30
0.0
 10
8.57214993398577
 20
-87.69736046473224
 30
0.0
 10
8.675978875609189
 20
-87.68249760069622
 30
0.0
 10
8.894057934551825
 20
-87.65316666066619
 30
0.0
 10
9.00830466754644
 20
-87.63870013632476
 30
0.0
 10
9.239580766581298
 20
-87.61162620528339
 30
0.0
 10
9.356792284310018
 20
-87.59900579698021
 30
0.0
 10
9.586345208246371
 20
-87.57701370979376
 30
0.0
 10
9.698687306798661
 20
-87.56765609016358
 30
0.0
 10
9.910560426983807
 20
-87.55316834243268
 30
0.0
 10
10.01738907777656
 20
-87.54752335701292
 30
0.0
 10
10.22401170687181
 20
-87.54117450811532
 30
0.0
 10
10.32381067049425
 20
-87.54048207262596
 30
0.0
 10
10.50900481390352
 20
-87.54501814479039
 30
0.0
 10
10.59455035451481
 20
-87.55026009229403
 30
0.0
 10
10.74618007147058
 20
-87.56657853748095
 30
0.0
 10
10.81225652906198
 20
-87.5776603592609
 30
0.0
 10
10.9223354396778
 20
-87.60421019307447
 30
0.0
 10
10.97005066487043
 20
-87.62055947781425
 30
0.0
 10
11.04467753985193
 20
-87.65875548440647
 30
0.0
 10
11.07159898849307
 20
-87.68059743573065
 30
0.0
 10
11.1020204250234
 20
-87.72796024670925
 30
0.0
 10
11.10554669448072
 20
-87.75351015809002
 30
0.0
 10
11.0899669097555
 20
-87.80579726124901
 30
0.0
 10
11.07085183434117
 20
-87.8325220920137
 30
0.0
 10
11.01431026526052
 20
-87.88441689233324
 30
0.0
 10
10.97484698112487
 20
-87.9113831392892
 30
0.0
 10
10.87373848700929
 20
-87.96443453474416
 30
0.0
 10
10.81210147236027
 20
-87.9905076944508
 30
0.0
 10
10.69458668490063
 20
-88.03080647156173
 30
0.0
 10
10.64404426205249
 20
-88.04603733148673
 30
0.0
 10
10.59025301625934
 20
-88.06027207158792
 30
0.0
  0
ELLIPSE
  5
15FC3
330
1F
100
AcDbEntity
  8
AM_0
100
AcDbEllipse
 10
7.768080420395222
 20
-72.97341620024602
 30
0.0
 11
-2.368502084702804
 21
-14.83412056271395
 31
0.0
210
0.0
220
0.0
230
1.0
 40
0.7223430605482826
 41
0.2293623835223217
 42
0.249002519939477
  0
ELLIPSE
  5
15FC4
330
1F
100
AcDbEntity
  8
AM_0
100
AcDbEllipse
 10
7.702105882057253
 20
-72.95750386046177
 30
0.0
 11
-16.45162851688895
 21
-1.072809963722554
 31
0.0
210
0.0
220
0.0
230
1.0
 40
0.9006140193547589
 41
1.512027437431587
 42
1.524010006057251
  0
LINE
  5
15FCC
330
1F
100
AcDbEntity
  8
AM_0
100
AcDbLine
 10
29.99999999999989
 20
-96.75393550969466
 30
0.0
 11
199.0
 21
-96.75393550969466
 31
0.0
  0
LINE
  5
15FCD
330
1F
100
AcDbEntity
  8
AM_0
100
AcDbLine
 10
29.99999999999989
 20
-96.75393550969466
 30
0.0
 11
29.99999999999989
 21
-97.25393550969466
 31
0.0
  0
LINE
  5
15FD2
330
1F
100
AcDbEntity
  8
AM_0
100
AcDbLine
 10
32.38372200145352
 20
-81.75393550969466
 30
0.0
 11
199.0
 21
-81.75393550969474
 31
0.0
  0
LINE
  5
15FDE
330
1F
100
AcDbEntity
  8
AM_0
100
AcDbLine
 10
18.24999999999989
 20
-97.00393550969466
 30
0.0
 11
18.24999999999989
 21
-87.75494088894678
 31
0.0
  0
SPLINE
  5
15FE2
330
1F
100
AcDbEntity
  8
AM_0
100
AcDbSpline
210
0.0
220
0.0
230
1.0
 70
     8
 71
     3
 72
    48
 73
    44
 74
     0
 42
0.0000000001
 43
0.0000000001
 40
3.323876632447531
 40
3.323876632447531
 40
3.323876632447531
 40
3.323876632447531
 40
3.724283092835439
 40
3.724283092835439
 40
4.130923708872509
 40
4.130923708872509
 40
4.53756432490958
 40
4.53756432490958
 40
4.94420494094665
 40
4.94420494094665
 40
5.318536689616411
 40
5.318536689616411
 40
5.692868438286172
 40
5.692868438286172
 40
6.067200186955932
 40
6.067200186955932
 40
6.441531935625693
 40
6.441531935625693
 40
6.821358456922248
 40
6.821358456922248
 40
7.201184978218802
 40
7.201184978218802
 40
7.581011499515356
 40
7.581011499515356
 40
7.960838020811909
 40
7.960838020811909
 40
8.361964253073383
 40
8.361964253073383
 40
8.763090485334857
 40
8.763090485334857
 40
9.164216717596331
 40
9.164216717596331
 40
9.565342949857804
 40
9.565342949857804
 40
9.994110496589524
 40
9.994110496589524
 40
10.42287804332124
 40
10.42287804332124
 40
11.28041313678469
 40
11.28041313678469
 40
11.68143772378453
 40
11.68143772378453
 40
11.71206905480122
 40
11.71206905480122
 40
11.71206905480122
 40
11.71206905480122
 10
7.154176229865357
 20
-98.03014889872594
 30
0.0
 10
7.153835025248441
 20
-98.0723650965183
 30
0.0
 10
7.14256983607288
 20
-98.11330030315051
 30
0.0
 10
7.093712631488529
 20
-98.18945269690869
 30
0.0
 10
7.055697606470176
 20
-98.22457428174974
 30
0.0
 10
6.952903600932473
 20
-98.28643782633407
 30
0.0
 10
6.888023312055793
 20
-98.31325258221381
 30
0.0
 10
6.735516166847333
 20
-98.35856657126794
 30
0.0
 10
6.647876667308992
 20
-98.3770960869193
 30
0.0
 10
6.465912166999829
 20
-98.40595456316348
 30
0.0
 10
6.367209717346782
 20
-98.41766090938344
 30
0.0
 10
6.151811625612822
 20
-98.43670744189078
 30
0.0
 10
6.035122704509263
 20
-98.44407862460912
 30
0.0
 10
5.791350217592367
 20
-98.45523848690633
 30
0.0
 10
5.664061618104483
 20
-98.45905664677051
 30
0.0
 10
5.407825600717274
 20
-98.46395979821367
 30
0.0
 10
5.278876469447027
 20
-98.46504895705357
 30
0.0
 10
5.0274903794583
 20
-98.46504895705357
 30
0.0
 10
4.896712849913797
 20
-98.46392836427526
 30
0.0
 10
4.637060394405467
 20
-98.45888092542018
 30
0.0
 10
4.508183622961155
 20
-98.4549495367298
 30
0.0
 10
4.261675071154059
 20
-98.44343903249362
 30
0.0
 10
4.143830677428127
 20
-98.43582876185417
 30
0.0
 10
3.92669117756725
 20
-98.41613079799706
 30
0.0
 10
3.827403382310081
 20
-98.40401050765132
 30
0.0
 10
3.647498535315094
 20
-98.37452887171878
 30
0.0
 10
3.562042533380804
 20
-98.35592297099697
 30
0.0
 10
3.413375608886213
 20
-98.31061182709027
 30
0.0
 10
3.350152193645386
 20
-98.28387770726542
 30
0.0
 10
3.250014660674538
 20
-98.22238565297076
 30
0.0
 10
3.213003799452167
 20
-98.1875577546673
 30
0.0
 10
3.165090370883036
 20
-98.11162020948012
 30
0.0
 10
3.154177308000044
 20
-98.070505381234
 30
0.0
 10
3.154191832963306
 20
-97.9829300732344
 30
0.0
 10
3.166651942825752
 20
-97.93285161584001
 30
0.0
 10
3.217929652062253
 20
-97.82572896110906
 30
0.0
 10
3.256716943188621
 20
-97.76868678298243
 30
0.0
 10
3.409508747421342
 20
-97.593371354732
 30
0.0
 10
3.561335838485775
 20
-97.47054807947785
 30
0.0
 10
3.823659567476398
 20
-97.31305063914581
 30
0.0
 10
3.919028415221987
 20
-97.26256519879442
 30
0.0
 10
4.032444536480512
 20
-97.2119812666304
 30
0.0
 10
4.040550588833526
 20
-97.20841205415587
 30
0.0
 10
4.048713331977865
 20
-97.20486485493825
 30
0.0
  0
ELLIPSE
  5
15FE3
330
1F
100
AcDbEntity
  8
AM_0
100
AcDbEllipse
 10
10.17213301637764
 20
-89.26412239770031
 30
0.0
 11
-0.1173028858357483
 21
-9.563189631006573
 31
0.0
210
0.0
220
0.0
230
1.0
 40
0.0857671145865272
 41
4.900917588211822
 42
5.112949951906883
  0
ELLIPSE
  5
15FE4
330
1F
100
AcDbEntity
  8
AM_0
100
AcDbEllipse
 10
10.21579070896132
 20
-89.36619352131643
 30
0.0
 11
-1.289047161594731
 21
-9.559077533739252
 31
0.0
210
0.0
220
0.0
230
0.9999999999999999
 40
0.0674014864410555
 41
4.712460055512631
 42
4.898171217921775
  0
SPLINE
  5
15FE5
330
1F
100
AcDbEntity
  8
AM_0
100
AcDbSpline
210
0.0
220
0.0
230
1.0
 70
    12
 71
     2
 72
     6
 73
     3
 74
     0
 42
0.0000000001
 43
0.0000000001
 40
0.757719988579871
 40
0.757719988579871
 40
0.757719988579871
 40
0.9946206138115442
 40
0.9946206138115442
 40
0.9946206138115442
 10
9.798538773118366
 20
-89.27722425400808
 30
0.0
 41
1.000140603559206
 10
9.685090594803455
 20
-89.278605316745
 30
0.0
 41
1.00016084021508
 10
9.571403056617555
 20
-89.2799892394099
 30
0.0
 41
1.000179986883935
  0
ELLIPSE
  5
15FE6
330
1F
100
AcDbEntity
  8
AM_0
100
AcDbEllipse
 10
10.61569938710284
 20
-89.264081060916
 30
0.0
 11
-0.116826889232449
 21
-9.524383716312734
 31
0.0
210
0.0
220
0.0
230
1.0
 40
0.0857671145865328
 41
4.693586975654037
 42
4.7148209583666
  0
SPLINE
  5
15FE7
330
1F
100
AcDbEntity
  8
AM_0
100
AcDbSpline
210
0.0
220
0.0
230
1.0
 70
    12
 71
     2
 72
     6
 73
     3
 74
     0
 42
0.0000000001
 43
0.0000000001
 40
3.405453227635165
 40
3.405453227635165
 40
3.405453227635165
 40
6.489320551501701
 40
6.489320551501701
 40
6.489320551501701
 10
12.78766987320137
 20
-89.03851247181049
 30
0.0
 41
1.000868731689991
 10
11.31556150034805
 20
-89.05650245054517
 30
0.0
 41
1.001154027699269
 10
9.801161313221542
 20
-89.07499596999531
 30
0.0
 41
1.001243627834775
  0
SPLINE
  5
15FE8
330
1F
100
AcDbEntity
  8
AM_0
100
AcDbSpline
210
0.0
220
0.0
230
1.0
 70
     8
 71
     3
 72
    10
 73
     6
 74
     0
 42
0.0000000001
 43
0.0000000001
 40
43.93614323898611
 40
43.93614323898611
 40
43.93614323898611
 40
43.93614323898611
 40
45.15490113579786
 40
45.15490113579786
 40
47.01850069295457
 40
47.01850069295457
 40
47.01850069295457
 40
47.01850069295457
 10
15.99070384897016
 20
-88.70308276754776
 30
0.0
 10
15.56507965196363
 20
-88.78895220996139
 30
0.0
 10
15.13690954024435
 20
-88.85770038395492
 30
0.0
 10
14.05933775569395
 20
-88.98981382432888
 30
0.0
 10
13.41270428033238
 20
-89.03087420558902
 30
0.0
 10
12.78766987320137
 20
-89.03851247181049
 30
0.0
  0
LINE
  5
15FE9
330
1F
100
AcDbEntity
  8
AM_0
100
AcDbLine
 10
15.99070384897016
 20
-98.30834075067077
 30
0.0
 11
15.99070384897016
 21
-88.70308276754776
 31
0.0
  0
SPLINE
  5
15FEA
330
1F
100
AcDbEntity
  8
AM_0
100
AcDbSpline
210
0.0
220
0.0
230
1.0
 70
     8
 71
     3
 72
    12
 73
     8
 74
     0
 42
0.0000000001
 43
0.0000000001
 40
9.741327062930209
 40
9.741327062930209
 40
9.741327062930209
 40
9.741327062930209
 40
10.24915018785556
 40
10.24915018785556
 40
15.37372528178334
 40
15.37372528178334
 40
18.44204044802804
 40
18.44204044802804
 40
18.44204044802804
 40
18.44204044802804
 10
7.154176229865357
 20
-98.03014889872594
 30
0.0
 10
7.306886362430532
 20
-98.05929684468916
 30
0.0
 10
7.460092443374265
 20
-98.08702535235227
 30
0.0
 10
9.164348015217342
 20
-98.37907653099447
 30
0.0
 10
10.75744136128822
 20
-98.5021198057207
 30
0.0
 10
13.28559786423523
 20
-98.50499075553745
 30
0.0
 10
14.22818427636025
 20
-98.46250134089462
 30
0.0
 10
15.15444818063941
 20
-98.38150364145901
 30
0.0
  0
SPLINE
  5
15FEB
330
1F
100
AcDbEntity
  8
AM_0
100
AcDbSpline
210
0.0
220
0.0
230
1.0
 70
     8
 71
     3
 72
    27
 73
    23
 74
     0
 42
0.0000000001
 43
0.0000000001
 40
-1.384535755963896
 40
-1.384535755963896
 40
-1.384535755963896
 40
-1.384535755963896
 40
-0.8624822664184553
 40
-0.8624822664184553
 40
-0.4312411332092285
 40
-0.4312411332092285
 40
0.0
 40
0.0
 40
0.0
 40
0.3732129535523504
 40
0.3732129535523504
 40
0.7464259071047008
 40
0.7464259071047008
 40
1.119638860657051
 40
1.119638860657051
 40
1.492851814209402
 40
1.492851814209402
 40
2.470331868374723
 40
2.470331868374723
 40
2.959071895457384
 40
2.959071895457384
 40
3.336553859060684
 40
3.336553859060684
 40
3.336553859060684
 40
3.336553859060684
 10
4.048713331977865
 20
-97.20486485493825
 30
0.0
 10
4.173919189052185
 20
-97.11542219158474
 30
0.0
 10
4.314538407247369
 20
-97.02949677626893
 30
0.0
 10
4.591950288569592
 20
-96.895719257331
 30
0.0
 10
4.725343147671651
 20
-96.8438034315005
 30
0.0
 10
5.00136357016163
 20
-96.76640900814661
 30
0.0
 10
5.144019152520741
 20
-96.74101262584148
 30
0.0
 10
5.287219196021511
 20
-96.73163568819683
 30
0.0
 10
5.411150117884176
 20
-96.72352051938725
 30
0.0
 10
5.53621159366287
 20
-96.72745333182135
 30
0.0
 10
5.779163981877559
 20
-96.75898540870566
 30
0.0
 10
5.897073550282698
 20
-96.78651550114557
 30
0.0
 10
6.118322911411724
 20
-96.85927461055294
 30
0.0
 10
6.221970277970627
 20
-96.90451095009405
 30
0.0
 10
6.410600364597599
 20
-97.00454162070221
 30
0.0
 10
6.495601241982399
 20
-97.059297176234
 30
0.0
 10
6.765023491900251
 20
-97.25855919371435
 30
0.0
 10
6.92158890750909
 20
-97.43011477793868
 30
0.0
 10
7.071871119085586
 20
-97.68423215953771
 30
0.0
 10
7.108100759549984
 20
-97.76854032409887
 30
0.0
 10
7.146452424888139
 20
-97.91204630385934
 30
0.0
 10
7.154478066449769
 20
-97.9726108625203
 30
0.0
 10
7.154176229865357
 20
-98.03014889872594
 30
0.0
  0
SPLINE
  5
15FEC
330
1F
100
AcDbEntity
  8
AM_0
100
AcDbSpline
210
0.0
220
0.0
230
1.0
 70
     8
 71
     3
 72
    12
 73
     8
 74
     0
 42
0.0000000001
 43
0.0000000001
 40
2.168147595823989
 40
2.168147595823989
 40
2.168147595823989
 40
2.168147595823989
 40
2.562287546963891
 40
2.562287546963891
 40
5.124575093927781
 40
5.124575093927781
 40
6.202113602202175
 40
6.202113602202175
 40
6.202113602202175
 40
6.202113602202175
 10
0.8061161183082959
 20
-95.66911531987387
 30
0.0
 10
0.9049697456074455
 20
-95.73130134158714
 30
0.0
 10
1.004580474404861
 20
-95.79214452701106
 30
0.0
 10
1.757201718847909
 20
-96.23888281986976
 30
0.0
 10
2.439802573977318
 20
-96.57229810595604
 30
0.0
 10
3.442902981733369
 20
-96.98406801345575
 30
0.0
 10
3.743981037685103
 20
-97.09814624275035
 30
0.0
 10
4.048713331977865
 20
-97.20486485493825
 30
0.0
  0
SPLINE
  5
15FED
330
1F
100
AcDbEntity
  8
AM_0
100
AcDbSpline
210
0.0
220
0.0
230
1.0
 70
    12
 71
     2
 72
     6
 73
     3
 74
     0
 42
0.0000000001
 43
0.0000000001
 40
1.812828219813603
 40
1.812828219813603
 40
1.812828219813603
 40
2.074936266146598
 40
2.074936266146598
 40
2.074936266146598
 10
9.371110973034888
 20
-92.98388011276771
 30
0.0
 41
1.00033635087139
 10
9.244989949425186
 20
-92.98545425359509
 30
0.0
 41
1.000355813454179
 10
9.11855944191359
 20
-92.98703200123759
 30
0.0
 41
1.00037387266791
  0
LINE
  5
15FF0
330
1F
100
AcDbEntity
  8
AM_0
100
AcDbLine
 10
1.4192255702485
 20
-87.88799968918121
 30
0.0
 11
1.419571900710253
 21
-87.91594240073297
 31
0.0
  0
ELLIPSE
  5
15FF1
330
1F
100
AcDbEntity
  8
AM_0
100
AcDbEllipse
 10
1.513455898873076
 20
-89.25393550969466
 30
0.0
 11
1.114172612923225E-14
 21
-10.32069796892648
 31
0.0
210
0.0
220
0.0
230
1.0
 40
0.087491226522338
 41
5.095708992914596
 42
5.383152043042354
  0
ELLIPSE
  5
15FF2
330
1F
100
AcDbEntity
  8
AM_0
100
AcDbEllipse
 10
1.389134480385678
 20
-89.25393550969466
 30
0.0
 11
-2.239386610692786E-15
 21
-9.250000000000004
 31
0.0
210
0.0
220
0.0
230
1.0
 40
0.08748866352592
 41
5.478770515567494
 42
6.28318530717959
  0
LINE
  5
15FF3
330
1F
100
AcDbEntity
  8
AM_0
100
AcDbLine
 10
1.607856139200521
 20
-87.58498560093128
 30
0.0
 11
1.4192255702485
 21
-87.88799968918121
 31
0.0
  0
LINE
  5
15FF4
330
1F
100
AcDbEntity
  8
AM_0
100
AcDbLine
 10
1.353836509182202
 20
9.691907779366375
 30
0.0
 11
0.9500472611518944
 21
9.311766246975395
 31
0.0
  0
LINE
  5
15FF5
330
1F
100
AcDbEntity
  8
AM_0
100
AcDbLine
 10
9.66203391973761
 20
10.25585694489917
 30
0.0
 11
9.899368435913289
 21
10.12519227548756
 31
0.0
  0
LINE
  5
15FF9
330
1F
100
AcDbEntity
  8
AM_0
100
AcDbLine
 10
27.49999999999989
 20
2.999999999999972
 30
0.0
 11
88.74999999999977
 21
2.999999999999957
 31
0.0
  0
LINE
  5
15FFA
330
1F
100
AcDbEntity
  8
AM_0
100
AcDbLine
 10
58.57967166127207
 20
18.99999999999997
 30
0.0
 11
88.74999999999977
 21
18.99999999999996
 31
0.0
  0
LINE
  5
15FFE
330
1F
100
AcDbEntity
  8
AM_0
100
AcDbLine
 10
15.99070384897016
 20
1.945594759023862
 30
0.0
 11
9.798822018795477
 21
1.403875292991444
 31
0.0
  0
LINE
  5
15FFF
330
1F
100
AcDbEntity
  8
AM_0
100
AcDbLine
 10
10.30764248548303
 20
9.364425293975955
 30
0.0
 11
9.613052452682496
 21
1.425224890090078
 31
0.0
  0
ELLIPSE
  5
16000
330
1F
100
AcDbEntity
  8
AM_0
100
AcDbEllipse
 10
8.816038065077578
 20
1.493590837176214
 30
0.0
 11
-0.7999997132011778
 21
-0.00067740536830003
 31
0.0
210
0.0
220
0.0
230
1.0
 40
0.9902666407755666
 41
1.658069302097344
 42
3.0543327036928
  0
LINE
  5
16001
330
1F
100
AcDbEntity
  8
AM_0
100
AcDbLine
 10
8.886436083527883
 20
0.7044519121678263
 30
0.0
 11
0.8703980128944977
 21
0.0030743932225334
 31
0.0
  0
ELLIPSE
  5
16002
330
1F
100
AcDbEntity
  8
AM_0
100
AcDbEllipse
 10
0.7999999944441925
 20
0.792213318230921
 30
0.0
 11
-0.7999997132011778
 21
-0.00067740536830003
 31
0.0
210
0.0
220
0.0
230
1.0
 40
0.9902666407755666
 41
6.195925357282571
 42
7.941254609276942
  0
LINE
  5
16003
330
1F
100
AcDbEntity
  8
AM_0
100
AcDbLine
 10
0.0029856068392746
 20
0.8605792653170568
 30
0.0
 11
0.6975756396396946
 21
8.799779669202934
 31
0.0
  0
ELLIPSE
  5
16004
330
1F
100
AcDbEntity
  8
AM_0
100
AcDbEllipse
 10
1.494590027244726
 20
8.731413722116798
 30
0.0
 11
-0.7999997132011778
 21
-0.00067740536830003
 31
0.0
210
0.0
220
0.0
230
1.0
 40
0.9902666407755666
 41
4.799661955687187
 42
6.195925357282593
  0
ELLIPSE
  5
16005
330
1F
100
AcDbEntity
  8
AM_0
100
AcDbEllipse
 10
1.506168104432163
 20
9.421657011927891
 30
0.0
 11
0.3125451811684403
 21
0.000264649824326331
 31
0.0
210
0.0
220
0.0
230
1.0
 40
0.9902666407755665
 41
1.85185223049142
 42
2.079056537608063
  0
LINE
  5
16006
330
1F
100
AcDbEntity
  8
AM_0
100
AcDbLine
 10
1.424192008794307
 20
9.520552647125186
 30
0.0
 11
9.440230079427693
 21
10.22193016607048
 31
0.0
  0
LINE
  5
16007
330
1F
100
AcDbEntity
  8
AM_0
100
AcDbLine
 10
9.482657004419821
 20
10.29365066037082
 30
0.0
 11
7.722368335017563
 21
10.13963107005776
 31
0.0
  0
ELLIPSE
  5
16008
330
1F
100
AcDbEntity
  8
AM_0
100
AcDbEllipse
 10
9.510628097878112
 20
9.432791241062091
 30
0.0
 11
-0.7999997132011778
 21
-0.00067740536830003
 31
0.0
210
0.0
220
0.0
230
1.0
 40
0.9902666407755666
 41
3.054332703692802
 42
4.799661955687137
  0
ELLIPSE
  5
16009
330
1F
100
AcDbEntity
  8
AM_0
100
AcDbEllipse
 10
9.510160216067675
 20
9.985348589490172
 30
0.0
 11
0.3125451811684403
 21
0.000264649824326331
 31
0.0
210
0.0
220
0.0
230
1.0
 40
0.9902666407755665
 41
1.062536115981755
 42
1.658069302097334
  0
LINE
  5
1600E
330
1F
100
AcDbEntity
  8
AM_0
100
AcDbLine
 10
10.21077689716549
 20
5.962676032303023
 30
0.0
 11
9.81218198570059
 21
1.406715346644916
 31
0.0
  0
LINE
  5
1600F
330
1F
100
AcDbEntity
  8
AM_0
100
AcDbLine
 10
10.15441565227513
 20
7.61303457622293
 30
0.0
 11
10.3747746107847
 21
7.831621425459048
 31
0.0
  0
LINE
  5
16010
330
1F
100
AcDbEntity
  8
AM_0
100
AcDbLine
 10
9.809704004355126
 20
1.406497948799682
 30
0.0
 11
10.37154958628673
 21
7.828422336352418
 31
0.0
  0
LINE
  5
16011
330
1F
100
AcDbEntity
  8
AM_0
100
AcDbLine
 10
7.866885002839126
 20
10.28298554629447
 30
0.0
 11
7.647176311843396
 21
10.06504373517251
 31
0.0
  0
LINE
  5
16012
330
1F
100
AcDbEntity
  8
AM_0
100
AcDbLine
 10
1.4192255702485
 20
9.718942730978739
 30
0.0
 11
7.700338067147413
 21
10.26851984881085
 31
0.0
  0
ELLIPSE
  5
16014
330
1F
100
AcDbEntity
  8
AM_0
100
AcDbEllipse
 10
10.21254471250211
 20
3.874927863610822
 30
0.0
 11
-2.252608023621309
 21
-25.91595525114695
 31
0.0
210
0.0
220
0.0
230
1.0
 40
0.0070398477815689
 41
4.559727440472912
 42
4.632355098193669
  0
ELLIPSE
  5
16015
330
1F
100
AcDbEntity
  8
AM_0
100
AcDbEllipse
 10
9.580224684337395
 20
4.95946784553405
 30
0.0
 11
-10.92366723050794
 21
-11.03531668859
 31
0.0
210
0.0
220
0.0
230
1.0
 40
0.095104421885061
 41
4.524437484504259
 42
4.544139932683234
  0
SPLINE
  5
16016
330
1F
100
AcDbEntity
  8
AM_0
100
AcDbSpline
210
0.0
220
0.0
230
1.0
 70
     8
 71
     3
 72
    40
 73
    36
 74
     0
 42
0.0000000001
 43
0.0000000001
 40
2.192705659068084
 40
2.192705659068084
 40
2.192705659068084
 40
2.192705659068084
 40
2.308027435437229
 40
2.308027435437229
 40
2.637835992493462
 40
2.637835992493462
 40
2.968885082343642
 40
2.968885082343642
 40
3.299934172193823
 40
3.299934172193823
 40
3.630983262044004
 40
3.630983262044004
 40
3.962032351894184
 40
3.962032351894184
 40
4.292510756675897
 40
4.292510756675897
 40
4.622989161457611
 40
4.622989161457611
 40
4.953467566239326
 40
4.953467566239326
 40
5.283945971021039
 40
5.283945971021039
 40
5.6139410345212
 40
5.6139410345212
 40
5.943936098021361
 40
5.943936098021361
 40
6.273931161521522
 40
6.273931161521522
 40
6.603926225021683
 40
6.603926225021683
 40
6.935458470304738
 40
6.935458470304738
 40
7.266990715587793
 40
7.266990715587793
 40
7.484074432047888
 40
7.484074432047888
 40
7.484074432047888
 40
7.484074432047888
 10
8.113282200245067
 20
10.49849655426817
 30
0.0
 10
8.141956057724542
 20
10.5267671131129
 30
0.0
 10
8.171540181450041
 20
10.55393588882271
 30
0.0
 10
8.288659452865772
 20
10.65419243422315
 30
0.0
 10
8.381741089968273
 20
10.71859533505096
 30
0.0
 10
8.57214993398577
 20
10.82556201327031
 30
0.0
 10
8.675978875609189
 20
10.87168937287095
 30
0.0
 10
8.894057934551825
 20
10.94294964807608
 30
0.0
 10
9.00830466754644
 20
10.96809355898068
 30
0.0
 10
9.239580766581298
 20
10.99495447035253
 30
0.0
 10
9.356792284310018
 20
10.99669519363795
 30
0.0
 10
9.586345208246371
 20
10.97769926380835
 30
0.0
 10
9.698687306798661
 20
10.95695470386926
 30
0.0
 10
9.910560426983807
 20
10.89758991713876
 30
0.0
 10
10.01738907777656
 20
10.85695811906243
 30
0.0
 10
10.22401170687181
 20
10.75400976815206
 30
0.0
 10
10.32381067049425
 20
10.69170251693242
 30
0.0
 10
10.50900481390352
 20
10.54899290980097
 30
0.0
 10
10.59455035451481
 20
10.46847413835889
 30
0.0
 10
10.74618007147058
 20
10.2952937809531
 30
0.0
 10
10.81225652906198
 20
10.20262593862412
 30
0.0
 10
10.9223354396778
 20
10.01382125996173
 30
0.0
 10
10.97005066487043
 20
9.91137668931998
 30
0.0
 10
11.04467753985193
 20
9.696729484796663
 30
0.0
 10
11.07159898849307
 20
9.584529408944775
 30
0.0
 10
11.1020204250234
 20
9.357889335180232
 30
0.0
 10
11.10554669448072
 20
9.243263498679369
 30
0.0
 10
11.0899669097555
 20
9.019195251164376
 30
0.0
 10
11.07085183434117
 20
8.909750583190885
 30
0.0
 10
11.01431026526052
 20
8.703027954677054
 30
0.0
 10
10.97484698112487
 20
8.59866506576742
 30
0.0
 10
10.87373848700929
 20
8.397045785345256
 30
0.0
 10
10.81210147236027
 20
8.299782129776304
 30
0.0
 10
10.69458668490063
 20
8.150511143280994
 30
0.0
 10
10.64404426205249
 20
8.094385679506218
 30
0.0
 10
10.59025301625934
 20
8.041975358670982
 30
0.0
  0
ELLIPSE
  5
16017
330
1F
100
AcDbEntity
  8
AM_0
100
AcDbEllipse
 10
7.768080420395222
 20
8.067613752223792
 30
0.0
 11
-10.9236672305077
 21
-11.03531668859041
 31
0.0
210
0.0
220
0.0
230
0.9999999999999999
 40
0.0951044218850575
 41
4.585144885361162
 42
4.604785021778318
  0
ELLIPSE
  5
16018
330
1F
100
AcDbEntity
  8
AM_0
100
AcDbEllipse
 10
7.702105882057253
 20
8.180771680850796
 30
0.0
 11
-16.47894660972924
 21
-1.464963766377976
 31
0.0
210
0.0
220
0.0
230
1.0
 40
0.1257156071717165
 41
4.689338141317007
 42
4.701320709942671
  0
LINE
  5
16020
330
1F
100
AcDbEntity
  8
AM_0
100
AcDbLine
 10
27.49999999999989
 20
13.78388218141501
 30
0.0
 11
27.49999999999989
 21
17.78258523496842
 31
0.0
  0
SPLINE
  5
16024
330
1F
100
AcDbEntity
  8
AM_0
100
AcDbSpline
210
0.0
220
0.0
230
1.0
 70
    12
 71
     2
 72
     6
 73
     3
 74
     0
 42
0.0000000001
 43
0.0000000001
 40
0.0
 40
0.0
 40
0.0
 40
0.8683077351808815
 40
0.8683077351808815
 40
0.8683077351808815
 10
27.49999999999989
 20
13.78388218141501
 30
0.0
 41
1.0
 10
27.35306055404976
 20
13.36162452430344
 30
0.0
 41
1.001395898062751
 10
27.24999999999989
 20
12.95256241897661
 30
0.0
 41
1.0
  0
LINE
  5
16027
330
1F
100
AcDbEntity
  8
AM_0
100
AcDbLine
 10
29.92179197102814
 20
8.216117818584991
 30
0.0
 11
88.74999999999977
 21
8.216117818584976
 31
0.0
  0
LINE
  5
16036
330
1F
100
AcDbEntity
  8
AM_0
100
AcDbLine
 10
27.24999999999989
 20
12.95256241897661
 30
0.0
 11
27.24999999999989
 21
17.51629762742257
 31
0.0
  0
LINE
  5
1603B
330
1F
100
AcDbEntity
  8
AM_0
100
AcDbLine
 10
55.92069368747286
 20
17.78258523496842
 30
0.0
 11
27.49999999999989
 21
17.78258523496842
 31
0.0
  0
SPLINE
  5
1603C
330
1F
100
AcDbEntity
  8
AM_0
100
AcDbSpline
210
0.0
220
0.0
230
1.0
 70
    12
 71
     2
 72
     6
 73
     3
 74
     0
 42
0.0000000001
 43
0.0000000001
 40
0.0007305481562585
 40
0.0007305481562585
 40
0.0007305481562585
 40
0.3689880848863366
 40
0.3689880848863366
 40
0.3689880848863366
 10
27.50000000000054
 20
17.78258523496837
 30
0.0
 41
1.000000586036471
 10
27.3726789289295
 20
17.64732803749185
 30
0.0
 41
1.00014799938438
 10
27.24999999999989
 20
17.51629762742257
 30
0.0
 41
1.000000608211973
  0
SPLINE
  5
1603E
330
1F
100
AcDbEntity
  8
AM_0
100
AcDbSpline
210
0.0
220
0.0
230
1.0
 70
     8
 71
     3
 72
    38
 73
    34
 74
     0
 42
0.0000000001
 43
0.0000000001
 40
-9.138107654842827
 40
-9.138107654842827
 40
-9.138107654842827
 40
-9.138107654842827
 40
-8.566757165328991
 40
-8.566757165328991
 40
-7.995406675815154
 40
-7.995406675815154
 40
-7.424056186301318
 40
-7.424056186301318
 40
-6.852705696787483
 40
-6.852705696787483
 40
-6.281792729445954
 40
-6.281792729445954
 40
-5.710879762104426
 40
-5.710879762104426
 40
-5.139966794762898
 40
-5.139966794762898
 40
-4.569053827421371
 40
-4.569053827421371
 40
-3.998140860079843
 40
-3.998140860079843
 40
-3.427227892738316
 40
-3.427227892738316
 40
-2.856314925396788
 40
-2.856314925396788
 40
-2.285401958055259
 40
-2.285401958055259
 40
-1.714051468541445
 40
-1.714051468541445
 40
-1.14270097902763
 40
-1.14270097902763
 40
-0.5713504895138151
 40
-0.5713504895138151
 40
0.0
 40
0.0
 40
0.0
 40
0.0
 10
55.92069368747286
 20
18.82447430096997
 30
0.0
 10
56.11114385064423
 20
18.82447430096997
 30
0.0
 10
56.30741888368414
 20
18.8287023491757
 30
0.0
 10
56.6965658311982
 20
18.8453026944903
 30
0.0
 10
56.88944517140624
 20
18.85764522241786
 30
0.0
 10
57.25835975029997
 20
18.88679354184498
 30
0.0
 10
57.43472426675464
 20
18.90355970818749
 30
0.0
 10
57.76045435047297
 20
18.93617720165614
 30
0.0
 10
57.90982167190362
 20
18.95195353906374
 30
0.0
 10
58.17410516142502
 20
18.97763749615766
 30
0.0
 10
58.29836436851326
 20
18.98851814773192
 30
0.0
 10
58.5179853950425
 20
19.00072987162369
 30
0.0
 10
58.61336393659792
 20
19.00200013337351
 30
0.0
 10
58.76703702291695
 20
18.99085737365093
 30
0.0
 10
58.82545365778321
 20
18.97839142503031
 30
0.0
 10
58.90229315108434
 20
18.93872596392239
 30
0.0
 10
58.92069368747286
 20
18.91150802289272
 30
0.0
 10
58.92069368747286
 20
18.84541602530257
 30
0.0
 10
58.90229315108434
 20
18.80448607201433
 30
0.0
 10
58.82545365778321
 20
18.70899396409433
 30
0.0
 10
58.76703702291695
 20
18.65444825961541
 30
0.0
 10
58.61336393659769
 20
18.53741641146806
 30
0.0
 10
58.51798539504227
 20
18.47486958821688
 30
0.0
 10
58.29836436851326
 20
18.34952402565048
 30
0.0
 10
58.17410516142502
 20
18.28678544050106
 30
0.0
 10
57.90982167190362
 20
18.16931679072141
 30
0.0
 10
57.76045435047297
 20
18.11038129809813
 30
0.0
 10
57.43472426675464
 20
18.00150530896346
 30
0.0
 10
57.25835975029975
 20
17.95163247861902
 30
0.0
 10
56.88944517140601
 20
17.86913437237419
 30
0.0
 10
56.6965658311982
 20
17.83650642547374
 30
0.0
 10
56.30741888368414
 20
17.79321280967182
 30
0.0
 10
56.11114385064423
 20
17.78258523496842
 30
0.0
 10
55.92069368747286
 20
17.78258523496842
 30
0.0
  0
SPLINE
  5
1603F
330
1F
100
AcDbEntity
  8
AM_0
100
AcDbSpline
210
0.0
220
0.0
230
1.0
 70
    12
 71
     2
 72
     6
 73
     3
 74
     0
 42
0.0000000001
 43
0.0000000001
 40
0.0007582488701718
 40
0.0007582488701718
 40
0.0007582488701718
 40
0.3690157856003017
 40
0.3690157856003017
 40
0.3690157856003017
 10
27.24999999999989
 20
18.55818669342412
 30
0.0
 41
1.000000608212117
 10
27.37267892892658
 20
18.6892171034904
 30
0.0
 41
1.000147999419396
 10
27.49999999999988
 20
18.82447430096996
 30
0.0
 41
1.00000058603661
  0
LINE
  5
16040
330
1F
100
AcDbEntity
  8
AM_0
100
AcDbLine
 10
27.49999999999989
 20
18.82447430096997
 30
0.0
 11
55.92069368747286
 21
18.82447430096997
 31
0.0
  0
SPLINE
  5
16045
330
1F
100
AcDbEntity
  8
AM_0
100
AcDbSpline
210
0.0
220
0.0
230
1.0
 70
    12
 71
     2
 72
     6
 73
     3
 74
     0
 42
0.0000000001
 43
0.0000000001
 40
0.757719988579871
 40
0.757719988579871
 40
0.757719988579871
 40
0.9556486549561343
 40
0.9556486549561343
 40
0.9556486549561343
 10
9.798538773118366
 20
1.403878771791057
 30
0.0
 41
1.000140603559206
 10
9.703753369507354
 20
1.395588899406704
 30
0.0
 41
1.000157511130915
 10
9.608800908681815
 20
1.387284684108337
 30
0.0
 41
1.000173657839898
  0
ELLIPSE
  5
16046
330
1F
100
AcDbEntity
  8
AM_0
100
AcDbEllipse
 10
10.61569938710284
 20
10.92852160214764
 30
0.0
 11
-0.8171220844377459
 21
-9.524646674546755
 31
0.0
210
0.0
220
0.0
230
1.0
 40
0.0120858807625181
 41
6.282850200126558
 42
6.304084182839121
  0
SPLINE
  5
16047
330
1F
100
AcDbEntity
  8
AM_0
100
AcDbSpline
210
0.0
220
0.0
230
1.0
 70
    12
 71
     2
 72
     6
 73
     3
 74
     0
 42
0.0000000001
 43
0.0000000001
 40
3.405453227635165
 40
3.405453227635165
 40
3.405453227635165
 40
6.489320551501701
 40
6.489320551501701
 40
6.489320551501701
 10
12.78766987320137
 20
1.667851675651235
 30
0.0
 41
1.000868731689991
 10
11.31556150034805
 20
1.538609291086431
 30
0.0
 41
1.001154027699269
 10
9.801161313221542
 20
1.405748483792352
 30
0.0
 41
1.001243627834775
  0
SPLINE
  5
16048
330
1F
100
AcDbEntity
  8
AM_0
100
AcDbSpline
210
0.0
220
0.0
230
1.0
 70
     8
 71
     3
 72
    10
 73
     6
 74
     0
 42
0.0000000001
 43
0.0000000001
 40
43.93614323898611
 40
43.93614323898611
 40
43.93614323898611
 40
43.93614323898611
 40
45.15490113579786
 40
45.15490113579786
 40
47.01850069295457
 40
47.01850069295457
 40
47.01850069295457
 40
47.01850069295457
 10
15.99070384897016
 20
1.962366707799816
 30
0.0
 10
15.56507965196363
 20
1.919826483087576
 30
0.0
 10
15.13690954024435
 20
1.879342553178645
 30
0.0
 10
14.05933775569395
 20
1.780039305907422
 30
0.0
 10
13.41270428033238
 20
1.722725989731742
 30
0.0
 10
12.78766987320137
 20
1.667851675651235
 30
0.0
  0
ELLIPSE
  5
1604B
330
1F
100
AcDbEntity
  8
AM_0
100
AcDbEllipse
 10
9.351295519612904
 20
9.827761470329051
 30
0.0
 11
-1.749999372627578
 21
-0.001481824243156316
 31
0.0
210
0.0
220
0.0
230
1.0
 40
0.9902666407755664
 41
2.356201002895075
 42
2.972452551062206
  0
LINE
  5
1604C
330
1F
100
AcDbEntity
  8
AM_0
100
AcDbLine
 10
10.58977760462119
 20
8.60342525553358
 30
0.0
 11
10.20792445007965
 21
8.224642933786299
 31
0.0
  0
LINE
  5
16053
330
1F
100
AcDbEntity
  8
AM_0
100
AcDbLine
 10
1.4192255702485
 20
9.843942730978711
 30
0.0
 11
1.407987524930718
 21
9.715491285216075
 31
0.0
  0
LINE
  5
16054
330
1F
100
AcDbEntity
  8
AM_0
100
AcDbLine
 10
1.607856139200521
 20
12.0
 30
0.0
 11
1.4192255702485
 21
9.843942730978711
 31
0.0
  0
LINE
  5
1621D
330
1F
100
AcDbEntity
  8
AM_0
100
AcDbLine
 10
88.74999999999977
 20
13.783882181415
 30
0.0
 11
27.49999999999989
 21
13.78388218141501
 31
0.0
  0
CIRCLE
  5
16304
330
1F
100
AcDbEntity
  8
AM_0
100
AcDbCircle
 10
5.155314046161152
 20
5.112502279646478
 30
0.0
 40
1.706099999999583
  0
CIRCLE
  5
16305
330
1F
100
AcDbEntity
  8
AM_0
100
AcDbCircle
 10
5.155314046161152
 20
5.112502279646478
 30
0.0
 40
2.35
  0
CIRCLE
  5
16306
330
1F
100
AcDbEntity
  8
AM_0
100
AcDbCircle
 10
5.155314046161152
 20
5.112502279646478
 30
0.0
 40
2.8
  0
LINE
  5
16307
330
1F
100
AcDbEntity
  8
AM_7
  6
AM_ISO08W050x2
100
AcDbLine
 10
0.005314046161061
 20
5.11250227964652
 30
0.0
 11
10.30531404616113
 21
5.112502279646492
 31
0.0
1001
GENIUS_GENODEF_13
1002
{
1000
HIER
1070
     0
1002
}
1002
{
1000
MANEDIT
1070
     0
1002
}
1002
{
1000
NOSEL
1070
     0
1002
}
1002
{
1000
BEHIND
1070
     0
1002
}
1002
{
1000
REACTOR
1002
}
1001
GENIUS_GENOBJ-N-CEN_13
1002
{
1000
OWNER
1000
GEN
1002
}
  0
ARC
  5
16308
330
1F
100
AcDbEntity
  8
AM_0
100
AcDbCircle
 10
6.139019195003243
 20
3.408674982184934
 30
0.0
 40
0.726
100
AcDbArc
 50
76.97221509006506
 51
163.0277849099371
  0
ARC
  5
16309
330
1F
100
AcDbEntity
  8
AM_0
100
AcDbCircle
 10
6.139019195003243
 20
6.816329577108022
 30
0.0
 40
0.726
100
AcDbArc
 50
196.9722150900645
 51
283.0277849099369
  0
LINE
  5
1630A
330
1F
100
AcDbEntity
  8
AM_7
  6
AM_ISO08W050x2
100
AcDbLine
 10
5.155314046161152
 20
10.26250227964647
 30
0.0
 11
5.155314046161152
 21
-0.0374977203534854
 31
0.0
1001
GENIUS_GENODEF_13
1002
{
1000
HIER
1070
     0
1002
}
1002
{
1000
MANEDIT
1070
     0
1002
}
1002
{
1000
NOSEL
1070
     0
1002
}
1002
{
1000
BEHIND
1070
     0
1002
}
1002
{
1000
REACTOR
1002
}
1001
GENIUS_GENOBJ-N-CEN_13
1002
{
1000
OWNER
1000
GEN
1002
}
  0
ARC
  5
1630C
330
1F
100
AcDbEntity
  8
AM_0
100
AcDbCircle
 10
3.939760789409547
 20
5.814302279646412
 30
0.0
 40
0.3024999999998347
100
AcDbArc
 50
76.97221509006826
 51
223.0277849099412
  0
ARC
  5
1630D
330
1F
100
AcDbEntity
  8
AM_0
100
AcDbCircle
 10
3.18790374847697
 20
5.112502279646478
 30
0.0
 40
0.726
100
AcDbArc
 50
316.9722150900635
 51
43.02778490993651
  0
ARC
  5
1630E
330
1F
100
AcDbEntity
  8
AM_0
100
AcDbCircle
 10
5.155314046161152
 20
6.516102279646233
 30
0.0
 40
0.3024999999998347
100
AcDbArc
 50
16.97221509006815
 51
163.0277849099318
  0
ARC
  5
1630F
330
1F
100
AcDbEntity
  8
AM_0
100
AcDbCircle
 10
4.171608897319061
 20
6.816329577108135
 30
0.0
 40
0.726
100
AcDbArc
 50
256.9722150900651
 51
343.0277849099371
  0
ARC
  5
16310
330
1F
100
AcDbEntity
  8
AM_0
100
AcDbCircle
 10
5.155314046161152
 20
3.708902279646779
 30
0.0
 40
0.3024999999998347
100
AcDbArc
 50
196.9722150900682
 51
343.0277849099334
  0
ARC
  5
16311
330
1F
100
AcDbEntity
  8
AM_0
100
AcDbCircle
 10
3.939760789409547
 20
4.410702279646657
 30
0.0
 40
0.3024999999998347
100
AcDbArc
 50
136.9722150900634
 51
283.0277849099385
  0
ARC
  5
16312
330
1F
100
AcDbEntity
  8
AM_0
100
AcDbCircle
 10
4.171608897319061
 20
3.40867498218482
 30
0.0
 40
0.726
100
AcDbArc
 50
16.97221509006456
 51
103.0277849099369
  0
ARC
  5
16313
330
1F
100
AcDbEntity
  8
AM_0
100
AcDbCircle
 10
7.122724343845334
 20
5.112502279646478
 30
0.0
 40
0.726
100
AcDbArc
 50
136.9722150900634
 51
223.0277849099365
  0
ARC
  5
16314
330
1F
100
AcDbEntity
  8
AM_0
100
AcDbCircle
 10
6.370867302912757
 20
5.814302279646412
 30
0.0
 40
0.3024999999998347
100
AcDbArc
 50
316.9722150900681
 51
103.0277849099401
  0
ARC
  5
16315
330
1F
100
AcDbEntity
  8
AM_0
100
AcDbCircle
 10
6.370867302912757
 20
4.410702279646657
 30
0.0
 40
0.3024999999998347
100
AcDbArc
 50
256.9722150900615
 51
43.02778490993651
  0
LINE
  5
1654E
330
1F
100
AcDbEntity
  8
AM_5
100
AcDbLine
 10
0.0
 20
0.0
 30
0.0
 11
0.7999867427823801
 21
0.0
 31
0.0
  0
LINE
  5
1654F
330
1F
100
AcDbEntity
  8
AM_5
100
AcDbLine
 10
0.0
 20
0.0
 30
0.0
 11
0.0
 21
0.7922001955521694
 31
0.0
  0
LINE
  5
171B3
330
1F
100
AcDbEntity
  8
AM_0
100
AcDbLine
 10
21.68032388867232
 20
-81.75393550969466
 30
0.0
 11
24.40778626477163
 21
-81.75393550969466
 31
0.0
  0
ELLIPSE
  5
171B4
330
1F
100
AcDbEntity
  8
AM_0
100
AcDbEllipse
 10
16.9015983966367
 20
-81.72878281276732
 30
0.0
 11
5.309814548814914
 21
2.793550401465429
 31
0.0
210
0.0
220
0.0
230
1.0
 40
0.3681099614538712
 41
4.524621210527759
 42
5.235597159925838
  0
SPLINE
  5
171BA
330
1F
100
AcDbEntity
  8
AM_0
100
AcDbSpline
210
0.0
220
0.0
230
1.0
 70
     8
 71
     3
 72
    10
 73
     6
 74
     0
 42
0.0000000001
 43
0.0000000001
 40
20.77991558344444
 40
20.77991558344444
 40
20.77991558344444
 40
20.77991558344444
 40
21.68357766362658
 40
21.68357766362658
 40
23.30742443639895
 40
23.30742443639895
 40
23.30742443639895
 40
23.30742443639895
 10
18.10527721074834
 20
-87.7494549063496
 30
0.0
 10
17.87678820587564
 20
-87.88663695225495
 30
0.0
 10
17.63763007075454
 20
-88.01675756621773
 30
0.0
 10
16.94561390016486
 20
-88.35654135377135
 30
0.0
 10
16.47432768895487
 20
-88.54671811321205
 30
0.0
 10
15.99070384897016
 20
-88.70308276754776
 30
0.0
  0
LINE
  5
171BB
330
1F
100
AcDbEntity
  8
AM_0
100
AcDbLine
 10
29.92069368999557
 20
-81.75393550969466
 30
0.0
 11
33.92179197102803
 21
-81.75393550969466
 31
0.0
  0
SPLINE
  5
171BC
330
1F
100
AcDbEntity
  8
AM_0
100
AcDbSpline
210
0.0
220
0.0
230
1.0
 70
     8
 71
     3
 72
     8
 73
     4
 74
     0
 42
0.0000000001
 43
0.0000000001
 40
1.094161095325797
 40
1.094161095325797
 40
1.094161095325797
 40
1.094161095325797
 40
1.246623558546009
 40
1.246623558546009
 40
1.246623558546009
 40
1.246623558546009
 10
18.24999999999989
 20
-87.75494088894678
 30
0.0
 10
18.20182436946641
 20
-87.75330956950785
 30
0.0
 10
18.1535621511913
 20
-87.75148017346692
 30
0.0
 10
18.10527721074834
 20
-87.7494549063496
 30
0.0
  0
SPLINE
  5
171BD
330
1F
100
AcDbEntity
  8
AM_0
100
AcDbSpline
210
0.0
220
0.0
230
1.0
 70
     8
 71
     3
 72
    26
 73
    22
 74
     0
 42
0.0000000001
 43
0.0000000001
 40
3.44348782988421
 40
3.44348782988421
 40
3.44348782988421
 40
3.44348782988421
 40
3.628067459417367
 40
3.628067459417367
 40
5.076385476737601
 40
5.076385476737601
 40
5.466606058270314
 40
5.466606058270314
 40
5.856826639803027
 40
5.856826639803027
 40
6.247047221335741
 40
6.247047221335741
 40
6.637267802868454
 40
6.637267802868454
 40
7.128922017448876
 40
7.128922017448876
 40
7.620576232029299
 40
7.620576232029299
 40
8.603884661190143
 40
8.603884661190143
 40
8.878822191870082
 40
8.878822191870082
 40
8.878822191870082
 40
8.878822191870082
 10
18.10527721074834
 20
-87.7494549063496
 30
0.0
 10
18.05452532055381
 20
-87.75255753046005
 30
0.0
 10
18.00422657962758
 20
-87.75523674142872
 30
0.0
 10
17.56455316737242
 20
-87.77488289772563
 30
0.0
 10
17.2106608320986
 20
-87.76484081434862
 30
0.0
 10
16.90423773441785
 20
-87.69093490199407
 30
0.0
 10
16.84410870186082
 20
-87.67078571342609
 30
0.0
 10
16.74506831073859
 20
-87.619922680819
 30
0.0
 10
16.70625909700084
 20
-87.58916706440877
 30
0.0
 10
16.65587402129438
 20
-87.51733728371843
 30
0.0
 10
16.64425032449424
 20
-87.47615374847933
 30
0.0
 10
16.64645781574768
 20
-87.3860818444868
 30
0.0
 10
16.66018548782904
 20
-87.33719903370232
 30
0.0
 10
16.71039292231956
 20
-87.22391022414112
 30
0.0
 10
16.75405528000374
 20
-87.15363833417214
 30
0.0
 10
16.86635921824325
 20
-87.00152097296515
 30
0.0
 10
16.93491078778686
 20
-86.91967229585683
 30
0.0
 10
17.16431466368954
 20
-86.66269739575134
 30
0.0
 10
17.34878119010568
 20
-86.4753686651141
 30
0.0
 10
17.57727521095069
 20
-86.24474814625688
 30
0.0
 10
17.62842557526096
 20
-86.19328843394973
 30
0.0
 10
17.68064078361078
 20
-86.14077983475158
 30
0.0
  0
ELLIPSE
  5
171BE
330
1F
100
AcDbEntity
  8
AM_0
100
AcDbEllipse
 10
29.48848230418173
 20
-81.76507801132129
 30
0.0
 11
12.45945368418585
 21
5.643029165324299
 31
0.0
210
0.0
220
0.0
230
0.9999999999999998
 40
0.1636252639062369
 41
1.915622460462452
 42
2.734753920482639
  0
LINE
  5
171BF
330
1F
100
AcDbEntity
  8
AM_0
100
AcDbLine
 10
24.40778626477163
 20
-81.75393550969466
 30
0.0
 11
29.92069368999557
 21
-81.75393550969466
 31
0.0
  0
ELLIPSE
  5
171C8
330
1F
100
AcDbEntity
  8
AM_0
100
AcDbEllipse
 10
16.81880409713961
 20
-81.76507801132129
 30
0.0
 11
12.45945368418585
 21
5.643029165324299
 31
0.0
210
0.0
220
0.0
230
0.9999999999999998
 40
0.1636252639062369
 41
4.428207043324156
 42
4.646571866206299
  0
SPLINE
  5
171C9
330
1F
100
AcDbEntity
  8
AM_0
100
AcDbSpline
210
0.0
220
0.0
230
1.0
 70
     8
 71
     3
 72
    14
 73
    10
 74
     0
 42
0.0000000001
 43
0.0000000001
 40
4.28060377821148
 40
4.28060377821148
 40
4.28060377821148
 40
4.28060377821148
 40
7.006535659040607
 40
7.006535659040607
 40
8.758169573800757
 40
8.758169573800757
 40
10.50980348856091
 40
10.50980348856091
 40
10.92095127661768
 40
10.92095127661768
 40
10.92095127661768
 40
10.92095127661768
 10
14.21182660672002
 20
-85.30413965171087
 30
0.0
 10
13.36348615469615
 20
-85.64053647172784
 30
0.0
 10
12.48449071808761
 20
-85.92188111923491
 30
0.0
 10
11.01243424042366
 20
-86.30482784029718
 30
0.0
 10
10.42993664041819
 20
-86.43453027046013
 30
0.0
 10
9.258046531485434
 20
-86.65641586258263
 30
0.0
 10
8.668666015487247
 20
-86.74861850028191
 30
0.0
 10
7.940027712176175
 20
-86.84034440441039
 30
0.0
 10
7.801472150340942
 20
-86.85679108086978
 30
0.0
 10
7.662907501694804
 20
-86.87225086992802
 30
0.0
  0
ELLIPSE
  5
171CD
330
1F
100
AcDbEntity
  8
AM_0
100
AcDbEllipse
 10
9.085060813089967
 20
-89.25393550969466
 30
0.0
 11
16.09346100874006
 21
7.28891267187722
 31
0.0
210
0.0
220
0.0
230
1.0
 40
0.163625263906237
 41
0.6013712726088051
 42
0.7158492030379925
  0
ELLIPSE
  5
171DE
330
1F
100
AcDbEntity
  8
AM_0
100
AcDbEllipse
 10
4.555906025861304
 20
-72.19867473634602
 30
0.0
 11
-0.02551864798082078
 21
15.11026319370644
 31
0.0
210
0.0
220
0.0
230
1.0
 40
0.8597119146388684
 41
3.209686956011432
 42
3.381144268542442
  0
LINE
  5
171DF
330
1F
100
AcDbEntity
  8
AM_0
100
AcDbLine
 10
5.465259303591779
 20
-87.27242682825715
 30
0.0
 11
1.607856139200521
 21
-87.58498560093128
 31
0.0
  0
LINE
  5
171E9
330
1F
100
AcDbEntity
  8
AM_0
100
AcDbLine
 10
18.24999999999989
 20
18.74999999999997
 30
0.0
 11
21.23948239069364
 21
18.74999999999997
 31
0.0
  0
ELLIPSE
  5
17202
330
1F
100
AcDbEntity
  8
AM_0
100
AcDbEllipse
 10
16.9015983966367
 20
18.62874132809245
 30
0.0
 11
-3.886618605021031
 21
4.570804109501804
 31
0.0
210
0.0
220
0.0
230
1.0
 40
0.8228508000941674
 41
2.343312687208803
 42
3.054288636606881
  0
ELLIPSE
  5
1721D
330
1F
100
AcDbEntity
  8
AM_0
100
AcDbEllipse
 10
16.81880409713961
 20
18.64497832286614
 30
0.0
 11
12.43092618055218
 21
-2.98585338927153
 31
0.0
210
0.0
220
0.0
230
1.0
 40
0.4186570059710681
 41
4.602402217058715
 42
4.820767039940858
  0
SPLINE
  5
1721E
330
1F
100
AcDbEntity
  8
AM_0
100
AcDbSpline
210
0.0
220
0.0
230
1.0
 70
     8
 71
     3
 72
    14
 73
    10
 74
     0
 42
0.0000000001
 43
0.0000000001
 40
4.28060377821148
 40
4.28060377821148
 40
4.28060377821148
 40
4.28060377821148
 40
7.006535659040607
 40
7.006535659040607
 40
8.758169573800757
 40
8.758169573800757
 40
10.50980348856091
 40
10.50980348856091
 40
10.92095127661768
 40
10.92095127661768
 40
10.92095127661768
 40
10.92095127661768
 10
14.21182660672002
 20
13.79987329763466
 30
0.0
 10
13.36348615469615
 20
14.0455912078701
 30
0.0
 10
12.48449071808761
 20
14.30470681429583
 30
0.0
 10
11.01243424042366
 20
14.71573294501738
 30
0.0
 10
10.42993664041819
 20
14.87272211293814
 30
0.0
 10
9.258046531485434
 20
15.16524911741485
 30
0.0
 10
8.668666015487247
 20
15.30082022475025
 30
0.0
 10
7.940027712176175
 20
15.44455306267813
 30
0.0
 10
7.801472150340942
 20
15.47081297498593
 30
0.0
 10
7.662907501694804
 20
15.49588553409231
 30
0.0
  0
LINE
  5
17222
330
1F
100
AcDbEntity
  8
AM_0
100
AcDbLine
 10
23.92069368747286
 20
18.55818669342412
 30
0.0
 11
27.24999999999989
 21
18.55818669342412
 31
0.0
  0
SPLINE
  5
17223
330
1F
100
AcDbEntity
  8
AM_0
100
AcDbSpline
210
0.0
220
0.0
230
1.0
 70
     8
 71
     3
 72
    38
 73
    34
 74
     0
 42
0.0000000001
 43
0.0000000001
 40
0.0
 40
0.0
 40
0.0
 40
0.0
 40
0.5718157009076237
 40
0.5718157009076237
 40
1.143631401815247
 40
1.143631401815247
 40
1.715447102722871
 40
1.715447102722871
 40
2.287262803630495
 40
2.287262803630495
 40
2.858576531122191
 40
2.858576531122191
 40
3.429890258613887
 40
3.429890258613887
 40
4.001203986105583
 40
4.001203986105583
 40
4.572517713597279
 40
4.572517713597279
 40
5.143831441088976
 40
5.143831441088976
 40
5.715145168580673
 40
5.715145168580673
 40
6.286458896072369
 40
6.286458896072369
 40
6.857772623564065
 40
6.857772623564065
 40
7.429588324471678
 40
7.429588324471678
 40
8.001404025379291
 40
8.001404025379291
 40
8.573219726286904
 40
8.573219726286904
 40
9.145035427194518
 40
9.145035427194518
 40
9.145035427194518
 40
9.145035427194518
 10
23.92069368747286
 20
17.51629762742257
 30
0.0
 10
23.73008845383697
 20
17.51629762742257
 30
0.0
 10
23.53370741553124
 20
17.52722475470992
 30
0.0
 10
23.14444652777968
 20
17.57168173201697
 30
0.0
 10
22.95155881924291
 20
17.60517085592605
 30
0.0
 10
22.58269804288159
 20
17.68974340241911
 30
0.0
 10
22.4063933263659
 20
17.74082799104806
 30
0.0
 10
22.08079692729757
 20
17.85221309627886
 30
0.0
 10
21.93150285792387
 20
17.9124437919522
 30
0.0
 10
21.66735982095247
 20
18.03234144966021
 30
0.0
 10
21.54315084797099
 20
18.09631060904192
 30
0.0
 10
21.32357520790799
 20
18.22394087483556
 30
0.0
 10
21.22819172385323
 20
18.2875405951917
 30
0.0
 10
21.07447666436644
 20
18.40632523223198
 30
0.0
 10
21.01602293945666
 20
18.46157199619492
 30
0.0
 10
20.93912010454335
 20
18.55801330592524
 30
0.0
 10
20.92069368747286
 20
18.5991908899596
 30
0.0
 10
20.92069368747286
 20
18.66532928172964
 30
0.0
 10
20.93912010454335
 20
18.692333915543
 30
0.0
 10
21.01602293945666
 20
18.73109114818342
 30
0.0
 10
21.07447666436644
 20
18.74286274243653
 30
0.0
 10
21.22819172385323
 20
18.75224159293137
 30
0.0
 10
21.32357520790799
 20
18.74990133626014
 30
0.0
 10
21.54315084797111
 20
18.73535962867376
 30
0.0
 10
21.66735982095247
 20
18.72322045809497
 30
0.0
 10
21.93150285792387
 20
18.69505871441393
 30
0.0
 10
22.08079692729757
 20
18.67797042404524
 30
0.0
 10
22.4063933263659
 20
18.64282593509225
 30
0.0
 10
22.58269804288159
 20
18.62484712194137
 30
0.0
 10
22.95155881924291
 20
18.59363592680174
 30
0.0
 10
23.14444652777968
 20
18.58044468120593
 30
0.0
 10
23.53370741553124
 20
18.56270396936091
 30
0.0
 10
23.73008845383697
 20
18.55818669342412
 30
0.0
 10
23.92069368747286
 20
18.55818669342412
 30
0.0
  0
LINE
  5
17224
330
1F
100
AcDbEntity
  8
AM_0
100
AcDbLine
 10
27.24999999999989
 20
17.51629762742257
 30
0.0
 11
23.92069368747286
 21
17.51629762742257
 31
0.0
  0
LINE
  5
17226
330
1F
100
AcDbEntity
  8
AM_0
100
AcDbLine
 10
27.24999999999989
 20
12.95256241897661
 30
0.0
 11
21.68032388867232
 21
12.95256241897661
 31
0.0
  0
ELLIPSE
  5
17227
330
1F
100
AcDbEntity
  8
AM_0
100
AcDbEllipse
 10
9.085060813089967
 20
10.99999999999997
 30
0.0
 11
16.05661298321324
 21
-3.856727294475725
 31
0.0
210
0.0
220
0.0
230
1.0
 40
0.418657005971068
 41
0.7755664463433599
 42
0.8900443767725474
  0
SPLINE
  5
17228
330
1F
100
AcDbEntity
  8
AM_0
100
AcDbSpline
210
0.0
220
0.0
230
1.0
 70
     8
 71
     3
 72
    34
 73
    30
 74
     0
 42
0.0000000001
 43
0.0000000001
 40
0.943100703242808
 40
0.943100703242808
 40
0.943100703242808
 40
0.943100703242808
 40
2.257201777599006
 40
2.257201777599006
 40
3.571302851955204
 40
3.571302851955204
 40
4.885403926311401
 40
4.885403926311401
 40
6.199505000667599
 40
6.199505000667599
 40
6.738320512681851
 40
6.738320512681851
 40
7.277136024696102
 40
7.277136024696102
 40
7.815951536710354
 40
7.815951536710354
 40
8.354767048724606
 40
8.354767048724606
 40
8.893582560738857
 40
8.893582560738857
 40
9.432398072753109
 40
9.432398072753109
 40
9.97121358476736
 40
9.97121358476736
 40
10.51002909678161
 40
10.51002909678161
 40
11.82413017113781
 40
11.82413017113781
 40
12.07536681208646
 40
12.07536681208646
 40
12.07536681208646
 40
12.07536681208646
 10
16.92069368999569
 20
18.60561758761125
 30
0.0
 10
17.35872738144781
 20
18.60561758761125
 30
0.0
 10
17.80852971296952
 20
18.59657945218251
 30
0.0
 10
18.69025568214056
 20
18.55315941069571
 30
0.0
 10
19.12219694965472
 20
18.518682223387
 30
0.0
 10
19.93051378196958
 20
18.40860773295216
 30
0.0
 10
20.30756524165884
 20
18.33271134400192
 30
0.0
 10
20.97580898404453
 20
18.1197775599629
 30
0.0
 10
21.2671614137181
 20
17.98262094213757
 30
0.0
 10
21.59908768737125
 20
17.7334783236806
 30
0.0
 10
21.69030422814421
 20
17.65111392410162
 30
0.0
 10
21.85147211228536
 20
17.46741084049117
 30
0.0
 10
21.92141534896086
 20
17.36603832182263
 30
0.0
 10
22.03365012620475
 20
17.14786475744242
 30
0.0
 10
22.07600057065201
 20
17.03091517862575
 30
0.0
 10
22.13136381964205
 20
16.78798463733861
 30
0.0
 10
22.14437375965167
 20
16.66199873041231
 30
0.0
 10
22.14437375965167
 20
16.41063230466685
 30
0.0
 10
22.13136381964205
 20
16.27553369349764
 30
0.0
 10
22.07600057065201
 20
15.99429476963459
 30
0.0
 10
22.03365012620475
 20
15.84815819959133
 30
0.0
 10
21.92141534896086
 20
15.55421428834839
 30
0.0
 10
21.85147211228536
 20
15.40625012251579
 30
0.0
 10
21.69030422814421
 20
15.11818809933956
 30
0.0
 10
21.59908768737125
 20
14.97810775426129
 30
0.0
 10
21.2671614137181
 20
14.52592748012327
 30
0.0
 10
20.97580898404453
 20
14.22162180673715
 30
0.0
 10
20.57780796517875
 20
13.89708708735205
 30
0.0
 10
20.51236958342076
 20
13.84615948342301
 30
0.0
 10
20.44547323614438
 20
13.79649241537717
 30
0.0
  0
LINE
  5
17229
330
1F
100
AcDbEntity
  8
AM_0
100
AcDbLine
 10
13.04912141631382
 20
18.60561758761125
 30
0.0
 11
16.92069368999569
 21
18.60561758761125
 31
0.0
  0
LINE
  5
1722B
330
1F
100
AcDbEntity
  8
AM_0
100
AcDbLine
 10
13.29919909029047
 20
18.74999999999997
 30
0.0
 11
18.24999999999989
 21
18.74999999999997
 31
0.0
  0
LINE
  5
17237
330
1F
100
AcDbEntity
  8
AM_0
100
AcDbLine
 10
13.04912141631382
 20
18.60561758761125
 30
0.0
 11
13.29919909029047
 21
18.74999999999997
 31
0.0
  0
LINE
  5
17238
330
1F
100
AcDbEntity
  8
AM_0
100
AcDbLine
 10
13.04912141631382
 20
18.60561758761125
 30
0.0
 11
7.662907501694349
 21
15.49588553409276
 31
0.0
  0
LINE
  5
17239
330
1F
100
AcDbEntity
  8
AM_0
100
AcDbLine
 10
7.662907501694463
 20
15.49588553409288
 30
0.0
 11
5.465259303568701
 21
14.2270727553209
 31
0.0
  0
LINE
  5
1723A
330
1F
100
AcDbEntity
  8
AM_0
100
AcDbLine
 10
5.465259303591779
 20
14.22707275533421
 30
0.0
 11
1.607856139200521
 21
12.0
 31
0.0
  0
LINE
  5
17850
330
1F
100
AcDbEntity
  8
AM_0
100
AcDbLine
 10
-76.8795192661886
 20
1.035267486631952
 30
0.0
 11
-73.01600621499733
 21
0.0000000000000142
 31
0.0
  0
LINE
  5
17851
330
1F
100
AcDbEntity
  8
AM_0
100
AcDbLine
 10
-76.87935372154868
 20
1.036468595396869
 30
0.0
 11
-76.85445251556507
 21
1.215368070457103
 31
0.0
  0
ELLIPSE
  5
17852
330
1F
100
AcDbEntity
  8
AM_0
100
AcDbEllipse
 10
-72.90465964393195
 20
0.7922133178494306
 30
0.0
 11
0.1113465697260436
 21
0.7922133181222371
 31
0.0
210
0.0
220
0.0
230
0.9999999999999999
 40
0.0001178543602981
 41
3.141578182894111
 42
4.798810415254464
  0
ELLIPSE
  5
17853
330
1F
100
AcDbEntity
  8
AM_0
100
AcDbEllipse
 10
-76.83601820781087
 20
1.344770666277512
 30
0.0
 11
0.0435010578544535
 21
0.3095031797521414
 31
0.0
210
0.0
220
0.0
230
1.0
 40
0.0001178543602981
 41
3.053481163258338
 42
4.798810415254464
  0
LINE
  5
17854
330
1F
100
AcDbEntity
  8
AM_0
100
AcDbLine
 10
-72.89495586994144
 20
0.8605792649355664
 30
0.0
 11
-71.77917401832622
 21
8.799779668821444
 31
0.0
  0
LINE
  5
17855
330
1F
100
AcDbEntity
  8
AM_0
100
AcDbLine
 10
-75.71644527008675
 20
9.310680388885899
 30
0.0
 11
-76.83222712170198
 21
1.371479985000022
 31
0.0
  0
ELLIPSE
  5
17856
330
1F
100
AcDbEntity
  8
AM_0
100
AcDbEllipse
 10
-71.78887779231673
 20
8.731413721735308
 30
0.0
 11
0.1113465697260436
 21
0.7922133181222371
 31
0.0
210
0.0
220
0.0
230
0.9999999999999999
 40
0.0001178543602981
 41
4.798810415254463
 42
6.195073816849869
  0
ELLIPSE
  5
17857
330
1F
100
AcDbEntity
  8
AM_0
100
AcDbEllipse
 10
-75.72023635619564
 20
9.283971070163389
 30
0.0
 11
0.0435010578544535
 21
0.3095031797521414
 31
0.0
210
0.0
220
0.0
230
1.0
 40
0.0001178543602981
 41
4.798810415254474
 42
6.001290888453321
  0
LINE
  5
17858
330
1F
100
AcDbEntity
  8
AM_0
100
AcDbLine
 10
-71.6779549541144
 20
9.520552646743695
 30
0.0
 11
-71.65033560015263
 21
9.718980302356741
 31
0.0
  0
SPLINE
  5
17859
330
1F
100
AcDbEntity
  8
AM_0
100
AcDbSpline
210
0.0
220
0.0
230
1.0
 70
    28
 71
     2
 72
     6
 73
     3
 74
     0
 42
0.0000000001
 43
0.0000000001
 40
0.0
 40
0.0
 40
0.0
 40
0.8683077351808815
 40
0.8683077351808815
 40
0.8683077351808815
 10
-65.51600620988677
 20
13.783882181415
 30
0.0
 41
1.0
 10
-65.51600620988677
 20
13.36162452430342
 30
0.0
 41
1.001395898062751
 10
-65.51600620988677
 20
12.9525624189766
 30
0.0
 41
1.0
  0
LINE
  5
1785A
330
1F
100
AcDbEntity
  8
AM_0
100
AcDbLine
 10
-71.91448878321103
 20
7.961965088135699
 30
0.0
 11
-71.87646946433347
 21
7.956621425458607
 31
0.0
  0
ARC
  5
1785B
330
1F
100
AcDbEntity
  8
AM_0
100
AcDbCircle
 10
-73.01600620988677
 20
10.99999999999994
 30
0.0
 40
8.0
100
AcDbArc
 50
20.3641348063165
 51
57.97568716295729
  0
LINE
  5
1785C
330
1F
100
AcDbEntity
  8
AM_0
100
AcDbLine
 10
-65.51600620988677
 20
12.95256241897666
 30
0.0
 11
-65.51600620988677
 21
9.744967976578622
 31
0.0
  0
ELLIPSE
  5
1785D
330
1F
100
AcDbEntity
  8
AM_0
100
AcDbEllipse
 10
-65.49085351295946
 20
18.62874132809243
 30
0.0
 11
2.450088545225514
 21
5.476780122379293
 31
0.0
210
0.0
220
0.0
230
1.0
 40
0.4329106340375784
 41
3.14512328530466
 42
3.856099234702739
  0
ELLIPSE
  5
1785E
330
1F
100
AcDbEntity
  8
AM_0
100
AcDbEllipse
 10
-57.32506505265212
 20
3.999927863610779
 30
0.0
 11
-3.630282654734941
 21
-25.83174871611433
 31
0.0
210
0.0
220
0.0
230
1.0
 40
0.5750300384199411
 41
4.639752550733894
 42
4.662646399870348
  0
ELLIPSE
  5
1785F
330
1F
100
AcDbEntity
  8
AM_0
100
AcDbEllipse
 10
-57.17255635165896
 20
5.084467845534007
 30
0.0
 11
14.85371464410032
 21
-2.089775528516896
 31
0.0
210
0.0
220
0.0
230
1.0
 40
0.7328353361836147
 41
3.049448791438215
 42
3.06915123961719
  0
SPLINE
  5
17860
330
1F
100
AcDbEntity
  8
AM_0
100
AcDbSpline
210
0.0
220
0.0
230
1.0
 70
     8
 71
     3
 72
    40
 73
    36
 74
     0
 42
0.0000000001
 43
0.0000000001
 40
2.192705659068084
 40
2.192705659068084
 40
2.192705659068084
 40
2.192705659068084
 40
2.308027435437229
 40
2.308027435437229
 40
2.637835992493462
 40
2.637835992493462
 40
2.968885082343642
 40
2.968885082343642
 40
3.299934172193823
 40
3.299934172193823
 40
3.630983262044004
 40
3.630983262044004
 40
3.962032351894184
 40
3.962032351894184
 40
4.292510756675897
 40
4.292510756675897
 40
4.622989161457611
 40
4.622989161457611
 40
4.953467566239326
 40
4.953467566239326
 40
5.283945971021039
 40
5.283945971021039
 40
5.6139410345212
 40
5.6139410345212
 40
5.943936098021361
 40
5.943936098021361
 40
6.273931161521522
 40
6.273931161521522
 40
6.603926225021683
 40
6.603926225021683
 40
6.935458470304738
 40
6.935458470304738
 40
7.266990715587793
 40
7.266990715587793
 40
7.484074432047888
 40
7.484074432047888
 40
7.484074432047888
 40
7.484074432047888
 10
-71.53372675283094
 20
10.62349655426813
 30
0.0
 10
-71.52850470647275
 20
10.65176711311285
 30
0.0
 10
-71.52327402919468
 20
10.67893588882266
 30
0.0
 10
-71.50311133125263
 20
10.77919243422311
 30
0.0
 10
-71.48821435120135
 20
10.84359533505092
 30
0.0
 10
-71.45943116492435
 20
10.95056201327027
 30
0.0
 10
-71.44456830088836
 20
10.9966893728709
 30
0.0
 10
-71.41523736085833
 20
11.06794964807604
 30
0.0
 10
-71.40077083651693
 20
11.09309355898064
 30
0.0
 10
-71.37369690547553
 20
11.11995447035248
 30
0.0
 10
-71.36107649717235
 20
11.12169519363791
 30
0.0
 10
-71.33908440998584
 20
11.1026992638083
 30
0.0
 10
-71.32972679035572
 20
11.08195470386922
 30
0.0
 10
-71.31523904262485
 20
11.02258991713872
 30
0.0
 10
-71.309594057205
 20
10.98195811906238
 30
0.0
 10
-71.30324520830743
 20
10.87900976815202
 30
0.0
 10
-71.3025527728181
 20
10.81670251693238
 30
0.0
 10
-71.30708884498256
 20
10.67399290980093
 30
0.0
 10
-71.31233079248614
 20
10.59347413835884
 30
0.0
 10
-71.32864923767306
 20
10.42029378095306
 30
0.0
 10
-71.33973105945302
 20
10.32762593862408
 30
0.0
 10
-71.36628089326655
 20
10.13882125996169
 30
0.0
 10
-71.38263017800637
 20
10.03637668931994
 30
0.0
 10
-71.42082618459858
 20
9.82172948479662
 30
0.0
 10
-71.44266813592276
 20
9.709529408944732
 30
0.0
 10
-71.49003094690136
 20
9.48288933518019
 30
0.0
 10
-71.51558085828208
 20
9.368263498679326
 30
0.0
 10
-71.56786796144115
 20
9.144195251164334
 30
0.0
 10
-71.59459279220584
 20
9.034750583190842
 30
0.0
 10
-71.64648759252532
 20
8.828027954677012
 30
0.0
 10
-71.67345383948134
 20
8.723665065767378
 30
0.0
 10
-71.72650523493633
 20
8.522045785345213
 30
0.0
 10
-71.75257839464291
 20
8.424782129776261
 30
0.0
 10
-71.79287717175384
 20
8.275511143280951
 30
0.0
 10
-71.8081080316789
 20
8.219385679506175
 30
0.0
 10
-71.82234277177997
 20
8.166975358670939
 30
0.0
  0
ELLIPSE
  5
17862
330
1F
100
AcDbEntity
  8
AM_0
100
AcDbEllipse
 10
-56.71957456065388
 20
8.305771680850754
 30
0.0
 11
-14.85397324971954
 21
2.087936632084952
 31
0.0
210
0.0
220
0.0
230
1.0
 40
0.0970563138818877
 41
6.271333452305019
 42
6.273289917974243
  0
SPLINE
  5
17863
330
1F
100
AcDbEntity
  8
AM_0
100
AcDbSpline
210
0.0
220
0.0
230
1.0
 70
     8
 71
     3
 72
    10
 73
     6
 74
     0
 42
0.0000000001
 43
0.0000000001
 40
20.77991558344444
 40
20.77991558344444
 40
20.77991558344444
 40
20.77991558344444
 40
21.68357766362658
 40
21.68357766362658
 40
23.30742443639895
 40
23.30742443639895
 40
23.30742443639895
 40
23.30742443639895
 10
-71.51152560654168
 20
3.312273829881931
 30
0.0
 10
-71.64870765244712
 20
3.151006872340318
 30
0.0
 10
-71.77882826640985
 20
2.990184654975238
 30
0.0
 10
-72.11861205396349
 20
2.540543680135968
 30
0.0
 10
-72.30878881340414
 20
2.251635817594618
 30
0.0
 10
-72.46515346773992
 20
1.962366707799802
 30
0.0
  0
LINE
  5
17864
330
1F
100
AcDbEntity
  8
AM_0
100
AcDbLine
 10
-65.51600620988677
 20
9.744967976578622
 30
0.0
 11
-65.51600620988677
 21
8.216117818584976
 31
0.0
  0
SPLINE
  5
17865
330
1F
100
AcDbEntity
  8
AM_0
100
AcDbSpline
210
0.0
220
0.0
230
1.0
 70
     8
 71
     3
 72
    34
 73
    30
 74
     0
 42
0.0000000001
 43
0.0000000001
 40
3.693192483333928
 40
3.693192483333928
 40
3.693192483333928
 40
3.693192483333928
 40
3.721240023987952
 40
3.721240023987952
 40
4.96165336531727
 40
4.96165336531727
 40
5.543089994346355
 40
5.543089994346355
 40
6.12452662337544
 40
6.12452662337544
 40
6.705963252404525
 40
6.705963252404525
 40
7.287399881433609
 40
7.287399881433609
 40
7.868836510462695
 40
7.868836510462695
 40
8.450273139491781
 40
8.450273139491781
 40
9.031709768520868
 40
9.031709768520868
 40
9.613146397549954
 40
9.613146397549954
 40
10.85355973887927
 40
10.85355973887927
 40
12.09397308020858
 40
12.09397308020858
 40
13.33438642153789
 40
13.33438642153789
 40
13.57627024801319
 40
13.57627024801319
 40
13.57627024801319
 40
13.57627024801319
 10
-65.51600620988677
 20
8.216117818584976
 30
0.0
 10
-65.51831450623615
 20
8.209899084639986
 30
0.0
 10
-65.52063649348327
 20
8.203667174943078
 30
0.0
 10
-65.62627179356718
 20
7.921238290161412
 30
0.0
 10
-65.75685233643821
 20
7.619428634584338
 30
0.0
 10
-65.99515988141195
 20
7.161397458314482
 30
0.0
 10
-66.08193846711049
 20
7.005791147280107
 30
0.0
 10
-66.27622785779931
 20
6.686024154846294
 30
0.0
 10
-66.38377483061856
 20
6.521882683665027
 30
0.0
 10
-66.61591199657835
 20
6.19595756501117
 30
0.0
 10
-66.7406564929413
 20
6.034003687745738
 30
0.0
 10
-67.00034921772567
 20
5.722405434212604
 30
0.0
 10
-67.13530221496194
 20
5.572764635959189
 30
0.0
 10
-67.405013093957
 20
5.294360734710907
 30
0.0
 10
-67.55029903720617
 20
5.154730241411144
 30
0.0
 10
-67.85350526668105
 20
4.885286805197623
 30
0.0
 10
-68.01142182546437
 20
4.755469209332617
 30
0.0
 10
-68.32982154912111
 20
4.513113143254842
 30
0.0
 10
-68.49046996494781
 20
4.400415049142865
 30
0.0
 10
-68.80391487831525
 20
4.196083007924258
 30
0.0
 10
-68.95669102835461
 20
4.104413520368624
 30
0.0
 10
-69.40693469428129
 20
3.851700865918033
 30
0.0
 10
-69.70445162062242
 20
3.711615088921988
 30
0.0
 10
-70.24999012555406
 20
3.487603353760349
 30
0.0
 10
-70.49785317822716
 20
3.403481546602009
 30
0.0
 10
-70.91820899888774
 20
3.276825135403911
 30
0.0
 10
-71.09092849589081
 20
3.233962864146875
 30
0.0
 10
-71.2438990430577
 20
3.198699313608259
 30
0.0
 10
-71.26718451991644
 20
3.193457128951948
 30
0.0
 10
-71.28877412235556
 20
3.188683253394245
 30
0.0
  0
SPLINE
  5
17866
330
1F
100
AcDbEntity
  8
AM_0
100
AcDbSpline
210
0.0
220
0.0
230
1.0
 70
     8
 71
     3
 72
    26
 73
    22
 74
     0
 42
0.0000000001
 43
0.0000000001
 40
3.44348782988421
 40
3.44348782988421
 40
3.44348782988421
 40
3.44348782988421
 40
3.628067459417367
 40
3.628067459417367
 40
5.076385476737601
 40
5.076385476737601
 40
5.466606058270314
 40
5.466606058270314
 40
5.856826639803027
 40
5.856826639803027
 40
6.247047221335741
 40
6.247047221335741
 40
6.637267802868454
 40
6.637267802868454
 40
7.128922017448876
 40
7.128922017448876
 40
7.620576232029299
 40
7.620576232029299
 40
8.603884661190143
 40
8.603884661190143
 40
8.878822191870082
 40
8.878822191870082
 40
8.878822191870082
 40
8.878822191870082
 10
-71.51152560654168
 20
3.312273829881931
 30
0.0
 10
-71.51462823065219
 20
3.355183650190284
 30
0.0
 10
-71.5173074416208
 20
3.398653165613339
 30
0.0
 10
-71.53695359791777
 20
3.788085408968826
 30
0.0
 10
-71.52691151454076
 20
4.166461890944404
 30
0.0
 10
-71.45300560218618
 20
4.692031358962268
 30
0.0
 10
-71.4328564136182
 20
4.812211292270732
 30
0.0
 10
-71.38199338101117
 20
5.062993331092756
 30
0.0
 10
-71.35123776460091
 20
5.193627290944519
 30
0.0
 10
-71.27940798391057
 20
5.456734304647014
 30
0.0
 10
-71.23822444867142
 20
5.589525792207851
 30
0.0
 10
-71.14815254467885
 20
5.848084917884094
 30
0.0
 10
-71.0992697338944
 20
5.973855365565285
 30
0.0
 10
-70.98598092433326
 20
6.240419280846496
 30
0.0
 10
-70.91570903436423
 20
6.388876038337699
 30
0.0
 10
-70.76359167315729
 20
6.678652229926641
 30
0.0
 10
-70.68174299604891
 20
6.820004857293341
 30
0.0
 10
-70.42476809594348
 20
7.225760724796842
 30
0.0
 10
-70.23743936530616
 20
7.47173414098684
 30
0.0
 10
-70.00681884644905
 20
7.737278618101769
 30
0.0
 10
-69.95535913414187
 20
7.794279741133678
 30
0.0
 10
-69.9028505349437
 20
7.850247321656426
 30
0.0
  0
ARC
  5
17867
330
1F
100
AcDbEntity
  8
AM_0
100
AcDbCircle
 10
-65.52714871151341
 20
3.744978322866075
 30
0.0
 40
5.999999999999999
100
AcDbArc
 50
89.89359688610392
 51
136.8263724116491
  0
SPLINE
  5
17868
330
1F
100
AcDbEntity
  8
AM_0
100
AcDbSpline
210
0.0
220
0.0
230
1.0
 70
     8
 71
     3
 72
     8
 73
     4
 74
     0
 42
0.0000000001
 43
0.0000000001
 40
1.35999258706138
 40
1.35999258706138
 40
1.35999258706138
 40
1.35999258706138
 40
1.6933827882218
 40
1.6933827882218
 40
1.6933827882218
 40
1.6933827882218
 10
-71.28877412235556
 20
3.188683253394245
 30
0.0
 10
-71.31955772945003
 20
3.268206135728931
 30
0.0
 10
-71.34642778994316
 20
3.347987731389324
 30
0.0
 10
-71.36939140066659
 20
3.426945156011541
 30
0.0
  0
ARC
  5
17869
330
1F
100
AcDbEntity
  8
AM_0
100
AcDbCircle
 10
-73.01600620988677
 20
10.99999999999994
 30
0.0
 40
8.0
100
AcDbArc
 50
102.0243128370406
 51
126.4199137285658
  0
ARC
  5
1786A
330
1F
100
AcDbEntity
  8
AM_0
100
AcDbCircle
 10
-73.01600620988677
 20
10.99999999999994
 30
0.0
 40
8.0
100
AcDbArc
 50
279.6300234354677
 51
282.4685690338052
  0
SPLINE
  5
1786B
330
1F
100
AcDbEntity
  8
AM_0
100
AcDbSpline
210
0.0
220
0.0
230
1.0
 70
    28
 71
     2
 72
     6
 73
     3
 74
     0
 42
0.0000000001
 43
0.0000000001
 40
0.0006670902165433
 40
0.0006670902165433
 40
0.0006670902165433
 40
0.3689246490171487
 40
0.3689246490171487
 40
0.3689246490171487
 10
-68.77377359834904
 20
17.78258523496812
 30
0.0
 41
1.000000535035719
 10
-68.79762309160196
 20
17.64732803748082
 30
0.0
 41
1.000147947406393
 10
-68.82072728818844
 20
17.51629762742256
 30
0.0
 41
1.000000555281362
  0
SPLINE
  5
1786C
330
1F
100
AcDbEntity
  8
AM_0
100
AcDbSpline
210
0.0
220
0.0
230
1.0
 70
     8
 71
     3
 72
    38
 73
    34
 74
     0
 42
0.0000000001
 43
0.0000000001
 40
-9.138107654842827
 40
-9.138107654842827
 40
-9.138107654842827
 40
-9.138107654842827
 40
-8.566757165328991
 40
-8.566757165328991
 40
-7.995406675815154
 40
-7.995406675815154
 40
-7.424056186301318
 40
-7.424056186301318
 40
-6.852705696787483
 40
-6.852705696787483
 40
-6.281792729445954
 40
-6.281792729445954
 40
-5.710879762104426
 40
-5.710879762104426
 40
-5.139966794762898
 40
-5.139966794762898
 40
-4.569053827421371
 40
-4.569053827421371
 40
-3.998140860079843
 40
-3.998140860079843
 40
-3.427227892738316
 40
-3.427227892738316
 40
-2.856314925396788
 40
-2.856314925396788
 40
-2.285401958055259
 40
-2.285401958055259
 40
-1.714051468541445
 40
-1.714051468541445
 40
-1.14270097902763
 40
-1.14270097902763
 40
-0.5713504895138151
 40
-0.5713504895138151
 40
0.0
 40
0.0
 40
0.0
 40
0.0
 10
-74.68262011642298
 20
18.82447430096995
 30
0.0
 10
-74.68262011642298
 20
18.82447430096995
 30
0.0
 10
-74.66316363371573
 20
18.82870234917569
 30
0.0
 10
-74.58219064324203
 20
18.84530269449029
 30
0.0
 10
-74.52070372530636
 20
18.85764522241784
 30
0.0
 10
-74.3595797487036
 20
18.88679354184497
 30
0.0
 10
-74.25982601133069
 20
18.90355970818747
 30
0.0
 10
-74.03110974201081
 20
18.93617720165612
 30
0.0
 10
-73.90213902014227
 20
18.95195353906372
 30
0.0
 10
-73.62924975719318
 20
18.97763749615764
 30
0.0
 10
-73.47570875038264
 20
18.98851814773191
 30
0.0
 10
-73.14277427865511
 20
19.00072987162368
 30
0.0
 10
-72.96338961709159
 20
19.0020001333735
 30
0.0
 10
-72.59059690379104
 20
18.99085737365091
 30
0.0
 10
-72.39686602067832
 20
18.9783914250303
 30
0.0
 10
-72.00868581663474
 20
18.93872596392238
 30
0.0
 10
-71.8142339607291
 20
18.9115080228927
 30
0.0
 10
-71.43940761637361
 20
18.84541602530256
 30
0.0
 10
-71.247373558189
 20
18.80448607201431
 30
0.0
 10
-70.86903709822082
 20
18.70899396409432
 30
0.0
 10
-70.68272601140757
 20
18.65444825961539
 30
0.0
 10
-70.3286044013588
 20
18.53741641146804
 30
0.0
 10
-70.1604724137112
 20
18.47486958821686
 30
0.0
 10
-69.85179300297932
 20
18.34952402565047
 30
0.0
 10
-69.71123305390233
 20
18.28678544050105
 30
0.0
 10
-69.46358545790383
 20
18.1693167907214
 30
0.0
 10
-69.34778844744778
 20
18.11038129809812
 30
0.0
 10
-69.14402129670532
 20
18.00150530896345
 30
0.0
 10
-69.05601781241569
 20
17.951632478619
 30
0.0
 10
-68.91458011295856
 20
17.86913437237418
 30
0.0
 10
-68.86102270307026
 20
17.83650642547373
 30
0.0
 10
-68.79061063392294
 20
17.7932128096718
 30
0.0
 10
-68.77377359834975
 20
17.78258523496841
 30
0.0
 10
-68.77377359834975
 20
17.78258523496841
 30
0.0
  0
SPLINE
  5
1786D
330
1F
100
AcDbEntity
  8
AM_0
100
AcDbSpline
210
0.0
220
0.0
230
1.0
 70
    28
 71
     2
 72
     6
 73
     3
 74
     0
 42
0.0000000001
 43
0.0000000001
 40
0.0466818365745779
 40
0.0466818365745779
 40
0.0466818365745779
 40
0.3689499390344928
 40
0.3689499390344928
 40
0.3689499390344928
 10
-74.72379093821418
 20
18.59098296784738
 30
0.0
 41
1.000032771324776
 10
-74.70349157507008
 20
18.70610637699612
 30
0.0
 41
1.000129537946027
 10
-74.68262011642298
 20
18.82447430096961
 30
0.0
 41
1.000000535035628
  0
ARC
  5
1786E
330
1F
100
AcDbEntity
  8
AM_0
100
AcDbCircle
 10
-65.52714871151341
 20
18.64497832286611
 30
0.0
 40
5.999999999999999
100
AcDbArc
 50
233.854089153716
 51
246.3654718989867
  0
SPLINE
  5
1786F
330
1F
100
AcDbEntity
  8
AM_0
100
AcDbSpline
210
0.0
220
0.0
230
1.0
 70
     8
 71
     3
 72
    14
 73
    10
 74
     0
 42
0.0000000001
 43
0.0000000001
 40
4.28060377821148
 40
4.28060377821148
 40
4.28060377821148
 40
4.28060377821148
 40
7.006535659040607
 40
7.006535659040607
 40
8.758169573800757
 40
8.758169573800757
 40
10.50980348856091
 40
10.50980348856091
 40
10.92095127661768
 40
10.92095127661768
 40
10.92095127661768
 40
10.92095127661768
 10
-69.06621035190301
 20
13.79987329763465
 30
0.0
 10
-69.40260717191995
 20
14.04559120787009
 30
0.0
 10
-69.68395181942708
 20
14.30470681429581
 30
0.0
 10
-70.06689854048932
 20
14.71573294501737
 30
0.0
 10
-70.19660097065219
 20
14.87272211293812
 30
0.0
 10
-70.41848656277477
 20
15.16524911741483
 30
0.0
 10
-70.51068920047408
 20
15.30082022475024
 30
0.0
 10
-70.60241510460253
 20
15.44455306267811
 30
0.0
 10
-70.61886178106192
 20
15.47081297498592
 30
0.0
 10
-70.63432157012016
 20
15.4958855340923
 30
0.0
  0
SPLINE
  5
17870
330
1F
100
AcDbEntity
  8
AM_0
100
AcDbSpline
210
0.0
220
0.0
230
1.0
 70
     8
 71
     3
 72
    12
 73
     8
 74
     0
 42
0.0000000001
 43
0.0000000001
 40
0.9975036863662686
 40
0.9975036863662686
 40
0.9975036863662686
 40
0.9975036863662686
 40
1.12919287257444
 40
1.12919287257444
 40
1.693789308861661
 40
1.693789308861661
 40
2.258385745148881
 40
2.258385745148881
 40
2.258385745148881
 40
2.258385745148881
 10
-71.36939140066659
 20
3.426945156011541
 30
0.0
 10
-71.37986259369018
 20
3.424668396915209
 30
0.0
 10
-71.38979578792078
 20
3.422531316903203
 30
0.0
 10
-71.43938625602152
 20
3.411952819528963
 30
0.0
 10
-71.46929048938523
 20
3.405886342652323
 30
0.0
 10
-71.50810005915673
 20
3.398085056960113
 30
0.0
 10
-71.51701158913886
 20
3.396348566184159
 30
0.0
 10
-71.51701158913886
 20
3.396348566184159
 30
0.0
  0
ARC
  5
17871
330
1F
100
AcDbEntity
  8
AM_0
100
AcDbCircle
 10
-73.01600620988677
 20
10.99999999999994
 30
0.0
 40
7.750000000000002
100
AcDbArc
 50
14.59255060203524
 51
21.15165286301593
  0
SPLINE
  5
17872
330
1F
100
AcDbEntity
  8
AM_0
100
AcDbSpline
210
0.0
220
0.0
230
1.0
 70
     8
 71
     3
 72
    34
 73
    30
 74
     0
 42
0.0000000001
 43
0.0000000001
 40
0.943100703242808
 40
0.943100703242808
 40
0.943100703242808
 40
0.943100703242808
 40
2.257201777599006
 40
2.257201777599006
 40
3.571302851955204
 40
3.571302851955204
 40
4.885403926311401
 40
4.885403926311401
 40
6.199505000667599
 40
6.199505000667599
 40
6.738320512681851
 40
6.738320512681851
 40
7.277136024696102
 40
7.277136024696102
 40
7.815951536710354
 40
7.815951536710354
 40
8.354767048724606
 40
8.354767048724606
 40
8.893582560738857
 40
8.893582560738857
 40
9.432398072753109
 40
9.432398072753109
 40
9.97121358476736
 40
9.97121358476736
 40
10.51002909678161
 40
10.51002909678161
 40
11.82413017113781
 40
11.82413017113781
 40
12.07536681208646
 40
12.07536681208646
 40
12.07536681208646
 40
12.07536681208646
 10
-71.52701960450099
 20
18.60561758761124
 30
0.0
 10
-71.52701960450099
 20
18.60561758761124
 30
0.0
 10
-71.47814130078996
 20
18.5965794521825
 30
0.0
 10
-71.27737720221887
 20
18.5531594106957
 30
0.0
 10
-71.12558946561228
 20
18.51868222338699
 30
0.0
 10
-70.73197513920172
 20
18.40860773295215
 30
0.0
 10
-70.49001321802109
 20
18.33271134400191
 30
0.0
 10
-69.94060968835743
 20
18.11977755996288
 30
0.0
 10
-69.63340911992407
 20
17.98262094213756
 30
0.0
 10
-69.17599173007932
 20
17.73347832368059
 30
0.0
 10
-69.03418204204957
 20
17.65111392410161
 30
0.0
 10
-68.74226813153121
 20
17.46741084049116
 30
0.0
 10
-68.59218072688418
 20
17.36603832182261
 30
0.0
 10
-68.29367240481747
 20
17.14786475744241
 30
0.0
 10
-68.145091564518
 20
17.03091517862573
 30
0.0
 10
-67.85878009336977
 20
16.7879846373386
 30
0.0
 10
-67.72105310394318
 20
16.66199873041229
 30
0.0
 10
-67.46444642177073
 20
16.41063230466683
 30
0.0
 10
-67.33564604280889
 20
16.27553369349762
 30
0.0
 10
-67.08686064511551
 20
15.99429476963458
 30
0.0
 10
-66.96687075810212
 20
15.84815819959131
 30
0.0
 10
-66.74258544966506
 20
15.55421428834838
 30
0.0
 10
-66.63813822756549
 20
15.40625012251577
 30
0.0
 10
-66.44845210554865
 20
15.11818809933955
 30
0.0
 10
-66.36317972514416
 20
14.97810775426127
 30
0.0
 10
-66.10465368671783
 20
14.52592748012326
 30
0.0
 10
-65.96118876346463
 20
14.22162180673713
 30
0.0
 10
-65.82764346421016
 20
13.89708708735203
 30
0.0
 10
-65.80735083720538
 20
13.84615948342299
 30
0.0
 10
-65.78813445045876
 20
13.79649241537716
 30
0.0
  0
SPLINE
  5
17873
330
1F
100
AcDbEntity
  8
AM_0
100
AcDbSpline
210
0.0
220
0.0
230
1.0
 70
     8
 71
     3
 72
    10
 73
     6
 74
     0
 42
0.0000000001
 43
0.0000000001
 40
43.93614323898611
 40
43.93614323898611
 40
43.93614323898611
 40
43.93614323898611
 40
45.15490113579786
 40
45.15490113579786
 40
46.20860551212655
 40
46.20860551212655
 40
46.20860551212655
 40
46.20860551212655
 10
-72.46515346773992
 20
1.962366707799802
 30
0.0
 10
-72.55102291015351
 20
1.919826483087562
 30
0.0
 10
-72.61977108414703
 20
1.879342553178631
 30
0.0
 10
-72.71717147119102
 20
1.806131419689351
 30
0.0
 10
-72.74992539429115
 20
1.773055951852641
 30
0.0
 10
-72.77124859714911
 20
1.740802248214422
 30
0.0
  0
LINE
  5
17874
330
1F
100
AcDbEntity
  8
AM_0
100
AcDbLine
 10
-71.34705630112342
 20
11.99999999999996
 30
0.0
 11
-71.65033560015263
 21
9.718980302356741
 31
0.0
  0
LINE
  5
17875
330
1F
100
AcDbEntity
  8
AM_0
100
AcDbLine
 10
-71.65007038937335
 20
9.718942730597249
 30
0.0
 11
-71.84809353939204
 21
9.746996183730815
 31
0.0
  0
LINE
  5
17876
330
1F
100
AcDbEntity
  8
AM_0
100
AcDbLine
 10
-71.84809353939204
 20
9.746996183730758
 30
0.0
 11
-71.87970950497765
 21
9.522036899455785
 31
0.0
  0
LINE
  5
17877
330
1F
100
AcDbEntity
  8
AM_0
100
AcDbLine
 10
-71.87970950497765
 20
9.522036899455785
 30
0.0
 11
-73.6628126653344
 21
9.552591866712149
 31
0.0
  0
LINE
  5
17878
330
1F
100
AcDbEntity
  8
AM_0
100
AcDbLine
 10
-73.6628126653344
 20
9.552591866712149
 30
0.0
 11
-75.64304416534947
 21
9.83312639802331
 31
0.0
  0
LINE
  5
17879
330
1F
100
AcDbEntity
  8
AM_0
100
AcDbLine
 10
-75.64304416534947
 20
9.833126398023254
 30
0.0
 11
-76.85420504842477
 21
1.215268921525663
 31
0.0
  0
ELLIPSE
  5
1787A
330
1F
100
AcDbEntity
  8
AM_0
100
AcDbEllipse
 10
-73.01600620988677
 20
10.92100031566345
 30
0.0
 11
-1.596062673293336E-13
 21
-10.32100031566334
 31
0.0
210
0.0
220
0.0
230
1.0
 40
0.9999707056750694
 41
5.612422244521938
 42
5.903873064278167
  0
ARC
  5
1787B
330
1F
100
AcDbEntity
  8
AM_0
100
AcDbCircle
 10
-73.01600620988677
 20
9.499999999999943
 30
0.0
 40
9.25
100
AcDbArc
 50
164.3196498651614
 51
226.0895725372706
  0
ARC
  5
1787C
330
1F
100
AcDbEntity
  8
AM_0
100
AcDbCircle
 10
-73.01600620988677
 20
10.99999999999994
 30
0.0
 40
7.75
100
AcDbArc
 50
78.92304267726382
 51
90.0
  0
ARC
  5
1787D
330
1F
100
AcDbEntity
  8
AM_0
100
AcDbCircle
 10
-65.52714871151341
 20
18.64497832286611
 30
0.0
 40
6.0
100
AcDbArc
 50
180.3758700307449
 51
211.6580649762283
  0
ELLIPSE
  5
1787E
330
1F
100
AcDbEntity
  8
AM_0
100
AcDbEllipse
 10
-55.96074543653811
 20
13.70205739564803
 30
0.0
 11
15.11027890807997
 21
-0.005100397337461146
 31
0.0
210
0.0
220
0.0
230
1.0
 40
0.4963552320645233
 41
2.90075667556534
 42
3.07221398809635
  0
LINE
  5
1787F
330
1F
100
AcDbEntity
  8
AM_0
100
AcDbLine
 10
-71.03449752844927
 20
14.22707275533419
 30
0.0
 11
-71.34705630112342
 21
11.99999999999996
 31
0.0
  0
LINE
  5
17880
330
1F
100
AcDbEntity
  8
AM_0
100
AcDbLine
 10
-71.34705630112342
 20
11.99999999999996
 30
0.0
 11
-81.92176277516523
 21
11.99999999999996
 31
0.0
  0
ARC
  5
17881
330
1F
100
AcDbEntity
  8
AM_0
100
AcDbCircle
 10
-73.01600620988677
 20
9.499999999999943
 30
0.0
 40
9.25
100
AcDbArc
 50
90.0
 51
164.3196498651614
  0
SPLINE
  5
178AE
330
1F
100
AcDbEntity
  8
AM_0
100
AcDbSpline
210
0.0
220
0.0
230
1.0
 70
     8
 71
     3
 72
    34
 73
    30
 74
     0
 42
0.0000000001
 43
0.0000000001
 40
3.693192483333928
 40
3.693192483333928
 40
3.693192483333928
 40
3.693192483333928
 40
3.721240023987952
 40
3.721240023987952
 40
4.96165336531727
 40
4.96165336531727
 40
5.543089994346355
 40
5.543089994346355
 40
6.12452662337544
 40
6.12452662337544
 40
6.705963252404525
 40
6.705963252404525
 40
7.287399881433609
 40
7.287399881433609
 40
7.868836510462695
 40
7.868836510462695
 40
8.450273139491781
 40
8.450273139491781
 40
9.031709768520868
 40
9.031709768520868
 40
9.613146397549954
 40
9.613146397549954
 40
10.85355973887927
 40
10.85355973887927
 40
12.09397308020858
 40
12.09397308020858
 40
13.33438642153789
 40
13.33438642153789
 40
13.57627024801319
 40
13.57627024801319
 40
13.57627024801319
 40
13.57627024801319
 10
29.92179197102803
 20
-81.75393550969466
 30
0.0
 10
29.92874769797993
 20
-81.75624380604404
 30
0.0
 10
29.93568355239302
 20
-81.75856579329113
 30
0.0
 10
30.24845566737042
 20
-81.86420109337502
 30
0.0
 10
30.51491064053801
 20
-81.99478163624605
 30
0.0
 10
30.83461361286902
 20
-82.23308918121984
 30
0.0
 10
30.93083462258994
 20
-82.31986776691835
 30
0.0
 10
31.1005907893624
 20
-82.51415715760723
 30
0.0
 10
31.17412073506932
 20
-82.62170413042645
 30
0.0
 10
31.29198749303214
 20
-82.85384129638624
 30
0.0
 10
31.33638722791341
 20
-82.97858579274916
 30
0.0
 10
31.39439783263072
 20
-83.23827851753356
 30
0.0
 10
31.40800657296813
 20
-83.37323151476983
 30
0.0
 10
31.40800657296813
 20
-83.64294239376486
 30
0.0
 10
31.39439783263072
 20
-83.78822833701409
 30
0.0
 10
31.33638722791341
 20
-84.09143456648889
 30
0.0
 10
31.29198749303214
 20
-84.24935112527226
 30
0.0
 10
31.17412073506932
 20
-84.56775084892894
 30
0.0
 10
31.1005907893624
 20
-84.72839926475572
 30
0.0
 10
30.93083462258994
 20
-85.04184417812309
 30
0.0
 10
30.83461361286902
 20
-85.19462032816244
 30
0.0
 10
30.51491064053801
 20
-85.64486399408912
 30
0.0
 10
30.24845566737042
 20
-85.94238092043025
 30
0.0
 10
29.63674314280718
 20
-86.48791942536192
 30
0.0
 10
29.29141596322222
 20
-86.73578247803508
 30
0.0
 10
28.54816265418856
 20
-87.15613829869562
 30
0.0
 10
28.14956847875612
 20
-87.32885779569867
 30
0.0
 10
27.66062672576493
 20
-87.48182834286564
 30
0.0
 10
27.58044473998064
 20
-87.50511381972436
 30
0.0
 10
27.49999999999989
 20
-87.52670342216348
 30
0.0
  0
SPLINE
  5
178B3
330
1F
100
AcDbEntity
  8
AM_0
100
AcDbSpline
210
0.0
220
0.0
230
1.0
 70
     8
 71
     3
 72
     8
 73
     4
 74
     0
 42
0.0000000001
 43
0.0000000001
 40
1.35999258706138
 40
1.35999258706138
 40
1.35999258706138
 40
1.35999258706138
 40
1.6933827882218
 40
1.6933827882218
 40
1.6933827882218
 40
1.6933827882218
 10
27.49999999999989
 20
-87.52670342216348
 30
0.0
 10
27.41570639294207
 20
-87.55748702925786
 30
0.0
 10
27.33203369399905
 20
-87.58435708975105
 30
0.0
 10
27.24999999999989
 20
-87.60732070047445
 30
0.0
  0
LINE
  5
178B4
330
1F
100
AcDbEntity
  8
AM_0
100
AcDbLine
 10
27.49999999999989
 20
-97.25393550969466
 30
0.0
 11
27.49999999999989
 21
-87.52670342216348
 31
0.0
  0
LINE
  5
178B8
330
1F
100
AcDbEntity
  8
AM_0
100
AcDbLine
 10
25.92069368999569
 20
-87.75494088894678
 30
0.0
 11
18.24999999999989
 21
-87.75494088894678
 31
0.0
  0
SPLINE
  5
178B9
330
1F
100
AcDbEntity
  8
AM_0
100
AcDbSpline
210
0.0
220
0.0
230
1.0
 70
     8
 71
     3
 72
    12
 73
     8
 74
     0
 42
0.0000000001
 43
0.0000000001
 40
0.9975036863662686
 40
0.9975036863662686
 40
0.9975036863662686
 40
0.9975036863662686
 40
1.12919287257444
 40
1.12919287257444
 40
1.693789308861661
 40
1.693789308861661
 40
2.258385745148881
 40
2.258385745148881
 40
2.258385745148881
 40
2.258385745148881
 10
27.24999999999989
 20
-87.60732070047445
 30
0.0
 10
27.20343485897195
 20
-87.61779189349809
 30
0.0
 10
27.15668926386718
 20
-87.62772508772866
 30
0.0
 10
26.90892204893578
 20
-87.67731555582947
 30
0.0
 10
26.70578126436612
 20
-87.70721978919309
 30
0.0
 10
26.30576617407871
 20
-87.74602935896465
 30
0.0
 10
26.10889250209152
 20
-87.75494088894678
 30
0.0
 10
25.92069368999569
 20
-87.75494088894678
 30
0.0
  0
LINE
  5
178BA
330
1F
100
AcDbEntity
  8
AM_0
100
AcDbLine
 10
27.24999999999989
 20
-97.00393550969466
 30
0.0
 11
27.24999999999989
 21
-87.60732070047445
 31
0.0
  0
LINE
  5
178D9
330
1F
100
AcDbEntity
  8
AM_0
100
AcDbLine
 10
18.24999999999989
 20
3.249999999999972
 30
0.0
 11
15.99070384897016
 21
1.945594759023862
 31
0.0
  0
LINE
  5
178DC
330
1F
100
AcDbEntity
  8
AM_0
100
AcDbLine
 10
27.24999999999989
 20
3.249999999999972
 30
0.0
 11
27.49999999999989
 21
2.999999999999972
 31
0.0
  0
LINE
  5
178E5
330
1F
100
AcDbEntity
  8
AM_0
100
AcDbLine
 10
18.24999999999989
 20
3.249999999999972
 30
0.0
 11
27.24999999999989
 21
3.249999999999972
 31
0.0
  0
LINE
  5
1791B
330
1F
100
AcDbEntity
  8
AM_0
100
AcDbLine
 10
21.68032388867243
 20
12.95256241897667
 30
0.0
 11
24.40778626477174
 21
9.744967976578636
 31
0.0
  0
SPLINE
  5
17922
330
1F
100
AcDbEntity
  8
AM_0
100
AcDbSpline
210
0.0
220
0.0
230
1.0
 70
     8
 71
     3
 72
    10
 73
     6
 74
     0
 42
0.0000000001
 43
0.0000000001
 40
20.77991558344444
 40
20.77991558344444
 40
20.77991558344444
 40
20.77991558344444
 40
21.68357766362658
 40
21.68357766362658
 40
23.30742443639895
 40
23.30742443639895
 40
23.30742443639895
 40
23.30742443639895
 10
18.10527721074834
 20
3.312273829881946
 30
0.0
 10
17.87678820587576
 20
3.151006872340332
 30
0.0
 10
17.63763007075454
 20
2.990184654975252
 30
0.0
 10
16.94561390016486
 20
2.540543680135983
 30
0.0
 10
16.47432768895487
 20
2.251635817594632
 30
0.0
 10
15.99070384897016
 20
1.962366707799816
 30
0.0
  0
ARC
  5
17923
330
1F
100
AcDbEntity
  8
AM_0
100
AcDbCircle
 10
25.92069368999569
 20
3.744978322866089
 30
0.0
 40
5.999989653712538
100
AcDbArc
 50
48.17552426984364
 51
90.0
  0
SPLINE
  5
17924
330
1F
100
AcDbEntity
  8
AM_0
100
AcDbSpline
210
0.0
220
0.0
230
1.0
 70
     8
 71
     3
 72
    34
 73
    30
 74
     0
 42
0.0000000001
 43
0.0000000001
 40
3.693192483333928
 40
3.693192483333928
 40
3.693192483333928
 40
3.693192483333928
 40
3.721240023987952
 40
3.721240023987952
 40
4.96165336531727
 40
4.96165336531727
 40
5.543089994346355
 40
5.543089994346355
 40
6.12452662337544
 40
6.12452662337544
 40
6.705963252404525
 40
6.705963252404525
 40
7.287399881433609
 40
7.287399881433609
 40
7.868836510462695
 40
7.868836510462695
 40
8.450273139491781
 40
8.450273139491781
 40
9.031709768520868
 40
9.031709768520868
 40
9.613146397549954
 40
9.613146397549954
 40
10.85355973887927
 40
10.85355973887927
 40
12.09397308020858
 40
12.09397308020858
 40
13.33438642153789
 40
13.33438642153789
 40
13.57627024801319
 40
13.57627024801319
 40
13.57627024801319
 40
13.57627024801319
 10
29.92179197102803
 20
8.216117818584991
 30
0.0
 10
29.92874769797993
 20
8.20989908464
 30
0.0
 10
29.93568355239302
 20
8.203667174943092
 30
0.0
 10
30.24845566737042
 20
7.921238290161426
 30
0.0
 10
30.51491064053801
 20
7.619428634584352
 30
0.0
 10
30.83461361286902
 20
7.161397458314497
 30
0.0
 10
30.93083462258994
 20
7.005791147280121
 30
0.0
 10
31.1005907893624
 20
6.686024154846308
 30
0.0
 10
31.17412073506932
 20
6.521882683665041
 30
0.0
 10
31.29198749303214
 20
6.195957565011184
 30
0.0
 10
31.33638722791341
 20
6.034003687745752
 30
0.0
 10
31.39439783263072
 20
5.722405434212618
 30
0.0
 10
31.40800657296813
 20
5.572764635959203
 30
0.0
 10
31.40800657296813
 20
5.294360734710921
 30
0.0
 10
31.39439783263072
 20
5.154730241411158
 30
0.0
 10
31.33638722791341
 20
4.885286805197637
 30
0.0
 10
31.29198749303214
 20
4.755469209332631
 30
0.0
 10
31.17412073506932
 20
4.513113143254856
 30
0.0
 10
31.1005907893624
 20
4.400415049142879
 30
0.0
 10
30.93083462258994
 20
4.196083007924273
 30
0.0
 10
30.83461361286902
 20
4.104413520368638
 30
0.0
 10
30.51491064053801
 20
3.851700865918048
 30
0.0
 10
30.24845566737042
 20
3.711615088922002
 30
0.0
 10
29.63674314280718
 20
3.487603353760363
 30
0.0
 10
29.29141596322222
 20
3.403481546602023
 30
0.0
 10
28.54816265418856
 20
3.276825135403925
 30
0.0
 10
28.14956847875612
 20
3.233962864146889
 30
0.0
 10
27.66062672576493
 20
3.198699313608273
 30
0.0
 10
27.58044473998064
 20
3.193457128951962
 30
0.0
 10
27.49999999999989
 20
3.18868325339426
 30
0.0
  0
SPLINE
  5
17925
330
1F
100
AcDbEntity
  8
AM_0
100
AcDbSpline
210
0.0
220
0.0
230
1.0
 70
     8
 71
     3
 72
     8
 73
     4
 74
     0
 42
0.0000000001
 43
0.0000000001
 40
1.094161095325797
 40
1.094161095325797
 40
1.094161095325797
 40
1.094161095325797
 40
1.246623558546009
 40
1.246623558546009
 40
1.246623558546009
 40
1.246623558546009
 10
18.24999999999989
 20
3.396348566184173
 30
0.0
 10
18.20182436946652
 20
3.368320609414724
 30
0.0
 10
18.1535621511913
 20
3.340283619333349
 30
0.0
 10
18.10527721074834
 20
3.312273829881946
 30
0.0
  0
SPLINE
  5
17926
330
1F
100
AcDbEntity
  8
AM_0
100
AcDbSpline
210
0.0
220
0.0
230
1.0
 70
     8
 71
     3
 72
    26
 73
    22
 74
     0
 42
0.0000000001
 43
0.0000000001
 40
3.44348782988421
 40
3.44348782988421
 40
3.44348782988421
 40
3.44348782988421
 40
3.628067459417367
 40
3.628067459417367
 40
5.076385476737601
 40
5.076385476737601
 40
5.466606058270314
 40
5.466606058270314
 40
5.856826639803027
 40
5.856826639803027
 40
6.247047221335741
 40
6.247047221335741
 40
6.637267802868454
 40
6.637267802868454
 40
7.128922017448876
 40
7.128922017448876
 40
7.620576232029299
 40
7.620576232029299
 40
8.603884661190143
 40
8.603884661190143
 40
8.878822191870082
 40
8.878822191870082
 40
8.878822191870082
 40
8.878822191870082
 10
18.10527721074834
 20
3.312273829881946
 30
0.0
 10
18.05452532055381
 20
3.355183650190298
 30
0.0
 10
18.00422657962758
 20
3.398653165613354
 30
0.0
 10
17.56455316737254
 20
3.78808540896884
 30
0.0
 10
17.2106608320986
 20
4.166461890944419
 30
0.0
 10
16.90423773441785
 20
4.692031358962282
 30
0.0
 10
16.84410870186082
 20
4.812211292270746
 30
0.0
 10
16.7450683107387
 20
5.06299333109277
 30
0.0
 10
16.70625909700084
 20
5.193627290944534
 30
0.0
 10
16.65587402129438
 20
5.456734304647029
 30
0.0
 10
16.64425032449435
 20
5.589525792207866
 30
0.0
 10
16.64645781574768
 20
5.848084917884108
 30
0.0
 10
16.66018548782904
 20
5.973855365565299
 30
0.0
 10
16.71039292231956
 20
6.24041928084651
 30
0.0
 10
16.75405528000385
 20
6.388876038337713
 30
0.0
 10
16.86635921824325
 20
6.678652229926655
 30
0.0
 10
16.93491078778686
 20
6.820004857293355
 30
0.0
 10
17.16431466368954
 20
7.225760724796857
 30
0.0
 10
17.34878119010568
 20
7.471734140986854
 30
0.0
 10
17.5772752109508
 20
7.737278618101783
 30
0.0
 10
17.62842557526096
 20
7.794279741133693
 30
0.0
 10
17.6806407836109
 20
7.85024732165644
 30
0.0
  0
ELLIPSE
  5
17927
330
1F
100
AcDbEntity
  8
AM_0
100
AcDbEllipse
 10
29.48848230418173
 20
3.744978322866103
 30
0.0
 11
12.43092618055218
 21
-2.98585338927153
 31
0.0
210
0.0
220
0.0
230
1.0
 40
0.4186570059710681
 41
2.089817634197012
 42
2.908949094217198
  0
LINE
  5
17928
330
1F
100
AcDbEntity
  8
AM_0
100
AcDbLine
 10
24.40778626477174
 20
9.744967976578636
 30
0.0
 11
25.92069368999569
 21
9.744967976578636
 31
0.0
  0
SPLINE
  5
17929
330
1F
100
AcDbEntity
  8
AM_0
100
AcDbSpline
210
0.0
220
0.0
230
1.0
 70
     8
 71
     3
 72
     8
 73
     4
 74
     0
 42
0.0000000001
 43
0.0000000001
 40
1.35999258706138
 40
1.35999258706138
 40
1.35999258706138
 40
1.35999258706138
 40
1.6933827882218
 40
1.6933827882218
 40
1.6933827882218
 40
1.6933827882218
 10
27.49999999999989
 20
3.18868325339426
 30
0.0
 10
27.41570639294207
 20
3.268206135728946
 30
0.0
 10
27.33203369399905
 20
3.347987731389338
 30
0.0
 10
27.24999999999989
 20
3.426945156011556
 30
0.0
  0
LINE
  5
1792C
330
1F
100
AcDbEntity
  8
AM_0
100
AcDbLine
 10
27.49999999999989
 20
2.999999999999972
 30
0.0
 11
27.49999999999989
 21
3.18868325339426
 31
0.0
  0
LINE
  5
17945
330
1F
100
AcDbEntity
  8
AM_0
100
AcDbLine
 10
18.24999999999989
 20
3.249999999999972
 30
0.0
 11
18.24999999999989
 21
3.396348566184173
 31
0.0
  0
LINE
  5
17946
330
1F
100
AcDbEntity
  8
AM_0
100
AcDbLine
 10
25.92069368999569
 20
3.396348566184173
 30
0.0
 11
18.24999999999989
 21
3.396348566184173
 31
0.0
  0
SPLINE
  5
17947
330
1F
100
AcDbEntity
  8
AM_0
100
AcDbSpline
210
0.0
220
0.0
230
1.0
 70
     8
 71
     3
 72
    12
 73
     8
 74
     0
 42
0.0000000001
 43
0.0000000001
 40
0.9975036863662686
 40
0.9975036863662686
 40
0.9975036863662686
 40
0.9975036863662686
 40
1.12919287257444
 40
1.12919287257444
 40
1.693789308861661
 40
1.693789308861661
 40
2.258385745148881
 40
2.258385745148881
 40
2.258385745148881
 40
2.258385745148881
 10
27.24999999999989
 20
3.426945156011556
 30
0.0
 10
27.20343485897195
 20
3.424668396915223
 30
0.0
 10
27.15668926386718
 20
3.422531316903218
 30
0.0
 10
26.90892204893578
 20
3.411952819528977
 30
0.0
 10
26.70578126436612
 20
3.405886342652337
 30
0.0
 10
26.30576617407871
 20
3.398085056960127
 30
0.0
 10
26.10889250209152
 20
3.396348566184173
 30
0.0
 10
25.92069368999569
 20
3.396348566184173
 30
0.0
  0
LINE
  5
1794A
330
1F
100
AcDbEntity
  8
AM_0
100
AcDbLine
 10
27.24999999999989
 20
3.249999999999972
 30
0.0
 11
27.24999999999989
 21
3.426945156011556
 31
0.0
  0
LINE
  5
1795F
330
1F
100
AcDbEntity
  8
AM_0
100
AcDbLine
 10
15.99070384897016
 20
1.945594759023862
 30
0.0
 11
15.99070384897016
 21
1.962366707799816
 31
0.0
  0
TEXT
  5
17EF0
330
1F
100
AcDbEntity
  8
AM_0
100
AcDbText
 10
21.81694541146476
 20
-139.9394236442388
 30
0.0
 40
5.0
  1
B16R-SCLCR09T3-20
100
AcDbText
  0
DIMENSION
  5
184ED
330
1F
100
AcDbEntity
  8
AM_5
100
AcDbDimension
  2
*D8
 10
-10.59394823434116
 20
11.0
 30
0.0
 11
-13.99394823434116
 21
5.500000000000001
 31
0.0
 70
    32
 71
     5
 42
11.0
  3
AM_JIS$0
100
AcDbAlignedDimension
 13
0.0
 23
0.0
 33
0.0
 14
-2.165548451965947
 24
11.0
 34
0.0
 50
90.0
100
AcDbRotatedDimension
1001
ACAD
1000
DSTYLE
1002
{
1070
   179
1070
     2
1070
   271
1070
     0
1002
}
  0
DIMENSION
  5
18528
330
1F
100
AcDbEntity
  8
AM_5
100
AcDbDimension
  2
*D9
 10
0.6975756396396946
 20
8.799779669202934
 30
0.0
 11
-18.10647566996396
 21
19.68084340943697
 31
0.0
 70
    34
 71
     5
 42
1.658062789394609
  3
AM_JIS$2
100
AcDb2LineAngularDimension
 13
0.0
 23
0.0
 33
0.0
 14
0.7999867427823801
 24
0.0
 34
0.0
 15
0.0029856068392746
 25
0.8605792653170568
 35
0.0
 16
-10.52661040493186
 26
20.81623288392068
 36
0.0
  0
DIMENSION
  5
185F6
330
1F
100
AcDbEntity
  8
AM_5
100
AcDbDimension
  2
*D10
 10
199.9999999999999
 20
-39.07854510710234
 30
0.0
 11
99.99999999999997
 21
-35.67817109135432
 31
0.0
 70
    32
 71
     5
 42
199.9999999999999
  3
AM_JIS$0
100
AcDbAlignedDimension
 13
0.0
 23
0.0
 33
0.0
 14
199.9999999999999
 24
3.999999999999972
 34
0.0
100
AcDbRotatedDimension
1001
ACAD
1000
DSTYLE
1002
{
1070
   271
1070
     0
1002
}
  0
DIMENSION
  5
18625
330
1F
100
AcDbEntity
  8
AM_5
100
AcDbDimension
  2
*D11
 10
-71.77917401832622
 20
8.799779668821444
 30
0.0
 11
-82.49972526497834
 21
-21.44552442419632
 31
0.0
 70
   162
 71
     5
 42
0.1396263401575153
  3
AM_JIS$2
100
AcDb2LineAngularDimension
 13
-73.01600620988677
 23
23.59843988049299
 33
0.0
 14
-73.01600620988677
 24
-3.105041805582104
 34
0.0
 15
-72.89495586994144
 25
0.8605792649355664
 35
0.0
 16
-74.10694270244724
 26
-23.42358266222718
 36
0.0
1001
ACAD
1000
DSTYLE
1002
{
1070
   179
1070
     0
1070
   271
1070
     0
1002
}
  0
ENDSEC
  0
SECTION
  2
OBJECTS
  0
DICTIONARY
  5
C
330
0
100
AcDbDictionary
281
     1
  3
ACAD_COLOR
350
17F6D
  3
ACAD_GROUP
350
D
  3
ACAD_LAYOUT
350
1A
  3
ACAD_MATERIAL
350
17F6C
  3
ACAD_MLINESTYLE
350
17
  3
ACAD_PLOTSETTINGS
350
19
  3
ACAD_PLOTSTYLENAME
350
E
  3
ACAD_TABLESTYLE
350
17F6E
  3
AcAmCatalogState
350
17FD5
  3
ACDBHEADERROUNDTRIPXREC
350
18884
  3
AcDbVariableDictionary
350
30
  3
ACDMSYSVARMGR
350
17F88
  3
ACGREF_MASTER
350
17F80
  3
ACGREFACAD_MASTER
350
17FA8
  3
AcmDictionary
350
4D
  3
ACME_BOM_MANAGER_NAME
350
36
  3
ACME_COMMAND_HISTORY
350
2F
  3
ACME_SCOPE_NAME
350
2E
  3
ACMESTATEMGR
350
3B
  3
AcmeSysVarManager
350
32
  3
AcmSystemVariableManager
350
6A
  3
AD_APPL
350
17FB3
  3
ADSYSVARMGR
350
17FB2
  3
AmdtNamedDwgMgr
350
17FA3
  3
AMG
350
3F
  3
AMGSNAPSETTINGS
350
73
  3
AMI_MASTER
350
17FAB
  3
ASE_INDEX_DICTIONARY
350
180CF
  3
AUTOCAD_ASSEMBLIES_PROJECT
350
17FBB
  3
Designer_Assemblies_SysVars
350
17FB6
  3
DWGPROPS
350
18887
  3
eng_data
350
2A40
  3
FILENAME
350
2916
  3
GREFAM_MODULE
350
17FAC
  3
line_dic_data
350
2A3E
  3
table_dic_data
350
1688
  3
ZWKSIZE
350
2918
  0
DICTIONARY
  5
18440
330
2
100
AcDbDictionary
280
     1
281
     1
  3
ACAD_LAYERSTATES
360
18441
  0
DICTIONARY
  5
165
330
1F
100
AcDbDictionary
280
     1
281
     1
  0
DICTIONARY
  5
17F6D
102
{ACAD_REACTORS
330
C
102
}
330
C
100
AcDbDictionary
281
     1
  0
DICTIONARY
  5
D
102
{ACAD_REACTORS
330
C
102
}
330
C
100
AcDbDictionary
281
     1
  0
DICTIONARY
  5
1A
102
{ACAD_REACTORS
330
C
102
}
330
C
100
AcDbDictionary
281
     1
  3
Model
350
22
  3
ﾚｲｱｳﾄ1
350
1E
  3
ﾚｲｱｳﾄ2
350
26
  0
DICTIONARY
  5
17F6C
102
{ACAD_REACTORS
330
C
102
}
330
C
100
AcDbDictionary
281
     1
  0
DICTIONARY
  5
17
102
{ACAD_REACTORS
330
C
102
}
330
C
100
AcDbDictionary
281
     1
  3
Standard
350
18
  0
DICTIONARY
  5
19
102
{ACAD_REACTORS
330
C
102
}
330
C
100
AcDbDictionary
281
     1
  0
ACDBDICTIONARYWDFLT
  5
E
102
{ACAD_REACTORS
330
C
102
}
330
C
100
AcDbDictionary
281
     1
  3
Normal
350
F
100
AcDbDictionaryWithDefault
340
F
  0
DICTIONARY
  5
17F6E
102
{ACAD_REACTORS
330
C
102
}
330
C
100
AcDbDictionary
281
     1
  3
Standard
350
17F6F
  0
ACAD_PROXY_OBJECT
  5
17FD5
102
{ACAD_REACTORS
330
C
102
}
330
C
100
AcDbProxyObject
 90
      499
 91
      571
 95
       25
 70
     0
 93
      600
310
3FFFFFFFE00A02814029F2E2E2816B9B2B93B32B92E483ECB652E4AABC7C0483ECB652E487CC6F6CBB846A445F7AE41BDC1B341A12E4B34482AE76F586C6EDC6F14413BC1B7C0AD94C00AA
  0
DICTIONARY
  5
18884
102
{ACAD_REACTORS
330
C
102
}
330
C
100
AcDbDictionary
281
     1
  3
COLORDICT
350
18885
  3
MATERIALDICT
350
18886
  0
DICTIONARY
  5
30
102
{ACAD_REACTORS
330
C
102
}
330
C
100
AcDbDictionary
281
     1
  3
CTABLESTYLE
350
17FE0
  3
HIDETEXT
350
18883
  3
INDEXCTL
350
18882
  0
ACAD_PROXY_OBJECT
  5
17F88
102
{ACAD_REACTORS
330
C
102
}
330
C
100
AcDbProxyObject
 90
      499
 91
      507
 95
       25
 70
     0
 93
      240
310
4C51A47A0000000000000000000000000000000000000000000000000000
330
17F89
330
17F8A
330
17F8B
330
17F8C
330
17F8D
330
17F8E
330
17F8F
330
17F90
330
17F91
330
17F92
330
17F93
330
17F94
330
17F95
330
17F96
330
17F97
330
17F98
330
17F99
330
17F9A
330
17F9B
330
17F9C
330
17F9D
330
17F9E
330
17F9F
330
17FA0
330
17FA1
330
17FA2
 94
        0
  0
ACAD_PROXY_OBJECT
  5
17F80
102
{ACAD_REACTORS
330
C
102
}
330
C
100
AcDbProxyObject
 90
      499
 91
      535
 95
       25
 70
     0
 93
       34
310
0400004280
  0
ACAD_PROXY_OBJECT
  5
17FA8
102
{ACAD_REACTORS
330
C
102
}
330
C
100
AcDbProxyObject
 90
      499
 91
      541
 95
       25
 70
     0
 93
      114
310
04000041C080000000000000000000
  0
DICTIONARY
  5
4D
102
{ACAD_REACTORS
330
C
102
}
330
C
100
AcDbDictionary
281
     1
  3
AcmBOMDATA
350
4E
  3
AcmStdDictionary
350
17E
  3
AMDTSECTSYM_ARROWCOLOR
350
17FC9
  0
ACAD_PROXY_OBJECT
  5
36
102
{ACAD_REACTORS
330
C
102
}
330
C
100
AcDbProxyObject
 90
      499
 91
      510
 95
       25
 70
     0
 93
       50
310
00010040400000
330
0
330
0
330
37
 94
        0
  0
ACAD_PROXY_OBJECT
  5
2F
102
{ACAD_REACTORS
330
C
102
}
330
C
100
AcDbProxyObject
 90
      499
 91
      505
 95
       25
 70
     0
 93
     5914
310
4780504554E444F80504554E444F8050844524F5047454F4D404052D4D5347202D205050413A2020206465736B746F702E6172782046696C6556657273696F6E3A20392E322E302E34014390535115149154D15511109353D1102014213880B4815539113C05084E202D20554E444F014115539113E014115539113D01014B
310
5354D1C80B481414104E88080819195CDADD1BDC0B985C9E08119A5B1955995C9CDA5BDB8E880E4B8C8B8C0B8D005054552415345805055153415645404052D4D5347202D205050413A2020206465736B746F702E6172782046696C6556657273696F6E3A20392E322E302E3401415454D05591501014B5354D1C80B481414
310
104E88080819195CDADD1BDC0B985C9E08119A5B1955995C9CDA5BDB8E880E4B8C8B8C0B8D005055055524745805055153415645404052D4D5347202D205050413A2020206465736B746F702E6172782046696C6556657273696F6E3A20392E322E302E34014390535115149154D15511109353D1102014213880B48155391
310
13C05084E202D20554E444F014115539113E014115539113E0142111493D411D153D3601415454D05591501014B5354D1C80B481414104E88080819195CDADD1BDC0B985C9E08119A5B1955995C9CDA5BDB8E880E4B8C8B8C0B8D0050E414D4454524553455444424D4F4440805084E202D20554E444F014213880B4815539
310
113C0504554E444F80504554E444F80506524F544154458050844524F5047454F4D8050C475249505F53545245544348805044D4F5645805045A4F4F4D805055153415645404052D4D5347202D205050413A2020206465736B746F702E6172782046696C6556657273696F6E3A20392E322E302E34014390535115149154D1
310
5511109353D1102014213880B4815539113C05084E202D20554E444F014115539113E014115539113E014154155491D1601415454D05591501014B5354D1C80B481414104E88080819195CDADD1BDC0B985C9E08119A5B1955995C9CDA5BDB8E880E4B8C8B8C0B8D00
  0
ACAD_PROXY_OBJECT
  5
2E
102
{ACAD_REACTORS
330
C
102
}
330
C
100
AcDbProxyObject
 90
      499
 91
      504
 95
       25
 70
     0
 93
      586
310
09000046408000000000000000001344E200000000000000000000000000000000000000000000000000000000000000000000000000000000000000000000000000000000AAA406AA80
360
33
360
34
360
35
360
37
360
6B
360
6C
360
17F81
360
17F82
360
17F83
360
17F84
360
17F85
360
17F86
360
17F89
360
17F8A
360
17F8B
360
17F8C
360
17F8D
360
17F8E
360
17F8F
360
17F90
360
17F91
360
17F92
360
17F93
360
17F94
360
17F95
360
17F96
360
17F97
360
17F98
360
17F99
360
17F9A
360
17F9B
360
17F9C
360
17F9D
360
17F9E
360
17F9F
360
17FA0
360
17FA1
360
17FA2
360
17FAE
360
17FAF
360
17FB0
360
17FB1
360
17FB7
360
17FB8
360
17FB9
360
17FBA
360
17FBF
360
17FC0
360
17FC1
360
17FC2
360
17FC3
360
17FC4
 94
        0
  0
ACAD_PROXY_OBJECT
  5
3B
102
{ACAD_REACTORS
330
C
102
}
330
C
100
AcDbProxyObject
 90
      499
 91
      515
 95
       25
 70
     0
 93
       50
310
09000042641280
  0
ACAD_PROXY_OBJECT
  5
32
102
{ACAD_REACTORS
330
C
102
}
330
C
100
AcDbProxyObject
 90
      499
 91
      507
 95
       25
 70
     0
 93
       48
310
903412000000
330
33
330
34
330
35
 94
        0
  0
ACAD_PROXY_OBJECT
  5
6A
102
{ACAD_REACTORS
330
C
102
}
330
C
100
AcDbProxyObject
 90
      499
 91
      507
 95
       25
 70
     0
 93
       40
310
90240E0000
330
6B
330
6C
 94
        0
  0
ACAD_PROXY_OBJECT
  5
17FB3
102
{ACAD_REACTORS
330
C
102
}
330
C
100
AcDbProxyObject
 90
      499
 91
      551
 95
       25
 70
     0
 93
       42
310
000900004040
330
17FAE
 94
        0
  0
ACAD_PROXY_OBJECT
  5
17FB2
102
{ACAD_REACTORS
330
C
102
}
330
C
100
AcDbProxyObject
 90
      499
 91
      507
 95
       25
 70
     0
 93
        8
310
AA
  0
ACAD_PROXY_OBJECT
  5
17FA3
102
{ACAD_REACTORS
330
C
102
}
330
C
100
AcDbProxyObject
 90
      499
 91
      540
 95
       25
 70
     0
 93
       42
310
000100005E80
330
17F81
 94
        0
  0
DICTIONARY
  5
3F
102
{ACAD_REACTORS
330
C
102
}
330
C
100
AcDbDictionary
281
     1
  3
AcMgSettings
350
40
  3
AMGLAYCFG
350
42
  0
DICTIONARY
  5
73
102
{ACAD_REACTORS
330
C
102
}
330
C
100
AcDbDictionary
281
     1
  3
DIMENSION
350
62F
  3
FEA
350
630
  3
HATCH (1)
350
631
  3
HATCH (2)
350
632
  3
SYMBOLS
350
633
  0
ACAD_PROXY_OBJECT
  5
17FAB
102
{ACAD_REACTORS
330
C
102
}
330
C
100
AcDbProxyObject
 90
      499
 91
      544
 95
       25
 70
     0
 93
       34
310
0500004280
  0
DICTIONARY
  5
180CF
102
{ACAD_REACTORS
330
C
102
}
330
C
100
AcDbDictionary
281
     1
  3
ASEBlockHierarchyIndexRecord
350
180D1
1001
DCO15
1040
1562583530.734
  0
ACAD_PROXY_OBJECT
  5
17FBB
102
{ACAD_REACTORS
330
C
102
}
330
C
100
AcDbProxyObject
 90
      499
 91
      554
 95
       25
 70
     0
 93
       98
310
0900004E400000000000000000
330
17FC2
330
0
330
17FC3
330
0
330
0
330
0
330
0
330
0
 94
        0
  0
ACAD_PROXY_OBJECT
  5
17FB6
102
{ACAD_REACTORS
330
C
102
}
330
C
100
AcDbProxyObject
 90
      499
 91
      507
 95
       25
 70
     0
 93
       56
310
90441600000000
330
17FB7
330
17FB8
330
17FB9
330
17FBA
 94
        0
  0
XRECORD
  5
18887
102
{ACAD_REACTORS
330
C
102
}
330
C
100
AcDbXrecord
280
     1
  1
DWGPROPS COOKIE
  2

  3

  4

  6

  7

  8

  9

300
AmdtFileType=82
301
=
302
=
303
=
304
=
305
=
306
=
307
=
308
=
309
=
 40
0.0
 41
2451943.235431667
 42
2455478.202757338
  1

 90
        1
  0
DICTIONARY
  5
2A40
102
{ACAD_REACTORS
330
C
102
}
330
C
100
AcDbDictionary
281
     1
  3
eng_id
350
2A41
  0
DICTIONARY
  5
2916
102
{ACAD_REACTORS
330
C
102
}
330
C
100
AcDbDictionary
281
     1
  3
FILENAME
350
2917
  0
ACAD_PROXY_OBJECT
  5
17FAC
102
{ACAD_REACTORS
330
C
102
}
330
C
100
AcDbProxyObject
 90
      499
 91
      545
 95
       25
 70
     0
 93
        8
310
05
  0
DICTIONARY
  5
2A3E
102
{ACAD_REACTORS
330
C
102
}
330
C
100
AcDbDictionary
281
     1
  3
line_data
350
2A3F
  0
DICTIONARY
  5
1688
102
{ACAD_REACTORS
330
C
102
}
330
C
100
AcDbDictionary
281
     1
  3
input_data
350
168A
  3
table_data
350
1689
  0
DICTIONARY
  5
2918
102
{ACAD_REACTORS
330
C
102
}
330
C
100
AcDbDictionary
281
     1
  3
ZWKSIZE
350
2919
  0
DICTIONARY
  5
18441
102
{ACAD_REACTORS
330
18440
102
}
330
18440
100
AcDbDictionary
281
     1
  0
LAYOUT
  5
22
102
{ACAD_REACTORS
330
1A
102
}
330
1A
100
AcDbPlotSettings
  1

  2
SII LP-2150 (D-SCAN C2)
  4
User262
  6
AM_VIEW1
 40
3.174999952316284
 41
3.174999952316284
 42
3.17498779296875
 43
3.17498779296875
 44
296.9259948730469
 45
419.9889831542969
 46
0.0
 47
0.0
 48
0.0
 49
0.0
140
420.0
141
297.0
142
1.0
143
1.022107788374329
 70
 11952
 72
     1
 73
     1
 74
     4
  7
sei_cad.ctb
 75
     0
147
0.9783703943695685
148
0.0
149
0.0
100
AcDbLayout
  1
Model
 70
     1
 71
     0
 10
0.0
 20
0.0
 11
12.0
 21
9.0
 12
0.0
 22
0.0
 32
0.0
 14
0.0
 24
0.0
 34
0.0
 15
0.0
 25
0.0
 35
0.0
146
0.0
 13
0.0
 23
0.0
 33
0.0
 16
1.0
 26
0.0
 36
0.0
 17
0.0
 27
1.0
 37
0.0
 76
     0
330
1F
  0
LAYOUT
  5
1E
102
{ACAD_REACTORS
330
1A
102
}
330
1A
100
AcDbPlotSettings
  1

  2
Canon LASER SHOT LBP-2030
  4

  6

 40
0.0
 41
0.0
 42
0.0
 43
0.0
 44
0.0
 45
0.0
 46
0.0
 47
0.0
 48
0.0
 49
0.0
140
0.0
141
0.0
142
1.0
143
1.0
 70
   688
 72
     0
 73
     0
 74
     5
  7
sei_cad.ctb
 75
    16
147
1.0
148
0.0
149
0.0
100
AcDbLayout
  1
ﾚｲｱｳﾄ1
 70
     1
 71
     1
 10
0.0
 20
0.0
 11
420.0
 21
297.0
 12
0.0
 22
0.0
 32
0.0
 14
1.000000000000000E+20
 24
1.000000000000000E+20
 34
1.000000000000000E+20
 15
-1.000000000000000E+20
 25
-1.000000000000000E+20
 35
-1.000000000000000E+20
146
0.0
 13
0.0
 23
0.0
 33
0.0
 16
1.0
 26
0.0
 36
0.0
 17
0.0
 27
1.0
 37
0.0
 76
     0
330
1B
  0
LAYOUT
  5
26
102
{ACAD_REACTORS
330
1A
102
}
330
1A
100
AcDbPlotSettings
  1

  2
Canon LASER SHOT LBP-2030
  4

  6

 40
0.0
 41
0.0
 42
0.0
 43
0.0
 44
0.0
 45
0.0
 46
0.0
 47
0.0
 48
0.0
 49
0.0
140
0.0
141
0.0
142
1.0
143
1.0
 70
   688
 72
     0
 73
     0
 74
     5
  7
sei_cad.ctb
 75
    16
147
1.0
148
0.0
149
0.0
100
AcDbLayout
  1
ﾚｲｱｳﾄ2
 70
     1
 71
     2
 10
0.0
 20
0.0
 11
12.0
 21
9.0
 12
0.0
 22
0.0
 32
0.0
 14
0.0
 24
0.0
 34
0.0
 15
0.0
 25
0.0
 35
0.0
146
0.0
 13
0.0
 23
0.0
 33
0.0
 16
1.0
 26
0.0
 36
0.0
 17
0.0
 27
1.0
 37
0.0
 76
     0
330
23
  0
MLINESTYLE
  5
18
102
{ACAD_REACTORS
330
17
102
}
330
17
100
AcDbMlineStyle
  2
STANDARD
 70
     0
  3

 62
   256
 51
90.0
 52
90.0
 71
     2
 49
0.5
 62
   256
  6
BYLAYER
 49
-0.5
 62
   256
  6
BYLAYER
  0
ACDBPLACEHOLDER
  5
F
102
{ACAD_REACTORS
330
E
102
}
330
E
  0
TABLESTYLE
  5
17F6F
102
{ACAD_REACTORS
330
17F6E
102
}
330
17F6E
100
AcDbTableStyle
  3
Standard
 70
     0
 71
     8
 40
1.5
 41
1.5
280
     0
281
     0
  7
STANDARD
140
4.5
170
     2
 62
     0
 63
     7
283
     0
274
    -2
284
     1
 64
     0
275
    -2
285
     1
 65
     0
276
    -2
286
     1
 66
     0
277
    -2
287
     1
 67
     0
278
    -2
288
     1
 68
     0
279
    -2
289
     1
 69
     0
  7
STANDARD
140
6.0
170
     5
 62
     0
 63
     7
283
     0
274
    -2
284
     1
 64
     0
275
    -2
285
     1
 65
     0
276
    -2
286
     1
 66
     0
277
    -2
287
     1
 67
     0
278
    -2
288
     1
 68
     0
279
    -2
289
     1
 69
     0
  7
STANDARD
140
4.5
170
     5
 62
     0
 63
     7
283
     0
274
    -2
284
     1
 64
     0
275
    -2
285
     1
 65
     0
276
    -2
286
     1
 66
     0
277
    -2
287
     1
 67
     0
278
    -2
288
     1
 68
     0
279
    -2
289
     1
 69
     0
  0
XRECORD
  5
18885
102
{ACAD_REACTORS
330
18884
102
}
330
18884
100
AcDbXrecord
280
     1
340
17F6D
  0
XRECORD
  5
18886
102
{ACAD_REACTORS
330
18884
102
}
330
18884
100
AcDbXrecord
280
     1
340
17F6C
  0
DICTIONARYVAR
  5
17FE0
102
{ACAD_REACTORS
330
30
102
}
330
30
100
DictionaryVariables
280
     0
  1
STANDARD
  0
DICTIONARYVAR
  5
18883
102
{ACAD_REACTORS
330
30
102
}
330
30
100
DictionaryVariables
280
     0
  1
0
  0
DICTIONARYVAR
  5
18882
102
{ACAD_REACTORS
330
30
102
}
330
30
100
DictionaryVariables
280
     0
  1
1
  0
ACAD_PROXY_OBJECT
  5
4E
102
{ACAD_REACTORS
330
4D
102
}
330
4D
100
AcDbProxyObject
 90
      499
 91
      520
 95
       25
 70
     0
 93
      118
310
405010040CA904C415CD5B075DD0D8
350
4F
 94
        0
  0
DICTIONARY
  5
17E
102
{ACAD_REACTORS
330
4D
102
}
330
4D
100
AcDbDictionary
281
     1
  3
JIS
350
17F
  0
XRECORD
  5
17FC9
102
{ACAD_REACTORS
330
4D
102
}
330
4D
100
AcDbXrecord
280
     1
 90
-1023410169
  0
ACAD_PROXY_OBJECT
  5
33
330
2E
100
AcDbProxyObject
 90
      499
 91
      508
 95
       25
 70
     0
 93
      156
310
00010143D050D351505391D5531054925390D490
330
2E
 94
        0
  0
ACAD_PROXY_OBJECT
  5
34
330
2E
100
AcDbProxyObject
 90
      499
 91
      508
 95
       25
 70
     0
 93
      148
310
000101439050D351531253915054925390D490
330
2E
 94
        0
  0
ACAD_PROXY_OBJECT
  5
35
330
2E
100
AcDbProxyObject
 90
      499
 91
      509
 95
       25
 70
     0
 93
      156
310
000101439050D35154D6535093D314D256915080
330
2E
 94
        0
  0
ACAD_PROXY_OBJECT
  5
37
330
2E
100
AcDbProxyObject
 90
      499
 91
      511
 95
       25
 70
     0
 93
       88
310
000101411093D34C402B00
330
2E
330
0
330
0
 94
        0
  0
ACAD_PROXY_OBJECT
  5
6B
330
2E
100
AcDbProxyObject
 90
      499
 91
      509
 95
       25
 70
     0
 93
      108
310
00010142505351D153D35054D4E0
330
2E
 94
        0
  0
ACAD_PROXY_OBJECT
  5
6C
330
2E
100
AcDbProxyObject
 90
      499
 91
      522
 95
       25
 70
     0
 93
      140
310
00010142105350D55494D511005034A49530
330
2E
 94
        0
  0
ACAD_PROXY_OBJECT
  5
17F81
330
2E
100
AcDbProxyObject
 90
      499
 91
      536
 95
       25
 70
     0
 93
      358
310
0001014124FEA55D00507392E322E302E32014124FEA55D00507392E322E302E3240501000041505391D311658
330
2E
330
17F82
330
17F88
 94
        0
  0
ACAD_PROXY_OBJECT
  5
17F82
330
2E
100
AcDbProxyObject
 90
      499
 91
      537
 95
       25
 70
     0
 93
       56
310
000190240E0000
330
2E
330
17F83
330
17F85
 94
        0
  0
ACAD_PROXY_OBJECT
  5
17F83
330
2E
100
AcDbProxyObject
 90
      499
 91
      538
 95
       25
 70
     0
 93
       48
310
0001AA000000
330
2E
330
1E
330
17F84
330
0
 94
        0
  0
ACAD_PROXY_OBJECT
  5
17F84
330
2E
100
AcDbProxyObject
 90
      499
 91
      539
 95
       25
 70
     0
 93
       28
310
0001AAA0
330
2E
 94
        0
  0
ACAD_PROXY_OBJECT
  5
17F85
330
2E
100
AcDbProxyObject
 90
      499
 91
      538
 95
       25
 70
     0
 93
       48
310
0001AA000000
330
2E
330
26
330
17F86
330
0
 94
        0
  0
ACAD_PROXY_OBJECT
  5
17F86
330
2E
100
AcDbProxyObject
 90
      499
 91
      539
 95
       25
 70
     0
 93
       28
310
0001AAA0
330
2E
 94
        0
  0
ACAD_PROXY_OBJECT
  5
17F89
330
2E
100
AcDbProxyObject
 90
      499
 91
      509
 95
       25
 70
     0
 93
      108
310
000101421053521310D05310D010
330
2E
 94
        0
  0
ACAD_PROXY_OBJECT
  5
17F8A
330
2E
100
AcDbProxyObject
 90
      499
 91
      509
 95
       25
 70
     0
 93
      124
310
00010142905354915554D15112535010
330
2E
 94
        0
  0
ACAD_PROXY_OBJECT
  5
17F8B
330
2E
100
AcDbProxyObject
 90
      499
 91
      509
 95
       25
 70
     0
 93
      132
310
00010143105354D150D51253D391125360
330
2E
 94
        0
  0
ACAD_PROXY_OBJECT
  5
17F8C
330
2E
100
AcDbProxyObject
 90
      499
 91
      509
 95
       25
 70
     0
 93
      124
310
00010142905355941093D49111549010
330
2E
 94
        0
  0
ACAD_PROXY_OBJECT
  5
17F8D
330
2E
100
AcDbProxyObject
 90
      499
 91
      509
 95
       25
 70
     0
 93
      116
310
0001014290535115D1D0D3D313D4A0
330
2E
 94
        0
  0
ACAD_PROXY_OBJECT
  5
17F8E
330
2E
100
AcDbProxyObject
 90
      499
 91
      509
 95
       25
 70
     0
 93
      148
310
00010143505355925155D49151949154D21010
330
2E
 94
        0
  0
ACAD_PROXY_OBJECT
  5
17F8F
330
2E
100
AcDbProxyObject
 90
      499
 91
      509
 95
       25
 70
     0
 93
      172
310
00010144105350539393D51154149154D15495915010
330
2E
 94
        0
  0
ACAD_PROXY_OBJECT
  5
17F90
330
2E
100
AcDbProxyObject
 90
      499
 91
      509
 95
       25
 70
     0
 93
      172
310
00010144105350555513D11253505494905391D15010
330
2E
 94
        0
  0
ACAD_PROXY_OBJECT
  5
17F91
330
2E
100
AcDbProxyObject
 90
      499
 91
      509
 95
       25
 70
     0
 93
      124
310
00010142D05351561514915191125360
330
2E
 94
        0
  0
ACAD_PROXY_OBJECT
  5
17F92
330
2E
100
AcDbProxyObject
 90
      499
 91
      509
 95
       25
 70
     0
 93
      132
310
00010142D05355105410539393D5115010
330
2E
 94
        0
  0
ACAD_PROXY_OBJECT
  5
17F93
330
2E
100
AcDbProxyObject
 90
      499
 91
      509
 95
       25
 70
     0
 93
      108
310
00010142105350555513D0D31010
330
2E
 94
        0
  0
ACAD_PROXY_OBJECT
  5
17F94
330
2E
100
AcDbProxyObject
 90
      499
 91
      509
 95
       25
 70
     0
 93
      108
310
00010142105350D3119150551050
330
2E
 94
        0
  0
ACAD_PROXY_OBJECT
  5
17F95
330
2E
100
AcDbProxyObject
 90
      499
 91
      509
 95
       25
 70
     0
 93
      108
310
00010142105350D315925155D3F0
330
2E
 94
        0
  0
ACAD_PROXY_OBJECT
  5
17F96
330
2E
100
AcDbProxyObject
 90
      499
 91
      509
 95
       25
 70
     0
 93
      148
310
0001014350535212511156915493D112535010
330
2E
 94
        0
  0
ACAD_PROXY_OBJECT
  5
17F97
330
2E
100
AcDbProxyObject
 90
      499
 91
      509
 95
       25
 70
     0
 93
      124
310
00010142905352105510D21254D3D010
330
2E
 94
        0
  0
ACAD_PROXY_OBJECT
  5
17F98
330
2E
100
AcDbProxyObject
 90
      499
 91
      509
 95
       25
 70
     0
 93
      148
310
00010143905354D25391D31152105513105660
330
2E
 94
        0
  0
ACAD_PROXY_OBJECT
  5
17F99
330
2E
100
AcDbProxyObject
 90
      499
 91
      509
 95
       25
 70
     0
 93
      124
310
00010142D0535115D1D193111254D420
330
2E
 94
        0
  0
ACAD_PROXY_OBJECT
  5
17F9A
330
2E
100
AcDbProxyObject
 90
      499
 91
      509
 95
       25
 70
     0
 93
      100
310
00010142105350555513D213A0
330
2E
 94
        0
  0
ACAD_PROXY_OBJECT
  5
17F9B
330
2E
100
AcDbProxyObject
 90
      499
 91
      509
 95
       25
 70
     0
 93
      116
310
000101425053521390D3D553951010
330
2E
 94
        0
  0
ACAD_PROXY_OBJECT
  5
17F9C
330
2E
100
AcDbProxyObject
 90
      499
 91
      509
 95
       25
 70
     0
 93
      108
310
0001014210535213941493D29010
330
2E
 94
        0
  0
ACAD_PROXY_OBJECT
  5
17F9D
330
2E
100
AcDbProxyObject
 90
      499
 91
      509
 95
       25
 70
     0
 93
      108
310
0001014210535213951654115070
330
2E
 94
        0
  0
ACAD_PROXY_OBJECT
  5
17F9E
330
2E
100
AcDbProxyObject
 90
      499
 91
      509
 95
       25
 70
     0
 93
      108
310
000101421053521395925155D0F0
330
2E
 94
        0
  0
ACAD_PROXY_OBJECT
  5
17F9F
330
2E
100
AcDbProxyObject
 90
      499
 91
      509
 95
       25
 70
     0
 93
      140
310
00010143505354D150D51253D390D3D41660
330
2E
 94
        0
  0
ACAD_PROXY_OBJECT
  5
17FA0
330
2E
100
AcDbProxyObject
 90
      499
 91
      509
 95
       25
 70
     0
 93
      108
310
00010142105350D3141493D29030
330
2E
 94
        0
  0
ACAD_PROXY_OBJECT
  5
17FA1
330
2E
100
AcDbProxyObject
 90
      499
 91
      508
 95
       25
 70
     0
 93
      212
310
00010143905350555513D2105510D21493D500000000000002E400
330
2E
 94
        0
  0
ACAD_PROXY_OBJECT
  5
17FA2
330
2E
100
AcDbProxyObject
 90
      499
 91
      509
 95
       25
 70
     0
 93
      156
310
00010143905350555513D2105510D21111551010
330
2E
 94
        0
  0
ACAD_PROXY_OBJECT
  5
17FAE
330
2E
100
AcDbProxyObject
 90
      499
 91
      547
 95
       25
 70
     0
 93
      698
310
0001000000009AA6A9AA4051E576564205365702030372030323A35363A323920323030352028555443290141CE4B8C8B8C0B8C80518467269204F63742030382031333A35313A353820323031300141CE4B8C8B8C0B8C80
330
2E
330
17FAF
330
17FB0
330
17FB2
330
0
 94
        0
  0
ACAD_PROXY_OBJECT
  5
17FAF
330
2E
100
AcDbProxyObject
 90
      499
 91
      548
 95
       25
 70
     0
 93
       70
310
0001AAA80820000000
330
2E
330
17FAF
330
17FAF
 94
        0
  0
ACAD_PROXY_OBJECT
  5
17FB0
330
2E
100
AcDbProxyObject
 90
      499
 91
      549
 95
       25
 70
     0
 93
       48
310
000100000000
330
2E
330
0
330
17FB1
330
0
330
0
 94
        0
  0
ACAD_PROXY_OBJECT
  5
17FB1
330
2E
100
AcDbProxyObject
 90
      499
 91
      550
 95
       25
 70
     0
 93
       40
310
000100AAAA
330
2E
330
0
 94
        0
  0
ACAD_PROXY_OBJECT
  5
17FB7
330
2E
100
AcDbProxyObject
 90
      499
 91
      522
 95
       25
 70
     0
 93
      180
310
00010143105050D3D35411119390535140504434F4D500
330
2E
 94
        0
  0
ACAD_PROXY_OBJECT
  5
17FB8
330
2E
100
AcDbProxyObject
 90
      499
 91
      522
 95
       25
 70
     0
 93
      212
310
0001014390505193D311115491119390535140506466F6C6465720
330
2E
 94
        0
  0
ACAD_PROXY_OBJECT
  5
17FB9
330
2E
100
AcDbProxyObject
 90
      499
 91
      522
 95
       25
 70
     0
 93
      180
310
00010143105050539393D1119390535140504284156290
330
2E
 94
        0
  0
ACAD_PROXY_OBJECT
  5
17FBA
330
2E
100
AcDbProxyObject
 90
      499
 91
      522
 95
       25
 70
     0
 93
      436
310
00010143905050D3D35415925155D31254D50052295BD96CA0A90B396CA0A894591A496CA0A8DB691A496CA0A89BA96CA0A95E28F95310
330
2E
 94
        0
  0
ACAD_PROXY_OBJECT
  5
17FBF
330
2E
100
AcDbProxyObject
 90
      499
 91
      555
 95
       25
 70
     0
 93
       32
310
00010000
330
2E
340
17FBC
330
17FC1
330
17FBC
 94
        0
  0
ACAD_PROXY_OBJECT
  5
17FC0
330
2E
100
AcDbProxyObject
 90
      499
 91
      556
 95
       25
 70
     0
 93
       18
310
000180
330
2E
 94
        0
  0
ACAD_PROXY_OBJECT
  5
17FC1
330
2E
100
AcDbProxyObject
 90
      499
 91
      557
 95
       25
 70
     0
 93
      226
310
00010144508C4D948B54D0D310D48C0E550CCB4C8C1050055401550000
330
2E
330
17FBF
330
17FC0
 94
        0
  0
ACAD_PROXY_OBJECT
  5
17FC2
330
2E
100
AcDbProxyObject
 90
      499
 91
      558
 95
       25
 70
     0
 93
      178
310
000100AAAAAAA2106D2FA50BAF90E0B1DB8DCD64ABF400
330
2E
330
17FC1
 94
        0
  0
ACAD_PROXY_OBJECT
  5
17FC3
330
2E
100
AcDbProxyObject
 90
      499
 91
      559
 95
       25
 70
     0
 93
      108
310
000190140A000000000000AAAAA0
330
2E
330
17FC4
330
17FC4
330
17FC4
330
17FC4
330
17FC4
330
0
 94
        0
  0
ACAD_PROXY_OBJECT
  5
17FC4
330
2E
100
AcDbProxyObject
 90
      499
 91
      560
 95
       25
 70
     0
 93
       51
310
00010000AAAA80
330
2E
330
17FC3
330
17FC1
 94
        0
  0
DICTIONARY
  5
40
102
{ACAD_REACTORS
330
3F
102
}
330
3F
100
AcDbDictionary
281
     1
  3
DWGSETTINGS
350
41
  3
FEM
350
69
  3
Shaft
350
56
  3
TRANSSETTINGS
350
4C
  0
ACAD_PROXY_OBJECT
  5
42
102
{ACAD_REACTORS
330
3F
102
}
330
3F
100
AcDbProxyObject
 90
      499
 91
      519
 95
       25
 70
     0
 93
    23232
310
41502491013041105357CC201C00030C011E441013141105357CC603800030C011E441013241105357CCA01400030C011E441013341105357CCE01800030C010D9013441105357CD200C00030C010D9013541105357CD600C00030C010D9013641105357CDA00800030C011E9013741105357CDE01000030C010D901384110
310
5357CE200400030C011E9013941105357CE63F400030C0241102324141505357CC4C201C00030C011E902344141505357CC4C600C00030C010D902495041505357CC4CA01C00030C011E40902304E41505357CC13A01C00030C011E902314E41505357CC53A03800030C011E902324E41505357CC93A01400030C011E90233
310
4E41505357CCD3A01800030C010D902344E41505357CD13A00C00030C010D902354E41505357CD53A00C00030C010D902364E41505357CD93A00800030C011E902374E41505357CDD3A01000030C010D902384E41505357CE13A00400030C011E902394E41505357CE53A3F400030C024110332414E41905357CC4C13A01C0
310
0030C011E90334414E41905357CC4C53A00C00030C010D90349504E41905357CC4C93A01C00030C011E409044B4C494E41505357D0D3200400030C011E42504494E464F42105357D410549151A01000030C010D42D055241484D3541905357D093D4A01C00030C011E425045649455742105357D5925155D4E00400030C011
310
E42D06424548494E4441905357D25395A3F400030C0243505545241494C41505357D514A00C00030C010D4250348494441905357D21251201C00030C011E4250356495341905357D59254E01C00030C011E4250650415244494D42505357D41054911253600C00030C010D4250652454644494D42505357D49151911253601
310
000030C010D425774110531514901348070000C300479034110915312501348000000C0003FFFFFFFD034110921395901398000000C0003FFFFFFFE415092139594D06424548494E448000000C0003FFFFFFFE411093125110234418000000C0003FFFFFFFD03411093D05410234418000000C0003FFFFFFFD03411093D48C
310
9055241484D358010000C30047A411093D48CD055241484D358020000C30047A411093D48D5055241484D358000000C0003FFFFFFFE411093D48DD055241484D3581E0000C30047903411094105410234418000000C0003FFFFFFFD03411094115610234418000000C0003FFFFFFFD034110951112501358000000C0003FFF
310
FFFFD034110D0530C901348000000C0003FFFFFFFE4110D0530CD01348020000C30047A4110D0530D501348070000C30047A4110D0530DD013481E0000C30047A4110D15393901378000000C0003FFFFFFFE4110D15395D01378000000C0003FFFFFFFE4110D312539044B4C494E8000000C0003FFFFFFFE4110D3D38C5013
310
08000000C0003FFFFFFFD034110D3D38C901318000000C0003FFFFFFFD034110D3D38CD01328000000C0003FFFFFFFD034110D3D38D101328000000C0003FFFFFFFD034111115494101348000000C0003FFFFFFFD034111115510501348000000C0003FFFFFFFE4111125051D01358000000C0003FFFFFFFE4111125312501
310
358000000C0003FFFFFFFE411112535410650415244494D8000000C0003FFFFFFFE411112535490652454644494D8000000C0003FFFFFFFE411156135410234418000000C0003FFFFFFFD034111915353901388000000C0003FFFFFFFE415191535413901388030000C3004364151915354D410234418000000C0003FFFFFF
310
FE4151915354D510234418030000C300436415191535593901328000000C0003FFFFFFFE415191535595101328030000C3004364111931055101308000000C0003FFFFFFFD03411194905490234418000000C0003FFFFFFFD034111D49312501358000000C0003FFFFFFFD034111D5931250234418000000C0003FFFFFFFD0
310
34112105510D01388000000C0003FFFFFFFD014112125113901338000000C0003FFFFFFFD034112125115D01338000000C0003FFFFFFFD034112131253901348000000C0003FFFFFFFD01411213D0D3901378000000C0003FFFFFFFE411213D0D5D01378000000C0003FFFFFFFE4112539193D04494E464F8000000C0003FF
310
FFFFFE4113105112501348000000C0003FFFFFFFD034113115051101358000000C0003FFFFFFFE419397D0921395902394E8000000C0003FFFFFFFE419397D0D3D38C502304E8000000C0003FFFFFFFD03419397D0D3D38C902314E8000000C0003FFFFFFFD03419397D0D3D38CD02324E8000000C0003FFFFFFFD03419397
310
D0D3D38D102324E8000000C0003FFFFFFFD03419397D0D15393902374E8000000C0003FFFFFFFE419397D0D15395D02374E8000000C0003FFFFFFFE419397D1125312502354E8000000C0003FFFFFFFE419397D2105510D02384E8000000C0003FFFFFFFD01419397D2125113902334E8000000C0003FFFFFFFD03419397D2
310
125115D02334E8000000C0003FFFFFFFD03419397D3115051102354E8000000C0003FFFFFFFE419397D391D25410349504E8000000C0003FFFFFFFE419397D412105390334414E8000000C0003FFFFFFFE419397D510D3D3902304E8000000C0003FFFFFFFD03419397D5121312502344E8000000C0003FFFFFFFD01419397
310
D5131153902304E8000000C0003FFFFFFFD03419397D516150CD02364E8000000C0003FFFFFFFD03419397D594131250332414E8000000C0003FFFFFFFE411391D25410249508000000C0003FFFFFFFE411410530C9055241484D358010000C30047A411410530CD055241484D358020000C30047A411410530D5055241484
310
D358000000C0003FFFFFFFE411410530DD055241484D3581E0000C30047903411412105390234418000000C0003FFFFFFFE411413D4D3901368070000C30047A419413D4D49151901368050000C30047903411413D4D6101368000000C0003FFFFFFFD03411414D150D0234418000000C0003FFFFFFFD03411490D1D390137
310
8000000C0003FFFFFFFE411490D1D5D01378000000C0003FFFFFFFE4114919112501348000000C0003FFFFFFFD034114945514901348070000C30047903411494D093D01348000000C0003FFFFFFFD034114D09492D01348000000C0003FFFFFFFD014114D0D153901378000000C0003FFFFFFFD034114D150D51013480000
310
00C0003FFFFFFFD014114D15313901378000000C0003FFFFFFFD034114D15315D01378000000C0003FFFFFFFD034114D4D654D01308000000C0003FFFFFFFD034114D51312501348070000C300479034114D6508C501358000000C0003FFFFFFFD034114D6508C901358000000C0003FFFFFFFD034114D6508CD0135802000
310
0C30047A4114D6508D501358070000C300479034114D65353901378000000C0003FFFFFFFD034114D65355D01378000000C0003FFFFFFFD03411510D3D3901308000000C0003FFFFFFFD034115121312501348000000C0003FFFFFFFD01411512550C9055241484D358010000C30047A411512550CD055241484D358020000
310
C30047A411512550D5055241484D358000000C0003FFFFFFFE411512550DD055241484D3581E0000C300479034115131153901308000000C0003FFFFFFFD03415514905253105545241494C8000000C0003FFFFFFFE41151492D3901378000000C0003FFFFFFFD0341151492D5D01378000000C0003FFFFFFFD03411514931
310
2501348000000C0003FFFFFFFD01411516150C501368030000C300436411516150C901368030000C300436411516150CD01368000000C0003FFFFFFFE411516150D501368070000C30047A411516150DD013681E0000C30047A4115925155D04564945578000000C0003FFFFFFFE41159151121034849448000000C0003FFF
310
FFFFD0241159151159035649538000000C0003FFFFFFFD02411594131250232418000000C0003FFFFFFFE4116925690501348000000C0003FFFFFFFD01411354D653501358020000C30047AAAA3F400030C01013F90A4391E41D1E4190D4151E4110D40D0D4091E4051E4791E7F6
340
16
340
16
340
16
340
43
340
16
340
16
340
16
340
44
340
16
340
16
340
44
340
45
340
16
340
16
340
16
340
16
340
43
340
16
340
16
340
16
340
44
340
16
340
16
340
44
340
45
340
16
340
46
340
16
340
16
340
16
340
16
340
16
340
43
340
16
340
16
340
16
340
47
340
15
340
15
340
15
340
15
340
15
340
15
340
15
340
15
340
15
340
15
340
15
340
15
340
15
340
15
340
15
340
15
340
48
340
15
340
15
340
15
340
15
340
15
340
15
340
15
340
15
340
15
340
15
340
15
340
15
340
15
340
15
340
15
340
16
340
15
340
15
340
15
340
15
340
15
340
15
340
15
340
15
340
47
340
15
340
15
340
48
340
15
340
15
340
15
340
15
340
15
340
15
340
15
340
15
340
15
340
48
340
15
340
15
340
15
340
47
340
15
340
15
340
15
340
15
340
15
340
15
340
15
340
15
340
15
340
15
340
15
340
15
340
15
340
15
340
15
340
15
340
15
340
15
340
15
340
48
340
15
340
15
340
48
340
15
340
15
340
16
340
15
340
48
340
15
340
15
340
47
340
15
340
15
340
16
340
15
340
48
340
15
340
15
340
15
340
15
340
15
340
15
340
15
340
15
340
15
340
48
340
15
340
15
340
15
340
15
340
15
340
15
340
15
340
15
340
15
340
15
340
15
340
4B
340
16
 94
        0
  0
ACAD_PROXY_OBJECT
  5
62F
102
{ACAD_REACTORS
330
73
102
}
330
73
100
AcDbProxyObject
 90
      499
 91
      523
 95
       25
 70
     0
 93
      253
310
43D1444494D454E53494F4E2C414D44545F2A5F44494D404A9012A404A9012A0
  0
ACAD_PROXY_OBJECT
  5
630
102
{ACAD_REACTORS
330
73
102
}
330
73
100
AcDbProxyObject
 90
      499
 91
      523
 95
       25
 70
     0
 93
      181
310
43D012A42D05357D191504B505357CA9012A404A9012A8
  0
ACAD_PROXY_OBJECT
  5
631
102
{ACAD_REACTORS
330
73
102
}
330
73
100
AcDbProxyObject
 90
      499
 91
      523
 95
       25
 70
     0
 93
      133
310
43D054841544348404A9012A404A9012A8
  0
ACAD_PROXY_OBJECT
  5
632
102
{ACAD_REACTORS
330
73
102
}
330
73
100
AcDbProxyObject
 90
      499
 91
      523
 95
       25
 70
     0
 93
      549
310
43D044C494E4549CE0B0E138B0A8B4E0B0A8B4E138B105357CE0B105357CE138B0A8B505357CE0B0A8B505357CE139012A404A910494E534552542C5354445041525432448
  0
ACAD_PROXY_OBJECT
  5
633
102
{ACAD_REACTORS
330
73
102
}
330
73
100
AcDbProxyObject
 90
      499
 91
      523
 95
       25
 70
     0
 93
      909
310
43D6641434D46434652414D452C41434D444154554D5441524745542C41434D444154554D49442C41434D57454C4453594D2C41434D5355524653594D2C41434D4645415449442C41434D504152545245462C41434D42414C4C4F4F4E2C414D44544544474553594D404A9012A404A9012A8
  0
XRECORD
  5
180D1
102
{ACAD_REACTORS
330
180CF
102
}
330
180CF
100
AcDbXrecord
280
     1
330
0
330
0
330
0
330
0
330
0
330
0
330
0
330
0
330
0
330
0
330
0
330
0
330
0
330
0
330
0
330
0
330
0
330
0
330
0
330
0
330
0
330
0
330
0
330
0
330
0
330
0
330
0
330
0
330
0
330
0
330
0
330
0
330
0
330
0
330
0
330
0
330
0
330
0
330
0
330
0
330
0
330
0
330
0
330
0
330
0
330
0
330
0
330
0
330
0
330
0
330
0
330
0
330
0
330
0
330
0
330
0
330
0
330
0
330
0
330
0
330
0
330
0
330
0
330
0
330
0
330
0
  0
XRECORD
  5
2A41
102
{ACAD_REACTORS
330
2A40
102
}
330
2A40
100
AcDbXrecord
280
     1
  1
LINE
  0

  0
XRECORD
  5
2917
102
{ACAD_REACTORS
330
2916
102
}
330
2916
100
AcDbXrecord
280
     1
  1
25000259__00___
  0

  0
XRECORD
  5
2A3F
102
{ACAD_REACTORS
330
2A3E
102
}
330
2A3E
100
AcDbXrecord
280
     1
  1
110 ^M^J ^M^J ^M^J ^M^J ^M^J ^M^J ^M^J ^M^J ^M^J ^M^J ^M^Jボーリングクイル ^M^J鋼 ^M^J特型 ^M^J直付け ^M^Jストレート ^M^J25 ^M^J2 ^M^J ^M^Jアルミ ^M^J ^M^J
  0

  0
XRECORD
  5
168A
102
{ACAD_REACTORS
330
1688
102
}
330
1688
100
AcDbXrecord
280
     1
  1
1,,,,,,,,,^M^J2,,,,,,,,,^M^J3,,,,,,,,,^M^J4,,,,,,,,,^M^J5,,,,,,,,,^M^J6,,,,,,,,,^M^J7,,,,,,,,,^M^J8,,,,,,,,,^M^J9,,,,,,,,,^M^J10,,,,,,,,,
  0

  0
XRECORD
  5
1689
102
{ACAD_REACTORS
330
1688
102
}
330
1688
100
AcDbXrecord
280
     1
  1
10,10
  0

  0
XRECORD
  5
2919
102
{ACAD_REACTORS
330
2918
102
}
330
2918
100
AcDbXrecord
280
     1
  1
3
  0

  0
ACAD_PROXY_OBJECT
  5
4F
102
{ACAD_REACTORS
330
4E
102
}
330
4E
100
AcDbProxyObject
 90
      499
 91
      521
 95
       25
 70
     0
 93
      157
310
057356C1D77406406AA8FFFFFFFF05DD01009010
330
1F
330
0
330
17FC1
 94
        0
  0
ACAD_PROXY_OBJECT
  5
17F
102
{ACAD_REACTORS
330
17E
102
}
330
17E
100
AcDbProxyObject
 90
      499
 91
      526
 95
       25
 70
     0
 93
     2379
310
5DC33333333333309408000000C00040D29254D01640600800030C0200800030C003333333333330940C8121E8720B1B6A9BAB9332A32BC3A29BA3220480A1282C6DA8C868CA6E8C88120286A0B1B6ABB2B63234B733A9BA3220480A1082C6DA92C8A6E8C88120285A0B1B6A230BA3AB6A9BA3220480A1282C6DA849E9AA6E
310
8C88120286A0B1A0B6B3AA34BA3632A9BA3220480A2082DAC8E888CAE8C2D2D8A6F2DAA6E8C88120288A0B6B23A29B2B1BA34B7B729BCB6A9BA3220480A2282DAC8E886CADCE8CAE498D2DCCAA6E8C88120288A0B6B23A2A343932B0B22634B732A9BA3220480A1682DAC8E89CDEE8CAA6E8C88120285A0B1A0B6B3A630BCA
310
9BA3220480A1682C682DACE88D2DAA6E8C88120288A0B1A0B6B3A437B632A1B430B93A29BA3220480C812020
340
180
360
181
360
182
360
183
360
184
360
185
360
186
360
17FC6
360
17FC7
360
17FC8
360
17FCA
360
17FCB
360
17FCC
360
17FD2
360
17FD3
360
17FD4
340
0
340
0
 94
        0
  0
ACAD_PROXY_OBJECT
  5
41
102
{ACAD_REACTORS
330
40
102
}
330
40
100
AcDbProxyObject
 90
      499
 91
      518
 95
       25
 70
     0
 93
     2954
310
4050B44574753455454494E4753A0E8482A68AA6A88882A069492A684A1A0A723A0A92920ACA0A811C1920C868A9C829C8E82A12686AF87260F862666A8321A2A72224A0A50000000000000122020E868A9C889282A682A106260F86460F8666083A1A2A72224A9AA250000000000000042020C868A9C988A9C94000000000
310
000048808321A2A727A323250000000000000122020E868A9C9E8C8C62940000000000000488083A1A2A727A32319250000000000000122021CC6D0C2DACCCAE4C8D2DADADEC8CA9FC84A1A624A720A92920ACA0A819918182108698929C8AA8B2A082A0AB098929C8A84A22BA3AAA9A1A0A622A50A0E9882A6A89E849482A
310
02608426A0A5A2AB24A2ABA7E8120CA0A68682988A0C00800010652455649534941501304154D0D0531150540CC4E8C5085354414E44415244415034A4953425512535154D5105354128385F0A409E4ADCD050756455253494F4E4150531352E3030441ED115D1D4D15515125391D4D153911F40
  0
ACAD_PROXY_OBJECT
  5
69
102
{ACAD_REACTORS
330
40
102
}
330
40
100
AcDbProxyObject
 90
      499
 91
      518
 95
       25
 70
     0
 93
      411
310
4050346454D21092DCC6E486DECACC942842630BCA3B937BAB820A8320A6AFA322A0A20F688AE8EA68AA8A8929C8EA68A9C88FA0
  0
ACAD_PROXY_OBJECT
  5
56
102
{ACAD_REACTORS
330
40
102
}
330
40
100
AcDbProxyObject
 90
      499
 91
      518
 95
       25
 70
     0
 93
      583
310
40505536861667421292DCE8CAE4E4EAE0E89FA0484A634B3B43A2634B732A7F21A98D2CED0E898D2DCCAACD2CAEE9FC8229B4B232A7E80A20F688AE8EA68AA8A8929C8EA68A9C88FA
  0
ACAD_PROXY_OBJECT
  5
4C
102
{ACAD_REACTORS
330
40
102
}
330
40
100
AcDbProxyObject
 90
      499
 91
      518
 95
       25
 70
     0
 93
      852
310
4050D5452414E5353455454494E4753A2488A482AE929C8EA8A4829CA69882A8929E9C0C00800050D4F524947494E414C4C595F4F4E0600400028529A7AAA921A2A620A723A0A81A52827212AAA0A48AA68AA4AC8A0C0080001107B44574753455454494E4753454E447D0
  0
ACAD_PROXY_OBJECT
  5
181
330
17F
100
AcDbProxyObject
 90
      499
 91
      527
 95
       25
 70
     0
 93
       86
310
5DEA0C80A0280A0280A034
  0
ACAD_PROXY_OBJECT
  5
182
330
17F
100
AcDbProxyObject
 90
      499
 91
      528
 95
       25
 70
     0
 93
      282
310
5DD0E4050140501405014050140501405014050141101405014041000000000000001000
340
187
 94
        0
  0
ACAD_PROXY_OBJECT
  5
183
330
17F
100
AcDbProxyObject
 90
      499
 91
      529
 95
       25
 70
     0
 93
      323
310
5DCC199999999999E99F91740501405014050140501405014050140501405014050140501405014040
340
0
 94
        0
  0
ACAD_PROXY_OBJECT
  5
184
330
17F
100
AcDbProxyObject
 90
      499
 91
      530
 95
       25
 70
     0
 93
       10
310
5DC0
  0
ACAD_PROXY_OBJECT
  5
185
330
17F
100
AcDbProxyObject
 90
      499
 91
      531
 95
       25
 70
     0
 93
      257
310
5DE0C16A22A7D90F49F80000000000001081400000000000004204010000618000
340
188
340
189
 94
        0
  0
ACAD_PROXY_OBJECT
  5
186
330
17F
100
AcDbProxyObject
 90
      499
 91
      532
 95
       25
 70
     0
 93
     5277
310
5DD06411255115350141236025B6901405014069010000000000000910240690120281A8AA2CA0282484A4BE52028120280A032020000000000001220480D202405044E414D454050496BC914F4051C40640A80000000000004E4090193C3D3C4946284953424C414E4B28504152543A4E414D45292C424C4F434B3A4E414D
310
452C504152543A4E414D45293E3C41435F44455343524950544E3E40480A109A82A88AA492829880A091BBD2F7E80A3A80C81D0E27A15AF46E08A81203480901411393D5115014124A363B7D0147501904A0000000000000F902406428F4F1050D7D393D5114F901202832B22A72227A92028366EF6EE06F582028EA0320B4
310
0000000000001F20480C879E9E20A1AFAB27222FA620A122A61F20240506445020000000000000490201C00030C00010180000000000003E400000000000000F901073D3C4954454D3E4050180000000000003E400000000000000F901073D3C4954454D3E40501800000000000034400000000000000D101073D3C4954454
310
D3E40501800000000000034400000000000000D101073D3C4954454D3E405029010000000000000F9000000000000003E4041CF4F125511534F901418F4F1455164F9014060000000000000F9000000000000003E4041CF4F125511534F901800000000000034400000000000000D101073D3C4954454D3E40640400000000
310
0000003E400000000000000F90288800000000000020810000001800120881A068120480A032208521122080D21480D211480A1485214852050000000000003C2FC000000000000F0BF40600800030C0200400030C00CDCCCCCCCCCCEC3F3373333333333B0FC3333333333330940C80D069014090341504901A1999999999
310
9984A040100006180400800061804010000618008098A02808
340
0
340
0
 94
        0
  0
ACAD_PROXY_OBJECT
  5
17FC6
330
17F
100
AcDbProxyObject
 90
      499
 91
      561
 95
       25
 70
     0
 93
     3042
310
5DD9740D29254D064A49535F413342929254D7D512551311505134A49535F42525F5265766973696F6E6C6973744190F4134522028323937783231306D6D2941D29254D7D04D1490E41312028353934783834316D6D2941929254D7D04C50E41332028323937783432306D6D2941929254D7D04CD0F41344C2028323130783
310
239376D6D2941D29254D7D04D1310E41322028343230783539346D6D2941929254D7D04C90F4130202838343178313138396D6D2941929254D7D04C10243129254C82557247A25E4C81050A4A49535F5449544C454143129254C82557247A25E4C81090A4A49535F5449544C45424110E979A97F0838A835883675F42525F4
310
4D29254D7D09497D4995D9A5CDA5BDB9B1A5CDD10E979A97F0838A835883675F54525F44D29254D7D51497D4995D9A5CDA5BDB9B1A5CDD10E979A97F0838A835883675F424C5F44D29254D7D09317D4995D9A5CDA5BDB9B1A5CDD10E979A97F0838A835883675F544C5F44D29254D7D51317D4995D9A5CDA5BDB9B1A5CDD00
  0
ACAD_PROXY_OBJECT
  5
17FC7
330
17F
100
AcDbProxyObject
 90
      499
 91
      562
 95
       25
 70
     0
 93
      898
310
5DC4000000000000124048CF4F11115510525317D3105091530F880A0F11115510525317D05094D4D0D053114F8A50241C9A9999999999B93F26A666666666724FC000000000000E03F400000000000000400000000000000510000000000000024408070000C300000000000000049000
340
16
340
180
 94
        0
  0
ACAD_PROXY_OBJECT
  5
17FC8
330
17F
100
AcDbProxyObject
 90
      499
 91
      563
 95
       25
 70
     0
 93
      823
310
5DC0B00000000000002480959E9E29A2A1AA24A7A72FA620A122A62FA324A929AA1F169E29A2A1AA24A7A72FA620A122A62FA620A9AA1F000000000000048803FFFE01C00030C008140380006180000000000000048800000000000000A2000000000000002480
340
652
340
180
 94
        0
  0
ACAD_PROXY_OBJECT
  5
17FCA
330
17F
100
AcDbProxyObject
 90
      499
 91
      564
 95
       25
 70
     0
 93
      152
310
5DE8273108AC1C5A0640A3D0A5723F0BD1F200
  0
ACAD_PROXY_OBJECT
  5
17FCB
330
17F
100
AcDbProxyObject
 90
      499
 91
      565
 95
       25
 70
     0
 93
       14
310
5DE0
340
0
 94
        0
  0
ACAD_PROXY_OBJECT
  5
17FCC
330
17F
100
AcDbProxyObject
 90
      499
 91
      566
 95
       25
 70
     0
 93
     6059
310
5DD084050BA4050AA405024050E836583938376838C815B83672031405983D3C486F6C653A6469613E3C696628657175616C28486F6C653A7465726D696E6174696F6E2C223022292C2220905B82B320222C22208368838A838B22293E3C696628657175616C28486F6C653A7465726D696E6174696F6E2C223022292C486F
310
6C653A64657074682C2222293E2C203C486F6C653A63746469613E2082B482AE82E882CC905B82B3203C486F6C653A637464657074683E406901405034050E836583938376838C815B83672031405EF3D3C486F6C653A6374616E676C653E252564202525633C486F6C653A63746469613E208E4D8C8A2C203C69662865717
310
5616C28486F6C653A7461707065642C223022292C22252563222C486F6C653A6E6F6D696E616C202220782022293E3C696628657175616C28486F6C653A7461707065642C223022292C486F6C653A6469612C486F6C653A706974636864657363293E203C696628657175616C28486F6C653A7465726D696E6174696F6E2C2
310
23022292C22905B82B320222C222022293E3C696628657175616C28486F6C653A7465726D696E6174696F6E2C223022292C486F6C653A64657074682C2222293E406901405014050E836583938376838C815B83672031405C73D3C696628657175616C28486F6C653A7461707065642C223022292C22252563222C486F6C65
310
3A6E6F6D696E616C202220782022293E3C696628657175616C28486F6C653A7461707065642C223022292C486F6C653A6469612C486F6C653A706974636864657363293E203C696628657175616C28486F6C653A7465726D696E6174696F6E2C223022292C22905B82B320222C222022293E3C696628657175616C28486F6C
310
653A7465726D696E6174696F6E2C223022292C486F6C653A64657074682C2222293E4069014051E4090E836583938376838C815B83672032405173D3C535444503A444553433E203C535444503A5354443E40690E836583938376838C815B836720314050C3D3C535444503A444553433E40690240515AAABBA120
360
17FD0
330
17FD0
360
17FD1
330
17FD1
360
17FCF
330
17FCF
360
17FCE
360
17FCD
330
17FCE
330
17FCD
 94
        0
  0
ACAD_PROXY_OBJECT
  5
17FD2
330
17F
100
AcDbProxyObject
 90
      499
 91
      568
 95
       25
 70
     0
 93
       26
310
5DD02A80
340
42
 94
        0
  0
ACAD_PROXY_OBJECT
  5
17FD3
330
17F
100
AcDbProxyObject
 90
      499
 91
      569
 95
       25
 70
     0
 93
      250
310
5DD020000000000000A1000000000000002440408F0F9023C3E409A0DCFFFF80
340
58
340
1B97
340
1B98
340
5F
340
60
340
61
340
62
340
63
340
68
340
0
 94
        0
  0
ACAD_PROXY_OBJECT
  5
17FD4
330
17F
100
AcDbProxyObject
 90
      499
 91
      570
 95
       25
 70
     0
 93
    13889
310
5DD1D003FFFFFFFD030300030CCCCCCCCCCCC250200800030C01030300030CCCCCCCCCCCC250200800030C00050C8DC0955782CC838A83588367014ED1D15395149050D3CB1294138B0C0B23702555E0B320E2A0D620D9CB11D15395149055160B095CCB0A11D1539354D1C819D95B991A5B5E880CCC0A78000C0000000000
310
00000000000000000000010CCCCCCCCCCCC250200800030C010CCCCCCCCCCCC250200800030C020143CF4F111959985D5B1D151A5D1B194F8050A8C8A8365815B8375838B014E51D15395149050D3CB1294138B0C0B2322A0D96056E0DD60E2CB11D15395149055160B095CCB0A11D1539354D1C819D95B991A5B5E880CCC4
310
A78000C000000000000000000000000000000010CCCCCCCCCCCC250200800030C010CCCCCCCCCCCC250200800030C020143CF4F111959985D5B1D151A5D1B194F90D44111409034110541D0C4350F4050E44D03449074510F000141232D24D7C053247454E545241434F2C4A504E2C302C8CB4935F2C47454E54524154582C
310
25732C2847454E4D53472067656E64696D7A20312900010104002214000281464500A608E8A9CA8A482869E5894A09C5860591914588E8A9CA8A482A8B0584AE658508E8A9C9AA68E40CECADCC8D2DAF4406452029E9E9E27B934B3B4B71F1E24A31427A91424A9A12620A7259427B934B3B4B7149624A9A12620A7259424B
310
A32B6949496111116111711149F1E24BA32B69F00808200111A000140560052F47454E545241434F2C4A504E2C302C582C47454E54524154582C25732C2847454E4D53472067656E64696D7A20332900010100002054000280AC80A5E8E8A9CA8A482869E5894A09C586058B2588E8A9CA8A482A8B0584AE658508E8A9C9AA
310
68E40CECADCC8D2DAF4406852000202000040E800050152014BD1D15395149050D3CB1294138B0C0B148B11D15395149055160B095CCB0A11D1539354D1C819D95B991A5B5E880D8A400040400008250000A0507A6029823A2A72A2920A1A79625282716181641E99623A2A72A2920AA2C1612B9961423A2A726A9A39033B2
310
B73234B6BD101B948000808180105A000140A0F4C053047454E545241434F2C4A504E2C302C83D32C47454E54524154582C25732C2847454E4D53472067656E64696D7A203829000101010020F400028248704B5F00A668E8A9CA8A482869E5894A09C58605921C12D7C588E8A9CA8A482A8B0584AE658508E8A9C9AA68E40
310
CECADCC8D2DAF440646052000200080043280005048B4B8A69014CD1D15395149050D3CB1294138B0C0B22D2E29A4B11D15395149055160B095CCB0A11D1539354D1C819D95B991A5B5E880C8C4A4000400100086D0000A09196926BE029923A2A72A2920A1A796252827161816465A49AF9623A2A72A2920AA2C1612B9961
310
423A2A726A9A39033B2B73234B6BD10189480A02620202080043E80005048D8096DA014CD1D15395149050D3CB1294138B0C0B236025B68B11D15395149055160B095CCB0A11D1539354D1C819D95B991A5B5E880C4D0A4000404140280D0000A190687072706CD06C5069D06B0029DA3A2A72A2920A1A7962528271618164
310
1A1C1C9C1B341B141A741AC1623A2A72A2920AA2C1612B9961423A2A726A9A39033B2B73234B6BD10189A94800080820050EA000143A322A0D0E0E4E0D9A0D8A0D3A0D60053D47454E545241434F2C4A504E2C302C8C8A8343839383668362834E83582C47454E54524154582C25732C2847454E4D53472067656E64696D7A
310
2031372900010105002274000281464500A628E8A9CA8A482869E5894A09C5860591914588E8A9CA8A482A8B0584AE658508E8A9C9AA68E40CECADCC8D2DAF440626C52000202080044A8000504909497CA014CD1D15395149050D3CB1294138B0C0B242525F28B11D15395149055160B095CCB0A11D1539354D1C819D95B9
310
91A5B5E880C4E4A400040418008A521E000000000000001CA040C00000000000034408080000000000006881010000000000000D102040000000000001A204080000000000003440818000000000000728103000000000000125020600000000004028A040000000000000034408000000000000004881000000000000000D
310
102000000000000001A204000000000000003440818000000000000508143C0000000000000039408180000000000006881030000000000000D102060000000000001A2040C00000000000034408180000000000006881030000000000000E5020600000000000024A040C0000000000805140800000000000000688100000
310
00000000009102000000000000001A2040000000000000034408180000000000006881030000000000000A10284220000000878000002020000008380000020400000081800000208000000828000002028900000000
340
0
340
0
340
0
340
0
340
180
340
180
 94
        0
  0
ACAD_PROXY_OBJECT
  5
17FD0
330
17FCC
100
AcDbProxyObject
 90
      499
 91
      567
 95
       25
 70
     0
 93
     1376
310
5DE0143A0D960E4E0DDA0E32056E0D9C80C405983D3C486F6C653A6469613E3C696628657175616C28486F6C653A7465726D696E6174696F6E2C223022292C2220905B82B320222C22208368838A838B22293E3C696628657175616C28486F6C653A7465726D696E6174696F6E2C223022292C486F6C653A64657074682C22
310
22293E2C203C486F6C653A63746469613E2082B482AE82E882CC905B82B3203C486F6C653A637464657074683E
  0
ACAD_PROXY_OBJECT
  5
17FD1
330
17FCC
100
AcDbProxyObject
 90
      499
 91
      567
 95
       25
 70
     0
 93
     2072
310
5DE0143A0D960E4E0DDA0E32056E0D9C80C405EF3D3C486F6C653A6374616E676C653E252564202525633C486F6C653A63746469613E208E4D8C8A2C203C696628657175616C28486F6C653A7461707065642C223022292C22252563222C486F6C653A6E6F6D696E616C202220782022293E3C696628657175616C28486F6C
310
653A7461707065642C223022292C486F6C653A6469612C486F6C653A706974636864657363293E203C696628657175616C28486F6C653A7465726D696E6174696F6E2C223022292C22905B82B320222C222022293E3C696628657175616C28486F6C653A7465726D696E6174696F6E2C223022292C486F6C653A6465707468
310
2C2222293E
  0
ACAD_PROXY_OBJECT
  5
17FCF
330
17FCC
100
AcDbProxyObject
 90
      499
 91
      567
 95
       25
 70
     0
 93
     1752
310
5DE0143A0D960E4E0DDA0E32056E0D9C80C405C73D3C696628657175616C28486F6C653A7461707065642C223022292C22252563222C486F6C653A6E6F6D696E616C202220782022293E3C696628657175616C28486F6C653A7461707065642C223022292C486F6C653A6469612C486F6C653A706974636864657363293E20
310
3C696628657175616C28486F6C653A7465726D696E6174696F6E2C223022292C22905B82B320222C222022293E3C696628657175616C28486F6C653A7465726D696E6174696F6E2C223022292C486F6C653A64657074682C2222293E
  0
ACAD_PROXY_OBJECT
  5
17FCE
330
17FCC
100
AcDbProxyObject
 90
      499
 91
      567
 95
       25
 70
     0
 93
      344
310
5DE0143A0D960E4E0DDA0E32056E0D9C80C805173D3C535444503A444553433E203C535444503A5354443E
  0
ACAD_PROXY_OBJECT
  5
17FCD
330
17FCC
100
AcDbProxyObject
 90
      499
 91
      567
 95
       25
 70
     0
 93
      256
310
5DE0143A0D960E4E0DDA0E32056E0D9C80C4050C3D3C535444503A444553433E
  0
ENDSEC
  0
EOF
