  0
SECTION
  2
HEADER
  9
$ACADVER
  1
AC1015
  9
$ACADMAINTVER
 70
     6
  9
$DWGCODEPAGE
  3
ANSI_932
  9
$INSBASE
 10
0.0
 20
0.0
 30
0.0
  9
$EXTMIN
 10
-113.0871269134553
 20
-107.23443149399
 30
0.0
  9
$EXTMAX
 10
262.8711332961635
 20
47.4802917327297
 30
0.0
  9
$LIMMIN
 10
0.0
 20
0.0
  9
$LIMMAX
 10
420.0
 20
297.0
  9
$ORTHOMODE
 70
     0
  9
$REGENMODE
 70
     1
  9
$FILLMODE
 70
     1
  9
$QTEXTMODE
 70
     0
  9
$MIRRTEXT
 70
     1
  9
$LTSCALE
 40
1.0
  9
$ATTMODE
 70
     1
  9
$TEXTSIZE
 40
4.0
  9
$TRACEWID
 40
1.0
  9
$TEXTSTYLE
  7
STANDARD
  9
$CLAYER
  8
AM_0
  9
$CELTYPE
  6
ByLayer
  9
$CECOLOR
 62
   256
  9
$CELTSCALE
 40
1.0
  9
$DISPSILH
 70
     0
  9
$DIMSCALE
 40
1.0
  9
$DIMASZ
 40
2.5
  9
$DIMEXO
 40
0.0
  9
$DIMDLI
 40
10.0
  9
$DIMRND
 40
0.0
  9
$DIMDLE
 40
0.0
  9
$DIMEXE
 40
1.0
  9
$DIMTP
 40
0.1
  9
$DIMTM
 40
0.1000000001
  9
$DIMTXT
 40
3.8
  9
$DIMCEN
 40
0.0
  9
$DIMTSZ
 40
0.0
  9
$DIMTOL
 70
     0
  9
$DIMLIM
 70
     0
  9
$DIMTIH
 70
     0
  9
$DIMTOH
 70
     0
  9
$DIMSE1
 70
     0
  9
$DIMSE2
 70
     0
  9
$DIMTAD
 70
     3
  9
$DIMZIN
 70
     1
  9
$DIMBLK
  1
Open30
  9
$DIMASO
 70
     1
  9
$DIMSHO
 70
     1
  9
$DIMPOST
  1

  9
$DIMAPOST
  1
"
  9
$DIMALT
 70
     0
  9
$DIMALTD
 70
     2
  9
$DIMALTF
 40
0.0393701
  9
$DIMLFAC
 40
1.0
  9
$DIMTOFL
 70
     1
  9
$DIMTVP
 40
0.0
  9
$DIMTIX
 70
     0
  9
$DIMSOXD
 70
     0
  9
$DIMSAH
 70
     0
  9
$DIMBLK1
  1

  9
$DIMBLK2
  1

  9
$DIMSTYLE
  2
AM_JIS
  9
$DIMCLRD
 70
   256
  9
$DIMCLRE
 70
   256
  9
$DIMCLRT
 70
     2
  9
$DIMTFAC
 40
0.71
  9
$DIMGAP
 40
1.5
  9
$DIMJUST
 70
     0
  9
$DIMSD1
 70
     0
  9
$DIMSD2
 70
     0
  9
$DIMTOLJ
 70
     0
  9
$DIMTZIN
 70
     8
  9
$DIMALTZ
 70
     0
  9
$DIMALTTZ
 70
     0
  9
$DIMUPT
 70
     0
  9
$DIMDEC
 70
     0
  9
$DIMTDEC
 70
     3
  9
$DIMALTU
 70
     2
  9
$DIMALTTD
 70
     2
  9
$DIMTXSTY
  7
STANDARD
  9
$DIMAUNIT
 70
     1
  9
$DIMADEC
 70
     1
  9
$DIMALTRND
 40
0.0
  9
$DIMAZIN
 70
     2
  9
$DIMDSEP
 70
    46
  9
$DIMATFIT
 70
     3
  9
$DIMFRAC
 70
     0
  9
$DIMLDRBLK
  1
Open30
  9
$DIMLUNIT
 70
     2
  9
$DIMLWD
 70
    -1
  9
$DIMLWE
 70
    -1
  9
$DIMTMOVE
 70
     0
  9
$LUNITS
 70
     2
  9
$LUPREC
 70
     4
  9
$SKETCHINC
 40
1.0
  9
$FILLETRAD
 40
0.2
  9
$AUNITS
 70
     0
  9
$AUPREC
 70
     4
  9
$MENU
  1
.
  9
$ELEVATION
 40
0.0
  9
$PELEVATION
 40
0.0
  9
$THICKNESS
 40
0.0
  9
$LIMCHECK
 70
     0
  9
$CHAMFERA
 40
2.0
  9
$CHAMFERB
 40
2.0
  9
$CHAMFERC
 40
20.0
  9
$CHAMFERD
 40
0.0
  9
$SKPOLY
 70
     0
  9
$TDCREATE
 40
2451943.610431667
  9
$TDUCREATE
 40
2451943.235431667
  9
$TDUPDATE
 40
2455478.578734085
  9
$TDUUPDATE
 40
2455478.203734085
  9
$TDINDWG
 40
1.4968746412
  9
$TDUSRTIMER
 40
1.4968744676
  9
$USRTIMER
 70
     1
  9
$ANGBASE
 50
0.0
  9
$ANGDIR
 70
     0
  9
$PDMODE
 70
     0
  9
$PDSIZE
 40
0.0
  9
$PLINEWID
 40
0.0
  9
$SPLFRAME
 70
     0
  9
$SPLINETYPE
 70
     6
  9
$SPLINESEGS
 70
     8
  9
$HANDSEED
  5
1E0F4
  9
$SURFTAB1
 70
     6
  9
$SURFTAB2
 70
     6
  9
$SURFTYPE
 70
     6
  9
$SURFU
 70
     6
  9
$SURFV
 70
     6
  9
$UCSBASE
  2

  9
$UCSNAME
  2

  9
$UCSORG
 10
0.0
 20
0.0
 30
0.0
  9
$UCSXDIR
 10
1.0
 20
0.0
 30
0.0
  9
$UCSYDIR
 10
0.0
 20
1.0
 30
0.0
  9
$UCSORTHOREF
  2

  9
$UCSORTHOVIEW
 70
     0
  9
$UCSORGTOP
 10
0.0
 20
0.0
 30
0.0
  9
$UCSORGBOTTOM
 10
0.0
 20
0.0
 30
0.0
  9
$UCSORGLEFT
 10
0.0
 20
0.0
 30
0.0
  9
$UCSORGRIGHT
 10
0.0
 20
0.0
 30
0.0
  9
$UCSORGFRONT
 10
0.0
 20
0.0
 30
0.0
  9
$UCSORGBACK
 10
0.0
 20
0.0
 30
0.0
  9
$PUCSBASE
  2

  9
$PUCSNAME
  2

  9
$PUCSORG
 10
0.0
 20
0.0
 30
0.0
  9
$PUCSXDIR
 10
1.0
 20
0.0
 30
0.0
  9
$PUCSYDIR
 10
0.0
 20
1.0
 30
0.0
  9
$PUCSORTHOREF
  2

  9
$PUCSORTHOVIEW
 70
     0
  9
$PUCSORGTOP
 10
0.0
 20
0.0
 30
0.0
  9
$PUCSORGBOTTOM
 10
0.0
 20
0.0
 30
0.0
  9
$PUCSORGLEFT
 10
0.0
 20
0.0
 30
0.0
  9
$PUCSORGRIGHT
 10
0.0
 20
0.0
 30
0.0
  9
$PUCSORGFRONT
 10
0.0
 20
0.0
 30
0.0
  9
$PUCSORGBACK
 10
0.0
 20
0.0
 30
0.0
  9
$USERI1
 70
     0
  9
$USERI2
 70
     0
  9
$USERI3
 70
     0
  9
$USERI4
 70
     0
  9
$USERI5
 70
     0
  9
$USERR1
 40
0.0
  9
$USERR2
 40
0.0
  9
$USERR3
 40
0.0
  9
$USERR4
 40
0.0
  9
$USERR5
 40
0.0
  9
$WORLDVIEW
 70
     1
  9
$SHADEDGE
 70
     3
  9
$SHADEDIF
 70
    70
  9
$TILEMODE
 70
     1
  9
$MAXACTVP
 70
    48
  9
$PINSBASE
 10
0.0
 20
0.0
 30
0.0
  9
$PLIMCHECK
 70
     0
  9
$PEXTMIN
 10
1.000000000000000E+20
 20
1.000000000000000E+20
 30
1.000000000000000E+20
  9
$PEXTMAX
 10
-1.000000000000000E+20
 20
-1.000000000000000E+20
 30
-1.000000000000000E+20
  9
$PLIMMIN
 10
0.0
 20
0.0
  9
$PLIMMAX
 10
420.0
 20
297.0
  9
$UNITMODE
 70
     0
  9
$VISRETAIN
 70
     1
  9
$PLINEGEN
 70
     0
  9
$PSLTSCALE
 70
     1
  9
$TREEDEPTH
 70
  3020
  9
$CMLSTYLE
  2
Standard
  9
$CMLJUST
 70
     0
  9
$CMLSCALE
 40
20.0
  9
$PROXYGRAPHICS
 70
     1
  9
$MEASUREMENT
 70
     1
  9
$CELWEIGHT
370
    -1
  9
$ENDCAPS
280
     0
  9
$JOINSTYLE
280
     0
  9
$LWDISPLAY
290
     0
  9
$INSUNITS
 70
     4
  9
$HYPERLINKBASE
  1

  9
$STYLESHEET
  1
sei_cad.ctb
  9
$XEDIT
290
     1
  9
$CEPSNTYPE
380
     0
  9
$PSTYLEMODE
290
     1
  9
$FINGERPRINTGUID
  2
{C77AB3BE-9CA2-11D3-BAF3-006094EB760E}
  9
$VERSIONGUID
  2
{F29214B2-83E1-4A84-BD6E-7166710267C6}
  9
$EXTNAMES
290
     1
  9
$PSVPSCALE
 40
0.0
  9
$OLESTARTUP
290
     0
  0
ENDSEC
  0
SECTION
  2
CLASSES
  0
CLASS
  1
ACDBDICTIONARYWDFLT
  2
AcDbDictionaryWithDefault
  3
ObjectDBX Classes
 90
        0
280
     0
281
     0
  0
CLASS
  1
ACDBPLACEHOLDER
  2
AcDbPlaceHolder
  3
ObjectDBX Classes
 90
        0
280
     0
281
     0
  0
CLASS
  1
LAYOUT
  2
AcDbLayout
  3
ObjectDBX Classes
 90
        0
280
     0
281
     0
  0
CLASS
  1
ACME_DOCUMENT
  2
AcMeDbDoc
  3
AcMeServices
 90
        0
280
     1
281
     0
  0
CLASS
  1
ACMESCOPE
  2
AcMeScope
  3
AcMeServices
 90
        0
280
     1
281
     0
  0
CLASS
  1
ACMECOMMANDHISTORY
  2
AcMeCommandHistory
  3
AcMeServices
 90
        0
280
     1
281
     0
  0
CLASS
  1
DICTIONARYVAR
  2
AcDbDictionaryVar
  3
ObjectDBX Classes
 90
        0
280
     0
281
     0
  0
CLASS
  1
ACIMSYSVARMAN
  2
AcImSysVarManager
  3
AcMeServices
 90
        0
280
     1
281
     0
  0
CLASS
  1
ACIMREALSYSVAR
  2
AcImRealSysVar
  3
AcMeServices
 90
        0
280
     1
281
     0
  0
CLASS
  1
ACIMINTSYSVAR
  2
AcImIntSysVar
  3
AcMeServices
 90
        0
280
     1
281
     0
  0
CLASS
  1
ACMEDRAWINGMAN
  2
AcMeDrawingMan
  3
AcMeServices
 90
        0
280
     1
281
     0
  0
CLASS
  1
ACMEVIEW
  2
AcMeView
  3
AcMeServices
 90
        0
280
     1
281
     0
  0
CLASS
  1
ACDBENTITYCACHE
  2
AcMeEntityCache
  3
AcMeServices
 90
        0
280
     1
281
     0
  0
CLASS
  1
GSMANAGER
  2
AcMeGSManager
  3
AcMeServices
 90
        0
280
     1
281
     0
  0
CLASS
  1
AMDTINTERNALREACTOR
  2
AmdtInternalReactor
  3
AcMeServices
 90
        0
280
     1
281
     0
  0
CLASS
  1
ACMESTATEMGR
  2
AcMeStateMgr
  3
AcMeServices
 90
        0
280
     1
281
     0
  0
CLASS
  1
ACME_DATABASE
  2
AcMeDbDatabase
  3
AcMeServices
 90
        0
280
     1
281
     0
  0
CLASS
  1
ACRFINSADJUSTERMGR
  2
AcRfInsAdjusterMgr
  3
AcMeServices
 90
        0
280
     1
281
     0
  0
CLASS
  1
AMGSETTINGSOBJ
  2
AmgSettingsObj
  3
"AcadM|Product Description: AutoCAD Mechanical 2000|Company: Autodesk"
 90
        0
280
     1
281
     0
  0
CLASS
  1
AMGOBJPROPCFG
  2
AmgObjPropCfg
  3
"AmgLay|Product Description: AutoCAD Mechanical 2000|Company: Autodesk"
 90
        1
280
     1
281
     0
  0
CLASS
  1
ACMDATADICTIONARY
  2
AcmDataDictionary
  3
"AcmSymBB|Product Description: AutoCAD Mechanical 2004 DX|Company: Autodesk"
 90
        0
280
     1
281
     0
  0
CLASS
  1
ACMDATAENTRYBLOCK
  2
AcmDataEntryBlock
  3
"AcmSymBB|Product Description: AutoCAD Mechanical 2004 DX|Company: Autodesk"
 90
        0
280
     1
281
     0
  0
CLASS
  1
ACIMSTRSYSVAR
  2
AcImStrSysVar
  3
AcMeServices
 90
        0
280
     1
281
     0
  0
CLASS
  1
ACAMGFILTERDAT
  2
AcAmgFilterDat
  3
"AcadM|Product Description: AutoCAD Mechanical 2000|Company: Autodesk"
 90
        0
280
     1
281
     0
  0
CLASS
  1
LAYER_INDEX
  2
AcDbLayerIndex
  3
ObjectDBX Classes
 90
        0
280
     0
281
     0
  0
CLASS
  1
IDBUFFER
  2
AcDbIdBuffer
  3
ObjectDBX Classes
 90
        0
280
     0
281
     0
  0
CLASS
  1
ACMSTANDARDJIS
  2
AcmStandardJIS
  3
"Amdt_StdImp|Product Description: AutoCAD Mechanical 2004 DX|Company: Autodesk"
 90
        0
280
     1
281
     0
  0
CLASS
  1
ACMSURFSTANDARDJIS
  2
AcmSurfTextStdJIS
  3
"Amdt_StdImp|Product Description: AutoCAD Mechanical 2004 DX|Company: Autodesk"
 90
        0
280
     1
281
     0
  0
CLASS
  1
ACMFCFSTANDARDJIS
  2
AcmFCFStdJIS
  3
"Amdt_StdImp|Product Description: AutoCAD Mechanical 2004 DX|Company: Autodesk"
 90
        0
280
     1
281
     0
  0
CLASS
  1
ACMWELDSTANDARDJIS
  2
AcmWeldingStdJIS
  3
"Amdt_StdImp|Product Description: AutoCAD Mechanical 2004 DX|Company: Autodesk"
 90
        0
280
     1
281
     0
  0
CLASS
  1
ACMIDSTANDARDJIS
  2
AcmIdStdJIS
  3
"Amdt_StdImp|Product Description: AutoCAD Mechanical 2004 DX|Company: Autodesk"
 90
        0
280
     1
281
     0
  0
CLASS
  1
ACMDATUMSTANDARDJIS
  2
AcmDatumStdJIS
  3
"Amdt_StdImp|Product Description: AutoCAD Mechanical 2004 DX|Company: Autodesk"
 90
        0
280
     1
281
     0
  0
CLASS
  1
ACMBOMSTANDARDJIS
  2
AcmBOMStdJIS
  3
"Amdt_StdImp|Product Description: AutoCAD Mechanical 2004 DX|Company: Autodesk"
 90
        0
280
     1
281
     0
  0
CLASS
  1
AMDTNOTE
  2
AmdtNote
  3
"AcmSymBB|Product Description: AutoCAD Mechanical 2004 DX|Company: Autodesk"
 90
     1023
280
     1
281
     1
  0
CLASS
  1
ACGREFMASTER
  2
AcGrefMaster
  3
AcAttribServices
 90
        0
280
     1
281
     0
  0
CLASS
  1
ACGREFACADMASTER
  2
AcGrefacadMaster
  3
AcGrefServices
 90
        0
280
     1
281
     0
  0
CLASS
  1
AMIMASTER
  2
AmiMaster
  3
AmiServices
 90
        0
280
     1
281
     0
  0
CLASS
  1
ACAMGTITLESTD
  2
AcAmgTitleStd
  3
"TITLEAPP"
 90
        0
280
     1
281
     0
  0
CLASS
  1
ACMDETAILSTANDARDJIS
  2
AmdtDetailSymStdJIS
  3
"Amdt_StdImp|Product Description: AutoCAD Mechanical 2004 DX|Company: Autodesk"
 90
        0
280
     1
281
     0
  0
CLASS
  1
ACMSECTIONSTANDARDJIS
  2
AmdtSectionSymStdJIS
  3
"Amdt_StdImp|Product Description: AutoCAD Mechanical 2004 DX|Company: Autodesk"
 90
        0
280
     1
281
     0
  0
CLASS
  1
ACMCENTERLINESTANDARDJIS
  2
AmdtCenterLineStdJIS
  3
"Amdt_StdImp|Product Description: AutoCAD Mechanical 2004 DX|Company: Autodesk"
 90
        0
280
     1
281
     0
  0
CLASS
  1
ACMNOTESTANDARDJIS
  2
AmdtNoteStdJIS
  3
"Amdt_StdImp|Product Description: AutoCAD Mechanical 2004 DX|Company: Autodesk"
 90
        0
280
     1
281
     0
  0
CLASS
  1
ACAMGLAYSTD
  2
AcAmgLayStd
  3
"AcAmgLayStd|Product Description: AutoCAD Mechanical 2000|Company: Autodesk"
 90
        0
280
     1
281
     0
  0
CLASS
  1
ACAMGDIMSTD
  2
AcAmgDimStd
  3
"AcAmgDimStd|Product Description: AutoCAD Mechanical 2000|Company: Autodesk"
 90
        0
280
     1
281
     0
  0
CLASS
  1
AMDTFORMULAUPDATEDISPATCHER
  2
AmdtFormulaUpdateDispatcher
  3
AcMeServices
 90
        0
280
     1
281
     0
  0
CLASS
  1
ACDBELLIPSERES
  2
AcDbEllipseRes
  3
AcGrefServices
 90
        0
280
     1
281
     0
  0
CLASS
  1
DUMMY
  2
AcDbLongTransaction
  3
DUMMY
 90
        0
280
     0
281
     0
  0
CLASS
  1
LWPOLYLINE
  2
AcDbPolyline
  3
AutoCAD 2000
 90
        0
280
     0
281
     1
  0
CLASS
  1
HATCH
  2
AcDbHatch
  3
AutoCAD 2000
 90
        0
280
     0
281
     1
  0
CLASS
  1
XRECORD
  2
AcDbXrecord
  3
AutoCAD 2000
 90
        0
280
     0
281
     0
  0
CLASS
  1
TABLESTYLE
  2
AcDbTableStyle
  3
ObjectDBX Classes
 90
     2047
280
     0
281
     0
  0
CLASS
  1
AM_DRAWING_MGR
  2
AcDmDwgMgr
  3
AcMechDwgViewMgmt
 90
        0
280
     1
281
     0
  0
CLASS
  1
AM_DWG_DOCUMENT
  2
AcDmDwgDocument
  3
AcMechDwgViewMgmt
 90
        0
280
     1
281
     0
  0
CLASS
  1
AM_DWG_SHEET
  2
AcDmSheet
  3
AcMechDwgViewMgmt
 90
        0
280
     1
281
     0
  0
CLASS
  1
AM_VIEWDIMPARMAP
  2
AcDmViewDimParMap
  3
AcMechDwgViewMgmt
 90
        0
280
     1
281
     0
  0
CLASS
  1
AM_DWGMGR_NAME
  2
AcDmDwgMgrName
  3
AcMechDwgViewMgmt
 90
        0
280
     1
281
     0
  0
CLASS
  1
AMDTMENUSTATEMGR
  2
AmdtMenuStateMgr
  3
McadcomServices
 90
        0
280
     1
281
     0
  0
CLASS
  1
AMDTMCOMMENUSTATE
  2
AmdtMcomMenuState
  3
McadcomServices
 90
        0
280
     1
281
     0
  0
CLASS
  1
MAPIAMMOUDLE
  2
MApiAmModule
  3
MApiAmServices
 90
        0
280
     1
281
     0
  0
CLASS
  1
AMDTADMENUSTATE
  2
AmdtAdMenuState
  3
DesignerServices
 90
        0
280
     1
281
     0
  0
CLASS
  1
ADAPPL
  2
AcAdAppl
  3
DesignerServices
 90
        0
280
     1
281
     0
  0
CLASS
  1
DEPMGR
  2
AcAdDepMgr
  3
DesignerServices
 90
        0
280
     1
281
     0
  0
CLASS
  1
PARAMMGR
  2
AcAdParamMgr
  3
DesignerServices
 90
        0
280
     1
281
     0
  0
CLASS
  1
PARAMSCOPE
  2
AcAdParamScope
  3
DesignerServices
 90
        0
280
     1
281
     0
  0
CLASS
  1
NAMEDAPPL
  2
AcAdNamedAppl
  3
DesignerServices
 90
        0
280
     1
281
     0
  0
CLASS
  1
AMDTDMMENUSTATE
  2
AmdtDmMenuState
  3
AcMechDwgViewMgmt
 90
        0
280
     1
281
     0
  0
CLASS
  1
AMDTAMMENUSTATE
  2
AmdtAmMenuState
  3
DesignerAssemblies
 90
        0
280
     1
281
     0
  0
CLASS
  1
ACAMPROJECT
  2
AcAmProject
  3
DesignerAssemblies
 90
        0
280
     1
281
     0
  0
CLASS
  1
ACAMGRCOMPDEF
  2
AcAmGrCompDef
  3
DesignerAssemblies
 90
        0
280
     1
281
     0
  0
CLASS
  1
ACCMCONTEXT
  2
AcCmContext
  3
DesignerAssemblies
 90
        0
280
     1
281
     0
  0
CLASS
  1
ACAMCOMPDEF
  2
AcAmCompDef
  3
DesignerAssemblies
 90
        0
280
     1
281
     0
  0
CLASS
  1
ACAMCOMPDEFMGR
  2
AcAmCompDefMgr
  3
DesignerAssemblies
 90
        0
280
     1
281
     0
  0
CLASS
  1
AMCONTEXTMGR
  2
AcAmContextMgr
  3
DesignerAssemblies
 90
        0
280
     1
281
     0
  0
CLASS
  1
ACAMCONTEXTMODELER
  2
AcAmContextModeler
  3
DesignerAssemblies
 90
        0
280
     1
281
     0
  0
CLASS
  1
ACMTHREADLINESTANDARDJIS
  2
AmdtThreadLineStdJIS
  3
"Amdt_StdImp|Product Description: AutoCAD Mechanical 2004 DX|Company: Autodesk"
 90
        0
280
     1
281
     0
  0
CLASS
  1
AMDTNOTETEMPLATEDB
  2
AmdtNoteTemplateDB
  3
AMDT_STDIMP_MODULE_NAME
 90
        0
280
     1
281
     0
  0
CLASS
  1
ACAMGHOLECHARTSTDJIS
  2
AcAmgHoleChartStdJIS
  3
ACMSYMBB_MODULE_NAME
 90
        0
280
     1
281
     0
  0
CLASS
  1
CATALOGSTATE
  2
AcAmCatalogState
  3
DesignerAssemblies
 90
        0
280
     1
281
     0
  0
CLASS
  1
ACAMGRCOMPDEFSET
  2
AcAmGrCompDefSet
  3
DesignerAssemblies
 90
        0
280
     1
281
     0
  0
CLASS
  1
AMDTBROWSERDBTAB
  2
AmdtBrowserDbTab
  3
McadcomServices
 90
        0
280
     1
281
     0
  0
CLASS
  1
CBROWSERAPPOBJECT
  2
CBrowserAppObject
  3
McadcomServices
 90
        0
280
     1
281
     0
  0
CLASS
  1
DM_PLACEHOLDER
  2
AcDmSelsetPlaceholder
  3
AcMechDwgViewMgmt
 90
        0
280
     1
281
     0
  0
CLASS
  1
SORTENTSTABLE
  2
AcDbSortentsTable
  3
ObjectDBX Classes
 90
        0
280
     0
281
     0
  0
ENDSEC
  0
SECTION
  2
TABLES
  0
TABLE
  2
VPORT
  5
8
330
0
100
AcDbSymbolTable
 70
     3
  0
VPORT
  5
1E0EC
330
8
100
AcDbSymbolTableRecord
100
AcDbViewportTableRecord
  2
*Active
 70
     0
 10
0.0
 20
0.0
 11
1.0
 21
1.0
 12
153.4124537298001
 22
-29.87656281144479
 13
0.0
 23
0.0
 14
2.5
 24
2.5
 15
10.0
 25
10.0
 16
0.0
 26
0.0
 36
1.0
 17
0.0
 27
0.0
 37
0.0
 40
275.411934735539
 41
1.943262411347518
 42
50.0
 43
0.0
 44
0.0
 50
0.0
 51
0.0
 71
    16
 72
  2000
 73
     1
 74
     3
 75
     0
 76
     0
 77
     0
 78
     0
281
     0
 65
     1
110
0.0
120
0.0
130
0.0
111
1.0
121
0.0
131
0.0
112
0.0
122
1.0
132
0.0
 79
     0
146
0.0
  0
ENDTAB
  0
TABLE
  2
LTYPE
  5
5
330
0
100
AcDbSymbolTable
 70
    13
  0
LTYPE
  5
14
330
5
100
AcDbSymbolTableRecord
100
AcDbLinetypeTableRecord
  2
ByBlock
 70
     0
  3

 72
    65
 73
     0
 40
0.0
  0
LTYPE
  5
15
330
5
100
AcDbSymbolTableRecord
100
AcDbLinetypeTableRecord
  2
ByLayer
 70
     0
  3

 72
    65
 73
     0
 40
0.0
  0
LTYPE
  5
16
330
5
100
AcDbSymbolTableRecord
100
AcDbLinetypeTableRecord
  2
Continuous
 70
     0
  3
Solid line
 72
    65
 73
     0
 40
0.0
  0
LTYPE
  5
43
330
5
100
AcDbSymbolTableRecord
100
AcDbLinetypeTableRecord
  2
AM_ISO02W050
 70
     0
  3
__ __ __ __ __ __ __ __ __ __ __ __ __ __ __
 72
    65
 73
     2
 40
7.5
 49
6.0
 74
     0
 49
-1.5
 74
     0
  0
LTYPE
  5
44
330
5
100
AcDbSymbolTableRecord
100
AcDbLinetypeTableRecord
  2
AM_ISO08W050
 70
     0
  3
____ . ____ . ____ . ____ . ____ . ____ . ____
 72
    65
 73
     4
 40
18.0
 49
12.0
 74
     0
 49
-1.5
 74
     0
 49
3.0
 74
     0
 49
-1.5
 74
     0
  0
LTYPE
  5
45
330
5
100
AcDbSymbolTableRecord
100
AcDbLinetypeTableRecord
  2
AM_ISO09W050
 70
     0
  3
_____ . . _____ . . _____ . . ____ .. ____
 72
    65
 73
     6
 40
22.5
 49
12.0
 74
     0
 49
-1.5
 74
     0
 49
3.0
 74
     0
 49
-1.5
 74
     0
 49
3.0
 74
     0
 49
-1.5
 74
     0
  0
LTYPE
  5
46
330
5
100
AcDbSymbolTableRecord
100
AcDbLinetypeTableRecord
  2
Amconstr
 70
     0
  3
_______________________
 72
    65
 73
     2
 40
9999.0
 49
9999.0
 74
     0
 49
0.0
 74
     0
  0
LTYPE
  5
47
330
5
100
AcDbSymbolTableRecord
100
AcDbLinetypeTableRecord
  2
AM_ISO02W050x2
 70
     0
  3
 _ _ _ _ _ _ _ _ _ _ _ _
 72
    65
 73
     2
 40
3.75
 49
3.0
 74
     0
 49
-0.75
 74
     0
  0
LTYPE
  5
48
330
5
100
AcDbSymbolTableRecord
100
AcDbLinetypeTableRecord
  2
AM_ISO08W050x2
 70
     0
  3
__ . __ . __ . __ . __ . __
 72
    65
 73
     4
 40
9.0
 49
6.0
 74
     0
 49
-0.75
 74
     0
 49
1.5
 74
     0
 49
-0.75
 74
     0
  0
LTYPE
  5
4B
330
5
100
AcDbSymbolTableRecord
100
AcDbLinetypeTableRecord
  2
Amzigzag
 70
     0
  3
/\/-/\/-/\/-/\/-/\/-/\/
 72
    65
 73
     2
 40
11.0001
 49
0.0001
 74
     4
 75
   135
340
4A
 46
0.04
 50
0.0
 44
0.0
 45
0.0
 49
-11.0
 74
     0
  0
LTYPE
  5
188
330
5
100
AcDbSymbolTableRecord
100
AcDbLinetypeTableRecord
  2
ACJISTGB
 70
     0
  3
__ . . __ . .
 72
    65
 73
     6
 40
9.0
 49
4.0
 74
     0
 49
-1.0
 74
     0
 49
1.0
 74
     0
 49
-1.0
 74
     0
 49
1.0
 74
     0
 49
-1.0
 74
     0
  0
LTYPE
  5
189
330
5
100
AcDbSymbolTableRecord
100
AcDbLinetypeTableRecord
  2
ACJISTGL
 70
     0
  3
_ _ _ _ _
 72
    65
 73
     2
 40
3.0
 49
2.0
 74
     0
 49
-1.0
 74
     0
  0
LTYPE
  5
652
330
5
100
AcDbSymbolTableRecord
100
AcDbLinetypeTableRecord
  2
CENTER
 70
     0
  3
____ _ ____ _ ____ _ ____ _ ____ _ ____ _ ____
 72
    65
 73
     4
 40
17.5
 49
13.0
 74
     0
 49
-1.5
 74
     0
 49
1.5
 74
     0
 49
-1.5
 74
     0
  0
LTYPE
  5
12AB
330
5
100
AcDbSymbolTableRecord
100
AcDbLinetypeTableRecord
  2
HIDDEN
 70
     0
  3
Hidden __ __ __ __ __ __ __ __ __ __ __ __ __ _
 72
    65
 73
     2
 40
0.375
 49
0.25
 74
     0
 49
-0.125
 74
     0
  0
LTYPE
  5
12AC
330
5
100
AcDbSymbolTableRecord
100
AcDbLinetypeTableRecord
  2
PHANTOM2
 70
     0
  3
Phantom (.5x) ___ _ _ ___ _ _ ___ _ _ ___ _ _
 72
    65
 73
     6
 40
1.25
 49
0.625
 74
     0
 49
-0.125
 74
     0
 49
0.125
 74
     0
 49
-0.125
 74
     0
 49
0.125
 74
     0
 49
-0.125
 74
     0
  0
ENDTAB
  0
TABLE
  2
LAYER
  5
2
102
{ACAD_XDICTIONARY
360
1DB40
102
}
330
0
100
AcDbSymbolTable
 70
     7
  0
LAYER
  5
10
330
2
100
AcDbSymbolTableRecord
100
AcDbLayerTableRecord
  2
0
 70
     0
 62
     7
  6
Continuous
370
    -3
390
F
  0
LAYER
  5
7D
330
2
100
AcDbSymbolTableRecord
100
AcDbLayerTableRecord
  2
AM_5
 70
     0
 62
     3
  6
Continuous
370
    13
390
F
  0
LAYER
  5
7F
330
2
100
AcDbSymbolTableRecord
100
AcDbLayerTableRecord
  2
Defpoints
 70
     0
 62
     7
  6
Continuous
290
     0
370
    -3
390
F
  0
LAYER
  5
12B1
330
2
100
AcDbSymbolTableRecord
100
AcDbLayerTableRecord
  2
AM_0
 70
     0
 62
     7
  6
Continuous
370
    30
390
F
  0
LAYER
  5
1AFF
330
2
100
AcDbSymbolTableRecord
100
AcDbLayerTableRecord
  2
AM_7
 70
     0
 62
     4
  6
AM_ISO08W050
370
    13
390
F
  0
LAYER
  5
361D
330
2
100
AcDbSymbolTableRecord
100
AcDbLayerTableRecord
  2
AM_11
 70
     0
 62
     3
  6
AM_ISO09W050
370
    13
390
F
  0
ENDTAB
  0
TABLE
  2
STYLE
  5
3
330
0
100
AcDbSymbolTable
 70
     4
  0
STYLE
  5
11
330
3
100
AcDbSymbolTableRecord
100
AcDbTextStyleTableRecord
  2
STANDARD
 70
     0
 40
0.0
 41
1.0
 50
0.0
 71
     0
 42
4.0
  3
ISOCP.SHX
  4
EXTFONT.SHX
  0
STYLE
  5
4A
330
3
100
AcDbSymbolTableRecord
100
AcDbTextStyleTableRecord
  2

 70
     1
 40
0.0
 41
1.0
 50
0.0
 71
     0
 42
2.5
  3
ltypeshp.shx
  4

  0
STYLE
  5
180
330
3
100
AcDbSymbolTableRecord
100
AcDbTextStyleTableRecord
  2
ACJISTS
 70
     0
 40
1.0
 41
1.0
 50
0.0
 71
     0
 42
2.5
  3
isocp.shx
  4
bigfont.shx
  0
STYLE
  5
187
330
3
100
AcDbSymbolTableRecord
100
AcDbTextStyleTableRecord
  2
ACJISGDT
 70
     0
 40
0.0
 41
1.0
 50
0.0
 71
     0
 42
2.5
  3
amgdt.shx
  4

  0
ENDTAB
  0
TABLE
  2
VIEW
  5
6
330
0
100
AcDbSymbolTable
 70
     6
  0
VIEW
  5
A30
330
6
100
AcDbSymbolTableRecord
100
AcDbViewTableRecord
  2
AM_VIEW1
 70
     0
 40
148.5
 10
108.6929657794677
 20
222.75
 41
217.3859315589354
 11
0.0
 21
0.0
 31
1.0
 12
0.0
 22
0.0
 32
0.0
 42
50.0
 43
0.0
 44
0.0
 50
0.0
 71
    16
281
     0
 72
     0
  0
VIEW
  5
A31
330
6
100
AcDbSymbolTableRecord
100
AcDbViewTableRecord
  2
AM_VIEW2
 70
     0
 40
148.5
 10
311.3070342205323
 20
222.75
 41
217.3859315589354
 11
0.0
 21
0.0
 31
1.0
 12
0.0
 22
0.0
 32
0.0
 42
50.0
 43
0.0
 44
0.0
 50
0.0
 71
    16
281
     0
 72
     0
  0
VIEW
  5
A32
330
6
100
AcDbSymbolTableRecord
100
AcDbViewTableRecord
  2
AM_VIEW3
 70
     0
 40
148.5
 10
108.6929657794677
 20
74.25
 41
217.3859315589354
 11
0.0
 21
0.0
 31
1.0
 12
0.0
 22
0.0
 32
0.0
 42
50.0
 43
0.0
 44
0.0
 50
0.0
 71
    16
281
     0
 72
     0
  0
VIEW
  5
A33
330
6
100
AcDbSymbolTableRecord
100
AcDbViewTableRecord
  2
AM_VIEW4
 70
     0
 40
148.5
 10
311.3070342205323
 20
74.25
 41
217.3859315589354
 11
0.0
 21
0.0
 31
1.0
 12
0.0
 22
0.0
 32
0.0
 42
50.0
 43
0.0
 44
0.0
 50
0.0
 71
    16
281
     0
 72
     0
  0
VIEW
  5
A34
330
6
100
AcDbSymbolTableRecord
100
AcDbViewTableRecord
  2
AM_VIEW5
 70
     0
 40
148.5
 10
210.0
 20
148.5
 41
217.3859315589353
 11
0.0
 21
0.0
 31
1.0
 12
0.0
 22
0.0
 32
0.0
 42
50.0
 43
0.0
 44
0.0
 50
0.0
 71
    16
281
     0
 72
     0
  0
VIEW
  5
A35
330
6
100
AcDbSymbolTableRecord
100
AcDbViewTableRecord
  2
AM_VIEW6
 70
     0
 40
296.99703
 10
210.0
 20
148.5
 41
434.7675153992395
 11
0.0
 21
0.0
 31
1.0
 12
0.0
 22
0.0
 32
0.0
 42
50.0
 43
0.0
 44
0.0
 50
0.0
 71
    16
281
     0
 72
     0
  0
ENDTAB
  0
TABLE
  2
UCS
  5
7
330
0
100
AcDbSymbolTable
 70
     0
  0
ENDTAB
  0
TABLE
  2
APPID
  5
9
330
0
100
AcDbSymbolTable
 70
    46
  0
APPID
  5
12
330
9
100
AcDbSymbolTableRecord
100
AcDbRegAppTableRecord
  2
ACAD
 70
     0
  0
APPID
  5
2C
330
9
100
AcDbSymbolTableRecord
100
AcDbRegAppTableRecord
  2
MCAD_NO_VIS
 70
     0
  0
APPID
  5
2D
330
9
100
AcDbSymbolTableRecord
100
AcDbRegAppTableRecord
  2
ACAD_TEMP_GRAPHIC
 70
     0
  0
APPID
  5
B9
330
9
100
AcDbSymbolTableRecord
100
AcDbRegAppTableRecord
  2
GENIUS_GENDTOL_13
 70
     0
  0
APPID
  5
359
330
9
100
AcDbSymbolTableRecord
100
AcDbRegAppTableRecord
  2
GENIUS_GENREC_14
 70
     0
  0
APPID
  5
35A
330
9
100
AcDbSymbolTableRecord
100
AcDbRegAppTableRecord
  2
GENIUS_GENODEF_13
 70
     0
  0
APPID
  5
35B
330
9
100
AcDbSymbolTableRecord
100
AcDbRegAppTableRecord
  2
GENIUS_GENOBJ-N-REC_13
 70
     0
  0
APPID
  5
667
330
9
100
AcDbSymbolTableRecord
100
AcDbRegAppTableRecord
  2
GENIUS_GENCFG_13
 70
     0
  0
APPID
  5
668
330
9
100
AcDbSymbolTableRecord
100
AcDbRegAppTableRecord
  2
GENIUS_GENCFG0_13
 70
     0
  0
APPID
  5
669
330
9
100
AcDbSymbolTableRecord
100
AcDbRegAppTableRecord
  2
GENIUS_GENCFG1_13
 70
     0
  0
APPID
  5
66A
330
9
100
AcDbSymbolTableRecord
100
AcDbRegAppTableRecord
  2
GENIUS_GENCFG2_13
 70
     0
  0
APPID
  5
66B
330
9
100
AcDbSymbolTableRecord
100
AcDbRegAppTableRecord
  2
GENIUS_GENCFG3_13
 70
     0
  0
APPID
  5
66C
330
9
100
AcDbSymbolTableRecord
100
AcDbRegAppTableRecord
  2
GENIUS_GENCFG4_13
 70
     0
  0
APPID
  5
A76
330
9
100
AcDbSymbolTableRecord
100
AcDbRegAppTableRecord
  2
GENIUS_GENBLLY_14
 70
     0
  0
APPID
  5
A77
330
9
100
AcDbSymbolTableRecord
100
AcDbRegAppTableRecord
  2
GENIUS_GENOBJ-N-CEN_13
 70
     0
  0
APPID
  5
A83
330
9
100
AcDbSymbolTableRecord
100
AcDbRegAppTableRecord
  2
GENIUS_GENTRA_14
 70
     0
  0
APPID
  5
A8D
330
9
100
AcDbSymbolTableRecord
100
AcDbRegAppTableRecord
  2
GENIUS_GENOBJ-N-TIT_13
 70
     0
  0
APPID
  5
A8E
330
9
100
AcDbSymbolTableRecord
100
AcDbRegAppTableRecord
  2
GENIUS_GENTITLE_13
 70
     0
  0
APPID
  5
A8F
330
9
100
AcDbSymbolTableRecord
100
AcDbRegAppTableRecord
  2
GENIUS_GENOENT_13
 70
     0
  0
APPID
  5
A90
330
9
100
AcDbSymbolTableRecord
100
AcDbRegAppTableRecord
  2
GENIUS_GENOREF_13
 70
     0
  0
APPID
  5
A91
330
9
100
AcDbSymbolTableRecord
100
AcDbRegAppTableRecord
  2
GENIUS_GENOLIS_13
 70
     0
  0
APPID
  5
A92
330
9
100
AcDbSymbolTableRecord
100
AcDbRegAppTableRecord
  2
GENIUS_GENZVEED_13
 70
     0
  0
APPID
  5
A93
330
9
100
AcDbSymbolTableRecord
100
AcDbRegAppTableRecord
  2
GENIUS_GENSCREG_15
 70
     0
  0
APPID
  5
A94
330
9
100
AcDbSymbolTableRecord
100
AcDbRegAppTableRecord
  2
GENIUS_GENOBJ-N-SDF_13
 70
     0
  0
APPID
  5
12B5
330
9
100
AcDbSymbolTableRecord
100
AcDbRegAppTableRecord
  2
GENIUS_GENOBJ-N-RSBK_13
 70
     0
  0
APPID
  5
12B6
330
9
100
AcDbSymbolTableRecord
100
AcDbRegAppTableRecord
  2
GENIUS_GENOBJ-N-LIB_13
 70
     0
  0
APPID
  5
12B7
330
9
100
AcDbSymbolTableRecord
100
AcDbRegAppTableRecord
  2
GENIUS_GENSCALE_13
 70
     0
  0
APPID
  5
12B8
330
9
100
AcDbSymbolTableRecord
100
AcDbRegAppTableRecord
  2
GENIUS_GENOBJ-N-HTC_13
 70
     0
  0
APPID
  5
12B9
330
9
100
AcDbSymbolTableRecord
100
AcDbRegAppTableRecord
  2
GENIUS_GENHATCH_13
 70
     0
  0
APPID
  5
1687
330
9
100
AcDbSymbolTableRecord
100
AcDbRegAppTableRecord
  2
BASE_TYPE
 70
     0
  0
APPID
  5
1ABF
330
9
100
AcDbSymbolTableRecord
100
AcDbRegAppTableRecord
  2
GENIUS_GENFIL_13
 70
     0
  0
APPID
  5
1AC0
330
9
100
AcDbSymbolTableRecord
100
AcDbRegAppTableRecord
  2
GENIUS_GENOBJ-N-CHA_13
 70
     0
  0
APPID
  5
1AE7
330
9
100
AcDbSymbolTableRecord
100
AcDbRegAppTableRecord
  2
GENIUS_GENOBJ-N-FIL_13
 70
     0
  0
APPID
  5
20E9
330
9
100
AcDbSymbolTableRecord
100
AcDbRegAppTableRecord
  2
GENIUS_GENDIMSH_14
 70
     0
  0
APPID
  5
1987E
330
9
100
AcDbSymbolTableRecord
100
AcDbRegAppTableRecord
  2
ACATTRIBSERVICES
 70
     0
  0
APPID
  5
1B07B
330
9
100
AcDbSymbolTableRecord
100
AcDbRegAppTableRecord
  2
GENIUS_GENOBJ-N-CRS_13
 70
     0
  0
APPID
  5
1D310
330
9
100
AcDbSymbolTableRecord
100
AcDbRegAppTableRecord
  2
GENIUS_GENSCREG_13
 70
     0
  0
APPID
  5
1D3AB
330
9
100
AcDbSymbolTableRecord
100
AcDbRegAppTableRecord
  2
CONTENTBLOCKICON
 70
     0
  0
APPID
  5
1D579
330
9
100
AcDbSymbolTableRecord
100
AcDbRegAppTableRecord
  2
AD_DRAW
 70
     0
  0
APPID
  5
1D597
330
9
100
AcDbSymbolTableRecord
100
AcDbRegAppTableRecord
  2
DESIGNERASSEMBLIES
 70
     0
  0
APPID
  5
1D5AC
330
9
100
AcDbSymbolTableRecord
100
AcDbRegAppTableRecord
  2
ACADM_DIM_EDIT
 70
     0
  0
APPID
  5
1D5AD
330
9
100
AcDbSymbolTableRecord
100
AcDbRegAppTableRecord
  2
AMDT_DM_ADJ
 70
     0
  0
APPID
  5
1D727
330
9
100
AcDbSymbolTableRecord
100
AcDbRegAppTableRecord
  2
ACAD_DSTYLE_DIMTEXT_FILL
 70
     0
  0
APPID
  5
1D728
330
9
100
AcDbSymbolTableRecord
100
AcDbRegAppTableRecord
  2
ACAD_PSEXT
 70
     0
  0
APPID
  5
1D944
330
9
100
AcDbSymbolTableRecord
100
AcDbRegAppTableRecord
  2
GENIUS_GENCEN_19
 70
     0
  0
APPID
  5
1DBF4
330
9
100
AcDbSymbolTableRecord
100
AcDbRegAppTableRecord
  2
DCO15
 70
     0
  0
ENDTAB
  0
TABLE
  2
DIMSTYLE
  5
A
330
0
100
AcDbSymbolTable
 70
     5
100
AcDbDimStyleTable
  0
DIMSTYLE
105
58
330
A
100
AcDbSymbolTableRecord
100
AcDbDimStyleTableRecord
  2
AM_JIS
 70
     0
  4
"
 41
2.5
 42
0.0
 43
10.0
 44
1.0
 47
0.1
 48
0.1000000001
 73
     0
 74
     0
 77
     3
 78
     1
 79
     2
140
3.8
141
0.0
143
0.0393701
146
0.71
147
1.5
172
     1
176
   256
177
   256
178
     2
179
     2
271
     3
272
     3
275
     1
283
     0
284
     8
340
11
341
59
342
59
371
    -1
372
    -1
  0
DIMSTYLE
105
5F
102
{ACAD_REACTORS
330
19019
330
1B163
102
}
330
A
100
AcDbSymbolTableRecord
100
AcDbDimStyleTableRecord
  2
AM_JIS$3
 70
     0
  4
"
 41
2.5
 42
0.0
 43
10.0
 44
1.0
 47
0.1
 48
0.1000000001
 73
     0
 77
     3
 78
     1
 79
     2
140
3.8
141
0.0
143
0.0393701
146
0.71
147
1.5
172
     1
176
   256
177
   256
178
     2
179
     2
271
     3
272
     3
275
     1
283
     0
284
     8
288
     1
289
     0
340
11
341
59
342
59
371
    -1
372
    -1
  0
DIMSTYLE
105
65F
330
A
100
AcDbSymbolTableRecord
100
AcDbDimStyleTableRecord
  2
STANDARD
 70
     0
340
11
  0
DIMSTYLE
105
1B97
102
{ACAD_REACTORS
330
F478
330
1DD49
330
1DD80
330
1DE96
102
}
330
A
100
AcDbSymbolTableRecord
100
AcDbDimStyleTableRecord
  2
AM_JIS$0
 70
     0
  4
"
 41
2.5
 42
0.0
 43
10.0
 44
1.0
 47
0.1
 48
0.1000000001
 73
     0
 74
     0
 77
     3
 78
     1
 79
     2
140
3.8
141
0.0
143
0.0393701
146
0.71
147
1.5
172
     1
176
     3
177
     3
178
     2
271
     3
272
     3
275
     1
283
     0
284
     8
289
     0
340
11
341
59
342
59
371
    13
372
    13
  0
DIMSTYLE
105
1B98
102
{ACAD_REACTORS
330
1DDA5
330
1DE13
102
}
330
A
100
AcDbSymbolTableRecord
100
AcDbDimStyleTableRecord
  2
AM_JIS$2
 70
     0
  4
"
 41
2.5
 42
0.0
 43
10.0
 44
1.0
 47
0.1
 48
0.1000000001
 73
     0
 74
     0
 77
     3
 78
     1
 79
     2
140
3.8
141
0.0
143
0.0393701
146
0.71
147
1.5
172
     1
176
     3
177
     3
178
     2
179
     3
271
     3
272
     3
275
     1
283
     0
284
     8
289
     0
340
11
341
59
342
59
371
    13
372
    13
  0
ENDTAB
  0
TABLE
  2
BLOCK_RECORD
  5
1
330
0
100
AcDbSymbolTable
 70
    11
  0
BLOCK_RECORD
  5
1F
102
{ACAD_XDICTIONARY
360
165
102
}
330
1
100
AcDbSymbolTableRecord
100
AcDbBlockTableRecord
  2
*Model_Space
340
22
  0
BLOCK_RECORD
  5
1B
102
{ACAD_XDICTIONARY
360
1D313
102
}
330
1
100
AcDbSymbolTableRecord
100
AcDbBlockTableRecord
  2
*Paper_Space
340
1E
  0
BLOCK_RECORD
  5
23
102
{ACAD_XDICTIONARY
360
1D315
102
}
330
1
100
AcDbSymbolTableRecord
100
AcDbBlockTableRecord
  2
*Paper_Space0
340
26
  0
BLOCK_RECORD
  5
59
330
1
100
AcDbSymbolTableRecord
100
AcDbBlockTableRecord
  2
_Open30
340
0
102
{BLKREFS
331
1E082
331
1E083
331
1E08D
331
1E08E
331
1E095
331
1E096
331
1E09F
331
1E0A0
331
1E0A8
331
1E0A9
331
1E0B3
331
1E0B4
331
1E0BE
331
1E0BF
331
1E0C9
331
1E0CA
102
}
  0
BLOCK_RECORD
  5
F479
330
1
100
AcDbSymbolTableRecord
100
AcDbBlockTableRecord
  2
*D2
340
0
  0
BLOCK_RECORD
  5
1901A
330
1
100
AcDbSymbolTableRecord
100
AcDbBlockTableRecord
  2
*D3
340
0
  0
BLOCK_RECORD
  5
1B164
330
1
100
AcDbSymbolTableRecord
100
AcDbBlockTableRecord
  2
*D4
340
0
  0
BLOCK_RECORD
  5
1D58E
330
1
100
AcDbSymbolTableRecord
100
AcDbBlockTableRecord
  2
*U5
340
0
  0
BLOCK_RECORD
  5
1DD4A
330
1
100
AcDbSymbolTableRecord
100
AcDbBlockTableRecord
  2
*D6
340
0
  0
BLOCK_RECORD
  5
1DD81
330
1
100
AcDbSymbolTableRecord
100
AcDbBlockTableRecord
  2
*D7
340
0
  0
BLOCK_RECORD
  5
1DDA6
330
1
100
AcDbSymbolTableRecord
100
AcDbBlockTableRecord
  2
*D8
340
0
  0
BLOCK_RECORD
  5
1DE14
330
1
100
AcDbSymbolTableRecord
100
AcDbBlockTableRecord
  2
*D9
340
0
  0
BLOCK_RECORD
  5
1DE97
330
1
100
AcDbSymbolTableRecord
100
AcDbBlockTableRecord
  2
*D10
340
0
  0
ENDTAB
  0
ENDSEC
  0
SECTION
  2
BLOCKS
  0
BLOCK
  5
20
330
1F
100
AcDbEntity
  8
0
100
AcDbBlockBegin
  2
*Model_Space
 70
     0
 71
     0
 10
0.0
 20
0.0
 30
0.0
  3
*Model_Space
  1

  0
ENDBLK
  5
21
330
1F
100
AcDbEntity
  8
0
100
AcDbBlockEnd
  0
BLOCK
  5
1C
330
1B
100
AcDbEntity
 67
     1
  8
0
100
AcDbBlockBegin
  2
*Paper_Space
 70
     0
 71
     0
 10
0.0
 20
0.0
 30
0.0
  3
*Paper_Space
  1

  0
ENDBLK
  5
1D
330
1B
100
AcDbEntity
 67
     1
  8
0
100
AcDbBlockEnd
  0
BLOCK
  5
24
330
23
100
AcDbEntity
  8
0
100
AcDbBlockBegin
  2
*Paper_Space0
 70
     0
 71
     0
 10
0.0
 20
0.0
 30
0.0
  3
*Paper_Space0
  1

  0
ENDBLK
  5
25
330
23
100
AcDbEntity
  8
0
100
AcDbBlockEnd
  0
BLOCK
  5
5D
330
59
100
AcDbEntity
  8
0
100
AcDbBlockBegin
  2
_Open30
 70
     0
 71
     0
 10
0.0
 20
0.0
 30
0.0
  3
_Open30
  1

  0
LINE
  5
5A
330
59
100
AcDbEntity
  8
0
 62
     0
370
    -2
100
AcDbLine
 10
-1.0
 20
0.26794919
 30
0.0
 11
0.0
 21
0.0
 31
0.0
  0
LINE
  5
5B
330
59
100
AcDbEntity
  8
0
 62
     0
370
    -2
100
AcDbLine
 10
0.0
 20
0.0
 30
0.0
 11
-1.0
 21
-0.26794919
 31
0.0
  0
LINE
  5
5C
330
59
100
AcDbEntity
  8
0
 62
     0
370
    -2
100
AcDbLine
 10
0.0
 20
0.0
 30
0.0
 11
-1.0
 21
0.0
 31
0.0
  0
ENDBLK
  5
5E
330
59
100
AcDbEntity
  8
0
100
AcDbBlockEnd
  0
BLOCK
  5
F484
330
F479
100
AcDbEntity
  8
0
100
AcDbBlockBegin
  2
*D2
 70
     1
 71
     0
 10
0.0
 20
0.0
 30
0.0
  3
*D2
  1

  0
LINE
  5
1E07F
330
F479
100
AcDbEntity
  8
AM_5
 62
     3
370
    13
100
AcDbLine
 10
109.8700082387271
 20
11.0628289564829
 30
0.0
 11
109.8700082387271
 21
-13.42071441596396
 31
0.0
  0
LINE
  5
1E080
330
F479
100
AcDbEntity
  8
AM_5
 62
     3
370
    13
100
AcDbLine
 10
131.8700082387271
 20
11.06282895648296
 30
0.0
 11
131.8700082387271
 21
-13.42071441596396
 31
0.0
  0
LINE
  5
1E081
330
F479
100
AcDbEntity
  8
AM_5
 62
     3
370
    13
100
AcDbLine
 10
112.3700082387271
 20
-12.42071441596396
 30
0.0
 11
129.3700082387271
 21
-12.42071441596396
 31
0.0
  0
INSERT
  5
1E082
330
F479
100
AcDbEntity
  8
AM_5
 62
     3
370
    13
100
AcDbBlockReference
  2
_Open30
 10
109.8700082387271
 20
-12.42071441596396
 30
0.0
 41
2.5
 42
2.5
 43
2.5
 50
180.0
  0
INSERT
  5
1E083
330
F479
100
AcDbEntity
  8
AM_5
 62
     3
370
    13
100
AcDbBlockReference
  2
_Open30
 10
131.8700082387271
 20
-12.42071441596396
 30
0.0
 41
2.5
 42
2.5
 43
2.5
  0
MTEXT
  5
1E084
330
F479
100
AcDbEntity
  8
AM_5
 62
     2
100
AcDbMText
 10
120.8700082387271
 20
-9.020340400215925
 30
0.0
 40
3.8
 41
0.0
 71
     5
 72
     1
  1
22
 73
     1
 44
1.0
  0
POINT
  5
1E085
330
F479
100
AcDbEntity
  8
Defpoints
 62
     0
100
AcDbPoint
 10
109.8700082387271
 20
11.0628289564829
 30
0.0
  0
POINT
  5
1E086
330
F479
100
AcDbEntity
  8
Defpoints
 62
     0
100
AcDbPoint
 10
131.8700082387271
 20
11.06282895648296
 30
0.0
  0
POINT
  5
1E087
330
F479
100
AcDbEntity
  8
Defpoints
 62
     0
100
AcDbPoint
 10
131.8700082387271
 20
-12.42071441596396
 30
0.0
  0
ENDBLK
  5
F485
330
F479
100
AcDbEntity
  8
0
100
AcDbBlockEnd
  0
BLOCK
  5
19023
330
1901A
100
AcDbEntity
  8
0
100
AcDbBlockBegin
  2
*D3
 70
     1
 71
     0
 10
0.0
 20
0.0
 30
0.0
  3
*D3
  1

  0
LINE
  5
1E088
330
1901A
100
AcDbEntity
  8
AM_5
100
AcDbLine
 10
139.8444164851165
 20
42.17954370123363
 30
0.0
 11
130.5870153314147
 21
42.17954370123363
 31
0.0
  0
LINE
  5
1E089
330
1901A
100
AcDbEntity
  8
AM_5
100
AcDbLine
 10
130.5870153314147
 20
42.17954370123363
 30
0.0
 11
126.2704585173598
 21
30.99411078947407
 31
0.0
  0
LINE
  5
1E08A
330
1901A
100
AcDbEntity
  8
AM_5
100
AcDbLine
 10
115.469557960095
 20
3.005889210529873
 30
0.0
 11
114.5694829136562
 21
0.6735374122845244
 31
0.0
  0
MTEXT
  5
1E08B
330
1901A
100
AcDbEntity
  8
AM_5
 62
     2
100
AcDbMText
 10
135.9657159082656
 20
45.57991771698167
 30
0.0
 40
3.8
 41
0.0
 71
     5
 72
     1
  1
\U+220525
 73
     1
 44
1.0
  0
LINE
  5
1E08C
330
1901A
100
AcDbEntity
  8
AM_5
100
AcDbLine
 10
116.3696330065337
 20
5.338241008775221
 30
0.0
 11
125.370383470921
 21
28.66175899122873
 31
0.0
  0
INSERT
  5
1E08D
330
1901A
100
AcDbEntity
  8
AM_5
100
AcDbBlockReference
  2
_Open30
 10
116.3696330065337
 20
5.338241008775221
 30
0.0
 41
2.5
 42
2.5
 43
2.5
 50
68.89796042146745
  0
INSERT
  5
1E08E
330
1901A
100
AcDbEntity
  8
AM_5
100
AcDbBlockReference
  2
_Open30
 10
125.370383470921
 20
28.66175899122873
 30
0.0
 41
2.5
 42
2.5
 43
2.5
 50
248.8979604214674
  0
POINT
  5
1E08F
330
1901A
100
AcDbEntity
  8
Defpoints
 62
     0
100
AcDbPoint
 10
125.370383470921
 20
28.66175899122873
 30
0.0
  0
POINT
  5
1E090
330
1901A
100
AcDbEntity
  8
Defpoints
 62
     0
100
AcDbPoint
 10
116.3696330065337
 20
5.338241008775221
 30
0.0
  0
ENDBLK
  5
19024
330
1901A
100
AcDbEntity
  8
0
100
AcDbBlockEnd
  0
BLOCK
  5
1B16A
330
1B164
100
AcDbEntity
  8
0
100
AcDbBlockBegin
  2
*D4
 70
     1
 71
     0
 10
0.0
 20
0.0
 30
0.0
  3
*D4
  1

  0
LINE
  5
1E091
330
1B164
100
AcDbEntity
  8
AM_5
100
AcDbLine
 10
-55.53502755517113
 20
28.04969394165082
 30
0.0
 11
-53.62653468233411
 21
29.6645174472793
 31
0.0
  0
LINE
  5
1E092
330
1B164
100
AcDbEntity
  8
AM_5
100
AcDbLine
 10
-83.78072207315921
 20
4.150306058349131
 30
0.0
 11
-89.21940090396623
 21
-0.4514959921326209
 31
0.0
  0
LINE
  5
1E093
330
1B164
100
AcDbEntity
  8
AM_5
100
AcDbLine
 10
-89.21940090396623
 20
-0.4514959921326209
 30
0.0
 11
-113.0871269134553
 21
-0.4514959921326067
 31
0.0
  0
LINE
  5
1E094
330
1B164
100
AcDbEntity
  8
AM_5
100
AcDbLine
 10
-57.44352042800816
 20
26.43487043602233
 30
0.0
 11
-81.87222920032218
 21
5.765129563977631
 31
0.0
  0
INSERT
  5
1E095
330
1B164
100
AcDbEntity
  8
AM_5
100
AcDbBlockReference
  2
_Open30
 10
-57.44352042800816
 20
26.43487043602233
 30
0.0
 41
2.5
 42
2.5
 43
2.5
 50
220.2353946718614
  0
INSERT
  5
1E096
330
1B164
100
AcDbEntity
  8
AM_5
100
AcDbBlockReference
  2
_Open30
 10
-81.87222920032218
 20
5.765129563977631
 30
0.0
 41
2.5
 42
2.5
 43
2.5
 50
40.23539467186139
  0
MTEXT
  5
1E097
330
1B164
100
AcDbEntity
  8
AM_5
 62
     2
100
AcDbMText
 10
-101.9032639087108
 20
6.115544690282091
 30
0.0
 40
3.8
 41
0.0
 71
     5
 72
     1
  1
最小加工径\P\U+220532\P
 73
     1
 44
1.0
  0
POINT
  5
1E098
330
1B164
100
AcDbEntity
  8
Defpoints
 62
     0
100
AcDbPoint
 10
-81.87222920032218
 20
5.765129563977631
 30
0.0
  0
POINT
  5
1E099
330
1B164
100
AcDbEntity
  8
Defpoints
 62
     0
100
AcDbPoint
 10
-57.44352042800816
 20
26.43487043602233
 30
0.0
  0
ENDBLK
  5
1B16B
330
1B164
100
AcDbEntity
  8
0
100
AcDbBlockEnd
  0
BLOCK
  5
1D58F
330
1D58E
100
AcDbEntity
  8
0
100
AcDbBlockBegin
  2
*U5
 70
     1
 71
     0
 10
0.0
 20
0.0
 30
0.0
  3
*U5
  1

  0
ENDBLK
  5
1D590
330
1D58E
100
AcDbEntity
  8
0
100
AcDbBlockEnd
  0
BLOCK
  5
1DD64
330
1DD4A
100
AcDbEntity
  8
0
100
AcDbBlockBegin
  2
*D6
 70
     1
 71
     0
 10
0.0
 20
0.0
 30
0.0
  3
*D6
  1

  0
LINE
  5
1E09A
330
1DD4A
100
AcDbEntity
  8
AM_5
 62
     3
370
    13
100
AcDbLine
 10
0.0
 20
0.0
 30
0.0
 11
41.6120129478827
 21
-0.0000000000000118
 31
0.0
  0
LINE
  5
1E09B
330
1DD4A
100
AcDbEntity
  8
AM_5
 62
     3
370
    13
100
AcDbLine
 10
34.17052277479161
 20
6.999999999999943
 30
0.0
 11
41.6120129478827
 21
6.999999999999941
 31
0.0
  0
LINE
  5
1E09C
330
1DD4A
100
AcDbEntity
  8
AM_5
 62
     3
370
    13
100
AcDbLine
 10
40.6120129478827
 20
-2.500000000000012
 30
0.0
 11
40.6120129478827
 21
-5.000000000000012
 31
0.0
  0
LINE
  5
1E09D
330
1DD4A
100
AcDbEntity
  8
AM_5
 62
     3
370
    13
100
AcDbLine
 10
40.6120129478827
 20
9.499999999999941
 30
0.0
 11
40.6120129478827
 21
11.99999999999994
 31
0.0
  0
LINE
  5
1E09E
330
1DD4A
100
AcDbEntity
  8
AM_5
 62
     3
370
    13
100
AcDbLine
 10
40.6120129478827
 20
-0.0000000000000115
 30
0.0
 11
40.6120129478827
 21
6.999999999999942
 31
0.0
  0
INSERT
  5
1E09F
330
1DD4A
100
AcDbEntity
  8
AM_5
 62
     3
370
    13
100
AcDbBlockReference
  2
_Open30
 10
40.6120129478827
 20
-0.0000000000000115
 30
0.0
 41
2.5
 42
2.5
 43
2.5
 50
90.0
  0
INSERT
  5
1E0A0
330
1DD4A
100
AcDbEntity
  8
AM_5
 62
     3
370
    13
100
AcDbBlockReference
  2
_Open30
 10
40.6120129478827
 20
6.999999999999942
 30
0.0
 41
2.5
 42
2.5
 43
2.5
 50
270.0
  0
MTEXT
  5
1E0A1
330
1DD4A
100
AcDbEntity
  8
AM_5
 62
     2
100
AcDbMText
 10
37.21201294788271
 20
3.499999999999972
 30
0.0
 40
3.8
 41
0.0
 71
     5
 72
     1
  1
7
 11
6.123031769111886E-17
 21
1.0
 31
0.0
 73
     1
 44
1.0
  0
POINT
  5
1E0A2
330
1DD4A
100
AcDbEntity
  8
Defpoints
 62
     0
100
AcDbPoint
 10
0.0
 20
0.0
 30
0.0
  0
POINT
  5
1E0A3
330
1DD4A
100
AcDbEntity
  8
Defpoints
 62
     0
100
AcDbPoint
 10
34.17052277479161
 20
6.999999999999943
 30
0.0
  0
POINT
  5
1E0A4
330
1DD4A
100
AcDbEntity
  8
Defpoints
 62
     0
100
AcDbPoint
 10
40.6120129478827
 20
6.999999999999942
 30
0.0
  0
ENDBLK
  5
1DD65
330
1DD4A
100
AcDbEntity
  8
0
100
AcDbBlockEnd
  0
BLOCK
  5
1DD97
330
1DD81
100
AcDbEntity
  8
0
100
AcDbBlockBegin
  2
*D7
 70
     1
 71
     0
 10
0.0
 20
0.0
 30
0.0
  3
*D7
  1

  0
LINE
  5
1E0A5
330
1DD81
100
AcDbEntity
  8
AM_5
 62
     3
370
    13
100
AcDbLine
 10
0.0
 20
0.0
 30
0.0
 11
-13.00000101000001
 21
0.0000000000000037
 31
0.0
  0
LINE
  5
1E0A6
330
1DD81
100
AcDbEntity
  8
AM_5
 62
     3
370
    13
100
AcDbLine
 10
-10.62485687723063
 20
17.0
 30
0.0
 11
-13.00000101000001
 21
17.0
 31
0.0
  0
LINE
  5
1E0A7
330
1DD81
100
AcDbEntity
  8
AM_5
 62
     3
370
    13
100
AcDbLine
 10
-12.00000101000001
 20
2.500000000000004
 30
0.0
 11
-12.00000101000001
 21
14.5
 31
0.0
  0
INSERT
  5
1E0A8
330
1DD81
100
AcDbEntity
  8
AM_5
 62
     3
370
    13
100
AcDbBlockReference
  2
_Open30
 10
-12.00000101000001
 20
0.0000000000000034
 30
0.0
 41
2.5
 42
2.5
 43
2.5
 50
270.0
  0
INSERT
  5
1E0A9
330
1DD81
100
AcDbEntity
  8
AM_5
 62
     3
370
    13
100
AcDbBlockReference
  2
_Open30
 10
-12.00000101000001
 20
17.0
 30
0.0
 41
2.5
 42
2.5
 43
2.5
 50
90.0
  0
MTEXT
  5
1E0AA
330
1DD81
100
AcDbEntity
  8
AM_5
 62
     2
100
AcDbMText
 10
-15.40000101000001
 20
8.5
 30
0.0
 40
3.8
 41
0.0
 71
     5
 72
     1
  1
17
 11
6.123031769111886E-17
 21
1.0
 31
0.0
 73
     1
 44
1.0
  0
POINT
  5
1E0AB
330
1DD81
100
AcDbEntity
  8
Defpoints
 62
     0
100
AcDbPoint
 10
0.0
 20
0.0
 30
0.0
  0
POINT
  5
1E0AC
330
1DD81
100
AcDbEntity
  8
Defpoints
 62
     0
100
AcDbPoint
 10
-10.62485687723063
 20
17.0
 30
0.0
  0
POINT
  5
1E0AD
330
1DD81
100
AcDbEntity
  8
Defpoints
 62
     0
100
AcDbPoint
 10
-12.00000101000001
 20
17.0
 30
0.0
  0
ENDBLK
  5
1DD98
330
1DD81
100
AcDbEntity
  8
0
100
AcDbBlockEnd
  0
BLOCK
  5
1DDE7
330
1DDA6
100
AcDbEntity
  8
0
100
AcDbBlockBegin
  2
*D8
 70
     1
 71
     0
 10
0.0
 20
0.0
 30
0.0
  3
*D8
  1

  0
LINE
  5
1E0AE
330
1DDA6
100
AcDbEntity
  8
AM_5
 62
     3
370
    13
100
AcDbLine
 10
-69.6578748141651
 20
-0.2130524142067536
 30
0.0
 11
-72.24975711945675
 21
-24.87316528925334
 31
0.0
  0
LINE
  5
1E0AF
330
1DDA6
100
AcDbEntity
  8
AM_5
 62
     3
370
    13
100
AcDbLine
 10
-69.6578748141651
 20
-3.604679326687467
 30
0.0
 11
-69.6578748141651
 21
-25.00900008503641
 31
0.0
  0
ARC
  5
1E0B0
330
1DDA6
100
AcDbEntity
  8
AM_5
 62
     3
370
    13
100
AcDbCircle
 10
-69.6578748141651
 20
-0.2130524142067536
 30
0.0
 40
23.79594767082966
100
AcDbArc
 50
251.9554780987069
 51
257.9777390493596
  0
ARC
  5
1E0B1
330
1DDA6
100
AcDbEntity
  8
AM_5
 62
     3
370
    13
100
AcDbCircle
 10
-69.6578748141651
 20
-0.2130524142067536
 30
0.0
 40
23.79594767082966
100
AcDbArc
 50
276.0222609506528
 51
282.0445219013055
  0
ARC
  5
1E0B2
330
1DDA6
100
AcDbEntity
  8
AM_5
 62
     3
370
    13
100
AcDbCircle
 10
-69.6578748141651
 20
-0.2130524142067536
 30
0.0
 40
23.79594767082966
100
AcDbArc
 50
264.0000000000124
 51
270.0
  0
INSERT
  5
1E0B3
330
1DDA6
100
AcDbEntity
  8
AM_5
 62
     3
370
    13
100
AcDbBlockReference
  2
_Open30
 10
-72.1452286561893
 20
-23.87864339388505
 30
0.0
 41
2.5
 42
2.5
 43
2.5
 50
350.988869524686
  0
INSERT
  5
1E0B4
330
1DDA6
100
AcDbEntity
  8
AM_5
 62
     3
370
    13
100
AcDbBlockReference
  2
_Open30
 10
-69.6578748141651
 20
-24.00900008503641
 30
0.0
 41
2.5
 42
2.5
 43
2.5
 50
183.0111304753264
  0
MTEXT
  5
1E0B5
330
1DDA6
100
AcDbEntity
  8
AM_5
 62
     2
100
AcDbMText
 10
-76.17581579163699
 20
-19.53948837134625
 30
0.0
 40
3.8
 41
0.0
 71
     5
 72
     1
  1
6°
 11
0.9475625388459015
 21
-0.3195703912691371
 31
0.0
 73
     1
 44
1.0
  0
POINT
  5
1E0B6
330
1DDA6
100
AcDbEntity
  8
Defpoints
 62
     0
100
AcDbPoint
 10
-70.48834141143439
 20
-23.99450423666039
 30
0.0
  0
POINT
  5
1E0B7
330
1DDA6
100
AcDbEntity
  8
Defpoints
 62
     0
100
AcDbPoint
 10
-69.65787481416511
 20
16.99915233071819
 30
0.0
  0
POINT
  5
1E0B8
330
1DDA6
100
AcDbEntity
  8
Defpoints
 62
     0
100
AcDbPoint
 10
-68.52035663479819
 20
10.60971011761627
 30
0.0
  0
POINT
  5
1E0B9
330
1DDA6
100
AcDbEntity
  8
Defpoints
 62
     0
100
AcDbPoint
 10
-69.52684066721213
 20
1.033654215854554
 30
0.0
  0
POINT
  5
1E0BA
330
1DDA6
100
AcDbEntity
  8
Defpoints
 62
     0
100
AcDbPoint
 10
-69.6578748141651
 20
-3.604679326687467
 30
0.0
  0
ENDBLK
  5
1DDE8
330
1DDA6
100
AcDbEntity
  8
0
100
AcDbBlockEnd
  0
BLOCK
  5
1DE4C
330
1DE14
100
AcDbEntity
  8
0
100
AcDbBlockBegin
  2
*D9
 70
     1
 71
     0
 10
0.0
 20
0.0
 30
0.0
  3
*D9
  1

  0
LINE
  5
1E0BB
330
1DE14
100
AcDbEntity
  8
AM_5
 62
     3
370
    13
100
AcDbLine
 10
3.055968083098378
 20
10.60971011808269
 30
0.0
 11
9.35346507574258
 21
30.58281884782191
 31
0.0
  0
LINE
  5
1E0BC
330
1DE14
100
AcDbEntity
  8
AM_5
 62
     3
370
    13
100
AcDbLine
 10
-0.2892606674950513
 20
-0.0000000000000013
 30
0.0
 11
-32.35623695834588
 21
-0.0000000000000338
 31
0.0
  0
ARC
  5
1E0BD
330
1DE14
100
AcDbEntity
  8
AM_5
 62
     3
370
    13
100
AcDbCircle
 10
-0.2892606674950513
 20
-0.0000000000000013
 30
0.0
 40
31.06697629085083
100
AcDbArc
 50
77.11191086621695
 51
175.3880891337592
  0
INSERT
  5
1E0BE
330
1DE14
100
AcDbEntity
  8
AM_5
 62
     3
370
    13
100
AcDbBlockReference
  2
_Open30
 10
9.052759276237909
 20
29.62910189707381
 30
0.0
 41
2.5
 42
2.5
 43
2.5
 50
344.8059554330965
  0
INSERT
  5
1E0BF
330
1DE14
100
AcDbEntity
  8
AM_5
 62
     3
370
    13
100
AcDbBlockReference
  2
_Open30
 10
-31.35623695834588
 20
-0.000000000000032
 30
0.0
 41
2.5
 42
2.5
 43
2.5
 50
267.6940445668796
  0
MTEXT
  5
1E0C0
330
1DE14
100
AcDbEntity
  8
AM_5
 62
     2
100
AcDbMText
 10
-20.6699162981882
 20
27.79570705517614
 30
0.0
 40
3.8
 41
0.0
 71
     5
 72
     1
  1
107°30'
 11
0.8064446042676056
 21
0.5913096483634146
 31
0.0
 73
     1
 44
1.0
  0
POINT
  5
1E0C1
330
1DE14
100
AcDbEntity
  8
Defpoints
 62
     0
100
AcDbPoint
 10
-10.06121514926049
 20
29.49009870215072
 30
0.0
  0
POINT
  5
1E0C2
330
1DE14
100
AcDbEntity
  8
Defpoints
 62
     0
100
AcDbPoint
 10
3.055968083098378
 20
10.60971011808269
 30
0.0
  0
POINT
  5
1E0C3
330
1DE14
100
AcDbEntity
  8
Defpoints
 62
     0
100
AcDbPoint
 10
0.7999873534110975
 20
0.0
 30
0.0
  0
POINT
  5
1E0C4
330
1DE14
100
AcDbEntity
  8
Defpoints
 62
     0
100
AcDbPoint
 10
0.0
 20
0.0
 30
0.0
  0
POINT
  5
1E0C5
330
1DE14
100
AcDbEntity
  8
Defpoints
 62
     0
100
AcDbPoint
 10
0.0366492550310795
 20
1.033654216320969
 30
0.0
  0
ENDBLK
  5
1DE4D
330
1DE14
100
AcDbEntity
  8
0
100
AcDbBlockEnd
  0
BLOCK
  5
1DEAD
330
1DE97
100
AcDbEntity
  8
0
100
AcDbBlockBegin
  2
*D10
 70
     1
 71
     0
 10
0.0
 20
0.0
 30
0.0
  3
*D10
  1

  0
LINE
  5
1E0C6
330
1DE97
100
AcDbEntity
  8
AM_5
 62
     3
370
    13
100
AcDbLine
 10
0.0
 20
0.0
 30
0.0
 11
-0.0000000000000019
 21
-31.06804815686326
 31
0.0
  0
LINE
  5
1E0C7
330
1DE97
100
AcDbEntity
  8
AM_5
 62
     3
370
    13
100
AcDbLine
 10
249.9999999999999
 20
6.999999999999915
 30
0.0
 11
249.9999999999999
 21
-31.06804815686326
 31
0.0
  0
LINE
  5
1E0C8
330
1DE97
100
AcDbEntity
  8
AM_5
 62
     3
370
    13
100
AcDbLine
 10
2.499999999999998
 20
-30.06804815686326
 30
0.0
 11
247.4999999999999
 21
-30.06804815686326
 31
0.0
  0
INSERT
  5
1E0C9
330
1DE97
100
AcDbEntity
  8
AM_5
 62
     3
370
    13
100
AcDbBlockReference
  2
_Open30
 10
-0.0000000000000018
 20
-30.06804815686326
 30
0.0
 41
2.5
 42
2.5
 43
2.5
 50
180.0
  0
INSERT
  5
1E0CA
330
1DE97
100
AcDbEntity
  8
AM_5
 62
     3
370
    13
100
AcDbBlockReference
  2
_Open30
 10
249.9999999999999
 20
-30.06804815686326
 30
0.0
 41
2.5
 42
2.5
 43
2.5
  0
MTEXT
  5
1E0CB
330
1DE97
100
AcDbEntity
  8
AM_5
 62
     2
100
AcDbMText
 10
124.9999999999999
 20
-26.66767414111522
 30
0.0
 40
3.8
 41
0.0
 71
     5
 72
     1
  1
250
 73
     1
 44
1.0
  0
POINT
  5
1E0CC
330
1DE97
100
AcDbEntity
  8
Defpoints
 62
     0
100
AcDbPoint
 10
0.0
 20
0.0
 30
0.0
  0
POINT
  5
1E0CD
330
1DE97
100
AcDbEntity
  8
Defpoints
 62
     0
100
AcDbPoint
 10
249.9999999999999
 20
6.999999999999915
 30
0.0
  0
POINT
  5
1E0CE
330
1DE97
100
AcDbEntity
  8
Defpoints
 62
     0
100
AcDbPoint
 10
249.9999999999999
 20
-30.06804815686326
 30
0.0
  0
ENDBLK
  5
1DEAE
330
1DE97
100
AcDbEntity
  8
0
100
AcDbBlockEnd
  0
ENDSEC
  0
SECTION
  2
ENTITIES
  0
DIMENSION
  5
F478
330
1F
100
AcDbEntity
  8
AM_5
100
AcDbDimension
  2
*D2
 10
131.8700082387271
 20
-12.42071441596396
 30
0.0
 11
120.8700082387271
 21
-12.42071441596396
 31
0.0
 70
   160
  1
<>
 71
     5
 42
22.0
  3
AM_JIS$0
100
AcDbAlignedDimension
 13
109.8700082387271
 23
11.0628289564829
 33
0.0
 14
131.8700082387271
 24
11.06282895648296
 34
0.0
100
AcDbRotatedDimension
1001
GENIUS_GENDTOL_13
1000

1000
h7
1000

1040
0.0
1001
ACAD
1000
DSTYLE
1002
{
1070
   271
1070
     0
1002
}
  0
DIMENSION
  5
19019
330
1F
100
AcDbEntity
  8
AM_5
100
AcDbDimension
  2
*D3
 10
116.3696330065337
 20
5.338241008775221
 30
0.0
 11
135.9657159082656
 21
42.17954370123363
 31
0.0
 70
   163
  1
<>
 71
     5
 42
25.00000000000001
  3
AM_JIS$3
100
AcDbDiametricDimension
 15
125.370383470921
 25
28.66175899122873
 35
0.0
 40
0.0
1001
GENIUS_GENDTOL_13
1000

1000
h7
1000

1040
0.0
1001
ACAD
1000
DSTYLE
1002
{
1070
   271
1070
     0
1070
   289
1070
     3
1002
}
  0
LINE
  5
1A2B7
330
1F
100
AcDbEntity
  8
AM_0
100
AcDbLine
 10
249.9999999999999
 20
-65.60348157181473
 30
0.0
 11
249.9999999999999
 21
-72.02090587685878
 31
0.0
  0
SPLINE
  5
1A2B8
330
1F
100
AcDbEntity
  8
AM_0
100
AcDbSpline
210
0.0
220
0.0
230
1.0
 70
    12
 71
     2
 72
     6
 73
     3
 74
     0
 42
0.0000000001
 43
0.0000000001
 40
0.0
 40
0.0
 40
0.0
 40
3.282612857629398
 40
3.282612857629398
 40
3.282612857629398
 10
249.9999999999999
 20
-65.60348157181461
 30
0.0
 41
1.0
 10
249.4310928633119
 20
-66.96908443800551
 30
0.0
 41
1.007796314460013
 10
248.4999999999999
 20
-68.52090587685878
 30
0.0
 41
1.0
  0
LINE
  5
1A2B9
330
1F
100
AcDbEntity
  8
AM_0
100
AcDbLine
 10
248.4999999999999
 20
-72.02090587685878
 30
0.0
 11
248.4999999999999
 21
-68.52090587685878
 31
0.0
  0
LINE
  5
1A2BA
330
1F
100
AcDbEntity
  8
AM_0
100
AcDbLine
 10
248.4999999999999
 20
-72.02090587685878
 30
0.0
 11
249.9999999999999
 21
-72.02090587685878
 31
0.0
  0
LINE
  5
1A2BB
330
1F
100
AcDbEntity
  8
AM_0
100
AcDbLine
 10
249.9999999999999
 20
-50.02090587685878
 30
0.0
 11
249.9999999999999
 21
-56.43833018190294
 31
0.0
  0
SPLINE
  5
1A2BC
330
1F
100
AcDbEntity
  8
AM_0
100
AcDbSpline
210
0.0
220
0.0
230
1.0
 70
    12
 71
     2
 72
     6
 73
     3
 74
     0
 42
0.0000000001
 43
0.0000000001
 40
0.0
 40
0.0
 40
0.0
 40
3.282612857629398
 40
3.282612857629398
 40
3.282612857629398
 10
248.4999999999999
 20
-53.52090587685878
 30
0.0
 41
1.0
 10
249.4310928633119
 20
-55.07272731571204
 30
0.0
 41
1.007796314460013
 10
249.9999999999999
 20
-56.43833018190294
 30
0.0
 41
1.0
  0
LINE
  5
1A2BD
330
1F
100
AcDbEntity
  8
AM_0
100
AcDbLine
 10
249.9999999999999
 20
-56.43833018190294
 30
0.0
 11
249.9999999999999
 21
-65.60348157181461
 31
0.0
  0
LINE
  5
1A2BE
330
1F
100
AcDbEntity
  8
AM_0
100
AcDbLine
 10
248.4999999999999
 20
-53.52090587685878
 30
0.0
 11
248.4999999999999
 21
-50.02090587685878
 31
0.0
  0
LINE
  5
1A2BF
330
1F
100
AcDbEntity
  8
AM_0
100
AcDbLine
 10
248.4999999999999
 20
-50.02090587685878
 30
0.0
 11
249.9999999999999
 21
-50.02090587685878
 31
0.0
  0
LINE
  5
1A3A4
330
1F
100
AcDbEntity
  8
AM_0
100
AcDbLine
 10
248.4999999999999
 20
29.49999999999992
 30
0.0
 11
135.360469964098
 21
29.49999999999993
 31
0.0
  0
LINE
  5
1A3A7
330
1F
100
AcDbEntity
  8
AM_0
100
AcDbLine
 10
248.4999999999999
 20
11.06282895648113
 30
0.0
 11
135.360469964098
 21
11.062828956481
 31
0.0
  0
LINE
  5
1A3CE
330
1F
100
AcDbEntity
  8
AM_0
100
AcDbLine
 10
249.9999999999999
 20
16.99999999999992
 30
0.0
 11
249.9999999999999
 21
6.999999999999915
 31
0.0
  0
SPLINE
  5
1A3CF
330
1F
100
AcDbEntity
  8
AM_0
100
AcDbSpline
210
0.0
220
0.0
230
1.0
 70
    12
 71
     2
 72
     6
 73
     3
 74
     0
 42
0.0000000001
 43
0.0000000001
 40
6.162838341845223
 40
6.162838341845223
 40
6.162838341845223
 40
12.32567668369045
 40
12.32567668369045
 40
12.32567668369045
 10
249.9999999999999
 20
16.99999999999992
 30
0.0
 41
1.0
 10
249.9999999999999
 20
14.22089866048046
 30
0.0
 41
1.033528818263843
 10
248.4999999999999
 20
11.06282895648101
 30
0.0
 41
1.0
  0
LINE
  5
1A3D0
330
1F
100
AcDbEntity
  8
AM_0
100
AcDbLine
 10
248.4999999999999
 20
6.999999999999915
 30
0.0
 11
248.4999999999999
 21
11.06282895648101
 31
0.0
  0
LINE
  5
1A3D1
330
1F
100
AcDbEntity
  8
AM_0
100
AcDbLine
 10
248.4999999999999
 20
6.999999999999915
 30
0.0
 11
249.9999999999999
 21
6.999999999999915
 31
0.0
  0
LINE
  5
1A3D2
330
1F
100
AcDbEntity
  8
AM_0
100
AcDbLine
 10
248.4999999999999
 20
22.93717104351893
 30
0.0
 11
248.4999999999999
 21
29.49999999999992
 31
0.0
  0
LINE
  5
1A3D3
330
1F
100
AcDbEntity
  8
AM_0
100
AcDbLine
 10
249.9999999999999
 20
27.99999999999992
 30
0.0
 11
249.9999999999999
 21
16.99999999999992
 31
0.0
  0
SPLINE
  5
1A3D4
330
1F
100
AcDbEntity
  8
AM_0
100
AcDbSpline
210
0.0
220
0.0
230
1.0
 70
    12
 71
     2
 72
     6
 73
     3
 74
     0
 42
0.0000000001
 43
0.0000000001
 40
0.0
 40
0.0
 40
0.0
 40
6.162838341845223
 40
6.162838341845223
 40
6.162838341845223
 10
248.4999999999999
 20
22.93717104351893
 30
0.0
 41
1.0
 10
249.9999999999999
 20
19.77910133951949
 30
0.0
 41
1.033528818263843
 10
249.9999999999999
 20
16.99999999999992
 30
0.0
 41
1.0
  0
LINE
  5
1A3D5
330
1F
100
AcDbEntity
  8
AM_0
100
AcDbLine
 10
249.9999999999999
 20
27.99999999999992
 30
0.0
 11
248.4999999999999
 21
29.49999999999992
 31
0.0
  0
ARC
  5
1A763
330
1F
100
AcDbEntity
  8
AM_0
100
AcDbCircle
 10
120.8700082387256
 20
16.99999999999999
 30
0.0
 40
12.49999999999994
100
AcDbArc
 50
306.8698976458432
 51
331.6423634236721
  0
LINE
  5
1A764
330
1F
100
AcDbEntity
  8
AM_0
100
AcDbLine
 10
131.8700082387256
 20
22.93717104351894
 30
0.0
 11
131.8700082387256
 21
11.06282895648103
 31
0.0
  0
LINE
  5
1A765
330
1F
100
AcDbEntity
  8
AM_0
100
AcDbLine
 10
109.8700082387256
 20
22.93717104351894
 30
0.0
 11
109.8700082387256
 21
11.06282895648103
 31
0.0
  0
ARC
  5
1A766
330
1F
100
AcDbEntity
  8
AM_0
100
AcDbCircle
 10
120.8700082387256
 20
16.99999999999999
 30
0.0
 40
12.49999999999994
100
AcDbArc
 50
28.35763657632797
 51
151.6423634236719
  0
ARC
  5
1A767
330
1F
100
AcDbEntity
  8
AM_0
100
AcDbCircle
 10
120.8700082387256
 20
16.99999999999999
 30
0.0
 40
12.49999999999994
100
AcDbArc
 50
208.3576365763281
 51
233.1301023541568
  0
LINE
  5
1A778
330
1F
100
AcDbEntity
  8
AM_0
100
AcDbLine
 10
135.360469964098
 20
6.999999999999929
 30
0.0
 11
248.4999999999999
 21
6.999999999999915
 31
0.0
  0
LINE
  5
1A779
330
1F
100
AcDbEntity
  8
AM_0
100
AcDbLine
 10
113.3700082387258
 20
6.999999999999957
 30
0.0
 11
128.3700082387254
 21
6.999999999999929
 31
0.0
  0
LINE
  5
1A77C
330
1F
100
AcDbEntity
  8
AM_0
100
AcDbLine
 10
135.360469964098
 20
22.93717104351894
 30
0.0
 11
248.4999999999999
 21
22.93717104351893
 31
0.0
  0
LINE
  5
1A78B
330
1F
100
AcDbEntity
  8
AM_7
100
AcDbLine
 10
120.8700082387256
 20
32.29399999999994
 30
0.0
 11
120.8700082387256
 21
4.205999999999918
 31
0.0
1001
GENIUS_GENOBJ-N-CEN_13
1002
{
1000
OWNER
1000
GEN
1002
}
1001
GENIUS_GENODEF_13
1002
{
1000
HIER
1070
     0
1002
}
1002
{
1000
MANEDIT
1070
     0
1002
}
1002
{
1000
NOSEL
1070
     0
1002
}
1002
{
1000
BEHIND
1070
     0
1002
}
1002
{
1000
OTHER
1070
     0
1002
}
1002
{
1000
REACTOR
1002
}
  0
LINE
  5
1AB84
330
1F
100
AcDbEntity
  8
AM_7
100
AcDbLine
 10
-10.34755819852705
 20
-61.02090587685875
 30
0.0
 11
262.8711332961635
 21
-61.02090587685878
 31
0.0
1001
GENIUS_GENODEF_13
1002
{
1000
HIER
1070
     0
1002
}
1002
{
1000
MANEDIT
1070
     0
1002
}
1002
{
1000
NOSEL
1070
     0
1002
}
1002
{
1000
BEHIND
1070
     0
1002
}
1002
{
1000
OTHER
1070
     0
1002
}
1002
{
1000
REACTOR
1002
}
1001
GENIUS_GENOBJ-N-CEN_13
1002
{
1000
OWNER
1000
GEN
1002
}
  0
LINE
  5
1AB8C
330
1F
100
AcDbEntity
  8
AM_7
100
AcDbLine
 10
-10.62485687723063
 20
17.0
 30
0.0
 11
262.8711332961635
 21
16.99999999999997
 31
0.0
1001
GENIUS_GENOBJ-N-CEN_13
1002
{
1000
OWNER
1000
GEN
1002
}
1001
GENIUS_GENODEF_13
1002
{
1000
HIER
1070
     0
1002
}
1002
{
1000
MANEDIT
1070
     0
1002
}
1002
{
1000
NOSEL
1070
     0
1002
}
1002
{
1000
BEHIND
1070
     0
1002
}
1002
{
1000
OTHER
1070
     0
1002
}
1002
{
1000
REACTOR
1002
}
  0
LINE
  5
1B076
330
1F
100
AcDbEntity
  8
AM_7
100
AcDbLine
 10
-69.6578748141651
 20
16.99915233071819
 30
0.0
 11
-49.05404315675946
 21
16.99915233071819
 31
0.0
1001
GENIUS_GENOREF_13
1005
1B07A
  0
LINE
  5
1B077
330
1F
100
AcDbEntity
  8
AM_7
100
AcDbLine
 10
-69.6578748141651
 20
16.99915233071819
 30
0.0
 11
-69.6578748141651
 21
37.60298398812385
 31
0.0
1001
GENIUS_GENOREF_13
1005
1B07A
  0
LINE
  5
1B078
330
1F
100
AcDbEntity
  8
AM_7
100
AcDbLine
 10
-69.6578748141651
 20
16.99915233071819
 30
0.0
 11
-90.26170647157073
 21
16.99915233071819
 31
0.0
1001
GENIUS_GENOREF_13
1005
1B07A
  0
LINE
  5
1B079
330
1F
100
AcDbEntity
  8
AM_7
100
AcDbLine
 10
-69.6578748141651
 20
16.99915233071819
 30
0.0
 11
-69.6578748141651
 21
-3.604679326687474
 31
0.0
1001
GENIUS_GENOREF_13
1005
1B07A
  0
POINT
  5
1B07A
330
1F
100
AcDbEntity
  8
0
 60
     1
100
AcDbPoint
 10
0.0
 20
0.0
 30
0.0
1001
GENIUS_GENOENT_13
1002
{
1000
MYREF
1005
1B07A
1002
}
1002
{
1000
GRP
1005
0
1002
}
1001
GENIUS_GENOBJ-N-CRS_13
1002
{
1000
OWNER
1000
GEN
1002
}
1001
GENIUS_GENOLIS_13
1002
{
1000
ENT
1005
1B079
1005
1B078
1005
1B077
1005
1B076
1002
}
1001
GENIUS_GENODEF_13
1002
{
1000
HIER
1070
    10
1002
}
1002
{
1000
MANEDIT
1070
     0
1002
}
1002
{
1000
NOSEL
1070
     0
1002
}
1002
{
1000
BEHIND
1070
     0
1002
}
1002
{
1000
OTHER
1070
     0
1002
}
1002
{
1000
REACTOR
1002
}
  0
CIRCLE
  5
1B15E
330
1F
100
AcDbEntity
  8
AM_11
  6
ACJISTGB
100
AcDbCircle
 10
-69.6578748141651
 20
16.10000000000001
 30
0.0
 40
16.0
  0
DIMENSION
  5
1B163
330
1F
100
AcDbEntity
  8
AM_5
100
AcDbDimension
  2
*D4
 10
-57.44352042800816
 20
26.43487043602233
 30
0.0
 11
-101.9032639087108
 21
-0.4514959921326067
 31
0.0
 70
   163
  1
最小加工径\P<>\P
 71
     5
 42
32.00000000000012
  3
AM_JIS$3
100
AcDbDiametricDimension
 15
-81.87222920032218
 25
5.765129563977631
 35
0.0
 40
0.0
1001
ACAD
1000
DSTYLE
1002
{
1070
   179
1070
     1
1070
   271
1070
     0
1002
}
  0
LINE
  5
1B263
330
1F
100
AcDbEntity
  8
AM_5
100
AcDbLine
 10
-65.57449301205486
 20
40.15716130758658
 30
0.0
 11
-69.63656454408624
 21
17.0651098345452
 31
0.0
  0
LINE
  5
1C924
330
1F
100
AcDbEntity
  8
AM_0
100
AcDbLine
 10
37.07683322267701
 20
-50.02090587685875
 30
0.0
 11
44.27483977771124
 21
-50.02090587685875
 31
0.0
  0
ARC
  5
1C925
330
1F
100
AcDbEntity
  8
AM_0
100
AcDbCircle
 10
37.07683322267698
 20
-48.56549952177834
 30
0.0
 40
9.62164394128814
100
AcDbArc
 50
270.0
 51
329.0007406895863
  0
LINE
  5
1C926
330
1F
100
AcDbEntity
  8
AM_0
100
AcDbLine
 10
40.0
 20
-68.09639172590123
 30
0.0
 11
34.69285967679912
 21
-68.09639172590123
 31
0.0
  0
LINE
  5
1C927
330
1F
100
AcDbEntity
  8
AM_0
100
AcDbLine
 10
13.5277994693347
 20
-72.02090587685875
 30
0.0
 11
40.0
 21
-72.02090587685875
 31
0.0
  0
ARC
  5
1C92D
330
1F
100
AcDbEntity
  8
AM_0
100
AcDbCircle
 10
37.07683322267701
 20
4.275304078053239
 30
0.0
 40
9.893522746807193
100
AcDbArc
 50
43.31882558042883
 51
90.0
  0
LINE
  5
1C92E
330
1F
100
AcDbEntity
  8
AM_0
100
AcDbLine
 10
45.32425584971361
 20
7.000000000000057
 30
0.0
 11
37.07683322267701
 21
7.000000000000057
 31
0.0
  0
LINE
  5
1C92F
330
1F
100
AcDbEntity
  8
AM_0
100
AcDbLine
 10
34.66031114673137
 20
22.39096466321195
 30
0.0
 11
40.0
 21
22.39096466321195
 31
0.0
  0
LINE
  5
1C930
330
1F
100
AcDbEntity
  8
AM_0
100
AcDbLine
 10
35.0
 20
29.00185236002579
 30
0.0
 11
40.0
 21
29.00185236002579
 31
0.0
  0
LINE
  5
1C931
330
1F
100
AcDbEntity
  8
AM_0
100
AcDbLine
 10
40.0
 20
27.43901876102342
 30
0.0
 11
35.0
 21
27.43901876102342
 31
0.0
  0
LINE
  5
1C938
330
1F
100
AcDbEntity
  8
AM_0
100
AcDbLine
 10
13.5277994693347
 20
-60.53297096851456
 30
0.0
 11
13.5277994693347
 21
-72.02090587685875
 31
0.0
  0
LINE
  5
1C939
330
1F
100
AcDbEntity
  8
AM_0
100
AcDbLine
 10
1.0
 20
-64.91326605025056
 30
0.0
 11
1.0
 21
-67.52542716344446
 31
0.0
  0
ELLIPSE
  5
1C93A
330
1F
100
AcDbEntity
  8
AM_0
100
AcDbEllipse
 10
52.72323236542718
 20
-61.02090587685875
 30
0.0
 11
-38.84948740899111
 21
-1.421102254312664
 31
0.0
210
0.0
220
0.0
230
1.0
 40
0.3131905137897555
 41
6.127082488813319
 42
7.1691753077392
  0
ELLIPSE
  5
1C93B
330
1F
100
AcDbEntity
  8
AM_0
100
AcDbEllipse
 10
29.99637425285471
 20
-84.56534505341521
 30
0.0
 11
0.007222456795640227
 21
47.81243163834591
 31
0.0
210
0.0
220
0.0
230
1.0
 40
0.1045753117259061
 41
5.064056784709859
 42
5.296807992195515
  0
ELLIPSE
  5
1C93C
330
1F
100
AcDbEntity
  8
AM_0
100
AcDbEllipse
 10
5.208092812282644
 20
-61.02090587685875
 30
0.0
 11
1.71863809496526
 21
-16.1905427292825
 31
0.0
210
0.0
220
0.0
230
0.9999999999999999
 40
0.3220383471584655
 41
4.972893495517758
 42
5.091386658583421
  0
LINE
  5
1C93D
330
1F
100
AcDbEntity
  8
AM_0
100
AcDbLine
 10
2.613472444757349
 20
-72.02090587685875
 30
0.0
 11
5.231373941239212
 21
-72.02090587685875
 31
0.0
  0
ELLIPSE
  5
1C93E
330
1F
100
AcDbEntity
  8
AM_0
100
AcDbEllipse
 10
4.663319440400869
 20
-60.57011166708246
 30
0.0
 11
-1.606315022975186
 21
14.95659522968528
 31
0.0
210
0.0
220
0.0
230
0.9999999999999999
 40
0.3235259663100451
 41
2.019419614468268
 42
2.407322743623367
  0
LINE
  5
1C93F
330
1F
100
AcDbEntity
  8
AM_0
100
AcDbLine
 10
8.772108402132631
 20
-72.02090587685875
 30
0.0
 11
13.5277994693347
 21
-72.02090587685875
 31
0.0
  0
SPLINE
  5
1C940
330
1F
100
AcDbEntity
  8
AM_0
100
AcDbSpline
210
0.0
220
0.0
230
1.0
 70
     8
 71
     3
 72
    30
 73
    26
 74
     0
 42
0.0000000001
 43
0.0000000001
 40
1.961319018484135
 40
1.961319018484135
 40
1.961319018484135
 40
1.961319018484135
 40
2.702543701300755
 40
2.702543701300755
 40
3.434515865526887
 40
3.434515865526887
 40
4.166488029753019
 40
4.166488029753019
 40
4.615732217584649
 40
4.615732217584649
 40
5.064976405416278
 40
5.064976405416278
 40
5.326218929148574
 40
5.326218929148574
 40
5.587461452880871
 40
5.587461452880871
 40
6.109946500345464
 40
6.109946500345464
 40
6.941489624000545
 40
6.941489624000545
 40
7.773032747655627
 40
7.773032747655627
 40
8.551809778196038
 40
8.551809778196038
 40
8.976661674921154
 40
8.976661674921154
 40
8.976661674921154
 40
8.976661674921154
 10
5.231373941239212
 20
-72.02090587685875
 30
0.0
 10
5.329756678711533
 20
-71.83591675549296
 30
0.0
 10
5.443238078060062
 20
-71.65095640216616
 30
0.0
 10
5.686085143559012
 20
-71.3002873100376
 30
0.0
 10
5.832435784310519
 20
-71.1099369167511
 30
0.0
 10
6.162063644122327
 20
-70.7432780807565
 30
0.0
 10
6.345506336950507
 20
-70.56713467137006
 30
0.0
 10
6.651613442343432
 20
-70.33111554211341
 30
0.0
 10
6.786925637974036
 20
-70.240094554702
 30
0.0
 10
7.072922303493328
 20
-70.09275876234669
 30
0.0
 10
7.223974932524016
 20
-70.03714173183361
 30
0.0
 10
7.449842672557224
 20
-69.99204289466984
 30
0.0
 10
7.534717301085721
 20
-69.98336941992299
 30
0.0
 10
7.701013568705662
 20
-69.98462485194595
 30
0.0
 10
7.782437534915971
 20
-69.99453658560087
 30
0.0
 10
8.012916610725597
 20
-70.04881171046343
 30
0.0
 10
8.148226621275398
 20
-70.11856336254645
 30
0.0
 10
8.425179683867896
 20
-70.32069001913719
 30
0.0
 10
8.559254290353351
 20
-70.48744186415506
 30
0.0
 10
8.752192160522782
 20
-70.84674801031478
 30
0.0
 10
8.810485411665923
 20
-71.03940721547308
 30
0.0
 10
8.862429273056819
 20
-71.38480702033739
 30
0.0
 10
8.863781393622617
 20
-71.55942158332009
 30
0.0
 10
8.824212754862629
 20
-71.83015067938509
 30
0.0
 10
8.802261463816194
 20
-71.92590672440842
 30
0.0
 10
8.772108402132631
 20
-72.02090587685875
 30
0.0
  0
LINE
  5
1C941
330
1F
100
AcDbEntity
  8
AM_0
100
AcDbLine
 10
8.772108402132631
 20
-72.02090587685875
 30
0.0
 11
5.231373941239212
 21
-72.02090587685875
 31
0.0
  0
SPLINE
  5
1C942
330
1F
100
AcDbEntity
  8
AM_0
100
AcDbSpline
210
0.0
220
0.0
230
1.0
 70
     8
 71
     3
 72
    26
 73
    22
 74
     0
 42
0.0000000001
 43
0.0000000001
 40
33.66829563253245
 40
33.66829563253245
 40
33.66829563253245
 40
33.66829563253245
 40
33.96161701110459
 40
33.96161701110459
 40
35.26282591116178
 40
35.26282591116178
 40
36.56403481121896
 40
36.56403481121896
 40
37.86524371127614
 40
37.86524371127614
 40
38.69481189462158
 40
38.69481189462158
 40
39.52438007796702
 40
39.52438007796702
 40
40.35394826131247
 40
40.35394826131247
 40
41.18351644465792
 40
41.18351644465792
 40
42.01303597732047
 40
42.01303597732047
 40
42.67050197045737
 40
42.67050197045737
 40
42.67050197045737
 40
42.67050197045737
 10
34.69285967679912
 20
-68.09639172591112
 30
0.0
 10
34.67588812065526
 20
-68.17354600727576
 30
0.0
 10
34.65786919347841
 20
-68.24971776665363
 30
0.0
 10
34.55378896221589
 20
-68.65826918060627
 30
0.0
 10
34.44674628029406
 20
-68.97159394532018
 30
0.0
 10
34.17352398432831
 20
-69.55310887056594
 30
0.0
 10
34.00756100589706
 20
-69.82118879746547
 30
0.0
 10
33.59816083565988
 20
-70.30891328667785
 30
0.0
 10
33.35512826697948
 20
-70.52866257153589
 30
0.0
 10
32.87000979193965
 20
-70.84542996334623
 30
0.0
 10
32.65656709223504
 20
-70.95912679013604
 30
0.0
 10
32.18924559684649
 20
-71.15591589490775
 30
0.0
 10
31.93535783706261
 20
-71.23910825335865
 30
0.0
 10
31.40284410136042
 20
-71.37093592131878
 30
0.0
 10
31.12368762601807
 20
-71.41979881648744
 30
0.0
 10
30.55966161358913
 20
-71.48370271825142
 30
0.0
 10
30.27479180862804
 20
-71.49876814195959
 30
0.0
 10
29.72176256995874
 20
-71.49876814195959
 30
0.0
 10
29.43690866572013
 20
-71.48370443526737
 30
0.0
 10
28.93140666497982
 20
-71.42643137915847
 30
0.0
 10
28.70965511336146
 20
-71.39052190953082
 30
0.0
 10
28.49476712240448
 20
-71.34385830871365
 30
0.0
  0
ELLIPSE
  5
1C943
330
1F
100
AcDbEntity
  8
AM_0
100
AcDbEllipse
 10
6.858497890199715
 20
-60.30270746595629
 30
0.0
 11
2.349999973188218
 21
-0.0003549866152909567
 31
0.0
210
0.0
220
0.0
230
1.0
 40
0.1045753117259062
 41
0.0014444903709474
 42
6.284629797550529
  0
LINE
  5
1C944
330
1F
100
AcDbEntity
  8
AM_0
100
AcDbLine
 10
11.16179839900474
 20
-59.63821295087477
 30
0.0
 11
3.055968083098378
 21
-59.90573671333225
 31
0.0
  0
LINE
  5
1C945
330
1F
100
AcDbEntity
  8
AM_0
100
AcDbLine
 10
3.055968083098492
 20
-59.90573671333225
 30
0.0
 11
7.561679175596737
 21
-58.40376672357165
 31
0.0
  0
ELLIPSE
  5
1C946
330
1F
100
AcDbEntity
  8
AM_0
100
AcDbEllipse
 10
6.858497890199715
 20
-60.30270746595629
 30
0.0
 11
-1.99999997718144
 21
0.0003021162683323774
 31
0.0
210
0.0
220
0.0
230
1.0
 40
0.1045753117259062
 41
0.0014444903709328
 42
6.284629797550519
  0
LINE
  5
1C947
330
1F
100
AcDbEntity
  8
AM_0
100
AcDbLine
 10
12.67523218576048
 20
-59.58826378032909
 30
0.0
 11
3.055968083098378
 21
-59.90573671333225
 31
0.0
  0
LINE
  5
1C948
330
1F
100
AcDbEntity
  8
AM_0
100
AcDbLine
 10
1.041763594638837
 20
-61.01715115158349
 30
0.0
 11
10.66102769730105
 21
-60.69967821858033
 31
0.0
  0
LINE
  5
1C949
330
1F
100
AcDbEntity
  8
AM_0
100
AcDbLine
 10
0.8938561738528961
 20
-64.91676920719139
 30
0.0
 11
10.27123211362846
 21
-64.60727951944595
 31
0.0
  0
LINE
  5
1C94A
330
1F
100
AcDbEntity
  8
AM_0
100
AcDbLine
 10
0.4868842758498886
 20
-64.885973582105
 30
0.0
 11
0.0000665175434733
 21
-60.93832577617745
 31
0.0
  0
LINE
  5
1C94B
330
1F
100
AcDbEntity
  8
AM_0
100
AcDbLine
 10
0.5670912339712686
 20
-64.90742896945191
 30
0.0
 11
0.5670817958299494
 21
-64.96990916134
 31
0.0
  0
ARC
  5
1C94C
330
1F
100
AcDbEntity
  8
AM_0
100
AcDbCircle
 10
2.983181659215546
 20
-65.89962235904231
 30
0.0
 40
2.376839048064108
100
AcDbArc
 50
155.6128647121549
 51
175.8077190715741
  0
ELLIPSE
  5
1C94D
330
1F
100
AcDbEntity
  8
AM_0
100
AcDbEllipse
 10
0.8667315488901295
 20
-67.28855529442062
 30
0.0
 11
0.2851753923827165
 21
-2.439496642005638
 31
0.0
210
0.0
220
0.0
230
1.0
 40
0.0377148883114936
 41
3.453294646552871
 42
4.012736944811136
  0
ELLIPSE
  5
1C94E
330
1F
100
AcDbEntity
  8
AM_0
100
AcDbEllipse
 10
0.7994035783569871
 20
-64.88559880000098
 30
0.0
 11
-0.3125452896495522
 21
4.721250883555309E-5
 31
0.0
210
0.0
220
0.0
230
0.9999999999999999
 40
0.1045753117259062
 41
0.0129113839933327
 42
1.877816572489823
  0
ELLIPSE
  5
1C94F
330
1F
100
AcDbEntity
  8
AM_0
100
AcDbEllipse
 10
0.7999999909723101
 20
-60.93736647303085
 30
0.0
 11
0.7999999908725762
 21
-0.0001208465073329603
 31
0.0
210
0.0
220
0.0
230
0.9999999999999999
 40
0.1045753117259062
 41
2.837747661086716
 42
5.019409226079628
  0
LINE
  5
1C950
330
1F
100
AcDbEntity
  8
AM_0
100
AcDbLine
 10
3.055968083098378
 20
-59.90573671333225
 30
0.0
 11
0.0366492550310795
 21
-60.91222074574618
 31
0.0
  0
ELLIPSE
  5
1C951
330
1F
100
AcDbEntity
  8
AM_0
100
AcDbEllipse
 10
19.30270392001171
 20
-42.46690689514692
 30
0.0
 11
13.82878841784829
 21
11.9150874835221
 31
0.0
210
0.0
220
0.0
230
1.0
 40
0.9670388638859339
 41
4.017570369003837
 42
4.553819297696718
  0
ARC
  5
1C952
330
1F
100
AcDbEntity
  8
AM_0
100
AcDbCircle
 10
19.28407307584948
 20
-39.43122682166136
 30
0.0
 40
18.56724725846525
100
AcDbArc
 50
270.0491474667775
 51
295.4277770115872
  0
ELLIPSE
  5
1C953
330
1F
100
AcDbEntity
  8
AM_0
100
AcDbEllipse
 10
13.65849781346503
 20
-59.69718661301015
 30
0.0
 11
-1.749999980033784
 21
0.0002643517347907322
 31
0.0
210
0.0
220
0.0
230
1.0
 40
0.1045753117259062
 41
2.103137545604805
 42
5.244730199194596
  0
LINE
  5
1C954
330
1F
100
AcDbEntity
  8
AM_0
100
AcDbLine
 10
14.26661176460982
 20
-57.99772674269381
 30
0.0
 11
7.561679175596737
 21
-58.40376672357165
 31
0.0
  0
LINE
  5
1C955
330
1F
100
AcDbEntity
  8
AM_0
100
AcDbLine
 10
14.54668993862345
 20
-59.85500330774771
 30
0.0
 11
12.88943907010423
 21
-59.95684164116203
 31
0.0
  0
LINE
  5
1C956
330
1F
100
AcDbEntity
  8
AM_0
100
AcDbLine
 10
10.89981485067744
 20
-60.62008800287622
 30
0.0
 11
13.5277997960294
 21
-60.53298082474957
 31
0.0
  0
ELLIPSE
  5
1C957
330
1F
100
AcDbEntity
  8
AM_0
100
AcDbEllipse
 10
12.91699578942701
 20
-59.66804845888173
 30
0.0
 11
0.7999999908725762
 21
-0.0001208465073329603
 31
0.0
210
0.0
220
0.0
230
0.9999999999999999
 40
0.1045753117259062
 41
5.979340314676507
 42
8.161001879669419
  0
LINE
  5
1C958
330
1F
100
AcDbEntity
  8
AM_0
100
AcDbLine
 10
10.66102769730105
 20
-60.69967821858033
 30
0.0
 11
13.68034652536824
 21
-59.69319418616639
 31
0.0
  0
ELLIPSE
  5
1C959
330
1F
100
AcDbEntity
  8
AM_0
100
AcDbEllipse
 10
14.30087789630068
 20
-61.63007139719313
 30
0.0
 11
2.122907168760597
 21
11.93703012071574
 31
0.0
210
0.0
220
0.0
230
1.0
 40
0.2909253987504003
 41
1.537891165462185
 42
1.871809032112078
  0
LINE
  5
1C95A
330
1F
100
AcDbEntity
  8
AM_0
100
AcDbLine
 10
10.66102769730105
 20
-60.69967821858033
 30
0.0
 11
10.27123211362846
 21
-64.60727951944595
 31
0.0
  0
LINE
  5
1C95B
330
1F
100
AcDbEntity
  8
AM_0
100
AcDbLine
 10
10.27123211362846
 20
-64.60727951944595
 30
0.0
 11
10.35482494730138
 21
-64.57941401165867
 31
0.0
  0
ELLIPSE
  5
1C95C
330
1F
100
AcDbEntity
  8
AM_0
100
AcDbEllipse
 10
7.842203027941537
 20
-60.48103271033783
 30
0.0
 11
0.7259999917168629
 21
-0.0001096682054047795
 31
0.0
210
0.0
220
0.0
230
1.0
 40
0.1045753117259062
 41
1.343434382826791
 42
2.845387415863413
  0
ELLIPSE
  5
1C95D
330
1F
100
AcDbEntity
  8
AM_0
100
AcDbEllipse
 10
6.858497890200056
 20
-60.44948937515112
 30
0.0
 11
-0.3024999965485278
 21
4.569508558529634E-5
 31
0.0
210
0.0
220
0.0
230
1.0
 40
0.1045753117259063
 41
0.2962368316302451
 42
2.845387415863401
  0
ELLIPSE
  5
1C95E
330
1F
100
AcDbEntity
  8
AM_0
100
AcDbEllipse
 10
5.874792752458689
 20
-60.48073876711423
 30
0.0
 11
0.7259999917168629
 21
-0.0001096682054047795
 31
0.0
210
0.0
220
0.0
230
1.0
 40
0.1045753117259062
 41
0.2962368316302556
 42
1.798189864666827
  0
ELLIPSE
  5
1C95F
330
1F
100
AcDbEntity
  8
AM_0
100
AcDbEllipse
 10
5.642944647165223
 20
-60.37591680940572
 30
0.0
 11
-0.3024999965485278
 21
4.569508558529634E-5
 31
0.0
210
0.0
220
0.0
230
1.0
 40
0.1045753117259063
 41
5.53222458761308
 42
8.081375171846364
  0
ELLIPSE
  5
1C960
330
1F
100
AcDbEntity
  8
AM_0
100
AcDbEllipse
 10
4.891087614716753
 20
-60.30241352273269
 30
0.0
 11
0.7259999917168629
 21
-0.0001096682054047795
 31
0.0
210
0.0
220
0.0
230
1.0
 40
0.1045753117259062
 41
5.532224587613224
 42
7.034177620649815
  0
ELLIPSE
  5
1C961
330
1F
100
AcDbEntity
  8
AM_0
100
AcDbEllipse
 10
5.642944647164768
 20
-60.22913490021078
 30
0.0
 11
-0.3024999965485278
 21
4.569508558529634E-5
 31
0.0
210
0.0
220
0.0
230
1.0
 40
0.1045753117259063
 41
4.485027036416533
 42
7.034177620649804
  0
ELLIPSE
  5
1C962
330
1F
100
AcDbEntity
  8
AM_0
100
AcDbEllipse
 10
5.874792752457779
 20
-60.12438222157464
 30
0.0
 11
0.7259999917168629
 21
-0.0001096682054047795
 31
0.0
210
0.0
220
0.0
230
1.0
 40
0.1045753117259062
 41
4.485027036416557
 42
5.986980069453145
  0
ELLIPSE
  5
1C963
330
1F
100
AcDbEntity
  8
AM_0
100
AcDbEllipse
 10
6.858497890199374
 20
-60.15592555676146
 30
0.0
 11
-0.3024999965485278
 21
4.569508558529634E-5
 31
0.0
210
0.0
220
0.0
230
1.0
 40
0.1045753117259063
 41
3.437829485219855
 42
5.986980069453135
  0
ELLIPSE
  5
1C964
330
1F
100
AcDbEntity
  8
AM_0
100
AcDbEllipse
 10
7.842203027940741
 20
-60.12467616479835
 30
0.0
 11
0.7259999917168629
 21
-0.0001096682054047795
 31
0.0
210
0.0
220
0.0
230
1.0
 40
0.1045753117259062
 41
3.437829485219866
 42
4.939782518256573
  0
ELLIPSE
  5
1C965
330
1F
100
AcDbEntity
  8
AM_0
100
AcDbEllipse
 10
8.074051133234207
 20
-60.22949812250685
 30
0.0
 11
-0.3024999965485278
 21
4.569508558529634E-5
 31
0.0
210
0.0
220
0.0
230
1.0
 40
0.1045753117259063
 41
2.390631934023534
 42
4.939782518256562
  0
ELLIPSE
  5
1C966
330
1F
100
AcDbEntity
  8
AM_0
100
AcDbEllipse
 10
8.825908165682677
 20
-60.30300140917989
 30
0.0
 11
0.7259999917168629
 21
-0.0001096682054047795
 31
0.0
210
0.0
220
0.0
230
1.0
 40
0.1045753117259062
 41
2.390631934023481
 42
3.892584967059802
  0
ELLIPSE
  5
1C967
330
1F
100
AcDbEntity
  8
AM_0
100
AcDbEllipse
 10
8.074051133234548
 20
-60.37628003170168
 30
0.0
 11
-0.3024999965485278
 21
4.569508558529634E-5
 31
0.0
210
0.0
220
0.0
230
1.0
 40
0.1045753117259063
 41
1.343434382826784
 42
3.892584967059817
  0
LINE
  5
1C968
330
1F
100
AcDbEntity
  8
AM_0
100
AcDbLine
 10
5.617087606433643
 20
-60.30252319093806
 30
0.0
 11
5.61707175924721
 21
-60.40743105553729
 31
0.0
  0
LINE
  5
1C969
330
1F
100
AcDbEntity
  8
AM_0
100
AcDbLine
 10
8.099908173965787
 20
-60.30289174097452
 30
0.0
 11
8.099892326374061
 21
-60.40780228859209
 31
0.0
  0
LINE
  5
1C96A
330
1F
100
AcDbEntity
  8
AM_0
100
AcDbLine
 10
10.89981455512043
 20
-60.62007908605033
 30
0.0
 11
12.88943907010423
 21
-59.95684164116203
 31
0.0
  0
LINE
  5
1C96B
330
1F
100
AcDbEntity
  8
AM_0
100
AcDbLine
 10
11.16179839900474
 20
-59.63821295087477
 30
0.0
 11
12.77030568830662
 21
-59.53936991827258
 31
0.0
  0
LINE
  5
1C96C
330
1F
100
AcDbEntity
  8
AM_0
100
AcDbLine
 10
14.27693269248607
 20
-60.53308460709063
 30
0.0
 11
19.29999978220906
 21
-60.36821215596869
 31
0.0
  0
LINE
  5
1C96D
330
1F
100
AcDbEntity
  8
AM_0
100
AcDbLine
 10
14.26661176460982
 20
-57.99772674269381
 30
0.0
 11
19.29999978220906
 21
-57.99846724928038
 31
0.0
  0
LINE
  5
1C96E
330
1F
100
AcDbEntity
  8
AM_0
100
AcDbLine
 10
14.27693269248607
 20
-60.53308460709063
 30
0.0
 11
13.52779946933458
 21
-60.53297096851456
 31
0.0
  0
LINE
  5
1C96F
330
1F
100
AcDbEntity
  8
AM_0
100
AcDbLine
 10
13.68743752770274
 20
-59.90780450711513
 30
0.0
 11
13.71692893652812
 21
-59.66924943489771
 31
0.0
  0
ARC
  5
1C970
330
1F
100
AcDbEntity
  8
AM_0
100
AcDbCircle
 10
22.74182483309525
 20
-44.42620630443973
 30
0.0
 40
12.6094705862514
100
AcDbArc
 50
290.9790394498518
 51
316.5841154389775
  0
ARC
  5
1C971
330
1F
100
AcDbEntity
  8
AM_0
100
AcDbCircle
 10
15.44153944915965
 20
-39.37528538938027
 30
0.0
 40
22.40330759035868
100
AcDbArc
 50
306.5640122847313
 51
331.6288807523194
  0
ARC
  5
1C972
330
1F
100
AcDbEntity
  8
AM_0
100
AcDbCircle
 10
29.97605155976905
 20
-67.67262306498246
 30
0.0
 40
10.37149516955084
100
AcDbArc
 50
66.14502544747293
 51
96.57960364396259
  0
SPLINE
  5
1C973
330
1F
100
AcDbEntity
  8
AM_0
100
AcDbSpline
210
0.0
220
0.0
230
1.0
 70
     8
 71
     3
 72
     8
 73
     4
 74
     0
 42
0.0000000001
 43
0.0000000001
 40
23.94068493301847
 40
23.94068493301847
 40
23.94068493301847
 40
23.94068493301847
 40
24.27078668461576
 40
24.27078668461576
 40
24.27078668461576
 40
24.27078668461576
 10
28.4968502574792
 20
-57.55357112876577
 30
0.0
 10
28.5937572412879
 20
-57.49311563778637
 30
0.0
 10
28.69081309544663
 20
-57.43167955593155
 30
0.0
 10
28.78764914765179
 20
-57.36943852044037
 30
0.0
  0
LINE
  5
1C974
330
1F
100
AcDbEntity
  8
AM_0
100
AcDbLine
 10
37.07683322267701
 20
-58.18714346306642
 30
0.0
 11
34.17052277479149
 21
-58.18714346306642
 31
0.0
  0
ARC
  5
1C975
330
1F
100
AcDbEntity
  8
AM_0
100
AcDbCircle
 10
18.13686815289188
 20
-37.95347682915764
 30
0.0
 40
20.4608653831888
100
AcDbArc
 50
312.2767501251091
 51
323.8585332338668
  0
LINE
  5
1C976
330
1F
100
AcDbEntity
  8
AM_0
100
AcDbLine
 10
35.15394557892478
 20
-50.02090587685875
 30
0.0
 11
34.66031114808868
 21
-50.02090587685875
 31
0.0
  0
LINE
  5
1C977
330
1F
100
AcDbEntity
  8
AM_0
100
AcDbLine
 10
35.15394557892478
 20
-50.02090587685875
 30
0.0
 11
37.07683322267701
 21
-50.02090587685875
 31
0.0
  0
ARC
  5
1C988
330
1F
100
AcDbEntity
  8
AM_0
100
AcDbCircle
 10
-69.63608067146527
 20
17.06378320444664
 30
0.0
 40
12.25068827423077
100
AcDbArc
 50
26.10957701569313
 51
49.66758231838531
  0
ARC
  5
1C989
330
1F
100
AcDbEntity
  8
AM_0
100
AcDbCircle
 10
-69.63656454408624
 20
17.0651098345452
 30
0.0
 40
12.501339128489
100
AcDbArc
 50
306.8712455035144
 51
331.6410155660026
  0
ARC
  5
1C98A
330
1F
100
AcDbEntity
  8
AM_0
100
AcDbCircle
 10
-57.17974392734254
 20
4.338983355699625
 30
0.0
 40
10.0005846629718
100
AcDbArc
 50
98.37026925900797
 51
151.688234066073
  0
ARC
  5
1C98B
330
1F
100
AcDbEntity
  8
AM_0
100
AcDbCircle
 10
-69.63552579832458
 20
17.06421498757915
 30
0.0
 40
12.5
100
AcDbArc
 50
28.35763657632701
 51
58.89980397590801
  0
LINE
  5
1C98C
330
1F
100
AcDbEntity
  8
AM_0
100
AcDbLine
 10
-80.63552579832458
 20
22.45517965079104
 30
0.0
 11
-80.63552579832458
 21
5.874215763316002
 31
0.0
  0
LINE
  5
1C98D
330
1F
100
AcDbEntity
  8
AM_0
100
AcDbLine
 10
-68.52035663479819
 20
10.60971011761627
 30
0.0
 11
-67.01838664503748
 21
25.06421498757915
 31
0.0
  0
ARC
  5
1C98E
330
1F
100
AcDbEntity
  8
AM_0
100
AcDbCircle
 10
-69.63552579832458
 20
17.06421498757915
 30
0.0
 40
16.2
100
AcDbArc
 50
246.3271611888079
 51
253.1163193336252
  0
ELLIPSE
  5
1C98F
330
1F
100
AcDbEntity
  8
AM_0
100
AcDbEllipse
 10
-69.1847315885484
 20
15.52116510789735
 30
0.0
 11
-4.218953688952182
 21
14.44130346161933
 31
0.0
210
0.0
220
0.0
230
1.0
 40
0.994275177071938
 41
1.984550069473888
 42
2.372453198628987
  0
ELLIPSE
  5
1C990
330
1F
100
AcDbEntity
  8
AM_0
100
AcDbEllipse
 10
-51.08152681661272
 20
4.516738338533187
 30
0.0
 11
17.90120645590362
 21
-1.883297169940636
 31
0.0
210
0.0
220
0.0
230
1.0
 40
0.3152987845354732
 41
2.605510538244888
 42
3.094700372901921
  0
LINE
  5
1C991
330
1F
100
AcDbEntity
  8
AM_0
100
AcDbLine
 10
-68.78187613020282
 20
7.064214987579149
 30
0.0
 11
-66.80176338453225
 21
7.064214987579149
 31
0.0
  0
LINE
  5
1C992
330
1F
100
AcDbEntity
  8
AM_0
100
AcDbLine
 10
-73.46383837553731
 20
1.556442672360404
 30
0.0
 11
-72.50921998787271
 21
10.63902992732257
 31
0.0
  0
LINE
  5
1C993
330
1F
100
AcDbEntity
  8
AM_0
100
AcDbLine
 10
-68.52035663479819
 20
10.60971011761627
 30
0.0
 11
-69.52684066721213
 21
1.033654215854554
 31
0.0
  0
LINE
  5
1C994
330
1F
100
AcDbEntity
  8
AM_0
100
AcDbLine
 10
-72.50921998787271
 20
10.63902992732268
 30
0.0
 11
-73.49039474808274
 21
1.3037756653804
 31
0.0
  0
LINE
  5
1C995
330
1F
100
AcDbEntity
  8
AM_0
100
AcDbLine
 10
-73.53290324415798
 20
0.8999459654082926
 30
0.0
 11
-69.63564664701198
 21
0.0000000000000142
 31
0.0
  0
ARC
  5
1C996
330
1F
100
AcDbEntity
  8
AM_0
100
AcDbCircle
 10
-69.63297625536166
 20
17.07350224178505
 30
0.0
 40
16.20962740453715
100
AcDbArc
 50
253.1172300276915
 51
256.242749921978
  0
ELLIPSE
  5
1C997
330
1F
100
AcDbEntity
  8
AM_0
100
AcDbEllipse
 10
-75.90317521588645
 20
1.886901690322944
 30
0.0
 11
-2.460247003636148
 21
0.1592371970490463
 31
0.0
210
0.0
220
0.0
230
1.0
 40
0.1177428195206599
 41
2.26662900854238
 42
3.088129944547108
  0
ELLIPSE
  5
1C998
330
1F
100
AcDbEntity
  8
AM_0
100
AcDbEllipse
 10
-73.50021872146681
 20
1.210777563310344
 30
0.0
 11
0.0326845218353012
 21
0.3108315980455351
 31
0.0
210
0.0
220
0.0
230
0.9999999999999999
 40
0.0001502298779272
 41
2.834588204846671
 42
5.016249769839328
  0
LINE
  5
1C999
330
1F
100
AcDbEntity
  8
AM_0
100
AcDbLine
 10
-73.53138912865734
 20
0.9144809665854297
 30
0.0
 11
-73.50476335059943
 21
1.168852528224662
 31
0.0
  0
ELLIPSE
  5
1C99A
330
1F
100
AcDbEntity
  8
AM_0
100
AcDbEllipse
 10
-73.47326802326904
 20
1.467177432324561
 30
0.0
 11
0.03137259387179621
 21
0.2983550910471536
 31
0.0
210
0.0
220
0.0
230
1.0
 40
0.0001502298779272
 41
3.141592653590609
 42
5.016249769839133
  0
ELLIPSE
  5
1C99B
330
1F
100
AcDbEntity
  8
AM_0
100
AcDbEllipse
 10
-69.55198639449668
 20
0.795613575758594
 30
0.0
 11
0.08366025032478983
 21
0.7956135761257428
 31
0.0
210
0.0
220
0.0
230
1.0
 40
0.0001502298779272
 41
3.141574207681431
 42
5.016249769839329
  0
LINE
  5
1C99C
330
1F
100
AcDbEntity
  8
AM_0
100
AcDbLine
 10
-68.52035663479819
 20
10.60971011761627
 30
0.0
 11
-72.50921998787271
 21
10.63902992732268
 31
0.0
  0
LINE
  5
1C99D
330
1F
100
AcDbEntity
  8
AM_0
100
AcDbLine
 10
-68.52035663479819
 20
10.60971011761627
 30
0.0
 11
-72.50921998787271
 21
10.63902992732268
 31
0.0
  0
LINE
  5
1C99E
330
1F
100
AcDbEntity
  8
AM_0
100
AcDbLine
 10
-62.13552579832458
 20
7.064214987579149
 30
0.0
 11
-66.80176338453225
 21
7.064214987579149
 31
0.0
  0
SPLINE
  5
1C99F
330
1F
100
AcDbEntity
  8
AM_0
100
AcDbSpline
210
0.0
220
0.0
230
1.0
 70
     8
 71
     3
 72
     8
 73
     4
 74
     0
 42
0.0000000001
 43
0.0000000001
 40
23.94068493301847
 40
23.94068493301847
 40
23.94068493301847
 40
23.94068493301847
 40
24.27078668461576
 40
24.27078668461576
 40
24.27078668461576
 40
24.27078668461576
 10
-66.1681910502316
 20
9.018751814756584
 30
0.0
 10
-66.10773555925232
 20
9.04311517495627
 30
0.0
 10
-66.0462994773975
 20
9.064153602420802
 30
0.0
 10
-65.9840584419062
 20
9.081950731711018
 30
0.0
  0
ARC
  5
1C9A0
330
1F
100
AcDbEntity
  8
AM_0
100
AcDbCircle
 10
-57.17887629671384
 20
4.33901526969909
 30
0.0
 40
10.0013333814665
100
AcDbArc
 50
151.6907523769242
 51
164.1878885365242
  0
ARC
  5
1C9A1
330
1F
100
AcDbEntity
  8
AM_0
100
AcDbCircle
 10
-69.63552579832458
 20
17.06421498757915
 30
0.0
 40
12.25
100
AcDbArc
 50
75.71235023379717
 51
134.3781577774279
  0
LINE
  5
1C9A2
330
1F
100
AcDbEntity
  8
AM_0
100
AcDbLine
 10
-67.01838664503748
 20
25.06421498757915
 30
0.0
 11
-78.20306456016328
 21
25.81977205520163
 31
0.0
  0
ARC
  5
1C9A3
330
1F
100
AcDbEntity
  8
AM_0
100
AcDbCircle
 10
-69.63552579832458
 20
17.06421498757915
 30
0.0
 40
12.5
100
AcDbArc
 50
101.1001960240959
 51
151.6423634236732
  0
ARC
  5
1C9A4
330
1F
100
AcDbEntity
  8
AM_0
100
AcDbCircle
 10
-69.63552579832458
 20
17.06421498757915
 30
0.0
 40
12.25
100
AcDbArc
 50
134.3781577774279
 51
153.891094322382
  0
LINE
  5
1C9A5
330
1F
100
AcDbEntity
  8
AM_0
100
AcDbLine
 10
-80.63552579832458
 20
23.00138603109805
 30
0.0
 11
-80.63552579832458
 21
22.45517965079104
 31
0.0
  0
ARC
  5
1C9A6
330
1F
100
AcDbEntity
  8
AM_0
100
AcDbCircle
 10
-69.63552579832458
 20
17.06421498757904
 30
0.0
 40
12.50000000000008
100
AcDbArc
 50
58.89980397590801
 51
101.1001960240959
  0
LINE
  5
1C9A7
330
1F
100
AcDbEntity
  8
AM_0
100
AcDbLine
 10
-72.08869516225832
 20
29.06606734760489
 30
0.0
 11
-72.0420923456727
 21
29.33036505405006
 31
0.0
  0
ARC
  5
1C9A8
330
1F
100
AcDbEntity
  8
AM_0
100
AcDbCircle
 10
-69.63471675078904
 20
17.06552219263359
 30
0.0
 40
12.24847988154805
100
AcDbArc
 50
49.6671810101342
 51
66.82496744786883
  0
SPLINE
  5
1C9A9
330
1F
100
AcDbEntity
  8
AM_0
100
AcDbSpline
210
0.0
220
0.0
230
1.0
 70
     8
 71
     3
 72
    26
 73
    22
 74
     0
 42
0.0000000001
 43
0.0000000001
 40
4.904373076729315
 40
4.904373076729315
 40
4.904373076729315
 40
4.904373076729315
 40
4.919704418578505
 40
4.919704418578505
 40
5.47815514971024
 40
5.47815514971024
 40
6.59505661197371
 40
6.59505661197371
 40
7.711958074237179
 40
7.711958074237179
 40
8.270408805368914
 40
8.270408805368914
 40
8.82885953650065
 40
8.82885953650065
 40
9.401972448632133
 40
9.401972448632133
 40
9.975085360763618
 40
9.975085360763618
 40
10.46568857913323
 40
10.46568857913323
 40
10.90202094536772
 40
10.90202094536772
 40
10.90202094536772
 40
10.90202094536772
 10
-61.70717562704886
 20
26.40251052614315
 30
0.0
 10
-61.71095593853238
 20
26.40125061215964
 30
0.0
 10
-61.71473779159965
 20
26.39999789122158
 30
0.0
 10
-61.85632972883286
 20
26.35338444590605
 30
0.0
 10
-61.99604633339436
 20
26.31771829437538
 30
0.0
 10
-62.40891514082978
 20
26.24187403860004
 30
0.0
 10
-62.67542278232986
 20
26.23407726957704
 30
0.0
 10
-63.13910368452298
 20
26.28283418061074
 30
0.0
 10
-63.37882655397334
 20
26.34386203132841
 30
0.0
 10
-63.7065517705114
 20
26.49758112897894
 30
0.0
 10
-63.81072904535131
 20
26.55889317647689
 30
0.0
 10
-64.00414435651646
 20
26.69894871210534
 30
0.0
 10
-64.09338759372895
 20
26.77771232645251
 30
0.0
 10
-64.25604951200376
 20
26.94922669965957
 30
0.0
 10
-64.34035679493513
 20
27.05499795971799
 30
0.0
 10
-64.49224034130236
 20
27.29318080341523
 30
0.0
 10
-64.55979597116993
 20
27.42581876112661
 30
0.0
 10
-64.66040346701345
 20
27.67167891489078
 30
0.0
 10
-64.70291108208858
 20
27.79830823547946
 30
0.0
 10
-64.76973400222028
 20
28.05803855341481
 30
0.0
 10
-64.79556695151155
 20
28.18887965989155
 30
0.0
 10
-64.81443349234564
 20
28.32563447968722
 30
0.0
  0
LINE
  5
1C9AA
330
1F
100
AcDbEntity
  8
AM_0
100
AcDbLine
 10
-66.61234666415976
 20
28.93530962274406
 30
0.0
 11
-67.01838664503748
 21
25.06421498757915
 31
0.0
  0
ARC
  5
1C9AB
330
1F
100
AcDbEntity
  8
AM_0
100
AcDbCircle
 10
-69.6189062836703
 20
17.11322542283121
 30
0.0
 40
12.1984046358876
100
AcDbArc
 50
66.80505915555997
 51
75.73118592904859
  0
LINE
  5
1C9AC
330
1F
100
AcDbEntity
  8
AM_0
100
AcDbLine
 10
-63.22542538514858
 20
27.5032337486025
 30
0.0
 11
-63.17882256856285
 21
27.76753145504768
 31
0.0
  0
ELLIPSE
  5
1C9AD
330
1F
100
AcDbEntity
  8
AM_0
100
AcDbEllipse
 10
6.858497890199715
 20
6.839959059342135
 30
0.0
 11
2.349997575113124
 21
0.003375938766160107
 31
0.0
210
0.0
220
0.0
230
1.0
 40
0.9945169589345436
 41
0.0
 42
6.283185307179586
  0
LINE
  5
1C9AE
330
1F
100
AcDbEntity
  8
AM_0
100
AcDbLine
 10
11.16179839900474
 20
13.16552039652888
 30
0.0
 11
3.055968083098378
 21
10.60971011808269
 31
0.0
  0
ELLIPSE
  5
1C9B0
330
1F
100
AcDbEntity
  8
AM_0
100
AcDbEllipse
 10
6.858497890199715
 20
6.839959059342135
 30
0.0
 11
-1.999997936266468
 21
-0.002873139375452358
 31
0.0
210
0.0
220
0.0
230
1.0
 40
0.9945169589345438
 41
0.0000000000000002
 42
6.283185307179586
  0
LINE
  5
1C9B1
330
1F
100
AcDbEntity
  8
AM_0
100
AcDbLine
 10
12.67523218576048
 20
13.6427139075191
 30
0.0
 11
3.055968083098378
 21
10.60971011808269
 31
0.0
  0
LINE
  5
1C9B2
330
1F
100
AcDbEntity
  8
AM_0
100
AcDbLine
 10
1.041763594638837
 20
0.0372042111651751
 30
0.0
 11
10.66102769730105
 21
3.070208000601582
 31
0.0
  0
LINE
  5
1C9B3
330
1F
100
AcDbEntity
  8
AM_0
100
AcDbLine
 10
-58.63552579832458
 20
14.23304181243954
 30
0.0
 11
-58.63552579832458
 21
11.12704394406013
 31
0.0
  0
LINE
  5
1C9B4
330
1F
100
AcDbEntity
  8
AM_0
100
AcDbLine
 10
3.055968083098378
 20
10.60971011808269
 30
0.0
 11
0.0366492550310795
 21
1.033654216320969
 31
0.0
  0
ELLIPSE
  5
1C9B5
330
1F
100
AcDbEntity
  8
AM_0
100
AcDbEllipse
 10
0.7999999909723101
 20
0.7956135762250085
 30
0.0
 11
0.7999991745065871
 21
0.001149255750180943
 31
0.0
210
0.0
220
0.0
230
1.0
 40
0.9945169589345437
 41
2.836303170715774
 42
5.017964735708685
  0
LINE
  5
1C9B6
330
1F
100
AcDbEntity
  8
AM_0
100
AcDbLine
 10
-58.63552579832458
 20
14.23304181243954
 30
0.0
 11
-58.63552579832458
 21
22.45517966498439
 31
0.0
  0
LINE
  5
1C9B7
330
1F
100
AcDbEntity
  8
AM_0
100
AcDbLine
 10
-58.63552579832458
 20
23.00138603109805
 30
0.0
 11
-58.63552579832458
 21
22.45517965079104
 31
0.0
  0
ELLIPSE
  5
1C9B8
330
1F
100
AcDbEntity
  8
AM_0
100
AcDbEllipse
 10
13.65849781346503
 20
12.60826431654184
 30
0.0
 11
-1.749998194233183
 21
-0.002513996953519897
 31
0.0
210
0.0
220
0.0
230
0.9999999999999999
 40
0.9945169589345438
 41
2.101693055233873
 42
5.243285708823664
  0
ELLIPSE
  5
1C9B9
330
1F
100
AcDbEntity
  8
AM_0
100
AcDbEllipse
 10
13.65790140084971
 20
13.0234283040937
 30
0.0
 11
-1.749998194233183
 21
-0.002513996953523492
 31
0.0
210
0.0
220
0.0
230
0.9999999999999999
 40
0.9945169589345438
 41
2.10169305523387
 42
3.022035655017799
  0
ARC
  5
1C9BA
330
1F
100
AcDbEntity
  8
AM_0
100
AcDbCircle
 10
40.89185956943015
 20
0.5676314569079182
 30
0.0
 40
14.76198402653418
100
AcDbArc
 50
112.8733422499914
 51
145.0806135027495
  0
LINE
  5
1C9BB
330
1F
100
AcDbEntity
  8
AM_0
100
AcDbLine
 10
10.66102769730105
 20
3.070208000601582
 30
0.0
 11
13.68034652536824
 21
12.6462639023633
 31
0.0
  0
ELLIPSE
  5
1C9BC
330
1F
100
AcDbEntity
  8
AM_0
100
AcDbEllipse
 10
19.30270392001171
 20
4.452523350954095
 30
0.0
 11
17.99182829375521
 21
5.698436650880841
 31
0.0
210
0.0
220
0.0
230
1.0
 40
0.0951705551535231
 41
1.004563991139832
 42
1.540812919832712
  0
LINE
  5
1C9BD
330
1F
100
AcDbEntity
  8
AM_0
100
AcDbLine
 10
13.5277994693347
 20
4.750000000000057
 30
0.0
 11
10.89766365117066
 21
3.920721361945709
 31
0.0
  0
LINE
  5
1C9BE
330
1F
100
AcDbEntity
  8
AM_0
100
AcDbLine
 10
14.54668993862345
 20
11.10869483176677
 30
0.0
 11
12.88943907010423
 21
10.13782592810136
 31
0.0
  0
SPLINE
  5
1C9BF
330
1F
100
AcDbEntity
  8
AM_0
100
AcDbSpline
210
0.0
220
0.0
230
1.0
 70
    12
 71
     2
 72
     6
 73
     3
 74
     0
 42
0.0000000001
 43
0.0000000001
 40
0.0
 40
0.0
 40
0.0
 40
3.079823558821301
 40
3.079823558821301
 40
3.079823558821301
 10
13.5277994693347
 20
4.759721427793522
 30
0.0
 41
1.0
 10
12.25764298095555
 20
4.357245157417367
 30
0.0
 41
1.002328511634907
 10
10.89981455512
 20
3.927543157733595
 30
0.0
 41
1.003565914951589
  0
LINE
  5
1C9C0
330
1F
100
AcDbEntity
  8
AM_0
100
AcDbLine
 10
14.54609352600812
 20
11.52385881931863
 30
0.0
 11
13.05013177578087
 21
10.6474780782024
 31
0.0
  0
ELLIPSE
  5
1C9C1
330
1F
100
AcDbEntity
  8
AM_0
100
AcDbEllipse
 10
7.842203027941537
 20
5.14548935213881
 30
0.0
 11
0.7259992508647277
 21
0.001042949593290303
 31
0.0
210
0.0
220
0.0
230
1.0
 40
0.9945169589345441
 41
1.341989892455844
 42
2.843942925492466
  0
ELLIPSE
  5
1C9C2
330
1F
100
AcDbEntity
  8
AM_0
100
AcDbEllipse
 10
7.841977683124696
 20
5.302352319727646
 30
0.0
 11
-0.7259992508647277
 21
-0.001042949593290303
 31
0.0
210
0.0
220
0.0
230
1.0
 40
0.9945169589345441
 41
4.483582546045638
 42
5.985535579082258
  0
ELLIPSE
  5
1C9C3
330
1F
100
AcDbEntity
  8
AM_0
100
AcDbEllipse
 10
5.874792752458689
 20
5.145458443460456
 30
0.0
 11
0.7259992508647277
 21
0.001042949593290303
 31
0.0
210
0.0
220
0.0
230
1.0
 40
0.9945169589345441
 41
0.2947923412593079
 42
1.79674537429588
  0
ELLIPSE
  5
1C9C4
330
1F
100
AcDbEntity
  8
AM_0
100
AcDbEllipse
 10
5.874567407641735
 20
5.302321411049292
 30
0.0
 11
-0.7259992508647277
 21
-0.001042949593290303
 31
0.0
210
0.0
220
0.0
230
1.0
 40
0.9945169589345441
 41
3.436384994849101
 42
4.938338027885672
  0
LINE
  5
1C9C5
330
1F
100
AcDbEntity
  8
AM_0
100
AcDbLine
 10
10.89981455512043
 20
3.827543157733174
 30
0.0
 11
12.88943907010423
 21
10.13782592810136
 31
0.0
  0
ELLIPSE
  5
1C9C6
330
1F
100
AcDbEntity
  8
AM_0
100
AcDbEllipse
 10
6.858497890200056
 20
5.444055040029951
 30
0.0
 11
-0.3024996878601381
 21
-0.0004345623305373889
 31
0.0
210
0.0
220
0.0
230
1.0
 40
0.9945169589345442
 41
0.2947923412593067
 42
2.843942925492462
  0
ELLIPSE
  5
1C9C7
330
1F
100
AcDbEntity
  8
AM_0
100
AcDbEllipse
 10
6.858272545383102
 20
5.600918007618787
 30
0.0
 11
0.3024996878601381
 21
0.0004345623305373889
 31
0.0
210
0.0
220
0.0
230
1.0
 40
0.9945169589345442
 41
3.436384994849099
 42
5.985535579082256
  0
ELLIPSE
  5
1C9C8
330
1F
100
AcDbEntity
  8
AM_0
100
AcDbEllipse
 10
5.642944647165223
 20
6.141987952935068
 30
0.0
 11
-0.3024996878601381
 21
-0.0004345623305373889
 31
0.0
210
0.0
220
0.0
230
1.0
 40
0.9945169589345442
 41
5.530780097242142
 42
8.079930681475426
  0
ELLIPSE
  5
1C9C9
330
1F
100
AcDbEntity
  8
AM_0
100
AcDbEllipse
 10
5.642719302348269
 20
6.298850920523904
 30
0.0
 11
0.3024996878601381
 21
0.0004345623305373889
 31
0.0
210
0.0
220
0.0
230
1.0
 40
0.9945169589345442
 41
3.405347491811424
 42
4.938338027885631
  0
ELLIPSE
  5
1C9CA
330
1F
100
AcDbEntity
  8
AM_0
100
AcDbEllipse
 10
4.891087614716753
 20
6.839928150663894
 30
0.0
 11
0.7259992508647277
 21
0.001042949593290303
 31
0.0
210
0.0
220
0.0
230
1.0
 40
0.9945169589345441
 41
5.530780097242277
 42
7.032733130278867
  0
ELLIPSE
  5
1C9CB
330
1F
100
AcDbEntity
  8
AM_0
100
AcDbEllipse
 10
4.890862269899913
 20
6.99679111825273
 30
0.0
 11
-0.7259992508647277
 21
-0.001042949593290303
 31
0.0
210
0.0
220
0.0
230
1.0
 40
0.9945169589345441
 41
3.141592653589793
 42
3.891140476689075
  0
ELLIPSE
  5
1C9CC
330
1F
100
AcDbEntity
  8
AM_0
100
AcDbEllipse
 10
5.642944647164768
 20
7.537891972247365
 30
0.0
 11
-0.3024996878601381
 21
-0.0004345623305373889
 31
0.0
210
0.0
220
0.0
230
1.0
 40
0.9945169589345442
 41
4.483582546045594
 42
7.032733130278865
  0
ELLIPSE
  5
1C9CD
330
1F
100
AcDbEntity
  8
AM_0
100
AcDbEllipse
 10
5.642719302347928
 20
7.694754939836201
 30
0.0
 11
0.3024996878601381
 21
0.0004345623305373889
 31
0.0
210
0.0
220
0.0
230
1.0
 40
0.9945169589345442
 41
3.405347491811424
 42
3.891140476689072
  0
ELLIPSE
  5
1C9CE
330
1F
100
AcDbEntity
  8
AM_0
100
AcDbEllipse
 10
5.874792752457779
 20
8.534428766545574
 30
0.0
 11
0.7259992508647277
 21
0.001042949593290303
 31
0.0
210
0.0
220
0.0
230
1.0
 40
0.9945169589345441
 41
4.48358254604561
 42
5.9855355790822
  0
ELLIPSE
  5
1C9CF
330
1F
100
AcDbEntity
  8
AM_0
100
AcDbEllipse
 10
6.858497890199374
 20
8.235863078654433
 30
0.0
 11
-0.3024996878601381
 21
-0.0004345623305373889
 31
0.0
210
0.0
220
0.0
230
1.0
 40
0.9945169589345442
 41
3.436384994848918
 42
5.9855355790822
  0
ELLIPSE
  5
1C9D0
330
1F
100
AcDbEntity
  8
AM_0
100
AcDbEllipse
 10
7.842203027940741
 20
8.534459675223701
 30
0.0
 11
0.7259992508647277
 21
0.001042949593290303
 31
0.0
210
0.0
220
0.0
230
1.0
 40
0.9945169589345441
 41
3.436384994848919
 42
4.938338027885626
  0
ELLIPSE
  5
1C9D1
330
1F
100
AcDbEntity
  8
AM_0
100
AcDbEllipse
 10
8.074051133234207
 20
7.537930165749089
 30
0.0
 11
-0.3024996878601381
 21
-0.0004345623305373889
 31
0.0
210
0.0
220
0.0
230
1.0
 40
0.9945169589345442
 41
2.389187443652595
 42
4.938338027885624
  0
ELLIPSE
  5
1C9D2
330
1F
100
AcDbEntity
  8
AM_0
100
AcDbEllipse
 10
8.073825788417253
 20
7.694793133338038
 30
0.0
 11
0.3024996878601381
 21
0.0004345623305373889
 31
0.0
210
0.0
220
0.0
230
1.0
 40
0.9945169589345442
 41
5.530780097242388
 42
6.019430468957958
  0
ELLIPSE
  5
1C9D3
330
1F
100
AcDbEntity
  8
AM_0
100
AcDbEllipse
 10
8.825908165682677
 20
6.839989968020376
 30
0.0
 11
0.7259992508647277
 21
0.001042949593290303
 31
0.0
210
0.0
220
0.0
230
1.0
 40
0.9945169589345441
 41
2.389187443652534
 42
3.891140476688856
  0
ELLIPSE
  5
1C9D4
330
1F
100
AcDbEntity
  8
AM_0
100
AcDbEllipse
 10
8.825682820865723
 20
6.996852935609212
 30
0.0
 11
-0.7259992508647277
 21
-0.001042949593290303
 31
0.0
210
0.0
220
0.0
230
1.0
 40
0.9945169589345441
 41
5.530780097242327
 42
6.283185307179585
  0
ELLIPSE
  5
1C9D5
330
1F
100
AcDbEntity
  8
AM_0
100
AcDbEllipse
 10
8.074051133234548
 20
6.142026146437132
 30
0.0
 11
-0.3024996878601381
 21
-0.0004345623305373889
 31
0.0
210
0.0
220
0.0
230
1.0
 40
0.9945169589345442
 41
1.341989892455846
 42
3.891140476688881
  0
ELLIPSE
  5
1C9D6
330
1F
100
AcDbEntity
  8
AM_0
100
AcDbEllipse
 10
8.073825788417594
 20
6.298889114025968
 30
0.0
 11
0.3024996878601381
 21
0.0004345623305373889
 31
0.0
210
0.0
220
0.0
230
1.0
 40
0.9945169589345442
 41
4.483582546045639
 42
6.019430468957958
  0
LINE
  5
1C9D7
330
1F
100
AcDbEntity
  8
AM_0
100
AcDbLine
 10
5.617086865581541
 20
6.840971100257178
 30
0.0
 11
5.616861520764587
 21
6.997834067846014
 31
0.0
  0
LINE
  5
1C9D8
330
1F
100
AcDbEntity
  8
AM_0
100
AcDbLine
 10
8.099908914817888
 20
6.838947018427092
 30
0.0
 11
8.099683570001048
 21
6.995809986015928
 31
0.0
  0
LINE
  5
1C9D9
330
1F
100
AcDbEntity
  8
AM_0
100
AcDbLine
 10
14.27693269248607
 20
4.759716901883564
 30
0.0
 11
19.29999978220906
 21
6.334878962020468
 31
0.0
  0
LINE
  5
1C9DA
330
1F
100
AcDbEntity
  8
AM_0
100
AcDbLine
 10
13.5277994693347
 20
4.759721427793522
 30
0.0
 11
13.5277994693347
 21
4.750000000000057
 31
0.0
  0
LINE
  5
1C9DB
330
1F
100
AcDbEntity
  8
AM_0
100
AcDbLine
 10
14.08441492672523
 20
4.750000000000057
 30
0.0
 11
13.5277994693347
 21
4.750000000000057
 31
0.0
  0
ELLIPSE
  5
1C9DC
330
1F
100
AcDbEntity
  8
AM_0
100
AcDbEllipse
 10
52.72323236542718
 20
17.00000000000004
 30
0.0
 11
-38.8503108317066
 21
-12.19431139511798
 31
0.0
210
0.0
220
0.0
230
1.0
 40
0.0300315380507468
 41
0.0953882289284042
 42
0.1352209062855478
  0
LINE
  5
1C9DD
330
1F
100
AcDbEntity
  8
AM_0
100
AcDbLine
 10
14.27693269248607
 20
4.759716901883564
 30
0.0
 11
13.52779946933458
 21
4.759721427793409
 31
0.0
  0
ARC
  5
1C9DE
330
1F
100
AcDbEntity
  8
AM_0
100
AcDbCircle
 10
30.00968520443507
 20
4.088830967130036
 30
0.0
 40
5.078136904892509
100
AcDbArc
 50
34.97892003910759
 51
103.9247025857512
  0
SPLINE
  5
1C9DF
330
1F
100
AcDbEntity
  8
AM_0
100
AcDbSpline
210
0.0
220
0.0
230
1.0
 70
     8
 71
     3
 72
     8
 73
     4
 74
     0
 42
0.0000000001
 43
0.0000000001
 40
23.94068493301847
 40
23.94068493301847
 40
23.94068493301847
 40
23.94068493301847
 40
24.27078668461576
 40
24.27078668461576
 40
24.27078668461576
 40
24.27078668461576
 10
28.4968502574792
 20
8.954536827177492
 30
0.0
 10
28.5937572412879
 20
8.978900187377178
 30
0.0
 10
28.69081309544663
 20
8.99993861484171
 30
0.0
 10
28.78764914765179
 20
9.017735744131926
 30
0.0
  0
LINE
  5
1C9E0
330
1F
100
AcDbEntity
  8
AM_0
100
AcDbLine
 10
37.07683322267701
 20
7.000000000000057
 30
0.0
 11
34.17052277479149
 21
7.000000000000057
 31
0.0
  0
LINE
  5
1C9E1
330
1F
100
AcDbEntity
  8
AM_0
100
AcDbLine
 10
31.03451617663836
 20
29.25000000000006
 30
0.0
 11
14.92289510776448
 21
29.25000000000006
 31
0.0
  0
ARC
  5
1C9E2
330
1F
100
AcDbEntity
  8
AM_0
100
AcDbCircle
 10
20.01574126029482
 20
-13.99570083913301
 30
0.0
 40
42.87295891601674
100
AcDbArc
 50
80.27699332709578
 51
90.95656731180365
  0
ELLIPSE
  5
1C9E3
330
1F
100
AcDbEntity
  8
AM_0
100
AcDbEllipse
 10
12.91699578942701
 20
12.88430454245926
 30
0.0
 11
0.7999991745065871
 21
0.001149255750180943
 31
0.0
210
0.0
220
0.0
230
1.0
 40
0.9945169589345437
 41
5.977895824305564
 42
8.159557389298477
  0
LINE
  5
1C9E4
330
1F
100
AcDbEntity
  8
AM_0
100
AcDbLine
 10
11.16179839900474
 20
13.16552039652888
 30
0.0
 11
12.77030568830662
 21
14.10783380131701
 31
0.0
  0
LINE
  5
1C9E5
330
1F
100
AcDbEntity
  8
AM_0
100
AcDbLine
 10
14.26661176460982
 20
28.87109463516498
 30
0.0
 11
7.600226042995587
 21
25.0222550442692
 31
0.0
  0
LINE
  5
1C9E6
330
1F
100
AcDbEntity
  8
AM_0
100
AcDbLine
 10
14.26661176957441
 20
28.87109463803137
 30
0.0
 11
14.92289510776448
 21
29.25000000000006
 31
0.0
  0
LINE
  5
1C9E7
330
1F
100
AcDbEntity
  8
AM_0
100
AcDbLine
 10
14.26661176460982
 20
28.87109463516498
 30
0.0
 11
19.29999978220906
 21
28.87128319696416
 31
0.0
  0
ARC
  5
1C9E8
330
1F
100
AcDbEntity
  8
AM_0
100
AcDbCircle
 10
26.70295884757127
 20
19.76679895247395
 30
0.0
 40
8.378884252882706
100
AcDbArc
 50
18.25145756420259
 51
51.65529603382397
  0
ELLIPSE
  5
1C9E9
330
1F
100
AcDbEntity
  8
AM_0
100
AcDbEllipse
 10
19.3027039200116
 20
-67.38642191346314
 30
0.0
 11
-3.655129826830717E-13
 21
-172.1247539195216
 31
0.0
210
0.0
220
0.0
230
1.0
 40
0.1045753129059871
 41
2.06441396046295
 42
2.119501874012839
  0
LINE
  5
1C9EA
330
1F
100
AcDbEntity
  8
AM_0
100
AcDbLine
 10
35.15394557892478
 20
14.16882682486045
 30
0.0
 11
37.07683322267701
 21
14.16882682486045
 31
0.0
  0
ARC
  5
1C9EB
330
1F
100
AcDbEntity
  8
AM_0
100
AcDbCircle
 10
27.12486723660163
 20
21.37316279778946
 30
0.0
 40
6.889511412750071
100
AcDbArc
 50
46.11064693956759
 51
88.90648901916238
  0
ARC
  5
1C9EC
330
1F
100
AcDbEntity
  8
AM_0
100
AcDbCircle
 10
30.84683548007763
 20
30.36259095589463
 30
0.0
 40
4.16011070622832
100
AcDbArc
 50
210.3363877876003
 51
284.6807481711286
  0
SPLINE
  5
1C9ED
330
1F
100
AcDbEntity
  8
AM_0
100
AcDbSpline
210
0.0
220
0.0
230
1.0
 70
     8
 71
     3
 72
    38
 73
    34
 74
     0
 42
0.0000000001
 43
0.0000000001
 40
-13.7008110501765
 40
-13.7008110501765
 40
-13.7008110501765
 40
-13.7008110501765
 40
-12.84421011860729
 40
-12.84421011860729
 40
-11.98760918703808
 40
-11.98760918703808
 40
-11.13100825546887
 40
-11.13100825546887
 40
-10.27440732389966
 40
-10.27440732389966
 40
-9.418406874196812
 40
-9.418406874196812
 40
-8.562406424493958
 40
-8.562406424493958
 40
-7.706405974791103
 40
-7.706405974791103
 40
-6.850405525088249
 40
-6.850405525088249
 40
-5.994405075385394
 40
-5.994405075385394
 40
-5.13840462568254
 40
-5.13840462568254
 40
-4.282404175979686
 40
-4.282404175979686
 40
-3.426403726276835
 40
-3.426403726276835
 40
-2.569802794707627
 40
-2.569802794707627
 40
-1.713201863138416
 40
-1.713201863138416
 40
-0.8566009315692078
 40
-0.8566009315692078
 40
0.0
 40
0.0
 40
0.0
 40
0.0
 10
35.0
 20
27.43901876102342
 30
0.0
 10
34.71446635614359
 20
27.43901876102342
 30
0.0
 10
34.42015104250788
 20
27.4546806835113
 30
0.0
 10
33.83653569792591
 20
27.518532863536
 30
0.0
 10
33.54722491086557
 20
27.56666833554397
 30
0.0
 10
32.99380444700012
 20
27.68846858866624
 30
0.0
 10
32.72920304130912
 20
27.76213873397757
 30
0.0
 10
32.24048501062612
 20
27.92308987003224
 30
0.0
 10
32.01636635130285
 20
28.01027143254936
 30
0.0
 10
31.61981166023986
 20
28.18417976026439
 30
0.0
 10
31.43337667348317
 20
28.27712369584953
 30
0.0
 10
31.10390330884377
 20
28.46297989863211
 30
0.0
 10
30.96083994490368
 20
28.55580315024264
 30
0.0
 10
30.73036881334735
 20
28.72969125464346
 30
0.0
 10
30.64277796092893
 20
28.81084607510121
 30
0.0
 10
30.52757698550454
 20
28.95318620893028
 30
0.0
 10
30.5
 20
29.01434733500861
 30
0.0
 10
30.5
 20
29.1134426137906
 30
0.0
 10
30.52757698550454
 20
29.15447173311128
 30
0.0
 10
30.64277796092893
 20
29.21483027185553
 30
0.0
 10
30.73036881334735
 20
29.23418679483922
 30
0.0
 10
30.96083994490368
 20
29.25257091783755
 30
0.0
 10
31.10390330884377
 20
29.25167828583284
 30
0.0
 10
31.43337667348317
 20
29.23556450802499
 30
0.0
 10
31.61981166023986
 20
29.2204331409651
 30
0.0
 10
32.01636635130285
 20
29.18424681214691
 30
0.0
 10
32.24048501062612
 20
29.16181942334612
 30
0.0
 10
32.72920304130912
 20
29.11527240361608
 30
0.0
 10
32.99380444700012
 20
29.09126297051802
 30
0.0
 10
33.54722491086557
 20
29.0494766326272
 30
0.0
 10
33.83653569792591
 20
29.03175780366775
 30
0.0
 10
34.42015104250788
 20
29.00792442258484
 30
0.0
 10
34.71446635614359
 20
29.00185236002579
 30
0.0
 10
35.0
 20
29.00185236002579
 30
0.0
  0
LINE
  5
1CBF6
330
1F
100
AcDbEntity
  8
AM_0
100
AcDbLine
 10
45.32425584971361
 20
-53.52090587685875
 30
0.0
 11
248.4999999999999
 21
-53.52090587685878
 31
0.0
  0
LINE
  5
1CBF7
330
1F
100
AcDbEntity
  8
AM_0
100
AcDbLine
 10
248.4999999999999
 20
-68.52090587685872
 30
0.0
 11
40.25
 21
-68.52090587685875
 31
0.0
  0
LINE
  5
1CBF8
330
1F
100
AcDbEntity
  8
AM_0
100
AcDbLine
 10
40.25
 20
-72.02090587685875
 30
0.0
 11
248.4999999999999
 21
-72.02090587685872
 31
0.0
  0
LINE
  5
1CBF9
330
1F
100
AcDbEntity
  8
AM_0
100
AcDbLine
 10
248.4999999999999
 20
-50.02090587685878
 30
0.0
 11
44.27483977771124
 21
-50.02090587685875
 31
0.0
  0
LINE
  5
1CBFA
330
1F
100
AcDbEntity
  8
AM_0
100
AcDbLine
 10
40.25
 20
-68.52090587685875
 30
0.0
 11
40.25
 21
-72.02090587685875
 31
0.0
  0
LINE
  5
1CBFB
330
1F
100
AcDbEntity
  8
AM_0
100
AcDbLine
 10
40.0
 20
-68.09639172590123
 30
0.0
 11
40.0
 21
-72.02090587685875
 31
0.0
  0
SPLINE
  5
1CBFC
330
1F
100
AcDbEntity
  8
AM_0
100
AcDbSpline
210
0.0
220
0.0
230
1.0
 70
    12
 71
     2
 72
     6
 73
     3
 74
     0
 42
0.0000000001
 43
0.0000000001
 40
0.0
 40
0.0
 40
0.0
 40
0.4926626269788391
 40
0.4926626269788391
 40
0.4926626269788391
 10
40.25
 20
-68.52090587685875
 30
0.0
 41
1.0
 10
40.1213593481947
 20
-68.3065047905166
 30
0.0
 41
1.000147129500776
 10
40.0
 20
-68.09639172590123
 30
0.0
 41
1.0
  0
LINE
  5
1CBFD
330
1F
100
AcDbEntity
  8
AM_0
100
AcDbLine
 10
40.0
 20
-72.02090587685875
 30
0.0
 11
40.25
 21
-72.02090587685875
 31
0.0
  0
ARC
  5
1CBFE
330
1F
100
AcDbEntity
  8
AM_0
100
AcDbCircle
 10
42.83637250422908
 20
-52.35953094026733
 30
0.0
 40
2.745606542110902
100
AcDbArc
 50
334.9762475617246
 51
58.40470059387639
  0
LINE
  5
1CCEA
330
1F
100
AcDbEntity
  8
AM_0
100
AcDbLine
 10
106.5096933698649
 20
29.50000000000004
 30
0.0
 11
88.9418886334978
 21
29.50000000000005
 31
0.0
  0
LINE
  5
1CCEB
330
1F
100
AcDbEntity
  8
AM_0
100
AcDbLine
 10
45.32425584971361
 20
7.000000000000057
 30
0.0
 11
106.5096933698649
 21
7.000000000000043
 31
0.0
  0
LINE
  5
1CCEC
330
1F
100
AcDbEntity
  8
AM_0
100
AcDbLine
 10
106.5096933698649
 20
11.06282895648103
 30
0.0
 11
44.27483977771124
 21
11.06282895648104
 31
0.0
  0
LINE
  5
1CCED
330
1F
100
AcDbEntity
  8
AM_0
100
AcDbLine
 10
40.25
 20
22.93717104351896
 30
0.0
 11
106.5096933698649
 21
22.93717104351894
 31
0.0
  0
LINE
  5
1CCF1
330
1F
100
AcDbEntity
  8
AM_0
100
AcDbLine
 10
40.25
 20
29.26615006647097
 30
0.0
 11
85.0
 21
29.26615006647096
 31
0.0
  0
LINE
  5
1CCF2
330
1F
100
AcDbEntity
  8
AM_0
100
AcDbLine
 10
85.0
 20
27.70331646746859
 30
0.0
 11
40.25
 21
27.7033164674686
 31
0.0
  0
SPLINE
  5
1CCF3
330
1F
100
AcDbEntity
  8
AM_0
100
AcDbSpline
210
0.0
220
0.0
230
1.0
 70
     8
 71
     3
 72
    20
 73
    16
 74
     0
 42
0.0000000001
 43
0.0000000001
 40
5.830704030608041
 40
5.830704030608041
 40
5.830704030608041
 40
5.830704030608041
 40
6.394406383046781
 40
6.394406383046781
 40
7.220031032373468
 40
7.220031032373468
 40
8.045655681700154
 40
8.045655681700154
 40
8.87128033102684
 40
8.87128033102684
 40
9.696904980353526
 40
9.696904980353526
 40
10.52252962968021
 40
10.52252962968021
 40
11.27860322545244
 40
11.27860322545244
 40
11.27860322545244
 40
11.27860322545244
 10
44.27483977771124
 20
11.06282895648104
 30
0.0
 10
44.38765727032421
 20
10.92753009079758
 30
0.0
 10
44.49359323323438
 20
10.79060335898231
 30
0.0
 10
44.73679494111968
 20
10.45108081469579
 30
0.0
 10
44.8733889852931
 20
10.23648221347531
 30
0.0
 10
45.11472785101614
 20
9.795592562201875
 30
0.0
 10
45.21945681380623
 20
9.569325240434694
 30
0.0
 10
45.38746511116278
 20
9.119891531633186
 30
0.0
 10
45.45082526371709
 20
8.896497688082533
 30
0.0
 10
45.53361041102562
 20
8.466378615584446
 30
0.0
 10
45.55303210403724
 20
8.259658216501222
 30
0.0
 10
45.55303210403724
 20
7.874639390034801
 30
0.0
 10
45.53361041102562
 20
7.681186514441535
 30
0.0
 10
45.45431219583497
 20
7.322749050686454
 30
0.0
 10
45.39802607487798
 20
7.156706312253448
 30
0.0
 10
45.32425584971361
 20
7.000000000000057
 30
0.0
  0
LINE
  5
1CCF4
330
1F
100
AcDbEntity
  8
AM_0
100
AcDbLine
 10
40.0
 20
27.43901876102342
 30
0.0
 11
40.0
 21
22.39096466321195
 31
0.0
  0
LINE
  5
1CCF5
330
1F
100
AcDbEntity
  8
AM_0
100
AcDbLine
 10
40.25
 20
27.7033164674686
 30
0.0
 11
40.25
 21
22.93717104351896
 31
0.0
  0
SPLINE
  5
1CCF6
330
1F
100
AcDbEntity
  8
AM_0
100
AcDbSpline
210
0.0
220
0.0
230
1.0
 70
    12
 71
     2
 72
     6
 73
     3
 74
     0
 42
0.0000000001
 43
0.0000000001
 40
0.0
 40
0.0
 40
0.0
 40
0.6007163924467136
 40
0.6007163924467136
 40
0.6007163924467136
 10
40.0
 20
22.39096466321195
 30
0.0
 41
1.0
 10
40.11897290080992
 20
22.66130923528309
 30
0.0
 41
1.000243608148626
 10
40.25
 20
22.93717104351896
 30
0.0
 41
1.0
  0
SPLINE
  5
1CCF7
330
1F
100
AcDbEntity
  8
AM_0
100
AcDbSpline
210
0.0
220
0.0
230
1.0
 70
    12
 71
     2
 72
     6
 73
     3
 74
     0
 42
0.0000000001
 43
0.0000000001
 40
0.0
 40
0.0
 40
0.0
 40
0.3667766622516226
 40
0.3667766622516226
 40
0.3667766622516226
 10
40.0
 20
29.00185236002579
 30
0.0
 41
1.0
 10
40.123544947483
 20
29.13266637635897
 30
0.0
 41
1.000058795211813
 10
40.25
 20
29.26615006647097
 30
0.0
 41
1.0
  0
SPLINE
  5
1CCF8
330
1F
100
AcDbEntity
  8
AM_0
100
AcDbSpline
210
0.0
220
0.0
230
1.0
 70
    12
 71
     2
 72
     6
 73
     3
 74
     0
 42
0.0000000001
 43
0.0000000001
 40
0.0
 40
0.0
 40
0.0
 40
0.3667766622516225
 40
0.3667766622516225
 40
0.3667766622516225
 10
40.25
 20
27.7033164674686
 30
0.0
 41
1.0
 10
40.12354494746603
 20
27.56983277733873
 30
0.0
 41
1.000058795208356
 10
40.0
 20
27.43901876102342
 30
0.0
 41
1.0
  0
SPLINE
  5
1CCF9
330
1F
100
AcDbEntity
  8
AM_0
100
AcDbSpline
210
0.0
220
0.0
230
1.0
 70
     8
 71
     3
 72
    38
 73
    34
 74
     0
 42
0.0000000001
 43
0.0000000001
 40
0.0
 40
0.0
 40
0.0
 40
0.0
 40
0.856204937913791
 40
0.856204937913791
 40
1.712409875827582
 40
1.712409875827582
 40
2.568614813741373
 40
2.568614813741373
 40
3.424819751655164
 40
3.424819751655164
 40
4.280474123800291
 40
4.280474123800291
 40
5.136128495945417
 40
5.136128495945417
 40
5.991782868090544
 40
5.991782868090544
 40
6.84743724023567
 40
6.84743724023567
 40
7.703091612380796
 40
7.703091612380796
 40
8.558745984525922
 40
8.558745984525922
 40
9.414400356671049
 40
9.414400356671049
 40
10.27005472881618
 40
10.27005472881618
 40
11.12625966672997
 40
11.12625966672997
 40
11.98246460464376
 40
11.98246460464376
 40
12.83866954255755
 40
12.83866954255755
 40
13.69487448047134
 40
13.69487448047134
 40
13.69487448047134
 40
13.69487448047134
 10
85.0
 20
29.26615006647096
 30
0.0
 10
85.28540164597121
 20
29.26615006647096
 30
0.0
 10
85.5796260200209
 20
29.27196602204258
 30
0.0
 10
86.16314270962585
 20
29.29478545069213
 30
0.0
 10
86.45244543364629
 20
29.31174842060346
 30
0.0
 10
87.00591082979918
 20
29.35169111652322
 30
0.0
 10
87.27056317618792
 20
29.37461402314846
 30
0.0
 10
87.75939634380484
 20
29.4188902474155
 30
0.0
 10
87.98357862996511
 20
29.44013557018257
 30
0.0
 10
88.38025482227818
 20
29.47408418562628
 30
0.0
 10
88.56673306292839
 20
29.48807685727086
 30
0.0
 10
88.89624567836711
 20
29.50208015326921
 30
0.0
 10
89.03930494131237
 20
29.50200240842894
 30
0.0
 10
89.26974006991725
 20
29.48201788378065
 30
0.0
 10
89.35729897615579
 20
29.46203100238159
 30
0.0
 10
89.47244534648371
 20
29.40084761305314
 30
0.0
 10
89.5
 20
29.35962452013114
 30
0.0
 10
89.5
 20
29.26056930517398
 30
0.0
 10
89.47244534648371
 20
29.1996317807447
 30
0.0
 10
89.35729897615579
 20
29.05815180608311
 30
0.0
 10
89.26974006991725
 20
28.9776330729806
 30
0.0
 10
89.03930494131237
 20
28.80533564240744
 30
0.0
 10
88.89624567836711
 20
28.71346794653601
 30
0.0
 10
88.56673306292839
 20
28.52968316466529
 30
0.0
 10
88.38025482227818
 20
28.43785389406167
 30
0.0
 10
87.98357862996511
 20
28.26614108278005
 30
0.0
 10
87.75939634380484
 20
28.18012709295606
 30
0.0
 10
87.27056317618792
 20
28.0214314588897
 30
0.0
 10
87.00591082979918
 20
27.94884723796695
 30
0.0
 10
86.45244543364629
 20
27.82890080208295
 30
0.0
 10
86.16314270962585
 20
27.78153196940928
 30
0.0
 10
85.5796260200209
 20
27.71871349148699
 30
0.0
 10
85.28540164597121
 20
27.70331646746859
 30
0.0
 10
85.0
 20
27.70331646746859
 30
0.0
  0
LINE
  5
1D19B
330
1F
100
AcDbEntity
  8
AM_5
100
AcDbLine
 10
0.7999873534110975
 20
0.0
 30
0.0
 11
0.0
 21
0.0
 31
0.0
  0
LINE
  5
1D19F
330
1F
100
AcDbEntity
  8
AM_5
100
AcDbLine
 10
0.0
 20
0.7956010079558382
 30
0.0
 11
0.0
 21
0.0
 31
0.0
  0
TEXT
  5
1D510
330
1F
100
AcDbEntity
  8
AM_0
100
AcDbText
 10
10.82659442297802
 20
-107.1996596698585
 30
0.0
 40
5.0
  1
B25S-SDQCR11T3-32
100
AcDbText
  0
LINE
  5
1DCEB
330
1F
100
AcDbEntity
  8
AM_0
100
AcDbLine
 10
3.055968083098378
 20
10.60971011808269
 30
0.0
 11
7.600226042995587
 21
25.0222550442692
 31
0.0
  0
DIMENSION
  5
1DD49
330
1F
100
AcDbEntity
  8
AM_5
100
AcDbDimension
  2
*D6
 10
40.6120129478827
 20
6.999999999999942
 30
0.0
 11
40.6120129478827
 21
3.499999999999972
 31
0.0
 70
   160
 71
     5
 42
6.999999999999951
  3
AM_JIS$0
100
AcDbAlignedDimension
 13
0.0
 23
0.0
 33
0.0
 14
34.17052277479161
 24
6.999999999999943
 34
0.0
 50
90.0
100
AcDbRotatedDimension
1001
ACAD
1000
DSTYLE
1002
{
1070
   179
1070
     1
1070
   271
1070
     0
1002
}
  0
DIMENSION
  5
1DD80
330
1F
100
AcDbEntity
  8
AM_5
100
AcDbDimension
  2
*D7
 10
-12.00000101000001
 20
17.0
 30
0.0
 11
-15.40000101000001
 21
8.5
 31
0.0
 70
    32
 71
     5
 42
17.0
  3
AM_JIS$0
100
AcDbAlignedDimension
 13
0.0
 23
0.0
 33
0.0
 14
-10.62485687723063
 24
17.0
 34
0.0
 50
90.0
100
AcDbRotatedDimension
1001
ACAD
1000
DSTYLE
1002
{
1070
   179
1070
     1
1070
   271
1070
     0
1002
}
  0
DIMENSION
  5
1DDA5
330
1F
100
AcDbEntity
  8
AM_5
100
AcDbDimension
  2
*D8
 10
-69.6578748141651
 20
-3.604679326687474
 30
0.0
 11
-77.26235512195206
 21
-22.76120100342231
 31
0.0
 70
   162
 71
     5
 42
0.1047197551194437
  3
AM_JIS$2
100
AcDb2LineAngularDimension
 13
-68.52035663479819
 23
10.60971011761627
 33
0.0
 14
-69.52684066721213
 24
1.033654215854554
 34
0.0
 15
-69.6578748141651
 25
16.99915233071819
 35
0.0
 16
-70.48834141143439
 26
-23.99450423666039
 36
0.0
1001
ACAD
1000
DSTYLE
1002
{
1070
   179
1070
     0
1070
   271
1070
     0
1002
}
  0
DIMENSION
  5
1DE13
330
1F
100
AcDbEntity
  8
AM_5
100
AcDbDimension
  2
*D9
 10
0.0366492550310795
 20
1.033654216320969
 30
0.0
 11
-20.6699162981882
 21
27.79570705517614
 31
0.0
 70
    34
 71
     5
 42
1.876228945894323
  3
AM_JIS$2
100
AcDb2LineAngularDimension
 13
0.7999873534110975
 23
0.0
 33
0.0
 14
0.0
 24
0.0
 34
0.0
 15
3.055968083098378
 25
10.60971011808269
 35
0.0
 16
-10.06121514926049
 26
29.49009870215072
 36
0.0
1001
ACAD
1000
DSTYLE
1002
{
1070
   179
1070
     1
1070
   271
1070
     0
1002
}
  0
DIMENSION
  5
1DE96
330
1F
100
AcDbEntity
  8
AM_5
100
AcDbDimension
  2
*D10
 10
249.9999999999999
 20
-30.06804815686326
 30
0.0
 11
124.9999999999999
 21
-26.66767414111522
 31
0.0
 70
    32
 71
     5
 42
249.9999999999999
  3
AM_JIS$0
100
AcDbAlignedDimension
 13
0.0
 23
0.0
 33
0.0
 14
249.9999999999999
 24
6.999999999999915
 34
0.0
100
AcDbRotatedDimension
1001
ACAD
1000
DSTYLE
1002
{
1070
   179
1070
     1
1070
   271
1070
     0
1002
}
  0
ENDSEC
  0
SECTION
  2
OBJECTS
  0
DICTIONARY
  5
C
330
0
100
AcDbDictionary
281
     1
  3
ACAD_COLOR
350
1D543
  3
ACAD_GROUP
350
D
  3
ACAD_LAYOUT
350
1A
  3
ACAD_MATERIAL
350
1D542
  3
ACAD_MLINESTYLE
350
17
  3
ACAD_PLOTSETTINGS
350
19
  3
ACAD_PLOTSTYLENAME
350
E
  3
ACAD_TABLESTYLE
350
1D544
  3
AcAmCatalogState
350
1D5A9
  3
ACDBHEADERROUNDTRIPXREC
350
1E0F0
  3
AcDbVariableDictionary
350
30
  3
ACDMSYSVARMGR
350
1D55D
  3
ACGREF_MASTER
350
1987B
  3
ACGREFACAD_MASTER
350
1987F
  3
AcmDictionary
350
4D
  3
ACME_BOM_MANAGER_NAME
350
1D4AB
  3
ACME_COMMAND_HISTORY
350
1D4A6
  3
ACME_SCOPE_NAME
350
1D4A5
  3
ACMESTATEMGR
350
1D4B0
  3
AcmeSysVarManager
350
1D4A7
  3
AcmSystemVariableManager
350
1D598
  3
AD_APPL
350
1D585
  3
ADSYSVARMGR
350
1D584
  3
AmdtNamedDwgMgr
350
1D578
  3
AMG
350
3F
  3
AMGSNAPSETTINGS
350
73
  3
AMI_MASTER
350
19880
  3
ASE_INDEX_DICTIONARY
350
1DC05
  3
AUTOCAD_ASSEMBLIES_PROJECT
350
1D58D
  3
Designer_Assemblies_SysVars
350
1D588
  3
DWGPROPS
350
1E0F3
  3
eng_data
350
2A40
  3
FILENAME
350
2916
  3
GREFAM_MODULE
350
1D57E
  3
line_dic_data
350
2A3E
  3
table_dic_data
350
1688
  3
ZWKSIZE
350
2918
  0
DICTIONARY
  5
1DB40
330
2
100
AcDbDictionary
280
     1
281
     1
  3
ACAD_LAYERSTATES
360
1DB41
  0
DICTIONARY
  5
165
330
1F
100
AcDbDictionary
280
     1
281
     1
  3
ACAD_LAYOUTSELFREF
360
1D377
  0
DICTIONARY
  5
1D313
330
1B
100
AcDbDictionary
280
     1
281
     1
  3
ACAD_LAYOUTSELFREF
360
1D376
  0
DICTIONARY
  5
1D315
330
23
100
AcDbDictionary
280
     1
281
     1
  3
ACAD_LAYOUTSELFREF
360
1D378
  0
DICTIONARY
  5
1D543
102
{ACAD_REACTORS
330
C
102
}
330
C
100
AcDbDictionary
281
     1
  0
DICTIONARY
  5
D
102
{ACAD_REACTORS
330
C
102
}
330
C
100
AcDbDictionary
281
     1
  0
DICTIONARY
  5
1A
102
{ACAD_REACTORS
330
C
102
}
330
C
100
AcDbDictionary
281
     1
  3
Model
350
22
  3
ﾚｲｱｳﾄ1
350
1E
  3
ﾚｲｱｳﾄ2
350
26
  0
DICTIONARY
  5
1D542
102
{ACAD_REACTORS
330
C
102
}
330
C
100
AcDbDictionary
281
     1
  0
DICTIONARY
  5
17
102
{ACAD_REACTORS
330
C
102
}
330
C
100
AcDbDictionary
281
     1
  3
Standard
350
18
  0
DICTIONARY
  5
19
102
{ACAD_REACTORS
330
C
102
}
330
C
100
AcDbDictionary
281
     1
  0
ACDBDICTIONARYWDFLT
  5
E
102
{ACAD_REACTORS
330
C
102
}
330
C
100
AcDbDictionary
281
     1
  3
Normal
350
F
100
AcDbDictionaryWithDefault
340
F
  0
DICTIONARY
  5
1D544
102
{ACAD_REACTORS
330
C
102
}
330
C
100
AcDbDictionary
281
     1
  3
Standard
350
1D545
  0
ACAD_PROXY_OBJECT
  5
1D5A9
102
{ACAD_REACTORS
330
C
102
}
330
C
100
AcDbProxyObject
 90
      499
 91
      577
 95
       25
 70
     0
 93
      584
310
3FFFFFFFE00A028140298231D2E20A1A0A226991818182E4B34482AC8E746FA41B7C1A1C1B3A422AE4B34482AC8E746FA41B7C1A1C1B3CAABC7C0400810EFD60B3C150F0AC9C774940
  0
DICTIONARY
  5
1E0F0
102
{ACAD_REACTORS
330
C
102
}
330
C
100
AcDbDictionary
281
     1
  3
COLORDICT
350
1E0F1
  3
MATERIALDICT
350
1E0F2
  0
DICTIONARY
  5
30
102
{ACAD_REACTORS
330
C
102
}
330
C
100
AcDbDictionary
281
     1
  3
CTABLESTYLE
350
1D902
  3
HIDETEXT
350
1E0EF
  3
INDEXCTL
350
1E0EE
  0
ACAD_PROXY_OBJECT
  5
1D55D
102
{ACAD_REACTORS
330
C
102
}
330
C
100
AcDbProxyObject
 90
      499
 91
      507
 95
       25
 70
     0
 93
      240
310
4C51A47A0000000000000000000000000000000000000000000000000000
330
1D55E
330
1D55F
330
1D560
330
1D561
330
1D562
330
1D563
330
1D564
330
1D565
330
1D566
330
1D567
330
1D568
330
1D569
330
1D56A
330
1D56B
330
1D56C
330
1D56D
330
1D56E
330
1D56F
330
1D570
330
1D571
330
1D572
330
1D573
330
1D574
330
1D575
330
1D576
330
1D577
 94
        0
  0
ACAD_PROXY_OBJECT
  5
1987B
102
{ACAD_REACTORS
330
C
102
}
330
C
100
AcDbProxyObject
 90
      499
 91
      534
 95
       25
 70
     0
 93
       34
310
0400004280
  0
ACAD_PROXY_OBJECT
  5
1987F
102
{ACAD_REACTORS
330
C
102
}
330
C
100
AcDbProxyObject
 90
      499
 91
      535
 95
       25
 70
     0
 93
      114
310
04000041C080000000000000000000
  0
DICTIONARY
  5
4D
102
{ACAD_REACTORS
330
C
102
}
330
C
100
AcDbDictionary
281
     1
  3
AcmBOMDATA
350
1D4B4
  3
AcmStdDictionary
350
17E
  3
AMDTSECTSYM_ARROWCOLOR
350
1D59D
  0
ACAD_PROXY_OBJECT
  5
1D4AB
102
{ACAD_REACTORS
330
C
102
}
330
C
100
AcDbProxyObject
 90
      499
 91
      510
 95
       25
 70
     0
 93
       50
310
00010040400000
330
0
330
0
330
1D4AC
 94
        0
  0
ACAD_PROXY_OBJECT
  5
1D4A6
102
{ACAD_REACTORS
330
C
102
}
330
C
100
AcDbProxyObject
 90
      499
 91
      505
 95
       25
 70
     0
 93
     5078
310
47805054552415345805045A4F4F4D8050C475249505F535452455443488050653454C4543548050844524F5047454F4D805055153415645404052D4D5347202D205050413A2020206465736B746F702E6172782046696C6556657273696F6E3A20392E322E302E34014390535115149154D15511109353D1102014213880B
310
4815539113C05084E202D20554E444F014115539113E014115539113E014154155491D1601415454D05591501014B5354D1C80B481414104E88080819195CDADD1BDC0B985C9E08119A5B1955995C9CDA5BDB8E880E4B8C8B8C0B8D0050E414D4454524553455444424D4F4440805084E202D20554E444F014213880B48155
310
39113C0504554E444F80504554E444F805055153415645404052D4D5347202D205050413A2020206465736B746F702E6172782046696C6556657273696F6E3A20392E322E302E34014390535115149154D15511109353D1102014213880B4815539113C05084E202D20554E444F014115539113E014115539113E01419493D
310
510551160142111493D411D153D36014311D4925417D4D514915510D210101461354D1C80B4810DBDB5B585B990810D05390D1531311510B8050C475249505F53545245544348805044D4F5645805045A4F4F4D805055153415645404052D4D5347202D205050413A2020206465736B746F702E6172782046696C655665727
310
3696F6E3A20392E322E302E34014390535115149154D15511109353D1102014213880B4815539113C05084E202D20554E444F014115539113E014115539113E014154155491D1601415454D05591501014B5354D1C80B481414104E88080819195CDADD1BDC0B985C9E08119A5B1955995C9CDA5BDB8E880E4B8C8B8C0B8D0
  0
ACAD_PROXY_OBJECT
  5
1D4A5
102
{ACAD_REACTORS
330
C
102
}
330
C
100
AcDbProxyObject
 90
      499
 91
      504
 95
       25
 70
     0
 93
      578
310
09000046408000000000000000001334DE000000000000000000000000000000000000000000000000000000000000000000000000000000000000000000000000000000AAA406AA80
360
1D4A8
360
1D4A9
360
1D4AA
360
1D4AC
360
1D556
360
1D557
360
1D558
360
1D559
360
1D55A
360
1D55B
360
1D55E
360
1D55F
360
1D560
360
1D561
360
1D562
360
1D563
360
1D564
360
1D565
360
1D566
360
1D567
360
1D568
360
1D569
360
1D56A
360
1D56B
360
1D56C
360
1D56D
360
1D56E
360
1D56F
360
1D570
360
1D571
360
1D572
360
1D573
360
1D574
360
1D575
360
1D576
360
1D577
360
1D580
360
1D581
360
1D582
360
1D583
360
1D589
360
1D58A
360
1D58B
360
1D58C
360
1D591
360
1D592
360
1D593
360
1D594
360
1D595
360
1D596
360
1D599
 94
        0
  0
ACAD_PROXY_OBJECT
  5
1D4B0
102
{ACAD_REACTORS
330
C
102
}
330
C
100
AcDbProxyObject
 90
      499
 91
      515
 95
       25
 70
     0
 93
       50
310
09000042641280
  0
ACAD_PROXY_OBJECT
  5
1D4A7
102
{ACAD_REACTORS
330
C
102
}
330
C
100
AcDbProxyObject
 90
      499
 91
      507
 95
       25
 70
     0
 93
       48
310
903412000000
330
1D4A8
330
1D4A9
330
1D4AA
 94
        0
  0
ACAD_PROXY_OBJECT
  5
1D598
102
{ACAD_REACTORS
330
C
102
}
330
C
100
AcDbProxyObject
 90
      499
 91
      507
 95
       25
 70
     0
 93
       32
310
90140A00
330
1D599
 94
        0
  0
ACAD_PROXY_OBJECT
  5
1D585
102
{ACAD_REACTORS
330
C
102
}
330
C
100
AcDbProxyObject
 90
      499
 91
      564
 95
       25
 70
     0
 93
       42
310
000900004040
330
1D580
 94
        0
  0
ACAD_PROXY_OBJECT
  5
1D584
102
{ACAD_REACTORS
330
C
102
}
330
C
100
AcDbProxyObject
 90
      499
 91
      507
 95
       25
 70
     0
 93
        8
310
AA
  0
ACAD_PROXY_OBJECT
  5
1D578
102
{ACAD_REACTORS
330
C
102
}
330
C
100
AcDbProxyObject
 90
      499
 91
      555
 95
       25
 70
     0
 93
       42
310
000100005E80
330
1D556
 94
        0
  0
DICTIONARY
  5
3F
102
{ACAD_REACTORS
330
C
102
}
330
C
100
AcDbDictionary
281
     1
  3
AcMgSettings
350
40
  3
AMGLAYCFG
350
1D4B8
  0
DICTIONARY
  5
73
102
{ACAD_REACTORS
330
C
102
}
330
C
100
AcDbDictionary
281
     1
  0
ACAD_PROXY_OBJECT
  5
19880
102
{ACAD_REACTORS
330
C
102
}
330
C
100
AcDbProxyObject
 90
      499
 91
      536
 95
       25
 70
     0
 93
       34
310
0500004280
  0
DICTIONARY
  5
1DC05
102
{ACAD_REACTORS
330
C
102
}
330
C
100
AcDbDictionary
281
     1
  3
ASEBlockHierarchyIndexRecord
350
1DC06
1001
DCO15
1040
1562583664.671
  0
ACAD_PROXY_OBJECT
  5
1D58D
102
{ACAD_REACTORS
330
C
102
}
330
C
100
AcDbProxyObject
 90
      499
 91
      567
 95
       25
 70
     0
 93
       98
310
0900004E400000000000000000
330
1D594
330
0
330
1D595
330
0
330
0
330
0
330
0
330
0
 94
        0
  0
ACAD_PROXY_OBJECT
  5
1D588
102
{ACAD_REACTORS
330
C
102
}
330
C
100
AcDbProxyObject
 90
      499
 91
      507
 95
       25
 70
     0
 93
       56
310
90441600000000
330
1D589
330
1D58A
330
1D58B
330
1D58C
 94
        0
  0
XRECORD
  5
1E0F3
102
{ACAD_REACTORS
330
C
102
}
330
C
100
AcDbXrecord
280
     1
  1
DWGPROPS COOKIE
  2

  3

  4

  6

  7

  8

  9

300
AmdtFileType=84
301
=
302
=
303
=
304
=
305
=
306
=
307
=
308
=
309
=
 40
0.0
 41
2451943.235431667
 42
2455478.203734085
  1

 90
        1
  0
DICTIONARY
  5
2A40
102
{ACAD_REACTORS
330
C
102
}
330
C
100
AcDbDictionary
281
     1
  3
eng_id
350
2A41
  0
DICTIONARY
  5
2916
102
{ACAD_REACTORS
330
C
102
}
330
C
100
AcDbDictionary
281
     1
  3
FILENAME
350
2917
  0
ACAD_PROXY_OBJECT
  5
1D57E
102
{ACAD_REACTORS
330
C
102
}
330
C
100
AcDbProxyObject
 90
      499
 91
      558
 95
       25
 70
     0
 93
        8
310
05
  0
DICTIONARY
  5
2A3E
102
{ACAD_REACTORS
330
C
102
}
330
C
100
AcDbDictionary
281
     1
  3
line_data
350
2A3F
  0
DICTIONARY
  5
1688
102
{ACAD_REACTORS
330
C
102
}
330
C
100
AcDbDictionary
281
     1
  3
input_data
350
168A
  3
table_data
350
1689
  0
DICTIONARY
  5
2918
102
{ACAD_REACTORS
330
C
102
}
330
C
100
AcDbDictionary
281
     1
  3
ZWKSIZE
350
2919
  0
DICTIONARY
  5
1DB41
102
{ACAD_REACTORS
330
1DB40
102
}
330
1DB40
100
AcDbDictionary
281
     1
  0
XRECORD
  5
1D377
102
{ACAD_REACTORS
330
165
102
}
330
165
100
AcDbXrecord
280
     1
340
1F
  0
XRECORD
  5
1D376
102
{ACAD_REACTORS
330
1D313
102
}
330
1D313
100
AcDbXrecord
280
     1
340
1B
  0
XRECORD
  5
1D378
102
{ACAD_REACTORS
330
1D315
102
}
330
1D315
100
AcDbXrecord
280
     1
340
23
  0
LAYOUT
  5
22
102
{ACAD_REACTORS
330
1A
102
}
330
1A
100
AcDbPlotSettings
  1

  2
SII LP-2150 (D-SCAN C2)
  4
User262
  6
AM_VIEW1
 40
3.174999952316284
 41
3.174999952316284
 42
3.17498779296875
 43
3.17498779296875
 44
296.9259948730469
 45
419.9889831542969
 46
0.0
 47
0.0
 48
0.0
 49
0.0
140
420.0
141
297.0
142
1.0
143
1.022107788374329
 70
 11952
 72
     1
 73
     1
 74
     4
  7
sei_cad.ctb
 75
     0
147
0.9783703943695685
148
0.0
149
0.0
100
AcDbLayout
  1
Model
 70
     1
 71
     0
 10
0.0
 20
0.0
 11
12.0
 21
9.0
 12
0.0
 22
0.0
 32
0.0
 14
0.0
 24
0.0
 34
0.0
 15
0.0
 25
0.0
 35
0.0
146
0.0
 13
0.0
 23
0.0
 33
0.0
 16
1.0
 26
0.0
 36
0.0
 17
0.0
 27
1.0
 37
0.0
 76
     0
330
1F
  0
LAYOUT
  5
1E
102
{ACAD_REACTORS
330
1A
102
}
330
1A
100
AcDbPlotSettings
  1

  2
Canon LASER SHOT LBP-2030
  4

  6

 40
0.0
 41
0.0
 42
0.0
 43
0.0
 44
0.0
 45
0.0
 46
0.0
 47
0.0
 48
0.0
 49
0.0
140
0.0
141
0.0
142
1.0
143
1.0
 70
   688
 72
     0
 73
     0
 74
     5
  7
sei_cad.ctb
 75
    16
147
1.0
148
0.0
149
0.0
100
AcDbLayout
  1
ﾚｲｱｳﾄ1
 70
     1
 71
     1
 10
0.0
 20
0.0
 11
420.0
 21
297.0
 12
0.0
 22
0.0
 32
0.0
 14
1.000000000000000E+20
 24
1.000000000000000E+20
 34
1.000000000000000E+20
 15
-1.000000000000000E+20
 25
-1.000000000000000E+20
 35
-1.000000000000000E+20
146
0.0
 13
0.0
 23
0.0
 33
0.0
 16
1.0
 26
0.0
 36
0.0
 17
0.0
 27
1.0
 37
0.0
 76
     0
330
1B
  0
LAYOUT
  5
26
102
{ACAD_REACTORS
330
1A
102
}
330
1A
100
AcDbPlotSettings
  1

  2
Canon LASER SHOT LBP-2030
  4

  6

 40
0.0
 41
0.0
 42
0.0
 43
0.0
 44
0.0
 45
0.0
 46
0.0
 47
0.0
 48
0.0
 49
0.0
140
0.0
141
0.0
142
1.0
143
1.0
 70
   688
 72
     0
 73
     0
 74
     5
  7
sei_cad.ctb
 75
    16
147
1.0
148
0.0
149
0.0
100
AcDbLayout
  1
ﾚｲｱｳﾄ2
 70
     1
 71
     2
 10
0.0
 20
0.0
 11
12.0
 21
9.0
 12
0.0
 22
0.0
 32
0.0
 14
0.0
 24
0.0
 34
0.0
 15
0.0
 25
0.0
 35
0.0
146
0.0
 13
0.0
 23
0.0
 33
0.0
 16
1.0
 26
0.0
 36
0.0
 17
0.0
 27
1.0
 37
0.0
 76
     0
330
23
  0
MLINESTYLE
  5
18
102
{ACAD_REACTORS
330
17
102
}
330
17
100
AcDbMlineStyle
  2
STANDARD
 70
     0
  3

 62
   256
 51
90.0
 52
90.0
 71
     2
 49
0.5
 62
   256
  6
BYLAYER
 49
-0.5
 62
   256
  6
BYLAYER
  0
ACDBPLACEHOLDER
  5
F
102
{ACAD_REACTORS
330
E
102
}
330
E
  0
TABLESTYLE
  5
1D545
102
{ACAD_REACTORS
330
1D544
102
}
330
1D544
100
AcDbTableStyle
  3
Standard
 70
     0
 71
     8
 40
1.5
 41
1.5
280
     0
281
     0
  7
STANDARD
140
4.5
170
     2
 62
     0
 63
     7
283
     0
274
    -2
284
     1
 64
     0
275
    -2
285
     1
 65
     0
276
    -2
286
     1
 66
     0
277
    -2
287
     1
 67
     0
278
    -2
288
     1
 68
     0
279
    -2
289
     1
 69
     0
  7
STANDARD
140
6.0
170
     5
 62
     0
 63
     7
283
     0
274
    -2
284
     1
 64
     0
275
    -2
285
     1
 65
     0
276
    -2
286
     1
 66
     0
277
    -2
287
     1
 67
     0
278
    -2
288
     1
 68
     0
279
    -2
289
     1
 69
     0
  7
STANDARD
140
4.5
170
     5
 62
     0
 63
     7
283
     0
274
    -2
284
     1
 64
     0
275
    -2
285
     1
 65
     0
276
    -2
286
     1
 66
     0
277
    -2
287
     1
 67
     0
278
    -2
288
     1
 68
     0
279
    -2
289
     1
 69
     0
  0
XRECORD
  5
1E0F1
102
{ACAD_REACTORS
330
1E0F0
102
}
330
1E0F0
100
AcDbXrecord
280
     1
340
1D543
  0
XRECORD
  5
1E0F2
102
{ACAD_REACTORS
330
1E0F0
102
}
330
1E0F0
100
AcDbXrecord
280
     1
340
1D542
  0
DICTIONARYVAR
  5
1D902
102
{ACAD_REACTORS
330
30
102
}
330
30
100
DictionaryVariables
280
     0
  1
STANDARD
  0
DICTIONARYVAR
  5
1E0EF
102
{ACAD_REACTORS
330
30
102
}
330
30
100
DictionaryVariables
280
     0
  1
0
  0
DICTIONARYVAR
  5
1E0EE
102
{ACAD_REACTORS
330
30
102
}
330
30
100
DictionaryVariables
280
     0
  1
1
  0
ACAD_PROXY_OBJECT
  5
1D4B4
102
{ACAD_REACTORS
330
4D
102
}
330
4D
100
AcDbProxyObject
 90
      499
 91
      520
 95
       25
 70
     0
 93
      118
310
405010040CA904C415CD5B075DD0C8
350
1D4B5
 94
        0
  0
DICTIONARY
  5
17E
102
{ACAD_REACTORS
330
4D
102
}
330
4D
100
AcDbDictionary
281
     1
  3
JIS
350
1D4E2
  0
XRECORD
  5
1D59D
102
{ACAD_REACTORS
330
4D
102
}
330
4D
100
AcDbXrecord
280
     1
 90
-1023410169
  0
ACAD_PROXY_OBJECT
  5
1D4A8
330
1D4A5
100
AcDbProxyObject
 90
      499
 91
      508
 95
       25
 70
     0
 93
      156
310
00010143D050D351505391D5531054925390D490
330
1D4A5
 94
        0
  0
ACAD_PROXY_OBJECT
  5
1D4A9
330
1D4A5
100
AcDbProxyObject
 90
      499
 91
      508
 95
       25
 70
     0
 93
      148
310
000101439050D351531253915054925390D490
330
1D4A5
 94
        0
  0
ACAD_PROXY_OBJECT
  5
1D4AA
330
1D4A5
100
AcDbProxyObject
 90
      499
 91
      509
 95
       25
 70
     0
 93
      156
310
000101439050D35154D6535093D314D256915080
330
1D4A5
 94
        0
  0
ACAD_PROXY_OBJECT
  5
1D4AC
330
1D4A5
100
AcDbProxyObject
 90
      499
 91
      511
 95
       25
 70
     0
 93
       88
310
000101411093D34C402B00
330
1D4A5
330
0
330
0
 94
        0
  0
ACAD_PROXY_OBJECT
  5
1D556
330
1D4A5
100
AcDbProxyObject
 90
      499
 91
      551
 95
       25
 70
     0
 93
      358
310
0001014124FEA55D00507392E322E302E32014124FEA55D00507392E322E302E3240501000041505391D311658
330
1D4A5
330
1D557
330
1D55D
 94
        0
  0
ACAD_PROXY_OBJECT
  5
1D557
330
1D4A5
100
AcDbProxyObject
 90
      499
 91
      552
 95
       25
 70
     0
 93
       56
310
000190240E0000
330
1D4A5
330
1D558
330
1D55A
 94
        0
  0
ACAD_PROXY_OBJECT
  5
1D558
330
1D4A5
100
AcDbProxyObject
 90
      499
 91
      553
 95
       25
 70
     0
 93
       48
310
0001AA000000
330
1D4A5
330
1E
330
1D559
330
0
 94
        0
  0
ACAD_PROXY_OBJECT
  5
1D559
330
1D4A5
100
AcDbProxyObject
 90
      499
 91
      554
 95
       25
 70
     0
 93
       28
310
0001AAA0
330
1D4A5
 94
        0
  0
ACAD_PROXY_OBJECT
  5
1D55A
330
1D4A5
100
AcDbProxyObject
 90
      499
 91
      553
 95
       25
 70
     0
 93
       48
310
0001AA000000
330
1D4A5
330
26
330
1D55B
330
0
 94
        0
  0
ACAD_PROXY_OBJECT
  5
1D55B
330
1D4A5
100
AcDbProxyObject
 90
      499
 91
      554
 95
       25
 70
     0
 93
       28
310
0001AAA0
330
1D4A5
 94
        0
  0
ACAD_PROXY_OBJECT
  5
1D55E
330
1D4A5
100
AcDbProxyObject
 90
      499
 91
      509
 95
       25
 70
     0
 93
      108
310
000101421053521310D05310D010
330
1D4A5
 94
        0
  0
ACAD_PROXY_OBJECT
  5
1D55F
330
1D4A5
100
AcDbProxyObject
 90
      499
 91
      509
 95
       25
 70
     0
 93
      124
310
00010142905354915554D15112535010
330
1D4A5
 94
        0
  0
ACAD_PROXY_OBJECT
  5
1D560
330
1D4A5
100
AcDbProxyObject
 90
      499
 91
      509
 95
       25
 70
     0
 93
      132
310
00010143105354D150D51253D391125360
330
1D4A5
 94
        0
  0
ACAD_PROXY_OBJECT
  5
1D561
330
1D4A5
100
AcDbProxyObject
 90
      499
 91
      509
 95
       25
 70
     0
 93
      124
310
00010142905355941093D49111549010
330
1D4A5
 94
        0
  0
ACAD_PROXY_OBJECT
  5
1D562
330
1D4A5
100
AcDbProxyObject
 90
      499
 91
      509
 95
       25
 70
     0
 93
      116
310
0001014290535115D1D0D3D313D4A0
330
1D4A5
 94
        0
  0
ACAD_PROXY_OBJECT
  5
1D563
330
1D4A5
100
AcDbProxyObject
 90
      499
 91
      509
 95
       25
 70
     0
 93
      148
310
00010143505355925155D49151949154D21010
330
1D4A5
 94
        0
  0
ACAD_PROXY_OBJECT
  5
1D564
330
1D4A5
100
AcDbProxyObject
 90
      499
 91
      509
 95
       25
 70
     0
 93
      172
310
00010144105350539393D51154149154D15495915010
330
1D4A5
 94
        0
  0
ACAD_PROXY_OBJECT
  5
1D565
330
1D4A5
100
AcDbProxyObject
 90
      499
 91
      509
 95
       25
 70
     0
 93
      172
310
00010144105350555513D11253505494905391D15010
330
1D4A5
 94
        0
  0
ACAD_PROXY_OBJECT
  5
1D566
330
1D4A5
100
AcDbProxyObject
 90
      499
 91
      509
 95
       25
 70
     0
 93
      124
310
00010142D05351561514915191125360
330
1D4A5
 94
        0
  0
ACAD_PROXY_OBJECT
  5
1D567
330
1D4A5
100
AcDbProxyObject
 90
      499
 91
      509
 95
       25
 70
     0
 93
      132
310
00010142D05355105410539393D5115010
330
1D4A5
 94
        0
  0
ACAD_PROXY_OBJECT
  5
1D568
330
1D4A5
100
AcDbProxyObject
 90
      499
 91
      509
 95
       25
 70
     0
 93
      108
310
00010142105350555513D0D31010
330
1D4A5
 94
        0
  0
ACAD_PROXY_OBJECT
  5
1D569
330
1D4A5
100
AcDbProxyObject
 90
      499
 91
      509
 95
       25
 70
     0
 93
      108
310
00010142105350D3119150551050
330
1D4A5
 94
        0
  0
ACAD_PROXY_OBJECT
  5
1D56A
330
1D4A5
100
AcDbProxyObject
 90
      499
 91
      509
 95
       25
 70
     0
 93
      108
310
00010142105350D315925155D3F0
330
1D4A5
 94
        0
  0
ACAD_PROXY_OBJECT
  5
1D56B
330
1D4A5
100
AcDbProxyObject
 90
      499
 91
      509
 95
       25
 70
     0
 93
      148
310
0001014350535212511156915493D112535010
330
1D4A5
 94
        0
  0
ACAD_PROXY_OBJECT
  5
1D56C
330
1D4A5
100
AcDbProxyObject
 90
      499
 91
      509
 95
       25
 70
     0
 93
      124
310
00010142905352105510D21254D3D010
330
1D4A5
 94
        0
  0
ACAD_PROXY_OBJECT
  5
1D56D
330
1D4A5
100
AcDbProxyObject
 90
      499
 91
      509
 95
       25
 70
     0
 93
      148
310
00010143905354D25391D31152105513105660
330
1D4A5
 94
        0
  0
ACAD_PROXY_OBJECT
  5
1D56E
330
1D4A5
100
AcDbProxyObject
 90
      499
 91
      509
 95
       25
 70
     0
 93
      124
310
00010142D0535115D1D193111254D420
330
1D4A5
 94
        0
  0
ACAD_PROXY_OBJECT
  5
1D56F
330
1D4A5
100
AcDbProxyObject
 90
      499
 91
      509
 95
       25
 70
     0
 93
      100
310
00010142105350555513D213A0
330
1D4A5
 94
        0
  0
ACAD_PROXY_OBJECT
  5
1D570
330
1D4A5
100
AcDbProxyObject
 90
      499
 91
      509
 95
       25
 70
     0
 93
      116
310
000101425053521390D3D553951010
330
1D4A5
 94
        0
  0
ACAD_PROXY_OBJECT
  5
1D571
330
1D4A5
100
AcDbProxyObject
 90
      499
 91
      509
 95
       25
 70
     0
 93
      108
310
0001014210535213941493D29010
330
1D4A5
 94
        0
  0
ACAD_PROXY_OBJECT
  5
1D572
330
1D4A5
100
AcDbProxyObject
 90
      499
 91
      509
 95
       25
 70
     0
 93
      108
310
0001014210535213951654115070
330
1D4A5
 94
        0
  0
ACAD_PROXY_OBJECT
  5
1D573
330
1D4A5
100
AcDbProxyObject
 90
      499
 91
      509
 95
       25
 70
     0
 93
      108
310
000101421053521395925155D0F0
330
1D4A5
 94
        0
  0
ACAD_PROXY_OBJECT
  5
1D574
330
1D4A5
100
AcDbProxyObject
 90
      499
 91
      509
 95
       25
 70
     0
 93
      140
310
00010143505354D150D51253D390D3D41660
330
1D4A5
 94
        0
  0
ACAD_PROXY_OBJECT
  5
1D575
330
1D4A5
100
AcDbProxyObject
 90
      499
 91
      509
 95
       25
 70
     0
 93
      108
310
00010142105350D3141493D29030
330
1D4A5
 94
        0
  0
ACAD_PROXY_OBJECT
  5
1D576
330
1D4A5
100
AcDbProxyObject
 90
      499
 91
      508
 95
       25
 70
     0
 93
      212
310
00010143905350555513D2105510D21493D500000000000002E400
330
1D4A5
 94
        0
  0
ACAD_PROXY_OBJECT
  5
1D577
330
1D4A5
100
AcDbProxyObject
 90
      499
 91
      509
 95
       25
 70
     0
 93
      156
310
00010143905350555513D2105510D21111551010
330
1D4A5
 94
        0
  0
ACAD_PROXY_OBJECT
  5
1D580
330
1D4A5
100
AcDbProxyObject
 90
      499
 91
      560
 95
       25
 70
     0
 93
      698
310
0001000000009AA6A9AA4051E4D6F6E204D61722030362030323A35333A323820323030362028555443290141CE4B8C8B8C0B8C80518467269204F63742030382031333A35333A323220323031300141CE4B8C8B8C0B8C80
330
1D4A5
330
1D581
330
1D582
330
1D584
330
0
 94
        0
  0
ACAD_PROXY_OBJECT
  5
1D581
330
1D4A5
100
AcDbProxyObject
 90
      499
 91
      561
 95
       25
 70
     0
 93
       70
310
0001AAA80820000000
330
1D4A5
330
1D581
330
1D581
 94
        0
  0
ACAD_PROXY_OBJECT
  5
1D582
330
1D4A5
100
AcDbProxyObject
 90
      499
 91
      562
 95
       25
 70
     0
 93
       48
310
000100000000
330
1D4A5
330
0
330
1D583
330
0
330
0
 94
        0
  0
ACAD_PROXY_OBJECT
  5
1D583
330
1D4A5
100
AcDbProxyObject
 90
      499
 91
      563
 95
       25
 70
     0
 93
       40
310
000100AAAA
330
1D4A5
330
0
 94
        0
  0
ACAD_PROXY_OBJECT
  5
1D589
330
1D4A5
100
AcDbProxyObject
 90
      499
 91
      522
 95
       25
 70
     0
 93
      180
310
00010143105050D3D35411119390535140504434F4D500
330
1D4A5
 94
        0
  0
ACAD_PROXY_OBJECT
  5
1D58A
330
1D4A5
100
AcDbProxyObject
 90
      499
 91
      522
 95
       25
 70
     0
 93
      212
310
0001014390505193D311115491119390535140506466F6C6465720
330
1D4A5
 94
        0
  0
ACAD_PROXY_OBJECT
  5
1D58B
330
1D4A5
100
AcDbProxyObject
 90
      499
 91
      522
 95
       25
 70
     0
 93
      180
310
00010143105050539393D1119390535140504284156290
330
1D4A5
 94
        0
  0
ACAD_PROXY_OBJECT
  5
1D58C
330
1D4A5
100
AcDbProxyObject
 90
      499
 91
      522
 95
       25
 70
     0
 93
      436
310
00010143905050D3D35415925155D31254D50052295BD96CA0A90B396CA0A894591A496CA0A8DB691A496CA0A89BA96CA0A95E28F95310
330
1D4A5
 94
        0
  0
ACAD_PROXY_OBJECT
  5
1D591
330
1D4A5
100
AcDbProxyObject
 90
      499
 91
      568
 95
       25
 70
     0
 93
       32
310
00010000
330
1D4A5
340
1D58E
330
1D593
330
1D58E
 94
        0
  0
ACAD_PROXY_OBJECT
  5
1D592
330
1D4A5
100
AcDbProxyObject
 90
      499
 91
      569
 95
       25
 70
     0
 93
       18
310
000180
330
1D4A5
 94
        0
  0
ACAD_PROXY_OBJECT
  5
1D593
330
1D4A5
100
AcDbProxyObject
 90
      499
 91
      570
 95
       25
 70
     0
 93
      226
310
00010144508C8D54CB54D11450D48C4C550CCB4CCC9050055401550000
330
1D4A5
330
1D591
330
1D592
 94
        0
  0
ACAD_PROXY_OBJECT
  5
1D594
330
1D4A5
100
AcDbProxyObject
 90
      499
 91
      571
 95
       25
 70
     0
 93
      178
310
000100AAAAAAA7DAC77B14E93CD225475B1CBC4D6A1400
330
1D4A5
330
1D593
 94
        0
  0
ACAD_PROXY_OBJECT
  5
1D595
330
1D4A5
100
AcDbProxyObject
 90
      499
 91
      572
 95
       25
 70
     0
 93
      108
310
000190140A000000000000AAAAA0
330
1D4A5
330
1D596
330
1D596
330
1D596
330
1D596
330
1D596
330
0
 94
        0
  0
ACAD_PROXY_OBJECT
  5
1D596
330
1D4A5
100
AcDbProxyObject
 90
      499
 91
      573
 95
       25
 70
     0
 93
       51
310
00010000AAAA80
330
1D4A5
330
1D595
330
1D593
 94
        0
  0
ACAD_PROXY_OBJECT
  5
1D599
330
1D4A5
100
AcDbProxyObject
 90
      499
 91
      522
 95
       25
 70
     0
 93
      140
310
00010142105350D55494D511005034A49530
330
1D4A5
 94
        0
  0
DICTIONARY
  5
40
102
{ACAD_REACTORS
330
3F
102
}
330
3F
100
AcDbDictionary
281
     1
  3
DWGSETTINGS
350
1D4A2
  3
TRANSSETTINGS
350
1D4A3
  0
ACAD_PROXY_OBJECT
  5
1D4B8
102
{ACAD_REACTORS
330
3F
102
}
330
3F
100
AcDbProxyObject
 90
      499
 91
      519
 95
       25
 70
     0
 93
    23256
310
41501491013041105357CC201C00030C0132441013141105357CC603800030C0132441013241105357CCA01400030C0132441013341105357CCE01800030C01199013441105357CD200C00030C01199013541105357CD600C00030C01199013641105357CDA00800030C01239013741105357CDE01000030C0119901384110
310
5357CE200400030C01199013941105357CE63F400030C0241102324141505357CC4C201C00030C0132902344141505357CC4C600C00030C0119902495041505357CC4CA01C00030C013240902304E41505357CC13A01C00030C0132902314E41505357CC53A03800030C0132902324E41505357CC93A01400030C013290233
310
4E41505357CCD3A01800030C0119902344E41505357CD13A00C00030C0119902354E41505357CD53A00C00030C0119902364E41505357CD93A00800030C0123902374E41505357CDD3A01000030C0119902384E41505357CE13A00400030C0119902394E41505357CE53A3F400030C024110332414E41905357CC4C13A01C0
310
0030C013290334414E41905357CC4C53A00C00030C011990349504E41905357CC4C93A01C00030C0132409044B4C494E41505357D0D3200400030C011942504494E464F42105357D410549151A01000030C011942D055241484D3541905357D093D4A01C00030C0132425045649455742105357D5925155D4E00400030C011
310
942D06424548494E4441905357D25395A3F400030C0243505545241494C41505357D514A00C00030C01194250348494441905357D21251201C00030C01194250356495341905357D59254E01C00030C01324250650415244494D42505357D41054911253600C00030C01194250652454644494D42505357D49151911253601
310
000030C0119425774110531514901348070000C3004C9034110915312501348000000C0003FFFFFFFD034110921395901398000000C0003FFFFFFFE415092139594D06424548494E448000000C0003FFFFFFFE411093125110234418000000C0003FFFFFFFD03411093D05410234418000000C0003FFFFFFFD03411093D48C
310
9055241484D358010000C300466411093D48CD055241484D358020000C30048E411093D48D5055241484D358000000C0003FFFFFFFE411093D48DD055241484D3581E0000C30051903411094105410234418000000C0003FFFFFFFD03411094115610234418000000C0003FFFFFFFD034110951112501358000000C0003FFF
310
FFFFD034110D0530C901348000000C0003FFFFFFFE4110D0530CD01348020000C30048E4110D0530D501348070000C3004CA4110D0530DD013481E0000C30051A4110D15393901378000000C0003FFFFFFFE4110D15395D01378000000C0003FFFFFFFE4110D312539044B4C494E8000000C0003FFFFFFFE4110D3D38C5013
310
08000000C0003FFFFFFFD034110D3D38C901318000000C0003FFFFFFFD034110D3D38CD01328000000C0003FFFFFFFD034110D3D38D101328000000C0003FFFFFFFD034111115494101348000000C0003FFFFFFFD034111115510501348000000C0003FFFFFFFE4111125051D01358000000C0003FFFFFFFE4111125312501
310
358000000C0003FFFFFFFE411112535410650415244494D8000000C0003FFFFFFFE411112535490652454644494D8000000C0003FFFFFFFE411156135410234418000000C0003FFFFFFFD034111915353901388000000C0003FFFFFFFE415191535413901388030000C3003FFFFFFFE4151915354D410234418000000C0003
310
FFFFFFFE4151915354D510234418030000C300466415191535593901328000000C0003FFFFFFFE415191535595101328030000C3004664111931055101308000000C0003FFFFFFFD03411194905490234418000000C0003FFFFFFFD034111D49312501358000000C0003FFFFFFFD034111D5931250234418000000C0003FFF
310
FFFFD034112105510D01388000000C0003FFFFFFFD014112125113901338000000C0003FFFFFFFD034112125115D01338000000C0003FFFFFFFD034112131253901348000000C0003FFFFFFFD01411213D0D3901378000000C0003FFFFFFFE411213D0D5D01378000000C0003FFFFFFFE4112539193D04494E464F8000000C
310
0003FFFFFFFE4113105112501348000000C0003FFFFFFFD034113115051101358000000C0003FFFFFFFE419397D0921395902394E8000000C0003FFFFFFFE419397D0D3D38C502304E8000000C0003FFFFFFFD03419397D0D3D38C902314E8000000C0003FFFFFFFD03419397D0D3D38CD02324E8000000C0003FFFFFFFD03
310
419397D0D3D38D102324E8000000C0003FFFFFFFD03419397D0D15393902374E8000000C0003FFFFFFFE419397D0D15395D02374E8000000C0003FFFFFFFE419397D1125312502354E8000000C0003FFFFFFFE419397D2105510D02384E8000000C0003FFFFFFFD01419397D2125113902334E8000000C0003FFFFFFFD0341
310
9397D2125115D02334E8000000C0003FFFFFFFD03419397D3115051102354E8000000C0003FFFFFFFE419397D391D25410349504E8000000C0003FFFFFFFE419397D412105390334414E8000000C0003FFFFFFFE419397D510D3D3902304E8000000C0003FFFFFFFD03419397D5121312502344E8000000C0003FFFFFFFD01
310
419397D5131153902304E8000000C0003FFFFFFFD03419397D516150CD02364E8000000C0003FFFFFFFD03419397D594131250332414E8000000C0003FFFFFFFE411391D25410249508000000C0003FFFFFFFE411410530C9055241484D358010000C300466411410530CD055241484D358020000C30048E411410530D5055
310
241484D358000000C0003FFFFFFFE411410530DD055241484D3581E0000C30051903411412105390234418000000C0003FFFFFFFE411413D4D3901368070000C3004CA419413D4D49151901368050000C3004C903411413D4D6101368000000C0003FFFFFFFD03411414D150D0234418000000C0003FFFFFFFD03411490D1D
310
3901378000000C0003FFFFFFFE411490D1D5D01378000000C0003FFFFFFFE4114919112501348000000C0003FFFFFFFD034114945514901348070000C3004C903411494D093D01348000000C0003FFFFFFFD034114D09492D01348000000C0003FFFFFFFD014114D0D153901378000000C0003FFFFFFFD034114D150D51013
310
48000000C0003FFFFFFFD014114D15313901378000000C0003FFFFFFFD034114D15315D01378000000C0003FFFFFFFD034114D4D654D01308000000C0003FFFFFFFD034114D51312501348070000C3004C9034114D6508C501358000000C0003FFFFFFFD034114D6508C901358000000C0003FFFFFFFD034114D6508CD0135
310
8020000C30048E4114D6508D501358070000C3004C9034114D65353901378000000C0003FFFFFFFD034114D65355D01378000000C0003FFFFFFFD03411510D3D3901308000000C0003FFFFFFFD034115121312501348000000C0003FFFFFFFD01411512550C9055241484D358010000C300466411512550CD055241484D358
310
020000C30048E411512550D5055241484D358000000C0003FFFFFFFE411512550DD055241484D3581E0000C300519034115131153901308000000C0003FFFFFFFD03415514905253105545241494C8000000C0003FFFFFFFE41151492D3901378000000C0003FFFFFFFD0341151492D5D01378000000C0003FFFFFFFD03411
310
5149312501348000000C0003FFFFFFFD01411516150C501368030000C300466411516150C901368030000C300466411516150CD01368000000C0003FFFFFFFE411516150D501368070000C3004CA411516150DD013681E0000C30051A4115925155D04564945578000000C0003FFFFFFFE41159151121034849448000000C0
310
003FFFFFFFD0241159151159035649538000000C0003FFFFFFFD02411594131250232418000000C0003FFFFFFFE4116925690501348000000C0003FFFFFFFD01411354D653501358020000C30048EAAA00000030401013F90A405194092340D1941119415324191941D3243932479467F6
340
16
340
16
340
16
340
43
340
16
340
16
340
16
340
44
340
16
340
16
340
44
340
45
340
16
340
16
340
16
340
16
340
43
340
16
340
16
340
16
340
44
340
16
340
16
340
44
340
45
340
16
340
46
340
16
340
16
340
16
340
16
340
16
340
43
340
16
340
16
340
16
340
47
340
15
340
15
340
15
340
15
340
15
340
15
340
15
340
15
340
15
340
15
340
15
340
15
340
15
340
15
340
15
340
15
340
48
340
15
340
15
340
15
340
15
340
15
340
15
340
15
340
15
340
15
340
15
340
15
340
15
340
15
340
15
340
15
340
16
340
15
340
15
340
15
340
15
340
15
340
15
340
15
340
15
340
47
340
15
340
15
340
48
340
15
340
15
340
15
340
15
340
15
340
15
340
15
340
15
340
15
340
48
340
15
340
15
340
15
340
47
340
15
340
15
340
15
340
15
340
15
340
15
340
15
340
15
340
15
340
15
340
15
340
15
340
15
340
15
340
15
340
15
340
15
340
15
340
15
340
48
340
15
340
15
340
48
340
15
340
15
340
16
340
15
340
48
340
15
340
15
340
47
340
15
340
15
340
16
340
15
340
48
340
15
340
15
340
15
340
15
340
15
340
15
340
15
340
15
340
15
340
48
340
15
340
15
340
15
340
15
340
15
340
15
340
15
340
15
340
15
340
15
340
15
340
4B
340
16
 94
        0
  0
XRECORD
  5
1DC06
102
{ACAD_REACTORS
330
1DC05
102
}
330
1DC05
100
AcDbXrecord
280
     1
330
0
330
0
330
0
330
0
330
0
330
0
330
0
330
0
330
0
330
0
330
0
330
0
330
0
330
0
330
0
330
0
330
0
330
0
330
0
330
0
330
0
330
0
330
0
330
0
330
0
330
0
330
0
330
0
330
0
330
0
330
0
330
0
330
0
330
0
330
0
330
0
330
0
330
0
330
0
330
0
330
0
330
0
330
0
330
0
330
0
330
0
330
0
330
0
330
0
330
0
330
0
330
0
330
0
330
0
330
0
330
0
330
0
330
0
330
0
330
0
330
0
330
0
330
0
330
0
330
0
330
0
330
0
330
0
330
0
330
0
330
0
330
0
  0
XRECORD
  5
2A41
102
{ACAD_REACTORS
330
2A40
102
}
330
2A40
100
AcDbXrecord
280
     1
  1
LINE
  0

  0
XRECORD
  5
2917
102
{ACAD_REACTORS
330
2916
102
}
330
2916
100
AcDbXrecord
280
     1
  1
25000259__00___
  0

  0
XRECORD
  5
2A3F
102
{ACAD_REACTORS
330
2A3E
102
}
330
2A3E
100
AcDbXrecord
280
     1
  1
110 ^M^J ^M^J ^M^J ^M^J ^M^J ^M^J ^M^J ^M^J ^M^J ^M^J ^M^Jボーリングクイル ^M^J鋼 ^M^J特型 ^M^J直付け ^M^Jストレート ^M^J25 ^M^J2 ^M^J ^M^Jアルミ ^M^J ^M^J
  0

  0
XRECORD
  5
168A
102
{ACAD_REACTORS
330
1688
102
}
330
1688
100
AcDbXrecord
280
     1
  1
1,,,,,,,,,^M^J2,,,,,,,,,^M^J3,,,,,,,,,^M^J4,,,,,,,,,^M^J5,,,,,,,,,^M^J6,,,,,,,,,^M^J7,,,,,,,,,^M^J8,,,,,,,,,^M^J9,,,,,,,,,^M^J10,,,,,,,,,
  0

  0
XRECORD
  5
1689
102
{ACAD_REACTORS
330
1688
102
}
330
1688
100
AcDbXrecord
280
     1
  1
10,10
  0

  0
XRECORD
  5
2919
102
{ACAD_REACTORS
330
2918
102
}
330
2918
100
AcDbXrecord
280
     1
  1
3
  0

  0
ACAD_PROXY_OBJECT
  5
1D4B5
102
{ACAD_REACTORS
330
1D4B4
102
}
330
1D4B4
100
AcDbProxyObject
 90
      499
 91
      521
 95
       25
 70
     0
 93
      157
310
057356C1D77406406AA8FFFFFFFF05DD01009010
330
1F
330
0
330
1D593
 94
        0
  0
ACAD_PROXY_OBJECT
  5
1D4E2
102
{ACAD_REACTORS
330
17E
102
}
330
17E
100
AcDbProxyObject
 90
      499
 91
      526
 95
       25
 70
     0
 93
     2379
310
5DC33333333333309408000000C00040D29254D01640600800030C0200800030C003333333333330940C8121E8720B1B6A9BAB9332A32BC3A29BA3220480A1282C6DA8C868CA6E8C88120286A0B1B6ABB2B63234B733A9BA3220480A1082C6DA92C8A6E8C88120285A0B1B6A230BA3AB6A9BA3220480A1282C6DA849E9AA6E
310
8C88120286A0B1A0B6B3AA34BA3632A9BA3220480A2082DAC8E888CAE8C2D2D8A6F2DAA6E8C88120288A0B6B23A29B2B1BA34B7B729BCB6A9BA3220480A2282DAC8E886CADCE8CAE498D2DCCAA6E8C88120288A0B6B23A2A343932B0B22634B732A9BA3220480A1682DAC8E89CDEE8CAA6E8C88120285A0B1A0B6B3A630BCA
310
9BA3220480A1682C682DACE88D2DAA6E8C88120288A0B1A0B6B3A437B632A1B430B93A29BA3220480C812020
340
180
360
1D4E3
360
1D4E4
360
1D4E5
360
1D4E6
360
1D4E7
360
1D4E8
360
1D59A
360
1D59B
360
1D59C
360
1D59E
360
1D59F
360
1D5A0
360
1D5A6
360
1D5A7
360
1D5A8
340
0
340
0
 94
        0
  0
ACAD_PROXY_OBJECT
  5
1D4A2
102
{ACAD_REACTORS
330
40
102
}
330
40
100
AcDbProxyObject
 90
      499
 91
      518
 95
       25
 70
     0
 93
     2616
310
4050B44574753455454494E4753A0E8482A68AA6A88882A069492A684A1A0A723A0A92920ACA0A8419983E1A1ABE1B1820C868A9C829C8E82A12686AF87260F862666A8321A2A72224A0A50000000000000122020E868A9C889282A682A106260F86460F8666083A1A2A72224A9AA250000000000000042020C868A9C988A9
310
C94000000000000048808321A2A727A32325000000000000012202128698929C82A4A482B282A06646A608421A624A722AA2CA820A82AC2624A722A1288AE8EAAA68682988A94283A620A9AA27A12520A8298A1181BA0A109A82968AAC928AAE9FA04832829A1A0A622830020000419491559254D2505404C1055343414C45
310
41503313A314214D510539110549110540D29254D0954494D455354414D504A0FB3B2A02792B734141D5915494D253D3905414C4D4B8C0C1107B44574753455454494E4753454E447D
  0
ACAD_PROXY_OBJECT
  5
1D4A3
102
{ACAD_REACTORS
330
40
102
}
330
40
100
AcDbProxyObject
 90
      499
 91
      518
 95
       25
 70
     0
 93
      852
310
4050D5452414E5353455454494E4753A2488A482AE929C8EA8A4829CA69882A8929E9C0C00800050D4F524947494E414C4C595F4F4E0600400008529A7AAA921A2A620A723A0A81A52827212AAA0A48AA68AA4AC8A0C0080001107B44574753455454494E4753454E447D0
  0
ACAD_PROXY_OBJECT
  5
1D4E3
330
1D4E2
100
AcDbProxyObject
 90
      499
 91
      527
 95
       25
 70
     0
 93
       86
310
5DEA0C80A0280A0280A034
  0
ACAD_PROXY_OBJECT
  5
1D4E4
330
1D4E2
100
AcDbProxyObject
 90
      499
 91
      528
 95
       25
 70
     0
 93
      282
310
5DD0E4050140501405014050140501405014050141101405014041000000000000001000
340
187
 94
        0
  0
ACAD_PROXY_OBJECT
  5
1D4E5
330
1D4E2
100
AcDbProxyObject
 90
      499
 91
      529
 95
       25
 70
     0
 93
      323
310
5DCC199999999999E99F91740501405014050140501405014050140501405014050140501405014040
340
0
 94
        0
  0
ACAD_PROXY_OBJECT
  5
1D4E6
330
1D4E2
100
AcDbProxyObject
 90
      499
 91
      530
 95
       25
 70
     0
 93
       10
310
5DC0
  0
ACAD_PROXY_OBJECT
  5
1D4E7
330
1D4E2
100
AcDbProxyObject
 90
      499
 91
      531
 95
       25
 70
     0
 93
      257
310
5DE0C16A22A7D90F49F80000000000001081400000000000004204010000618000
340
188
340
189
 94
        0
  0
ACAD_PROXY_OBJECT
  5
1D4E8
330
1D4E2
100
AcDbProxyObject
 90
      499
 91
      532
 95
       25
 70
     0
 93
     5277
310
5DD06411255115350141236025B6901405014069010000000000000910240690120281A8AA2CA0282484A4BE52028120280A032020000000000001220480D202405044E414D454050496BC914F4051C40640A80000000000004E4090193C3D3C4946284953424C414E4B28504152543A4E414D45292C424C4F434B3A4E414D
310
452C504152543A4E414D45293E3C41435F44455343524950544E3E40480A109A82A88AA492829880A091BBD2F7E80A3A80C81D0E27A15AF46E08A81203480901411393D5115014124A363B7D0147501904A0000000000000F902406428F4F1050D7D393D5114F901202832B22A72227A92028366EF6EE06F582028EA0320B4
310
0000000000001F20480C879E9E20A1AFAB27222FA620A122A61F20240506445020000000000000490201C00030C00010180000000000003E400000000000000F901073D3C4954454D3E4050180000000000003E400000000000000F901073D3C4954454D3E40501800000000000034400000000000000D101073D3C4954454
310
D3E40501800000000000034400000000000000D101073D3C4954454D3E405029010000000000000F9000000000000003E4041CF4F125511534F901418F4F1455164F9014060000000000000F9000000000000003E4041CF4F125511534F901800000000000034400000000000000D101073D3C4954454D3E40640400000000
310
0000003E400000000000000F90288800000000000020810000001800120881A068120480A032208521122080D21480D211480A1485214852050000000000003C2FC000000000000F0BF40600800030C0200400030C00CDCCCCCCCCCCEC3F3373333333333B0FC3333333333330940C80D069014090341504901A1999999999
310
9984A040100006180400800061804010000618008098A02808
340
0
340
0
 94
        0
  0
ACAD_PROXY_OBJECT
  5
1D59A
330
1D4E2
100
AcDbProxyObject
 90
      499
 91
      537
 95
       25
 70
     0
 93
     3042
310
5DD9740D29254D064A49535F413342929254D7D512551311505134A49535F42525F5265766973696F6E6C6973744190F4134522028323937783231306D6D2941D29254D7D04D1490E41312028353934783834316D6D2941929254D7D04C50F41344C2028323130783239376D6D2941D29254D7D04D1310E413320283239377
310
83432306D6D2941929254D7D04CD0E41322028343230783539346D6D2941929254D7D04C90F4130202838343178313138396D6D2941929254D7D04C10243129254C82557247A25E4C81050A4A49535F5449544C454143129254C82557247A25E4C81090A4A49535F5449544C45424110E979A97F0838A835883675F42525F4
310
4D29254D7D09497D4995D9A5CDA5BDB9B1A5CDD10E979A97F0838A835883675F54525F44D29254D7D51497D4995D9A5CDA5BDB9B1A5CDD10E979A97F0838A835883675F424C5F44D29254D7D09317D4995D9A5CDA5BDB9B1A5CDD10E979A97F0838A835883675F544C5F44D29254D7D51317D4995D9A5CDA5BDB9B1A5CDD00
  0
ACAD_PROXY_OBJECT
  5
1D59B
330
1D4E2
100
AcDbProxyObject
 90
      499
 91
      538
 95
       25
 70
     0
 93
      898
310
5DC4000000000000124048CF4F11115510525317D3105091530F880A0F11115510525317D05094D4D0D053114F8A50241C9A9999999999B93F26A666666666724FC000000000000E03F400000000000000400000000000000510000000000000024408070000C300000000000000049000
340
16
340
180
 94
        0
  0
ACAD_PROXY_OBJECT
  5
1D59C
330
1D4E2
100
AcDbProxyObject
 90
      499
 91
      539
 95
       25
 70
     0
 93
      823
310
5DC0B00000000000002480959E9E29A2A1AA24A7A72FA620A122A62FA324A929AA1F169E29A2A1AA24A7A72FA620A122A62FA620A9AA1F000000000000048803FFFE01C00030C008140380006180000000000000048800000000000000A2000000000000002480
340
652
340
180
 94
        0
  0
ACAD_PROXY_OBJECT
  5
1D59E
330
1D4E2
100
AcDbProxyObject
 90
      499
 91
      540
 95
       25
 70
     0
 93
      152
310
5DE8273108AC1C5A0640A3D0A5723F0BD1F200
  0
ACAD_PROXY_OBJECT
  5
1D59F
330
1D4E2
100
AcDbProxyObject
 90
      499
 91
      574
 95
       25
 70
     0
 93
       14
310
5DE0
340
0
 94
        0
  0
ACAD_PROXY_OBJECT
  5
1D5A0
330
1D4E2
100
AcDbProxyObject
 90
      499
 91
      541
 95
       25
 70
     0
 93
     6059
310
5DD084050BA4050AA405024050E836583938376838C815B83672031405983D3C486F6C653A6469613E3C696628657175616C28486F6C653A7465726D696E6174696F6E2C223022292C2220905B82B320222C22208368838A838B22293E3C696628657175616C28486F6C653A7465726D696E6174696F6E2C223022292C486F
310
6C653A64657074682C2222293E2C203C486F6C653A63746469613E2082B482AE82E882CC905B82B3203C486F6C653A637464657074683E406901405034050E836583938376838C815B83672031405EF3D3C486F6C653A6374616E676C653E252564202525633C486F6C653A63746469613E208E4D8C8A2C203C69662865717
310
5616C28486F6C653A7461707065642C223022292C22252563222C486F6C653A6E6F6D696E616C202220782022293E3C696628657175616C28486F6C653A7461707065642C223022292C486F6C653A6469612C486F6C653A706974636864657363293E203C696628657175616C28486F6C653A7465726D696E6174696F6E2C2
310
23022292C22905B82B320222C222022293E3C696628657175616C28486F6C653A7465726D696E6174696F6E2C223022292C486F6C653A64657074682C2222293E406901405014050E836583938376838C815B83672031405C73D3C696628657175616C28486F6C653A7461707065642C223022292C22252563222C486F6C65
310
3A6E6F6D696E616C202220782022293E3C696628657175616C28486F6C653A7461707065642C223022292C486F6C653A6469612C486F6C653A706974636864657363293E203C696628657175616C28486F6C653A7465726D696E6174696F6E2C223022292C22905B82B320222C222022293E3C696628657175616C28486F6C
310
653A7465726D696E6174696F6E2C223022292C486F6C653A64657074682C2222293E4069014051E4090E836583938376838C815B83672032405173D3C535444503A444553433E203C535444503A5354443E40690E836583938376838C815B836720314050C3D3C535444503A444553433E40690240515AAABBA120
360
1D5A4
330
1D5A4
360
1D5A5
330
1D5A5
360
1D5A3
330
1D5A3
360
1D5A2
360
1D5A1
330
1D5A2
330
1D5A1
 94
        0
  0
ACAD_PROXY_OBJECT
  5
1D5A6
330
1D4E2
100
AcDbProxyObject
 90
      499
 91
      542
 95
       25
 70
     0
 93
       26
310
5DD02A80
340
1D4B8
 94
        0
  0
ACAD_PROXY_OBJECT
  5
1D5A7
330
1D4E2
100
AcDbProxyObject
 90
      499
 91
      543
 95
       25
 70
     0
 93
      250
310
5DD020000000000000A1000000000000002440408F0F9023C3E409A0DCFFFF80
340
0
340
0
340
0
340
0
340
0
340
0
340
0
340
0
340
0
340
0
 94
        0
  0
ACAD_PROXY_OBJECT
  5
1D5A8
330
1D4E2
100
AcDbProxyObject
 90
      499
 91
      576
 95
       25
 70
     0
 93
    13889
310
5DD1D003FFFFFFFD030300030CCCCCCCCCCCC250200800030C01030300030CCCCCCCCCCCC250200800030C00050C8DC0955782CC838A83588367014ED1D15395149050D3CB1294138B0C0B23702555E0B320E2A0D620D9CB11D15395149055160B095CCB0A11D1539354D1C819D95B991A5B5E880CCC0A78000C0000000000
310
00000000000000000000010CCCCCCCCCCCC250200800030C010CCCCCCCCCCCC250200800030C020143CF4F111959985D5B1D151A5D1B194F8050A8C8A8365815B8375838B014E51D15395149050D3CB1294138B0C0B2322A0D96056E0DD60E2CB11D15395149055160B095CCB0A11D1539354D1C819D95B991A5B5E880CCC4
310
A78000C000000000000000000000000000000010CCCCCCCCCCCC250200800030C010CCCCCCCCCCCC250200800030C020143CF4F111959985D5B1D151A5D1B194F90D44111409034110541D0C4350F4050E44D03449074510F000141232D24D7C053247454E545241434F2C4A504E2C302C8CB4935F2C47454E54524154582C
310
25732C2847454E4D53472067656E64696D7A20312900010104002214000281464500A608E8A9CA8A482869E5894A09C5860591914588E8A9CA8A482A8B0584AE658508E8A9C9AA68E40CECADCC8D2DAF4406452029E9E9E27B934B3B4B71F1E24A31427A91424A9A12620A7259427B934B3B4B7149624A9A12620A7259424B
310
A32B6949496111116111711149F1E24BA32B69F00808200111A000140560052F47454E545241434F2C4A504E2C302C582C47454E54524154582C25732C2847454E4D53472067656E64696D7A20332900010100002054000280AC80A5E8E8A9CA8A482869E5894A09C586058B2588E8A9CA8A482A8B0584AE658508E8A9C9AA
310
68E40CECADCC8D2DAF4406852000202000040E800050152014BD1D15395149050D3CB1294138B0C0B148B11D15395149055160B095CCB0A11D1539354D1C819D95B991A5B5E880D8A400040400008250000A0507A6029823A2A72A2920A1A79625282716181641E99623A2A72A2920AA2C1612B9961423A2A726A9A39033B2
310
B73234B6BD101B948000808180105A000140A0F4C053047454E545241434F2C4A504E2C302C83D32C47454E54524154582C25732C2847454E4D53472067656E64696D7A203829000101010020F400028248704B5F00A668E8A9CA8A482869E5894A09C58605921C12D7C588E8A9CA8A482A8B0584AE658508E8A9C9AA68E40
310
CECADCC8D2DAF440646052000200080043280005048B4B8A69014CD1D15395149050D3CB1294138B0C0B22D2E29A4B11D15395149055160B095CCB0A11D1539354D1C819D95B991A5B5E880C8C4A4000400100086D0000A09196926BE029923A2A72A2920A1A796252827161816465A49AF9623A2A72A2920AA2C1612B9961
310
423A2A726A9A39033B2B73234B6BD10189480A02620202080043E80005048D8096DA014CD1D15395149050D3CB1294138B0C0B236025B68B11D15395149055160B095CCB0A11D1539354D1C819D95B991A5B5E880C4D0A4000404140280D0000A190687072706CD06C5069D06B0029DA3A2A72A2920A1A7962528271618164
310
1A1C1C9C1B341B141A741AC1623A2A72A2920AA2C1612B9961423A2A726A9A39033B2B73234B6BD10189A94800080820050EA000143A322A0D0E0E4E0D9A0D8A0D3A0D60053D47454E545241434F2C4A504E2C302C8C8A8343839383668362834E83582C47454E54524154582C25732C2847454E4D53472067656E64696D7A
310
2031372900010105002274000281464500A628E8A9CA8A482869E5894A09C5860591914588E8A9CA8A482A8B0584AE658508E8A9C9AA68E40CECADCC8D2DAF440626C52000202080044A8000504909497CA014CD1D15395149050D3CB1294138B0C0B242525F28B11D15395149055160B095CCB0A11D1539354D1C819D95B9
310
91A5B5E880C4E4A400040418008A521E000000000000001CA040C00000000000034408080000000000006881010000000000000D102040000000000001A204080000000000003440818000000000000728103000000000000125020600000000004028A040000000000000034408000000000000004881000000000000000D
310
102000000000000001A204000000000000003440818000000000000508143C0000000000000039408180000000000006881030000000000000D102060000000000001A2040C00000000000034408180000000000006881030000000000000E5020600000000000024A040C0000000000805140800000000000000688100000
310
00000000009102000000000000001A2040000000000000034408180000000000006881030000000000000A10284220000000878000002020000008380000020400000081800000208000000828000002028900000000
340
0
340
0
340
0
340
0
340
180
340
180
 94
        0
  0
ACAD_PROXY_OBJECT
  5
1D5A4
330
1D5A0
100
AcDbProxyObject
 90
      499
 91
      575
 95
       25
 70
     0
 93
     1376
310
5DE0143A0D960E4E0DDA0E32056E0D9C80C405983D3C486F6C653A6469613E3C696628657175616C28486F6C653A7465726D696E6174696F6E2C223022292C2220905B82B320222C22208368838A838B22293E3C696628657175616C28486F6C653A7465726D696E6174696F6E2C223022292C486F6C653A64657074682C22
310
22293E2C203C486F6C653A63746469613E2082B482AE82E882CC905B82B3203C486F6C653A637464657074683E
  0
ACAD_PROXY_OBJECT
  5
1D5A5
330
1D5A0
100
AcDbProxyObject
 90
      499
 91
      575
 95
       25
 70
     0
 93
     2072
310
5DE0143A0D960E4E0DDA0E32056E0D9C80C405EF3D3C486F6C653A6374616E676C653E252564202525633C486F6C653A63746469613E208E4D8C8A2C203C696628657175616C28486F6C653A7461707065642C223022292C22252563222C486F6C653A6E6F6D696E616C202220782022293E3C696628657175616C28486F6C
310
653A7461707065642C223022292C486F6C653A6469612C486F6C653A706974636864657363293E203C696628657175616C28486F6C653A7465726D696E6174696F6E2C223022292C22905B82B320222C222022293E3C696628657175616C28486F6C653A7465726D696E6174696F6E2C223022292C486F6C653A6465707468
310
2C2222293E
  0
ACAD_PROXY_OBJECT
  5
1D5A3
330
1D5A0
100
AcDbProxyObject
 90
      499
 91
      575
 95
       25
 70
     0
 93
     1752
310
5DE0143A0D960E4E0DDA0E32056E0D9C80C405C73D3C696628657175616C28486F6C653A7461707065642C223022292C22252563222C486F6C653A6E6F6D696E616C202220782022293E3C696628657175616C28486F6C653A7461707065642C223022292C486F6C653A6469612C486F6C653A706974636864657363293E20
310
3C696628657175616C28486F6C653A7465726D696E6174696F6E2C223022292C22905B82B320222C222022293E3C696628657175616C28486F6C653A7465726D696E6174696F6E2C223022292C486F6C653A64657074682C2222293E
  0
ACAD_PROXY_OBJECT
  5
1D5A2
330
1D5A0
100
AcDbProxyObject
 90
      499
 91
      575
 95
       25
 70
     0
 93
      344
310
5DE0143A0D960E4E0DDA0E32056E0D9C80C805173D3C535444503A444553433E203C535444503A5354443E
  0
ACAD_PROXY_OBJECT
  5
1D5A1
330
1D5A0
100
AcDbProxyObject
 90
      499
 91
      575
 95
       25
 70
     0
 93
      256
310
5DE0143A0D960E4E0DDA0E32056E0D9C80C4050C3D3C535444503A444553433E
  0
ENDSEC
  0
EOF
