  0
SECTION
  2
HEADER
  9
$ACADVER
  1
AC1015
  9
$ACADMAINTVER
 70
     6
  9
$DWGCODEPAGE
  3
ANSI_932
  9
$INSBASE
 10
0.0
 20
0.0
 30
0.0
  9
$EXTMIN
 10
-77.15174690755111
 20
-138.7934022838707
 30
-0.0000000000000152
  9
$EXTMAX
 10
260.2584137521403
 20
42.57377459216673
 30
0.0000000000000153
  9
$LIMMIN
 10
0.0
 20
0.0
  9
$LIMMAX
 10
420.0
 20
297.0
  9
$ORTHOMODE
 70
     0
  9
$REGENMODE
 70
     1
  9
$FILLMODE
 70
     1
  9
$QTEXTMODE
 70
     0
  9
$MIRRTEXT
 70
     1
  9
$LTSCALE
 40
1.0
  9
$ATTMODE
 70
     1
  9
$TEXTSIZE
 40
4.0
  9
$TRACEWID
 40
1.0
  9
$TEXTSTYLE
  7
STANDARD
  9
$CLAYER
  8
AM_0
  9
$CELTYPE
  6
ByLayer
  9
$CECOLOR
 62
   256
  9
$CELTSCALE
 40
1.0
  9
$DISPSILH
 70
     0
  9
$DIMSCALE
 40
1.0
  9
$DIMASZ
 40
2.5
  9
$DIMEXO
 40
0.0
  9
$DIMDLI
 40
10.0
  9
$DIMRND
 40
0.0
  9
$DIMDLE
 40
0.0
  9
$DIMEXE
 40
1.0
  9
$DIMTP
 40
0.1
  9
$DIMTM
 40
0.1000000001
  9
$DIMTXT
 40
3.8
  9
$DIMCEN
 40
0.0
  9
$DIMTSZ
 40
0.0
  9
$DIMTOL
 70
     0
  9
$DIMLIM
 70
     0
  9
$DIMTIH
 70
     0
  9
$DIMTOH
 70
     0
  9
$DIMSE1
 70
     0
  9
$DIMSE2
 70
     0
  9
$DIMTAD
 70
     3
  9
$DIMZIN
 70
     1
  9
$DIMBLK
  1
Open30
  9
$DIMASO
 70
     1
  9
$DIMSHO
 70
     1
  9
$DIMPOST
  1

  9
$DIMAPOST
  1
"
  9
$DIMALT
 70
     0
  9
$DIMALTD
 70
     2
  9
$DIMALTF
 40
0.0393701
  9
$DIMLFAC
 40
1.0
  9
$DIMTOFL
 70
     1
  9
$DIMTVP
 40
0.0
  9
$DIMTIX
 70
     0
  9
$DIMSOXD
 70
     0
  9
$DIMSAH
 70
     0
  9
$DIMBLK1
  1

  9
$DIMBLK2
  1

  9
$DIMSTYLE
  2
AM_JIS
  9
$DIMCLRD
 70
   256
  9
$DIMCLRE
 70
   256
  9
$DIMCLRT
 70
     2
  9
$DIMTFAC
 40
0.71
  9
$DIMGAP
 40
1.5
  9
$DIMJUST
 70
     0
  9
$DIMSD1
 70
     0
  9
$DIMSD2
 70
     0
  9
$DIMTOLJ
 70
     0
  9
$DIMTZIN
 70
     8
  9
$DIMALTZ
 70
     0
  9
$DIMALTTZ
 70
     0
  9
$DIMUPT
 70
     0
  9
$DIMDEC
 70
     0
  9
$DIMTDEC
 70
     2
  9
$DIMALTU
 70
     2
  9
$DIMALTTD
 70
     2
  9
$DIMTXSTY
  7
STANDARD
  9
$DIMAUNIT
 70
     1
  9
$DIMADEC
 70
     0
  9
$DIMALTRND
 40
0.0
  9
$DIMAZIN
 70
     2
  9
$DIMDSEP
 70
    46
  9
$DIMATFIT
 70
     3
  9
$DIMFRAC
 70
     0
  9
$DIMLDRBLK
  1
Open30
  9
$DIMLUNIT
 70
     2
  9
$DIMLWD
 70
    -1
  9
$DIMLWE
 70
    -1
  9
$DIMTMOVE
 70
     0
  9
$LUNITS
 70
     2
  9
$LUPREC
 70
     2
  9
$SKETCHINC
 40
1.0
  9
$FILLETRAD
 40
0.8
  9
$AUNITS
 70
     1
  9
$AUPREC
 70
     5
  9
$MENU
  1
.
  9
$ELEVATION
 40
0.0
  9
$PELEVATION
 40
0.0
  9
$THICKNESS
 40
0.0
  9
$LIMCHECK
 70
     0
  9
$CHAMFERA
 40
10.0
  9
$CHAMFERB
 40
10.0
  9
$CHAMFERC
 40
20.0
  9
$CHAMFERD
 40
0.0
  9
$SKPOLY
 70
     0
  9
$TDCREATE
 40
2451943.610431667
  9
$TDUCREATE
 40
2451943.235431667
  9
$TDUPDATE
 40
2455441.628954167
  9
$TDUUPDATE
 40
2455441.253954167
  9
$TDINDWG
 40
1.9756911227
  9
$TDUSRTIMER
 40
1.9756909491
  9
$USRTIMER
 70
     1
  9
$ANGBASE
 50
0.0
  9
$ANGDIR
 70
     0
  9
$PDMODE
 70
     0
  9
$PDSIZE
 40
0.0
  9
$PLINEWID
 40
0.0
  9
$SPLFRAME
 70
     0
  9
$SPLINETYPE
 70
     6
  9
$SPLINESEGS
 70
     8
  9
$HANDSEED
  5
1F361
  9
$SURFTAB1
 70
     6
  9
$SURFTAB2
 70
     6
  9
$SURFTYPE
 70
     6
  9
$SURFU
 70
     6
  9
$SURFV
 70
     6
  9
$UCSBASE
  2

  9
$UCSNAME
  2

  9
$UCSORG
 10
0.0
 20
0.0
 30
0.0
  9
$UCSXDIR
 10
1.0
 20
0.0
 30
0.0
  9
$UCSYDIR
 10
0.0
 20
1.0
 30
0.0
  9
$UCSORTHOREF
  2

  9
$UCSORTHOVIEW
 70
     0
  9
$UCSORGTOP
 10
0.0
 20
0.0
 30
0.0
  9
$UCSORGBOTTOM
 10
0.0
 20
0.0
 30
0.0
  9
$UCSORGLEFT
 10
0.0
 20
0.0
 30
0.0
  9
$UCSORGRIGHT
 10
0.0
 20
0.0
 30
0.0
  9
$UCSORGFRONT
 10
0.0
 20
0.0
 30
0.0
  9
$UCSORGBACK
 10
0.0
 20
0.0
 30
0.0
  9
$PUCSBASE
  2

  9
$PUCSNAME
  2

  9
$PUCSORG
 10
0.0
 20
0.0
 30
0.0
  9
$PUCSXDIR
 10
1.0
 20
0.0
 30
0.0
  9
$PUCSYDIR
 10
0.0
 20
1.0
 30
0.0
  9
$PUCSORTHOREF
  2

  9
$PUCSORTHOVIEW
 70
     0
  9
$PUCSORGTOP
 10
0.0
 20
0.0
 30
0.0
  9
$PUCSORGBOTTOM
 10
0.0
 20
0.0
 30
0.0
  9
$PUCSORGLEFT
 10
0.0
 20
0.0
 30
0.0
  9
$PUCSORGRIGHT
 10
0.0
 20
0.0
 30
0.0
  9
$PUCSORGFRONT
 10
0.0
 20
0.0
 30
0.0
  9
$PUCSORGBACK
 10
0.0
 20
0.0
 30
0.0
  9
$USERI1
 70
     0
  9
$USERI2
 70
     0
  9
$USERI3
 70
     0
  9
$USERI4
 70
     0
  9
$USERI5
 70
     0
  9
$USERR1
 40
0.0
  9
$USERR2
 40
0.0
  9
$USERR3
 40
0.0
  9
$USERR4
 40
0.0
  9
$USERR5
 40
0.0
  9
$WORLDVIEW
 70
     1
  9
$SHADEDGE
 70
     3
  9
$SHADEDIF
 70
    70
  9
$TILEMODE
 70
     1
  9
$MAXACTVP
 70
    64
  9
$PINSBASE
 10
0.0
 20
0.0
 30
0.0
  9
$PLIMCHECK
 70
     0
  9
$PEXTMIN
 10
1.000000000000000E+20
 20
1.000000000000000E+20
 30
1.000000000000000E+20
  9
$PEXTMAX
 10
-1.000000000000000E+20
 20
-1.000000000000000E+20
 30
-1.000000000000000E+20
  9
$PLIMMIN
 10
0.0
 20
0.0
  9
$PLIMMAX
 10
420.0
 20
297.0
  9
$UNITMODE
 70
     0
  9
$VISRETAIN
 70
     1
  9
$PLINEGEN
 70
     0
  9
$PSLTSCALE
 70
     1
  9
$TREEDEPTH
 70
  3020
  9
$CMLSTYLE
  2
Standard
  9
$CMLJUST
 70
     0
  9
$CMLSCALE
 40
20.0
  9
$PROXYGRAPHICS
 70
     1
  9
$MEASUREMENT
 70
     1
  9
$CELWEIGHT
370
    -1
  9
$ENDCAPS
280
     0
  9
$JOINSTYLE
280
     0
  9
$LWDISPLAY
290
     0
  9
$INSUNITS
 70
     4
  9
$HYPERLINKBASE
  1

  9
$STYLESHEET
  1
sei_cad.ctb
  9
$XEDIT
290
     1
  9
$CEPSNTYPE
380
     0
  9
$PSTYLEMODE
290
     1
  9
$FINGERPRINTGUID
  2
{C77AB3BE-9CA2-11D3-BAF3-006094EB760E}
  9
$VERSIONGUID
  2
{8F4B761E-A830-474D-A756-E2A40ECEC921}
  9
$EXTNAMES
290
     1
  9
$PSVPSCALE
 40
0.0
  9
$OLESTARTUP
290
     0
  0
ENDSEC
  0
SECTION
  2
CLASSES
  0
CLASS
  1
ACDBDICTIONARYWDFLT
  2
AcDbDictionaryWithDefault
  3
ObjectDBX Classes
 90
        0
280
     0
281
     0
  0
CLASS
  1
ACDBPLACEHOLDER
  2
AcDbPlaceHolder
  3
ObjectDBX Classes
 90
        0
280
     0
281
     0
  0
CLASS
  1
LAYOUT
  2
AcDbLayout
  3
ObjectDBX Classes
 90
        0
280
     0
281
     0
  0
CLASS
  1
ACME_DOCUMENT
  2
AcMeDbDoc
  3
AcMeServices
 90
        0
280
     1
281
     0
  0
CLASS
  1
ACMESCOPE
  2
AcMeScope
  3
AcMeServices
 90
        0
280
     1
281
     0
  0
CLASS
  1
ACMECOMMANDHISTORY
  2
AcMeCommandHistory
  3
AcMeServices
 90
        0
280
     1
281
     0
  0
CLASS
  1
DICTIONARYVAR
  2
AcDbDictionaryVar
  3
ObjectDBX Classes
 90
        0
280
     0
281
     0
  0
CLASS
  1
ACIMSYSVARMAN
  2
AcImSysVarManager
  3
AcMeServices
 90
        0
280
     1
281
     0
  0
CLASS
  1
ACIMREALSYSVAR
  2
AcImRealSysVar
  3
AcMeServices
 90
        0
280
     1
281
     0
  0
CLASS
  1
ACIMINTSYSVAR
  2
AcImIntSysVar
  3
AcMeServices
 90
        0
280
     1
281
     0
  0
CLASS
  1
ACMEDRAWINGMAN
  2
AcMeDrawingMan
  3
AcMeServices
 90
        0
280
     1
281
     0
  0
CLASS
  1
ACMEVIEW
  2
AcMeView
  3
AcMeServices
 90
        0
280
     1
281
     0
  0
CLASS
  1
ACDBENTITYCACHE
  2
AcMeEntityCache
  3
AcMeServices
 90
        0
280
     1
281
     0
  0
CLASS
  1
GSMANAGER
  2
AcMeGSManager
  3
AcMeServices
 90
        0
280
     1
281
     0
  0
CLASS
  1
AMDTINTERNALREACTOR
  2
AmdtInternalReactor
  3
AcMeServices
 90
        0
280
     1
281
     0
  0
CLASS
  1
ACMESTATEMGR
  2
AcMeStateMgr
  3
AcMeServices
 90
        0
280
     1
281
     0
  0
CLASS
  1
ACME_DATABASE
  2
AcMeDbDatabase
  3
AcMeServices
 90
        0
280
     1
281
     0
  0
CLASS
  1
ACRFINSADJUSTERMGR
  2
AcRfInsAdjusterMgr
  3
AcMeServices
 90
        0
280
     1
281
     0
  0
CLASS
  1
AMGSETTINGSOBJ
  2
AmgSettingsObj
  3
"AcadM|Product Description: AutoCAD Mechanical 2000|Company: Autodesk"
 90
        0
280
     1
281
     0
  0
CLASS
  1
AMGOBJPROPCFG
  2
AmgObjPropCfg
  3
"AmgLay|Product Description: AutoCAD Mechanical 2000|Company: Autodesk"
 90
        1
280
     1
281
     0
  0
CLASS
  1
ACMDATADICTIONARY
  2
AcmDataDictionary
  3
"AcmSymBB|Product Description: AutoCAD Mechanical 2004 DX|Company: Autodesk"
 90
        0
280
     1
281
     0
  0
CLASS
  1
ACMDATAENTRYBLOCK
  2
AcmDataEntryBlock
  3
"AcmSymBB|Product Description: AutoCAD Mechanical 2004 DX|Company: Autodesk"
 90
        0
280
     1
281
     0
  0
CLASS
  1
ACIMSTRSYSVAR
  2
AcImStrSysVar
  3
AcMeServices
 90
        0
280
     1
281
     0
  0
CLASS
  1
ACAMGFILTERDAT
  2
AcAmgFilterDat
  3
"AcadM|Product Description: AutoCAD Mechanical 2000|Company: Autodesk"
 90
        0
280
     1
281
     0
  0
CLASS
  1
LAYER_INDEX
  2
AcDbLayerIndex
  3
ObjectDBX Classes
 90
        0
280
     0
281
     0
  0
CLASS
  1
IDBUFFER
  2
AcDbIdBuffer
  3
ObjectDBX Classes
 90
        0
280
     0
281
     0
  0
CLASS
  1
ACMSTANDARDJIS
  2
AcmStandardJIS
  3
"Amdt_StdImp|Product Description: AutoCAD Mechanical 2004 DX|Company: Autodesk"
 90
        0
280
     1
281
     0
  0
CLASS
  1
ACMSURFSTANDARDJIS
  2
AcmSurfTextStdJIS
  3
"Amdt_StdImp|Product Description: AutoCAD Mechanical 2004 DX|Company: Autodesk"
 90
        0
280
     1
281
     0
  0
CLASS
  1
ACMFCFSTANDARDJIS
  2
AcmFCFStdJIS
  3
"Amdt_StdImp|Product Description: AutoCAD Mechanical 2004 DX|Company: Autodesk"
 90
        0
280
     1
281
     0
  0
CLASS
  1
ACMWELDSTANDARDJIS
  2
AcmWeldingStdJIS
  3
"Amdt_StdImp|Product Description: AutoCAD Mechanical 2004 DX|Company: Autodesk"
 90
        0
280
     1
281
     0
  0
CLASS
  1
ACMIDSTANDARDJIS
  2
AcmIdStdJIS
  3
"Amdt_StdImp|Product Description: AutoCAD Mechanical 2004 DX|Company: Autodesk"
 90
        0
280
     1
281
     0
  0
CLASS
  1
ACMDATUMSTANDARDJIS
  2
AcmDatumStdJIS
  3
"Amdt_StdImp|Product Description: AutoCAD Mechanical 2004 DX|Company: Autodesk"
 90
        0
280
     1
281
     0
  0
CLASS
  1
ACMBOMSTANDARDJIS
  2
AcmBOMStdJIS
  3
"Amdt_StdImp|Product Description: AutoCAD Mechanical 2004 DX|Company: Autodesk"
 90
        0
280
     1
281
     0
  0
CLASS
  1
AMDTNOTE
  2
AmdtNote
  3
"AcmSymBB|Product Description: AutoCAD Mechanical 2004 DX|Company: Autodesk"
 90
     1023
280
     1
281
     1
  0
CLASS
  1
TABLESTYLE
  2
AcDbTableStyle
  3
ObjectDBX Classes
 90
     2047
280
     0
281
     0
  0
CLASS
  1
ACGREFMASTER
  2
AcGrefMaster
  3
AcAttribServices
 90
        0
280
     1
281
     0
  0
CLASS
  1
AM_DRAWING_MGR
  2
AcDmDwgMgr
  3
AcMechDwgViewMgmt
 90
        0
280
     1
281
     0
  0
CLASS
  1
AM_DWG_DOCUMENT
  2
AcDmDwgDocument
  3
AcMechDwgViewMgmt
 90
        0
280
     1
281
     0
  0
CLASS
  1
AM_DWG_SHEET
  2
AcDmSheet
  3
AcMechDwgViewMgmt
 90
        0
280
     1
281
     0
  0
CLASS
  1
AM_VIEWDIMPARMAP
  2
AcDmViewDimParMap
  3
AcMechDwgViewMgmt
 90
        0
280
     1
281
     0
  0
CLASS
  1
AM_DWGMGR_NAME
  2
AcDmDwgMgrName
  3
AcMechDwgViewMgmt
 90
        0
280
     1
281
     0
  0
CLASS
  1
ACGREFACADMASTER
  2
AcGrefacadMaster
  3
AcGrefServices
 90
        0
280
     1
281
     0
  0
CLASS
  1
AMDTMENUSTATEMGR
  2
AmdtMenuStateMgr
  3
McadcomServices
 90
        0
280
     1
281
     0
  0
CLASS
  1
AMDTMCOMMENUSTATE
  2
AmdtMcomMenuState
  3
McadcomServices
 90
        0
280
     1
281
     0
  0
CLASS
  1
AMIMASTER
  2
AmiMaster
  3
AmiServices
 90
        0
280
     1
281
     0
  0
CLASS
  1
MAPIAMMOUDLE
  2
MApiAmModule
  3
MApiAmServices
 90
        0
280
     1
281
     0
  0
CLASS
  1
AMDTADMENUSTATE
  2
AmdtAdMenuState
  3
DesignerServices
 90
        0
280
     1
281
     0
  0
CLASS
  1
ADAPPL
  2
AcAdAppl
  3
DesignerServices
 90
        0
280
     1
281
     0
  0
CLASS
  1
DEPMGR
  2
AcAdDepMgr
  3
DesignerServices
 90
        0
280
     1
281
     0
  0
CLASS
  1
PARAMMGR
  2
AcAdParamMgr
  3
DesignerServices
 90
        0
280
     1
281
     0
  0
CLASS
  1
PARAMSCOPE
  2
AcAdParamScope
  3
DesignerServices
 90
        0
280
     1
281
     0
  0
CLASS
  1
NAMEDAPPL
  2
AcAdNamedAppl
  3
DesignerServices
 90
        0
280
     1
281
     0
  0
CLASS
  1
AMDTDMMENUSTATE
  2
AmdtDmMenuState
  3
AcMechDwgViewMgmt
 90
        0
280
     1
281
     0
  0
CLASS
  1
AMDTAMMENUSTATE
  2
AmdtAmMenuState
  3
DesignerAssemblies
 90
        0
280
     1
281
     0
  0
CLASS
  1
ACAMPROJECT
  2
AcAmProject
  3
DesignerAssemblies
 90
        0
280
     1
281
     0
  0
CLASS
  1
ACAMGRCOMPDEF
  2
AcAmGrCompDef
  3
DesignerAssemblies
 90
        0
280
     1
281
     0
  0
CLASS
  1
ACCMCONTEXT
  2
AcCmContext
  3
DesignerAssemblies
 90
        0
280
     1
281
     0
  0
CLASS
  1
ACAMCOMPDEF
  2
AcAmCompDef
  3
DesignerAssemblies
 90
        0
280
     1
281
     0
  0
CLASS
  1
ACAMCOMPDEFMGR
  2
AcAmCompDefMgr
  3
DesignerAssemblies
 90
        0
280
     1
281
     0
  0
CLASS
  1
AMCONTEXTMGR
  2
AcAmContextMgr
  3
DesignerAssemblies
 90
        0
280
     1
281
     0
  0
CLASS
  1
ACAMCONTEXTMODELER
  2
AcAmContextModeler
  3
DesignerAssemblies
 90
        0
280
     1
281
     0
  0
CLASS
  1
ACAMGTITLESTD
  2
AcAmgTitleStd
  3
"TITLEAPP"
 90
        0
280
     1
281
     0
  0
CLASS
  1
ACMDETAILSTANDARDJIS
  2
AmdtDetailSymStdJIS
  3
"Amdt_StdImp|Product Description: AutoCAD Mechanical 2004 DX|Company: Autodesk"
 90
        0
280
     1
281
     0
  0
CLASS
  1
ACMSECTIONSTANDARDJIS
  2
AmdtSectionSymStdJIS
  3
"Amdt_StdImp|Product Description: AutoCAD Mechanical 2004 DX|Company: Autodesk"
 90
        0
280
     1
281
     0
  0
CLASS
  1
ACMCENTERLINESTANDARDJIS
  2
AmdtCenterLineStdJIS
  3
"Amdt_StdImp|Product Description: AutoCAD Mechanical 2004 DX|Company: Autodesk"
 90
        0
280
     1
281
     0
  0
CLASS
  1
ACMTHREADLINESTANDARDJIS
  2
AmdtThreadLineStdJIS
  3
"Amdt_StdImp|Product Description: AutoCAD Mechanical 2004 DX|Company: Autodesk"
 90
        0
280
     1
281
     0
  0
CLASS
  1
ACMNOTESTANDARDJIS
  2
AmdtNoteStdJIS
  3
"Amdt_StdImp|Product Description: AutoCAD Mechanical 2004 DX|Company: Autodesk"
 90
        0
280
     1
281
     0
  0
CLASS
  1
AMDTNOTETEMPLATEDB
  2
AmdtNoteTemplateDB
  3
AMDT_STDIMP_MODULE_NAME
 90
        0
280
     1
281
     0
  0
CLASS
  1
ACAMGLAYSTD
  2
AcAmgLayStd
  3
"AcAmgLayStd|Product Description: AutoCAD Mechanical 2000|Company: Autodesk"
 90
        0
280
     1
281
     0
  0
CLASS
  1
ACAMGDIMSTD
  2
AcAmgDimStd
  3
"AcAmgDimStd|Product Description: AutoCAD Mechanical 2000|Company: Autodesk"
 90
        0
280
     1
281
     0
  0
CLASS
  1
ACAMGHOLECHARTSTDJIS
  2
AcAmgHoleChartStdJIS
  3
ACMSYMBB_MODULE_NAME
 90
        0
280
     1
281
     0
  0
CLASS
  1
CATALOGSTATE
  2
AcAmCatalogState
  3
DesignerAssemblies
 90
        0
280
     1
281
     0
  0
CLASS
  1
ACAMGRCOMPDEFSET
  2
AcAmGrCompDefSet
  3
DesignerAssemblies
 90
        0
280
     1
281
     0
  0
CLASS
  1
AMDTBROWSERDBTAB
  2
AmdtBrowserDbTab
  3
McadcomServices
 90
        0
280
     1
281
     0
  0
CLASS
  1
CBROWSERAPPOBJECT
  2
CBrowserAppObject
  3
McadcomServices
 90
        0
280
     1
281
     0
  0
CLASS
  1
DM_PLACEHOLDER
  2
AcDmSelsetPlaceholder
  3
AcMechDwgViewMgmt
 90
        0
280
     1
281
     0
  0
CLASS
  1
SORTENTSTABLE
  2
AcDbSortentsTable
  3
ObjectDBX Classes
 90
        0
280
     0
281
     0
  0
CLASS
  1
ACMSTANDARDISO
  2
AcmStandardISO
  3
"Amdt_StdImp|Product Description: AutoCAD Mechanical 2004 DX|Company: Autodesk"
 90
        0
280
     1
281
     0
  0
CLASS
  1
AMDTEDGESTANDARDISO13715
  2
AmdtEdgeStdISO13715
  3
"Amdt_StdImp|Product Description: AutoCAD Mechanical 2004 DX|Company: Autodesk"
 90
        0
280
     1
281
     0
  0
CLASS
  1
ACMSURFSTANDARDISO
  2
AcmSurfTextStdISO
  3
"Amdt_StdImp|Product Description: AutoCAD Mechanical 2004 DX|Company: Autodesk"
 90
        0
280
     1
281
     0
  0
CLASS
  1
ACMFCFSTANDARDISO
  2
AcmFCFStdISO
  3
"Amdt_StdImp|Product Description: AutoCAD Mechanical 2004 DX|Company: Autodesk"
 90
        0
280
     1
281
     0
  0
CLASS
  1
ACMWELDSTANDARDISO
  2
AcmWeldingStdISO
  3
"Amdt_StdImp|Product Description: AutoCAD Mechanical 2004 DX|Company: Autodesk"
 90
        0
280
     1
281
     0
  0
CLASS
  1
ACMIDSTANDARDISO
  2
AcmIdStdISO
  3
"Amdt_StdImp|Product Description: AutoCAD Mechanical 2004 DX|Company: Autodesk"
 90
        0
280
     1
281
     0
  0
CLASS
  1
ACMDATUMSTANDARDISO
  2
AcmDatumStdISO
  3
"Amdt_StdImp|Product Description: AutoCAD Mechanical 2004 DX|Company: Autodesk"
 90
        0
280
     1
281
     0
  0
CLASS
  1
ACMBOMSTANDARDISO
  2
AcmBOMStdISO
  3
"Amdt_StdImp|Product Description: AutoCAD Mechanical 2004 DX|Company: Autodesk"
 90
        0
280
     1
281
     0
  0
CLASS
  1
ACMDETAILSTANDARDISO
  2
AmdtDetailSymStdISO
  3
"Amdt_StdImp|Product Description: AutoCAD Mechanical 2004 DX|Company: Autodesk"
 90
        0
280
     1
281
     0
  0
CLASS
  1
ACMSECTIONSTANDARDISO
  2
AmdtSectionSymStdISO
  3
"Amdt_StdImp|Product Description: AutoCAD Mechanical 2004 DX|Company: Autodesk"
 90
        0
280
     1
281
     0
  0
CLASS
  1
ACMCENTERLINESTANDARDISO
  2
AmdtCenterLineStdISO
  3
"Amdt_StdImp|Product Description: AutoCAD Mechanical 2004 DX|Company: Autodesk"
 90
        0
280
     1
281
     0
  0
CLASS
  1
ACMTHREADLINESTANDARDISO
  2
AmdtThreadLineStdISO
  3
"Amdt_StdImp|Product Description: AutoCAD Mechanical 2004 DX|Company: Autodesk"
 90
        0
280
     1
281
     0
  0
CLASS
  1
ACMNOTESTANDARDISO
  2
AmdtNoteStdISO
  3
"Amdt_StdImp|Product Description: AutoCAD Mechanical 2004 DX|Company: Autodesk"
 90
        0
280
     1
281
     0
  0
CLASS
  1
ACAMGHOLECHARTSTDISO
  2
AcAmgHoleChartStdISO
  3
ACMSYMBB_MODULE_NAME
 90
        0
280
     1
281
     0
  0
CLASS
  1
AMDTFORMULAUPDATEDISPATCHER
  2
AmdtFormulaUpdateDispatcher
  3
AcMeServices
 90
        0
280
     1
281
     0
  0
CLASS
  1
DIMASSOC
  2
AcDbDimAssoc
  3
"AcDbDimAssoc|Product Desc:     AcDim ARX App For Dimension|Company:          Autodesk, Inc.|WEB Address:      www.autodesk.com"
 90
        0
280
     0
281
     0
  0
ENDSEC
  0
SECTION
  2
TABLES
  0
TABLE
  2
VPORT
  5
8
330
0
100
AcDbSymbolTable
 70
     4
  0
VPORT
  5
1F35A
330
8
100
AcDbSymbolTableRecord
100
AcDbViewportTableRecord
  2
*Active
 70
     0
 10
0.0
 20
0.0
 11
1.0
 21
1.0
 12
91.5533334222946
 22
-48.10981384585199
 13
0.0
 23
0.0
 14
2.5
 24
2.5
 15
10.0
 25
10.0
 16
0.0
 26
0.0
 36
1.0
 17
0.0
 27
0.0
 37
0.0
 40
247.1300798592231
 41
1.372924648786718
 42
50.0
 43
0.0
 44
0.0
 50
0.0
 51
0.0
 71
    16
 72
 20000
 73
     1
 74
     3
 75
     0
 76
     0
 77
     0
 78
     0
281
     0
 65
     1
110
0.0
120
0.0
130
0.0
111
1.0
121
0.0
131
0.0
112
0.0
122
1.0
132
0.0
 79
     0
146
0.0
  0
ENDTAB
  0
TABLE
  2
LTYPE
  5
5
330
0
100
AcDbSymbolTable
 70
    16
  0
LTYPE
  5
14
330
5
100
AcDbSymbolTableRecord
100
AcDbLinetypeTableRecord
  2
ByBlock
 70
     0
  3

 72
    65
 73
     0
 40
0.0
  0
LTYPE
  5
15
330
5
100
AcDbSymbolTableRecord
100
AcDbLinetypeTableRecord
  2
ByLayer
 70
     0
  3

 72
    65
 73
     0
 40
0.0
  0
LTYPE
  5
16
330
5
100
AcDbSymbolTableRecord
100
AcDbLinetypeTableRecord
  2
Continuous
 70
     0
  3
Solid line
 72
    65
 73
     0
 40
0.0
  0
LTYPE
  5
43
330
5
100
AcDbSymbolTableRecord
100
AcDbLinetypeTableRecord
  2
AM_ISO02W050
 70
     0
  3
__ __ __ __ __ __ __ __ __ __ __ __ __ __ __
 72
    65
 73
     2
 40
7.5
 49
6.0
 74
     0
 49
-1.5
 74
     0
  0
LTYPE
  5
44
330
5
100
AcDbSymbolTableRecord
100
AcDbLinetypeTableRecord
  2
AM_ISO08W050
 70
     0
  3
____ . ____ . ____ . ____ . ____ . ____ . ____
 72
    65
 73
     4
 40
18.0
 49
12.0
 74
     0
 49
-1.5
 74
     0
 49
3.0
 74
     0
 49
-1.5
 74
     0
  0
LTYPE
  5
45
330
5
100
AcDbSymbolTableRecord
100
AcDbLinetypeTableRecord
  2
AM_ISO09W050
 70
     0
  3
_____ . . _____ . . _____ . . ____ .. ____
 72
    65
 73
     6
 40
22.5
 49
12.0
 74
     0
 49
-1.5
 74
     0
 49
3.0
 74
     0
 49
-1.5
 74
     0
 49
3.0
 74
     0
 49
-1.5
 74
     0
  0
LTYPE
  5
46
330
5
100
AcDbSymbolTableRecord
100
AcDbLinetypeTableRecord
  2
Amconstr
 70
     0
  3
_______________________
 72
    65
 73
     2
 40
9999.0
 49
9999.0
 74
     0
 49
0.0
 74
     0
  0
LTYPE
  5
47
330
5
100
AcDbSymbolTableRecord
100
AcDbLinetypeTableRecord
  2
AM_ISO02W050x2
 70
     0
  3
 _ _ _ _ _ _ _ _ _ _ _ _
 72
    65
 73
     2
 40
3.75
 49
3.0
 74
     0
 49
-0.75
 74
     0
  0
LTYPE
  5
48
330
5
100
AcDbSymbolTableRecord
100
AcDbLinetypeTableRecord
  2
AM_ISO08W050x2
 70
     0
  3
__ . __ . __ . __ . __ . __
 72
    65
 73
     4
 40
9.0
 49
6.0
 74
     0
 49
-0.75
 74
     0
 49
1.5
 74
     0
 49
-0.75
 74
     0
  0
LTYPE
  5
4B
330
5
100
AcDbSymbolTableRecord
100
AcDbLinetypeTableRecord
  2
Amzigzag
 70
     0
  3
/\/-/\/-/\/-/\/-/\/-/\/
 72
    65
 73
     2
 40
11.0001
 49
0.0001
 74
     4
 75
   135
340
4A
 46
0.04
 50
0.0
 44
0.0
 45
0.0
 49
-11.0
 74
     0
  0
LTYPE
  5
188
330
5
100
AcDbSymbolTableRecord
100
AcDbLinetypeTableRecord
  2
ACJISTGB
 70
     0
  3
__ . . __ . .
 72
    65
 73
     6
 40
9.0
 49
4.0
 74
     0
 49
-1.0
 74
     0
 49
1.0
 74
     0
 49
-1.0
 74
     0
 49
1.0
 74
     0
 49
-1.0
 74
     0
  0
LTYPE
  5
189
330
5
100
AcDbSymbolTableRecord
100
AcDbLinetypeTableRecord
  2
ACJISTGL
 70
     0
  3
_ _ _ _ _
 72
    65
 73
     2
 40
3.0
 49
2.0
 74
     0
 49
-1.0
 74
     0
  0
LTYPE
  5
652
330
5
100
AcDbSymbolTableRecord
100
AcDbLinetypeTableRecord
  2
CENTER
 70
     0
  3
____ _ ____ _ ____ _ ____ _ ____ _ ____ _ ____
 72
    65
 73
     4
 40
17.5
 49
13.0
 74
     0
 49
-1.5
 74
     0
 49
1.5
 74
     0
 49
-1.5
 74
     0
  0
LTYPE
  5
12AB
330
5
100
AcDbSymbolTableRecord
100
AcDbLinetypeTableRecord
  2
HIDDEN
 70
     0
  3
Hidden __ __ __ __ __ __ __ __ __ __ __ __ __ _
 72
    65
 73
     2
 40
0.375
 49
0.25
 74
     0
 49
-0.125
 74
     0
  0
LTYPE
  5
12AC
330
5
100
AcDbSymbolTableRecord
100
AcDbLinetypeTableRecord
  2
PHANTOM2
 70
     0
  3
Phantom (.5x) ___ _ _ ___ _ _ ___ _ _ ___ _ _
 72
    65
 73
     6
 40
1.25
 49
0.625
 74
     0
 49
-0.125
 74
     0
 49
0.125
 74
     0
 49
-0.125
 74
     0
 49
0.125
 74
     0
 49
-0.125
 74
     0
  0
LTYPE
  5
F5A5
330
5
100
AcDbSymbolTableRecord
100
AcDbLinetypeTableRecord
  2
ACISOWELD
 70
     0
  3
_ _ _ _ _
 72
    65
 73
     2
 40
2.0
 49
2.0
 74
     0
 49
-1.0
 74
     0
  0
LTYPE
  5
F5A6
330
5
100
AcDbSymbolTableRecord
100
AcDbLinetypeTableRecord
  2
ACISOTGB
 70
     0
  3
__ . . __ . .
 72
    65
 73
     6
 40
9.0
 49
4.0
 74
     0
 49
-1.0
 74
     0
 49
1.0
 74
     0
 49
-1.0
 74
     0
 49
1.0
 74
     0
 49
-1.0
 74
     0
  0
LTYPE
  5
F5A7
330
5
100
AcDbSymbolTableRecord
100
AcDbLinetypeTableRecord
  2
ACISOTGL
 70
     0
  3
_ _ _ _ _
 72
    65
 73
     2
 40
3.0
 49
2.0
 74
     0
 49
-1.0
 74
     0
  0
ENDTAB
  0
TABLE
  2
LAYER
  5
2
102
{ACAD_XDICTIONARY
360
EDC8
102
}
330
0
100
AcDbSymbolTable
 70
     7
  0
LAYER
  5
10
330
2
100
AcDbSymbolTableRecord
100
AcDbLayerTableRecord
  2
0
 70
     0
 62
     7
  6
Continuous
370
    -3
390
F
  0
LAYER
  5
7D
330
2
100
AcDbSymbolTableRecord
100
AcDbLayerTableRecord
  2
AM_5
 70
     0
 62
     3
  6
Continuous
370
    13
390
F
  0
LAYER
  5
7F
330
2
100
AcDbSymbolTableRecord
100
AcDbLayerTableRecord
  2
Defpoints
 70
     0
 62
     7
  6
Continuous
290
     0
370
    -3
390
F
  0
LAYER
  5
12B1
330
2
100
AcDbSymbolTableRecord
100
AcDbLayerTableRecord
  2
AM_0
 70
     0
 62
     7
  6
Continuous
370
    30
390
F
  0
LAYER
  5
18A4
330
2
100
AcDbSymbolTableRecord
100
AcDbLayerTableRecord
  2
AM_7
 70
     0
 62
     4
  6
AM_ISO08W050
370
    13
390
F
  0
LAYER
  5
18A5
330
2
100
AcDbSymbolTableRecord
100
AcDbLayerTableRecord
  2
AM_6
 70
     0
 62
     2
  6
Continuous
370
    30
390
F
  0
LAYER
  5
18A6
330
2
100
AcDbSymbolTableRecord
100
AcDbLayerTableRecord
  2
AM_11
 70
     0
 62
     3
  6
AM_ISO09W050
370
    13
390
F
  0
ENDTAB
  0
TABLE
  2
STYLE
  5
3
330
0
100
AcDbSymbolTable
 70
     6
  0
STYLE
  5
11
330
3
100
AcDbSymbolTableRecord
100
AcDbTextStyleTableRecord
  2
STANDARD
 70
     0
 40
0.0
 41
1.0
 50
0.0
 71
     0
 42
4.0
  3
ISOCP.SHX
  4
EXTFONT.SHX
  0
STYLE
  5
4A
330
3
100
AcDbSymbolTableRecord
100
AcDbTextStyleTableRecord
  2

 70
     1
 40
0.0
 41
1.0
 50
0.0
 71
     0
 42
2.5
  3
ltypeshp.shx
  4

  0
STYLE
  5
180
330
3
100
AcDbSymbolTableRecord
100
AcDbTextStyleTableRecord
  2
ACJISTS
 70
     0
 40
1.0
 41
1.0
 50
0.0
 71
     0
 42
2.5
  3
isocp.shx
  4
bigfont.shx
  0
STYLE
  5
187
330
3
100
AcDbSymbolTableRecord
100
AcDbTextStyleTableRecord
  2
ACJISGDT
 70
     0
 40
0.0
 41
1.0
 50
0.0
 71
     0
 42
2.5
  3
amgdt.shx
  4

  0
STYLE
  5
F5A9
330
3
100
AcDbSymbolTableRecord
100
AcDbTextStyleTableRecord
  2
ACISOTS
 70
     0
 40
1.0
 41
1.0
 50
0.0
 71
     0
 42
1.0
  3
isocp.shx
  4
extfont.shx
  0
STYLE
  5
F5AA
330
3
100
AcDbSymbolTableRecord
100
AcDbTextStyleTableRecord
  2
ACISOGDT
 70
     0
 40
0.0
 41
1.0
 50
0.0
 71
     0
 42
1.0
  3
amgdt.shx
  4

  0
ENDTAB
  0
TABLE
  2
VIEW
  5
6
330
0
100
AcDbSymbolTable
 70
     6
  0
VIEW
  5
A30
330
6
100
AcDbSymbolTableRecord
100
AcDbViewTableRecord
  2
AM_VIEW1
 70
     0
 40
148.5
 10
109.5616966580977
 20
222.75
 41
219.1233933161954
 11
0.0
 21
0.0
 31
1.0
 12
0.0
 22
0.0
 32
0.0
 42
50.0
 43
0.0
 44
0.0
 50
0.0
 71
    16
281
     0
 72
     0
  0
VIEW
  5
A31
330
6
100
AcDbSymbolTableRecord
100
AcDbViewTableRecord
  2
AM_VIEW2
 70
     0
 40
148.5
 10
310.4383033419023
 20
222.75
 41
219.1233933161954
 11
0.0
 21
0.0
 31
1.0
 12
0.0
 22
0.0
 32
0.0
 42
50.0
 43
0.0
 44
0.0
 50
0.0
 71
    16
281
     0
 72
     0
  0
VIEW
  5
A32
330
6
100
AcDbSymbolTableRecord
100
AcDbViewTableRecord
  2
AM_VIEW3
 70
     0
 40
148.5
 10
109.5616966580977
 20
74.25
 41
219.1233933161954
 11
0.0
 21
0.0
 31
1.0
 12
0.0
 22
0.0
 32
0.0
 42
50.0
 43
0.0
 44
0.0
 50
0.0
 71
    16
281
     0
 72
     0
  0
VIEW
  5
A33
330
6
100
AcDbSymbolTableRecord
100
AcDbViewTableRecord
  2
AM_VIEW4
 70
     0
 40
148.5
 10
310.4383033419023
 20
74.25
 41
219.1233933161954
 11
0.0
 21
0.0
 31
1.0
 12
0.0
 22
0.0
 32
0.0
 42
50.0
 43
0.0
 44
0.0
 50
0.0
 71
    16
281
     0
 72
     0
  0
VIEW
  5
A34
330
6
100
AcDbSymbolTableRecord
100
AcDbViewTableRecord
  2
AM_VIEW5
 70
     0
 40
148.5
 10
210.0
 20
148.5
 41
219.1233933161954
 11
0.0
 21
0.0
 31
1.0
 12
0.0
 22
0.0
 32
0.0
 42
50.0
 43
0.0
 44
0.0
 50
0.0
 71
    16
281
     0
 72
     0
  0
VIEW
  5
A35
330
6
100
AcDbSymbolTableRecord
100
AcDbViewTableRecord
  2
AM_VIEW6
 70
     0
 40
296.99703
 10
210.0
 20
148.5
 41
438.2424041645245
 11
0.0
 21
0.0
 31
1.0
 12
0.0
 22
0.0
 32
0.0
 42
50.0
 43
0.0
 44
0.0
 50
0.0
 71
    16
281
     0
 72
     0
  0
ENDTAB
  0
TABLE
  2
UCS
  5
7
330
0
100
AcDbSymbolTable
 70
     0
  0
ENDTAB
  0
TABLE
  2
APPID
  5
9
330
0
100
AcDbSymbolTable
 70
    51
  0
APPID
  5
12
330
9
100
AcDbSymbolTableRecord
100
AcDbRegAppTableRecord
  2
ACAD
 70
     0
  0
APPID
  5
2C
330
9
100
AcDbSymbolTableRecord
100
AcDbRegAppTableRecord
  2
MCAD_NO_VIS
 70
     0
  0
APPID
  5
2D
330
9
100
AcDbSymbolTableRecord
100
AcDbRegAppTableRecord
  2
ACAD_TEMP_GRAPHIC
 70
     0
  0
APPID
  5
B9
330
9
100
AcDbSymbolTableRecord
100
AcDbRegAppTableRecord
  2
GENIUS_GENDTOL_13
 70
     0
  0
APPID
  5
359
330
9
100
AcDbSymbolTableRecord
100
AcDbRegAppTableRecord
  2
GENIUS_GENREC_14
 70
     0
  0
APPID
  5
35A
330
9
100
AcDbSymbolTableRecord
100
AcDbRegAppTableRecord
  2
GENIUS_GENODEF_13
 70
     0
  0
APPID
  5
35B
330
9
100
AcDbSymbolTableRecord
100
AcDbRegAppTableRecord
  2
GENIUS_GENOBJ-N-REC_13
 70
     0
  0
APPID
  5
667
330
9
100
AcDbSymbolTableRecord
100
AcDbRegAppTableRecord
  2
GENIUS_GENCFG_13
 70
     0
  0
APPID
  5
668
330
9
100
AcDbSymbolTableRecord
100
AcDbRegAppTableRecord
  2
GENIUS_GENCFG0_13
 70
     0
  0
APPID
  5
669
330
9
100
AcDbSymbolTableRecord
100
AcDbRegAppTableRecord
  2
GENIUS_GENCFG1_13
 70
     0
  0
APPID
  5
66A
330
9
100
AcDbSymbolTableRecord
100
AcDbRegAppTableRecord
  2
GENIUS_GENCFG2_13
 70
     0
  0
APPID
  5
66B
330
9
100
AcDbSymbolTableRecord
100
AcDbRegAppTableRecord
  2
GENIUS_GENCFG3_13
 70
     0
  0
APPID
  5
66C
330
9
100
AcDbSymbolTableRecord
100
AcDbRegAppTableRecord
  2
GENIUS_GENCFG4_13
 70
     0
  0
APPID
  5
A76
330
9
100
AcDbSymbolTableRecord
100
AcDbRegAppTableRecord
  2
GENIUS_GENBLLY_14
 70
     0
  0
APPID
  5
A77
330
9
100
AcDbSymbolTableRecord
100
AcDbRegAppTableRecord
  2
GENIUS_GENOBJ-N-CEN_13
 70
     0
  0
APPID
  5
A83
330
9
100
AcDbSymbolTableRecord
100
AcDbRegAppTableRecord
  2
GENIUS_GENTRA_14
 70
     0
  0
APPID
  5
A8D
330
9
100
AcDbSymbolTableRecord
100
AcDbRegAppTableRecord
  2
GENIUS_GENOBJ-N-TIT_13
 70
     0
  0
APPID
  5
A8E
330
9
100
AcDbSymbolTableRecord
100
AcDbRegAppTableRecord
  2
GENIUS_GENTITLE_13
 70
     0
  0
APPID
  5
A8F
330
9
100
AcDbSymbolTableRecord
100
AcDbRegAppTableRecord
  2
GENIUS_GENOENT_13
 70
     0
  0
APPID
  5
A90
330
9
100
AcDbSymbolTableRecord
100
AcDbRegAppTableRecord
  2
GENIUS_GENOREF_13
 70
     0
  0
APPID
  5
A91
330
9
100
AcDbSymbolTableRecord
100
AcDbRegAppTableRecord
  2
GENIUS_GENOLIS_13
 70
     0
  0
APPID
  5
A92
330
9
100
AcDbSymbolTableRecord
100
AcDbRegAppTableRecord
  2
GENIUS_GENZVEED_13
 70
     0
  0
APPID
  5
A93
330
9
100
AcDbSymbolTableRecord
100
AcDbRegAppTableRecord
  2
GENIUS_GENSCREG_15
 70
     0
  0
APPID
  5
A94
330
9
100
AcDbSymbolTableRecord
100
AcDbRegAppTableRecord
  2
GENIUS_GENOBJ-N-SDF_13
 70
     0
  0
APPID
  5
12B5
330
9
100
AcDbSymbolTableRecord
100
AcDbRegAppTableRecord
  2
GENIUS_GENOBJ-N-RSBK_13
 70
     0
  0
APPID
  5
12B6
330
9
100
AcDbSymbolTableRecord
100
AcDbRegAppTableRecord
  2
GENIUS_GENOBJ-N-LIB_13
 70
     0
  0
APPID
  5
12B7
330
9
100
AcDbSymbolTableRecord
100
AcDbRegAppTableRecord
  2
GENIUS_GENSCALE_13
 70
     0
  0
APPID
  5
12B8
330
9
100
AcDbSymbolTableRecord
100
AcDbRegAppTableRecord
  2
GENIUS_GENOBJ-N-HTC_13
 70
     0
  0
APPID
  5
12B9
330
9
100
AcDbSymbolTableRecord
100
AcDbRegAppTableRecord
  2
GENIUS_GENHATCH_13
 70
     0
  0
APPID
  5
18AA
330
9
100
AcDbSymbolTableRecord
100
AcDbRegAppTableRecord
  2
BASE_TYPE
 70
     0
  0
APPID
  5
18AB
330
9
100
AcDbSymbolTableRecord
100
AcDbRegAppTableRecord
  2
GENIUS_GENOBJ-N-FIL_13
 70
     0
  0
APPID
  5
1E91
330
9
100
AcDbSymbolTableRecord
100
AcDbRegAppTableRecord
  2
GENIUS_GENOBJ-N-CRS_13
 70
     0
  0
APPID
  5
3B24
330
9
100
AcDbSymbolTableRecord
100
AcDbRegAppTableRecord
  2
GENIUS_GENDIMSH_14
 70
     0
  0
APPID
  5
4D78
330
9
100
AcDbSymbolTableRecord
100
AcDbRegAppTableRecord
  2
GENIUS_GENOBJ-N-DIM_13
 70
     0
  0
APPID
  5
4D79
330
9
100
AcDbSymbolTableRecord
100
AcDbRegAppTableRecord
  2
GENIUS_GENDIM_13
 70
     0
  0
APPID
  5
517C
330
9
100
AcDbSymbolTableRecord
100
AcDbRegAppTableRecord
  2
GENIUS_GENFIL_13
 70
     0
  0
APPID
  5
517D
330
9
100
AcDbSymbolTableRecord
100
AcDbRegAppTableRecord
  2
GENIUS_GENOBJ-N-CHA_13
 70
     0
  0
APPID
  5
ED83
330
9
100
AcDbSymbolTableRecord
100
AcDbRegAppTableRecord
  2
AD_DRAW
 70
     0
  0
APPID
  5
ED86
330
9
100
AcDbSymbolTableRecord
100
AcDbRegAppTableRecord
  2
ACATTRIBSERVICES
 70
     0
  0
APPID
  5
EDA4
330
9
100
AcDbSymbolTableRecord
100
AcDbRegAppTableRecord
  2
DESIGNERASSEMBLIES
 70
     0
  0
APPID
  5
EDB7
330
9
100
AcDbSymbolTableRecord
100
AcDbRegAppTableRecord
  2
ACADM_DIM_EDIT
 70
     0
  0
APPID
  5
EDB8
330
9
100
AcDbSymbolTableRecord
100
AcDbRegAppTableRecord
  2
AMDT_DM_ADJ
 70
     0
  0
APPID
  5
F08C
330
9
100
AcDbSymbolTableRecord
100
AcDbRegAppTableRecord
  2
ACAD_PSEXT
 70
     0
  0
APPID
  5
F2B1
330
9
100
AcDbSymbolTableRecord
100
AcDbRegAppTableRecord
  2
GENIUS_GENCEN_19
 70
     0
  0
APPID
  5
10513
330
9
100
AcDbSymbolTableRecord
100
AcDbRegAppTableRecord
  2
ACAD_DSTYLE_DIMTEXT_FILL
 70
     0
  0
APPID
  5
11AB4
330
9
100
AcDbSymbolTableRecord
100
AcDbRegAppTableRecord
  2
ACAD_DSTYLE_DIMARC_LENGTH_SYMBOL
 70
     0
  0
APPID
  5
11AB5
330
9
100
AcDbSymbolTableRecord
100
AcDbRegAppTableRecord
  2
ACAD_DSTYLE_DIMJOGGED_JOGANGLE_SYMBOL
 70
     0
  0
APPID
  5
11AB6
330
9
100
AcDbSymbolTableRecord
100
AcDbRegAppTableRecord
  2
AcAecLayerStandard
 70
     0
  0
APPID
  5
1813B
330
9
100
AcDbSymbolTableRecord
100
AcDbRegAppTableRecord
  2
ACAD_DIMASSOC_DIMLFAC
 70
     0
  0
APPID
  5
1813C
330
9
100
AcDbSymbolTableRecord
100
AcDbRegAppTableRecord
  2
ACAD_DIMASSOC_CALC_DIMLFAC
 70
     0
  0
APPID
  5
1813D
330
9
100
AcDbSymbolTableRecord
100
AcDbRegAppTableRecord
  2
ACAD_DIMASSOC_OVERRIDDEN_DIMLFAC
 70
     0
  0
ENDTAB
  0
TABLE
  2
DIMSTYLE
  5
A
330
0
100
AcDbSymbolTable
 70
    17
100
AcDbDimStyleTable
  0
DIMSTYLE
105
58
330
A
100
AcDbSymbolTableRecord
100
AcDbDimStyleTableRecord
  2
AM_JIS
 70
     0
  4
"
 41
2.5
 42
0.0
 43
10.0
 44
1.0
 47
0.1
 48
0.1000000001
 73
     0
 74
     0
 77
     3
 78
     1
 79
     2
140
3.8
141
0.0
143
0.0393701
146
0.71
147
1.5
172
     1
176
   256
177
   256
178
     2
179
     1
271
     2
272
     2
275
     1
283
     0
284
     8
340
11
341
59
342
59
371
    -1
372
    -1
  0
DIMSTYLE
105
5F
102
{ACAD_REACTORS
330
1E960
330
1EDBC
102
}
330
A
100
AcDbSymbolTableRecord
100
AcDbDimStyleTableRecord
  2
AM_JIS$3
 70
     0
  4
"
 41
2.5
 42
0.0
 43
10.0
 44
1.0
 47
0.1
 48
0.1000000001
 73
     0
 77
     3
 78
     1
 79
     2
140
3.8
141
0.0
143
0.0393701
146
0.71
147
1.5
172
     1
176
   256
177
   256
178
     2
179
     1
271
     2
272
     2
275
     1
283
     0
284
     8
288
     1
289
     0
340
11
341
59
342
59
371
    -1
372
    -1
  0
DIMSTYLE
105
60
330
A
100
AcDbSymbolTableRecord
100
AcDbDimStyleTableRecord
  2
AM_JIS$4
 70
     0
  4
"
 41
2.5
 42
0.0
 43
10.0
 44
1.0
 47
0.1
 48
0.1000000001
 73
     0
 77
     3
 78
     1
 79
     2
140
3.8
141
0.0
143
0.0393701
146
0.71
147
1.5
172
     1
176
   256
177
   256
178
     2
179
     1
271
     2
272
     2
275
     1
283
     0
284
     8
288
     1
289
     0
340
11
341
59
342
59
371
    -1
372
    -1
  0
DIMSTYLE
105
61
330
A
100
AcDbSymbolTableRecord
100
AcDbDimStyleTableRecord
  2
AM_JIS$6
 70
     0
  4
"
 41
2.5
 42
0.0
 43
10.0
 44
1.0
 47
0.1
 48
0.1000000001
 73
     0
 74
     0
 78
     1
 79
     2
140
3.8
141
0.0
143
0.0393701
146
0.71
147
1.5
172
     1
176
   256
177
   256
178
     2
179
     1
271
     2
272
     2
275
     1
283
     0
284
     8
340
11
341
59
342
59
371
    -1
372
    -1
  0
DIMSTYLE
105
62
330
A
100
AcDbSymbolTableRecord
100
AcDbDimStyleTableRecord
  2
AM_JIS$7
 70
     0
  4
"
 41
2.5
 42
0.0
 43
10.0
 44
1.0
 47
0.1
 48
0.1000000001
 73
     0
 74
     0
 77
     3
 78
     1
 79
     2
140
5.0
141
0.0
143
0.0393701
146
0.71
147
1.5
172
     1
176
   256
177
   256
178
     2
179
     1
271
     2
272
     2
275
     1
283
     0
284
     8
340
11
341
59
342
59
371
    -1
372
    -1
  0
DIMSTYLE
105
63
330
A
100
AcDbSymbolTableRecord
100
AcDbDimStyleTableRecord
  2
AM_JIS$SF
 70
     0
  4
"
 41
2.5
 42
1.0
 43
10.0
 44
1.0
 47
0.1
 48
0.1
 73
     0
 74
     0
 75
     1
 76
     1
 77
     3
 78
     8
 79
     2
140
3.5
141
0.0
143
0.0393701
146
0.71
147
1.5
176
   256
177
   256
178
     2
271
     2
272
     3
274
     4
340
11
341
59
342
59
343
59
344
59
371
    -1
372
    -1
  0
DIMSTYLE
105
68
330
A
100
AcDbSymbolTableRecord
100
AcDbDimStyleTableRecord
  2
AM_JIS$SH
 70
     0
  4
"
 41
2.5
 42
1.0
 43
10.0
 44
1.0
 47
0.1
 48
0.1
 73
     0
 74
     0
 75
     1
 76
     1
 77
     3
 78
     8
 79
     2
140
3.5
141
0.0
143
0.0393701
144
2.0
146
0.71
147
1.5
173
     1
176
   256
177
   256
178
     2
271
     2
272
     3
274
     4
340
11
341
59
342
59
343
64
344
59
371
    -1
372
    -1
  0
DIMSTYLE
105
65F
330
A
100
AcDbSymbolTableRecord
100
AcDbDimStyleTableRecord
  2
STANDARD
 70
     0
340
11
  0
DIMSTYLE
105
18A8
102
{ACAD_REACTORS
330
1C7D9
330
1C81C
330
1C8D1
330
1CA4B
330
1F163
102
}
330
A
100
AcDbSymbolTableRecord
100
AcDbDimStyleTableRecord
  2
AM_JIS$0
 70
     0
  4
"
 41
2.5
 42
0.0
 43
10.0
 44
1.0
 47
0.1
 48
0.1000000001
 73
     0
 74
     0
 77
     3
 78
     1
 79
     2
140
3.8
141
0.0
143
0.0393701
146
0.71
147
1.5
172
     1
176
     3
177
     3
178
     2
271
     2
272
     2
275
     1
283
     0
284
     8
289
     0
340
11
341
59
342
59
371
    13
372
    13
  0
DIMSTYLE
105
18A9
102
{ACAD_REACTORS
330
1EC0C
102
}
330
A
100
AcDbSymbolTableRecord
100
AcDbDimStyleTableRecord
  2
AM_JIS$2
 70
     0
  4
"
 41
2.5
 42
0.0
 43
10.0
 44
1.0
 47
0.1
 48
0.1000000001
 73
     0
 74
     0
 77
     3
 78
     1
 79
     2
140
3.8
141
0.0
143
0.0393701
146
0.71
147
1.5
172
     1
176
     3
177
     3
178
     2
271
     2
272
     2
275
     1
283
     0
284
     8
289
     0
340
11
341
59
342
59
371
    13
372
    13
  0
DIMSTYLE
105
F5AE
330
A
100
AcDbSymbolTableRecord
100
AcDbDimStyleTableRecord
  2
AM_ISO
 70
     0
  4
"
 41
2.5
 42
1.0
 43
10.0
 44
1.0
 47
0.1
 48
0.1
 73
     0
 74
     0
 77
     1
 78
     8
 79
     2
140
3.5
141
0.0
143
0.0393701
146
0.71
147
1.5
172
     1
176
   256
177
   256
178
     2
271
     2
272
     3
274
     4
283
     0
284
     8
340
11
371
    -1
372
    -1
  0
DIMSTYLE
105
F5AF
330
A
100
AcDbSymbolTableRecord
100
AcDbDimStyleTableRecord
  2
AM_ISO$3
 70
     0
  4
"
 41
2.5
 42
1.0
 43
10.0
 44
1.0
 47
0.1
 48
0.1
 73
     0
 77
     1
 78
     8
 79
     2
140
3.5
141
0.0
143
0.0393701
146
0.71
147
1.5
176
   256
177
   256
178
     2
271
     2
272
     3
274
     4
283
     0
284
     8
288
     1
289
     0
340
11
371
    -1
372
    -1
  0
DIMSTYLE
105
F5B0
330
A
100
AcDbSymbolTableRecord
100
AcDbDimStyleTableRecord
  2
AM_ISO$4
 70
     0
  4
"
 41
2.5
 42
1.0
 43
10.0
 44
1.0
 47
0.1
 48
0.1
 73
     0
 77
     1
 78
     8
 79
     2
140
3.5
141
0.0
143
0.0393701
146
0.71
147
1.5
176
   256
177
   256
178
     2
271
     2
272
     3
274
     4
283
     0
284
     8
288
     1
289
     0
340
11
371
    -1
372
    -1
  0
DIMSTYLE
105
F5B1
330
A
100
AcDbSymbolTableRecord
100
AcDbDimStyleTableRecord
  2
AM_ISO$6
 70
     0
  4
"
 41
2.5
 42
1.0
 43
10.0
 44
1.0
 47
0.1
 48
0.1
 73
     0
 74
     0
 78
     8
 79
     2
140
3.5
141
0.0
143
0.0393701
146
0.71
147
1.5
172
     1
176
   256
177
   256
178
     2
271
     2
272
     3
274
     4
283
     0
284
     8
340
11
371
    -1
372
    -1
  0
DIMSTYLE
105
F5B2
330
A
100
AcDbSymbolTableRecord
100
AcDbDimStyleTableRecord
  2
AM_ISO$7
 70
     0
  4
"
 41
2.5
 42
1.0
 43
10.0
 44
1.0
 47
0.1
 48
0.1
 73
     0
 74
     0
 77
     1
 78
     8
 79
     2
140
5.0
141
0.0
143
0.0393701
146
0.71
147
1.5
172
     1
176
   256
177
   256
178
     2
271
     2
272
     3
274
     4
283
     0
284
     8
340
11
371
    -1
372
    -1
  0
DIMSTYLE
105
F5B3
330
A
100
AcDbSymbolTableRecord
100
AcDbDimStyleTableRecord
  2
AM_ISO$SF
 70
     0
  4
"
 41
2.5
 42
1.0
 43
10.0
 44
1.0
 47
0.1
 48
0.1
 73
     0
 74
     0
 75
     1
 76
     1
 77
     1
 78
     8
 79
     2
140
3.5
141
0.0
143
0.0393701
146
0.71
147
1.5
172
     1
176
   256
177
   256
178
     2
271
     2
272
     3
274
     4
283
     0
284
     8
340
11
371
    -1
372
    -1
  0
DIMSTYLE
105
F5B4
330
A
100
AcDbSymbolTableRecord
100
AcDbDimStyleTableRecord
  2
AM_ISO$SH
 70
     0
  4
"
 41
2.5
 42
1.0
 43
10.0
 44
1.0
 47
0.1
 48
0.1
 73
     0
 74
     0
 75
     1
 76
     1
 77
     1
 78
     8
 79
     2
140
3.5
141
0.0
143
0.0393701
144
2.0
146
0.71
147
1.5
172
     1
173
     1
176
   256
177
   256
178
     2
271
     2
272
     3
274
     4
283
     0
284
     8
340
11
343
64
371
    -1
372
    -1
  0
ENDTAB
  0
TABLE
  2
BLOCK_RECORD
  5
1
330
0
100
AcDbSymbolTable
 70
    12
  0
BLOCK_RECORD
  5
1F
102
{ACAD_XDICTIONARY
360
165
102
}
330
1
100
AcDbSymbolTableRecord
100
AcDbBlockTableRecord
  2
*Model_Space
340
22
  0
BLOCK_RECORD
  5
1B
330
1
100
AcDbSymbolTableRecord
100
AcDbBlockTableRecord
  2
*Paper_Space
340
1E
  0
BLOCK_RECORD
  5
23
330
1
100
AcDbSymbolTableRecord
100
AcDbBlockTableRecord
  2
*Paper_Space0
340
26
  0
BLOCK_RECORD
  5
59
330
1
100
AcDbSymbolTableRecord
100
AcDbBlockTableRecord
  2
_Open30
340
0
102
{BLKREFS
331
1F311
331
1F312
331
1F31A
331
1F31B
331
1F323
331
1F324
331
1F32E
331
1F32F
331
1F338
331
1F339
331
1F340
331
1F341
331
1F34C
331
1F34D
331
1F354
331
1F355
102
}
  0
BLOCK_RECORD
  5
64
330
1
100
AcDbSymbolTableRecord
100
AcDbBlockTableRecord
  2
GENAXEH
340
0
  0
BLOCK_RECORD
  5
ED9B
330
1
100
AcDbSymbolTableRecord
100
AcDbBlockTableRecord
  2
*U3
340
0
  0
BLOCK_RECORD
  5
1C7DA
330
1
100
AcDbSymbolTableRecord
100
AcDbBlockTableRecord
  2
*D4
340
0
  0
BLOCK_RECORD
  5
1C81D
330
1
100
AcDbSymbolTableRecord
100
AcDbBlockTableRecord
  2
*D5
340
0
  0
BLOCK_RECORD
  5
1C8D2
330
1
100
AcDbSymbolTableRecord
100
AcDbBlockTableRecord
  2
*D6
340
0
  0
BLOCK_RECORD
  5
1CA4C
330
1
100
AcDbSymbolTableRecord
100
AcDbBlockTableRecord
  2
*D7
340
0
  0
BLOCK_RECORD
  5
1E961
330
1
100
AcDbSymbolTableRecord
100
AcDbBlockTableRecord
  2
*D8
340
0
  0
BLOCK_RECORD
  5
1EC0D
330
1
100
AcDbSymbolTableRecord
100
AcDbBlockTableRecord
  2
*D9
340
0
  0
BLOCK_RECORD
  5
1EDBD
330
1
100
AcDbSymbolTableRecord
100
AcDbBlockTableRecord
  2
*D10
340
0
  0
BLOCK_RECORD
  5
1F164
330
1
100
AcDbSymbolTableRecord
100
AcDbBlockTableRecord
  2
*D11
340
0
  0
ENDTAB
  0
ENDSEC
  0
SECTION
  2
BLOCKS
  0
BLOCK
  5
20
330
1F
100
AcDbEntity
  8
0
100
AcDbBlockBegin
  2
*Model_Space
 70
     0
 71
     0
 10
0.0
 20
0.0
 30
0.0
  3
*Model_Space
  1

  0
ENDBLK
  5
21
330
1F
100
AcDbEntity
  8
0
100
AcDbBlockEnd
  0
BLOCK
  5
1C
330
1B
100
AcDbEntity
 67
     1
  8
0
100
AcDbBlockBegin
  2
*Paper_Space
 70
     0
 71
     0
 10
0.0
 20
0.0
 30
0.0
  3
*Paper_Space
  1

  0
ENDBLK
  5
1D
330
1B
100
AcDbEntity
 67
     1
  8
0
100
AcDbBlockEnd
  0
BLOCK
  5
24
330
23
100
AcDbEntity
  8
0
100
AcDbBlockBegin
  2
*Paper_Space0
 70
     0
 71
     0
 10
0.0
 20
0.0
 30
0.0
  3
*Paper_Space0
  1

  0
ENDBLK
  5
25
330
23
100
AcDbEntity
  8
0
100
AcDbBlockEnd
  0
BLOCK
  5
5D
330
59
100
AcDbEntity
  8
0
100
AcDbBlockBegin
  2
_Open30
 70
     0
 71
     0
 10
0.0
 20
0.0
 30
0.0
  3
_Open30
  1

  0
LINE
  5
5A
330
59
100
AcDbEntity
  8
0
 62
     0
370
    -2
100
AcDbLine
 10
-1.0
 20
0.26794919
 30
0.0
 11
0.0
 21
0.0
 31
0.0
  0
LINE
  5
5B
330
59
100
AcDbEntity
  8
0
 62
     0
370
    -2
100
AcDbLine
 10
0.0
 20
0.0
 30
0.0
 11
-1.0
 21
-0.26794919
 31
0.0
  0
LINE
  5
5C
330
59
100
AcDbEntity
  8
0
 62
     0
370
    -2
100
AcDbLine
 10
0.0
 20
0.0
 30
0.0
 11
-1.0
 21
0.0
 31
0.0
  0
ENDBLK
  5
5E
330
59
100
AcDbEntity
  8
0
100
AcDbBlockEnd
  0
BLOCK
  5
66
330
64
100
AcDbEntity
  8
0
100
AcDbBlockBegin
  2
GENAXEH
 70
     0
 71
     0
 10
0.0
 20
0.0
 30
0.0
  3
GENAXEH
  1

  0
LINE
  5
65
330
64
100
AcDbEntity
  8
0
100
AcDbLine
 10
-1.0
 20
0.0
 30
0.0
 11
1.0
 21
0.0
 31
0.0
  0
ENDBLK
  5
67
330
64
100
AcDbEntity
  8
0
100
AcDbBlockEnd
  0
BLOCK
  5
ED9C
330
ED9B
100
AcDbEntity
  8
0
100
AcDbBlockBegin
  2
*U3
 70
     1
 71
     0
 10
0.0
 20
0.0
 30
0.0
  3
*U3
  1

  0
ENDBLK
  5
ED9D
330
ED9B
100
AcDbEntity
  8
0
100
AcDbBlockEnd
  0
BLOCK
  5
1C7F0
330
1C7DA
100
AcDbEntity
  8
0
100
AcDbBlockBegin
  2
*D4
 70
     1
 71
     0
 10
0.0
 20
0.0
 30
0.0
  3
*D4
  1

  0
LINE
  5
1F30E
330
1C7DA
100
AcDbEntity
  8
AM_5
 62
     3
370
    13
100
AcDbLine
 10
61.99999999999932
 20
-8.62500000000037
 30
0.0
 11
61.99999999999932
 21
-41.65212758243689
 31
0.0
  0
LINE
  5
1F30F
330
1C7DA
100
AcDbEntity
  8
AM_5
 62
     3
370
    13
100
AcDbLine
 10
0.0
 20
-1.803621898548499
 30
0.0
 11
-0.0000000000000024
 21
-41.65212758243689
 31
0.0
  0
LINE
  5
1F310
330
1C7DA
100
AcDbEntity
  8
AM_5
 62
     3
370
    13
100
AcDbLine
 10
59.49999999999932
 20
-40.65212758243689
 30
0.0
 11
2.499999999999998
 21
-40.65212758243689
 31
0.0
  0
INSERT
  5
1F311
330
1C7DA
100
AcDbEntity
  8
AM_5
 62
     3
370
    13
100
AcDbBlockReference
  2
_Open30
 10
61.99999999999932
 20
-40.65212758243689
 30
0.0
 41
2.5
 42
2.5
 43
2.5
  0
INSERT
  5
1F312
330
1C7DA
100
AcDbEntity
  8
AM_5
 62
     3
370
    13
100
AcDbBlockReference
  2
_Open30
 10
-0.0000000000000024
 20
-40.65212758243689
 30
0.0
 41
2.5
 42
2.5
 43
2.5
 50
180.0
  0
MTEXT
  5
1F313
330
1C7DA
100
AcDbEntity
  8
AM_5
 62
     2
100
AcDbMText
 10
30.99999999999966
 20
-37.25175356668886
 30
0.0
 40
3.8
 41
0.0
 71
     5
 72
     1
  1
62
 73
     1
 44
1.0
  0
POINT
  5
1F314
330
1C7DA
100
AcDbEntity
  8
Defpoints
 62
     0
100
AcDbPoint
 10
61.99999999999932
 20
-8.62500000000037
 30
0.0
  0
POINT
  5
1F315
330
1C7DA
100
AcDbEntity
  8
Defpoints
 62
     0
100
AcDbPoint
 10
0.0
 20
-1.803621898548499
 30
0.0
  0
POINT
  5
1F316
330
1C7DA
100
AcDbEntity
  8
Defpoints
 62
     0
100
AcDbPoint
 10
-0.0000000000000024
 20
-40.65212758243689
 30
0.0
  0
ENDBLK
  5
1C7F1
330
1C7DA
100
AcDbEntity
  8
0
100
AcDbBlockEnd
  0
BLOCK
  5
1C83C
330
1C81D
100
AcDbEntity
  8
0
100
AcDbBlockBegin
  2
*D5
 70
     1
 71
     0
 10
0.0
 20
0.0
 30
0.0
  3
*D5
  1

  0
LINE
  5
1F317
330
1C81D
100
AcDbEntity
  8
AM_5
 62
     3
370
    13
100
AcDbLine
 10
44.99999999999932
 20
-22.29400000000038
 30
0.0
 11
44.99999999999932
 21
-31.65212758243695
 31
0.0
  0
LINE
  5
1F318
330
1C81D
100
AcDbEntity
  8
AM_5
 62
     3
370
    13
100
AcDbLine
 10
0.0
 20
-1.803621898548499
 30
0.0
 11
-0.0000000000000018
 21
-31.65212758243695
 31
0.0
  0
LINE
  5
1F319
330
1C81D
100
AcDbEntity
  8
AM_5
 62
     3
370
    13
100
AcDbLine
 10
42.49999999999932
 20
-30.65212758243695
 30
0.0
 11
2.499999999999998
 21
-30.65212758243695
 31
0.0
  0
INSERT
  5
1F31A
330
1C81D
100
AcDbEntity
  8
AM_5
 62
     3
370
    13
100
AcDbBlockReference
  2
_Open30
 10
44.99999999999932
 20
-30.65212758243695
 30
0.0
 41
2.5
 42
2.5
 43
2.5
  0
INSERT
  5
1F31B
330
1C81D
100
AcDbEntity
  8
AM_5
 62
     3
370
    13
100
AcDbBlockReference
  2
_Open30
 10
-0.0000000000000018
 20
-30.65212758243695
 30
0.0
 41
2.5
 42
2.5
 43
2.5
 50
180.0
  0
MTEXT
  5
1F31C
330
1C81D
100
AcDbEntity
  8
AM_5
 62
     2
100
AcDbMText
 10
22.49999999999966
 20
-27.25212758243695
 30
0.0
 40
3.8
 41
0.0
 71
     5
 72
     1
  1
45
 73
     1
 44
1.0
  0
POINT
  5
1F31D
330
1C81D
100
AcDbEntity
  8
Defpoints
 62
     0
100
AcDbPoint
 10
44.99999999999932
 20
-22.29400000000038
 30
0.0
  0
POINT
  5
1F31E
330
1C81D
100
AcDbEntity
  8
Defpoints
 62
     0
100
AcDbPoint
 10
0.0
 20
-1.803621898548499
 30
0.0
  0
POINT
  5
1F31F
330
1C81D
100
AcDbEntity
  8
Defpoints
 62
     0
100
AcDbPoint
 10
-0.0000000000000018
 20
-30.65212758243695
 30
0.0
  0
ENDBLK
  5
1C83D
330
1C81D
100
AcDbEntity
  8
0
100
AcDbBlockEnd
  0
BLOCK
  5
1C90A
330
1C8D2
100
AcDbEntity
  8
0
100
AcDbBlockBegin
  2
*D6
 70
     1
 71
     0
 10
0.0
 20
0.0
 30
0.0
  3
*D6
  1

  0
LINE
  5
1F320
330
1C8D2
100
AcDbEntity
  8
AM_5
 62
     3
370
    13
100
AcDbLine
 10
117.9999999999996
 20
-0.1250000000002558
 30
0.0
 11
117.9999999999996
 21
-31.56850798965553
 31
0.0
  0
LINE
  5
1F321
330
1C8D2
100
AcDbEntity
  8
AM_5
 62
     3
370
    13
100
AcDbLine
 10
141.9999999999994
 20
-0.125000000000739
 30
0.0
 11
141.9999999999994
 21
-31.56850798965553
 31
0.0
  0
LINE
  5
1F322
330
1C8D2
100
AcDbEntity
  8
AM_5
 62
     3
370
    13
100
AcDbLine
 10
120.4999999999996
 20
-30.56850798965553
 30
0.0
 11
139.4999999999994
 21
-30.56850798965553
 31
0.0
  0
INSERT
  5
1F323
330
1C8D2
100
AcDbEntity
  8
AM_5
 62
     3
370
    13
100
AcDbBlockReference
  2
_Open30
 10
117.9999999999996
 20
-30.56850798965553
 30
0.0
 41
2.5
 42
2.5
 43
2.5
 50
180.0
  0
INSERT
  5
1F324
330
1C8D2
100
AcDbEntity
  8
AM_5
 62
     3
370
    13
100
AcDbBlockReference
  2
_Open30
 10
141.9999999999994
 20
-30.56850798965553
 30
0.0
 41
2.5
 42
2.5
 43
2.5
  0
MTEXT
  5
1F325
330
1C8D2
100
AcDbEntity
  8
AM_5
 62
     2
100
AcDbMText
 10
129.9999999999995
 20
-27.1681339739075
 30
0.0
 40
3.8
 41
0.0
 71
     5
 72
     1
  1
24
 73
     1
 44
1.0
  0
POINT
  5
1F326
330
1C8D2
100
AcDbEntity
  8
Defpoints
 62
     0
100
AcDbPoint
 10
117.9999999999996
 20
-0.1250000000002558
 30
0.0
  0
POINT
  5
1F327
330
1C8D2
100
AcDbEntity
  8
Defpoints
 62
     0
100
AcDbPoint
 10
141.9999999999994
 20
-0.125000000000739
 30
0.0
  0
POINT
  5
1F328
330
1C8D2
100
AcDbEntity
  8
Defpoints
 62
     0
100
AcDbPoint
 10
141.9999999999994
 20
-30.56850798965553
 30
0.0
  0
ENDBLK
  5
1C90B
330
1C8D2
100
AcDbEntity
  8
0
100
AcDbBlockEnd
  0
BLOCK
  5
1CA87
330
1CA4C
100
AcDbEntity
  8
0
100
AcDbBlockBegin
  2
*D7
 70
     1
 71
     0
 10
0.0
 20
0.0
 30
0.0
  3
*D7
  1

  0
LINE
  5
1F329
330
1CA4C
100
AcDbEntity
  8
AM_5
 62
     3
370
    13
100
AcDbLine
 10
-2.716630692164245
 20
3.374999999999773
 30
0.0
 11
-13.15682703971265
 21
3.374999999999776
 31
0.0
  0
LINE
  5
1F32A
330
1CA4C
100
AcDbEntity
  8
AM_5
 62
     3
370
    13
100
AcDbLine
 10
-1.889392982128925
 20
0.0
 30
0.0
 11
-13.15682703971265
 21
0.0000000000000032
 31
0.0
  0
LINE
  5
1F32B
330
1CA4C
100
AcDbEntity
  8
AM_5
 62
     3
370
    13
100
AcDbLine
 10
-12.15682703971265
 20
-2.499999999999997
 30
0.0
 11
-12.15682703971266
 21
-4.999999999999997
 31
0.0
  0
LINE
  5
1F32C
330
1CA4C
100
AcDbEntity
  8
AM_5
 62
     3
370
    13
100
AcDbLine
 10
-12.15682703971265
 20
5.874999999999775
 30
0.0
 11
-12.15682703971265
 21
24.93115481912805
 31
0.0
  0
LINE
  5
1F32D
330
1CA4C
100
AcDbEntity
  8
AM_5
 62
     3
370
    13
100
AcDbLine
 10
-12.15682703971265
 20
0.0000000000000029
 30
0.0
 11
-12.15682703971265
 21
3.374999999999775
 31
0.0
  0
INSERT
  5
1F32E
330
1CA4C
100
AcDbEntity
  8
AM_5
 62
     3
370
    13
100
AcDbBlockReference
  2
_Open30
 10
-12.15682703971265
 20
0.0000000000000029
 30
0.0
 41
2.5
 42
2.5
 43
2.5
 50
90.0
  0
INSERT
  5
1F32F
330
1CA4C
100
AcDbEntity
  8
AM_5
 62
     3
370
    13
100
AcDbBlockReference
  2
_Open30
 10
-12.15682703971265
 20
3.374999999999775
 30
0.0
 41
2.5
 42
2.5
 43
2.5
 50
270.0
  0
MTEXT
  5
1F330
330
1CA4C
100
AcDbEntity
  8
AM_5
 62
     2
100
AcDbMText
 10
-17.45682703971265
 20
16.65307740956392
 30
0.0
 40
3.8
 41
0.0
 71
     5
 72
     1
  1
3.5{\H2x;}{\A2;\H0.71x;\C2;\S 0^ -0.25
 11
6.123031769111886E-17
 21
1.0
 31
0.0
 73
     1
 44
1.0
  0
POINT
  5
1F331
330
1CA4C
100
AcDbEntity
  8
Defpoints
 62
     0
100
AcDbPoint
 10
-2.716630692164245
 20
3.374999999999773
 30
0.0
  0
POINT
  5
1F332
330
1CA4C
100
AcDbEntity
  8
Defpoints
 62
     0
100
AcDbPoint
 10
-1.889392982128925
 20
0.0
 30
0.0
  0
POINT
  5
1F333
330
1CA4C
100
AcDbEntity
  8
Defpoints
 62
     0
100
AcDbPoint
 10
-12.15682703971265
 20
0.0000000000000029
 30
0.0
  0
ENDBLK
  5
1CA88
330
1CA4C
100
AcDbEntity
  8
0
100
AcDbBlockEnd
  0
BLOCK
  5
1E9C0
330
1E961
100
AcDbEntity
  8
0
100
AcDbBlockBegin
  2
*D8
 70
     1
 71
     0
 10
0.0
 20
0.0
 30
0.0
  3
*D8
  1

  0
LINE
  5
1F334
330
1E961
100
AcDbEntity
  8
AM_5
100
AcDbLine
 10
121.4096596103715
 20
-8.921587005764124
 30
0.0
 11
119.9779362121001
 21
-10.97101817339146
 31
0.0
  0
LINE
  5
1F335
330
1E961
100
AcDbEntity
  8
AM_5
100
AcDbLine
 10
138.5903403896277
 20
15.6715870057639
 30
0.0
 11
143.1797298078823
 21
22.24103870677415
 31
0.0
  0
LINE
  5
1F336
330
1E961
100
AcDbEntity
  8
AM_5
100
AcDbLine
 10
143.1797298078823
 20
22.24103870677415
 30
0.0
 11
152.4371309615841
 21
22.24103870677415
 31
0.0
  0
LINE
  5
1F337
330
1E961
100
AcDbEntity
  8
AM_5
100
AcDbLine
 10
122.8413830086428
 20
-6.872155838136791
 30
0.0
 11
137.1586169913564
 21
13.62215583813656
 31
0.0
  0
INSERT
  5
1F338
330
1E961
100
AcDbEntity
  8
AM_5
100
AcDbBlockReference
  2
_Open30
 10
122.8413830086428
 20
-6.872155838136791
 30
0.0
 41
2.5
 42
2.5
 43
2.5
 50
55.06202331507464
  0
INSERT
  5
1F339
330
1E961
100
AcDbEntity
  8
AM_5
100
AcDbBlockReference
  2
_Open30
 10
137.1586169913564
 20
13.62215583813656
 30
0.0
 41
2.5
 42
2.5
 43
2.5
 50
235.0620233150747
  0
MTEXT
  5
1F33A
330
1E961
100
AcDbEntity
  8
AM_5
 62
     2
100
AcDbMText
 10
148.5584303847331
 20
25.64141272252219
 30
0.0
 40
3.8
 41
0.0
 71
     5
 72
     1
  1
\U+220525{
 73
     1
 44
1.0
  0
POINT
  5
1F33B
330
1E961
100
AcDbEntity
  8
Defpoints
 62
     0
100
AcDbPoint
 10
137.1586169913564
 20
13.62215583813656
 30
0.0
  0
POINT
  5
1F33C
330
1E961
100
AcDbEntity
  8
Defpoints
 62
     0
100
AcDbPoint
 10
122.8413830086428
 20
-6.872155838136791
 30
0.0
  0
ENDBLK
  5
1E9C1
330
1E961
100
AcDbEntity
  8
0
100
AcDbBlockEnd
  0
BLOCK
  5
1EC36
330
1EC0D
100
AcDbEntity
  8
0
100
AcDbBlockBegin
  2
*D9
 70
     1
 71
     0
 10
0.0
 20
0.0
 30
0.0
  3
*D9
  1

  0
LINE
  5
1F33D
330
1EC0D
100
AcDbEntity
  8
AM_5
 62
     3
370
    13
100
AcDbLine
 10
7.818358811651478
 20
6.703071333384629
 30
0.0
 11
16.2563455599138
 21
13.29554909645587
 31
0.0
  0
LINE
  5
1F33E
330
1EC0D
100
AcDbEntity
  8
AM_5
 62
     3
370
    13
100
AcDbLine
 10
0.0
 20
0.5946999709694368
 30
0.0
 11
0.0000000000000018
 21
21.22429859701398
 31
0.0
  0
ARC
  5
1F33F
330
1EC0D
100
AcDbEntity
  8
AM_5
 62
     3
370
    13
100
AcDbCircle
 10
0.0
 20
0.5946999709694368
 30
0.0
 40
19.62959862604454
100
AcDbArc
 50
45.30205624666955
 51
82.69794375332933
  0
INSERT
  5
1F340
330
1EC0D
100
AcDbEntity
  8
AM_5
 62
     3
370
    13
100
AcDbBlockReference
  2
_Open30
 10
15.46833480630707
 20
12.67988762113023
 30
0.0
 41
2.5
 42
2.5
 43
2.5
 50
311.6510281233342
  0
INSERT
  5
1F341
330
1EC0D
100
AcDbEntity
  8
AM_5
 62
     3
370
    13
100
AcDbBlockReference
  2
_Open30
 10
0.0000000000000018
 20
20.22429859701398
 30
0.0
 41
2.5
 42
2.5
 43
2.5
 50
176.3489718766647
  0
MTEXT
  5
1F342
330
1EC0D
100
AcDbEntity
  8
AM_5
 62
     2
100
AcDbMText
 10
10.09567551750389
 20
21.2939022678452
 30
0.0
 40
3.8
 41
0.0
 71
     5
 72
     1
  1
52°
 11
0.8987940462991626
 21
-0.4383711467890863
 31
0.0
 73
     1
 44
1.0
  0
POINT
  5
1F343
330
1EC0D
100
AcDbEntity
  8
Defpoints
 62
     0
100
AcDbPoint
 10
11.16533774455254
 20
16.73955597124643
 30
0.0
  0
POINT
  5
1F344
330
1EC0D
100
AcDbEntity
  8
Defpoints
 62
     0
100
AcDbPoint
 10
0.0
 20
0.4015139101466047
 30
0.0
  0
POINT
  5
1F345
330
1EC0D
100
AcDbEntity
  8
Defpoints
 62
     0
100
AcDbPoint
 10
0.1516759372793786
 20
0.7132022006527449
 30
0.0
  0
POINT
  5
1F346
330
1EC0D
100
AcDbEntity
  8
Defpoints
 62
     0
100
AcDbPoint
 10
7.818358811651478
 20
6.703071333384629
 30
0.0
  0
POINT
  5
1F347
330
1EC0D
100
AcDbEntity
  8
Defpoints
 62
     0
100
AcDbPoint
 10
0.0
 20
-1.803621898548499
 30
0.0
  0
ENDBLK
  5
1EC37
330
1EC0D
100
AcDbEntity
  8
0
100
AcDbBlockEnd
  0
BLOCK
  5
1EDE4
330
1EDBD
100
AcDbEntity
  8
0
100
AcDbBlockBegin
  2
*D10
 70
     1
 71
     0
 10
0.0
 20
0.0
 30
0.0
  3
*D10
  1

  0
LINE
  5
1F348
330
1EDBD
100
AcDbEntity
  8
AM_5
100
AcDbLine
 10
-68.47813699359017
 20
0.0768018605760332
 30
0.0
 11
-69.78391815233012
 21
-2.055083587913121
 31
0.0
  0
LINE
  5
1F349
330
1EDBD
100
AcDbEntity
  8
AM_5
100
AcDbLine
 10
-50.19720077123107
 20
29.92319813942414
 30
0.0
 11
-45.70987802077512
 21
37.24943194999839
 31
0.0
  0
LINE
  5
1F34A
330
1EDBD
100
AcDbEntity
  8
AM_5
100
AcDbLine
 10
-45.70987802077512
 20
37.24943194999839
 30
0.0
 11
-8.676885894790884
 21
37.24943194999839
 31
0.0
  0
LINE
  5
1F34B
330
1EDBD
100
AcDbEntity
  8
AM_5
100
AcDbLine
 10
-67.17235583485024
 20
2.208687309065184
 30
0.0
 11
-51.50298192997102
 21
27.79131269093499
 31
0.0
  0
INSERT
  5
1F34C
330
1EDBD
100
AcDbEntity
  8
AM_5
100
AcDbBlockReference
  2
_Open30
 10
-67.17235583485024
 20
2.208687309065184
 30
0.0
 41
2.5
 42
2.5
 43
2.5
 50
58.51250480800943
  0
INSERT
  5
1F34D
330
1EDBD
100
AcDbEntity
  8
AM_5
100
AcDbBlockReference
  2
_Open30
 10
-51.50298192997102
 20
27.79131269093499
 30
0.0
 41
2.5
 42
2.5
 43
2.5
 50
238.5125048080094
  0
MTEXT
  5
1F34E
330
1EDBD
100
AcDbEntity
  8
AM_5
 62
     2
100
AcDbMText
 10
-26.44338195778303
 20
40.6494319499984
 30
0.0
 40
3.8
 41
0.0
 71
     5
 72
     1
  1
最小加工径：\U+220530
 73
     1
 44
1.0
  0
POINT
  5
1F34F
330
1EDBD
100
AcDbEntity
  8
Defpoints
 62
     0
100
AcDbPoint
 10
-51.50298192997102
 20
27.79131269093499
 30
0.0
  0
POINT
  5
1F350
330
1EDBD
100
AcDbEntity
  8
Defpoints
 62
     0
100
AcDbPoint
 10
-67.17235583485024
 20
2.208687309065184
 30
0.0
  0
ENDBLK
  5
1EDE5
330
1EDBD
100
AcDbEntity
  8
0
100
AcDbBlockEnd
  0
BLOCK
  5
1F17A
330
1F164
100
AcDbEntity
  8
0
100
AcDbBlockBegin
  2
*D11
 70
     1
 71
     0
 10
0.0
 20
0.0
 30
0.0
  3
*D11
  1

  0
LINE
  5
1F351
330
1F164
100
AcDbEntity
  8
AM_5
 62
     3
370
    13
100
AcDbLine
 10
0.0
 20
0.0
 30
0.0
 11
-0.0000000000000033
 21
-54.37751567670554
 31
0.0
  0
LINE
  5
1F352
330
1F164
100
AcDbEntity
  8
AM_5
 62
     3
370
    13
100
AcDbLine
 10
250.0000000000001
 20
-8.125000000000398
 30
0.0
 11
250.0000000000001
 21
-54.37751567670554
 31
0.0
  0
LINE
  5
1F353
330
1F164
100
AcDbEntity
  8
AM_5
 62
     3
370
    13
100
AcDbLine
 10
2.499999999999997
 20
-53.37751567670554
 30
0.0
 11
247.5000000000001
 21
-53.37751567670554
 31
0.0
  0
INSERT
  5
1F354
330
1F164
100
AcDbEntity
  8
AM_5
 62
     3
370
    13
100
AcDbBlockReference
  2
_Open30
 10
-0.0000000000000033
 20
-53.37751567670554
 30
0.0
 41
2.5
 42
2.5
 43
2.5
 50
180.0
  0
INSERT
  5
1F355
330
1F164
100
AcDbEntity
  8
AM_5
 62
     3
370
    13
100
AcDbBlockReference
  2
_Open30
 10
250.0000000000001
 20
-53.37751567670554
 30
0.0
 41
2.5
 42
2.5
 43
2.5
  0
MTEXT
  5
1F356
330
1F164
100
AcDbEntity
  8
AM_5
 62
     2
100
AcDbMText
 10
125.0
 20
-49.97714166095751
 30
0.0
 40
3.8
 41
0.0
 71
     5
 72
     1
  1
250
 73
     1
 44
1.0
  0
POINT
  5
1F357
330
1F164
100
AcDbEntity
  8
Defpoints
 62
     0
100
AcDbPoint
 10
0.0
 20
0.0
 30
0.0
  0
POINT
  5
1F358
330
1F164
100
AcDbEntity
  8
Defpoints
 62
     0
100
AcDbPoint
 10
250.0000000000001
 20
-8.125000000000398
 30
0.0
  0
POINT
  5
1F359
330
1F164
100
AcDbEntity
  8
Defpoints
 62
     0
100
AcDbPoint
 10
250.0000000000001
 20
-53.37751567670554
 30
0.0
  0
ENDBLK
  5
1F17B
330
1F164
100
AcDbEntity
  8
0
100
AcDbBlockEnd
  0
ENDSEC
  0
SECTION
  2
ENTITIES
  0
TEXT
  5
17604
330
1F
100
AcDbEntity
  8
AM_6
100
AcDbText
 10
217.362835492669
 20
-5.649660075781441
 30
0.0
 40
3.0
  1

 41
0.8947931617610168
100
AcDbText
  0
TEXT
  5
1BAC8
330
1F
100
AcDbEntity
  8
AM_6
100
AcDbText
 10
457.2220181335996
 20
181.3583159154434
 30
0.0
 40
3.0
  1

 41
0.816434387114763
100
AcDbText
  0
TEXT
  5
1BACB
330
1F
100
AcDbEntity
  8
AM_6
100
AcDbText
 10
457.2220181335996
 20
175.3583159154434
 30
0.0
 40
3.0
  1

 41
0.6407426409886019
100
AcDbText
  0
TEXT
  5
1BACC
330
1F
100
AcDbEntity
  8
AM_6
100
AcDbText
 10
457.2220181335996
 20
169.3583159154434
 30
0.0
 40
3.0
  1

 41
0.6407426409886019
100
AcDbText
  0
LINE
  5
1C724
330
1F
100
AcDbEntity
  8
AM_7
100
AcDbLine
 10
-59.33766888241041
 20
-12.00740400153137
 30
0.0
 11
-59.33766888241041
 21
33.39704552621535
 31
0.0
1001
GENIUS_GENODEF_13
1002
{
1000
HIER
1070
     0
1002
}
1002
{
1000
MANEDIT
1070
     0
1002
}
1002
{
1000
NOSEL
1070
     0
1002
}
1002
{
1000
BEHIND
1070
     0
1002
}
1002
{
1000
OTHER
1070
     0
1002
}
1002
{
1000
REACTOR
1002
}
1001
GENIUS_GENOBJ-N-CEN_13
1002
{
1000
OWNER
1000
GEN
1002
}
1001
GENIUS_GENCEN_19
1002
{
1040
2.794
1002
}
  0
DIMENSION
  5
1C7D9
330
1F
100
AcDbEntity
  8
AM_5
100
AcDbDimension
  2
*D4
 10
-0.0000000000000024
 20
-40.65212758243689
 30
0.0
 11
30.99999999999966
 21
-37.25175356668886
 31
0.0
 70
    32
 71
     5
 42
61.99999999999932
  3
AM_JIS$0
100
AcDbAlignedDimension
 13
61.99999999999932
 23
-8.62500000000037
 33
0.0
 14
0.0
 24
-1.803621898548499
 34
0.0
100
AcDbRotatedDimension
1001
ACAD
1000
DSTYLE
1002
{
1070
   179
1070
     0
1070
   271
1070
     0
1002
}
  0
CIRCLE
  5
1C7F2
330
1F
100
AcDbEntity
  8
AM_11
  6
ACJISTGB
100
AcDbCircle
 10
44.99999999999929
 20
-9.50000000000037
 30
0.0
 40
10.0
  0
LINE
  5
1C7FF
330
1F
100
AcDbEntity
  8
AM_7
100
AcDbLine
 10
57.7939999999993
 20
-9.50000000000037
 30
0.0
 11
32.20599999999922
 21
-9.500000000000341
 31
0.0
1001
GENIUS_GENOBJ-N-CEN_13
1002
{
1000
OWNER
1000
GEN
1002
}
1001
GENIUS_GENODEF_13
1002
{
1000
HIER
1070
     0
1002
}
1002
{
1000
MANEDIT
1070
     0
1002
}
1002
{
1000
NOSEL
1070
     0
1002
}
1002
{
1000
BEHIND
1070
     0
1002
}
1002
{
1000
OTHER
1070
     0
1002
}
1002
{
1000
REACTOR
1002
}
1001
GENIUS_GENCEN_19
1002
{
1040
2.794
1002
}
  0
LINE
  5
1C80C
330
1F
100
AcDbEntity
  8
AM_7
100
AcDbLine
 10
44.99999999999932
 20
-22.29400000000038
 30
0.0
 11
44.99999999999932
 21
1.158153709652538
 31
0.0
1001
GENIUS_GENODEF_13
1002
{
1000
HIER
1070
     0
1002
}
1002
{
1000
MANEDIT
1070
     0
1002
}
1002
{
1000
NOSEL
1070
     0
1002
}
1002
{
1000
BEHIND
1070
     0
1002
}
1002
{
1000
OTHER
1070
     0
1002
}
1002
{
1000
REACTOR
1002
}
1001
GENIUS_GENOBJ-N-CEN_13
1002
{
1000
OWNER
1000
GEN
1002
}
1001
GENIUS_GENCEN_19
1002
{
1040
2.794
1002
}
  0
DIMENSION
  5
1C81C
330
1F
100
AcDbEntity
  8
AM_5
100
AcDbDimension
  2
*D5
 10
-0.0000000000000018
 20
-30.65212758243695
 30
0.0
 11
22.49999999999966
 21
-27.25212758243695
 31
0.0
 70
    32
 71
     5
 42
44.99999999999932
  3
AM_JIS$0
100
AcDbAlignedDimension
 13
44.99999999999932
 23
-22.29400000000038
 33
0.0
 14
0.0
 24
-1.803621898548499
 34
0.0
100
AcDbRotatedDimension
1001
ACAD
1000
DSTYLE
1002
{
1070
   271
1070
     0
1002
}
  0
DIMENSION
  5
1C8D1
330
1F
100
AcDbEntity
  8
AM_5
100
AcDbDimension
  2
*D6
 10
141.9999999999994
 20
-30.56850798965553
 30
0.0
 11
129.9999999999995
 21
-27.1681339739075
 31
0.0
 70
    32
 71
     5
 42
23.99999999999989
  3
AM_JIS$0
100
AcDbAlignedDimension
 13
117.9999999999996
 23
-0.1250000000002558
 33
0.0
 14
141.9999999999994
 24
-0.125000000000739
 34
0.0
100
AcDbRotatedDimension
1001
ACAD
1000
DSTYLE
1002
{
1070
   179
1070
     0
1070
   271
1070
     0
1002
}
  0
DIMENSION
  5
1CA4B
330
1F
100
AcDbEntity
  8
AM_5
100
AcDbDimension
  2
*D7
 10
-12.15682703971265
 20
0.0000000000000029
 30
0.0
 11
-12.15682703971265
 21
16.65307740956392
 31
0.0
 70
   160
  1
3.5{\H2x;}{\A2;\H0.71x;\C2;\S 0^ -0.25
 71
     5
 42
3.374999999999773
  3
AM_JIS$0
100
AcDbAlignedDimension
 13
-2.716630692164245
 23
3.374999999999773
 33
0.0
 14
-1.889392982128925
 24
0.0
 34
0.0
 50
90.0
100
AcDbRotatedDimension
1001
ACAD
1000
DSTYLE
1002
{
1070
   179
1070
     0
1070
   271
1070
     0
1002
}
  0
TEXT
  5
1D740
330
1F
100
AcDbEntity
  8
AM_0
100
AcDbText
 10
12.93892953321966
 20
-138.8016844575653
 30
0.0
 40
5.0
  1
B25S-SVJBR1103-30
 41
0.9
100
AcDbText
  0
LINE
  5
1DFFC
330
1F
100
AcDbEntity
  8
AM_0
100
AcDbLine
 10
-47.33766888241007
 20
3.374999999999943
 30
0.0
 11
-47.33766888241007
 21
6.87499999999983
 31
0.0
  0
LINE
  5
1DFFD
330
1F
100
AcDbEntity
  8
AM_0
100
AcDbLine
 10
-47.3376688824103
 20
-0.1250000000001705
 30
0.0
 11
-47.33766888241007
 21
3.374999999999943
 31
0.0
  0
LINE
  5
1DFFE
330
1F
100
AcDbEntity
  8
AM_0
100
AcDbLine
 10
-71.33766888241019
 20
3.374999999999886
 30
0.0
 11
-71.33766888241007
 21
6.87499999999983
 31
0.0
  0
LINE
  5
1DFFF
330
1F
100
AcDbEntity
  8
AM_0
100
AcDbLine
 10
-71.33766888241019
 20
-0.1250000000001137
 30
0.0
 11
-71.33766888241019
 21
3.374999999999886
 31
0.0
  0
ARC
  5
1E000
330
1F
100
AcDbEntity
  8
AM_0
100
AcDbCircle
 10
-59.33775264655742
 20
3.374920284043355
 30
0.0
 40
12.00010085419922
100
AcDbArc
 50
14.29558661923331
 51
72.86725704395211
  0
LINE
  5
1E001
330
1F
100
AcDbEntity
  8
AM_0
100
AcDbLine
 10
-57.81949219791761
 20
6.998655339349227
 30
0.0
 11
-57.4075671911404
 21
8.274798604075272
 31
0.0
  0
LINE
  5
1E002
330
1F
100
AcDbEntity
  8
AM_0
100
AcDbLine
 10
-57.81949219791761
 20
6.998655339349227
 30
0.0
 11
-58.33431401750465
 21
6.720685969572855
 31
0.0
  0
ARC
  5
1E003
330
1F
100
AcDbEntity
  8
AM_0
100
AcDbCircle
 10
-59.33766888241041
 20
3.374999999999773
 30
0.0
 40
12.0
100
AcDbArc
 50
72.86752711646112
 51
77.1458636420643
  0
ARC
  5
1E004
330
1F
100
AcDbEntity
  8
AM_0
100
AcDbCircle
 10
-59.33766888241041
 20
3.374999999999773
 30
0.0
 40
12.0
100
AcDbArc
 50
77.1458636420643
 51
165.7046834566143
  0
LINE
  5
1E005
330
1F
100
AcDbEntity
  8
AM_0
100
AcDbLine
 10
-56.66803157094603
 20
15.07427504699476
 30
0.0
 11
-58.33431401750465
 21
6.720685969572855
 31
0.0
  0
LINE
  5
1E006
330
1F
100
AcDbEntity
  8
AM_0
100
AcDbLine
 10
-58.33431401750465
 20
6.720685969572855
 30
0.0
 11
-59.71031531831522
 21
6.722374283078921
 31
0.0
  0
LINE
  5
1E007
330
1F
100
AcDbEntity
  8
AM_0
100
AcDbLine
 10
-61.17808081143153
 20
6.864021047515507
 30
0.0
 11
-59.71031531831522
 21
6.722374283078921
 31
0.0
  0
LINE
  5
1E008
330
1F
100
AcDbEntity
  8
AM_0
100
AcDbLine
 10
-61.20596890613729
 20
6.7242094064556
 30
0.0
 11
-61.17808081143164
 21
6.864021047515678
 31
0.0
  0
ARC
  5
1E009
330
1F
100
AcDbEntity
  8
AM_0
100
AcDbCircle
 10
-59.33766888241041
 20
3.374999999999773
 30
0.0
 40
12.0
100
AcDbArc
 50
201.2476120144166
 51
338.7523879855847
  0
ARC
  5
1E00A
330
1F
100
AcDbEntity
  8
AM_0
100
AcDbCircle
 10
-59.33728409093874
 20
3.374976625929207
 30
0.0
 40
11.99963289534066
100
AcDbArc
 50
338.751826169206
 51
14.29587835977176
  0
ARC
  5
1E00B
330
1F
100
AcDbEntity
  8
AM_0
100
AcDbCircle
 10
-59.33539960052508
 20
3.375137847012525
 30
0.0
 40
12.00216499855757
100
AcDbArc
 50
165.7079960320264
 51
201.2442994389984
  0
ARC
  5
1E00C
330
1F
100
AcDbEntity
  8
AM_0
100
AcDbCircle
 10
-59.33766888241041
 20
14.99999999999983
 30
0.0
 40
14.5
100
AcDbArc
 50
216.6822488145985
 51
257.7658513458921
  0
ARC
  5
1E00D
330
1F
100
AcDbEntity
  8
AM_0
100
AcDbCircle
 10
-59.33766888241041
 20
14.99999999999983
 30
0.0
 40
14.5
100
AcDbArc
 50
273.7203668448411
 51
279.1064416402463
  0
ARC
  5
1E00E
330
1F
100
AcDbEntity
  8
AM_0
100
AcDbCircle
 10
-59.33775169026387
 20
15.00013666628036
 30
0.0
 40
14.50014804978882
100
AcDbArc
 50
279.1066792536792
 51
323.3175135758125
  0
ARC
  5
1E00F
330
1F
100
AcDbEntity
  8
AM_0
100
AcDbCircle
 10
-59.33766888241041
 20
3.374999999999773
 30
0.0
 40
12.5
100
AcDbArc
 50
16.26020470831291
 51
163.7397952916875
  0
ARC
  5
1E010
330
1F
100
AcDbEntity
  8
AM_0
100
AcDbCircle
 10
-59.33766888241041
 20
3.374999999999773
 30
0.0
 40
12.5
100
AcDbArc
 50
196.2602047083128
 51
343.7397952916876
  0
ELLIPSE
  5
1E011
330
1F
100
AcDbEntity
  8
AM_0
100
AcDbEllipse
 10
-57.48395442383242
 20
6.873607648997904
 30
0.0
 11
0.130865983960164
 21
1.494280460369519
 31
-1.016952463079293E-16
210
5.914865987625959E-18
220
6.753831976462400E-17
230
1.0
 40
0.0867572354295473
 41
4.930959311535847
 42
6.645699063990273
  0
LINE
  5
1E012
330
1F
100
AcDbEntity
  8
AM_0
100
AcDbLine
 10
-59.2619207588973
 20
0.7132022006529155
 30
0.0
 11
-58.06712727545551
 21
6.703071333384912
 31
0.0
  0
LINE
  5
1E013
330
1F
100
AcDbEntity
  8
AM_0
100
AcDbLine
 10
-61.23791288165432
 20
6.706961794942686
 30
0.0
 11
-62.42201413467353
 21
0.770696119088143
 31
0.0
  0
LINE
  5
1E014
330
1F
100
AcDbEntity
  8
AM_0
100
AcDbLine
 10
-58.06712727545551
 20
6.703071333384912
 30
0.0
 11
-57.17254510806731
 21
7.186085906235633
 31
0.0
  0
LINE
  5
1E015
330
1F
100
AcDbEntity
  8
AM_0
100
AcDbLine
 10
-58.06712727545551
 20
6.703071333384912
 30
0.0
 11
-61.23791288165432
 21
6.706961794942686
 31
0.0
  0
LINE
  5
1E016
330
1F
100
AcDbEntity
  8
AM_0
100
AcDbLine
 10
-60.98206188091706
 20
6.845104233211373
 30
0.0
 11
-61.23791288165432
 21
6.706961794942686
 31
0.0
  0
LINE
  5
1E017
330
1F
100
AcDbEntity
  8
AM_0
100
AcDbLine
 10
-57.21139940067496
 20
6.473371471519613
 30
0.0
 11
-58.40619288411665
 21
0.4835023387876731
 31
0.0
  0
LINE
  5
1E018
330
1F
100
AcDbEntity
  8
AM_0
100
AcDbLine
 10
-58.40619288411665
 20
0.4835023387876731
 30
0.0
 11
-59.30077505150484
 21
0.0004877659368958
 31
0.0
  0
LINE
  5
1E019
330
1F
100
AcDbEntity
  8
AM_0
100
AcDbLine
 10
-57.75888027062808
 20
7.186431030312349
 30
0.0
 11
-57.17078042090236
 21
7.186573672082716
 31
0.0
  0
LINE
  5
1E01A
330
1F
100
AcDbEntity
  8
AM_0
100
AcDbLine
 10
-62.43454158554766
 20
0.5535649684247233
 30
0.0
 11
-59.30306652518186
 21
0.0000461349600869
 31
0.0
  0
ELLIPSE
  5
1E01B
330
1F
100
AcDbEntity
  8
AM_0
100
AcDbEllipse
 10
-57.2054136104656
 20
6.788087380953755
 30
0.0
 11
0.03489759572271204
 21
0.3984747894318714
 31
-2.188514881021285E-17
210
4.773369221938749E-18
220
5.450425039896707E-17
230
1.0
 40
0.0867572354295478
 41
3.809539029499486
 42
6.340266444891329
  0
ELLIPSE
  5
1E01C
330
1F
100
AcDbEntity
  8
AM_0
100
AcDbEllipse
 10
-59.26790654910644
 20
0.3984862912188305
 30
0.0
 11
0.03489759572271204
 21
0.3984747894318714
 31
-2.188514881021285E-17
210
4.773369221938749E-18
220
5.450425039896707E-17
230
1.0
 40
0.0867572354295478
 41
0.6679463759096941
 42
3.19867379130146
  0
ELLIPSE
  5
1E01D
330
1F
100
AcDbEntity
  8
AM_0
100
AcDbEllipse
 10
-62.42383659903794
 20
0.6748761003925665
 30
0.0
 11
0.01062510084282875
 21
0.1213216765613326
 31
-2.387547845514654E-18
210
1.710369937482652E-18
220
1.952969213422097E-17
230
1.0
 40
0.0867572354295477
 41
0.6679463759094677
 42
3.133973577716012
  0
LINE
  5
1E01E
330
1F
100
AcDbEntity
  8
AM_0
100
AcDbLine
 10
-57.98692111490072
 20
5.303017862077581
 30
0.0
 11
-58.08616419823193
 21
5.311709365510751
 31
0.0
  0
LINE
  5
1E01F
330
1F
100
AcDbEntity
  8
AM_0
100
AcDbLine
 10
-58.28791287800902
 20
1.866172803227755
 30
0.0
 11
-58.38715596134045
 21
1.874864306660868
 31
0.0
  0
LINE
  5
1E020
330
1F
100
AcDbEntity
  8
AM_0
100
AcDbLine
 10
-58.13628053278524
 20
4.201833487496742
 30
0.0
 11
-58.15977386412237
 21
4.203890984736063
 31
0.0
  0
LINE
  5
1E021
330
1F
100
AcDbEntity
  8
AM_0
100
AcDbLine
 10
-58.03124618712332
 20
4.192634797318249
 30
0.0
 11
-58.13628053278524
 21
4.201833487496742
 31
0.0
  0
LINE
  5
1E022
330
1F
100
AcDbEntity
  8
AM_0
100
AcDbLine
 10
-58.13855346012474
 20
2.967357177808481
 30
0.0
 11
-58.24358780578666
 21
2.976555867987031
 31
0.0
  0
LINE
  5
1E023
330
1F
100
AcDbEntity
  8
AM_0
100
AcDbLine
 10
-58.24358780578666
 20
2.976555867987031
 30
0.0
 11
-58.2670811371238
 21
2.978613365226408
 31
0.0
  0
ELLIPSE
  5
1E024
330
1F
100
AcDbEntity
  8
AM_0
100
AcDbEllipse
 10
-58.13741699645505
 20
3.584595332652555
 30
0.0
 11
0.1504958815541803
 21
1.718422529424948
 31
-6.984728140700381E-17
210
3.532611867930235E-18
220
4.033678369716594E-17
230
1.0
 40
0.0867572354295478
 41
3.931698328389883
 42
10.21488363556947
  0
ELLIPSE
  5
1E025
330
1F
100
AcDbEntity
  8
AM_0
100
AcDbEllipse
 10
-58.09811128746367
 20
4.637665288437916
 30
0.0
 11
0.0381692453217124
 21
0.4358318009411097
 31
-1.657715466005857E-17
210
3.305730523197343E-18
220
3.774616121455088E-17
230
1.0
 40
0.0867572354295478
 41
2.854157034900477
 42
4.476225823475543
  0
ELLIPSE
  5
1E026
330
1F
100
AcDbEntity
  8
AM_0
100
AcDbEllipse
 10
-58.05835213114563
 20
4.487389777459214
 30
0.0
 11
0.0163582479950188
 21
0.1867850575461615
 31
-1.271190578849519E-17
210
5.914865987628998E-18
220
6.753831976465563E-17
230
0.9999999999999999
 40
0.0867572354295478
 41
4.948552137293547
 42
7.617818477065569
  0
ELLIPSE
  5
1E027
330
1F
100
AcDbEntity
  8
AM_0
100
AcDbEllipse
 10
-57.99307694180163
 20
4.628466598259422
 30
0.0
 11
0.0381692453217124
 21
0.4358318009411097
 31
-1.657715466005857E-17
210
3.305730523197343E-18
220
3.774616121455088E-17
230
1.0
 40
0.0867572354295478
 41
1.806959483703741
 42
3.429028272279023
  0
ELLIPSE
  5
1E028
330
1F
100
AcDbEntity
  8
AM_0
100
AcDbEllipse
 10
-58.03005403320879
 20
4.030052097849989
 30
0.0
 11
0.0163582479950188
 21
0.1867850575461615
 31
-1.271190578849519E-17
210
5.914865987628998E-18
220
6.753831976465563E-17
230
0.9999999999999999
 40
0.0867572354295478
 41
3.901354586096943
 42
6.570620925868968
  0
ELLIPSE
  5
1E029
330
1F
100
AcDbEntity
  8
AM_0
100
AcDbEllipse
 10
-58.03238265079312
 20
3.575396642474175
 30
0.0
 11
0.0381692453217124
 21
0.4358318009411097
 31
-1.657715466005857E-17
210
3.305730523197343E-18
220
3.774616121455088E-17
230
1.0
 40
0.0867572354295478
 41
0.7597619325072675
 42
2.381830721082754
  0
ELLIPSE
  5
1E02A
330
1F
100
AcDbEntity
  8
AM_0
100
AcDbEllipse
 10
-58.10911889851809
 20
3.1272576530435
 30
0.0
 11
0.0163582479950188
 21
0.1867850575461615
 31
-1.271190578849519E-17
210
5.914865987628998E-18
220
6.753831976465563E-17
230
0.9999999999999999
 40
0.0867572354295478
 41
2.854157034900307
 42
5.523423374672403
  0
ELLIPSE
  5
1E02B
330
1F
100
AcDbEntity
  8
AM_0
100
AcDbEllipse
 10
-58.17672270544631
 20
2.531525376867307
 30
0.0
 11
0.0381692453217124
 21
0.4358318009411097
 31
-1.657715466005857E-17
210
3.305730523197343E-18
220
3.774616121455088E-17
230
1.0
 40
0.0867572354295478
 41
5.995749688489982
 42
7.617818477065605
  0
ELLIPSE
  5
1E02C
330
1F
100
AcDbEntity
  8
AM_0
100
AcDbEllipse
 10
-58.21648186176424
 20
2.681800887846009
 30
0.0
 11
0.0163582479950188
 21
0.1867850575461615
 31
-1.271190578849519E-17
210
5.914865987628998E-18
220
6.753831976465563E-17
230
0.9999999999999999
 40
0.0867572354295478
 41
1.806959483703754
 42
4.476225823475775
  0
ELLIPSE
  5
1E02D
330
1F
100
AcDbEntity
  8
AM_0
100
AcDbEllipse
 10
-58.28175705110834
 20
2.540724067045858
 30
0.0
 11
0.0381692453217124
 21
0.4358318009411097
 31
-1.657715466005857E-17
210
3.305730523197343E-18
220
3.774616121455088E-17
230
1.0
 40
0.0867572354295478
 41
4.948552137293407
 42
6.570620925868753
  0
ELLIPSE
  5
1E02E
330
1F
100
AcDbEntity
  8
AM_0
100
AcDbEllipse
 10
-58.24477995970108
 20
3.139138567455177
 30
0.0
 11
0.0163582479950188
 21
0.1867850575461615
 31
-1.271190578849519E-17
210
5.914865987628998E-18
220
6.753831976465563E-17
230
0.9999999999999999
 40
0.0867572354295478
 41
0.7597619325071507
 42
3.429028272278985
  0
ELLIPSE
  5
1E02F
330
1F
100
AcDbEntity
  8
AM_0
100
AcDbEllipse
 10
-58.24245134211697
 20
3.593794022831219
 30
0.0
 11
0.0381692453217124
 21
0.4358318009411097
 31
-1.657715466005857E-17
210
3.305730523197343E-18
220
3.774616121455088E-17
230
1.0
 40
0.0867572354295478
 41
3.901354586096876
 42
5.52342337467227
  0
ELLIPSE
  5
1E030
330
1F
100
AcDbEntity
  8
AM_0
100
AcDbEllipse
 10
-58.16571509439189
 20
4.041933012261893
 30
0.0
 11
0.0163582479950188
 21
0.1867850575461615
 31
-1.271190578849519E-17
210
5.914865987628998E-18
220
6.753831976465563E-17
230
0.9999999999999999
 40
0.0867572354295478
 41
5.995749688490101
 42
8.665016028262304
  0
LINE
  5
1E040
330
1F
100
AcDbEntity
  8
AM_0
100
AcDbLine
 10
10.20667610059036
 20
2.365944913294356
 30
0.0
 11
10.21535182413322
 21
2.374636416727412
 31
0.0
  0
LINE
  5
1E041
330
1F
100
AcDbEntity
  8
AM_0
100
AcDbLine
 10
7.76494216307924
 20
4.803245752010525
 30
0.0
 11
7.773617886622333
 21
4.811937255443695
 31
0.0
  0
LINE
  5
1E042
330
1F
100
AcDbEntity
  8
AM_0
100
AcDbLine
 10
8.690088685035107
 20
4.328587283528009
 30
0.0
 11
8.776845920464666
 21
4.415502317859477
 31
0.0
  0
LINE
  5
1E043
330
1F
100
AcDbEntity
  8
AM_0
100
AcDbLine
 10
9.886890198669562
 20
3.884474647383627
 30
0.0
 11
9.907464477771555
 21
3.905086348132841
 31
0.0
  0
LINE
  5
1E044
330
1F
100
AcDbEntity
  8
AM_0
100
AcDbLine
 10
9.281529578634718
 20
2.840603381776987
 30
0.0
 11
9.368286814064277
 21
2.927518416108342
 31
0.0
  0
LINE
  5
1E045
330
1F
100
AcDbEntity
  8
AM_0
100
AcDbLine
 10
8.084728065000263
 20
3.284716017921369
 30
0.0
 11
8.171485300429822
 21
3.371631052252724
 31
0.0
  0
ELLIPSE
  5
1E046
330
1F
100
AcDbEntity
  8
AM_0
100
AcDbEllipse
 10
8.985809131834913
 20
3.584595332652384
 30
0.0
 11
1.220866968755508
 21
-1.218650419358128
 31
0.0
210
0.0
220
0.0
230
1.0
 40
0.9924308333117198
 41
-0.0000000000000089
 42
6.283185307179577
  0
ELLIPSE
  5
1E047
330
1F
100
AcDbEntity
  8
AM_0
100
AcDbEllipse
 10
8.380448511800068
 20
4.637665288437688
 30
0.0
 11
0.3096401732350927
 21
-0.3090780049096701
 31
0.0
210
0.0
220
0.0
230
1.0
 40
0.9924308333117198
 41
5.20564401369017
 42
6.827712802265237
  0
ELLIPSE
  5
1E048
330
1F
100
AcDbEntity
  8
AM_0
100
AcDbEllipse
 10
8.467205747229627
 20
4.724580322769157
 30
0.0
 11
-0.3096401732350927
 21
0.3090780049096701
 31
0.0
210
0.0
220
0.0
230
1.0
 40
0.9924308333117198
 41
3.141592653589773
 42
3.68612014867538
  0
ELLIPSE
  5
1E049
330
1F
100
AcDbEntity
  8
AM_0
100
AcDbEllipse
 10
8.985809131834913
 20
4.487389777459043
 30
0.0
 11
-0.1327029313864482
 21
0.1324620021041242
 31
0.0
210
0.0
220
0.0
230
1.0
 40
0.9924308333117198
 41
4.158446462493472
 42
6.827712802265495
  0
ELLIPSE
  5
1E04A
330
1F
100
AcDbEntity
  8
AM_0
100
AcDbEllipse
 10
9.072566367264471
 20
4.574304811790512
 30
0.0
 11
0.1327029313864482
 21
-0.1324620021041242
 31
0.0
210
0.0
220
0.0
230
1.0
 40
0.9924308333117198
 41
3.477872246614776
 42
3.686120148675701
  0
ELLIPSE
  5
1E04B
330
1F
100
AcDbEntity
  8
AM_0
100
AcDbEllipse
 10
9.591169751869757
 20
4.628466598259024
 30
0.0
 11
0.3096401732350927
 21
-0.3090780049096701
 31
0.0
210
0.0
220
0.0
230
1.0
 40
0.9924308333117198
 41
4.158446462493435
 42
5.780515251068717
  0
ELLIPSE
  5
1E04C
330
1F
100
AcDbEntity
  8
AM_0
100
AcDbEllipse
 10
9.767685418061092
 20
4.030052097849762
 30
0.0
 11
-0.1327029313864482
 21
0.1324620021041242
 31
0.0
210
0.0
220
0.0
230
1.0
 40
0.9924308333117198
 41
3.111248911296869
 42
5.780515251068893
  0
ELLIPSE
  5
1E04D
330
1F
100
AcDbEntity
  8
AM_0
100
AcDbEllipse
 10
10.1965303719046
 20
3.575396642473947
 30
0.0
 11
0.3096401732350927
 21
-0.3090780049096701
 31
0.0
210
0.0
220
0.0
230
1.0
 40
0.9924308333117198
 41
3.111248911296961
 42
4.733317699872446
  0
ELLIPSE
  5
1E04E
330
1F
100
AcDbEntity
  8
AM_0
100
AcDbEllipse
 10
9.767685418061092
 20
3.127257653043102
 30
0.0
 11
-0.1327029313864482
 21
0.1324620021041242
 31
0.0
210
0.0
220
0.0
230
1.0
 40
0.9924308333117198
 41
2.064051360100233
 42
4.733317699872328
  0
ELLIPSE
  5
1E04F
330
1F
100
AcDbEntity
  8
AM_0
100
AcDbEllipse
 10
9.854442653490651
 20
3.214172687374571
 30
0.0
 11
0.1327029313864482
 21
-0.1324620021041242
 31
0.0
210
0.0
220
0.0
230
1.0
 40
0.9924308333117198
 41
5.205644013690026
 42
5.946905714154689
  0
ELLIPSE
  5
1E050
330
1F
100
AcDbEntity
  8
AM_0
100
AcDbEllipse
 10
9.591169751869757
 20
2.531525376867307
 30
0.0
 11
0.3096401732350927
 21
-0.3090780049096701
 31
0.0
210
0.0
220
0.0
230
1.0
 40
0.9924308333117198
 41
2.06405136010009
 42
3.686120148675713
  0
ELLIPSE
  5
1E051
330
1F
100
AcDbEntity
  8
AM_0
100
AcDbEllipse
 10
9.677926987299315
 20
2.618440411198662
 30
0.0
 11
-0.3096401732350927
 21
0.3090780049096701
 31
0.0
210
0.0
220
0.0
230
1.0
 40
0.9924308333117198
 41
5.205644013689883
 42
6.283185307179473
  0
ELLIPSE
  5
1E052
330
1F
100
AcDbEntity
  8
AM_0
100
AcDbEllipse
 10
8.985809131834913
 20
2.681800887845725
 30
0.0
 11
-0.1327029313864482
 21
0.1324620021041242
 31
0.0
210
0.0
220
0.0
230
1.0
 40
0.9924308333117198
 41
1.016853808903679
 42
3.6861201486757
  0
ELLIPSE
  5
1E053
330
1F
100
AcDbEntity
  8
AM_0
100
AcDbEllipse
 10
9.072566367264471
 20
2.768715922177194
 30
0.0
 11
0.1327029313864482
 21
-0.1324620021041242
 31
0.0
210
0.0
220
0.0
230
1.0
 40
0.9924308333117198
 41
4.158446462493619
 42
5.946905714154689
  0
ELLIPSE
  5
1E054
330
1F
100
AcDbEntity
  8
AM_0
100
AcDbEllipse
 10
8.380448511800068
 20
2.540724067045744
 30
0.0
 11
0.3096401732350927
 21
-0.3090780049096701
 31
0.0
210
0.0
220
0.0
230
1.0
 40
0.9924308333117198
 41
1.016853808903515
 42
2.638922597478861
  0
ELLIPSE
  5
1E055
330
1F
100
AcDbEntity
  8
AM_0
100
AcDbEllipse
 10
8.467205747229627
 20
2.627639101377213
 30
0.0
 11
-0.3096401732350927
 21
0.3090780049096701
 31
0.0
210
0.0
220
0.0
230
1.0
 40
0.9924308333117198
 41
4.158446462493307
 42
5.780515251068653
  0
ELLIPSE
  5
1E056
330
1F
100
AcDbEntity
  8
AM_0
100
AcDbEllipse
 10
8.203932845608733
 20
3.139138567455007
 30
0.0
 11
-0.1327029313864482
 21
0.1324620021041242
 31
0.0
210
0.0
220
0.0
230
1.0
 40
0.9924308333117198
 41
6.252841564886662
 42
8.9221079046585
  0
ELLIPSE
  5
1E057
330
1F
100
AcDbEntity
  8
AM_0
100
AcDbEllipse
 10
8.290690081038292
 20
3.226053601786475
 30
0.0
 11
0.1327029313864482
 21
-0.1324620021041242
 31
0.0
210
0.0
220
0.0
230
1.0
 40
0.9924308333117198
 41
3.196997454898633
 42
5.780515251068707
  0
ELLIPSE
  5
1E058
330
1F
100
AcDbEntity
  8
AM_0
100
AcDbEllipse
 10
7.775087891765224
 20
3.593794022831048
 30
0.0
 11
0.3096401732350927
 21
-0.3090780049096701
 31
0.0
210
0.0
220
0.0
230
1.0
 40
0.9924308333117198
 41
6.25284156488657
 42
7.874910353461964
  0
ELLIPSE
  5
1E059
330
1F
100
AcDbEntity
  8
AM_0
100
AcDbEllipse
 10
7.861845127194783
 20
3.680709057162289
 30
0.0
 11
-0.3096401732350927
 21
0.3090780049096701
 31
0.0
210
0.0
220
0.0
230
1.0
 40
0.9924308333117198
 41
3.141592653589727
 42
4.733317699872216
  0
ELLIPSE
  5
1E05A
330
1F
100
AcDbEntity
  8
AM_0
100
AcDbEllipse
 10
8.203932845608733
 20
4.041933012261666
 30
0.0
 11
-0.1327029313864482
 21
0.1324620021041242
 31
0.0
210
0.0
220
0.0
230
1.0
 40
0.9924308333117198
 41
5.205644013690026
 42
7.87491035346223
  0
ELLIPSE
  5
1E05B
330
1F
100
AcDbEntity
  8
AM_0
100
AcDbEllipse
 10
8.290690081038292
 20
4.128848046593134
 30
0.0
 11
0.1327029313864482
 21
-0.1324620021041242
 31
0.0
210
0.0
220
0.0
230
1.0
 40
0.9924308333117198
 41
3.477872246614914
 42
4.733317699872329
  0
LINE
  5
1E05C
330
1F
100
AcDbEntity
  8
AM_0
100
AcDbLine
 10
0.1516759372793786
 20
0.713202200652745
 30
0.0
 11
7.818358811651478
 21
6.703071333384628
 31
0.0
  0
LINE
  5
1E05D
330
1F
100
AcDbEntity
  8
AM_0
100
AcDbLine
 10
7.818358811651251
 20
6.703071333384628
 30
0.0
 11
17.56774390301598
 21
7.186085906235462
 31
0.0
  0
LINE
  5
1E05E
330
1F
100
AcDbEntity
  8
AM_0
100
AcDbLine
 10
17.83729377347731
 20
6.473371471519386
 30
0.0
 11
10.17061089910544
 21
0.4835023387873889
 31
0.0
  0
LINE
  5
1E05F
330
1F
100
AcDbEntity
  8
AM_0
100
AcDbLine
 10
10.17061089910544
 20
0.4835023387873889
 30
0.0
 11
0.4212258077407114
 21
0.0004877659365548
 31
0.0
  0
LINE
  5
1E060
330
1F
100
AcDbEntity
  8
AM_0
100
AcDbLine
 10
17.86578119627166
 20
7.185801900299225
 30
0.0
 11
17.58855740186982
 21
7.186572134122685
 31
0.0
  0
LINE
  5
1E061
330
1F
100
AcDbEntity
  8
AM_0
100
AcDbLine
 10
17.98769149878649
 20
7.064112932470607
 30
0.0
 11
17.9889655028876
 21
6.786890995466706
 31
0.0
  0
ELLIPSE
  5
1E062
330
1F
100
AcDbEntity
  8
AM_0
100
AcDbEllipse
 10
17.59047791769694
 20
6.788087380953471
 30
0.0
 11
-0.2830995869577991
 21
0.2825856044888411
 31
0.0
210
0.0
220
0.0
230
1.0
 40
0.9924308333117199
 41
3.019433354699357
 42
5.550160770091199
  0
ELLIPSE
  5
1E063
330
1F
100
AcDbEntity
  8
AM_0
100
AcDbEllipse
 10
17.86636592636296
 20
7.064477190127377
 30
0.0
 11
0.08619395112175148
 21
-0.08603746138510832
 31
0.0
210
0.0
220
0.0
230
1.0
 40
0.9924308333117201
 41
0.7852861947122944
 42
2.356306458877875
  0
ELLIPSE
  5
1E064
330
1F
100
AcDbEntity
  8
AM_0
100
AcDbEllipse
 10
0.3984917930597476
 20
0.3984862912185463
 30
0.0
 11
-0.2830995869577991
 21
0.2825856044888411
 31
0.0
210
0.0
220
0.0
230
1.0
 40
0.9924308333117199
 41
6.16102600828915
 42
8.69175342368092
  0
LINE
  5
1E065
330
1F
100
AcDbEntity
  8
AM_0
100
AcDbLine
 10
62.49999999999943
 20
6.874999999999631
 30
0.0
 11
107.9999999999996
 21
6.874999999999631
 31
0.0
  0
SPLINE
  5
1E066
330
1F
100
AcDbEntity
  8
AM_0
100
AcDbSpline
210
0.0
220
0.0
230
1.0
 70
    12
 71
     2
 72
     6
 73
     3
 74
     0
 42
0.0000000001
 43
0.0000000001
 40
0.0
 40
0.0
 40
0.0
 40
7.071067811865479
 40
7.071067811865479
 40
7.071067811865479
 10
249.0000000000001
 20
6.874999999999602
 30
0.0
 41
1.0
 10
249.9800000000006
 20
3.374999999999375
 30
0.0
 41
1.041666666666689
 10
249.0000000000001
 20
-0.1250000000003979
 30
0.0
 41
1.0
  0
LINE
  5
1E067
330
1F
100
AcDbEntity
  8
AM_0
100
AcDbLine
 10
249.0000000000001
 20
-0.1250000000003979
 30
0.0
 11
151.9999999999996
 21
-0.1250000000003979
 31
0.0
  0
SPLINE
  5
1E068
330
1F
100
AcDbEntity
  8
AM_0
100
AcDbSpline
210
0.0
220
0.0
230
1.0
 70
    12
 71
     2
 72
     6
 73
     3
 74
     0
 42
0.0000000001
 43
0.0000000001
 40
3.543925354178017
 40
3.543925354178017
 40
3.543925354178017
 40
7.087850708356035
 40
7.087850708356035
 40
7.087850708356035
 10
61.99999999999932
 20
3.374999999999631
 30
0.0
 41
1.0
 10
61.9999999999992
 20
5.089285714285296
 30
0.0
 41
1.010362971081878
 10
62.49999999999932
 20
6.874999999999631
 30
0.0
 41
1.0
  0
SPLINE
  5
1E069
330
1F
100
AcDbEntity
  8
AM_0
100
AcDbSpline
210
0.0
220
0.0
230
1.0
 70
    12
 71
     2
 72
     6
 73
     3
 74
     0
 42
0.0000000001
 43
0.0000000001
 40
0.0
 40
0.0
 40
0.0
 40
3.543925354178017
 40
3.543925354178017
 40
3.543925354178017
 10
62.49999999999932
 20
-0.1250000000003695
 30
0.0
 41
1.0
 10
61.99999999999852
 20
1.660714285714278
 30
0.0
 41
1.010362971081878
 10
61.99999999999932
 20
3.374999999999631
 30
0.0
 41
1.0
  0
SPLINE
  5
1E06A
330
1F
100
AcDbEntity
  8
AM_0
100
AcDbSpline
210
0.0
220
0.0
230
1.0
 70
     8
 71
     3
 72
    28
 73
    24
 74
     0
 42
0.0000000001
 43
0.0000000001
 40
21.86518828616871
 40
21.86518828616871
 40
21.86518828616871
 40
21.86518828616871
 40
22.79392070653292
 40
22.79392070653292
 40
24.57845296120392
 40
24.57845296120392
 40
26.36298521587491
 40
26.36298521587491
 40
28.14751747054591
 40
28.14751747054591
 40
29.16729006263843
 40
29.16729006263843
 40
30.18706265473095
 40
30.18706265473095
 40
31.20683524682347
 40
31.20683524682347
 40
32.22660783891599
 40
32.22660783891599
 40
34.67465010511796
 40
34.67465010511796
 40
37.12269237131994
 40
37.12269237131994
 40
38.09859741105894
 40
38.09859741105894
 40
38.09859741105894
 40
38.09859741105894
 10
29.02537679030843
 20
14.84251453651913
 30
0.0
 10
29.34251258324525
 20
14.83419307250037
 30
0.0
 10
29.66218805042536
 20
14.82112081264003
 30
0.0
 10
30.59381766170304
 20
14.76706693075502
 30
0.0
 10
31.20360639765613
 20
14.71155255654875
 30
0.0
 10
32.37333656221153
 20
14.54760551916419
 30
0.0
 10
32.93421940909548
 20
14.43872832798124
 30
0.0
 10
33.97077323985786
 20
14.15442597939645
 30
0.0
 10
34.44637769373207
 20
13.97852303449892
 30
0.0
 10
35.10792839274677
 20
13.6484283231483
 30
0.0
 10
35.34532959487251
 20
13.50998938562051
 30
0.0
 10
35.79500799398306
 20
13.19533911940252
 30
0.0
 10
36.00728692465987
 20
13.01904598192922
 30
0.0
 10
36.39520863363873
 20
12.63305105121125
 30
0.0
 10
36.57105690040771
 20
12.42313907997922
 30
0.0
 10
36.88220264358006
 20
11.98069080965124
 30
0.0
 10
37.0175816552246
 20
11.74814855944973
 30
0.0
 10
37.41230164822764
 20
10.94973233798837
 30
0.0
 10
37.61356383261227
 20
10.30483469082103
 30
0.0
 10
37.89946156135329
 20
8.889371722853724
 30
0.0
 10
37.98505325062251
 20
8.118962987041272
 30
0.0
 10
38.06082358575623
 20
6.994063033384549
 30
0.0
 10
38.07744813595673
 20
6.667842548165567
 30
0.0
 10
38.09055982879318
 20
6.338037634861252
 30
0.0
  0
LINE
  5
1E06B
330
1F
100
AcDbEntity
  8
AM_0
100
AcDbLine
 10
18.30638392955984
 20
5.472416693919854
 30
0.0
 11
14.96808322116181
 21
4.231698507573924
 31
0.0
  0
LINE
  5
1E06C
330
1F
100
AcDbEntity
  8
AM_0
100
AcDbLine
 10
13.81726102040489
 20
7.000275429928365
 30
0.0
 11
17.2465180925974
 21
8.274798604075272
 31
0.0
  0
ELLIPSE
  5
1E06D
330
1F
100
AcDbEntity
  8
AM_0
100
AcDbEllipse
 10
0.0764658361181318
 20
3.374999999999659
 30
0.0
 11
-137.7954368476833
 21
1.054866287986899
 31
0.0
210
0.0
220
0.0
230
1.0
 40
0.0867484879774433
 41
4.501390052304572
 42
4.576061111184654
  0
LINE
  5
1E06E
330
1F
100
AcDbEntity
  8
AM_0
100
AcDbLine
 10
15.35246404356462
 20
4.532009719221946
 30
0.0
 11
18.55624476759704
 21
5.722731992794138
 31
0.0
  0
ELLIPSE
  5
1E06F
330
1F
100
AcDbEntity
  8
AM_0
100
AcDbEllipse
 10
3.959577499882698
 20
3.374999999999659
 30
0.0
 11
15.69674102798123
 21
11.98051697588726
 31
0.0
210
0.0
220
0.0
230
1.0
 40
0.0435459692536278
 41
0.0569916637986686
 42
0.281338665745007
  0
LINE
  5
1E070
330
1F
100
AcDbEntity
  8
AM_0
100
AcDbLine
 10
18.89434864682926
 20
15.07427504699453
 30
0.0
 11
8.20416109359644
 21
6.722185166992745
 31
0.0
  0
LINE
  5
1E071
330
1F
100
AcDbEntity
  8
AM_0
100
AcDbLine
 10
53.68080992636328
 20
-0.9673736461537885
 30
0.0
 11
56.06858807733374
 21
-8.616645358611692
 31
0.0
  0
SPLINE
  5
1E072
330
1F
100
AcDbEntity
  8
AM_0
100
AcDbSpline
210
0.0
220
0.0
230
1.0
 70
     8
 71
     3
 72
    14
 73
    10
 74
     0
 42
0.0000000001
 43
0.0000000001
 40
0.0
 40
0.0
 40
0.0
 40
0.0
 40
3.071327501220854
 40
3.071327501220854
 40
6.361878883363113
 40
6.361878883363113
 40
9.076042853386394
 40
9.076042853386394
 40
12.30054251974088
 40
12.30054251974088
 40
12.30054251974088
 40
12.30054251974088
 10
44.99999999999932
 20
6.338037634408096
 30
0.0
 10
46.02377583373959
 20
6.338037634408096
 30
0.0
 10
47.03221316240911
 20
6.142952771866106
 30
0.0
 10
48.99369787046896
 20
5.355494302581832
 30
0.0
 10
49.90062207155256
 20
4.750749848432946
 30
0.0
 10
51.3389583227779
 20
3.35778762181539
 30
0.0
 10
51.88821293923422
 20
2.641077799148633
 30
0.0
 10
52.90929250393492
 20
0.9510817995502237
 30
0.0
 10
53.32967295025605
 20
-0.0133281140132624
 30
0.0
 10
53.66025403784363
 20
-0.973790322580868
 30
0.0
  0
ELLIPSE
  5
1E073
330
1F
100
AcDbEntity
  8
AM_0
100
AcDbEllipse
 10
-11.56967836268984
 20
14.99999999999963
 30
0.0
 11
166.502819524284
 21
-1.274630097984171
 31
0.0
210
0.0
220
0.0
230
1.0
 40
0.0867484879774433
 41
4.844232881512118
 42
4.959345502893974
  0
SPLINE
  5
1E074
330
1F
100
AcDbEntity
  8
AM_0
100
AcDbSpline
210
0.0
220
0.0
230
1.0
 70
     8
 71
     3
 72
    26
 73
    22
 74
     0
 42
0.0000000001
 43
0.0000000001
 40
0.9867343060296855
 40
0.9867343060296855
 40
0.9867343060296855
 40
0.9867343060296855
 40
2.471279536840624
 40
2.471279536840624
 40
4.817960455346611
 40
4.817960455346611
 40
7.164641373852599
 40
7.164641373852599
 40
8.337981833105593
 40
8.337981833105593
 40
9.511322292358587
 40
9.511322292358587
 40
10.65042869860052
 40
10.65042869860052
 40
11.78953510484245
 40
11.78953510484245
 40
12.92864151108438
 40
12.92864151108438
 40
14.0677479173263
 40
14.0677479173263
 40
16.31550240762339
 40
16.31550240762339
 40
16.31550240762339
 40
16.31550240762339
 10
29.02537679030866
 20
0.6827577224413517
 30
0.0
 10
29.52539105251003
 20
0.6898638384066089
 30
0.0
 10
30.02706343596788
 20
0.70326786904036
 30
0.0
 10
31.301822897477
 20
0.7596361283975739
 30
0.0
 10
32.0632529264999
 20
0.8150266103058357
 30
0.0
 10
33.48039977444819
 20
0.9978568354242725
 30
0.0
 10
34.13810519579192
 20
1.126356431682893
 30
0.0
 10
35.00855199937701
 20
1.399555685466424
 30
0.0
 10
35.27962808385291
 20
1.503998684374977
 30
0.0
 10
35.77987885893299
 20
1.741865701922137
 30
0.0
 10
36.00905447740524
 20
1.875320102196241
 30
0.0
 10
36.4182424848957
 20
2.166771702178238
 30
0.0
 10
36.60957339265679
 20
2.331444665570842
 30
0.0
 10
36.95722039681436
 20
2.702218962527326
 30
0.0
 10
37.11358544882319
 20
2.908384137491197
 30
0.0
 10
37.38603392196478
 20
3.355025663821692
 30
0.0
 10
37.50231438582773
 20
3.595691639124283
 30
0.0
 10
37.69705251800565
 20
4.097708220843146
 30
0.0
 10
37.77561964585925
 20
4.359047293060115
 30
0.0
 10
37.96352194816495
 20
5.136372864063077
 30
0.0
 10
38.04281781772215
 20
5.71251626451803
 30
0.0
 10
38.09055982879318
 20
6.338037634861252
 30
0.0
  0
LINE
  5
1E075
330
1F
100
AcDbEntity
  8
AM_0
100
AcDbLine
 10
38.09055982879318
 20
6.338037634408096
 30
0.0
 11
44.99999999999932
 21
6.338037634408096
 31
0.0
  0
LINE
  5
1E076
330
1F
100
AcDbEntity
  8
AM_0
100
AcDbLine
 10
35.15942973002279
 20
15.37380995643125
 30
0.0
 11
59.15942973002291
 21
15.37380995643125
 31
0.0
  0
SPLINE
  5
1E077
330
1F
100
AcDbEntity
  8
AM_0
100
AcDbSpline
210
0.0
220
0.0
230
1.0
 70
     8
 71
     3
 72
    38
 73
    34
 74
     0
 42
0.0000000001
 43
0.0000000001
 40
0.0
 40
0.0
 40
0.0
 40
0.0
 40
0.4248647247448387
 40
0.4248647247448387
 40
0.8497294494896774
 40
0.8497294494896774
 40
1.274594174234516
 40
1.274594174234516
 40
1.699458898979355
 40
1.699458898979355
 40
2.124305318485469
 40
2.124305318485469
 40
2.549151737991584
 40
2.549151737991584
 40
2.973998157497698
 40
2.973998157497698
 40
3.398844577003812
 40
3.398844577003812
 40
3.823690996509927
 40
3.823690996509927
 40
4.248537416016042
 40
4.248537416016042
 40
4.673383835522156
 40
4.673383835522156
 40
5.098230255028271
 40
5.098230255028271
 40
5.523094979773109
 40
5.523094979773109
 40
5.947959704517949
 40
5.947959704517949
 40
6.372824429262788
 40
6.372824429262788
 40
6.797689154007626
 40
6.797689154007626
 40
6.797689154007626
 40
6.797689154007626
 10
35.15942973002279
 20
14.59239315693012
 30
0.0
 10
35.01780815510801
 20
14.59239315693012
 30
0.0
 10
34.87145963260105
 20
14.59733379476356
 30
0.0
 10
34.58055609840699
 20
14.61777738223393
 30
0.0
 10
34.43599815563039
 20
14.63327010720408
 30
0.0
 10
34.15892451842251
 20
14.67312531252057
 30
0.0
 10
34.02618173913061
 20
14.6975002741784
 30
0.0
 10
33.7807851440748
 20
14.75177389609334
 30
0.0
 10
33.66813608233315
 20
14.78164824292307
 30
0.0
 10
33.4687471577879
 20
14.84253751303729
 30
0.0
 10
33.37513967757968
 20
14.87567072984504
 30
0.0
 10
33.21004345733627
 20
14.94371710423624
 30
0.0
 10
33.13854365894849
 20
14.97860431522494
 30
0.0
 10
33.02362821484849
 20
15.04636995737937
 30
0.0
 10
32.98012119642817
 20
15.07928642716931
 30
0.0
 10
32.92301526891492
 20
15.14015539808176
 30
0.0
 10
32.90942973002279
 20
15.16810176730095
 30
0.0
 10
32.90942973002279
 20
15.21728430499124
 30
0.0
 10
32.92301526891492
 20
15.24016345964523
 30
0.0
 10
32.98012119642817
 20
15.28032450108762
 30
0.0
 10
33.02362821484849
 20
15.29761351573652
 30
0.0
 10
33.13854365894849
 20
15.32607673920901
 30
0.0
 10
33.21004345733627
 20
15.33729174333129
 30
0.0
 10
33.37513967757968
 20
15.35447115300221
 30
0.0
 10
33.4687471577879
 20
15.36045985339442
 30
0.0
 10
33.66813608233315
 20
15.36881763006872
 30
0.0
 10
33.7807851440748
 20
15.37145298434015
 30
0.0
 10
34.02618173913061
 20
15.37451600647646
 30
0.0
 10
34.15892451842251
 20
15.37497190043379
 30
0.0
 10
34.43599815563039
 20
15.37502556170566
 30
0.0
 10
34.58055609840699
 20
15.37464258786062
 30
0.0
 10
34.87145963260105
 20
15.37403200534172
 30
0.0
 10
35.01780815510801
 20
15.37380995643125
 30
0.0
 10
35.15942973002279
 20
15.37380995643125
 30
0.0
  0
LINE
  5
1E078
330
1F
100
AcDbEntity
  8
AM_0
100
AcDbLine
 10
59.15942973002291
 20
14.59239315693012
 30
0.0
 11
35.15942973002279
 21
14.59239315693012
 31
0.0
  0
SPLINE
  5
1E079
330
1F
100
AcDbEntity
  8
AM_0
100
AcDbSpline
210
0.0
220
0.0
230
1.0
 70
     8
 71
     3
 72
    38
 73
    34
 74
     0
 42
0.0000000001
 43
0.0000000001
 40
-6.797689154007637
 40
-6.797689154007637
 40
-6.797689154007637
 40
-6.797689154007637
 40
-6.372824429262798
 40
-6.372824429262798
 40
-5.94795970451796
 40
-5.94795970451796
 40
-5.52309497977312
 40
-5.52309497977312
 40
-5.098230255028282
 40
-5.098230255028282
 40
-4.673383835522166
 40
-4.673383835522166
 40
-4.248537416016051
 40
-4.248537416016051
 40
-3.823690996509935
 40
-3.823690996509935
 40
-3.398844577003819
 40
-3.398844577003819
 40
-2.973998157497704
 40
-2.973998157497704
 40
-2.54915173799159
 40
-2.54915173799159
 40
-2.124305318485476
 40
-2.124305318485476
 40
-1.699458898979362
 40
-1.699458898979362
 40
-1.274594174234522
 40
-1.274594174234522
 40
-0.849729449489681
 40
-0.849729449489681
 40
-0.4248647247448396
 40
-0.4248647247448396
 40
0.0
 40
0.0
 40
0.0
 40
0.0
 10
59.15942973002291
 20
15.37380995643125
 30
0.0
 10
59.3010513049378
 20
15.37380995643125
 30
0.0
 10
59.44739982744477
 20
15.37403200534172
 30
0.0
 10
59.73830336163883
 20
15.37464258786062
 30
0.0
 10
59.88286130441531
 20
15.37502556170566
 30
0.0
 10
60.15993494162319
 20
15.37497190043379
 30
0.0
 10
60.29267772091521
 20
15.37451600647646
 30
0.0
 10
60.53807431597102
 20
15.37145298434015
 30
0.0
 10
60.65072337771255
 20
15.36881763006872
 30
0.0
 10
60.85011230225791
 20
15.36045985339442
 30
0.0
 10
60.94371978246613
 20
15.35447115300221
 30
0.0
 10
61.10881600270955
 20
15.33729174333129
 30
0.0
 10
61.18031580109732
 20
15.32607673920901
 30
0.0
 10
61.29523124519733
 20
15.29761351573652
 30
0.0
 10
61.33873826361764
 20
15.28032450108762
 30
0.0
 10
61.39584419113101
 20
15.24016345964523
 30
0.0
 10
61.40942973002291
 20
15.21728430499124
 30
0.0
 10
61.40942973002291
 20
15.16810176730095
 30
0.0
 10
61.39584419113101
 20
15.14015539808176
 30
0.0
 10
61.33873826361764
 20
15.07928642716931
 30
0.0
 10
61.29523124519733
 20
15.04636995737937
 30
0.0
 10
61.18031580109732
 20
14.97860431522494
 30
0.0
 10
61.10881600270955
 20
14.94371710423624
 30
0.0
 10
60.94371978246613
 20
14.87567072984504
 30
0.0
 10
60.85011230225791
 20
14.84253751303729
 30
0.0
 10
60.65072337771255
 20
14.78164824292307
 30
0.0
 10
60.53807431597102
 20
14.75177389609334
 30
0.0
 10
60.29267772091521
 20
14.6975002741784
 30
0.0
 10
60.15993494162319
 20
14.67312531252057
 30
0.0
 10
59.88286130441531
 20
14.63327010720408
 30
0.0
 10
59.73830336163883
 20
14.61777738223393
 30
0.0
 10
59.44739982744477
 20
14.59733379476356
 30
0.0
 10
59.3010513049378
 20
14.59239315693012
 30
0.0
 10
59.15942973002291
 20
14.59239315693012
 30
0.0
  0
LINE
  5
1E07A
330
1F
100
AcDbEntity
  8
AM_0
100
AcDbLine
 10
250.0000000000001
 20
14.8749999999996
 30
0.0
 11
249.0000000000001
 21
15.8749999999996
 31
0.0
  0
LINE
  5
1E07B
330
1F
100
AcDbEntity
  8
AM_0
100
AcDbLine
 10
250.0000000000001
 20
-8.125000000000398
 30
0.0
 11
249.0000000000001
 21
-9.125000000000398
 31
0.0
  0
LINE
  5
1E07C
330
1F
100
AcDbEntity
  8
AM_0
100
AcDbLine
 10
62.49999999999932
 20
15.87499999999963
 30
0.0
 11
107.9999999999996
 21
15.8749999999996
 31
0.0
  0
LINE
  5
1E07D
330
1F
100
AcDbEntity
  8
AM_0
100
AcDbLine
 10
62.49999999999932
 20
-9.12500000000037
 30
0.0
 11
107.9999999999996
 21
-9.12500000000037
 31
0.0
  0
LINE
  5
1E07E
330
1F
100
AcDbEntity
  8
AM_0
100
AcDbLine
 10
61.99999999999932
 20
15.37499999999963
 30
0.0
 11
62.49999999999932
 21
15.87499999999963
 31
0.0
  0
LINE
  5
1E07F
330
1F
100
AcDbEntity
  8
AM_0
100
AcDbLine
 10
61.99999999999932
 20
-8.62500000000037
 30
0.0
 11
62.49999999999932
 21
-9.12500000000037
 31
0.0
  0
LINE
  5
1E080
330
1F
100
AcDbEntity
  8
AM_0
100
AcDbLine
 10
56.04182389825098
 20
-8.62500000000037
 30
0.0
 11
61.99999999999932
 21
-8.62500000000037
 31
0.0
  0
LINE
  5
1E081
330
1F
100
AcDbEntity
  8
AM_0
100
AcDbLine
 10
60.0081750961873
 20
15.37499999999963
 30
0.0
 11
61.99999999999932
 21
15.37499999999963
 31
0.0
  0
LINE
  5
1E082
330
1F
100
AcDbEntity
  8
AM_0
100
AcDbLine
 10
19.60111688741768
 20
15.37499999999963
 30
0.0
 11
34.3106843638584
 21
15.37499999999963
 31
0.0
  0
LINE
  5
1E083
330
1F
100
AcDbEntity
  8
AM_0
100
AcDbLine
 10
53.66025403784363
 20
-4.50000000000037
 30
0.0
 11
56.04182389825098
 21
-8.62500000000037
 31
0.0
  0
LINE
  5
1E084
330
1F
100
AcDbEntity
  8
AM_0
100
AcDbLine
 10
44.99999999999932
 20
0.4999999999996305
 30
0.0
 11
10.19172694252461
 21
0.4999999999996589
 31
0.0
  0
LINE
  5
1E085
330
1F
100
AcDbEntity
  8
AM_0
100
AcDbLine
 10
250.0000000000001
 20
-8.125000000000398
 30
0.0
 11
250.0000000000001
 21
14.8749999999996
 31
0.0
  0
LINE
  5
1E086
330
1F
100
AcDbEntity
  8
AM_0
100
AcDbLine
 10
249.0000000000001
 20
6.874999999999602
 30
0.0
 11
249.0000000000001
 21
15.8749999999996
 31
0.0
  0
LINE
  5
1E087
330
1F
100
AcDbEntity
  8
AM_0
100
AcDbLine
 10
249.0000000000001
 20
-9.125000000000398
 30
0.0
 11
249.0000000000001
 21
-0.1250000000003979
 31
0.0
  0
LINE
  5
1E088
330
1F
100
AcDbEntity
  8
AM_0
100
AcDbLine
 10
62.49999999999932
 20
6.874999999999631
 30
0.0
 11
62.49999999999932
 21
15.87499999999963
 31
0.0
  0
LINE
  5
1E089
330
1F
100
AcDbEntity
  8
AM_0
100
AcDbLine
 10
62.49999999999932
 20
-9.12500000000037
 30
0.0
 11
62.49999999999932
 21
-0.1250000000003695
 31
0.0
  0
LINE
  5
1E08A
330
1F
100
AcDbEntity
  8
AM_0
100
AcDbLine
 10
61.99999999999932
 20
3.374999999999631
 30
0.0
 11
61.99999999999932
 21
15.37499999999963
 31
0.0
  0
LINE
  5
1E08B
330
1F
100
AcDbEntity
  8
AM_0
100
AcDbLine
 10
61.99999999999932
 20
-8.62500000000037
 30
0.0
 11
61.99999999999932
 21
3.374999999999631
 31
0.0
  0
ELLIPSE
  5
1E08C
330
1F
100
AcDbEntity
  8
AM_0
100
AcDbEllipse
 10
17.77645101107873
 20
6.873607648997677
 30
0.0
 11
-1.061623451091724
 21
1.059696016833178
 31
0.0
210
0.0
220
0.0
230
0.9999999999999998
 40
0.9924308333117201
 41
2.714000735600172
 42
5.855593389190152
  0
ELLIPSE
  5
1E08D
330
1F
100
AcDbEntity
  8
AM_0
100
AcDbEllipse
 10
18.0263118491157
 20
7.123922947872075
 30
0.0
 11
1.061623451091752
 21
-1.059696016833149
 31
0.0
210
0.0
220
0.0
230
1.0
 40
0.9924308333117198
 41
5.855593389189921
 42
6.164112279317851
  0
ARC
  5
1E08E
330
1F
100
AcDbEntity
  8
AM_0
100
AcDbCircle
 10
44.99999999999929
 20
-9.50000000000037
 30
0.0
 40
10.0
100
AcDbArc
 50
30.00000000000053
 51
90.0
  0
LINE
  5
1E08F
330
1F
100
AcDbEntity
  8
AM_0
100
AcDbLine
 10
7.267362876403922
 20
-83.35168855257612
 30
0.0
 11
7.276038599947015
 21
-83.45093163590732
 31
0.0
  0
LINE
  5
1E090
330
1F
100
AcDbEntity
  8
AM_0
100
AcDbLine
 10
10.70425538726545
 20
-83.05123910793728
 30
0.0
 11
10.71293111080854
 21
-83.15048219126848
 31
0.0
  0
LINE
  5
1E091
330
1F
100
AcDbEntity
  8
AM_0
100
AcDbLine
 10
9.760692553498302
 20
-83.13452995764683
 30
0.0
 11
9.765516424796488
 21
-83.18971104529456
 31
0.0
  0
LINE
  5
1E092
330
1F
100
AcDbEntity
  8
AM_0
100
AcDbLine
 10
8.210925710171523
 20
-83.26839770286657
 30
0.0
 11
8.215797133185561
 21
-83.32412274271169
 31
0.0
  0
ELLIPSE
  5
1E093
330
1F
100
AcDbEntity
  8
AM_0
100
AcDbEllipse
 10
8.985809131834913
 20
-83.2014638302567
 30
0.0
 11
1.718446255430782
 21
0.1502247223193685
 31
7.210413458521393E-17
210
-4.164069063777784E-17
220
-3.640184363332786E-18
230
0.9999999999999998
 40
0.0869150343313945
 41
5.494896782624292
 42
11.77808208980388
  0
ELLIPSE
  5
1E094
330
1F
100
AcDbEntity
  8
AM_0
100
AcDbEllipse
 10
8.380448511800068
 20
-83.16215812126521
 30
0.0
 11
0.4358378184063575
 21
0.03810047305201375
 31
1.714953710475364E-17
210
-3.905001450273801E-17
220
-3.413710243600581E-18
230
1.0
 40
0.0869150343313945
 41
4.417355489134887
 42
6.039424277709954
  0
ELLIPSE
  5
1E095
330
1F
100
AcDbEntity
  8
AM_0
100
AcDbEllipse
 10
8.985809131834913
 20
-83.12239896494739
 30
0.0
 11
0.1867876364598393
 21
0.01632877416514459
 31
1.295725126012999E-17
210
-6.884279005572796E-17
220
-6.018162620523004E-18
230
1.0
 40
0.0869150343313946
 41
0.2285652843483712
 42
2.897831624120395
  0
ELLIPSE
  5
1E096
330
1F
100
AcDbEntity
  8
AM_0
100
AcDbEllipse
 10
9.591169751869757
 20
-83.0571237756034
 30
0.0
 11
0.4358378184063575
 21
0.03810047305201375
 31
1.714953710475364E-17
210
-3.905001450273801E-17
220
-3.413710243600581E-18
230
1.0
 40
0.0869150343313945
 41
3.370157937938151
 42
4.992226726513435
  0
ELLIPSE
  5
1E097
330
1F
100
AcDbEntity
  8
AM_0
100
AcDbEllipse
 10
9.767685418061092
 20
-83.09410086701055
 30
0.0
 11
0.1867876364598393
 21
0.01632877416514459
 31
1.295725126012999E-17
210
-6.884279005572796E-17
220
-6.018162620523004E-18
230
1.0
 40
0.0869150343313946
 41
5.464553040331356
 42
8.133819380103379
  0
ELLIPSE
  5
1E098
330
1F
100
AcDbEntity
  8
AM_0
100
AcDbEllipse
 10
10.1965303719046
 20
-83.09642948459478
 30
0.0
 11
0.4358378184063575
 21
0.03810047305201375
 31
1.714953710475364E-17
210
-3.905001450273801E-17
220
-3.413710243600581E-18
230
1.0
 40
0.0869150343313945
 41
2.322960386741678
 42
3.945029175317163
  0
ELLIPSE
  5
1E099
330
1F
100
AcDbEntity
  8
AM_0
100
AcDbEllipse
 10
9.767685418061092
 20
-83.17316573231986
 30
0.0
 11
0.1867876364598393
 21
0.01632877416514459
 31
1.295725126012999E-17
210
-6.884279005572796E-17
220
-6.018162620523004E-18
230
1.0
 40
0.0869150343313946
 41
4.417355489134718
 42
7.086621828906814
  0
ELLIPSE
  5
1E09A
330
1F
100
AcDbEntity
  8
AM_0
100
AcDbEllipse
 10
9.591169751869757
 20
-83.24076953924819
 30
0.0
 11
0.4358378184063575
 21
0.03810047305201375
 31
1.714953710475364E-17
210
-3.905001450273801E-17
220
-3.413710243600581E-18
230
1.0
 40
0.0869150343313945
 41
1.275762835544807
 42
2.897831624120429
  0
ELLIPSE
  5
1E09B
330
1F
100
AcDbEntity
  8
AM_0
100
AcDbEllipse
 10
8.985809131834913
 20
-83.28052869556601
 30
0.0
 11
0.1867876364598393
 21
0.01632877416514459
 31
1.295725126012999E-17
210
-6.884279005572796E-17
220
-6.018162620523004E-18
230
1.0
 40
0.0869150343313946
 41
3.370157937938166
 42
6.039424277710186
  0
ELLIPSE
  5
1E09C
330
1F
100
AcDbEntity
  8
AM_0
100
AcDbEllipse
 10
8.380448511800068
 20
-83.34580388491011
 30
0.0
 11
0.4358378184063575
 21
0.03810047305201375
 31
1.714953710475364E-17
210
-3.905001450273801E-17
220
-3.413710243600581E-18
230
1.0
 40
0.0869150343313945
 41
0.2285652843482322
 42
1.850634072923578
  0
ELLIPSE
  5
1E09D
330
1F
100
AcDbEntity
  8
AM_0
100
AcDbEllipse
 10
8.203932845608733
 20
-83.30882679350285
 30
0.0
 11
0.1867876364598393
 21
0.01632877416514459
 31
1.295725126012999E-17
210
-6.884279005572796E-17
220
-6.018162620523004E-18
230
1.0
 40
0.0869150343313946
 41
2.32296038674156
 42
4.992226726513398
  0
ELLIPSE
  5
1E09E
330
1F
100
AcDbEntity
  8
AM_0
100
AcDbEllipse
 10
7.775087891765224
 20
-83.30649817591862
 30
0.0
 11
0.4358378184063575
 21
0.03810047305201375
 31
1.714953710475364E-17
210
-3.905001450273801E-17
220
-3.413710243600581E-18
230
1.0
 40
0.0869150343313945
 41
5.464553040331287
 42
7.086621828906682
  0
ELLIPSE
  5
1E09F
330
1F
100
AcDbEntity
  8
AM_0
100
AcDbEllipse
 10
8.203932845608733
 20
-83.22976192819365
 30
0.0
 11
0.1867876364598393
 21
0.01632877416514459
 31
1.295725126012999E-17
210
-6.884279005572796E-17
220
-6.018162620523004E-18
230
1.0
 40
0.0869150343313946
 41
1.275762835544925
 42
3.945029175317127
  0
LINE
  5
1E0A0
330
1F
100
AcDbEntity
  8
AM_0
100
AcDbLine
 10
0.1516759372793786
 20
-84.32596759269896
 30
0.0
 11
7.818358811651478
 21
-83.13117410925727
 31
0.0
  0
LINE
  5
1E0A1
330
1F
100
AcDbEntity
  8
AM_0
100
AcDbLine
 10
7.818358811651251
 20
-83.13117410925716
 30
0.0
 11
17.56774390301598
 21
-82.23659194186908
 31
0.0
  0
LINE
  5
1E0A2
330
1F
100
AcDbEntity
  8
AM_0
100
AcDbLine
 10
17.83729377347731
 20
-82.27544623447662
 30
0.0
 11
10.17061089910544
 21
-83.47023971791842
 31
0.0
  0
LINE
  5
1E0A3
330
1F
100
AcDbEntity
  8
AM_0
100
AcDbLine
 10
10.17061089910544
 20
-83.47023971791842
 30
0.0
 11
0.4212258077407114
 21
-84.3648218853065
 31
0.0
  0
LINE
  5
1E0A4
330
1F
100
AcDbEntity
  8
AM_0
100
AcDbLine
 10
10.17061089910544
 20
-83.47023971791842
 30
0.0
 11
10.1869154528174
 21
-83.76656750033968
 31
0.0
  0
LINE
  5
1E0A5
330
1F
100
AcDbEntity
  8
AM_0
100
AcDbLine
 10
0.6813015163465934
 20
-87.49789074552976
 30
0.0
 11
10.09711741210663
 21
-86.63391615504852
 31
0.0
  0
LINE
  5
1E0A6
330
1F
100
AcDbEntity
  8
AM_0
100
AcDbLine
 10
17.98879800707096
 20
-82.66248872597069
 30
0.0
 11
17.98896971051045
 21
-82.23489110041206
 31
0.0
  0
LINE
  5
1E0A7
330
1F
100
AcDbEntity
  8
AM_0
100
AcDbLine
 10
0.5530670206237573
 20
-87.49856956897921
 30
0.0
 11
0.0000462203054212
 21
-84.36705144591534
 31
0.0
  0
ELLIPSE
  5
1E0A8
330
1F
100
AcDbEntity
  8
AM_0
100
AcDbEllipse
 10
17.59047791769694
 20
-82.26946044426737
 30
0.0
 11
0.3984802911143845
 21
0.03483471821898042
 31
2.240851635405268E-17
210
-5.580845075127710E-17
220
-4.878714705617741E-18
230
1.0
 40
0.0869150343313946
 41
5.372737483733907
 42
7.90346489912575
  0
ELLIPSE
  5
1E0A9
330
1F
100
AcDbEntity
  8
AM_0
100
AcDbEllipse
 10
0.3984917930597476
 20
-84.33195338290821
 30
0.0
 11
0.3984802911143845
 21
0.03483471821898042
 31
2.240851635405268E-17
210
-5.580845075127710E-17
220
-4.878714705617741E-18
230
1.0
 40
0.0869150343313946
 41
2.231144830144115
 42
4.761872245535885
  0
ELLIPSE
  5
1E0AA
330
1F
100
AcDbEntity
  8
AM_0
100
AcDbEllipse
 10
0.6743798017257632
 20
-87.4878834328396
 30
0.0
 11
0.1213233516317863
 21
0.01060595683579953
 31
2.546865493612408E-18
210
-2.083316815488107E-17
220
-1.821213140189353E-18
230
1.0
 40
0.0869150343313945
 41
3.149225693121262
 42
4.761872245535809
  0
LINE
  5
1E0AB
330
1F
100
AcDbEntity
  8
AM_0
100
AcDbLine
 10
249.0000000000001
 20
-72.40171571621201
 30
0.0
 11
249.5000000000001
 21
-72.40171571621201
 31
0.0
  0
LINE
  5
1E0AD
330
1F
100
AcDbEntity
  8
AM_0
100
AcDbLine
 10
61.99999999999932
 20
-72.40171571621195
 30
0.0
 11
62.49999999999932
 21
-72.40171571621195
 31
0.0
  0
LINE
  5
1E0AE
330
1F
100
AcDbEntity
  8
AM_0
100
AcDbLine
 10
249.0000000000001
 20
-96.40171571621201
 30
0.0
 11
249.5000000000001
 21
-96.40171571621201
 31
0.0
  0
LINE
  5
1E0AF
330
1F
100
AcDbEntity
  8
AM_0
100
AcDbLine
 10
61.99999999999932
 20
-96.40171571621195
 30
0.0
 11
62.49999999999932
 21
-96.40171571621195
 31
0.0
  0
LINE
  5
1E0B0
330
1F
100
AcDbEntity
  8
AM_0
100
AcDbLine
 10
62.49999999999943
 20
-96.40171571621195
 30
0.0
 11
249.0000000000001
 21
-96.40171571621201
 31
0.0
  0
ARC
  5
1E0B1
330
1F
100
AcDbEntity
  8
AM_0
100
AcDbCircle
 10
28.31081415789478
 20
-70.94285715330321
 30
0.0
 40
9.94956734630666
100
AcDbArc
 50
274.1184404092627
 51
349.3988798818745
  0
LINE
  5
1E0B2
330
1F
100
AcDbEntity
  8
AM_0
100
AcDbLine
 10
9.977556734145082
 20
-83.78577779663593
 30
0.0
 11
10.18691545281695
 21
-83.76656750033968
 31
0.0
  0
LINE
  5
1E0B3
330
1F
100
AcDbEntity
  8
AM_0
100
AcDbLine
 10
10.18691545281695
 20
-83.76656750033968
 30
0.0
 11
14.87276780984985
 21
-83.03631349710341
 31
0.0
  0
LINE
  5
1E0B4
330
1F
100
AcDbEntity
  8
AM_0
100
AcDbLine
 10
18.30638392955984
 20
-82.6243884903262
 30
0.0
 11
14.87276780984985
 21
-83.03631349710341
 31
0.0
  0
ELLIPSE
  5
1E0B5
330
1F
100
AcDbEntity
  8
AM_0
100
AcDbEllipse
 10
0.0764658361181318
 20
-84.40171571621195
 30
0.0
 11
-137.7954377419785
 21
-11.95492606693483
 31
8.017793459011548E-17
210
5.775150627470222E-19
220
5.010434300887291E-20
230
1.0
 40
0.0075409368923471
 41
4.500071725836362
 42
4.574742784716444
  0
LINE
  5
1E0B6
330
1F
100
AcDbEntity
  8
AM_0
100
AcDbLine
 10
9.977556734145082
 20
-83.78577779663593
 30
0.0
 11
9.962293381755444
 21
-83.78815647256002
 31
0.0
  0
LINE
  5
1E0B7
330
1F
100
AcDbEntity
  8
AM_0
100
AcDbLine
 10
18.89434864682926
 20
-81.7320784047478
 30
0.0
 11
12.92118461316409
 21
-82.66295001896415
 31
0.0
  0
ARC
  5
1E0B8
330
1F
100
AcDbEntity
  8
AM_0
100
AcDbCircle
 10
28.58936493324902
 20
-84.40171571621195
 30
0.0
 40
27.45245896500174
100
AcDbArc
 50
335.9580599423866
 51
24.04194005761346
  0
SPLINE
  5
1E0B9
330
1F
100
AcDbEntity
  8
AM_0
100
AcDbSpline
210
0.0
220
0.0
230
1.0
 70
     8
 71
     3
 72
    14
 73
    10
 74
     0
 42
0.0000000001
 43
0.0000000001
 40
0.0
 40
0.0
 40
0.0
 40
0.0
 40
3.071327501220854
 40
3.071327501220854
 40
6.361878883363113
 40
6.361878883363113
 40
9.076042853386394
 40
9.076042853386394
 40
12.30054251974088
 40
12.30054251974088
 40
12.30054251974088
 40
12.30054251974088
 10
44.99999999999932
 20
-72.77328469663419
 30
0.0
 10
46.02377583373959
 20
-72.77328469663419
 30
0.0
 10
47.03221316240911
 20
-72.71886852260323
 30
0.0
 10
48.99369787046896
 20
-72.55898072689129
 30
0.0
 10
49.90062207155256
 20
-72.45636032752205
 30
0.0
 10
51.3389583227779
 20
-72.38517842526031
 30
0.0
 10
51.88821293923422
 20
-72.3989041652018
 30
0.0
 10
52.90929250393492
 20
-72.61273302816917
 30
0.0
 10
53.32967295025605
 20
-72.84398278289919
 30
0.0
 10
53.66025403784363
 20
-73.21744002530423
 30
0.0
  0
SPLINE
  5
1E0BA
330
1F
100
AcDbEntity
  8
AM_0
100
AcDbSpline
210
0.0
220
0.0
230
1.0
 70
     8
 71
     3
 72
    14
 73
    10
 74
     0
 42
0.0000000001
 43
0.0000000001
 40
0.0
 40
0.0
 40
0.0
 40
0.0
 40
3.643189228897799
 40
3.643189228897799
 40
7.062315744137941
 40
7.062315744137941
 40
9.798472871860959
 40
9.798472871860959
 40
12.40940524140626
 40
12.40940524140626
 40
12.40940524140626
 40
12.40940524140626
 10
53.66025403784363
 20
-95.58599140711968
 30
0.0
 10
53.28930419362609
 20
-96.00505320797166
 30
0.0
 10
52.80683155714712
 20
-96.24350982334946
 30
0.0
 10
51.53622214719258
 20
-96.43720598426549
 30
0.0
 10
50.79352285674599
 20
-96.40585411954535
 30
0.0
 10
49.17997042169543
 20
-96.27236720177612
 30
0.0
 10
48.38700602080291
 20
-96.18932272274029
 30
0.0
 10
46.71594710977979
 20
-96.06792480726315
 30
0.0
 10
45.86247578944835
 20
-96.03014673578971
 30
0.0
 10
44.99999999999932
 20
-96.03014673578971
 30
0.0
  0
SPLINE
  5
1E0BB
330
1F
100
AcDbEntity
  8
AM_0
100
AcDbSpline
210
0.0
220
0.0
230
1.0
 70
    11
 71
     3
 72
    48
 73
    44
 74
     0
 42
0.0000000001
 43
0.0000000001
 40
0.0
 40
0.0
 40
0.0
 40
0.0
 40
0.2165828549249428
 40
0.2165828549249428
 40
0.4331657098498857
 40
0.4331657098498857
 40
0.7610656139788639
 40
0.7610656139788639
 40
1.088965518107842
 40
1.088965518107842
 40
1.819307024543671
 40
1.819307024543671
 40
2.5496485309795
 40
2.5496485309795
 40
3.227384040158181
 40
3.227384040158181
 40
3.905119549336861
 40
3.905119549336861
 40
4.434203016215138
 40
4.434203016215138
 40
4.698744749654276
 40
4.698744749654276
 40
4.963286483093415
 40
4.963286483093415
 40
5.189279576193868
 40
5.189279576193868
 40
5.41527266929432
 40
5.41527266929432
 40
5.867258855495225
 40
5.867258855495225
 40
6.58211166456706
 40
6.58211166456706
 40
7.296964473638894
 40
7.296964473638894
 40
8.1463341351079
 40
8.1463341351079
 40
8.995703796576905
 40
8.995703796576905
 40
9.494989887374487
 40
9.494989887374487
 40
9.744632932773278
 40
9.744632932773278
 40
9.99427597817207
 40
9.99427597817207
 40
9.99427597817207
 40
9.99427597817207
 10
9.814062559088825
 20
-92.78505122831328
 30
0.0
 10
9.741868274113813
 20
-92.78505122831328
 30
0.0
 10
9.664539108826148
 20
-92.79595130027568
 30
0.0
 10
9.519043821867172
 20
-92.83960335668556
 30
0.0
 10
9.450760787547779
 20
-92.87207726211332
 30
0.0
 10
9.305682305135406
 20
-92.96039729326927
 30
0.0
 10
9.224338046399225
 20
-93.03014581817732
 30
0.0
 10
9.084291355850155
 20
-93.1830699933154
 30
0.0
 10
9.025347211709686
 20
-93.26607322970941
 30
0.0
 10
8.874062983925114
 20
-93.51692226085416
 30
0.0
 10
8.798459984882356
 20
-93.71355470482277
 30
0.0
 10
8.71131530536104
 20
-94.10616534719978
 30
0.0
 10
8.70032368126499
 20
-94.30216748570118
 30
0.0
 10
8.732012492612057
 20
-94.63894506899092
 30
0.0
 10
8.773581391489188
 20
-94.81041517776501
 30
0.0
 10
8.92435984597455
 20
-95.12739020309996
 30
0.0
 10
9.03380465037867
 20
-95.27296123916781
 30
0.0
 10
9.277823570620058
 20
-95.48162455148386
 30
0.0
 10
9.416315012683526
 20
-95.5672705032429
 30
0.0
 10
9.654563916262532
 20
-95.65634569443549
 30
0.0
 10
9.738978660997191
 20
-95.67973901684812
 30
0.0
 10
9.912424877455806
 20
-95.71121837297247
 30
0.0
 10
10.00145835090279
 20
-95.71930641278598
 30
0.0
 10
10.16496995974944
 20
-95.71930641278598
 30
0.0
 10
10.24186608994774
 20
-95.71336021201685
 30
0.0
 10
10.3922184121127
 20
-95.68881712053852
 30
0.0
 10
10.4656765209329
 20
-95.67022180289737
 30
0.0
 10
10.67258920567997
 20
-95.597803641517
 30
0.0
 10
10.79228152929272
 20
-95.52622977351408
 30
0.0
 10
11.02675074351782
 20
-95.32520927824672
 30
0.0
 10
11.12357425777645
 20
-95.16943095965408
 30
0.0
 10
11.23149167927886
 20
-94.83081522781086
 30
0.0
 10
11.24230978834817
 20
-94.64782261930796
 30
0.0
 10
11.20710691931163
 20
-94.27369886221609
 30
0.0
 10
11.14677843503705
 20
-94.04947462227815
 30
0.0
 10
10.94810774740245
 20
-93.61053231484416
 30
0.0
 10
10.81086176222311
 20
-93.3956300711408
 30
0.0
 10
10.54360308014134
 20
-93.10858088513115
 30
0.0
 10
10.42044199220277
 20
-93.0004840417121
 30
0.0
 10
10.20924484171269
 20
-92.87912137330287
 30
0.0
 10
10.13447912194101
 20
-92.84542767001872
 30
0.0
 10
9.978490637524828
 20
-92.79839862832947
 30
0.0
 10
9.897276907555124
 20
-92.78505122831328
 30
0.0
 10
9.814062559088825
 20
-92.78505122831328
 30
0.0
  0
ELLIPSE
  5
1E0BC
330
1F
100
AcDbEntity
  8
AM_0
100
AcDbEllipse
 10
19.11231878155718
 20
-84.40171571621195
 30
0.0
 11
-18.83939359999501
 21
3.035076951095411
 31
-8.747814950615548E-16
210
-4.525897838567853E-17
220
7.291343078502000E-18
230
1.0
 40
0.7526143426344168
 41
0.4239887762118937
 42
1.141445363999504
  0
ELLIPSE
  5
1E0BD
330
1F
100
AcDbEntity
  8
AM_0
100
AcDbEllipse
 10
21.62640016310184
 20
-84.40171571621195
 30
0.0
 11
166.5028206048899
 21
14.44553566421292
 31
9.740731676564960E-17
210
-5.806484559435891E-19
220
-5.037619151574294E-20
230
1.0
 40
0.0075409368923475
 41
4.610442614226685
 42
4.642466810384191
  0
ELLIPSE
  5
1E0BE
330
1F
100
AcDbEntity
  8
AM_0
100
AcDbEllipse
 10
28.41986294657363
 20
-84.40171571621195
 30
0.0
 11
-18.48387824267348
 21
-0.7144731344052694
 31
8.265120382544343E-16
210
4.464858301032003E-17
220
1.725839817343616E-18
230
1.0
 40
0.7835145111085858
 41
6.19156426894536
 42
6.3905143134156
  0
ELLIPSE
  5
1E0BF
330
1F
100
AcDbEntity
  8
AM_0
100
AcDbEllipse
 10
-11.56967836268984
 20
-84.40171571621193
 30
0.0
 11
166.5028206048907
 21
14.44553566421293
 31
9.740731676553884E-17
210
-5.806484559429261E-19
220
-5.037619151568501E-20
230
1.0
 40
0.0075409368923471
 41
4.841416854853772
 42
4.95802717642575
  0
ARC
  5
1E0C0
330
1F
100
AcDbEntity
  8
AM_0
100
AcDbCircle
 10
28.00614391239216
 20
-72.0478443187292
 30
0.0
 40
10.11047516770584
100
AcDbArc
 50
275.785792286238
 51
355.8854140478141
  0
LINE
  5
1E0C1
330
1F
100
AcDbEntity
  8
AM_0
100
AcDbLine
 10
38.09055982879318
 20
-72.77328469663419
 30
0.0
 11
44.99999999999932
 21
-72.77328469663419
 31
0.0
  0
LINE
  5
1E0C2
330
1F
100
AcDbEntity
  8
AM_0
100
AcDbLine
 10
44.99999999999932
 20
-96.03014673578971
 30
0.0
 11
9.192925912836245
 21
-96.03014673578971
 31
0.0
  0
LINE
  5
1E0C3
330
1F
100
AcDbEntity
  8
AM_0
100
AcDbLine
 10
250.0000000000001
 20
-72.90171571621201
 30
0.0
 11
249.5000000000001
 21
-72.40171571621201
 31
0.0
  0
LINE
  5
1E0C4
330
1F
100
AcDbEntity
  8
AM_0
100
AcDbLine
 10
250.0000000000001
 20
-95.90171571621201
 30
0.0
 11
249.5000000000001
 21
-96.40171571621201
 31
0.0
  0
LINE
  5
1E0C5
330
1F
100
AcDbEntity
  8
AM_0
100
AcDbLine
 10
51.2671345777386
 20
-96.40171571621195
 30
0.0
 11
61.99999999999932
 21
-96.40171571621195
 31
0.0
  0
LINE
  5
1E0C6
330
1F
100
AcDbEntity
  8
AM_0
100
AcDbLine
 10
51.2671345777386
 20
-72.40171571621195
 30
0.0
 11
61.99999999999932
 21
-72.40171571621195
 31
0.0
  0
LINE
  5
1E0C7
330
1F
100
AcDbEntity
  8
AM_0
100
AcDbLine
 10
250.0000000000001
 20
-95.90171571621201
 30
0.0
 11
250.0000000000001
 21
-72.90171571621201
 31
0.0
  0
LINE
  5
1E0C8
330
1F
100
AcDbEntity
  8
AM_0
100
AcDbLine
 10
249.0000000000001
 20
-96.40171571621201
 30
0.0
 11
249.0000000000001
 21
-72.40171571621201
 31
0.0
  0
LINE
  5
1E0C9
330
1F
100
AcDbEntity
  8
AM_0
100
AcDbLine
 10
62.49999999999932
 20
-96.40171571621195
 30
0.0
 11
62.49999999999932
 21
-72.40171571621195
 31
0.0
  0
LINE
  5
1E0CA
330
1F
100
AcDbEntity
  8
AM_0
100
AcDbLine
 10
61.99999999999932
 20
-96.40171571621195
 30
0.0
 11
61.99999999999932
 21
-72.40171571621195
 31
0.0
  0
ELLIPSE
  5
1E0CB
330
1F
100
AcDbEntity
  8
AM_0
100
AcDbEllipse
 10
17.77645101107873
 20
-82.5480012576343
 30
0.0
 11
1.494301091678942
 21
0.1306301933211759
 31
1.036580100810080E-16
210
-6.884279005569633E-17
220
-6.018162620520204E-18
230
1.0
 40
0.0869150343313904
 41
5.067304864634709
 42
7.703729429356759
  0
LINE
  5
1E4FA
330
1F
100
AcDbEntity
  8
AM_5
100
AcDbLine
 10
0.0
 20
0.4015139101466048
 30
0.0
 11
0.0
 21
-1.803621898548499
 31
0.0
  0
LINE
  5
1E4FB
330
1F
100
AcDbEntity
  8
AM_5
100
AcDbLine
 10
-1.889392982128925
 20
0.0
 30
0.0
 11
0.4015194537896605
 21
0.0
 31
0.0
  0
LINE
  5
1E803
330
1F
100
AcDbEntity
  8
AM_0
100
AcDbLine
 10
151.9999999999996
 20
15.8749999999996
 30
0.0
 11
249.0
 21
15.8749999999996
 31
0.0
  0
LINE
  5
1E804
330
1F
100
AcDbEntity
  8
AM_0
100
AcDbLine
 10
151.9999999999996
 20
6.874999999999602
 30
0.0
 11
249.0000000000001
 21
6.874999999999602
 31
0.0
  0
LINE
  5
1E805
330
1F
100
AcDbEntity
  8
AM_0
100
AcDbLine
 10
107.9999999999996
 20
-0.1250000000003695
 30
0.0
 11
62.49999999999943
 21
-0.1250000000003695
 31
0.0
  0
LINE
  5
1E806
330
1F
100
AcDbEntity
  8
AM_0
100
AcDbLine
 10
151.9999999999996
 20
-9.125000000000398
 30
0.0
 11
249.0
 21
-9.125000000000455
 31
0.0
  0
LINE
  5
1E807
330
1F
100
AcDbEntity
  8
AM_0
100
AcDbLine
 10
249.0000000000001
 20
-72.40171571621201
 30
0.0
 11
62.49999999999943
 21
-72.40171571621195
 31
0.0
  0
LINE
  5
1E81D
330
1F
100
AcDbEntity
  8
AM_7
100
AcDbLine
 10
-2.716630692164245
 20
3.374999999999773
 30
0.0
 11
260.2524413012307
 21
3.374999999999716
 31
0.0
1001
GENIUS_GENOBJ-N-CEN_13
1002
{
1000
OWNER
1000
GEN
1002
}
1001
GENIUS_GENODEF_13
1002
{
1000
HIER
1070
     0
1002
}
1002
{
1000
MANEDIT
1070
     0
1002
}
1002
{
1000
NOSEL
1070
     0
1002
}
1002
{
1000
BEHIND
1070
     0
1002
}
1002
{
1000
OTHER
1070
     0
1002
}
1002
{
1000
REACTOR
1002
}
1001
GENIUS_GENCEN_19
1002
{
1040
2.794
1002
}
  0
ARC
  5
1E83A
330
1F
100
AcDbEntity
  8
AM_0
100
AcDbCircle
 10
129.9999999999996
 20
3.374999999999744
 30
0.0
 40
12.5
100
AcDbArc
 50
196.2602047083119
 51
343.739795291688
  0
ARC
  5
1E876
330
1F
100
AcDbEntity
  8
AM_0
100
AcDbCircle
 10
129.9999999999996
 20
3.374999999999744
 30
0.0
 40
12.5
100
AcDbArc
 50
16.26020470831195
 51
163.7397952916881
  0
LINE
  5
1E878
330
1F
100
AcDbEntity
  8
AM_0
100
AcDbLine
 10
117.9999999999996
 20
6.874999999999744
 30
0.0
 11
117.9999999999996
 21
-0.1250000000002558
 31
0.0
  0
LINE
  5
1E879
330
1F
100
AcDbEntity
  8
AM_0
100
AcDbLine
 10
141.9999999999996
 20
6.874999999999716
 30
0.0
 11
141.9999999999996
 21
-0.1250000000002842
 31
0.0
  0
LINE
  5
1E886
330
1F
100
AcDbEntity
  8
AM_7
100
AcDbLine
 10
129.9999999999996
 20
22.39485316263296
 30
0.0
 11
129.9999999999996
 21
-16.07364412400654
 31
0.0
1001
GENIUS_GENOBJ-N-CEN_13
1002
{
1000
OWNER
1000
GEN
1002
}
1001
GENIUS_GENODEF_13
1002
{
1000
HIER
1070
     0
1002
}
1002
{
1000
MANEDIT
1070
     0
1002
}
1002
{
1000
NOSEL
1070
     0
1002
}
1002
{
1000
BEHIND
1070
     0
1002
}
1002
{
1000
OTHER
1070
     0
1002
}
1002
{
1000
REACTOR
1002
}
1001
GENIUS_GENCEN_19
1002
{
1040
2.794
1002
}
  0
LINE
  5
1E8D6
330
1F
100
AcDbEntity
  8
AM_7
100
AcDbLine
 10
-2.716630692164245
 20
-84.40171571621184
 30
0.0
 11
260.2524413012307
 21
-84.4017157162119
 31
0.0
1001
GENIUS_GENOBJ-N-CEN_13
1002
{
1000
OWNER
1000
GEN
1002
}
1001
GENIUS_GENODEF_13
1002
{
1000
HIER
1070
     0
1002
}
1002
{
1000
MANEDIT
1070
     0
1002
}
1002
{
1000
NOSEL
1070
     0
1002
}
1002
{
1000
BEHIND
1070
     0
1002
}
1002
{
1000
OTHER
1070
     0
1002
}
1002
{
1000
REACTOR
1002
}
1001
GENIUS_GENCEN_19
1002
{
1040
2.794
1002
}
  0
ARC
  5
1E93F
330
1F
100
AcDbEntity
  8
AM_11
  6
ACJISTGB
100
AcDbCircle
 10
14.99999999999986
 20
-84.40171571621184
 30
0.0
 40
15.0
100
AcDbArc
 50
90.0
 51
270.0
  0
DIMENSION
  5
1E960
330
1F
100
AcDbEntity
  8
AM_5
100
AcDbDimension
  2
*D8
 10
122.8413830086428
 20
-6.872155838136791
 30
0.0
 11
148.5584303847331
 21
22.24103870677416
 31
0.0
 70
   163
  1
<>{
 71
     5
 42
25.00000000000003
  3
AM_JIS$3
100
AcDbDiametricDimension
 15
137.1586169913564
 25
13.62215583813656
 35
0.0
 40
0.0
1001
ACAD
1000
DSTYLE
1002
{
1070
   179
1070
     0
1070
   271
1070
     0
1070
   272
1070
     3
1070
   274
1070
     3
1002
}
  0
DIMENSION
  5
1EC0C
330
1F
100
AcDbEntity
  8
AM_5
100
AcDbDimension
  2
*D9
 10
0.0
 20
-1.803621898548499
 30
0.0
 11
10.09567551750389
 21
21.29390226784519
 31
0.0
 70
    34
 71
     5
 42
0.9075712110370708
  3
AM_JIS$2
100
AcDb2LineAngularDimension
 13
0.1516759372793786
 23
0.713202200652745
 33
0.0
 14
7.818358811651478
 24
6.703071333384628
 34
0.0
 15
0.0
 25
0.4015139101466048
 35
0.0
 16
11.16533774455254
 26
16.73955597124643
 36
0.0
1001
ACAD
1000
DSTYLE
1002
{
1070
   179
1070
     0
1070
   271
1070
     1
1002
}
  0
CIRCLE
  5
1ED89
330
1F
100
AcDbEntity
  8
AM_11
  6
ACJISTGB
100
AcDbCircle
 10
-59.33766888241041
 20
15.0
 30
0.0
 40
15.0
  0
LINE
  5
1ED9E
330
1F
100
AcDbEntity
  8
AM_7
100
AcDbLine
 10
-41.54366888241043
 20
14.99999999999997
 30
0.0
 11
-77.1316688824104
 21
14.99999999999997
 31
0.0
1001
GENIUS_GENODEF_13
1002
{
1000
HIER
1070
     0
1002
}
1002
{
1000
MANEDIT
1070
     0
1002
}
1002
{
1000
NOSEL
1070
     0
1002
}
1002
{
1000
BEHIND
1070
     0
1002
}
1002
{
1000
OTHER
1070
     0
1002
}
1002
{
1000
REACTOR
1002
}
1001
GENIUS_GENOBJ-N-CEN_13
1002
{
1000
OWNER
1000
GEN
1002
}
1001
GENIUS_GENCEN_19
1002
{
1040
2.794
1002
}
  0
LINE
  5
1EDAB
330
1F
100
AcDbEntity
  8
AM_7
100
AcDbLine
 10
-76.35134285416075
 20
3.374999999999716
 30
0.0
 11
-41.82701494768639
 21
3.374999999999716
 31
0.0
1001
GENIUS_GENOBJ-N-CEN_13
1002
{
1000
OWNER
1000
GEN
1002
}
1001
GENIUS_GENODEF_13
1002
{
1000
HIER
1070
     0
1002
}
1002
{
1000
MANEDIT
1070
     0
1002
}
1002
{
1000
NOSEL
1070
     0
1002
}
1002
{
1000
BEHIND
1070
     0
1002
}
1002
{
1000
OTHER
1070
     0
1002
}
1002
{
1000
REACTOR
1002
}
1001
GENIUS_GENCEN_19
1002
{
1040
2.794
1002
}
  0
DIMENSION
  5
1EDBC
330
1F
100
AcDbEntity
  8
AM_5
100
AcDbDimension
  2
*D10
 10
-67.17235583485024
 20
2.208687309065184
 30
0.0
 11
-26.44338195778303
 21
37.2494319499984
 31
0.0
 70
   163
  1
最小加工径：<>
 71
     5
 42
29.99999999999998
  3
AM_JIS$3
100
AcDbDiametricDimension
 15
-51.50298192997102
 25
27.79131269093499
 35
0.0
 40
0.0
1001
ACAD
1000
DSTYLE
1002
{
1070
   179
1070
     0
1070
   271
1070
     0
1002
}
  0
DIMENSION
  5
1F163
330
1F
100
AcDbEntity
  8
AM_5
100
AcDbDimension
  2
*D11
 10
250.0000000000001
 20
-53.37751567670554
 30
0.0
 11
125.0
 21
-49.97714166095751
 31
0.0
 70
    32
 71
     5
 42
250.0000000000001
  3
AM_JIS$0
100
AcDbAlignedDimension
 13
0.0
 23
0.0
 33
0.0
 14
250.0000000000001
 24
-8.125000000000398
 34
0.0
100
AcDbRotatedDimension
1001
ACAD
1000
DSTYLE
1002
{
1070
   179
1070
     0
1070
   271
1070
     0
1002
}
  0
ENDSEC
  0
SECTION
  2
OBJECTS
  0
DICTIONARY
  5
C
330
0
100
AcDbDictionary
281
     1
  3
ACAD_COLOR
350
ED4C
  3
ACAD_GROUP
350
D
  3
ACAD_LAYOUT
350
1A
  3
ACAD_MATERIAL
350
ED4B
  3
ACAD_MLINESTYLE
350
17
  3
ACAD_PLOTSETTINGS
350
19
  3
ACAD_PLOTSTYLENAME
350
E
  3
ACAD_TABLESTYLE
350
ED4D
  3
AcAmCatalogState
350
EDB4
  3
ACDBHEADERROUNDTRIPXREC
350
1F35D
  3
AcDbVariableDictionary
350
30
  3
ACDMSYSVARMGR
350
ED67
  3
ACGREF_MASTER
350
ED5F
  3
ACGREFACAD_MASTER
350
ED87
  3
AcmDictionary
350
4D
  3
ACME_BOM_MANAGER_NAME
350
36
  3
ACME_COMMAND_HISTORY
350
2F
  3
ACME_SCOPE_NAME
350
2E
  3
ACMESTATEMGR
350
3B
  3
AcmeSysVarManager
350
32
  3
AcmSystemVariableManager
350
6A
  3
AD_APPL
350
ED92
  3
ADSYSVARMGR
350
ED91
  3
AmdtNamedDwgMgr
350
ED82
  3
AMG
350
3F
  3
AMGSNAPSETTINGS
350
73
  3
AMI_MASTER
350
ED8A
  3
AUTOCAD_ASSEMBLIES_PROJECT
350
ED9A
  3
Designer_Assemblies_SysVars
350
ED95
  3
DWGPROPS
350
1F360
  3
FILENAME
350
217A
  3
GREFAM_MODULE
350
ED8B
  3
ZWKSIZE
350
217C
  0
DICTIONARY
  5
EDC8
330
2
100
AcDbDictionary
280
     1
281
     1
  3
ACAD_LAYERSTATES
360
F5B5
  3
AMLAYER_GROUPCOLORS
360
EDC9
  0
DICTIONARY
  5
165
330
1F
100
AcDbDictionary
280
     1
281
     1
  3
ACAD_SORTENTS
360
F11C
  0
DICTIONARY
  5
ED4C
102
{ACAD_REACTORS
330
C
102
}
330
C
100
AcDbDictionary
281
     1
  0
DICTIONARY
  5
D
102
{ACAD_REACTORS
330
C
102
}
330
C
100
AcDbDictionary
281
     1
  0
DICTIONARY
  5
1A
102
{ACAD_REACTORS
330
C
102
}
330
C
100
AcDbDictionary
281
     1
  3
Model
350
22
  3
ﾚｲｱｳﾄ1
350
1E
  3
ﾚｲｱｳﾄ2
350
26
  0
DICTIONARY
  5
ED4B
102
{ACAD_REACTORS
330
C
102
}
330
C
100
AcDbDictionary
281
     1
  0
DICTIONARY
  5
17
102
{ACAD_REACTORS
330
C
102
}
330
C
100
AcDbDictionary
281
     1
  3
Standard
350
18
  0
DICTIONARY
  5
19
102
{ACAD_REACTORS
330
C
102
}
330
C
100
AcDbDictionary
281
     1
  0
ACDBDICTIONARYWDFLT
  5
E
102
{ACAD_REACTORS
330
C
102
}
330
C
100
AcDbDictionary
281
     1
  3
Normal
350
F
100
AcDbDictionaryWithDefault
340
F
  0
DICTIONARY
  5
ED4D
102
{ACAD_REACTORS
330
C
102
}
330
C
100
AcDbDictionary
281
     1
  3
Standard
350
ED4E
  0
ACAD_PROXY_OBJECT
  5
EDB4
102
{ACAD_REACTORS
330
C
102
}
330
C
100
AcDbProxyObject
 90
      499
 91
      571
 95
       25
 70
     0
 93
      184
310
3FFFFFFFE00A028140285221D2E31B0B2483ECB65400AA
  0
DICTIONARY
  5
1F35D
102
{ACAD_REACTORS
330
C
102
}
330
C
100
AcDbDictionary
281
     1
  3
COLORDICT
350
1F35E
  3
MATERIALDICT
350
1F35F
  0
DICTIONARY
  5
30
102
{ACAD_REACTORS
330
C
102
}
330
C
100
AcDbDictionary
281
     1
  3
CTABLESTYLE
350
EE09
  3
HIDETEXT
350
1F35C
  3
INDEXCTL
350
1F35B
  0
ACAD_PROXY_OBJECT
  5
ED67
102
{ACAD_REACTORS
330
C
102
}
330
C
100
AcDbProxyObject
 90
      499
 91
      507
 95
       25
 70
     0
 93
      240
310
4C51A47A0000000000000000000000000000000000000000000000000000
330
ED68
330
ED69
330
ED6A
330
ED6B
330
ED6C
330
ED6D
330
ED6E
330
ED6F
330
ED70
330
ED71
330
ED72
330
ED73
330
ED74
330
ED75
330
ED76
330
ED77
330
ED78
330
ED79
330
ED7A
330
ED7B
330
ED7C
330
ED7D
330
ED7E
330
ED7F
330
ED80
330
ED81
 94
        0
  0
ACAD_PROXY_OBJECT
  5
ED5F
102
{ACAD_REACTORS
330
C
102
}
330
C
100
AcDbProxyObject
 90
      499
 91
      535
 95
       25
 70
     0
 93
       34
310
0400004280
  0
ACAD_PROXY_OBJECT
  5
ED87
102
{ACAD_REACTORS
330
C
102
}
330
C
100
AcDbProxyObject
 90
      499
 91
      541
 95
       25
 70
     0
 93
      114
310
04000041C080000000000000000000
  0
DICTIONARY
  5
4D
102
{ACAD_REACTORS
330
C
102
}
330
C
100
AcDbDictionary
281
     1
  3
AcmBOMDATA
350
4E
  3
AcmStdDictionary
350
17E
  3
AMDTSECTSYM_ARROWCOLOR
350
EDA8
  0
ACAD_PROXY_OBJECT
  5
36
102
{ACAD_REACTORS
330
C
102
}
330
C
100
AcDbProxyObject
 90
      499
 91
      510
 95
       25
 70
     0
 93
       50
310
00010040400000
330
0
330
0
330
37
 94
        0
  0
ACAD_PROXY_OBJECT
  5
2F
102
{ACAD_REACTORS
330
C
102
}
330
C
100
AcDbProxyObject
 90
      499
 91
      505
 95
       25
 70
     0
 93
     4230
310
4780505584C494E45805064D4952524F528050844524F5047454F4D80506524F544154458050844524F5047454F4D805064D4952524F528050844524F5047454F4D805054552415345805045A4F4F4D8050C475249505F53545245544348805055153415645404052D4D5347202D205050413A2020206465736B746F702E61
310
72782046696C6556657273696F6E3A20392E322E302E34014390535115149154D15511109353D1102014213880B4815539113C05084E202D20554E444F014115539113E014115539113E0142941493D4115495125154E014154155491D1601415454D05591501014B5354D1C80B481414104E88080819195CDADD1BDC0B985
310
C9E08119A5B1955995C9CDA5BDB8E880E4B8C8B8C0B8D0050E414D4454524553455444424D4F4440805084E202D20554E444F014213880B4815539113C0504554E444F80504554E444F805055153415645404052D4D5347202D205050413A2020206465736B746F702E6172782046696C6556657273696F6E3A20392E322E3
310
02E34014390535115149154D15511109353D1102014213880B4815539113C05084E202D20554E444F014115539113E014115539113E01419493D510551160142111493D411D153D3601411693D3D3601411353D591601411693D3D3601415454D05591501014B5354D1C80B481414104E88080819195CDADD1BDC0B985C9E0
310
8119A5B1955995C9CDA5BDB8E880E4B8C8B8C0B8D0
  0
ACAD_PROXY_OBJECT
  5
2E
102
{ACAD_REACTORS
330
C
102
}
330
C
100
AcDbProxyObject
 90
      499
 91
      504
 95
       25
 70
     0
 93
      594
310
09000046408000000000000000001354E60000000000000000000000000000000000000000000000000000000000000000000000000000000000000000000000000000000000AAA406AA80
360
33
360
34
360
35
360
37
360
6B
360
6C
360
ED60
360
ED61
360
ED62
360
ED63
360
ED64
360
ED65
360
ED68
360
ED69
360
ED6A
360
ED6B
360
ED6C
360
ED6D
360
ED6E
360
ED6F
360
ED70
360
ED71
360
ED72
360
ED73
360
ED74
360
ED75
360
ED76
360
ED77
360
ED78
360
ED79
360
ED7A
360
ED7B
360
ED7C
360
ED7D
360
ED7E
360
ED7F
360
ED80
360
ED81
360
ED8D
360
ED8E
360
ED8F
360
ED90
360
ED96
360
ED97
360
ED98
360
ED99
360
ED9E
360
ED9F
360
EDA0
360
EDA1
360
EDA2
360
EDA3
360
EDCB
 94
        0
  0
ACAD_PROXY_OBJECT
  5
3B
102
{ACAD_REACTORS
330
C
102
}
330
C
100
AcDbProxyObject
 90
      499
 91
      515
 95
       25
 70
     0
 93
       50
310
09000042641280
  0
ACAD_PROXY_OBJECT
  5
32
102
{ACAD_REACTORS
330
C
102
}
330
C
100
AcDbProxyObject
 90
      499
 91
      507
 95
       25
 70
     0
 93
       48
310
903412000000
330
33
330
34
330
35
 94
        0
  0
ACAD_PROXY_OBJECT
  5
6A
102
{ACAD_REACTORS
330
C
102
}
330
C
100
AcDbProxyObject
 90
      499
 91
      507
 95
       25
 70
     0
 93
       48
310
903412000000
330
6B
330
6C
330
EDCB
 94
        0
  0
ACAD_PROXY_OBJECT
  5
ED92
102
{ACAD_REACTORS
330
C
102
}
330
C
100
AcDbProxyObject
 90
      499
 91
      551
 95
       25
 70
     0
 93
       42
310
000900004040
330
ED8D
 94
        0
  0
ACAD_PROXY_OBJECT
  5
ED91
102
{ACAD_REACTORS
330
C
102
}
330
C
100
AcDbProxyObject
 90
      499
 91
      507
 95
       25
 70
     0
 93
        8
310
AA
  0
ACAD_PROXY_OBJECT
  5
ED82
102
{ACAD_REACTORS
330
C
102
}
330
C
100
AcDbProxyObject
 90
      499
 91
      540
 95
       25
 70
     0
 93
       42
310
000100005E80
330
ED60
 94
        0
  0
DICTIONARY
  5
3F
102
{ACAD_REACTORS
330
C
102
}
330
C
100
AcDbDictionary
281
     1
  3
AcMgSettings
350
40
  3
AMGLAYCFG
350
42
  0
DICTIONARY
  5
73
102
{ACAD_REACTORS
330
C
102
}
330
C
100
AcDbDictionary
281
     1
  3
DIMENSION
350
62F
  3
FEA
350
630
  3
HATCH (1)
350
631
  3
HATCH (2)
350
632
  3
SYMBOLS
350
633
  0
ACAD_PROXY_OBJECT
  5
ED8A
102
{ACAD_REACTORS
330
C
102
}
330
C
100
AcDbProxyObject
 90
      499
 91
      544
 95
       25
 70
     0
 93
       34
310
0500004280
  0
ACAD_PROXY_OBJECT
  5
ED9A
102
{ACAD_REACTORS
330
C
102
}
330
C
100
AcDbProxyObject
 90
      499
 91
      554
 95
       25
 70
     0
 93
       98
310
0900004E400000000000000000
330
EDA1
330
0
330
EDA2
330
0
330
0
330
0
330
0
330
0
 94
        0
  0
ACAD_PROXY_OBJECT
  5
ED95
102
{ACAD_REACTORS
330
C
102
}
330
C
100
AcDbProxyObject
 90
      499
 91
      507
 95
       25
 70
     0
 93
       56
310
90441600000000
330
ED96
330
ED97
330
ED98
330
ED99
 94
        0
  0
XRECORD
  5
1F360
102
{ACAD_REACTORS
330
C
102
}
330
C
100
AcDbXrecord
280
     1
  1
DWGPROPS COOKIE
  2

  3

  4

  6

  7

  8

  9

300
AmdtFileType=84
301
=
302
=
303
=
304
=
305
=
306
=
307
=
308
=
309
=
 40
0.0
 41
2451943.235431667
 42
2455441.253954167
  1

 90
        1
  0
DICTIONARY
  5
217A
102
{ACAD_REACTORS
330
C
102
}
330
C
100
AcDbDictionary
281
     1
  3
FILENAME
350
217B
  0
ACAD_PROXY_OBJECT
  5
ED8B
102
{ACAD_REACTORS
330
C
102
}
330
C
100
AcDbProxyObject
 90
      499
 91
      545
 95
       25
 70
     0
 93
        8
310
05
  0
DICTIONARY
  5
217C
102
{ACAD_REACTORS
330
C
102
}
330
C
100
AcDbDictionary
281
     1
  3
ZWKSIZE
350
217D
  0
DICTIONARY
  5
F5B5
102
{ACAD_REACTORS
330
EDC8
102
}
330
EDC8
100
AcDbDictionary
281
     1
  0
DICTIONARY
  5
EDC9
102
{ACAD_REACTORS
330
EDC8
102
}
330
EDC8
100
AcDbDictionary
280
     1
281
     1
  3
基本画層グループ
360
EDCA
  0
SORTENTSTABLE
  5
F11C
102
{ACAD_REACTORS
330
165
102
}
330
165
100
AcDbSortentsTable
330
1F
331
17604
  5
17B10
331
1BAC8
  5
1BAC8
331
1BACB
  5
1BACB
331
1BACC
  5
1BACC
331
1C724
  5
1C731
331
1C7D9
  5
1C7F2
331
1C7F2
  5
1C7FF
331
1C7FF
  5
1C80C
331
1C80C
  5
1C81C
331
1C81C
  5
1C84E
331
1C8D1
  5
1C8F3
331
1CA4B
  5
1CAA4
331
1D740
  5
1D740
331
1DFFC
  5
1DFFC
331
1DFFD
  5
1DFFD
331
1DFFE
  5
1DFFE
331
1DFFF
  5
1DFFF
331
1E000
  5
1E000
331
1E001
  5
1E001
331
1E002
  5
1E002
331
1E003
  5
1E003
331
1E004
  5
1E004
331
1E005
  5
1E005
331
1E006
  5
1E006
331
1E007
  5
1E007
331
1E008
  5
1E008
331
1E009
  5
1E009
331
1E00A
  5
1E00A
331
1E00B
  5
1E00B
331
1E00C
  5
1E00C
331
1E00D
  5
1E00D
331
1E00E
  5
1E00E
331
1E00F
  5
1E00F
331
1E010
  5
1E010
331
1E011
  5
1E011
331
1E012
  5
1E012
331
1E013
  5
1E013
331
1E014
  5
1E014
331
1E015
  5
1E015
331
1E016
  5
1E016
331
1E017
  5
1E017
331
1E018
  5
1E018
331
1E019
  5
1E019
331
1E01A
  5
1E01A
331
1E01B
  5
1E01B
331
1E01C
  5
1E01C
331
1E01D
  5
1E01D
331
1E01E
  5
1E01E
331
1E01F
  5
1E01F
331
1E020
  5
1E020
331
1E021
  5
1E021
331
1E022
  5
1E022
331
1E023
  5
1E023
331
1E024
  5
1E024
331
1E025
  5
1E025
331
1E026
  5
1E026
331
1E027
  5
1E027
331
1E028
  5
1E028
331
1E029
  5
1E029
331
1E02A
  5
1E02A
331
1E02B
  5
1E02B
331
1E02C
  5
1E02C
331
1E02D
  5
1E02D
331
1E02E
  5
1E02E
331
1E02F
  5
1E02F
331
1E030
  5
1E030
331
1E040
  5
1E042
331
1E041
  5
1E043
331
1E042
  5
1E044
331
1E043
  5
1E045
331
1E044
  5
1E046
331
1E045
  5
1E047
331
1E046
  5
1E048
331
1E047
  5
1E049
331
1E048
  5
1E04A
331
1E049
  5
1E04B
331
1E04A
  5
1E04C
331
1E04B
  5
1E04D
331
1E04C
  5
1E04E
331
1E04D
  5
1E04F
331
1E04E
  5
1E050
331
1E04F
  5
1E051
331
1E050
  5
1E052
331
1E051
  5
1E053
331
1E052
  5
1E054
331
1E053
  5
1E055
331
1E054
  5
1E056
331
1E055
  5
1E057
331
1E056
  5
1E058
331
1E057
  5
1E059
331
1E058
  5
1E05A
331
1E059
  5
1E05B
331
1E05A
  5
1E05C
331
1E05B
  5
1E05D
331
1E05C
  5
1E05E
331
1E05D
  5
1E05F
331
1E05E
  5
1E060
331
1E05F
  5
1E061
331
1E060
  5
1E062
331
1E061
  5
1E063
331
1E062
  5
1E064
331
1E063
  5
1E065
331
1E064
  5
1E066
331
1E065
  5
1E067
331
1E066
  5
1E069
331
1E067
  5
1E06A
331
1E068
  5
1E06C
331
1E069
  5
1E06D
331
1E06A
  5
1E06E
331
1E06B
  5
1E06F
331
1E06C
  5
1E070
331
1E06D
  5
1E071
331
1E06E
  5
1E072
331
1E06F
  5
1E073
331
1E070
  5
1E074
331
1E071
  5
1E075
331
1E072
  5
1E076
331
1E073
  5
1E077
331
1E074
  5
1E078
331
1E075
  5
1E079
331
1E076
  5
1E07A
331
1E077
  5
1E07B
331
1E078
  5
1E07C
331
1E079
  5
1E07D
331
1E07A
  5
1E07E
331
1E07B
  5
1E07F
331
1E07C
  5
1E080
331
1E07D
  5
1E082
331
1E07E
  5
1E084
331
1E07F
  5
1E085
331
1E080
  5
1E086
331
1E081
  5
1E087
331
1E082
  5
1E088
331
1E083
  5
1E089
331
1E084
  5
1E08A
331
1E085
  5
1E08B
331
1E086
  5
1E08C
331
1E087
  5
1E08D
331
1E088
  5
1E08E
331
1E089
  5
1E08F
331
1E08A
  5
1E090
331
1E08B
  5
1E091
331
1E08C
  5
1E092
331
1E08D
  5
1E093
331
1E08E
  5
1E094
331
1E08F
  5
1E095
331
1E090
  5
1E096
331
1E091
  5
1E097
331
1E092
  5
1E098
331
1E093
  5
1E099
331
1E094
  5
1E09A
331
1E095
  5
1E09B
331
1E096
  5
1E09C
331
1E097
  5
1E09D
331
1E098
  5
1E09E
331
1E099
  5
1E09F
331
1E09A
  5
1E0A0
331
1E09B
  5
1E0A1
331
1E09C
  5
1E0A2
331
1E09D
  5
1E0A3
331
1E09E
  5
1E0A4
331
1E09F
  5
1E0A5
331
1E0A0
  5
1E0A6
331
1E0A1
  5
1E0A7
331
1E0A2
  5
1E0A8
331
1E0A3
  5
1E0A9
331
1E0A4
  5
1E0AA
331
1E0A5
  5
1E0AB
331
1E0A6
  5
1E0AC
331
1E0A7
  5
1E0AD
331
1E0A8
  5
1E0AE
331
1E0A9
  5
1E0AF
331
1E0AA
  5
1E0B0
331
1E0AB
  5
1E0B1
331
1E0AD
  5
1E0B4
331
1E0AE
  5
1E0B5
331
1E0AF
  5
1E0B6
331
1E0B0
  5
1E0B7
331
1E0B1
  5
1E0B9
331
1E0B2
  5
1E0BA
331
1E0B3
  5
1E0BB
331
1E0B4
  5
1E0BC
331
1E0B5
  5
1E0BD
331
1E0B6
  5
1E0BE
331
1E0B7
  5
1E0BF
331
1E0B8
  5
1E0C0
331
1E0B9
  5
1E0C1
331
1E0BA
  5
1E0C2
331
1E0BB
  5
1E0C3
331
1E0BC
  5
1E0C4
331
1E0BD
  5
1E0C5
331
1E0BE
  5
1E0C6
331
1E0BF
  5
1E0C7
331
1E0C0
  5
1E0C8
331
1E0C1
  5
1E0C9
331
1E0C2
  5
1E0CA
331
1E0C3
  5
1E0CB
331
1E0C4
  5
1E0CC
331
1E0C5
  5
1E0CD
331
1E0C6
  5
1E0CE
331
1E0C7
  5
1E0CF
331
1E0C8
  5
1E0D0
331
1E0C9
  5
1E0D1
331
1E0CA
  5
1E0D2
331
1E0CB
  5
1E0D3
331
1E4FA
  5
1E672
331
1E4FB
  5
1E673
331
1E803
  5
1E081
331
1E804
  5
1E068
331
1E805
  5
1E06B
331
1E806
  5
1E083
331
1E807
  5
1E0B3
331
1E81D
  5
1E886
331
1E83A
  5
1E8CE
331
1E876
  5
1E8CF
331
1E878
  5
1E8D6
331
1E879
  5
1E93F
331
1E886
  5
1E960
331
1E8D6
  5
1ED1F
331
1E93F
  5
1ED21
331
1E960
  5
1ED5B
331
1EC0C
  5
1ED89
331
1ED89
  5
1EDFE
331
1ED9E
  5
1EE0D
331
1EDAB
  5
1EEC0
331
1EDBC
  5
1EEC1
  0
LAYOUT
  5
22
102
{ACAD_REACTORS
330
1A
102
}
330
1A
100
AcDbPlotSettings
  1

  2
SII LP-2150 (D-SCAN C2)
  4
User120
  6
AM_VIEW1
 40
3.174999952316284
 41
3.174999952316284
 42
3.17498779296875
 43
3.17498779296875
 44
296.9259948730469
 45
419.9889831542969
 46
0.0
 47
0.0
 48
0.0
 49
0.0
140
420.0
141
297.0
142
1.0
143
1.022107788374329
 70
 11952
 72
     1
 73
     1
 74
     4
  7
sei_cad.ctb
 75
     0
147
0.9783703943695685
148
0.0
149
0.0
100
AcDbLayout
  1
Model
 70
     1
 71
     0
 10
0.0
 20
0.0
 11
12.0
 21
9.0
 12
0.0
 22
0.0
 32
0.0
 14
0.0
 24
0.0
 34
0.0
 15
0.0
 25
0.0
 35
0.0
146
0.0
 13
0.0
 23
0.0
 33
0.0
 16
1.0
 26
0.0
 36
0.0
 17
0.0
 27
1.0
 37
0.0
 76
     0
330
1F
1001
ACAD_PSEXT
1000
SII LP-2150 (D-SCAN C2)
1000
SII LP-2150 (D-SCAN C2)
1000
133.153.16.130#3000
1000

1070
     0
  0
LAYOUT
  5
1E
102
{ACAD_REACTORS
330
1A
102
}
330
1A
100
AcDbPlotSettings
  1

  2
Canon LASER SHOT LBP-2030
  4

  6

 40
0.0
 41
0.0
 42
0.0
 43
0.0
 44
0.0
 45
0.0
 46
0.0
 47
0.0
 48
0.0
 49
0.0
140
0.0
141
0.0
142
1.0
143
1.0
 70
   688
 72
     0
 73
     0
 74
     5
  7
sei_cad.ctb
 75
    16
147
1.0
148
0.0
149
0.0
100
AcDbLayout
  1
ﾚｲｱｳﾄ1
 70
     1
 71
     1
 10
0.0
 20
0.0
 11
420.0
 21
297.0
 12
0.0
 22
0.0
 32
0.0
 14
1.000000000000000E+20
 24
1.000000000000000E+20
 34
1.000000000000000E+20
 15
-1.000000000000000E+20
 25
-1.000000000000000E+20
 35
-1.000000000000000E+20
146
0.0
 13
0.0
 23
0.0
 33
0.0
 16
1.0
 26
0.0
 36
0.0
 17
0.0
 27
1.0
 37
0.0
 76
     0
330
1B
  0
LAYOUT
  5
26
102
{ACAD_REACTORS
330
1A
102
}
330
1A
100
AcDbPlotSettings
  1

  2
Canon LASER SHOT LBP-2030
  4

  6

 40
0.0
 41
0.0
 42
0.0
 43
0.0
 44
0.0
 45
0.0
 46
0.0
 47
0.0
 48
0.0
 49
0.0
140
0.0
141
0.0
142
1.0
143
1.0
 70
   688
 72
     0
 73
     0
 74
     5
  7
sei_cad.ctb
 75
    16
147
1.0
148
0.0
149
0.0
100
AcDbLayout
  1
ﾚｲｱｳﾄ2
 70
     1
 71
     2
 10
0.0
 20
0.0
 11
12.0
 21
9.0
 12
0.0
 22
0.0
 32
0.0
 14
0.0
 24
0.0
 34
0.0
 15
0.0
 25
0.0
 35
0.0
146
0.0
 13
0.0
 23
0.0
 33
0.0
 16
1.0
 26
0.0
 36
0.0
 17
0.0
 27
1.0
 37
0.0
 76
     0
330
23
  0
MLINESTYLE
  5
18
102
{ACAD_REACTORS
330
17
102
}
330
17
100
AcDbMlineStyle
  2
STANDARD
 70
     0
  3

 62
   256
 51
90.0
 52
90.0
 71
     2
 49
0.5
 62
   256
  6
BYLAYER
 49
-0.5
 62
   256
  6
BYLAYER
  0
ACDBPLACEHOLDER
  5
F
102
{ACAD_REACTORS
330
E
102
}
330
E
  0
TABLESTYLE
  5
ED4E
102
{ACAD_REACTORS
330
ED4D
102
}
330
ED4D
100
AcDbTableStyle
  3
Standard
 70
     0
 71
     8
 40
1.5
 41
1.5
280
     0
281
     0
  7
STANDARD
140
4.5
170
     2
 62
     0
 63
     7
283
     0
274
    -2
284
     1
 64
     0
275
    -2
285
     1
 65
     0
276
    -2
286
     1
 66
     0
277
    -2
287
     1
 67
     0
278
    -2
288
     1
 68
     0
279
    -2
289
     1
 69
     0
  7
STANDARD
140
6.0
170
     5
 62
     0
 63
     7
283
     0
274
    -2
284
     1
 64
     0
275
    -2
285
     1
 65
     0
276
    -2
286
     1
 66
     0
277
    -2
287
     1
 67
     0
278
    -2
288
     1
 68
     0
279
    -2
289
     1
 69
     0
  7
STANDARD
140
4.5
170
     5
 62
     0
 63
     7
283
     0
274
    -2
284
     1
 64
     0
275
    -2
285
     1
 65
     0
276
    -2
286
     1
 66
     0
277
    -2
287
     1
 67
     0
278
    -2
288
     1
 68
     0
279
    -2
289
     1
 69
     0
  0
XRECORD
  5
1F35E
102
{ACAD_REACTORS
330
1F35D
102
}
330
1F35D
100
AcDbXrecord
280
     1
340
ED4C
  0
XRECORD
  5
1F35F
102
{ACAD_REACTORS
330
1F35D
102
}
330
1F35D
100
AcDbXrecord
280
     1
340
ED4B
  0
DICTIONARYVAR
  5
EE09
102
{ACAD_REACTORS
330
30
102
}
330
30
100
DictionaryVariables
280
     0
  1
STANDARD
  0
DICTIONARYVAR
  5
1F35C
102
{ACAD_REACTORS
330
30
102
}
330
30
100
DictionaryVariables
280
     0
  1
0
  0
DICTIONARYVAR
  5
1F35B
102
{ACAD_REACTORS
330
30
102
}
330
30
100
DictionaryVariables
280
     0
  1
1
  0
ACAD_PROXY_OBJECT
  5
4E
102
{ACAD_REACTORS
330
4D
102
}
330
4D
100
AcDbProxyObject
 90
      499
 91
      520
 95
       25
 70
     0
 93
      118
310
405010040CA904C415CD5B075DD318
350
4F
 94
        0
  0
DICTIONARY
  5
17E
102
{ACAD_REACTORS
330
4D
102
}
330
4D
100
AcDbDictionary
281
     1
  3
ISO
350
F94D
  3
JIS
350
17F
  0
XRECORD
  5
EDA8
102
{ACAD_REACTORS
330
4D
102
}
330
4D
100
AcDbXrecord
280
     1
 90
-1023410169
  0
ACAD_PROXY_OBJECT
  5
33
330
2E
100
AcDbProxyObject
 90
      499
 91
      508
 95
       25
 70
     0
 93
      156
310
00010143D050D351505391D5531054925390D490
330
2E
 94
        0
  0
ACAD_PROXY_OBJECT
  5
34
330
2E
100
AcDbProxyObject
 90
      499
 91
      508
 95
       25
 70
     0
 93
      148
310
000101439050D351531253915054925390D490
330
2E
 94
        0
  0
ACAD_PROXY_OBJECT
  5
35
330
2E
100
AcDbProxyObject
 90
      499
 91
      509
 95
       25
 70
     0
 93
      156
310
000101439050D35154D6535093D314D256915080
330
2E
 94
        0
  0
ACAD_PROXY_OBJECT
  5
37
330
2E
100
AcDbProxyObject
 90
      499
 91
      511
 95
       25
 70
     0
 93
       88
310
000101411093D34C402B00
330
2E
330
0
330
0
 94
        0
  0
ACAD_PROXY_OBJECT
  5
6B
330
2E
100
AcDbProxyObject
 90
      499
 91
      509
 95
       25
 70
     0
 93
      108
310
00010142505351D153D35054D4E0
330
2E
 94
        0
  0
ACAD_PROXY_OBJECT
  5
6C
330
2E
100
AcDbProxyObject
 90
      499
 91
      522
 95
       25
 70
     0
 93
      140
310
00010142105350D55494D511005034A49530
330
2E
 94
        0
  0
ACAD_PROXY_OBJECT
  5
ED60
330
2E
100
AcDbProxyObject
 90
      499
 91
      536
 95
       25
 70
     0
 93
      542
310
0001014124FEA55D00507392E312E302E34014124FEA55D00507392E322E302E3240501000041111054D208AAD84FA0A74014026A6666666666E4FC000000000000F83F8
330
2E
330
ED61
330
ED67
 94
        0
  0
ACAD_PROXY_OBJECT
  5
ED61
330
2E
100
AcDbProxyObject
 90
      499
 91
      537
 95
       25
 70
     0
 93
       56
310
000190240E0000
330
2E
330
ED62
330
ED64
 94
        0
  0
ACAD_PROXY_OBJECT
  5
ED62
330
2E
100
AcDbProxyObject
 90
      499
 91
      538
 95
       25
 70
     0
 93
       48
310
0001AA000000
330
2E
330
1E
330
ED63
330
0
 94
        0
  0
ACAD_PROXY_OBJECT
  5
ED63
330
2E
100
AcDbProxyObject
 90
      499
 91
      539
 95
       25
 70
     0
 93
       28
310
0001AAA0
330
2E
 94
        0
  0
ACAD_PROXY_OBJECT
  5
ED64
330
2E
100
AcDbProxyObject
 90
      499
 91
      538
 95
       25
 70
     0
 93
       48
310
0001AA000000
330
2E
330
26
330
ED65
330
0
 94
        0
  0
ACAD_PROXY_OBJECT
  5
ED65
330
2E
100
AcDbProxyObject
 90
      499
 91
      539
 95
       25
 70
     0
 93
       28
310
0001AAA0
330
2E
 94
        0
  0
ACAD_PROXY_OBJECT
  5
ED68
330
2E
100
AcDbProxyObject
 90
      499
 91
      509
 95
       25
 70
     0
 93
      108
310
000101421053521310D05310D010
330
2E
 94
        0
  0
ACAD_PROXY_OBJECT
  5
ED69
330
2E
100
AcDbProxyObject
 90
      499
 91
      509
 95
       25
 70
     0
 93
      124
310
00010142905354915554D15112535010
330
2E
 94
        0
  0
ACAD_PROXY_OBJECT
  5
ED6A
330
2E
100
AcDbProxyObject
 90
      499
 91
      509
 95
       25
 70
     0
 93
      132
310
00010143105354D150D51253D391125360
330
2E
 94
        0
  0
ACAD_PROXY_OBJECT
  5
ED6B
330
2E
100
AcDbProxyObject
 90
      499
 91
      509
 95
       25
 70
     0
 93
      124
310
00010142905355941093D49111549010
330
2E
 94
        0
  0
ACAD_PROXY_OBJECT
  5
ED6C
330
2E
100
AcDbProxyObject
 90
      499
 91
      509
 95
       25
 70
     0
 93
      116
310
0001014290535115D1D0D3D313D4A0
330
2E
 94
        0
  0
ACAD_PROXY_OBJECT
  5
ED6D
330
2E
100
AcDbProxyObject
 90
      499
 91
      509
 95
       25
 70
     0
 93
      148
310
00010143505355925155D49151949154D21010
330
2E
 94
        0
  0
ACAD_PROXY_OBJECT
  5
ED6E
330
2E
100
AcDbProxyObject
 90
      499
 91
      509
 95
       25
 70
     0
 93
      172
310
00010144105350539393D51154149154D15495915010
330
2E
 94
        0
  0
ACAD_PROXY_OBJECT
  5
ED6F
330
2E
100
AcDbProxyObject
 90
      499
 91
      509
 95
       25
 70
     0
 93
      172
310
00010144105350555513D11253505494905391D15010
330
2E
 94
        0
  0
ACAD_PROXY_OBJECT
  5
ED70
330
2E
100
AcDbProxyObject
 90
      499
 91
      509
 95
       25
 70
     0
 93
      124
310
00010142D05351561514915191125360
330
2E
 94
        0
  0
ACAD_PROXY_OBJECT
  5
ED71
330
2E
100
AcDbProxyObject
 90
      499
 91
      509
 95
       25
 70
     0
 93
      132
310
00010142D05355105410539393D5115010
330
2E
 94
        0
  0
ACAD_PROXY_OBJECT
  5
ED72
330
2E
100
AcDbProxyObject
 90
      499
 91
      509
 95
       25
 70
     0
 93
      108
310
00010142105350555513D0D31010
330
2E
 94
        0
  0
ACAD_PROXY_OBJECT
  5
ED73
330
2E
100
AcDbProxyObject
 90
      499
 91
      509
 95
       25
 70
     0
 93
      108
310
00010142105350D3119150551050
330
2E
 94
        0
  0
ACAD_PROXY_OBJECT
  5
ED74
330
2E
100
AcDbProxyObject
 90
      499
 91
      509
 95
       25
 70
     0
 93
      108
310
00010142105350D315925155D3F0
330
2E
 94
        0
  0
ACAD_PROXY_OBJECT
  5
ED75
330
2E
100
AcDbProxyObject
 90
      499
 91
      509
 95
       25
 70
     0
 93
      148
310
0001014350535212511156915493D112535010
330
2E
 94
        0
  0
ACAD_PROXY_OBJECT
  5
ED76
330
2E
100
AcDbProxyObject
 90
      499
 91
      509
 95
       25
 70
     0
 93
      124
310
00010142905352105510D21254D3D010
330
2E
 94
        0
  0
ACAD_PROXY_OBJECT
  5
ED77
330
2E
100
AcDbProxyObject
 90
      499
 91
      509
 95
       25
 70
     0
 93
      148
310
00010143905354D25391D31152105513105660
330
2E
 94
        0
  0
ACAD_PROXY_OBJECT
  5
ED78
330
2E
100
AcDbProxyObject
 90
      499
 91
      509
 95
       25
 70
     0
 93
      124
310
00010142D0535115D1D193111254D420
330
2E
 94
        0
  0
ACAD_PROXY_OBJECT
  5
ED79
330
2E
100
AcDbProxyObject
 90
      499
 91
      509
 95
       25
 70
     0
 93
      100
310
00010142105350555513D213A0
330
2E
 94
        0
  0
ACAD_PROXY_OBJECT
  5
ED7A
330
2E
100
AcDbProxyObject
 90
      499
 91
      509
 95
       25
 70
     0
 93
      116
310
000101425053521390D3D553951010
330
2E
 94
        0
  0
ACAD_PROXY_OBJECT
  5
ED7B
330
2E
100
AcDbProxyObject
 90
      499
 91
      509
 95
       25
 70
     0
 93
      108
310
0001014210535213941493D29010
330
2E
 94
        0
  0
ACAD_PROXY_OBJECT
  5
ED7C
330
2E
100
AcDbProxyObject
 90
      499
 91
      509
 95
       25
 70
     0
 93
      108
310
0001014210535213951654115070
330
2E
 94
        0
  0
ACAD_PROXY_OBJECT
  5
ED7D
330
2E
100
AcDbProxyObject
 90
      499
 91
      509
 95
       25
 70
     0
 93
      108
310
000101421053521395925155D0F0
330
2E
 94
        0
  0
ACAD_PROXY_OBJECT
  5
ED7E
330
2E
100
AcDbProxyObject
 90
      499
 91
      509
 95
       25
 70
     0
 93
      140
310
00010143505354D150D51253D390D3D41660
330
2E
 94
        0
  0
ACAD_PROXY_OBJECT
  5
ED7F
330
2E
100
AcDbProxyObject
 90
      499
 91
      509
 95
       25
 70
     0
 93
      108
310
00010142105350D3141493D29030
330
2E
 94
        0
  0
ACAD_PROXY_OBJECT
  5
ED80
330
2E
100
AcDbProxyObject
 90
      499
 91
      508
 95
       25
 70
     0
 93
      212
310
00010143905350555513D2105510D21493D500000000000002E400
330
2E
 94
        0
  0
ACAD_PROXY_OBJECT
  5
ED81
330
2E
100
AcDbProxyObject
 90
      499
 91
      509
 95
       25
 70
     0
 93
      156
310
00010143905350555513D2105510D21111551010
330
2E
 94
        0
  0
ACAD_PROXY_OBJECT
  5
ED8D
330
2E
100
AcDbProxyObject
 90
      499
 91
      547
 95
       25
 70
     0
 93
      698
310
0001000000009AA6A9AA4051E546875204170722032312030303A33303A353620323030352028555443290141CE4B8C4B8C0B8D00518576564205365702030312031353A30353A343120323031300141CE4B8C8B8C0B8C80
330
2E
330
ED8E
330
ED8F
330
ED91
330
0
 94
        0
  0
ACAD_PROXY_OBJECT
  5
ED8E
330
2E
100
AcDbProxyObject
 90
      499
 91
      548
 95
       25
 70
     0
 93
       70
310
0001AAA80820000000
330
2E
330
ED8E
330
ED8E
 94
        0
  0
ACAD_PROXY_OBJECT
  5
ED8F
330
2E
100
AcDbProxyObject
 90
      499
 91
      549
 95
       25
 70
     0
 93
       48
310
000100000000
330
2E
330
0
330
ED90
330
0
330
0
 94
        0
  0
ACAD_PROXY_OBJECT
  5
ED90
330
2E
100
AcDbProxyObject
 90
      499
 91
      550
 95
       25
 70
     0
 93
       40
310
000100AAAA
330
2E
330
0
 94
        0
  0
ACAD_PROXY_OBJECT
  5
ED96
330
2E
100
AcDbProxyObject
 90
      499
 91
      522
 95
       25
 70
     0
 93
      180
310
00010143105050D3D35411119390535140504434F4D500
330
2E
 94
        0
  0
ACAD_PROXY_OBJECT
  5
ED97
330
2E
100
AcDbProxyObject
 90
      499
 91
      522
 95
       25
 70
     0
 93
      212
310
0001014390505193D311115491119390535140506466F6C6465720
330
2E
 94
        0
  0
ACAD_PROXY_OBJECT
  5
ED98
330
2E
100
AcDbProxyObject
 90
      499
 91
      522
 95
       25
 70
     0
 93
      180
310
00010143105050539393D1119390535140504284156290
330
2E
 94
        0
  0
ACAD_PROXY_OBJECT
  5
ED99
330
2E
100
AcDbProxyObject
 90
      499
 91
      522
 95
       25
 70
     0
 93
      436
310
00010143905050D3D35415925155D31254D50052295BD96CA0A90B396CA0A894591A496CA0A8DB691A496CA0A89BA96CA0A95E28F95310
330
2E
 94
        0
  0
ACAD_PROXY_OBJECT
  5
ED9E
330
2E
100
AcDbProxyObject
 90
      499
 91
      555
 95
       25
 70
     0
 93
       32
310
00010000
330
2E
340
ED9B
330
EDA0
330
ED9B
 94
        0
  0
ACAD_PROXY_OBJECT
  5
ED9F
330
2E
100
AcDbProxyObject
 90
      499
 91
      556
 95
       25
 70
     0
 93
       18
310
000180
330
2E
 94
        0
  0
ACAD_PROXY_OBJECT
  5
EDA0
330
2E
100
AcDbProxyObject
 90
      499
 91
      557
 95
       25
 70
     0
 93
      226
310
00010144508C8D54CB54D59290948C4C4C0CCB4CCC1050055401550000
330
2E
330
ED9E
330
ED9F
 94
        0
  0
ACAD_PROXY_OBJECT
  5
EDA1
330
2E
100
AcDbProxyObject
 90
      499
 91
      558
 95
       25
 70
     0
 93
      178
310
000100AAAAAABAC03B2E67439410EA36E89D743EA29000
330
2E
330
EDA0
 94
        0
  0
ACAD_PROXY_OBJECT
  5
EDA2
330
2E
100
AcDbProxyObject
 90
      499
 91
      559
 95
       25
 70
     0
 93
      108
310
000190140A000000000000AAAAA0
330
2E
330
EDA3
330
EDA3
330
EDA3
330
EDA3
330
EDA3
330
0
 94
        0
  0
ACAD_PROXY_OBJECT
  5
EDA3
330
2E
100
AcDbProxyObject
 90
      499
 91
      560
 95
       25
 70
     0
 93
       51
310
00010000AAAA80
330
2E
330
EDA2
330
EDA0
 94
        0
  0
ACAD_PROXY_OBJECT
  5
EDCB
330
2E
100
AcDbProxyObject
 90
      499
 91
      509
 95
       25
 70
     0
 93
      140
310
0001014350535311D0D3D313D49353D11160
330
2E
 94
        0
  0
DICTIONARY
  5
40
102
{ACAD_REACTORS
330
3F
102
}
330
3F
100
AcDbDictionary
281
     1
  3
DWGSETTINGS
350
41
  3
FEM
350
69
  3
Shaft
350
56
  3
TRANSSETTINGS
350
4C
  0
ACAD_PROXY_OBJECT
  5
42
102
{ACAD_REACTORS
330
3F
102
}
330
3F
100
AcDbProxyObject
 90
      499
 91
      519
 95
       25
 70
     0
 93
    23232
310
41502491013041105357CC201C00030C011E441013141105357CC603800030C011E441013241105357CCA01400030C011E441013341105357CCE01800030C010D9013441105357CD200C00030C010D9013541105357CD600C00030C010D9013641105357CDA00800030C011E9013741105357CDE01000030C010D901384110
310
5357CE200400030C011E9013941105357CE63F400030C0241102324141505357CC4C201C00030C011E902344141505357CC4C600C00030C010D902495041505357CC4CA01C00030C011E40902304E41505357CC13A01C00030C011E902314E41505357CC53A03800030C011E902324E41505357CC93A01400030C011E90233
310
4E41505357CCD3A01800030C010D902344E41505357CD13A00C00030C010D902354E41505357CD53A00C00030C010D902364E41505357CD93A00800030C011E902374E41505357CDD3A01000030C010D902384E41505357CE13A00400030C011E902394E41505357CE53A3F400030C024110332414E41905357CC4C13A01C0
310
0030C011E90334414E41905357CC4C53A00C00030C010D90349504E41905357CC4C93A01C00030C011E409044B4C494E41505357D0D3200400030C011E42504494E464F42105357D410549151A01000030C010D42D055241484D3541905357D093D4A01C00030C011E425045649455742105357D5925155D4E00400030C011
310
E42D06424548494E4441905357D25395A3F400030C0243505545241494C41505357D514A00C00030C010D4250348494441905357D21251201C00030C011E4250356495341905357D59254E01C00030C011E4250650415244494D42505357D41054911253600C00030C010D4250652454644494D42505357D49151911253601
310
000030C010D425774110531514901348070000C300479034110915312501348000000C0003FFFFFFFD034110921395901398000000C0003FFFFFFFE415092139594D06424548494E448000000C0003FFFFFFFE411093125110234418000000C0003FFFFFFFD03411093D05410234418000000C0003FFFFFFFD03411093D48C
310
9055241484D358010000C30047A411093D48CD055241484D358020000C30047A411093D48D5055241484D358000000C0003FFFFFFFE411093D48DD055241484D3581E0000C30047903411094105410234418000000C0003FFFFFFFD03411094115610234418000000C0003FFFFFFFD034110951112501358000000C0003FFF
310
FFFFD034110D0530C901348000000C0003FFFFFFFE4110D0530CD01348020000C30047A4110D0530D501348070000C30047A4110D0530DD013481E0000C30047A4110D15393901378000000C0003FFFFFFFE4110D15395D01378000000C0003FFFFFFFE4110D312539044B4C494E8000000C0003FFFFFFFE4110D3D38C5013
310
08000000C0003FFFFFFFD034110D3D38C901318000000C0003FFFFFFFD034110D3D38CD01328000000C0003FFFFFFFD034110D3D38D101328000000C0003FFFFFFFD034111115494101348000000C0003FFFFFFFD034111115510501348000000C0003FFFFFFFE4111125051D01358000000C0003FFFFFFFE4111125312501
310
358000000C0003FFFFFFFE411112535410650415244494D8000000C0003FFFFFFFE411112535490652454644494D8000000C0003FFFFFFFE411156135410234418000000C0003FFFFFFFD034111915353901388000000C0003FFFFFFFE415191535413901388030000C3004364151915354D410234418000000C0003FFFFFF
310
FE4151915354D510234418030000C300436415191535593901328000000C0003FFFFFFFE415191535595101328030000C3004364111931055101308000000C0003FFFFFFFD03411194905490234418000000C0003FFFFFFFD034111D49312501358000000C0003FFFFFFFD034111D5931250234418000000C0003FFFFFFFD0
310
34112105510D01388000000C0003FFFFFFFD014112125113901338000000C0003FFFFFFFD034112125115D01338000000C0003FFFFFFFD034112131253901348000000C0003FFFFFFFD01411213D0D3901378000000C0003FFFFFFFE411213D0D5D01378000000C0003FFFFFFFE4112539193D04494E464F8000000C0003FF
310
FFFFFE4113105112501348000000C0003FFFFFFFD034113115051101358000000C0003FFFFFFFE419397D0921395902394E8000000C0003FFFFFFFE419397D0D3D38C502304E8000000C0003FFFFFFFD03419397D0D3D38C902314E8000000C0003FFFFFFFD03419397D0D3D38CD02324E8000000C0003FFFFFFFD03419397
310
D0D3D38D102324E8000000C0003FFFFFFFD03419397D0D15393902374E8000000C0003FFFFFFFE419397D0D15395D02374E8000000C0003FFFFFFFE419397D1125312502354E8000000C0003FFFFFFFE419397D2105510D02384E8000000C0003FFFFFFFD01419397D2125113902334E8000000C0003FFFFFFFD03419397D2
310
125115D02334E8000000C0003FFFFFFFD03419397D3115051102354E8000000C0003FFFFFFFE419397D391D25410349504E8000000C0003FFFFFFFE419397D412105390334414E8000000C0003FFFFFFFE419397D510D3D3902304E8000000C0003FFFFFFFD03419397D5121312502344E8000000C0003FFFFFFFD01419397
310
D5131153902304E8000000C0003FFFFFFFD03419397D516150CD02364E8000000C0003FFFFFFFD03419397D594131250332414E8000000C0003FFFFFFFE411391D25410249508000000C0003FFFFFFFE411410530C9055241484D358010000C30047A411410530CD055241484D358020000C30047A411410530D5055241484
310
D358000000C0003FFFFFFFE411410530DD055241484D3581E0000C30047903411412105390234418000000C0003FFFFFFFE411413D4D3901368070000C30047A419413D4D49151901368050000C30047903411413D4D6101368000000C0003FFFFFFFD03411414D150D0234418000000C0003FFFFFFFD03411490D1D390137
310
8000000C0003FFFFFFFE411490D1D5D01378000000C0003FFFFFFFE4114919112501348000000C0003FFFFFFFD034114945514901348070000C30047903411494D093D01348000000C0003FFFFFFFD034114D09492D01348000000C0003FFFFFFFD014114D0D153901378000000C0003FFFFFFFD034114D150D51013480000
310
00C0003FFFFFFFD014114D15313901378000000C0003FFFFFFFD034114D15315D01378000000C0003FFFFFFFD034114D4D654D01308000000C0003FFFFFFFD034114D51312501348070000C300479034114D6508C501358000000C0003FFFFFFFD034114D6508C901358000000C0003FFFFFFFD034114D6508CD0135802000
310
0C30047A4114D6508D501358070000C300479034114D65353901378000000C0003FFFFFFFD034114D65355D01378000000C0003FFFFFFFD03411510D3D3901308000000C0003FFFFFFFD034115121312501348000000C0003FFFFFFFD01411512550C9055241484D358010000C30047A411512550CD055241484D358020000
310
C30047A411512550D5055241484D358000000C0003FFFFFFFE411512550DD055241484D3581E0000C300479034115131153901308000000C0003FFFFFFFD03415514905253105545241494C8000000C0003FFFFFFFE41151492D3901378000000C0003FFFFFFFD0341151492D5D01378000000C0003FFFFFFFD03411514931
310
2501348000000C0003FFFFFFFD01411516150C501368030000C300436411516150C901368030000C300436411516150CD01368000000C0003FFFFFFFE411516150D501368070000C30047A411516150DD013681E0000C30047A4115925155D04564945578000000C0003FFFFFFFE41159151121034849448000000C0003FFF
310
FFFFD0241159151159035649538000000C0003FFFFFFFD02411594131250232418000000C0003FFFFFFFE4116925690501348000000C0003FFFFFFFD01411354D653501358020000C30047AAAA3F400030C01013F90A4391E41D1E4190D4151E4110D40D0D4091E4051E4791E7F6
340
16
340
16
340
16
340
43
340
16
340
16
340
16
340
44
340
16
340
16
340
44
340
45
340
16
340
16
340
16
340
16
340
43
340
16
340
16
340
16
340
44
340
16
340
16
340
44
340
45
340
16
340
46
340
16
340
16
340
16
340
16
340
16
340
43
340
16
340
16
340
16
340
47
340
15
340
15
340
15
340
15
340
15
340
15
340
15
340
15
340
15
340
15
340
15
340
15
340
15
340
15
340
15
340
15
340
48
340
15
340
15
340
15
340
15
340
15
340
15
340
15
340
15
340
15
340
15
340
15
340
15
340
15
340
15
340
15
340
16
340
15
340
15
340
15
340
15
340
15
340
15
340
15
340
15
340
47
340
15
340
15
340
48
340
15
340
15
340
15
340
15
340
15
340
15
340
15
340
15
340
15
340
48
340
15
340
15
340
15
340
47
340
15
340
15
340
15
340
15
340
15
340
15
340
15
340
15
340
15
340
15
340
15
340
15
340
15
340
15
340
15
340
15
340
15
340
15
340
15
340
48
340
15
340
15
340
48
340
15
340
15
340
16
340
15
340
48
340
15
340
15
340
47
340
15
340
15
340
16
340
15
340
48
340
15
340
15
340
15
340
15
340
15
340
15
340
15
340
15
340
15
340
48
340
15
340
15
340
15
340
15
340
15
340
15
340
15
340
15
340
15
340
15
340
15
340
4B
340
16
 94
        0
  0
ACAD_PROXY_OBJECT
  5
62F
102
{ACAD_REACTORS
330
73
102
}
330
73
100
AcDbProxyObject
 90
      499
 91
      523
 95
       25
 70
     0
 93
      253
310
43D1444494D454E53494F4E2C414D44545F2A5F44494D404A9012A404A9012A0
  0
ACAD_PROXY_OBJECT
  5
630
102
{ACAD_REACTORS
330
73
102
}
330
73
100
AcDbProxyObject
 90
      499
 91
      523
 95
       25
 70
     0
 93
      181
310
43D012A42D05357D191504B505357CA9012A404A9012A8
  0
ACAD_PROXY_OBJECT
  5
631
102
{ACAD_REACTORS
330
73
102
}
330
73
100
AcDbProxyObject
 90
      499
 91
      523
 95
       25
 70
     0
 93
      133
310
43D054841544348404A9012A404A9012A8
  0
ACAD_PROXY_OBJECT
  5
632
102
{ACAD_REACTORS
330
73
102
}
330
73
100
AcDbProxyObject
 90
      499
 91
      523
 95
       25
 70
     0
 93
      549
310
43D044C494E4549CE0B0E138B0A8B4E0B0A8B4E138B105357CE0B105357CE138B0A8B505357CE0B0A8B505357CE139012A404A910494E534552542C5354445041525432448
  0
ACAD_PROXY_OBJECT
  5
633
102
{ACAD_REACTORS
330
73
102
}
330
73
100
AcDbProxyObject
 90
      499
 91
      523
 95
       25
 70
     0
 93
      909
310
43D6641434D46434652414D452C41434D444154554D5441524745542C41434D444154554D49442C41434D57454C4453594D2C41434D5355524653594D2C41434D4645415449442C41434D504152545245462C41434D42414C4C4F4F4E2C414D44544544474553594D404A9012A404A9012A8
  0
XRECORD
  5
217B
102
{ACAD_REACTORS
330
217A
102
}
330
217A
100
AcDbXrecord
280
     1
  1
21000753__00___
  0

  0
XRECORD
  5
217D
102
{ACAD_REACTORS
330
217C
102
}
330
217C
100
AcDbXrecord
280
     1
  1
3
  0

  0
XRECORD
  5
EDCA
102
{ACAD_REACTORS
330
EDC9
102
}
330
EDC9
100
AcDbXrecord
280
     1
 90
-1073741824
  0
ACAD_PROXY_OBJECT
  5
4F
102
{ACAD_REACTORS
330
4E
102
}
330
4E
100
AcDbProxyObject
 90
      499
 91
      521
 95
       25
 70
     0
 93
      157
310
057356C1D77406406AA8FFFFFFFF05DD01009010
330
1F
330
0
330
EDA0
 94
        0
  0
ACAD_PROXY_OBJECT
  5
F94D
102
{ACAD_REACTORS
330
17E
102
}
330
17E
100
AcDbProxyObject
 90
      499
 91
      577
 95
       25
 70
     0
 93
     2497
310
5DC0000000000000C408030000C30040D254D3D01640600800030C0200800030C000000000000000C40C88A2085A0B6B23A22B233B2A9BA3220480A1C82C6DAA6EAE4CCA8CAF0E8A6E8C88120284A0B1B6A321A329BA3220480A1A82C6DAAECAD8C8D2DCCEA6E8C8812028420B1B6A4B229BA3220480A1682C6DA88C2E8EAD
310
AA6E8C88120284A0B1B6A127A6A9BA3220480A2082DAC8E888CAE8C2D2D8A6F2DAA6E8C88120288A0B6B23A29B2B1BA34B7B729BCB6A9BA3220480A2282DAC8E886CADCE8CAE498D2DCCAA6E8C88120288A0B6B23A2A343932B0B22634B732A9BA3220480A1682DAC8E89CDEE8CAA6E8C88120285A0B1A0B6B3A630BCA9BA3
310
220480A1682C682DACE88D2DAA6E8C88120288A0B1A0B6B3A437B632A1B430B93A29BA3220480A1A82C682DACEA8D2E8D8CAA6E8C8812032048080
340
F5A9
360
F94E
360
F94F
360
F950
360
F951
360
F952
360
F953
360
F954
360
F955
360
F956
360
F957
360
F958
360
F959
360
F95F
360
F960
360
F961
360
F962
340
0
340
0
 94
        0
  0
ACAD_PROXY_OBJECT
  5
17F
102
{ACAD_REACTORS
330
17E
102
}
330
17E
100
AcDbProxyObject
 90
      499
 91
      526
 95
       25
 70
     0
 93
     2379
310
5DC33333333333309408000000C00040D29254D01640600800030C0200800030C003333333333330940C8121E8720B1B6A9BAB9332A32BC3A29BA3220480A1282C6DA8C868CA6E8C88120286A0B1B6ABB2B63234B733A9BA3220480A1082C6DA92C8A6E8C88120285A0B1B6A230BA3AB6A9BA3220480A1282C6DA849E9AA6E
310
8C88120286A0B1A0B6B3AA34BA3632A9BA3220480A2082DAC8E888CAE8C2D2D8A6F2DAA6E8C88120288A0B6B23A29B2B1BA34B7B729BCB6A9BA3220480A2282DAC8E886CADCE8CAE498D2DCCAA6E8C88120288A0B6B23A2A343932B0B22634B732A9BA3220480A1682DAC8E89CDEE8CAA6E8C88120285A0B1A0B6B3A630BCA
310
9BA3220480A1682C682DACE88D2DAA6E8C88120288A0B1A0B6B3A437B632A1B430B93A29BA3220480C812020
340
180
360
181
360
182
360
183
360
184
360
185
360
186
360
EDA5
360
EDA6
360
EDA7
360
EDA9
360
EDAA
360
EDAB
360
EDB1
360
EDB2
360
EDB3
340
0
340
0
 94
        0
  0
ACAD_PROXY_OBJECT
  5
41
102
{ACAD_REACTORS
330
40
102
}
330
40
100
AcDbProxyObject
 90
      499
 91
      518
 95
       25
 70
     0
 93
     2954
310
4050B44574753455454494E4753A0E8482A68AA6A88882A069492A684A1A0A723A0A92920ACA0A811B1820C868A9C829C8E82A12686AF87260F862666A8321A2A72224A0A50602A2140ECC009A020E868A9C889282A682A106260F86460F8666083A1A2A72224A9AA250000000000000042020C868A9C988A9C94000000000
310
000048808321A2A727A323250000000000000122020E868A9C9E8C8C62940000000000000488083A1A2A727A32319250000000000000122021CC6D0C2DACCCAE4C8D2DADADEC8CA9FC84A1A624A720A92920ACA0A81991A982108698929C8AA8B2A082A0AB098929C8A84A22BA3AAA9A1A0A622A50A0E9882A6A89E849482A
310
02608426A0A5A2AB24A2ABA7E8120CA0A68682988A0C00800010652455649534941501304154D0D0531150540CC4E8C5085354414E44415244415034A4953425512535154D5105354128205DDA149C8ADCD050756455253494F4E4150531352E3030441ED115D1D4D15515125391D4D153911F40
  0
ACAD_PROXY_OBJECT
  5
69
102
{ACAD_REACTORS
330
40
102
}
330
40
100
AcDbProxyObject
 90
      499
 91
      518
 95
       25
 70
     0
 93
      411
310
4050346454D21092DCC6E486DECACC942842630BCA3B937BAB820A8320A6AFA322A0A20F688AE8EA68AA8A8929C8EA68A9C88FA0
  0
ACAD_PROXY_OBJECT
  5
56
102
{ACAD_REACTORS
330
40
102
}
330
40
100
AcDbProxyObject
 90
      499
 91
      518
 95
       25
 70
     0
 93
      583
310
40505536861667421292DCE8CAE4E4EAE0E89FA0484A634B3B43A2634B732A7F21A98D2CED0E898D2DCCAACD2CAEE9FC8229B4B232A7E80A20F688AE8EA68AA8A8929C8EA68A9C88FA
  0
ACAD_PROXY_OBJECT
  5
4C
102
{ACAD_REACTORS
330
40
102
}
330
40
100
AcDbProxyObject
 90
      499
 91
      518
 95
       25
 70
     0
 93
      852
310
4050D5452414E5353455454494E4753A2488A482AE929C8EA8A4829CA69882A8929E9C0C00800050D4F524947494E414C4C595F4F4E0600400028529A7AAA921A2A620A723A0A81A52827212AAA0A48AA68AA4AC8A0C0080001107B44574753455454494E4753454E447D0
  0
ACAD_PROXY_OBJECT
  5
F94E
330
F94D
100
AcDbProxyObject
 90
      499
 91
      578
 95
       25
 70
     0
 93
       13
310
5DD8
  0
ACAD_PROXY_OBJECT
  5
F94F
330
F94D
100
AcDbProxyObject
 90
      499
 91
      579
 95
       25
 70
     0
 93
       96
310
5DEA0E80A0280A0280A0280F
  0
ACAD_PROXY_OBJECT
  5
F950
330
F94D
100
AcDbProxyObject
 90
      499
 91
      580
 95
       25
 70
     0
 93
      272
310
5DD0E4050140501405014050140501405014050140D01405012C0000000000000040
340
F5AA
 94
        0
  0
ACAD_PROXY_OBJECT
  5
F951
330
F94D
100
AcDbProxyObject
 90
      499
 91
      581
 95
       25
 70
     0
 93
      497
310
5DE8666666666667A67E199999999999E99FD22405014050140501405014050140501405014050140501405014050140501405014050140501405014050100
340
F5A5
 94
        0
  0
ACAD_PROXY_OBJECT
  5
F952
330
F94D
100
AcDbProxyObject
 90
      499
 91
      582
 95
       25
 70
     0
 93
       10
310
5DC0
  0
ACAD_PROXY_OBJECT
  5
F953
330
F94D
100
AcDbProxyObject
 90
      499
 91
      583
 95
       25
 70
     0
 93
      257
310
5DE290EA22A7D90F49F80000000000001081400000000000004204010000618000
340
F5A6
340
F5A7
 94
        0
  0
ACAD_PROXY_OBJECT
  5
F954
330
F94D
100
AcDbProxyObject
 90
      499
 91
      584
 95
       25
 70
     0
 93
    13013
310
5DD0E411255115350141236025B690140501406901000000000000091013347454E545241434F2C4A504E2C302C8D8096DA2C47454E54524154582C25732C2847454E4D53472067656E647767203232322940690120281A8AA2CA0282484A4BE52028120280A0320200000000000012202668E8A9CA8A482869E5894A09C58
310
605921292F94588E8A9CA8A482A8B0584AE658508E8A9C9AA68E40CECADCC8EECE406464665280D202405044E414D454050496BC914F4051C40640A80000000000004E404CD1D15395149050D3CB1294138B0C0B25AF2453CB11D15395149055160B095CCB0A11D1539354D1C819D95B991DD9C80C8C8D8A50192C3D494628
310
4953424C414E4B28504152543A4E414D45292C424C4F434B3A4E414D452C504152543A4E414D452940480A0A888AA686A480A09251B1DBE80A3A80C81D0000000000100A28099A3A2A72A2920A1A7962528271618164946C76F9623A2A72A2920AA2C1612B9961423A2A726A9A39033B2B7323BB39019189B94A0348090142
310
14D51053911054911014122D2E29A50147501904A000000000000125013347454E545241434F2C4A504E2C302C8B4B8A692C47454E54524154582C25732C2847454E4D53472067656E64776720323138294069012028426A0AA22A924A0A62028246EF4BDFA028EA0320B40000000000001CA02668E8A9CA8A482869E5894A
310
09C5860591BBD2F7E588E8A9CA8A482A8B0584AE658508E8A9C9AA68E40CECADCC8EECE406464625280D202405044E4F544540504928D8B4C4051D40641A80000000000003E404CD1D15395149050D3CB1294138B0C0B24A362D30B11D15395149055160B095CCB0A11D1539354D1C819D95B991DD9C80C8C8D4A501240480
310
A0CAC8A9C889EA480A1106F1072706BF02B680A3A80C83D00000000000007C809BA3A2A72A2920A1A79625282716181641BC41C9C1AFC0AD9623A2A72A2920AA2C1612B9961423A2A726A9A39033B2B7323BB39019191A14A0248090141911154D0D48C90141A43825AF880C90147501908A000000000020145013447454E5
310
45241434F2C4A504E2C302C90E096BE20322C47454E54524154582C25732C2847454E4D53472067656E6477672033362940490120284A9AA20A72220A922192028345A5C53490192028EA03213400000000000024A026A8E8A9CA8A482869E5894A09C586059169714D24064588E8A9CA8A482A8B0584AE658508E8A9C9AA6
310
8E40CECADCC8EECE4064646052809202405094D4154455249414C32405068DDE97BF20324051D40642A8713D0AD7A37045404D11D15395149050D3CB1294138B0C0B2377A5EFC80C8B11D15395149055160B095CCB0A11D1539354D1C819D95B991DD9C80D0C0A501240480A089A82A6A680A091D7F2F9480A3A80A0485A06
310
8100000000000007C809923A2A72A2920A1A796252827161816475FCBE51623A2A72A2920AA2C1612B9961423A2A726A9A39033B2B7323BB3901A1914A024809014154149250D150141226FE29A501475014090C409020000000000000F9013247454E545241434F2C4A504E2C302C89BF8A692C47454E54524154582C2573
310
2C2847454E4D53472067656E6477672034332940490120281A224A6A02824850CB202028EA028121A81A040000000000001F202648E8A9CA8A482869E5894A09C58605921432C80588E8A9CA8A482A8B0584AE658508E8A9C9AA68E40CECADCC8EECE406868528092024050E445020000000000000510201C00030C0001018
310
0000000000003E400000000000000F901073D3C4954454D3E4050180000000000003E400000000000000F901073D3C4954454D3E40501800000000000034400000000000000D101073D3C4954454D3E40501800000000000034400000000000000D101073D3C4954454D3E405029010000000000000F9000000000000003E4
310
041CF4F125511534F901418F4F1455164F9014060000000000000F9000000000000003E4041CF4F125511534F9014060000000000000D100000000000000344041CF4F125511534F901901000000000000000F9000000000000003E40A2200000000000008204018000618048220681A048120280C88214844882034852034
310
8452028521485214814000000000000F0BF0000000000003C2FD018020000C3008070000C3003373333333333B0FCCDCCCCCCCCCCEC3F000000000000031012034164050341105901A000000000000062040100006180401000061804008000618008098A02808
340
0
340
0
 94
        0
  0
ACAD_PROXY_OBJECT
  5
F955
330
F94D
100
AcDbProxyObject
 90
      499
 91
      585
 95
       25
 70
     0
 93
      898
310
5DC4000000000000144048CF4F11115510525317D3105091530F880A0F11115510525317D05094D4D0D053114F8A51141C9A9999999999B93F26A666666666724FC000000000000E03F400000000000000400000000000000510000000000000024408070000C300000000000000051000
340
16
340
F5A9
 94
        0
  0
ACAD_PROXY_OBJECT
  5
F956
330
F94D
100
AcDbProxyObject
 90
      499
 91
      586
 95
       25
 70
     0
 93
      823
310
5DC0B00000000000002880959E9E29A2A1AA24A7A72FA620A122A62FA324A929AA1F169E29A2A1AA24A7A72FA620A122A62FA620A9AA1F000000000000048803FFFE01C00030C0088C0380006180000000000000048800000000000000A2000000000000002880
340
652
340
F5A9
 94
        0
  0
ACAD_PROXY_OBJECT
  5
F957
330
F94D
100
AcDbProxyObject
 90
      499
 91
      587
 95
       25
 70
     0
 93
      152
310
5DE80000000000000840A3D0A5723F0BD1F200
  0
ACAD_PROXY_OBJECT
  5
F958
330
F94D
100
AcDbProxyObject
 90
      499
 91
      588
 95
       25
 70
     0
 93
       14
310
5DE0
340
0
 94
        0
  0
ACAD_PROXY_OBJECT
  5
F959
330
F94D
100
AcDbProxyObject
 90
      499
 91
      589
 95
       25
 70
     0
 93
     8619
310
5DD084050BA4050AA405024050E836583938376838C815B836720314043A013D2525633C486F6C653A63746469613E2078203C486F6C653A637464657074683E20555C503C696628657175616C28486F6C653A7461707065642C223022292C22252563222C486F6C653A6E6F6D696E616C202220782022293E3C6966286571
310
75616C28486F6C653A7461707065642C223022292C486F6C653A6469612C486F6C653A706974636864657363293E3C696628657175616C28486F6C653A7461707065642C223122292C22207820222C2222293E3C696628657175616C28486F6C653A7461707065642C223122292C486F6C653A74617064657074682C222229
310
3E203C696628657175616C28486F6C653A7465726D696E6174696F6E2C223022292C22202F20222C2222293E3C696628657175616C28486F6C653A7465726D696E6174696F6E2C223022292C486F6C653A64657074682C2222293E406901405034050E836583938376838C815B836720314043B013D2525633C486F6C653A6
310
3746469613E2078203C486F6C653A6374616E676C653E2525645C503C696628657175616C28486F6C653A7461707065642C223022292C22252563222C486F6C653A6E6F6D696E616C202220782022293E3C696628657175616C28486F6C653A7461707065642C223022292C486F6C653A6469612C486F6C653A70697463686
310
4657363293E3C696628657175616C28486F6C653A7461707065642C223122292C22207820222C2222293E3C696628657175616C28486F6C653A7461707065642C223122292C486F6C653A74617064657074682C2222293E203C696628657175616C28486F6C653A7465726D696E6174696F6E2C223022292C22202F20222C2
310
222293E3C696628657175616C28486F6C653A7465726D696E6174696F6E2C223022292C486F6C653A64657074682C2222293E406901405014050E836583938376838C815B8367203140416013D3C696628657175616C28486F6C653A7461707065642C223022292C22252563222C486F6C653A6E6F6D696E616C2022207820
310
22293E3C696628657175616C28486F6C653A7461707065642C223022292C486F6C653A6469612C486F6C653A706974636864657363293E3C696628657175616C28486F6C653A7461707065642C223122292C22207820222C2222293E3C696628657175616C28486F6C653A7461707065642C223122292C486F6C653A746170
310
64657074682C2222293E203C696628657175616C28486F6C653A7465726D696E6174696F6E2C223022292C22202F20222C2222293E3C696628657175616C28486F6C653A7465726D696E6174696F6E2C223022292C486F6C653A64657074682C2222293E4069014051E4090E836583938376838C815B83672032405173D3C5
310
35444503A444553433E203C535444503A5354443E40690E836583938376838C815B836720314050C3D3C535444503A444553433E40690240515AAABBA120
360
F95A
330
F95A
360
F95B
330
F95B
360
F95C
330
F95C
360
F95D
360
F95E
330
F95D
330
F95E
 94
        0
  0
ACAD_PROXY_OBJECT
  5
F95F
330
F94D
100
AcDbProxyObject
 90
      499
 91
      568
 95
       25
 70
     0
 93
       26
310
5DD02A80
340
0
 94
        0
  0
ACAD_PROXY_OBJECT
  5
F960
330
F94D
100
AcDbProxyObject
 90
      499
 91
      569
 95
       25
 70
     0
 93
      250
310
5DD020000000000000A1000000000000002440408F0F9023C3E409A0DCFFFF80
340
F5AE
340
0
340
0
340
F5AF
340
F5B0
340
F5B1
340
F5B2
340
F5B3
340
F5B4
340
0
 94
        0
  0
ACAD_PROXY_OBJECT
  5
F961
330
F94D
100
AcDbProxyObject
 90
      499
 91
      590
 95
       25
 70
     0
 93
    13889
310
5DD1D003FFFFFFFD030300030000000000000310200800030C01030300030000000000000310200800030C00050C8DC0955782CC838A83588367014ED1D15395149050D3CB1294138B0C0B23702555E0B320E2A0D620D9CB11D15395149055160B095CCB0A11D1539354D1C819D95B991A5B5E880CCC0A78000C0000000000
310
00000000000000000000010000000000000310200800030C010000000000000310200800030C020143CF4F111959985D5B1D151A5D1B194F8050A8C8A8365815B8375838B014E51D15395149050D3CB1294138B0C0B2322A0D96056E0DD60E2CB11D15395149055160B095CCB0A11D1539354D1C819D95B991A5B5E880CCC4
310
A78000C000000000000000000000000000000010000000000000310200800030C010000000000000310200800030C020143CF4F111959985D5B1D151A5D1B194F90D44111409034110541D0C4350F4050E44D03449074510F000141232D24D7C053247454E545241434F2C4A504E2C302C8CB4935F2C47454E54524154582C
310
25732C2847454E4D53472067656E64696D7A20312900010104002214000281464500A608E8A9CA8A482869E5894A09C5860591914588E8A9CA8A482A8B0584AE658508E8A9C9AA68E40CECADCC8D2DAF4406452029E9E9E27B934B3B4B71F1E24A31427A91424A9A12620A7259427B934B3B4B7149624A9A12620A7259424B
310
A32B6949496111116111711149F1E24BA32B69F00808200111A000140560052F47454E545241434F2C4A504E2C302C582C47454E54524154582C25732C2847454E4D53472067656E64696D7A20332900010100002054000280AC80A5E8E8A9CA8A482869E5894A09C586058B2588E8A9CA8A482A8B0584AE658508E8A9C9AA
310
68E40CECADCC8D2DAF4406852000202000040E800050152014BD1D15395149050D3CB1294138B0C0B148B11D15395149055160B095CCB0A11D1539354D1C819D95B991A5B5E880D8A400040400008250000A0507A6029823A2A72A2920A1A79625282716181641E99623A2A72A2920AA2C1612B9961423A2A726A9A39033B2
310
B73234B6BD101B948000808180105A000140A0F4C053047454E545241434F2C4A504E2C302C83D32C47454E54524154582C25732C2847454E4D53472067656E64696D7A203829000101010020F400028248704B5F00A668E8A9CA8A482869E5894A09C58605921C12D7C588E8A9CA8A482A8B0584AE658508E8A9C9AA68E40
310
CECADCC8D2DAF440646052000200080043280005048B4B8A69014CD1D15395149050D3CB1294138B0C0B22D2E29A4B11D15395149055160B095CCB0A11D1539354D1C819D95B991A5B5E880C8C4A4000400100086D0000A09196926BE029923A2A72A2920A1A796252827161816465A49AF9623A2A72A2920AA2C1612B9961
310
423A2A726A9A39033B2B73234B6BD10189480A02620202080043E80005048D8096DA014CD1D15395149050D3CB1294138B0C0B236025B68B11D15395149055160B095CCB0A11D1539354D1C819D95B991A5B5E880C4D0A4000404140280D0000A190687072706CD06C5069D06B0029DA3A2A72A2920A1A7962528271618164
310
1A1C1C9C1B341B141A741AC1623A2A72A2920AA2C1612B9961423A2A726A9A39033B2B73234B6BD10189A94800080828050EA000143A322A0D0E0E4E0D9A0D8A0D3A0D60053D47454E545241434F2C4A504E2C302C8C8A8343839383668362834E83582C47454E54524154582C25732C2847454E4D53472067656E64696D7A
310
2031372900010105002274000281464500A628E8A9CA8A482869E5894A09C5860591914588E8A9CA8A482A8B0584AE658508E8A9C9AA68E40CECADCC8D2DAF440626C52000202080044A8000504909497CA014CD1D15395149050D3CB1294138B0C0B242525F28B11D15395149055160B095CCB0A11D1539354D1C819D95B9
310
91A5B5E880C4E4A400040418008A521E000000000000001CA040C00000000000034408080000000000006881010000000000000D102040000000000001A204080000000000003440818000000000000728103000000000000125020600000000004028A040000000000000034408000000000000004881000000000000000D
310
102000000000000001A204000000000000003440818000000000000508143C0000000000000039408180000000000006881030000000000000D102060000000000001A2040C00000000000034408180000000000006881030000000000000E5020600000000000024A040C0000000000805140800000000000000688100000
310
00000000009102000000000000001A2040000000000000034408180000000000006881030000000000000A10284220000000878000002020000008380000020400000081800000208000000828000002028900000000
340
0
340
0
340
0
340
0
340
F5A9
340
F5A9
 94
        0
  0
ACAD_PROXY_OBJECT
  5
F962
330
F94D
100
AcDbProxyObject
 90
      499
 91
      561
 95
       25
 70
     0
 93
     7018
310
5DD9740D254D3D0649534F5F4133429254D3D7D5125513115051349534F5F42525F5265766973696F6E6C69737446111413478342028323937783834316D6D2920421254D3D7D04D1E0D11141327835202835393478323130326D6D29421254D3D7D04C9E0D51141337837202834323078323038306D6D29421254D3D7D04C
310
DE0DD1141347839202832393778313839326D6D29421254D3D7D04D1E0E50E41312028353934783834316D6D29419254D3D7D04C51141327834202835393478313638326D6D29421254D3D7D04C9E0D11141347838202832393778313638326D6D29421254D3D7D04D1E0E10E41332028323937783432306D6D29419254D3D
310
7D04CD104130202838343078313138396D6D2920419254D3D7D04C11141347835202832393778313035316D6D29421254D3D7D04D1E0D51141347836202832393778313236316D6D29421254D3D7D04D1E0D91141347837202832393778313437316D6D29421254D3D7D04D1E0DD1141327833202835393478313236316D6D
310
29421254D3D7D04C9E0CD1141337834202834323078313138396D6D29421254D3D7D04CDE0D110413478332028323937783633306D6D29421254D3D7D04D1E0CD1141337835202834323078313438366D6D29421254D3D7D04CDE0D51141337836202834323078313738336D6D29421254D3D7D04CDE0D9104133783320283
310
43230783839316D6D29421254D3D7D04CDE0CD0E41322028343230783539346D6D29419254D3D7D04C9124130783220283131383978313638326D6D29421254D3D7D04C1E0C90E41342028323937783231306D6D29419254D3D7D04D1124130783320283131383978323532336D6D29421254D3D7D04C1E0CD114131783420
310
2838343178323337386D6D29421254D3D7D04C5E0D11141317833202838343178313738336D6D29421254D3D7D04C5E0CD02431254D3C82557247A25E4C81050A49534F5F5449544C4541431254D3C82557247A25E4C81090A49534F5F5449544C45424110E979A97F0838A835883675F42525F44D254D3D7D09497D4995D9
310
A5CDA5BDB9B1A5CDD10E979A97F0838A835883675F54525F44D254D3D7D51497D4995D9A5CDA5BDB9B1A5CDD10E979A97F0838A835883675F424C5F44D254D3D7D09317D4995D9A5CDA5BDB9B1A5CDD10E979A97F0838A835883675F544C5F44D254D3D7D51317D4995D9A5CDA5BDB9B1A5CDD00
  0
ACAD_PROXY_OBJECT
  5
181
330
17F
100
AcDbProxyObject
 90
      499
 91
      527
 95
       25
 70
     0
 93
       86
310
5DEA0C80A0280A0280A034
  0
ACAD_PROXY_OBJECT
  5
182
330
17F
100
AcDbProxyObject
 90
      499
 91
      528
 95
       25
 70
     0
 93
      282
310
5DD0E4050140501405014050140501405014050141101405014041000000000000001000
340
187
 94
        0
  0
ACAD_PROXY_OBJECT
  5
183
330
17F
100
AcDbProxyObject
 90
      499
 91
      529
 95
       25
 70
     0
 93
      323
310
5DCC199999999999E99F91740501405014050140501405014050140501405014050140501405014040
340
0
 94
        0
  0
ACAD_PROXY_OBJECT
  5
184
330
17F
100
AcDbProxyObject
 90
      499
 91
      530
 95
       25
 70
     0
 93
       10
310
5DC0
  0
ACAD_PROXY_OBJECT
  5
185
330
17F
100
AcDbProxyObject
 90
      499
 91
      531
 95
       25
 70
     0
 93
      257
310
5DE0C16A22A7D90F49F80000000000001081400000000000004204010000618000
340
188
340
189
 94
        0
  0
ACAD_PROXY_OBJECT
  5
186
330
17F
100
AcDbProxyObject
 90
      499
 91
      532
 95
       25
 70
     0
 93
     5277
310
5DD06411255115350141236025B6901405014069010000000000000910240690120281A8AA2CA0282484A4BE52028120280A032020000000000001220480D202405044E414D454050496BC914F4051C40640A80000000000004E4090193C3D3C4946284953424C414E4B28504152543A4E414D45292C424C4F434B3A4E414D
310
452C504152543A4E414D45293E3C41435F44455343524950544E3E40480A109A82A88AA492829880A091BBD2F7E80A3A80C81D0E27A15AF46E08A81203480901411393D5115014124A363B7D0147501904A0000000000000F902406428F4F1050D7D393D5114F901202832B22A72227A92028366EF6EE06F582028EA0320B4
310
0000000000001F20480C879E9E20A1AFAB27222FA620A122A61F20240506445020000000000000490201C00030C00010180000000000003E400000000000000F901073D3C4954454D3E4050180000000000003E400000000000000F901073D3C4954454D3E40501800000000000034400000000000000D101073D3C4954454
310
D3E40501800000000000034400000000000000D101073D3C4954454D3E405029010000000000000F9000000000000003E4041CF4F125511534F901418F4F1455164F9014060000000000000F9000000000000003E4041CF4F125511534F901800000000000034400000000000000D101073D3C4954454D3E40640400000000
310
0000003E400000000000000F90288800000000000020810000001800120881A068120480A032208521122080D21480D211480A1485214852050000000000003C2FC000000000000F0BF40600800030C0200400030C00CDCCCCCCCCCCEC3F3373333333333B0FC3333333333330940C80D069014090341504901A1999999999
310
9984A040100006180400800061804010000618008098A02808
340
0
340
0
 94
        0
  0
ACAD_PROXY_OBJECT
  5
EDA5
330
17F
100
AcDbProxyObject
 90
      499
 91
      561
 95
       25
 70
     0
 93
     3042
310
5DD9740D29254D064A49535F413342929254D7D512551311505134A49535F42525F5265766973696F6E6C6973744190F4134522028323937783231306D6D2941D29254D7D04D1490E41312028353934783834316D6D2941929254D7D04C50F41344C2028323130783239376D6D2941D29254D7D04D1310E413320283239377
310
83432306D6D2941929254D7D04CD0E41322028343230783539346D6D2941929254D7D04C90F4130202838343178313138396D6D2941929254D7D04C10243129254C82557247A25E4C81050A4A49535F5449544C454143129254C82557247A25E4C81090A4A49535F5449544C45424110E979A97F0838A835883675F42525F4
310
4D29254D7D09497D4995D9A5CDA5BDB9B1A5CDD10E979A97F0838A835883675F54525F44D29254D7D51497D4995D9A5CDA5BDB9B1A5CDD10E979A97F0838A835883675F424C5F44D29254D7D09317D4995D9A5CDA5BDB9B1A5CDD10E979A97F0838A835883675F544C5F44D29254D7D51317D4995D9A5CDA5BDB9B1A5CDD00
  0
ACAD_PROXY_OBJECT
  5
EDA6
330
17F
100
AcDbProxyObject
 90
      499
 91
      562
 95
       25
 70
     0
 93
      898
310
5DC4000000000000124048CF4F11115510525317D3105091530F880A0F11115510525317D05094D4D0D053114F8A50241C9A9999999999B93F26A666666666724FC000000000000E03F400000000000000400000000000000510000000000000024408070000C300000000000000049000
340
16
340
180
 94
        0
  0
ACAD_PROXY_OBJECT
  5
EDA7
330
17F
100
AcDbProxyObject
 90
      499
 91
      563
 95
       25
 70
     0
 93
      823
310
5DC0B00000000000002480959E9E29A2A1AA24A7A72FA620A122A62FA324A929AA1F169E29A2A1AA24A7A72FA620A122A62FA620A9AA1F000000000000048803FFFE01C00030C008140380006180000000000000048800000000000000A2000000000000002480
340
652
340
180
 94
        0
  0
ACAD_PROXY_OBJECT
  5
EDA9
330
17F
100
AcDbProxyObject
 90
      499
 91
      564
 95
       25
 70
     0
 93
      152
310
5DE8273108AC1C5A0640A3D0A5723F0BD1F200
  0
ACAD_PROXY_OBJECT
  5
EDAA
330
17F
100
AcDbProxyObject
 90
      499
 91
      565
 95
       25
 70
     0
 93
       14
310
5DE0
340
0
 94
        0
  0
ACAD_PROXY_OBJECT
  5
EDAB
330
17F
100
AcDbProxyObject
 90
      499
 91
      566
 95
       25
 70
     0
 93
     6059
310
5DD084050BA4050AA405024050E836583938376838C815B83672031405983D3C486F6C653A6469613E3C696628657175616C28486F6C653A7465726D696E6174696F6E2C223022292C2220905B82B320222C22208368838A838B22293E3C696628657175616C28486F6C653A7465726D696E6174696F6E2C223022292C486F
310
6C653A64657074682C2222293E2C203C486F6C653A63746469613E2082B482AE82E882CC905B82B3203C486F6C653A637464657074683E406901405034050E836583938376838C815B83672031405EF3D3C486F6C653A6374616E676C653E252564202525633C486F6C653A63746469613E208E4D8C8A2C203C69662865717
310
5616C28486F6C653A7461707065642C223022292C22252563222C486F6C653A6E6F6D696E616C202220782022293E3C696628657175616C28486F6C653A7461707065642C223022292C486F6C653A6469612C486F6C653A706974636864657363293E203C696628657175616C28486F6C653A7465726D696E6174696F6E2C2
310
23022292C22905B82B320222C222022293E3C696628657175616C28486F6C653A7465726D696E6174696F6E2C223022292C486F6C653A64657074682C2222293E406901405014050E836583938376838C815B83672031405C73D3C696628657175616C28486F6C653A7461707065642C223022292C22252563222C486F6C65
310
3A6E6F6D696E616C202220782022293E3C696628657175616C28486F6C653A7461707065642C223022292C486F6C653A6469612C486F6C653A706974636864657363293E203C696628657175616C28486F6C653A7465726D696E6174696F6E2C223022292C22905B82B320222C222022293E3C696628657175616C28486F6C
310
653A7465726D696E6174696F6E2C223022292C486F6C653A64657074682C2222293E4069014051E4090E836583938376838C815B83672032405173D3C535444503A444553433E203C535444503A5354443E40690E836583938376838C815B836720314050C3D3C535444503A444553433E40690240515AAABBA120
360
EDAF
330
EDAF
360
EDB0
330
EDB0
360
EDAE
330
EDAE
360
EDAD
360
EDAC
330
EDAD
330
EDAC
 94
        0
  0
ACAD_PROXY_OBJECT
  5
EDB1
330
17F
100
AcDbProxyObject
 90
      499
 91
      568
 95
       25
 70
     0
 93
       26
310
5DD02A80
340
42
 94
        0
  0
ACAD_PROXY_OBJECT
  5
EDB2
330
17F
100
AcDbProxyObject
 90
      499
 91
      569
 95
       25
 70
     0
 93
      250
310
5DD020000000000000A1000000000000002440408F0F9023C3E409A0DCFFFF80
340
58
340
18A8
340
18A9
340
5F
340
60
340
61
340
62
340
63
340
68
340
0
 94
        0
  0
ACAD_PROXY_OBJECT
  5
EDB3
330
17F
100
AcDbProxyObject
 90
      499
 91
      570
 95
       25
 70
     0
 93
    13889
310
5DD1D003FFFFFFFD030300030CCCCCCCCCCCC250200800030C01030300030CCCCCCCCCCCC250200800030C00050C8DC0955782CC838A83588367014ED1D15395149050D3CB1294138B0C0B23702555E0B320E2A0D620D9CB11D15395149055160B095CCB0A11D1539354D1C819D95B991A5B5E880CCC0A78000C0000000000
310
00000000000000000000010CCCCCCCCCCCC250200800030C010CCCCCCCCCCCC250200800030C020143CF4F111959985D5B1D151A5D1B194F8050A8C8A8365815B8375838B014E51D15395149050D3CB1294138B0C0B2322A0D96056E0DD60E2CB11D15395149055160B095CCB0A11D1539354D1C819D95B991A5B5E880CCC4
310
A78000C000000000000000000000000000000010CCCCCCCCCCCC250200800030C010CCCCCCCCCCCC250200800030C020143CF4F111959985D5B1D151A5D1B194F90D44111409034110541D0C4350F4050E44D03449074510F000141232D24D7C053247454E545241434F2C4A504E2C302C8CB4935F2C47454E54524154582C
310
25732C2847454E4D53472067656E64696D7A20312900010104002214000281464500A608E8A9CA8A482869E5894A09C5860591914588E8A9CA8A482A8B0584AE658508E8A9C9AA68E40CECADCC8D2DAF4406452029E9E9E27B934B3B4B71F1E24A31427A91424A9A12620A7259427B934B3B4B7149624A9A12620A7259424B
310
A32B6949496111116111711149F1E24BA32B69F00808200111A000140560052F47454E545241434F2C4A504E2C302C582C47454E54524154582C25732C2847454E4D53472067656E64696D7A20332900010100002054000280AC80A5E8E8A9CA8A482869E5894A09C586058B2588E8A9CA8A482A8B0584AE658508E8A9C9AA
310
68E40CECADCC8D2DAF4406852000202000040E800050152014BD1D15395149050D3CB1294138B0C0B148B11D15395149055160B095CCB0A11D1539354D1C819D95B991A5B5E880D8A400040400008250000A0507A6029823A2A72A2920A1A79625282716181641E99623A2A72A2920AA2C1612B9961423A2A726A9A39033B2
310
B73234B6BD101B948000808180105A000140A0F4C053047454E545241434F2C4A504E2C302C83D32C47454E54524154582C25732C2847454E4D53472067656E64696D7A203829000101010020F400028248704B5F00A668E8A9CA8A482869E5894A09C58605921C12D7C588E8A9CA8A482A8B0584AE658508E8A9C9AA68E40
310
CECADCC8D2DAF440646052000200080043280005048B4B8A69014CD1D15395149050D3CB1294138B0C0B22D2E29A4B11D15395149055160B095CCB0A11D1539354D1C819D95B991A5B5E880C8C4A4000400100086D0000A09196926BE029923A2A72A2920A1A796252827161816465A49AF9623A2A72A2920AA2C1612B9961
310
423A2A726A9A39033B2B73234B6BD10189480A02620202080043E80005048D8096DA014CD1D15395149050D3CB1294138B0C0B236025B68B11D15395149055160B095CCB0A11D1539354D1C819D95B991A5B5E880C4D0A4000404140280D0000A190687072706CD06C5069D06B0029DA3A2A72A2920A1A7962528271618164
310
1A1C1C9C1B341B141A741AC1623A2A72A2920AA2C1612B9961423A2A726A9A39033B2B73234B6BD10189A94800080820050EA000143A322A0D0E0E4E0D9A0D8A0D3A0D60053D47454E545241434F2C4A504E2C302C8C8A8343839383668362834E83582C47454E54524154582C25732C2847454E4D53472067656E64696D7A
310
2031372900010105002274000281464500A628E8A9CA8A482869E5894A09C5860591914588E8A9CA8A482A8B0584AE658508E8A9C9AA68E40CECADCC8D2DAF440626C52000202080044A8000504909497CA014CD1D15395149050D3CB1294138B0C0B242525F28B11D15395149055160B095CCB0A11D1539354D1C819D95B9
310
91A5B5E880C4E4A400040418008A521E000000000000001CA040C00000000000034408080000000000006881010000000000000D102040000000000001A204080000000000003440818000000000000728103000000000000125020600000000004028A040000000000000034408000000000000004881000000000000000D
310
102000000000000001A204000000000000003440818000000000000508143C0000000000000039408180000000000006881030000000000000D102060000000000001A2040C00000000000034408180000000000006881030000000000000E5020600000000000024A040C0000000000805140800000000000000688100000
310
00000000009102000000000000001A2040000000000000034408180000000000006881030000000000000A10284220000000878000002020000008380000020400000081800000208000000828000002028900000000
340
0
340
0
340
0
340
0
340
180
340
180
 94
        0
  0
ACAD_PROXY_OBJECT
  5
F95A
330
F959
100
AcDbProxyObject
 90
      499
 91
      567
 95
       25
 70
     0
 93
     2680
310
5DE0143A0D960E4E0DDA0E32056E0D9C80C4043A013D2525633C486F6C653A63746469613E2078203C486F6C653A637464657074683E20555C503C696628657175616C28486F6C653A7461707065642C223022292C22252563222C486F6C653A6E6F6D696E616C202220782022293E3C696628657175616C28486F6C653A74
310
61707065642C223022292C486F6C653A6469612C486F6C653A706974636864657363293E3C696628657175616C28486F6C653A7461707065642C223122292C22207820222C2222293E3C696628657175616C28486F6C653A7461707065642C223122292C486F6C653A74617064657074682C2222293E203C69662865717561
310
6C28486F6C653A7465726D696E6174696F6E2C223022292C22202F20222C2222293E3C696628657175616C28486F6C653A7465726D696E6174696F6E2C223022292C486F6C653A64657074682C2222293E
  0
ACAD_PROXY_OBJECT
  5
F95B
330
F959
100
AcDbProxyObject
 90
      499
 91
      567
 95
       25
 70
     0
 93
     2688
310
5DE0143A0D960E4E0DDA0E32056E0D9C80C4043B013D2525633C486F6C653A63746469613E2078203C486F6C653A6374616E676C653E2525645C503C696628657175616C28486F6C653A7461707065642C223022292C22252563222C486F6C653A6E6F6D696E616C202220782022293E3C696628657175616C28486F6C653A
310
7461707065642C223022292C486F6C653A6469612C486F6C653A706974636864657363293E3C696628657175616C28486F6C653A7461707065642C223122292C22207820222C2222293E3C696628657175616C28486F6C653A7461707065642C223122292C486F6C653A74617064657074682C2222293E203C696628657175
310
616C28486F6C653A7465726D696E6174696F6E2C223022292C22202F20222C2222293E3C696628657175616C28486F6C653A7465726D696E6174696F6E2C223022292C486F6C653A64657074682C2222293E
  0
ACAD_PROXY_OBJECT
  5
F95C
330
F959
100
AcDbProxyObject
 90
      499
 91
      567
 95
       25
 70
     0
 93
     2392
310
5DE0143A0D960E4E0DDA0E32056E0D9C80C40416013D3C696628657175616C28486F6C653A7461707065642C223022292C22252563222C486F6C653A6E6F6D696E616C202220782022293E3C696628657175616C28486F6C653A7461707065642C223022292C486F6C653A6469612C486F6C653A706974636864657363293E
310
3C696628657175616C28486F6C653A7461707065642C223122292C22207820222C2222293E3C696628657175616C28486F6C653A7461707065642C223122292C486F6C653A74617064657074682C2222293E203C696628657175616C28486F6C653A7465726D696E6174696F6E2C223022292C22202F20222C2222293E3C69
310
6628657175616C28486F6C653A7465726D696E6174696F6E2C223022292C486F6C653A64657074682C2222293E
  0
ACAD_PROXY_OBJECT
  5
F95D
330
F959
100
AcDbProxyObject
 90
      499
 91
      567
 95
       25
 70
     0
 93
      344
310
5DE0143A0D960E4E0DDA0E32056E0D9C80C805173D3C535444503A444553433E203C535444503A5354443E
  0
ACAD_PROXY_OBJECT
  5
F95E
330
F959
100
AcDbProxyObject
 90
      499
 91
      567
 95
       25
 70
     0
 93
      256
310
5DE0143A0D960E4E0DDA0E32056E0D9C80C4050C3D3C535444503A444553433E
  0
ACAD_PROXY_OBJECT
  5
EDAF
330
EDAB
100
AcDbProxyObject
 90
      499
 91
      567
 95
       25
 70
     0
 93
     1376
310
5DE0143A0D960E4E0DDA0E32056E0D9C80C405983D3C486F6C653A6469613E3C696628657175616C28486F6C653A7465726D696E6174696F6E2C223022292C2220905B82B320222C22208368838A838B22293E3C696628657175616C28486F6C653A7465726D696E6174696F6E2C223022292C486F6C653A64657074682C22
310
22293E2C203C486F6C653A63746469613E2082B482AE82E882CC905B82B3203C486F6C653A637464657074683E
  0
ACAD_PROXY_OBJECT
  5
EDB0
330
EDAB
100
AcDbProxyObject
 90
      499
 91
      567
 95
       25
 70
     0
 93
     2072
310
5DE0143A0D960E4E0DDA0E32056E0D9C80C405EF3D3C486F6C653A6374616E676C653E252564202525633C486F6C653A63746469613E208E4D8C8A2C203C696628657175616C28486F6C653A7461707065642C223022292C22252563222C486F6C653A6E6F6D696E616C202220782022293E3C696628657175616C28486F6C
310
653A7461707065642C223022292C486F6C653A6469612C486F6C653A706974636864657363293E203C696628657175616C28486F6C653A7465726D696E6174696F6E2C223022292C22905B82B320222C222022293E3C696628657175616C28486F6C653A7465726D696E6174696F6E2C223022292C486F6C653A6465707468
310
2C2222293E
  0
ACAD_PROXY_OBJECT
  5
EDAE
330
EDAB
100
AcDbProxyObject
 90
      499
 91
      567
 95
       25
 70
     0
 93
     1752
310
5DE0143A0D960E4E0DDA0E32056E0D9C80C405C73D3C696628657175616C28486F6C653A7461707065642C223022292C22252563222C486F6C653A6E6F6D696E616C202220782022293E3C696628657175616C28486F6C653A7461707065642C223022292C486F6C653A6469612C486F6C653A706974636864657363293E20
310
3C696628657175616C28486F6C653A7465726D696E6174696F6E2C223022292C22905B82B320222C222022293E3C696628657175616C28486F6C653A7465726D696E6174696F6E2C223022292C486F6C653A64657074682C2222293E
  0
ACAD_PROXY_OBJECT
  5
EDAD
330
EDAB
100
AcDbProxyObject
 90
      499
 91
      567
 95
       25
 70
     0
 93
      344
310
5DE0143A0D960E4E0DDA0E32056E0D9C80C805173D3C535444503A444553433E203C535444503A5354443E
  0
ACAD_PROXY_OBJECT
  5
EDAC
330
EDAB
100
AcDbProxyObject
 90
      499
 91
      567
 95
       25
 70
     0
 93
      256
310
5DE0143A0D960E4E0DDA0E32056E0D9C80C4050C3D3C535444503A444553433E
  0
ENDSEC
  0
EOF
