  0
SECTION
  2
HEADER
  9
$ACADVER
  1
AC1015
  9
$ACADMAINTVER
 70
     6
  9
$DWGCODEPAGE
  3
ANSI_932
  9
$INSBASE
 10
0.0
 20
0.0
 30
0.0
  9
$EXTMIN
 10
-139.4069806984362
 20
-171.6022865085621
 30
0.0
  9
$EXTMAX
 10
365.4116335814024
 20
53.47098487253628
 30
0.0
  9
$LIMMIN
 10
0.0
 20
0.0
  9
$LIMMAX
 10
594.0
 20
420.0
  9
$ORTHOMODE
 70
     0
  9
$REGENMODE
 70
     1
  9
$FILLMODE
 70
     1
  9
$QTEXTMODE
 70
     0
  9
$MIRRTEXT
 70
     1
  9
$LTSCALE
 40
1.0
  9
$ATTMODE
 70
     1
  9
$TEXTSIZE
 40
3.15
  9
$TRACEWID
 40
1.0
  9
$TEXTSTYLE
  7
STANDARD
  9
$CLAYER
  8
AM_0
  9
$CELTYPE
  6
ByLayer
  9
$CECOLOR
 62
   256
  9
$CELTSCALE
 40
1.0
  9
$DISPSILH
 70
     0
  9
$DIMSCALE
 40
1.0
  9
$DIMASZ
 40
2.5
  9
$DIMEXO
 40
0.0
  9
$DIMDLI
 40
10.0
  9
$DIMRND
 40
0.0
  9
$DIMDLE
 40
0.0
  9
$DIMEXE
 40
1.0
  9
$DIMTP
 40
0.1
  9
$DIMTM
 40
0.1000000001
  9
$DIMTXT
 40
3.8
  9
$DIMCEN
 40
0.0
  9
$DIMTSZ
 40
0.0
  9
$DIMTOL
 70
     0
  9
$DIMLIM
 70
     0
  9
$DIMTIH
 70
     0
  9
$DIMTOH
 70
     0
  9
$DIMSE1
 70
     0
  9
$DIMSE2
 70
     0
  9
$DIMTAD
 70
     3
  9
$DIMZIN
 70
     1
  9
$DIMBLK
  1
Open30
  9
$DIMASO
 70
     1
  9
$DIMSHO
 70
     1
  9
$DIMPOST
  1

  9
$DIMAPOST
  1
"
  9
$DIMALT
 70
     0
  9
$DIMALTD
 70
     2
  9
$DIMALTF
 40
0.0393701
  9
$DIMLFAC
 40
1.0
  9
$DIMTOFL
 70
     1
  9
$DIMTVP
 40
0.0
  9
$DIMTIX
 70
     0
  9
$DIMSOXD
 70
     0
  9
$DIMSAH
 70
     0
  9
$DIMBLK1
  1

  9
$DIMBLK2
  1

  9
$DIMSTYLE
  2
AM_JIS
  9
$DIMCLRD
 70
   256
  9
$DIMCLRE
 70
   256
  9
$DIMCLRT
 70
     2
  9
$DIMTFAC
 40
0.71
  9
$DIMGAP
 40
1.5
  9
$DIMJUST
 70
     0
  9
$DIMSD1
 70
     0
  9
$DIMSD2
 70
     0
  9
$DIMTOLJ
 70
     0
  9
$DIMTZIN
 70
     8
  9
$DIMALTZ
 70
     0
  9
$DIMALTTZ
 70
     0
  9
$DIMUPT
 70
     0
  9
$DIMDEC
 70
     0
  9
$DIMTDEC
 70
     2
  9
$DIMALTU
 70
     2
  9
$DIMALTTD
 70
     2
  9
$DIMTXSTY
  7
STANDARD
  9
$DIMAUNIT
 70
     1
  9
$DIMADEC
 70
     0
  9
$DIMALTRND
 40
0.0
  9
$DIMAZIN
 70
     2
  9
$DIMDSEP
 70
    46
  9
$DIMATFIT
 70
     3
  9
$DIMFRAC
 70
     0
  9
$DIMLDRBLK
  1
Open30
  9
$DIMLUNIT
 70
     2
  9
$DIMLWD
 70
    -1
  9
$DIMLWE
 70
    -1
  9
$DIMTMOVE
 70
     0
  9
$LUNITS
 70
     2
  9
$LUPREC
 70
     2
  9
$SKETCHINC
 40
1.0
  9
$FILLETRAD
 40
0.8
  9
$AUNITS
 70
     1
  9
$AUPREC
 70
     5
  9
$MENU
  1
.
  9
$ELEVATION
 40
0.0
  9
$PELEVATION
 40
0.0
  9
$THICKNESS
 40
0.0
  9
$LIMCHECK
 70
     0
  9
$CHAMFERA
 40
0.5
  9
$CHAMFERB
 40
0.5
  9
$CHAMFERC
 40
20.0
  9
$CHAMFERD
 40
0.0
  9
$SKPOLY
 70
     0
  9
$TDCREATE
 40
2451943.610431667
  9
$TDUCREATE
 40
2451943.235431667
  9
$TDUPDATE
 40
2455478.575938947
  9
$TDUUPDATE
 40
2455478.200938947
  9
$TDINDWG
 40
2.3412953472
  9
$TDUSRTIMER
 40
2.3412951736
  9
$USRTIMER
 70
     1
  9
$ANGBASE
 50
0.0
  9
$ANGDIR
 70
     0
  9
$PDMODE
 70
     0
  9
$PDSIZE
 40
0.0
  9
$PLINEWID
 40
0.0
  9
$SPLFRAME
 70
     0
  9
$SPLINETYPE
 70
     6
  9
$SPLINESEGS
 70
     8
  9
$HANDSEED
  5
4A420
  9
$SURFTAB1
 70
     6
  9
$SURFTAB2
 70
     6
  9
$SURFTYPE
 70
     6
  9
$SURFU
 70
     6
  9
$SURFV
 70
     6
  9
$UCSBASE
  2

  9
$UCSNAME
  2

  9
$UCSORG
 10
0.0
 20
0.0
 30
0.0
  9
$UCSXDIR
 10
1.0
 20
0.0
 30
0.0
  9
$UCSYDIR
 10
0.0
 20
1.0
 30
0.0
  9
$UCSORTHOREF
  2

  9
$UCSORTHOVIEW
 70
     0
  9
$UCSORGTOP
 10
0.0
 20
0.0
 30
0.0
  9
$UCSORGBOTTOM
 10
0.0
 20
0.0
 30
0.0
  9
$UCSORGLEFT
 10
0.0
 20
0.0
 30
0.0
  9
$UCSORGRIGHT
 10
0.0
 20
0.0
 30
0.0
  9
$UCSORGFRONT
 10
0.0
 20
0.0
 30
0.0
  9
$UCSORGBACK
 10
0.0
 20
0.0
 30
0.0
  9
$PUCSBASE
  2

  9
$PUCSNAME
  2

  9
$PUCSORG
 10
0.0
 20
0.0
 30
0.0
  9
$PUCSXDIR
 10
1.0
 20
0.0
 30
0.0
  9
$PUCSYDIR
 10
0.0
 20
1.0
 30
0.0
  9
$PUCSORTHOREF
  2

  9
$PUCSORTHOVIEW
 70
     0
  9
$PUCSORGTOP
 10
0.0
 20
0.0
 30
0.0
  9
$PUCSORGBOTTOM
 10
0.0
 20
0.0
 30
0.0
  9
$PUCSORGLEFT
 10
0.0
 20
0.0
 30
0.0
  9
$PUCSORGRIGHT
 10
0.0
 20
0.0
 30
0.0
  9
$PUCSORGFRONT
 10
0.0
 20
0.0
 30
0.0
  9
$PUCSORGBACK
 10
0.0
 20
0.0
 30
0.0
  9
$USERI1
 70
     0
  9
$USERI2
 70
     0
  9
$USERI3
 70
     0
  9
$USERI4
 70
     0
  9
$USERI5
 70
     0
  9
$USERR1
 40
0.0
  9
$USERR2
 40
0.0
  9
$USERR3
 40
0.0
  9
$USERR4
 40
0.0
  9
$USERR5
 40
0.0
  9
$WORLDVIEW
 70
     1
  9
$SHADEDGE
 70
     3
  9
$SHADEDIF
 70
    70
  9
$TILEMODE
 70
     1
  9
$MAXACTVP
 70
    64
  9
$PINSBASE
 10
0.0
 20
0.0
 30
0.0
  9
$PLIMCHECK
 70
     0
  9
$PEXTMIN
 10
1.000000000000000E+20
 20
1.000000000000000E+20
 30
1.000000000000000E+20
  9
$PEXTMAX
 10
-1.000000000000000E+20
 20
-1.000000000000000E+20
 30
-1.000000000000000E+20
  9
$PLIMMIN
 10
0.0
 20
0.0
  9
$PLIMMAX
 10
420.0
 20
297.0
  9
$UNITMODE
 70
     0
  9
$VISRETAIN
 70
     1
  9
$PLINEGEN
 70
     0
  9
$PSLTSCALE
 70
     1
  9
$TREEDEPTH
 70
  3020
  9
$CMLSTYLE
  2
Standard
  9
$CMLJUST
 70
     0
  9
$CMLSCALE
 40
20.0
  9
$PROXYGRAPHICS
 70
     1
  9
$MEASUREMENT
 70
     1
  9
$CELWEIGHT
370
    -1
  9
$ENDCAPS
280
     0
  9
$JOINSTYLE
280
     0
  9
$LWDISPLAY
290
     0
  9
$INSUNITS
 70
     4
  9
$HYPERLINKBASE
  1

  9
$STYLESHEET
  1
sei_cad.ctb
  9
$XEDIT
290
     1
  9
$CEPSNTYPE
380
     0
  9
$PSTYLEMODE
290
     1
  9
$FINGERPRINTGUID
  2
{C77AB3BE-9CA2-11D3-BAF3-006094EB760E}
  9
$VERSIONGUID
  2
{80967518-B985-461F-983E-541A904B0F47}
  9
$EXTNAMES
290
     1
  9
$PSVPSCALE
 40
0.0
  9
$OLESTARTUP
290
     0
  0
ENDSEC
  0
SECTION
  2
CLASSES
  0
CLASS
  1
ACDBDICTIONARYWDFLT
  2
AcDbDictionaryWithDefault
  3
ObjectDBX Classes
 90
        0
280
     0
281
     0
  0
CLASS
  1
ACDBPLACEHOLDER
  2
AcDbPlaceHolder
  3
ObjectDBX Classes
 90
        0
280
     0
281
     0
  0
CLASS
  1
LAYOUT
  2
AcDbLayout
  3
ObjectDBX Classes
 90
        0
280
     0
281
     0
  0
CLASS
  1
ACME_DOCUMENT
  2
AcMeDbDoc
  3
AcMeServices
 90
        0
280
     1
281
     0
  0
CLASS
  1
ACMESCOPE
  2
AcMeScope
  3
AcMeServices
 90
        0
280
     1
281
     0
  0
CLASS
  1
ACMECOMMANDHISTORY
  2
AcMeCommandHistory
  3
AcMeServices
 90
        0
280
     1
281
     0
  0
CLASS
  1
DICTIONARYVAR
  2
AcDbDictionaryVar
  3
ObjectDBX Classes
 90
        0
280
     0
281
     0
  0
CLASS
  1
ACIMSYSVARMAN
  2
AcImSysVarManager
  3
AcMeServices
 90
        0
280
     1
281
     0
  0
CLASS
  1
ACIMREALSYSVAR
  2
AcImRealSysVar
  3
AcMeServices
 90
        0
280
     1
281
     0
  0
CLASS
  1
ACIMINTSYSVAR
  2
AcImIntSysVar
  3
AcMeServices
 90
        0
280
     1
281
     0
  0
CLASS
  1
ACMEDRAWINGMAN
  2
AcMeDrawingMan
  3
AcMeServices
 90
        0
280
     1
281
     0
  0
CLASS
  1
ACMEVIEW
  2
AcMeView
  3
AcMeServices
 90
        0
280
     1
281
     0
  0
CLASS
  1
ACDBENTITYCACHE
  2
AcMeEntityCache
  3
AcMeServices
 90
        0
280
     1
281
     0
  0
CLASS
  1
GSMANAGER
  2
AcMeGSManager
  3
AcMeServices
 90
        0
280
     1
281
     0
  0
CLASS
  1
AMDTINTERNALREACTOR
  2
AmdtInternalReactor
  3
AcMeServices
 90
        0
280
     1
281
     0
  0
CLASS
  1
ACMESTATEMGR
  2
AcMeStateMgr
  3
AcMeServices
 90
        0
280
     1
281
     0
  0
CLASS
  1
ACME_DATABASE
  2
AcMeDbDatabase
  3
AcMeServices
 90
        0
280
     1
281
     0
  0
CLASS
  1
ACRFINSADJUSTERMGR
  2
AcRfInsAdjusterMgr
  3
AcMeServices
 90
        0
280
     1
281
     0
  0
CLASS
  1
AMGSETTINGSOBJ
  2
AmgSettingsObj
  3
"AcadM|Product Description: AutoCAD Mechanical 2000|Company: Autodesk"
 90
        0
280
     1
281
     0
  0
CLASS
  1
AMGOBJPROPCFG
  2
AmgObjPropCfg
  3
"AmgLay|Product Description: AutoCAD Mechanical 2000|Company: Autodesk"
 90
        1
280
     1
281
     0
  0
CLASS
  1
ACMDATADICTIONARY
  2
AcmDataDictionary
  3
"AcmSymBB|Product Description: AutoCAD Mechanical 2004 DX|Company: Autodesk"
 90
        0
280
     1
281
     0
  0
CLASS
  1
ACMDATAENTRYBLOCK
  2
AcmDataEntryBlock
  3
"AcmSymBB|Product Description: AutoCAD Mechanical 2004 DX|Company: Autodesk"
 90
        0
280
     1
281
     0
  0
CLASS
  1
ACIMSTRSYSVAR
  2
AcImStrSysVar
  3
AcMeServices
 90
        0
280
     1
281
     0
  0
CLASS
  1
ACAMGFILTERDAT
  2
AcAmgFilterDat
  3
"AcadM|Product Description: AutoCAD Mechanical 2000|Company: Autodesk"
 90
        0
280
     1
281
     0
  0
CLASS
  1
LAYER_INDEX
  2
AcDbLayerIndex
  3
ObjectDBX Classes
 90
        0
280
     0
281
     0
  0
CLASS
  1
IDBUFFER
  2
AcDbIdBuffer
  3
ObjectDBX Classes
 90
        0
280
     0
281
     0
  0
CLASS
  1
ACMSTANDARDJIS
  2
AcmStandardJIS
  3
"Amdt_StdImp|Product Description: AutoCAD Mechanical 2004 DX|Company: Autodesk"
 90
        0
280
     1
281
     0
  0
CLASS
  1
ACMSURFSTANDARDJIS
  2
AcmSurfTextStdJIS
  3
"Amdt_StdImp|Product Description: AutoCAD Mechanical 2004 DX|Company: Autodesk"
 90
        0
280
     1
281
     0
  0
CLASS
  1
ACMFCFSTANDARDJIS
  2
AcmFCFStdJIS
  3
"Amdt_StdImp|Product Description: AutoCAD Mechanical 2004 DX|Company: Autodesk"
 90
        0
280
     1
281
     0
  0
CLASS
  1
ACMWELDSTANDARDJIS
  2
AcmWeldingStdJIS
  3
"Amdt_StdImp|Product Description: AutoCAD Mechanical 2004 DX|Company: Autodesk"
 90
        0
280
     1
281
     0
  0
CLASS
  1
ACMIDSTANDARDJIS
  2
AcmIdStdJIS
  3
"Amdt_StdImp|Product Description: AutoCAD Mechanical 2004 DX|Company: Autodesk"
 90
        0
280
     1
281
     0
  0
CLASS
  1
ACMDATUMSTANDARDJIS
  2
AcmDatumStdJIS
  3
"Amdt_StdImp|Product Description: AutoCAD Mechanical 2004 DX|Company: Autodesk"
 90
        0
280
     1
281
     0
  0
CLASS
  1
ACMBOMSTANDARDJIS
  2
AcmBOMStdJIS
  3
"Amdt_StdImp|Product Description: AutoCAD Mechanical 2004 DX|Company: Autodesk"
 90
        0
280
     1
281
     0
  0
CLASS
  1
AMDTNOTE
  2
AmdtNote
  3
"AcmSymBB|Product Description: AutoCAD Mechanical 2004 DX|Company: Autodesk"
 90
     1023
280
     1
281
     1
  0
CLASS
  1
ACMFCFRAME
  2
AcmFCF
  3
"AcmSymBB|Product Description: AutoCAD Mechanical 2004 DX|Company: Autodesk"
 90
     1023
280
     1
281
     1
  0
CLASS
  1
ACMDATUMID
  2
AcmDatumId
  3
"AcmSymBB|Product Description: AutoCAD Mechanical 2004 DX|Company: Autodesk"
 90
     1023
280
     1
281
     1
  0
CLASS
  1
ACMDIMBREAKPERSREACTOR
  2
AcmDimBreakPersReactor
  3
amgDimApp().moduleName()
 90
     1023
280
     1
281
     0
  0
CLASS
  1
TABLESTYLE
  2
AcDbTableStyle
  3
ObjectDBX Classes
 90
     2047
280
     0
281
     0
  0
CLASS
  1
ACGREFMASTER
  2
AcGrefMaster
  3
AcAttribServices
 90
        0
280
     1
281
     0
  0
CLASS
  1
AM_DRAWING_MGR
  2
AcDmDwgMgr
  3
AcMechDwgViewMgmt
 90
        0
280
     1
281
     0
  0
CLASS
  1
AM_DWG_DOCUMENT
  2
AcDmDwgDocument
  3
AcMechDwgViewMgmt
 90
        0
280
     1
281
     0
  0
CLASS
  1
AM_DWG_SHEET
  2
AcDmSheet
  3
AcMechDwgViewMgmt
 90
        0
280
     1
281
     0
  0
CLASS
  1
AM_VIEWDIMPARMAP
  2
AcDmViewDimParMap
  3
AcMechDwgViewMgmt
 90
        0
280
     1
281
     0
  0
CLASS
  1
AM_DWGMGR_NAME
  2
AcDmDwgMgrName
  3
AcMechDwgViewMgmt
 90
        0
280
     1
281
     0
  0
CLASS
  1
ACGREFACADMASTER
  2
AcGrefacadMaster
  3
AcGrefServices
 90
        0
280
     1
281
     0
  0
CLASS
  1
AMDTMENUSTATEMGR
  2
AmdtMenuStateMgr
  3
McadcomServices
 90
        0
280
     1
281
     0
  0
CLASS
  1
AMDTMCOMMENUSTATE
  2
AmdtMcomMenuState
  3
McadcomServices
 90
        0
280
     1
281
     0
  0
CLASS
  1
AMIMASTER
  2
AmiMaster
  3
AmiServices
 90
        0
280
     1
281
     0
  0
CLASS
  1
MAPIAMMOUDLE
  2
MApiAmModule
  3
MApiAmServices
 90
        0
280
     1
281
     0
  0
CLASS
  1
AMDTADMENUSTATE
  2
AmdtAdMenuState
  3
DesignerServices
 90
        0
280
     1
281
     0
  0
CLASS
  1
ADAPPL
  2
AcAdAppl
  3
DesignerServices
 90
        0
280
     1
281
     0
  0
CLASS
  1
DEPMGR
  2
AcAdDepMgr
  3
DesignerServices
 90
        0
280
     1
281
     0
  0
CLASS
  1
PARAMMGR
  2
AcAdParamMgr
  3
DesignerServices
 90
        0
280
     1
281
     0
  0
CLASS
  1
PARAMSCOPE
  2
AcAdParamScope
  3
DesignerServices
 90
        0
280
     1
281
     0
  0
CLASS
  1
NAMEDAPPL
  2
AcAdNamedAppl
  3
DesignerServices
 90
        0
280
     1
281
     0
  0
CLASS
  1
AMDTDMMENUSTATE
  2
AmdtDmMenuState
  3
AcMechDwgViewMgmt
 90
        0
280
     1
281
     0
  0
CLASS
  1
AMDTAMMENUSTATE
  2
AmdtAmMenuState
  3
DesignerAssemblies
 90
        0
280
     1
281
     0
  0
CLASS
  1
ACAMPROJECT
  2
AcAmProject
  3
DesignerAssemblies
 90
        0
280
     1
281
     0
  0
CLASS
  1
ACAMGRCOMPDEF
  2
AcAmGrCompDef
  3
DesignerAssemblies
 90
        0
280
     1
281
     0
  0
CLASS
  1
ACCMCONTEXT
  2
AcCmContext
  3
DesignerAssemblies
 90
        0
280
     1
281
     0
  0
CLASS
  1
ACAMCOMPDEF
  2
AcAmCompDef
  3
DesignerAssemblies
 90
        0
280
     1
281
     0
  0
CLASS
  1
ACAMCOMPDEFMGR
  2
AcAmCompDefMgr
  3
DesignerAssemblies
 90
        0
280
     1
281
     0
  0
CLASS
  1
AMCONTEXTMGR
  2
AcAmContextMgr
  3
DesignerAssemblies
 90
        0
280
     1
281
     0
  0
CLASS
  1
ACAMCONTEXTMODELER
  2
AcAmContextModeler
  3
DesignerAssemblies
 90
        0
280
     1
281
     0
  0
CLASS
  1
ACAMGTITLESTD
  2
AcAmgTitleStd
  3
"TITLEAPP"
 90
        0
280
     1
281
     0
  0
CLASS
  1
ACMDETAILSTANDARDJIS
  2
AmdtDetailSymStdJIS
  3
"Amdt_StdImp|Product Description: AutoCAD Mechanical 2004 DX|Company: Autodesk"
 90
        0
280
     1
281
     0
  0
CLASS
  1
ACMSECTIONSTANDARDJIS
  2
AmdtSectionSymStdJIS
  3
"Amdt_StdImp|Product Description: AutoCAD Mechanical 2004 DX|Company: Autodesk"
 90
        0
280
     1
281
     0
  0
CLASS
  1
ACMCENTERLINESTANDARDJIS
  2
AmdtCenterLineStdJIS
  3
"Amdt_StdImp|Product Description: AutoCAD Mechanical 2004 DX|Company: Autodesk"
 90
        0
280
     1
281
     0
  0
CLASS
  1
ACMTHREADLINESTANDARDJIS
  2
AmdtThreadLineStdJIS
  3
"Amdt_StdImp|Product Description: AutoCAD Mechanical 2004 DX|Company: Autodesk"
 90
        0
280
     1
281
     0
  0
CLASS
  1
ACMNOTESTANDARDJIS
  2
AmdtNoteStdJIS
  3
"Amdt_StdImp|Product Description: AutoCAD Mechanical 2004 DX|Company: Autodesk"
 90
        0
280
     1
281
     0
  0
CLASS
  1
AMDTNOTETEMPLATEDB
  2
AmdtNoteTemplateDB
  3
AMDT_STDIMP_MODULE_NAME
 90
        0
280
     1
281
     0
  0
CLASS
  1
ACAMGLAYSTD
  2
AcAmgLayStd
  3
"AcAmgLayStd|Product Description: AutoCAD Mechanical 2000|Company: Autodesk"
 90
        0
280
     1
281
     0
  0
CLASS
  1
ACAMGDIMSTD
  2
AcAmgDimStd
  3
"AcAmgDimStd|Product Description: AutoCAD Mechanical 2000|Company: Autodesk"
 90
        0
280
     1
281
     0
  0
CLASS
  1
ACAMGHOLECHARTSTDJIS
  2
AcAmgHoleChartStdJIS
  3
ACMSYMBB_MODULE_NAME
 90
        0
280
     1
281
     0
  0
CLASS
  1
CATALOGSTATE
  2
AcAmCatalogState
  3
DesignerAssemblies
 90
        0
280
     1
281
     0
  0
CLASS
  1
ACAMGRCOMPDEFSET
  2
AcAmGrCompDefSet
  3
DesignerAssemblies
 90
        0
280
     1
281
     0
  0
CLASS
  1
AMDTBROWSERDBTAB
  2
AmdtBrowserDbTab
  3
McadcomServices
 90
        0
280
     1
281
     0
  0
CLASS
  1
CBROWSERAPPOBJECT
  2
CBrowserAppObject
  3
McadcomServices
 90
        0
280
     1
281
     0
  0
CLASS
  1
DM_PLACEHOLDER
  2
AcDmSelsetPlaceholder
  3
AcMechDwgViewMgmt
 90
        0
280
     1
281
     0
  0
CLASS
  1
SORTENTSTABLE
  2
AcDbSortentsTable
  3
ObjectDBX Classes
 90
        0
280
     0
281
     0
  0
CLASS
  1
ACMSTANDARDISO
  2
AcmStandardISO
  3
"Amdt_StdImp|Product Description: AutoCAD Mechanical 2004 DX|Company: Autodesk"
 90
        0
280
     1
281
     0
  0
CLASS
  1
AMDTEDGESTANDARDISO13715
  2
AmdtEdgeStdISO13715
  3
"Amdt_StdImp|Product Description: AutoCAD Mechanical 2004 DX|Company: Autodesk"
 90
        0
280
     1
281
     0
  0
CLASS
  1
ACMSURFSTANDARDISO
  2
AcmSurfTextStdISO
  3
"Amdt_StdImp|Product Description: AutoCAD Mechanical 2004 DX|Company: Autodesk"
 90
        0
280
     1
281
     0
  0
CLASS
  1
ACMFCFSTANDARDISO
  2
AcmFCFStdISO
  3
"Amdt_StdImp|Product Description: AutoCAD Mechanical 2004 DX|Company: Autodesk"
 90
        0
280
     1
281
     0
  0
CLASS
  1
ACMWELDSTANDARDISO
  2
AcmWeldingStdISO
  3
"Amdt_StdImp|Product Description: AutoCAD Mechanical 2004 DX|Company: Autodesk"
 90
        0
280
     1
281
     0
  0
CLASS
  1
ACMIDSTANDARDISO
  2
AcmIdStdISO
  3
"Amdt_StdImp|Product Description: AutoCAD Mechanical 2004 DX|Company: Autodesk"
 90
        0
280
     1
281
     0
  0
CLASS
  1
ACMDATUMSTANDARDISO
  2
AcmDatumStdISO
  3
"Amdt_StdImp|Product Description: AutoCAD Mechanical 2004 DX|Company: Autodesk"
 90
        0
280
     1
281
     0
  0
CLASS
  1
ACMBOMSTANDARDISO
  2
AcmBOMStdISO
  3
"Amdt_StdImp|Product Description: AutoCAD Mechanical 2004 DX|Company: Autodesk"
 90
        0
280
     1
281
     0
  0
CLASS
  1
ACMDETAILSTANDARDISO
  2
AmdtDetailSymStdISO
  3
"Amdt_StdImp|Product Description: AutoCAD Mechanical 2004 DX|Company: Autodesk"
 90
        0
280
     1
281
     0
  0
CLASS
  1
ACMSECTIONSTANDARDISO
  2
AmdtSectionSymStdISO
  3
"Amdt_StdImp|Product Description: AutoCAD Mechanical 2004 DX|Company: Autodesk"
 90
        0
280
     1
281
     0
  0
CLASS
  1
ACMCENTERLINESTANDARDISO
  2
AmdtCenterLineStdISO
  3
"Amdt_StdImp|Product Description: AutoCAD Mechanical 2004 DX|Company: Autodesk"
 90
        0
280
     1
281
     0
  0
CLASS
  1
ACMTHREADLINESTANDARDISO
  2
AmdtThreadLineStdISO
  3
"Amdt_StdImp|Product Description: AutoCAD Mechanical 2004 DX|Company: Autodesk"
 90
        0
280
     1
281
     0
  0
CLASS
  1
ACMNOTESTANDARDISO
  2
AmdtNoteStdISO
  3
"Amdt_StdImp|Product Description: AutoCAD Mechanical 2004 DX|Company: Autodesk"
 90
        0
280
     1
281
     0
  0
CLASS
  1
ACAMGHOLECHARTSTDISO
  2
AcAmgHoleChartStdISO
  3
ACMSYMBB_MODULE_NAME
 90
        0
280
     1
281
     0
  0
ENDSEC
  0
SECTION
  2
TABLES
  0
TABLE
  2
VPORT
  5
8
330
0
100
AcDbSymbolTable
 70
     3
  0
VPORT
  5
4A418
330
8
100
AcDbSymbolTableRecord
100
AcDbViewportTableRecord
  2
*Active
 70
     0
 10
0.0
 20
0.0
 11
1.0
 21
1.0
 12
218.4296057048586
 22
-59.06805417175224
 13
0.0
 23
0.0
 14
2.5
 24
2.5
 15
10.0
 25
10.0
 16
0.0
 26
0.0
 36
1.0
 17
0.0
 27
0.0
 37
0.0
 40
369.8254130980161
 41
1.943262411347517
 42
50.0
 43
0.0
 44
0.0
 50
0.0
 51
0.0
 71
    16
 72
  2000
 73
     1
 74
     3
 75
     0
 76
     0
 77
     0
 78
     0
281
     0
 65
     1
110
0.0
120
0.0
130
0.0
111
1.0
121
0.0
131
0.0
112
0.0
122
1.0
132
0.0
 79
     0
146
0.0
  0
ENDTAB
  0
TABLE
  2
LTYPE
  5
5
330
0
100
AcDbSymbolTable
 70
    16
  0
LTYPE
  5
14
330
5
100
AcDbSymbolTableRecord
100
AcDbLinetypeTableRecord
  2
ByBlock
 70
     0
  3

 72
    65
 73
     0
 40
0.0
  0
LTYPE
  5
15
330
5
100
AcDbSymbolTableRecord
100
AcDbLinetypeTableRecord
  2
ByLayer
 70
     0
  3

 72
    65
 73
     0
 40
0.0
  0
LTYPE
  5
16
330
5
100
AcDbSymbolTableRecord
100
AcDbLinetypeTableRecord
  2
Continuous
 70
     0
  3
Solid line
 72
    65
 73
     0
 40
0.0
  0
LTYPE
  5
43
330
5
100
AcDbSymbolTableRecord
100
AcDbLinetypeTableRecord
  2
AM_ISO02W050
 70
     0
  3
__ __ __ __ __ __ __ __ __ __ __ __ __ __ __
 72
    65
 73
     2
 40
7.5
 49
6.0
 74
     0
 49
-1.5
 74
     0
  0
LTYPE
  5
44
330
5
100
AcDbSymbolTableRecord
100
AcDbLinetypeTableRecord
  2
AM_ISO08W050
 70
     0
  3
____ . ____ . ____ . ____ . ____ . ____ . ____
 72
    65
 73
     4
 40
18.0
 49
12.0
 74
     0
 49
-1.5
 74
     0
 49
3.0
 74
     0
 49
-1.5
 74
     0
  0
LTYPE
  5
45
330
5
100
AcDbSymbolTableRecord
100
AcDbLinetypeTableRecord
  2
AM_ISO09W050
 70
     0
  3
_____ . . _____ . . _____ . . ____ .. ____
 72
    65
 73
     6
 40
22.5
 49
12.0
 74
     0
 49
-1.5
 74
     0
 49
3.0
 74
     0
 49
-1.5
 74
     0
 49
3.0
 74
     0
 49
-1.5
 74
     0
  0
LTYPE
  5
46
330
5
100
AcDbSymbolTableRecord
100
AcDbLinetypeTableRecord
  2
Amconstr
 70
     0
  3
_______________________
 72
    65
 73
     2
 40
9999.0
 49
9999.0
 74
     0
 49
0.0
 74
     0
  0
LTYPE
  5
47
330
5
100
AcDbSymbolTableRecord
100
AcDbLinetypeTableRecord
  2
AM_ISO02W050x2
 70
     0
  3
 _ _ _ _ _ _ _ _ _ _ _ _
 72
    65
 73
     2
 40
3.75
 49
3.0
 74
     0
 49
-0.75
 74
     0
  0
LTYPE
  5
48
330
5
100
AcDbSymbolTableRecord
100
AcDbLinetypeTableRecord
  2
AM_ISO08W050x2
 70
     0
  3
__ . __ . __ . __ . __ . __
 72
    65
 73
     4
 40
9.0
 49
6.0
 74
     0
 49
-0.75
 74
     0
 49
1.5
 74
     0
 49
-0.75
 74
     0
  0
LTYPE
  5
4B
330
5
100
AcDbSymbolTableRecord
100
AcDbLinetypeTableRecord
  2
Amzigzag
 70
     0
  3
/\/-/\/-/\/-/\/-/\/-/\/
 72
    65
 73
     2
 40
11.0001
 49
0.0001
 74
     4
 75
   135
340
4A
 46
0.04
 50
0.0
 44
0.0
 45
0.0
 49
-11.0
 74
     0
  0
LTYPE
  5
188
330
5
100
AcDbSymbolTableRecord
100
AcDbLinetypeTableRecord
  2
ACJISTGB
 70
     0
  3
__ . . __ . .
 72
    65
 73
     6
 40
9.0
 49
4.0
 74
     0
 49
-1.0
 74
     0
 49
1.0
 74
     0
 49
-1.0
 74
     0
 49
1.0
 74
     0
 49
-1.0
 74
     0
  0
LTYPE
  5
189
330
5
100
AcDbSymbolTableRecord
100
AcDbLinetypeTableRecord
  2
ACJISTGL
 70
     0
  3
_ _ _ _ _
 72
    65
 73
     2
 40
3.0
 49
2.0
 74
     0
 49
-1.0
 74
     0
  0
LTYPE
  5
652
330
5
100
AcDbSymbolTableRecord
100
AcDbLinetypeTableRecord
  2
CENTER
 70
     0
  3
____ _ ____ _ ____ _ ____ _ ____ _ ____ _ ____
 72
    65
 73
     4
 40
17.5
 49
13.0
 74
     0
 49
-1.5
 74
     0
 49
1.5
 74
     0
 49
-1.5
 74
     0
  0
LTYPE
  5
12AB
330
5
100
AcDbSymbolTableRecord
100
AcDbLinetypeTableRecord
  2
HIDDEN
 70
     0
  3
Hidden __ __ __ __ __ __ __ __ __ __ __ __ __ _
 72
    65
 73
     2
 40
0.375
 49
0.25
 74
     0
 49
-0.125
 74
     0
  0
LTYPE
  5
12AC
330
5
100
AcDbSymbolTableRecord
100
AcDbLinetypeTableRecord
  2
PHANTOM2
 70
     0
  3
Phantom (.5x) ___ _ _ ___ _ _ ___ _ _ ___ _ _
 72
    65
 73
     6
 40
1.25
 49
0.625
 74
     0
 49
-0.125
 74
     0
 49
0.125
 74
     0
 49
-0.125
 74
     0
 49
0.125
 74
     0
 49
-0.125
 74
     0
  0
LTYPE
  5
45AC8
330
5
100
AcDbSymbolTableRecord
100
AcDbLinetypeTableRecord
  2
ACISOWELD
 70
     0
  3
_ _ _ _ _
 72
    65
 73
     2
 40
2.0
 49
2.0
 74
     0
 49
-1.0
 74
     0
  0
LTYPE
  5
45AC9
330
5
100
AcDbSymbolTableRecord
100
AcDbLinetypeTableRecord
  2
ACISOTGB
 70
     0
  3
__ . . __ . .
 72
    65
 73
     6
 40
9.0
 49
4.0
 74
     0
 49
-1.0
 74
     0
 49
1.0
 74
     0
 49
-1.0
 74
     0
 49
1.0
 74
     0
 49
-1.0
 74
     0
  0
LTYPE
  5
45ACA
330
5
100
AcDbSymbolTableRecord
100
AcDbLinetypeTableRecord
  2
ACISOTGL
 70
     0
  3
_ _ _ _ _
 72
    65
 73
     2
 40
3.0
 49
2.0
 74
     0
 49
-1.0
 74
     0
  0
ENDTAB
  0
TABLE
  2
LAYER
  5
2
102
{ACAD_XDICTIONARY
360
46010
102
}
330
0
100
AcDbSymbolTable
 70
     6
  0
LAYER
  5
10
330
2
100
AcDbSymbolTableRecord
100
AcDbLayerTableRecord
  2
0
 70
     0
 62
     7
  6
Continuous
370
    -3
390
F
  0
LAYER
  5
7D
330
2
100
AcDbSymbolTableRecord
100
AcDbLayerTableRecord
  2
AM_5
 70
     0
 62
     3
  6
Continuous
370
    13
390
F
  0
LAYER
  5
7F
330
2
100
AcDbSymbolTableRecord
100
AcDbLayerTableRecord
  2
Defpoints
 70
     0
 62
     7
  6
Continuous
290
     0
370
    -3
390
F
  0
LAYER
  5
12B1
330
2
100
AcDbSymbolTableRecord
100
AcDbLayerTableRecord
  2
AM_0
 70
     0
 62
     7
  6
Continuous
370
    30
390
F
  0
LAYER
  5
1EC0
330
2
100
AcDbSymbolTableRecord
100
AcDbLayerTableRecord
  2
AM_7
 70
     0
 62
     4
  6
AM_ISO08W050
370
    13
390
F
  0
LAYER
  5
32B3
330
2
100
AcDbSymbolTableRecord
100
AcDbLayerTableRecord
  2
AM_11
 70
     0
 62
     3
  6
AM_ISO09W050
370
    13
390
F
  0
ENDTAB
  0
TABLE
  2
STYLE
  5
3
330
0
100
AcDbSymbolTable
 70
     6
  0
STYLE
  5
11
330
3
100
AcDbSymbolTableRecord
100
AcDbTextStyleTableRecord
  2
STANDARD
 70
     0
 40
0.0
 41
1.0
 50
0.0
 71
     0
 42
3.15
  3
ISOCP.SHX
  4
EXTFONT.SHX
  0
STYLE
  5
4A
330
3
100
AcDbSymbolTableRecord
100
AcDbTextStyleTableRecord
  2

 70
     1
 40
0.0
 41
1.0
 50
0.0
 71
     0
 42
2.5
  3
ltypeshp.shx
  4

  0
STYLE
  5
180
330
3
100
AcDbSymbolTableRecord
100
AcDbTextStyleTableRecord
  2
ACJISTS
 70
     0
 40
1.0
 41
1.0
 50
0.0
 71
     0
 42
2.5
  3
isocp.shx
  4
bigfont.shx
  0
STYLE
  5
187
330
3
100
AcDbSymbolTableRecord
100
AcDbTextStyleTableRecord
  2
ACJISGDT
 70
     0
 40
0.0
 41
1.0
 50
0.0
 71
     0
 42
2.5
  3
amgdt.shx
  4

  0
STYLE
  5
45ACC
330
3
100
AcDbSymbolTableRecord
100
AcDbTextStyleTableRecord
  2
ACISOTS
 70
     0
 40
3.8
 41
1.0
 50
0.0
 71
     0
 42
3.8
  3
isocp.shx
  4
extfont.shx
  0
STYLE
  5
45ACD
330
3
100
AcDbSymbolTableRecord
100
AcDbTextStyleTableRecord
  2
ACISOGDT
 70
     0
 40
0.0
 41
1.0
 50
0.0
 71
     0
 42
2.5
  3
amgdt.shx
  4
extfont.shx
  0
ENDTAB
  0
TABLE
  2
VIEW
  5
6
330
0
100
AcDbSymbolTable
 70
     6
  0
VIEW
  5
A30
330
6
100
AcDbSymbolTableRecord
100
AcDbViewTableRecord
  2
AM_VIEW1
 70
     0
 40
210.0
 10
153.7072243346008
 20
315.0
 41
307.4144486692015
 11
0.0
 21
0.0
 31
1.0
 12
0.0
 22
0.0
 32
0.0
 42
50.0
 43
0.0
 44
0.0
 50
0.0
 71
    16
281
     0
 72
     0
  0
VIEW
  5
A31
330
6
100
AcDbSymbolTableRecord
100
AcDbViewTableRecord
  2
AM_VIEW2
 70
     0
 40
210.0
 10
440.2927756653992
 20
315.0
 41
307.4144486692015
 11
0.0
 21
0.0
 31
1.0
 12
0.0
 22
0.0
 32
0.0
 42
50.0
 43
0.0
 44
0.0
 50
0.0
 71
    16
281
     0
 72
     0
  0
VIEW
  5
A32
330
6
100
AcDbSymbolTableRecord
100
AcDbViewTableRecord
  2
AM_VIEW3
 70
     0
 40
210.0
 10
153.7072243346008
 20
105.0
 41
307.4144486692015
 11
0.0
 21
0.0
 31
1.0
 12
0.0
 22
0.0
 32
0.0
 42
50.0
 43
0.0
 44
0.0
 50
0.0
 71
    16
281
     0
 72
     0
  0
VIEW
  5
A33
330
6
100
AcDbSymbolTableRecord
100
AcDbViewTableRecord
  2
AM_VIEW4
 70
     0
 40
210.0
 10
440.2927756653992
 20
105.0
 41
307.4144486692015
 11
0.0
 21
0.0
 31
1.0
 12
0.0
 22
0.0
 32
0.0
 42
50.0
 43
0.0
 44
0.0
 50
0.0
 71
    16
281
     0
 72
     0
  0
VIEW
  5
A34
330
6
100
AcDbSymbolTableRecord
100
AcDbViewTableRecord
  2
AM_VIEW5
 70
     0
 40
210.0
 10
297.0
 20
210.0
 41
307.4144486692015
 11
0.0
 21
0.0
 31
1.0
 12
0.0
 22
0.0
 32
0.0
 42
50.0
 43
0.0
 44
0.0
 50
0.0
 71
    16
281
     0
 72
     0
  0
VIEW
  5
A35
330
6
100
AcDbSymbolTableRecord
100
AcDbViewTableRecord
  2
AM_VIEW6
 70
     0
 40
419.9958
 10
297.0
 20
210.0
 41
614.8227490494296
 11
0.0
 21
0.0
 31
1.0
 12
0.0
 22
0.0
 32
0.0
 42
50.0
 43
0.0
 44
0.0
 50
0.0
 71
    16
281
     0
 72
     0
  0
ENDTAB
  0
TABLE
  2
UCS
  5
7
330
0
100
AcDbSymbolTable
 70
     0
  0
ENDTAB
  0
TABLE
  2
APPID
  5
9
330
0
100
AcDbSymbolTable
 70
    46
  0
APPID
  5
12
330
9
100
AcDbSymbolTableRecord
100
AcDbRegAppTableRecord
  2
ACAD
 70
     0
  0
APPID
  5
2C
330
9
100
AcDbSymbolTableRecord
100
AcDbRegAppTableRecord
  2
MCAD_NO_VIS
 70
     0
  0
APPID
  5
2D
330
9
100
AcDbSymbolTableRecord
100
AcDbRegAppTableRecord
  2
ACAD_TEMP_GRAPHIC
 70
     0
  0
APPID
  5
B9
330
9
100
AcDbSymbolTableRecord
100
AcDbRegAppTableRecord
  2
GENIUS_GENDTOL_13
 70
     0
  0
APPID
  5
359
330
9
100
AcDbSymbolTableRecord
100
AcDbRegAppTableRecord
  2
GENIUS_GENREC_14
 70
     0
  0
APPID
  5
35A
330
9
100
AcDbSymbolTableRecord
100
AcDbRegAppTableRecord
  2
GENIUS_GENODEF_13
 70
     0
  0
APPID
  5
35B
330
9
100
AcDbSymbolTableRecord
100
AcDbRegAppTableRecord
  2
GENIUS_GENOBJ-N-REC_13
 70
     0
  0
APPID
  5
667
330
9
100
AcDbSymbolTableRecord
100
AcDbRegAppTableRecord
  2
GENIUS_GENCFG_13
 70
     0
  0
APPID
  5
668
330
9
100
AcDbSymbolTableRecord
100
AcDbRegAppTableRecord
  2
GENIUS_GENCFG0_13
 70
     0
  0
APPID
  5
669
330
9
100
AcDbSymbolTableRecord
100
AcDbRegAppTableRecord
  2
GENIUS_GENCFG1_13
 70
     0
  0
APPID
  5
66A
330
9
100
AcDbSymbolTableRecord
100
AcDbRegAppTableRecord
  2
GENIUS_GENCFG2_13
 70
     0
  0
APPID
  5
66B
330
9
100
AcDbSymbolTableRecord
100
AcDbRegAppTableRecord
  2
GENIUS_GENCFG3_13
 70
     0
  0
APPID
  5
66C
330
9
100
AcDbSymbolTableRecord
100
AcDbRegAppTableRecord
  2
GENIUS_GENCFG4_13
 70
     0
  0
APPID
  5
A76
330
9
100
AcDbSymbolTableRecord
100
AcDbRegAppTableRecord
  2
GENIUS_GENBLLY_14
 70
     0
  0
APPID
  5
A77
330
9
100
AcDbSymbolTableRecord
100
AcDbRegAppTableRecord
  2
GENIUS_GENOBJ-N-CEN_13
 70
     0
  0
APPID
  5
A83
330
9
100
AcDbSymbolTableRecord
100
AcDbRegAppTableRecord
  2
GENIUS_GENTRA_14
 70
     0
  0
APPID
  5
A8D
330
9
100
AcDbSymbolTableRecord
100
AcDbRegAppTableRecord
  2
GENIUS_GENOBJ-N-TIT_13
 70
     0
  0
APPID
  5
A8E
330
9
100
AcDbSymbolTableRecord
100
AcDbRegAppTableRecord
  2
GENIUS_GENTITLE_13
 70
     0
  0
APPID
  5
A8F
330
9
100
AcDbSymbolTableRecord
100
AcDbRegAppTableRecord
  2
GENIUS_GENOENT_13
 70
     0
  0
APPID
  5
A90
330
9
100
AcDbSymbolTableRecord
100
AcDbRegAppTableRecord
  2
GENIUS_GENOREF_13
 70
     0
  0
APPID
  5
A91
330
9
100
AcDbSymbolTableRecord
100
AcDbRegAppTableRecord
  2
GENIUS_GENOLIS_13
 70
     0
  0
APPID
  5
A92
330
9
100
AcDbSymbolTableRecord
100
AcDbRegAppTableRecord
  2
GENIUS_GENZVEED_13
 70
     0
  0
APPID
  5
A93
330
9
100
AcDbSymbolTableRecord
100
AcDbRegAppTableRecord
  2
GENIUS_GENSCREG_15
 70
     0
  0
APPID
  5
A94
330
9
100
AcDbSymbolTableRecord
100
AcDbRegAppTableRecord
  2
GENIUS_GENOBJ-N-SDF_13
 70
     0
  0
APPID
  5
12B5
330
9
100
AcDbSymbolTableRecord
100
AcDbRegAppTableRecord
  2
GENIUS_GENOBJ-N-RSBK_13
 70
     0
  0
APPID
  5
12B6
330
9
100
AcDbSymbolTableRecord
100
AcDbRegAppTableRecord
  2
GENIUS_GENOBJ-N-LIB_13
 70
     0
  0
APPID
  5
12B7
330
9
100
AcDbSymbolTableRecord
100
AcDbRegAppTableRecord
  2
GENIUS_GENSCALE_13
 70
     0
  0
APPID
  5
12B8
330
9
100
AcDbSymbolTableRecord
100
AcDbRegAppTableRecord
  2
GENIUS_GENOBJ-N-HTC_13
 70
     0
  0
APPID
  5
12B9
330
9
100
AcDbSymbolTableRecord
100
AcDbRegAppTableRecord
  2
GENIUS_GENHATCH_13
 70
     0
  0
APPID
  5
1687
330
9
100
AcDbSymbolTableRecord
100
AcDbRegAppTableRecord
  2
BASE_TYPE
 70
     0
  0
APPID
  5
1CDB
330
9
100
AcDbSymbolTableRecord
100
AcDbRegAppTableRecord
  2
GENIUS_GENOBJ-N-FIL_13
 70
     0
  0
APPID
  5
2658
330
9
100
AcDbSymbolTableRecord
100
AcDbRegAppTableRecord
  2
GENIUS_GENFIL_13
 70
     0
  0
APPID
  5
2659
330
9
100
AcDbSymbolTableRecord
100
AcDbRegAppTableRecord
  2
GENIUS_GENOBJ-N-CHA_13
 70
     0
  0
APPID
  5
2B7D
330
9
100
AcDbSymbolTableRecord
100
AcDbRegAppTableRecord
  2
GENIUS_GENDIMSH_14
 70
     0
  0
APPID
  5
4385
330
9
100
AcDbSymbolTableRecord
100
AcDbRegAppTableRecord
  2
DCO15
 70
     0
  0
APPID
  5
5F67
330
9
100
AcDbSymbolTableRecord
100
AcDbRegAppTableRecord
  2
GENIUS_GENOBJ-N-DIM_13
 70
     0
  0
APPID
  5
5F73
330
9
100
AcDbSymbolTableRecord
100
AcDbRegAppTableRecord
  2
GENIUS_GENDIM_13
 70
     0
  0
APPID
  5
AC87
330
9
100
AcDbSymbolTableRecord
100
AcDbRegAppTableRecord
  2
GENIUS_GENOBJ-N-CRS_13
 70
     0
  0
APPID
  5
454F2
330
9
100
AcDbSymbolTableRecord
100
AcDbRegAppTableRecord
  2
AD_DRAW
 70
     0
  0
APPID
  5
454F5
330
9
100
AcDbSymbolTableRecord
100
AcDbRegAppTableRecord
  2
ACATTRIBSERVICES
 70
     0
  0
APPID
  5
45513
330
9
100
AcDbSymbolTableRecord
100
AcDbRegAppTableRecord
  2
DESIGNERASSEMBLIES
 70
     0
  0
APPID
  5
45526
330
9
100
AcDbSymbolTableRecord
100
AcDbRegAppTableRecord
  2
ACADM_DIM_EDIT
 70
     0
  0
APPID
  5
45527
330
9
100
AcDbSymbolTableRecord
100
AcDbRegAppTableRecord
  2
AMDT_DM_ADJ
 70
     0
  0
APPID
  5
45AD5
330
9
100
AcDbSymbolTableRecord
100
AcDbRegAppTableRecord
  2
ACAD_DSTYLE_DIMTEXT_FILL
 70
     0
  0
APPID
  5
45AD6
330
9
100
AcDbSymbolTableRecord
100
AcDbRegAppTableRecord
  2
ACAD_PSEXT
 70
     0
  0
APPID
  5
45C86
330
9
100
AcDbSymbolTableRecord
100
AcDbRegAppTableRecord
  2
GENIUS_GENCEN_19
 70
     0
  0
ENDTAB
  0
TABLE
  2
DIMSTYLE
  5
A
330
0
100
AcDbSymbolTable
 70
    17
100
AcDbDimStyleTable
  0
DIMSTYLE
105
58
330
A
100
AcDbSymbolTableRecord
100
AcDbDimStyleTableRecord
  2
AM_JIS
 70
     0
  4
"
 41
2.5
 42
0.0
 43
10.0
 44
1.0
 47
0.1
 48
0.1000000001
 73
     0
 74
     0
 77
     3
 78
     1
 79
     2
140
3.8
141
0.0
143
0.0393701
146
0.71
147
1.5
172
     1
176
   256
177
   256
178
     2
179
     1
271
     2
272
     2
275
     1
283
     0
284
     8
340
11
341
59
342
59
371
    -1
372
    -1
  0
DIMSTYLE
105
5F
102
{ACAD_REACTORS
330
43DF0
330
4A19A
102
}
330
A
100
AcDbSymbolTableRecord
100
AcDbDimStyleTableRecord
  2
AM_JIS$3
 70
     0
  4
"
 41
2.5
 42
0.0
 43
10.0
 44
1.0
 47
0.1
 48
0.1000000001
 73
     0
 77
     3
 78
     1
 79
     2
140
3.8
141
0.0
143
0.0393701
146
0.71
147
1.5
172
     1
176
   256
177
   256
178
     2
179
     1
271
     2
272
     2
275
     1
283
     0
284
     8
288
     1
289
     0
340
11
341
59
342
59
371
    -1
372
    -1
  0
DIMSTYLE
105
60
330
A
100
AcDbSymbolTableRecord
100
AcDbDimStyleTableRecord
  2
AM_JIS$4
 70
     0
  4
"
 41
2.5
 42
0.0
 43
10.0
 44
1.0
 47
0.1
 48
0.1000000001
 73
     0
 77
     3
 78
     1
 79
     2
140
3.8
141
0.0
143
0.0393701
146
0.71
147
1.5
172
     1
176
   256
177
   256
178
     2
179
     1
271
     2
272
     2
275
     1
283
     0
284
     8
288
     1
289
     0
340
11
341
59
342
59
371
    -1
372
    -1
  0
DIMSTYLE
105
61
330
A
100
AcDbSymbolTableRecord
100
AcDbDimStyleTableRecord
  2
AM_JIS$6
 70
     0
  4
"
 41
2.5
 42
0.0
 43
10.0
 44
1.0
 47
0.1
 48
0.1000000001
 73
     0
 74
     0
 78
     1
 79
     2
140
3.8
141
0.0
143
0.0393701
146
0.71
147
1.5
172
     1
176
   256
177
   256
178
     2
179
     1
271
     2
272
     2
275
     1
283
     0
284
     8
340
11
341
59
342
59
371
    -1
372
    -1
  0
DIMSTYLE
105
62
330
A
100
AcDbSymbolTableRecord
100
AcDbDimStyleTableRecord
  2
AM_JIS$7
 70
     0
  4
"
 41
2.5
 42
0.0
 43
10.0
 44
1.0
 47
0.1
 48
0.1000000001
 73
     0
 74
     0
 77
     3
 78
     1
 79
     2
140
5.0
141
0.0
143
0.0393701
146
0.71
147
1.5
172
     1
176
   256
177
   256
178
     2
179
     1
271
     2
272
     2
275
     1
283
     0
284
     8
340
11
341
59
342
59
371
    -1
372
    -1
  0
DIMSTYLE
105
63
330
A
100
AcDbSymbolTableRecord
100
AcDbDimStyleTableRecord
  2
AM_JIS$SF
 70
     0
  4
"
 41
2.5
 42
1.0
 43
10.0
 44
1.0
 47
0.1
 48
0.1
 73
     0
 74
     0
 75
     1
 76
     1
 77
     3
 78
     8
 79
     2
140
3.5
141
0.0
143
0.0393701
146
0.71
147
1.5
176
   256
177
   256
178
     2
271
     2
272
     3
274
     4
340
11
341
59
342
59
343
59
344
59
371
    -1
372
    -1
  0
DIMSTYLE
105
68
330
A
100
AcDbSymbolTableRecord
100
AcDbDimStyleTableRecord
  2
AM_JIS$SH
 70
     0
  4
"
 41
2.5
 42
1.0
 43
10.0
 44
1.0
 47
0.1
 48
0.1
 73
     0
 74
     0
 75
     1
 76
     1
 77
     3
 78
     8
 79
     2
140
3.5
141
0.0
143
0.0393701
144
2.0
146
0.71
147
1.5
173
     1
176
   256
177
   256
178
     2
271
     2
272
     3
274
     4
340
11
341
59
342
59
343
64
344
59
371
    -1
372
    -1
  0
DIMSTYLE
105
65F
330
A
100
AcDbSymbolTableRecord
100
AcDbDimStyleTableRecord
  2
STANDARD
 70
     0
340
11
  0
DIMSTYLE
105
3E0D
102
{ACAD_REACTORS
330
42D54
330
46BB4
330
4A0E4
330
4A115
102
}
330
A
100
AcDbSymbolTableRecord
100
AcDbDimStyleTableRecord
  2
AM_JIS$0
 70
     0
  4
"
 41
2.5
 42
0.0
 43
10.0
 44
1.0
 47
0.1
 48
0.1000000001
 73
     0
 74
     0
 77
     3
 78
     1
 79
     2
140
3.8
141
0.0
143
0.0393701
146
0.71
147
1.5
172
     1
176
     3
177
     3
178
     2
271
     2
272
     2
275
     1
283
     0
284
     8
289
     0
340
11
341
59
342
59
371
    13
372
    13
  0
DIMSTYLE
105
3E0E
102
{ACAD_REACTORS
330
46E45
330
4A03F
330
4A0A9
102
}
330
A
100
AcDbSymbolTableRecord
100
AcDbDimStyleTableRecord
  2
AM_JIS$2
 70
     0
  4
"
 41
2.5
 42
0.0
 43
10.0
 44
1.0
 47
0.1
 48
0.1000000001
 73
     0
 74
     0
 77
     3
 78
     1
 79
     2
140
3.8
141
0.0
143
0.0393701
146
0.71
147
1.5
172
     1
176
     3
177
     3
178
     2
271
     2
272
     2
275
     1
283
     0
284
     8
289
     0
340
11
341
59
342
59
371
    13
372
    13
  0
DIMSTYLE
105
45ACE
330
A
100
AcDbSymbolTableRecord
100
AcDbDimStyleTableRecord
  2
AM_ISO
 70
     0
  4
"
 41
2.5
 42
1.0
 43
10.0
 44
1.0
 47
0.1
 48
0.1
 73
     0
 74
     0
 77
     1
 78
     8
 79
     2
140
3.5
141
0.0
143
0.0393701
146
0.71
147
1.5
172
     1
176
   256
177
   256
178
     2
271
     2
272
     3
274
     4
283
     0
284
     8
340
11
371
    -1
372
    -1
  0
DIMSTYLE
105
45ACF
330
A
100
AcDbSymbolTableRecord
100
AcDbDimStyleTableRecord
  2
AM_ISO$3
 70
     0
  4
"
 41
2.5
 42
1.0
 43
10.0
 44
1.0
 47
0.1
 48
0.1
 73
     0
 77
     1
 78
     8
 79
     2
140
3.5
141
0.0
143
0.0393701
146
0.71
147
1.5
176
   256
177
   256
178
     2
271
     2
272
     3
274
     4
283
     0
284
     8
288
     1
289
     0
340
11
371
    -1
372
    -1
  0
DIMSTYLE
105
45AD0
330
A
100
AcDbSymbolTableRecord
100
AcDbDimStyleTableRecord
  2
AM_ISO$4
 70
     0
  4
"
 41
2.5
 42
1.0
 43
10.0
 44
1.0
 47
0.1
 48
0.1
 73
     0
 77
     1
 78
     8
 79
     2
140
3.5
141
0.0
143
0.0393701
146
0.71
147
1.5
176
   256
177
   256
178
     2
271
     2
272
     3
274
     4
283
     0
284
     8
288
     1
289
     0
340
11
371
    -1
372
    -1
  0
DIMSTYLE
105
45AD1
330
A
100
AcDbSymbolTableRecord
100
AcDbDimStyleTableRecord
  2
AM_ISO$6
 70
     0
  4
"
 41
2.5
 42
1.0
 43
10.0
 44
1.0
 47
0.1
 48
0.1
 73
     0
 74
     0
 78
     8
 79
     2
140
3.5
141
0.0
143
0.0393701
146
0.71
147
1.5
172
     1
176
   256
177
   256
178
     2
271
     2
272
     3
274
     4
283
     0
284
     8
340
11
371
    -1
372
    -1
  0
DIMSTYLE
105
45AD2
330
A
100
AcDbSymbolTableRecord
100
AcDbDimStyleTableRecord
  2
AM_ISO$7
 70
     0
  4
"
 41
2.5
 42
1.0
 43
10.0
 44
1.0
 47
0.1
 48
0.1
 73
     0
 74
     0
 77
     1
 78
     8
 79
     2
140
5.0
141
0.0
143
0.0393701
146
0.71
147
1.5
172
     1
176
   256
177
   256
178
     2
271
     2
272
     3
274
     4
283
     0
284
     8
340
11
371
    -1
372
    -1
  0
DIMSTYLE
105
45AD3
330
A
100
AcDbSymbolTableRecord
100
AcDbDimStyleTableRecord
  2
AM_ISO$SF
 70
     0
  4
"
 41
2.5
 42
1.0
 43
10.0
 44
1.0
 47
0.1
 48
0.1
 73
     0
 74
     0
 75
     1
 76
     1
 77
     1
 78
     8
 79
     2
140
3.5
141
0.0
143
0.0393701
146
0.71
147
1.5
172
     1
176
   256
177
   256
178
     2
271
     2
272
     3
274
     4
283
     0
284
     8
340
11
371
    -1
372
    -1
  0
DIMSTYLE
105
45AD4
330
A
100
AcDbSymbolTableRecord
100
AcDbDimStyleTableRecord
  2
AM_ISO$SH
 70
     0
  4
"
 41
2.5
 42
1.0
 43
10.0
 44
1.0
 47
0.1
 48
0.1
 73
     0
 74
     0
 75
     1
 76
     1
 77
     1
 78
     8
 79
     2
140
3.5
141
0.0
143
0.0393701
144
2.0
146
0.71
147
1.5
172
     1
173
     1
176
   256
177
   256
178
     2
271
     2
272
     3
274
     4
283
     0
284
     8
340
11
343
64
371
    -1
372
    -1
  0
ENDTAB
  0
TABLE
  2
BLOCK_RECORD
  5
1
330
0
100
AcDbSymbolTable
 70
    13
  0
BLOCK_RECORD
  5
1F
102
{ACAD_XDICTIONARY
360
165
102
}
330
1
100
AcDbSymbolTableRecord
100
AcDbBlockTableRecord
  2
*Model_Space
340
22
  0
BLOCK_RECORD
  5
1B
330
1
100
AcDbSymbolTableRecord
100
AcDbBlockTableRecord
  2
*Paper_Space
340
1E
  0
BLOCK_RECORD
  5
23
330
1
100
AcDbSymbolTableRecord
100
AcDbBlockTableRecord
  2
*Paper_Space0
340
26
  0
BLOCK_RECORD
  5
59
330
1
100
AcDbSymbolTableRecord
100
AcDbBlockTableRecord
  2
_Open30
340
0
102
{BLKREFS
331
4A3A3
331
4A3A4
331
4A3AE
331
4A3AF
331
4A3B5
331
4A3B6
331
4A3C0
331
4A3C1
331
4A3CD
331
4A3CE
331
4A3D8
331
4A3D9
331
4A3E3
331
4A3E4
331
4A3EC
331
4A3ED
331
4A3F6
331
4A3F7
102
}
  0
BLOCK_RECORD
  5
64
330
1
100
AcDbSymbolTableRecord
100
AcDbBlockTableRecord
  2
GENAXEH
340
0
  0
BLOCK_RECORD
  5
42D70
330
1
100
AcDbSymbolTableRecord
100
AcDbBlockTableRecord
  2
*D3
340
0
  0
BLOCK_RECORD
  5
43DF1
330
1
100
AcDbSymbolTableRecord
100
AcDbBlockTableRecord
  2
*D4
340
0
  0
BLOCK_RECORD
  5
4550A
330
1
100
AcDbSymbolTableRecord
100
AcDbBlockTableRecord
  2
*U5
340
0
  0
BLOCK_RECORD
  5
46BB5
330
1
100
AcDbSymbolTableRecord
100
AcDbBlockTableRecord
  2
*D6
340
0
  0
BLOCK_RECORD
  5
46E46
330
1
100
AcDbSymbolTableRecord
100
AcDbBlockTableRecord
  2
*D7
340
0
  0
BLOCK_RECORD
  5
4A040
330
1
100
AcDbSymbolTableRecord
100
AcDbBlockTableRecord
  2
*D8
340
0
  0
BLOCK_RECORD
  5
4A0AA
330
1
100
AcDbSymbolTableRecord
100
AcDbBlockTableRecord
  2
*D9
340
0
  0
BLOCK_RECORD
  5
4A0E5
330
1
100
AcDbSymbolTableRecord
100
AcDbBlockTableRecord
  2
*D10
340
0
  0
BLOCK_RECORD
  5
4A116
330
1
100
AcDbSymbolTableRecord
100
AcDbBlockTableRecord
  2
*D11
340
0
  0
BLOCK_RECORD
  5
4A19B
330
1
100
AcDbSymbolTableRecord
100
AcDbBlockTableRecord
  2
*D12
340
0
  0
ENDTAB
  0
ENDSEC
  0
SECTION
  2
BLOCKS
  0
BLOCK
  5
20
330
1F
100
AcDbEntity
  8
0
100
AcDbBlockBegin
  2
*Model_Space
 70
     0
 71
     0
 10
0.0
 20
0.0
 30
0.0
  3
*Model_Space
  1

  0
ENDBLK
  5
21
330
1F
100
AcDbEntity
  8
0
100
AcDbBlockEnd
  0
BLOCK
  5
1C
330
1B
100
AcDbEntity
 67
     1
  8
0
100
AcDbBlockBegin
  2
*Paper_Space
 70
     0
 71
     0
 10
0.0
 20
0.0
 30
0.0
  3
*Paper_Space
  1

  0
ENDBLK
  5
1D
330
1B
100
AcDbEntity
 67
     1
  8
0
100
AcDbBlockEnd
  0
BLOCK
  5
24
330
23
100
AcDbEntity
  8
0
100
AcDbBlockBegin
  2
*Paper_Space0
 70
     0
 71
     0
 10
0.0
 20
0.0
 30
0.0
  3
*Paper_Space0
  1

  0
ENDBLK
  5
25
330
23
100
AcDbEntity
  8
0
100
AcDbBlockEnd
  0
BLOCK
  5
5D
330
59
100
AcDbEntity
  8
0
100
AcDbBlockBegin
  2
_Open30
 70
     0
 71
     0
 10
0.0
 20
0.0
 30
0.0
  3
_Open30
  1

  0
LINE
  5
5A
330
59
100
AcDbEntity
  8
0
 62
     0
370
    -2
100
AcDbLine
 10
-1.0
 20
0.26794919
 30
0.0
 11
0.0
 21
0.0
 31
0.0
  0
LINE
  5
5B
330
59
100
AcDbEntity
  8
0
 62
     0
370
    -2
100
AcDbLine
 10
0.0
 20
0.0
 30
0.0
 11
-1.0
 21
-0.26794919
 31
0.0
  0
LINE
  5
5C
330
59
100
AcDbEntity
  8
0
 62
     0
370
    -2
100
AcDbLine
 10
0.0
 20
0.0
 30
0.0
 11
-1.0
 21
0.0
 31
0.0
  0
ENDBLK
  5
5E
330
59
100
AcDbEntity
  8
0
100
AcDbBlockEnd
  0
BLOCK
  5
66
330
64
100
AcDbEntity
  8
0
100
AcDbBlockBegin
  2
GENAXEH
 70
     0
 71
     0
 10
0.0
 20
0.0
 30
0.0
  3
GENAXEH
  1

  0
LINE
  5
65
330
64
100
AcDbEntity
  8
0
100
AcDbLine
 10
-1.0
 20
0.0
 30
0.0
 11
1.0
 21
0.0
 31
0.0
  0
ENDBLK
  5
67
330
64
100
AcDbEntity
  8
0
100
AcDbBlockEnd
  0
BLOCK
  5
42D7A
330
42D70
100
AcDbEntity
  8
0
100
AcDbBlockBegin
  2
*D3
 70
     1
 71
     0
 10
0.0
 20
0.0
 30
0.0
  3
*D3
  1

  0
LINE
  5
4A3A0
330
42D70
100
AcDbEntity
  8
AM_5
 62
     3
370
    13
100
AcDbLine
 10
186.6258004435723
 20
14.43223563716992
 30
0.0
 11
186.6258004435723
 21
-16.75115463846171
 31
0.0
  0
LINE
  5
4A3A1
330
42D70
100
AcDbEntity
  8
AM_5
 62
     3
370
    13
100
AcDbLine
 10
216.6258004435723
 20
14.43223563716992
 30
0.0
 11
216.6258004435723
 21
-16.75115463846171
 31
0.0
  0
LINE
  5
4A3A2
330
42D70
100
AcDbEntity
  8
AM_5
 62
     3
370
    13
100
AcDbLine
 10
189.1258004435723
 20
-15.75115463846171
 30
0.0
 11
214.1258004435723
 21
-15.75115463846171
 31
0.0
  0
INSERT
  5
4A3A3
330
42D70
100
AcDbEntity
  8
AM_5
 62
     3
370
    13
100
AcDbBlockReference
  2
_Open30
 10
186.6258004435723
 20
-15.75115463846171
 30
0.0
 41
2.5
 42
2.5
 43
2.5
 50
180.0
  0
INSERT
  5
4A3A4
330
42D70
100
AcDbEntity
  8
AM_5
 62
     3
370
    13
100
AcDbBlockReference
  2
_Open30
 10
216.6258004435723
 20
-15.75115463846171
 30
0.0
 41
2.5
 42
2.5
 43
2.5
  0
MTEXT
  5
4A3A5
330
42D70
100
AcDbEntity
  8
AM_5
 62
     2
100
AcDbMText
 10
201.6258004435723
 20
-12.35115463846171
 30
0.0
 40
3.8
 41
0.0
 71
     5
 72
     1
  1
30
 73
     1
 44
1.0
  0
POINT
  5
4A3A6
330
42D70
100
AcDbEntity
  8
Defpoints
 62
     0
100
AcDbPoint
 10
186.6258004435723
 20
14.43223563716992
 30
0.0
  0
POINT
  5
4A3A7
330
42D70
100
AcDbEntity
  8
Defpoints
 62
     0
100
AcDbPoint
 10
216.6258004435723
 20
14.43223563716992
 30
0.0
  0
POINT
  5
4A3A8
330
42D70
100
AcDbEntity
  8
Defpoints
 62
     0
100
AcDbPoint
 10
216.6258004435723
 20
-15.75115463846171
 30
0.0
  0
ENDBLK
  5
42D7B
330
42D70
100
AcDbEntity
  8
0
100
AcDbBlockEnd
  0
BLOCK
  5
43DFA
330
43DF1
100
AcDbEntity
  8
0
100
AcDbBlockBegin
  2
*D4
 70
     1
 71
     0
 10
0.0
 20
0.0
 30
0.0
  3
*D4
  1

  0
LINE
  5
4A3A9
330
43DF1
100
AcDbEntity
  8
AM_5
100
AcDbLine
 10
-139.4069806984361
 20
4.000039211944973
 30
0.0
 11
-115.539254688947
 21
4.000039211944966
 31
0.0
  0
LINE
  5
4A3AA
330
43DF1
100
AcDbEntity
  8
AM_5
100
AcDbLine
 10
-115.539254688947
 20
4.000039211944966
 30
0.0
 11
-104.3151129840242
 21
9.798293612962908
 31
0.0
  0
LINE
  5
4A3AB
330
43DF1
100
AcDbEntity
  8
AM_5
100
AcDbLine
 10
-64.33466100078984
 20
30.45170638703732
 30
0.0
 11
-62.11352477949905
 21
31.59911820781923
 31
0.0
  0
MTEXT
  5
4A3AC
330
43DF1
100
AcDbEntity
  8
AM_5
 62
     2
100
AcDbMText
 10
-128.2231176936916
 20
10.56670587861163
 30
0.0
 40
3.8
 41
0.0
 71
     5
 72
     1
  1
最小加工径\P\U+220540
 73
     1
 44
1.0
  0
LINE
  5
4A3AD
330
43DF1
100
AcDbEntity
  8
AM_5
100
AcDbLine
 10
-66.55579722208063
 20
29.3042945662554
 30
0.0
 11
-102.0939767627334
 21
10.94570543374482
 31
0.0
  0
INSERT
  5
4A3AE
330
43DF1
100
AcDbEntity
  8
AM_5
100
AcDbBlockReference
  2
_Open30
 10
-66.55579722208063
 20
29.3042945662554
 30
0.0
 41
2.5
 42
2.5
 43
2.5
 50
207.3203234678473
  0
INSERT
  5
4A3AF
330
43DF1
100
AcDbEntity
  8
AM_5
100
AcDbBlockReference
  2
_Open30
 10
-102.0939767627334
 20
10.94570543374482
 30
0.0
 41
2.5
 42
2.5
 43
2.5
 50
27.32032346784731
  0
POINT
  5
4A3B0
330
43DF1
100
AcDbEntity
  8
Defpoints
 62
     0
100
AcDbPoint
 10
-102.0939767627334
 20
10.94570543374482
 30
0.0
  0
POINT
  5
4A3B1
330
43DF1
100
AcDbEntity
  8
Defpoints
 62
     0
100
AcDbPoint
 10
-66.55579722208063
 20
29.3042945662554
 30
0.0
  0
ENDBLK
  5
43DFB
330
43DF1
100
AcDbEntity
  8
0
100
AcDbBlockEnd
  0
BLOCK
  5
4550B
330
4550A
100
AcDbEntity
  8
0
100
AcDbBlockBegin
  2
*U5
 70
     1
 71
     0
 10
0.0
 20
0.0
 30
0.0
  3
*U5
  1

  0
ENDBLK
  5
4550C
330
4550A
100
AcDbEntity
  8
0
100
AcDbBlockEnd
  0
BLOCK
  5
46BCB
330
46BB5
100
AcDbEntity
  8
0
100
AcDbBlockBegin
  2
*D6
 70
     1
 71
     0
 10
0.0
 20
0.0
 30
0.0
  3
*D6
  1

  0
LINE
  5
4A3B2
330
46BB5
100
AcDbEntity
  8
AM_5
 62
     3
370
    13
100
AcDbLine
 10
0.0
 20
-97.11595325505226
 30
0.0
 11
-0.0000000000000021
 21
-132.2190135477914
 31
0.0
  0
LINE
  5
4A3B3
330
46BB5
100
AcDbEntity
  8
AM_5
 62
     3
370
    13
100
AcDbLine
 10
29.0
 20
-112.8659532550523
 30
0.0
 11
29.0
 21
-132.2190135477914
 31
0.0
  0
LINE
  5
4A3B4
330
46BB5
100
AcDbEntity
  8
AM_5
 62
     3
370
    13
100
AcDbLine
 10
2.499999999999998
 20
-131.2190135477914
 30
0.0
 11
26.5
 21
-131.2190135477914
 31
0.0
  0
INSERT
  5
4A3B5
330
46BB5
100
AcDbEntity
  8
AM_5
 62
     3
370
    13
100
AcDbBlockReference
  2
_Open30
 10
-0.0000000000000021
 20
-131.2190135477914
 30
0.0
 41
2.5
 42
2.5
 43
2.5
 50
180.0
  0
INSERT
  5
4A3B6
330
46BB5
100
AcDbEntity
  8
AM_5
 62
     3
370
    13
100
AcDbBlockReference
  2
_Open30
 10
29.0
 20
-131.2190135477914
 30
0.0
 41
2.5
 42
2.5
 43
2.5
  0
MTEXT
  5
4A3B7
330
46BB5
100
AcDbEntity
  8
AM_5
 62
     2
100
AcDbMText
 10
14.5
 20
-127.8186395320434
 30
0.0
 40
3.8
 41
0.0
 71
     5
 72
     1
  1
29
 73
     1
 44
1.0
  0
POINT
  5
4A3B8
330
46BB5
100
AcDbEntity
  8
Defpoints
 62
     0
100
AcDbPoint
 10
0.0
 20
-97.11595325505226
 30
0.0
  0
POINT
  5
4A3B9
330
46BB5
100
AcDbEntity
  8
Defpoints
 62
     0
100
AcDbPoint
 10
29.0
 20
-112.8659532550523
 30
0.0
  0
POINT
  5
4A3BA
330
46BB5
100
AcDbEntity
  8
Defpoints
 62
     0
100
AcDbPoint
 10
29.0
 20
-131.2190135477914
 30
0.0
  0
ENDBLK
  5
46BCC
330
46BB5
100
AcDbEntity
  8
0
100
AcDbBlockEnd
  0
BLOCK
  5
46E82
330
46E46
100
AcDbEntity
  8
0
100
AcDbBlockBegin
  2
*D7
 70
     1
 71
     0
 10
0.0
 20
0.0
 30
0.0
  3
*D7
  1

  0
LINE
  5
4A3BB
330
46E46
100
AcDbEntity
  8
AM_5
 62
     3
370
    13
100
AcDbLine
 10
-5.796508955942841
 20
-97.11595325505232
 30
0.0
 11
-17.49178521776865
 21
-97.11595325505232
 31
0.0
  0
LINE
  5
4A3BC
330
46E46
100
AcDbEntity
  8
AM_5
 62
     3
370
    13
100
AcDbLine
 10
-9.719063036410599
 20
-98.13746794299313
 30
0.0
 11
-17.39596338815003
 21
-98.94434268367353
 31
0.0
  0
ARC
  5
4A3BD
330
46E46
100
AcDbEntity
  8
AM_5
 62
     3
370
    13
100
AcDbCircle
 10
-0.0000000000005045
 20
-97.11595325505232
 30
0.0
 40
16.49178521776815
100
AcDbArc
 50
162.6123184660566
 51
171.3061592330283
  0
ARC
  5
4A3BE
330
46E46
100
AcDbEntity
  8
AM_5
 62
     3
370
    13
100
AcDbCircle
 10
-0.0000000000005045
 20
-97.11595325505232
 30
0.0
 40
16.49178521776815
100
AcDbArc
 50
194.6938407669719
 51
203.3876815339436
  0
ARC
  5
4A3BF
330
46E46
100
AcDbEntity
  8
AM_5
 62
     3
370
    13
100
AcDbCircle
 10
-0.0000000000005045
 20
-97.11595325505232
 30
0.0
 40
16.49178521776815
100
AcDbArc
 50
180.0
 51
186.0000000000001
  0
INSERT
  5
4A3C0
330
46E46
100
AcDbEntity
  8
AM_5
 62
     3
370
    13
100
AcDbBlockReference
  2
_Open30
 10
-16.49178521776865
 20
-97.11595325505232
 30
0.0
 41
2.5
 42
2.5
 43
2.5
 50
265.6530796165142
  0
INSERT
  5
4A3C1
330
46E46
100
AcDbEntity
  8
AM_5
 62
     3
370
    13
100
AcDbBlockReference
  2
_Open30
 10
-16.40144149278175
 20
-98.83981422040587
 30
0.0
 41
2.5
 42
2.5
 43
2.5
 50
100.346920383486
  0
MTEXT
  5
4A3C2
330
46E46
100
AcDbEntity
  8
AM_5
 62
     2
100
AcDbMText
 10
-12.15777395708947
 20
-98.39378678934521
 30
0.0
 40
3.8
 41
0.0
 71
     5
 72
     1
  1
6°
 73
     1
 44
1.0
  0
POINT
  5
4A3C3
330
46E46
100
AcDbEntity
  8
Defpoints
 62
     0
100
AcDbPoint
 10
-16.48173886780712
 20
-97.69150825887819
 30
0.0
  0
POINT
  5
4A3C4
330
46E46
100
AcDbEntity
  8
Defpoints
 62
     0
100
AcDbPoint
 10
0.0
 20
-97.11595325505226
 30
0.0
  0
POINT
  5
4A3C5
330
46E46
100
AcDbEntity
  8
Defpoints
 62
     0
100
AcDbPoint
 10
302.9184173924888
 20
-97.11595325505238
 30
0.0
  0
POINT
  5
4A3C6
330
46E46
100
AcDbEntity
  8
Defpoints
 62
     0
100
AcDbPoint
 10
-5.796508955942841
 20
-97.11595325505232
 30
0.0
  0
POINT
  5
4A3C7
330
46E46
100
AcDbEntity
  8
Defpoints
 62
     0
100
AcDbPoint
 10
-9.719063036410599
 20
-98.13746794299313
 30
0.0
  0
ENDBLK
  5
46E83
330
46E46
100
AcDbEntity
  8
0
100
AcDbBlockEnd
  0
BLOCK
  5
4A070
330
4A040
100
AcDbEntity
  8
0
100
AcDbBlockBegin
  2
*D8
 70
     1
 71
     0
 10
0.0
 20
0.0
 30
0.0
  3
*D8
  1

  0
LINE
  5
4A3C8
330
4A040
100
AcDbEntity
  8
AM_5
 62
     3
370
    13
100
AcDbLine
 10
-85.97026972480207
 20
-9.206429176545273
 30
0.0
 11
-87.72356882484152
 21
-19.14988248695125
 31
0.0
  0
LINE
  5
4A3C9
330
4A040
100
AcDbEntity
  8
AM_5
 62
     3
370
    13
100
AcDbLine
 10
-84.32488699240697
 20
-10.02220203806394
 30
0.0
 11
-84.32488699240697
 21
-19.44722861822079
 31
0.0
  0
ARC
  5
4A3CA
330
4A040
100
AcDbEntity
  8
AM_5
 62
     3
370
    13
100
AcDbCircle
 10
-84.32488699240697
 20
0.1250000000000267
 30
0.0
 40
18.57222861822081
100
AcDbArc
 50
244.5632081092698
 51
252.281604054635
  0
ARC
  5
4A3CB
330
4A040
100
AcDbEntity
  8
AM_5
 62
     3
370
    13
100
AcDbCircle
 10
-84.32488699240697
 20
0.1250000000000267
 30
0.0
 40
18.57222861822081
100
AcDbArc
 50
277.7183959453652
 51
285.4367918907303
  0
ARC
  5
4A3CC
330
4A040
100
AcDbEntity
  8
AM_5
 62
     3
370
    13
100
AcDbCircle
 10
-84.32488699240697
 20
0.1250000000000267
 30
0.0
 40
18.57222861822081
100
AcDbArc
 50
260.0000000000001
 51
270.0
  0
INSERT
  5
4A3CD
330
4A040
100
AcDbEntity
  8
AM_5
 62
     3
370
    13
100
AcDbBlockReference
  2
_Open30
 10
-87.5499206471746
 20
-18.16507473393904
 30
0.0
 41
2.5
 42
2.5
 43
2.5
 50
346.1408020273176
  0
INSERT
  5
4A3CE
330
4A040
100
AcDbEntity
  8
AM_5
 62
     3
370
    13
100
AcDbBlockReference
  2
_Open30
 10
-84.32488699240699
 20
-18.44722861822078
 30
0.0
 41
2.5
 42
2.5
 43
2.5
 50
183.8591979726826
  0
MTEXT
  5
4A3CF
330
4A040
100
AcDbEntity
  8
AM_5
 62
     2
100
AcDbMText
 10
-86.9595168431073
 20
-14.81672837369748
 30
0.0
 40
3.8
 41
0.0
 71
     5
 72
     1
  1
10°
 11
0.9848077530122054
 21
-0.1736481776669459
 31
0.0
 73
     1
 44
1.0
  0
POINT
  5
4A3D0
330
4A040
100
AcDbEntity
  8
Defpoints
 62
     0
100
AcDbPoint
 10
-85.40476604789966
 20
-18.41580734684893
 30
0.0
  0
POINT
  5
4A3D1
330
4A040
100
AcDbEntity
  8
Defpoints
 62
     0
100
AcDbPoint
 10
-84.32488699240697
 20
0.1250000000000586
 30
0.0
  0
POINT
  5
4A3D2
330
4A040
100
AcDbEntity
  8
Defpoints
 62
     0
100
AcDbPoint
 10
-84.32488699240697
 20
50.02220203806403
 30
0.0
  0
POINT
  5
4A3D3
330
4A040
100
AcDbEntity
  8
Defpoints
 62
     0
100
AcDbPoint
 10
-84.32488699240697
 20
-10.02220203806394
 30
0.0
  0
POINT
  5
4A3D4
330
4A040
100
AcDbEntity
  8
Defpoints
 62
     0
100
AcDbPoint
 10
-85.97026972480207
 20
-9.206429176545273
 30
0.0
  0
ENDBLK
  5
4A071
330
4A040
100
AcDbEntity
  8
0
100
AcDbBlockEnd
  0
BLOCK
  5
4A0D3
330
4A0AA
100
AcDbEntity
  8
0
100
AcDbBlockBegin
  2
*D9
 70
     1
 71
     0
 10
0.0
 20
0.0
 30
0.0
  3
*D9
  1

  0
LINE
  5
4A3D5
330
4A0AA
100
AcDbEntity
  8
AM_5
 62
     3
370
    13
100
AcDbLine
 10
0.9689533846142231
 20
11.91169104734069
 30
0.0
 11
3.140139953553014
 21
36.72846708936611
 31
0.0
  0
LINE
  5
4A3D6
330
4A0AA
100
AcDbEntity
  8
AM_5
 62
     3
370
    13
100
AcDbLine
 10
-4.768325019972394
 20
0.0000000000000284
 30
0.0
 11
-36.94194841231489
 21
0.0000000000002238
 31
0.0
  0
ARC
  5
4A3D7
330
4A0AA
100
AcDbEntity
  8
AM_5
 62
     3
370
    13
100
AcDbCircle
 10
-0.073184545451247
 20
0.0000000000000044
 30
0.0
 40
35.86876386686365
100
AcDbArc
 50
88.9942401844244
 51
176.0057598155757
  0
INSERT
  5
4A3D8
330
4A0AA
100
AcDbEntity
  8
AM_5
 62
     3
370
    13
100
AcDbBlockReference
  2
_Open30
 10
3.052984210805359
 20
35.73227239127436
 30
0.0
 41
2.5
 42
2.5
 43
2.5
 50
356.9971200922124
  0
INSERT
  5
4A3D9
330
4A0AA
100
AcDbEntity
  8
AM_5
 62
     3
370
    13
100
AcDbBlockReference
  2
_Open30
 10
-35.94194841231489
 20
0.0000000000002132
 30
0.0
 41
2.5
 42
2.5
 43
2.5
 50
268.0028799077877
  0
MTEXT
  5
4A3DA
330
4A0AA
100
AcDbEntity
  8
AM_5
 62
     2
100
AcDbMText
 10
-26.60277687907601
 20
28.95196964358684
 30
0.0
 40
3.8
 41
0.0
 71
     5
 72
     1
  1
95°
 11
0.737277336810124
 21
0.6755902076156604
 31
0.0
 73
     1
 44
1.0
  0
POINT
  5
4A3DB
330
4A0AA
100
AcDbEntity
  8
Defpoints
 62
     0
100
AcDbPoint
 10
-16.17105636370369
 20
32.05349815948232
 30
0.0
  0
POINT
  5
4A3DC
330
4A0AA
100
AcDbEntity
  8
Defpoints
 62
     0
100
AcDbPoint
 10
0.002959747816817
 20
0.8703332546108412
 30
0.0
  0
POINT
  5
4A3DD
330
4A0AA
100
AcDbEntity
  8
Defpoints
 62
     0
100
AcDbPoint
 10
0.810262334759841
 20
0.0
 30
0.0
  0
POINT
  5
4A3DE
330
4A0AA
100
AcDbEntity
  8
Defpoints
 62
     0
100
AcDbPoint
 10
-4.768325019972394
 20
0.0000000000000284
 30
0.0
  0
POINT
  5
4A3DF
330
4A0AA
100
AcDbEntity
  8
Defpoints
 62
     0
100
AcDbPoint
 10
0.9689533846142231
 20
11.91169104734069
 30
0.0
  0
ENDBLK
  5
4A0D4
330
4A0AA
100
AcDbEntity
  8
0
100
AcDbBlockEnd
  0
BLOCK
  5
4A0FB
330
4A0E5
100
AcDbEntity
  8
0
100
AcDbBlockBegin
  2
*D10
 70
     1
 71
     0
 10
0.0
 20
0.0
 30
0.0
  3
*D10
  1

  0
LINE
  5
4A3E0
330
4A0E5
100
AcDbEntity
  8
AM_5
 62
     3
370
    13
100
AcDbLine
 10
0.0
 20
0.0
 30
0.0
 11
-17.47869887559535
 21
0.000000000000005
 31
0.0
  0
LINE
  5
4A3E1
330
4A0E5
100
AcDbEntity
  8
AM_5
 62
     3
370
    13
100
AcDbLine
 10
-5.796508955942841
 20
20.00000000000003
 30
0.0
 11
-17.47869887559534
 21
20.00000000000003
 31
0.0
  0
LINE
  5
4A3E2
330
4A0E5
100
AcDbEntity
  8
AM_5
 62
     3
370
    13
100
AcDbLine
 10
-16.47869887559535
 20
2.500000000000004
 30
0.0
 11
-16.47869887559534
 21
17.50000000000003
 31
0.0
  0
INSERT
  5
4A3E3
330
4A0E5
100
AcDbEntity
  8
AM_5
 62
     3
370
    13
100
AcDbBlockReference
  2
_Open30
 10
-16.47869887559535
 20
0.0000000000000047
 30
0.0
 41
2.5
 42
2.5
 43
2.5
 50
270.0
  0
INSERT
  5
4A3E4
330
4A0E5
100
AcDbEntity
  8
AM_5
 62
     3
370
    13
100
AcDbBlockReference
  2
_Open30
 10
-16.47869887559534
 20
20.00000000000003
 30
0.0
 41
2.5
 42
2.5
 43
2.5
 50
90.0
  0
MTEXT
  5
4A3E5
330
4A0E5
100
AcDbEntity
  8
AM_5
 62
     2
100
AcDbMText
 10
-19.87907289134338
 20
10.00000000000002
 30
0.0
 40
3.8
 41
0.0
 71
     5
 72
     1
  1
20
 11
6.123031769111886E-17
 21
1.0
 31
0.0
 73
     1
 44
1.0
  0
POINT
  5
4A3E6
330
4A0E5
100
AcDbEntity
  8
Defpoints
 62
     0
100
AcDbPoint
 10
0.0
 20
0.0
 30
0.0
  0
POINT
  5
4A3E7
330
4A0E5
100
AcDbEntity
  8
Defpoints
 62
     0
100
AcDbPoint
 10
-5.796508955942841
 20
20.00000000000003
 30
0.0
  0
POINT
  5
4A3E8
330
4A0E5
100
AcDbEntity
  8
Defpoints
 62
     0
100
AcDbPoint
 10
-16.47869887559534
 20
20.00000000000003
 30
0.0
  0
ENDBLK
  5
4A0FC
330
4A0E5
100
AcDbEntity
  8
0
100
AcDbBlockEnd
  0
BLOCK
  5
4A12C
330
4A116
100
AcDbEntity
  8
0
100
AcDbBlockBegin
  2
*D11
 70
     1
 71
     0
 10
0.0
 20
0.0
 30
0.0
  3
*D11
  1

  0
LINE
  5
4A3E9
330
4A116
100
AcDbEntity
  8
AM_5
 62
     3
370
    13
100
AcDbLine
 10
0.0
 20
-3.739066776517575
 30
0.0
 11
-0.0000000000000024
 21
-42.86127876388974
 31
0.0
  0
LINE
  5
4A3EA
330
4A116
100
AcDbEntity
  8
AM_5
 62
     3
370
    13
100
AcDbLine
 10
350.0
 20
6.999999999999943
 30
0.0
 11
350.0
 21
-42.86127876388974
 31
0.0
  0
LINE
  5
4A3EB
330
4A116
100
AcDbEntity
  8
AM_5
 62
     3
370
    13
100
AcDbLine
 10
2.499999999999998
 20
-41.86127876388974
 30
0.0
 11
347.5
 21
-41.86127876388974
 31
0.0
  0
INSERT
  5
4A3EC
330
4A116
100
AcDbEntity
  8
AM_5
 62
     3
370
    13
100
AcDbBlockReference
  2
_Open30
 10
-0.0000000000000023
 20
-41.86127876388974
 30
0.0
 41
2.5
 42
2.5
 43
2.5
 50
180.0
  0
INSERT
  5
4A3ED
330
4A116
100
AcDbEntity
  8
AM_5
 62
     3
370
    13
100
AcDbBlockReference
  2
_Open30
 10
350.0
 20
-41.86127876388974
 30
0.0
 41
2.5
 42
2.5
 43
2.5
  0
MTEXT
  5
4A3EE
330
4A116
100
AcDbEntity
  8
AM_5
 62
     2
100
AcDbMText
 10
175.0
 20
-38.46127876388974
 30
0.0
 40
3.8
 41
0.0
 71
     5
 72
     1
  1
350
 73
     1
 44
1.0
  0
POINT
  5
4A3EF
330
4A116
100
AcDbEntity
  8
Defpoints
 62
     0
100
AcDbPoint
 10
0.0
 20
-3.739066776517575
 30
0.0
  0
POINT
  5
4A3F0
330
4A116
100
AcDbEntity
  8
Defpoints
 62
     0
100
AcDbPoint
 10
350.0
 20
6.999999999999943
 30
0.0
  0
POINT
  5
4A3F1
330
4A116
100
AcDbEntity
  8
Defpoints
 62
     0
100
AcDbPoint
 10
350.0
 20
-41.86127876388974
 30
0.0
  0
ENDBLK
  5
4A12D
330
4A116
100
AcDbEntity
  8
0
100
AcDbBlockEnd
  0
BLOCK
  5
4A1BB
330
4A19B
100
AcDbEntity
  8
0
100
AcDbBlockBegin
  2
*D12
 70
     1
 71
     0
 10
0.0
 20
0.0
 30
0.0
  3
*D12
  1

  0
LINE
  5
4A3F2
330
4A19B
100
AcDbEntity
  8
AM_5
100
AcDbLine
 10
195.8716854051637
 20
2.417617905279116
 30
0.0
 11
195.0941022918653
 21
0.0416203249114204
 31
0.0
  0
LINE
  5
4A3F3
330
4A19B
100
AcDbEntity
  8
AM_5
100
AcDbLine
 10
207.3799154819804
 20
37.58238209472098
 30
0.0
 11
210.8449598594753
 21
48.17023684104019
 31
0.0
  0
LINE
  5
4A3F4
330
4A19B
100
AcDbEntity
  8
AM_5
100
AcDbLine
 10
210.8449598594753
 20
48.17023684104019
 30
0.0
 11
220.1731842689241
 21
48.17023684104018
 31
0.0
  0
LINE
  5
4A3F5
330
4A19B
100
AcDbEntity
  8
AM_5
100
AcDbLine
 10
196.6492685184622
 20
4.793615485646804
 30
0.0
 11
206.602332368682
 21
35.2063845143533
 31
0.0
  0
INSERT
  5
4A3F6
330
4A19B
100
AcDbEntity
  8
AM_5
100
AcDbBlockReference
  2
_Open30
 10
196.6492685184622
 20
4.793615485646804
 30
0.0
 41
2.5
 42
2.5
 43
2.5
 50
71.87849032142576
  0
INSERT
  5
4A3F7
330
4A19B
100
AcDbEntity
  8
AM_5
100
AcDbBlockReference
  2
_Open30
 10
206.602332368682
 20
35.2063845143533
 30
0.0
 41
2.5
 42
2.5
 43
2.5
 50
251.8784903214257
  0
MTEXT
  5
4A3F8
330
4A19B
100
AcDbEntity
  8
AM_5
 62
     2
100
AcDbMText
 10
216.2590720641997
 20
51.57061085678825
 30
0.0
 40
3.8
 41
0.0
 71
     5
 72
     1
  1
\U+220532
 73
     1
 44
1.0
  0
POINT
  5
4A3F9
330
4A19B
100
AcDbEntity
  8
Defpoints
 62
     0
100
AcDbPoint
 10
206.602332368682
 20
35.2063845143533
 30
0.0
  0
POINT
  5
4A3FA
330
4A19B
100
AcDbEntity
  8
Defpoints
 62
     0
100
AcDbPoint
 10
196.6492685184622
 20
4.793615485646804
 30
0.0
  0
ENDBLK
  5
4A1BC
330
4A19B
100
AcDbEntity
  8
0
100
AcDbBlockEnd
  0
ENDSEC
  0
SECTION
  2
ENTITIES
  0
DIMENSION
  5
42D54
330
1F
100
AcDbEntity
  8
AM_5
100
AcDbDimension
  2
*D3
 10
216.6258004435723
 20
-15.75115463846171
 30
0.0
 11
201.6258004435723
 21
-12.35115463846171
 31
0.0
 70
    32
  1
<>
 71
     5
 42
30.0
  3
AM_JIS$0
100
AcDbAlignedDimension
 13
186.6258004435723
 23
14.43223563716992
 33
0.0
 14
216.6258004435723
 24
14.43223563716992
 34
0.0
100
AcDbRotatedDimension
1001
GENIUS_GENDTOL_13
1000

1000
h7
1000

1040
0.0
1001
ACAD
1000
DSTYLE
1002
{
1070
   271
1070
     0
1002
}
  0
LINE
  5
4348E
330
1F
100
AcDbEntity
  8
AM_0
100
AcDbLine
 10
350.0
 20
33.99999999999994
 30
0.0
 11
348.0
 21
35.99999999999994
 31
0.0
  0
SPLINE
  5
4349D
330
1F
100
AcDbEntity
  8
AM_0
100
AcDbSpline
210
0.0
220
0.0
230
1.0
 70
    12
 71
     2
 72
     6
 73
     3
 74
     0
 42
0.0000000001
 43
0.0000000001
 40
0.0
 40
0.0
 40
0.0
 40
11.3137084989847
 40
11.3137084989847
 40
11.3137084989847
 10
348.0
 20
14.43223563716998
 30
0.0
 41
1.0
 10
349.9374999999999
 20
19.99999999999989
 30
0.0
 41
1.066666666666667
 10
348.0
 20
25.56776436282991
 30
0.0
 41
1.0
  0
LINE
  5
4349E
330
1F
100
AcDbEntity
  8
AM_0
100
AcDbLine
 10
350.0
 20
6.999999999999943
 30
0.0
 11
350.0
 21
33.99999999999994
 31
0.0
  0
LINE
  5
434DB
330
1F
100
AcDbEntity
  8
AM_0
100
AcDbLine
 10
348.0000000000001
 20
4.999999999999943
 30
0.0
 11
348.0
 21
14.43223563716998
 31
0.0
  0
LINE
  5
434DC
330
1F
100
AcDbEntity
  8
AM_0
100
AcDbLine
 10
348.0
 20
25.56776436282991
 30
0.0
 11
348.0
 21
35.99999999999983
 31
0.0
  0
LINE
  5
434DD
330
1F
100
AcDbEntity
  8
AM_0
100
AcDbLine
 10
348.0
 20
25.56776436282991
 30
0.0
 11
226.6258004435723
 21
25.56776436282993
 31
0.0
  0
LINE
  5
43C6E
330
1F
100
AcDbEntity
  8
AM_7
100
AcDbLine
 10
365.4116335814024
 20
19.99999999999994
 30
0.0
 11
-5.796508955942841
 21
20.00000000000003
 31
0.0
1001
GENIUS_GENODEF_13
1002
{
1000
HIER
1070
     0
1002
}
1002
{
1000
MANEDIT
1070
     0
1002
}
1002
{
1000
NOSEL
1070
     0
1002
}
1002
{
1000
BEHIND
1070
     0
1002
}
1002
{
1000
REACTOR
1002
}
1001
GENIUS_GENOBJ-N-CEN_13
1002
{
1000
OWNER
1000
GEN
1002
}
  0
LINE
  5
43C71
330
1F
100
AcDbEntity
  8
AM_7
100
AcDbLine
 10
365.4116335814024
 20
-97.11595325505238
 30
0.0
 11
-5.796508955942841
 21
-97.11595325505232
 31
0.0
1001
GENIUS_GENODEF_13
1002
{
1000
HIER
1070
     0
1002
}
1002
{
1000
MANEDIT
1070
     0
1002
}
1002
{
1000
NOSEL
1070
     0
1002
}
1002
{
1000
BEHIND
1070
     0
1002
}
1002
{
1000
REACTOR
1002
}
1001
GENIUS_GENOBJ-N-CEN_13
1002
{
1000
OWNER
1000
GEN
1002
}
  0
LINE
  5
43C90
330
1F
100
AcDbEntity
  8
AM_7
100
AcDbLine
 10
-84.32488699240696
 20
50.02220203806402
 30
0.0
 11
-84.32488699240696
 21
-10.02220203806394
 31
0.0
1001
GENIUS_GENODEF_13
1002
{
1000
HIER
1070
     0
1002
}
1002
{
1000
MANEDIT
1070
     0
1002
}
1002
{
1000
NOSEL
1070
     0
1002
}
1002
{
1000
BEHIND
1070
     0
1002
}
1002
{
1000
REACTOR
1002
}
1001
GENIUS_GENOBJ-N-CEN_13
1002
{
1000
OWNER
1000
GEN
1002
}
  0
LINE
  5
43C98
330
1F
100
AcDbEntity
  8
AM_7
100
AcDbLine
 10
-54.30268495434291
 20
20.00000000000006
 30
0.0
 11
-114.3470890304708
 21
20.00000000000006
 31
0.0
1001
GENIUS_GENODEF_13
1002
{
1000
HIER
1070
     0
1002
}
1002
{
1000
MANEDIT
1070
     0
1002
}
1002
{
1000
NOSEL
1070
     0
1002
}
1002
{
1000
BEHIND
1070
     0
1002
}
1002
{
1000
REACTOR
1002
}
1001
GENIUS_GENOBJ-N-CEN_13
1002
{
1000
OWNER
1000
GEN
1002
}
  0
CIRCLE
  5
43DE7
330
1F
100
AcDbEntity
  8
AM_11
  6
ACJISTGB
100
AcDbCircle
 10
-84.32488699240696
 20
20.12500000000006
 30
0.0
 40
20.0
  0
DIMENSION
  5
43DF0
330
1F
100
AcDbEntity
  8
AM_5
100
AcDbDimension
  2
*D4
 10
-66.55579722208063
 20
29.3042945662554
 30
0.0
 11
-128.2231176936916
 21
4.000039211944966
 31
0.0
 70
   163
  1
最小加工径\P<>
 71
     5
 42
40.00000000000009
  3
AM_JIS$3
100
AcDbDiametricDimension
 15
-102.0939767627334
 25
10.94570543374482
 35
0.0
 40
0.0
1001
ACAD
1000
DSTYLE
1002
{
1070
   271
1070
     0
1070
   288
1070
     1
1070
   289
1070
     3
1070
   172
1070
     1
1070
    74
1070
     1
1002
}
1001
GENIUS_GENDTOL_13
1000

1000
h7
1000

1040
0.0
  0
ARC
  5
449D3
330
1F
100
AcDbEntity
  8
AM_0
100
AcDbCircle
 10
201.6258004435723
 20
20.0
 30
0.0
 40
16.0
100
AcDbArc
 50
200.3641348063178
 51
249.6358651936822
  0
ARC
  5
449E5
330
1F
100
AcDbEntity
  8
AM_0
100
AcDbCircle
 10
201.6258004435723
 20
20.0
 30
0.0
 40
16.0
100
AcDbArc
 50
20.36413480631778
 51
159.6358651936822
  0
LINE
  5
449F8
330
1F
100
AcDbEntity
  8
AM_0
100
AcDbLine
 10
234.360779237537
 20
14.43223563717001
 30
0.0
 11
348.0000000000001
 21
14.43223563716998
 31
0.0
  0
LINE
  5
449FA
330
1F
100
AcDbEntity
  8
AM_0
100
AcDbLine
 10
226.6258004435723
 20
35.99999999999994
 30
0.0
 11
348.0
 21
35.99999999999989
 31
0.0
  0
LINE
  5
449FC
330
1F
100
AcDbEntity
  8
AM_0
100
AcDbLine
 10
216.6258004435723
 20
25.56776436282999
 30
0.0
 11
216.6258004435723
 21
14.43223563716995
 31
0.0
  0
LINE
  5
449FD
330
1F
100
AcDbEntity
  8
AM_0
100
AcDbLine
 10
186.6258004435723
 20
25.56776436282999
 30
0.0
 11
186.6258004435723
 21
14.43223563716998
 31
0.0
  0
LINE
  5
44A05
330
1F
100
AcDbEntity
  8
AM_7
100
AcDbLine
 10
201.6258004435723
 20
38.99999999999994
 30
0.0
 11
201.6258004435723
 21
0.9999999999999716
 31
0.0
1001
GENIUS_GENODEF_13
1002
{
1000
HIER
1070
     0
1002
}
1002
{
1000
MANEDIT
1070
     0
1002
}
1002
{
1000
NOSEL
1070
     0
1002
}
1002
{
1000
BEHIND
1070
     0
1002
}
1002
{
1000
REACTOR
1002
}
1001
GENIUS_GENOBJ-N-CEN_13
1002
{
1000
OWNER
1000
GEN
1002
}
  0
LINE
  5
46603
330
1F
100
AcDbEntity
  8
AM_0
100
AcDbLine
 10
348.0
 20
-82.11595325505238
 30
0.0
 11
349.0
 21
-82.11595325505238
 31
0.0
  0
SPLINE
  5
46613
330
1F
100
AcDbEntity
  8
AM_0
100
AcDbSpline
210
0.0
220
0.0
230
1.0
 70
    12
 71
     2
 72
     6
 73
     3
 74
     0
 42
0.0000000001
 43
0.0000000001
 40
0.0
 40
0.0
 40
0.0
 40
11.31370849898476
 40
11.31370849898476
 40
11.31370849898476
 10
348.0
 20
-91.54818889222236
 30
0.0
 41
1.0
 10
349.9374999999999
 20
-97.11595325505238
 30
0.0
 41
1.066666666666667
 10
348.0
 20
-102.6837176178824
 30
0.0
 41
1.0
  0
LINE
  5
4661A
330
1F
100
AcDbEntity
  8
AM_0
100
AcDbLine
 10
348.0
 20
-112.1159532550524
 30
0.0
 11
349.0
 21
-112.1159532550524
 31
0.0
  0
LINE
  5
46635
330
1F
100
AcDbEntity
  8
AM_0
100
AcDbLine
 10
350.0
 20
-83.11595325505238
 30
0.0
 11
349.0
 21
-82.11595325505238
 31
0.0
  0
LINE
  5
46636
330
1F
100
AcDbEntity
  8
AM_0
100
AcDbLine
 10
350.0
 20
-111.1159532550524
 30
0.0
 11
349.0
 21
-112.1159532550524
 31
0.0
  0
LINE
  5
46639
330
1F
100
AcDbEntity
  8
AM_0
100
AcDbLine
 10
350.0
 20
-111.1159532550524
 30
0.0
 11
350.0
 21
-83.11595325505238
 31
0.0
  0
LINE
  5
4663B
330
1F
100
AcDbEntity
  8
AM_0
100
AcDbLine
 10
348.0
 20
-91.54818889222236
 30
0.0
 11
348.0
 21
-82.11595325505238
 31
0.0
  0
LINE
  5
4663D
330
1F
100
AcDbEntity
  8
AM_0
100
AcDbLine
 10
348.0
 20
-112.1159532550524
 30
0.0
 11
348.0
 21
-102.6837176178824
 31
0.0
  0
LINE
  5
467B2
330
1F
100
AcDbEntity
  8
AM_0
100
AcDbLine
 10
196.0580360807422
 20
4.999999999999972
 30
0.0
 11
207.1935648064024
 21
4.999999999999972
 31
0.0
  0
ARC
  5
467B3
330
1F
100
AcDbEntity
  8
AM_0
100
AcDbCircle
 10
201.6258004435723
 20
20.0
 30
0.0
 40
16.0
100
AcDbArc
 50
290.3641348063178
 51
339.6358651936822
  0
LINE
  5
467BF
330
1F
100
AcDbEntity
  8
AM_0
100
AcDbLine
 10
234.360779237537
 20
4.999999999999972
 30
0.0
 11
348.0000000000001
 21
5.0
 31
0.0
  0
DIMENSION
  5
46BB4
330
1F
100
AcDbEntity
  8
AM_5
100
AcDbDimension
  2
*D6
 10
29.0
 20
-131.2190135477914
 30
0.0
 11
14.5
 21
-127.8186395320434
 31
0.0
 70
    32
 71
     5
 42
29.0
  3
AM_JIS$0
100
AcDbAlignedDimension
 13
0.0
 23
-97.11595325505226
 33
0.0
 14
29.0
 24
-112.8659532550523
 34
0.0
100
AcDbRotatedDimension
1001
ACAD
1000
DSTYLE
1002
{
1070
   179
1070
     0
1070
   271
1070
     0
1002
}
  0
LINE
  5
46E21
330
1F
100
AcDbEntity
  8
AM_5
100
AcDbLine
 10
0.0
 20
-97.11595325505226
 30
0.0
 11
-9.719063036410603
 21
-98.13746794299311
 31
0.0
  0
DIMENSION
  5
46E45
330
1F
100
AcDbEntity
  8
AM_5
100
AcDbDimension
  2
*D7
 10
-9.719063036410603
 20
-98.13746794299311
 30
0.0
 11
-17.39596338814997
 21
-98.94434268367361
 31
0.0
 70
   162
  1
<>
 71
     5
 42
0.1047197551196621
  3
AM_JIS$2
100
AcDb2LineAngularDimension
 13
302.9184173924888
 23
-97.11595325505238
 33
0.0
 14
-5.796508955942841
 24
-97.11595325505232
 34
0.0
 15
0.0
 25
-97.11595325505226
 35
0.0
 16
-16.48173886780712
 26
-97.69150825887819
 36
0.0
1001
ACAD
1000
DSTYLE
1002
{
1070
   271
1070
     0
1070
   279
1070
     1
1002
}
  0
LINE
  5
46EA0
330
1F
100
AcDbEntity
  8
AM_5
100
AcDbLine
 10
-84.32488699240696
 20
0.1250000000000568
 30
0.0
 11
-85.97026972480205
 21
-9.206429176545271
 31
0.0
  0
LINE
  5
47659
330
1F
100
AcDbEntity
  8
AM_0
100
AcDbLine
 10
1.342326575916559
 20
12.6308772986504
 30
0.0
 11
9.177640292587853
 21
13.17463411766607
 31
0.0
  0
LINE
  5
4765A
330
1F
100
AcDbEntity
  8
AM_0
100
AcDbLine
 10
2.511973253571682
 20
26.0
 30
0.0
 11
1.342326575916673
 21
12.6308772986504
 31
0.0
  0
LINE
  5
4765B
330
1F
100
AcDbEntity
  8
AM_0
100
AcDbLine
 10
12.76275168743484
 20
1.332257162072779
 30
0.0
 11
13.6871589611967
 21
11.89828065022266
 31
0.0
  0
ELLIPSE
  5
4765C
330
1F
100
AcDbEntity
  8
AM_0
100
AcDbEllipse
 10
14.77205687440403
 20
19.79933202275322
 30
0.0
 11
-1.924073827873358
 21
-18.37901144513445
 31
0.0
210
0.0
220
0.0
230
1.0
 40
0.0873581559081015
 41
6.228265650269264
 42
6.301714206587003
  0
LINE
  5
4765D
330
1F
100
AcDbEntity
  8
AM_0
100
AcDbLine
 10
9.981675292569662
 20
14.50345109885291
 30
0.0
 11
9.177640292587853
 21
13.17463411766607
 31
0.0
  0
LINE
  5
4765E
330
1F
100
AcDbEntity
  8
AM_0
100
AcDbLine
 10
13.88519496096899
 20
12.22557187434813
 30
0.0
 11
13.68715896119659
 21
11.89828065022255
 31
0.0
  0
LINE
  5
47661
330
1F
100
AcDbEntity
  8
AM_0
100
AcDbLine
 10
55.00000000000011
 20
5.0
 30
0.0
 11
55.24999999999989
 21
5.0
 31
0.0
  0
LINE
  5
47662
330
1F
100
AcDbEntity
  8
AM_0
100
AcDbLine
 10
55.24999999999989
 20
5.0
 30
0.0
 11
176.6258004435723
 21
5.0
 31
0.0
  0
LINE
  5
4766D
330
1F
100
AcDbEntity
  8
AM_0
100
AcDbLine
 10
54.99746485750086
 20
15.19682841135978
 30
0.0
 11
55.24757084051726
 21
14.43144185876054
 31
0.0
  0
LINE
  5
4767B
330
1F
100
AcDbEntity
  8
AM_0
100
AcDbLine
 10
54.99746485750086
 20
24.80317158864011
 30
0.0
 11
55.24757084051726
 21
25.56855814123935
 31
0.0
  0
LINE
  5
4767C
330
1F
100
AcDbEntity
  8
AM_0
100
AcDbLine
 10
55.24999999999989
 20
25.56776436282996
 30
0.0
 11
176.6258004435723
 21
25.56776436282993
 31
0.0
  0
LINE
  5
4767F
330
1F
100
AcDbEntity
  8
AM_0
100
AcDbLine
 10
54.99997060420776
 20
35.38304752123273
 30
0.0
 11
55.24997134347905
 21
35.64897554212999
 31
0.0
  0
LINE
  5
47680
330
1F
100
AcDbEntity
  8
AM_0
100
AcDbLine
 10
55.24999999999989
 20
35.64894860194002
 30
0.0
 11
104.5000000000051
 21
35.64894860194002
 31
0.0
  0
LINE
  5
47682
330
1F
100
AcDbEntity
  8
AM_0
100
AcDbLine
 10
54.99997060420776
 20
33.29926938922961
 30
0.0
 11
55.24997134347916
 21
33.56519741012687
 31
0.0
  0
LINE
  5
47684
330
1F
100
AcDbEntity
  8
AM_0
100
AcDbLine
 10
104.5000000000035
 20
33.56517046993679
 30
0.0
 11
55.24999999999989
 21
33.56517046993679
 31
0.0
  0
SPLINE
  5
47685
330
1F
100
AcDbEntity
  8
AM_0
100
AcDbSpline
210
0.0
220
0.0
230
1.0
 70
     8
 71
     3
 72
    38
 73
    34
 74
     0
 42
0.0000000001
 43
0.0000000001
 40
-18.27621530968563
 40
-18.27621530968563
 40
-18.27621530968563
 40
-18.27621530968563
 40
-17.13351433065798
 40
-17.13351433065798
 40
-15.99081335163033
 40
-15.99081335163033
 40
-14.84811237260268
 40
-14.84811237260268
 40
-13.70541139357503
 40
-13.70541139357503
 40
-12.56358545889198
 40
-12.56358545889198
 40
-11.42175952420892
 40
-11.42175952420892
 40
-10.27993358952587
 40
-10.27993358952587
 40
-9.138107654842816
 40
-9.138107654842816
 40
-7.996281720159765
 40
-7.996281720159765
 40
-6.854455785476716
 40
-6.854455785476716
 40
-5.712629850793668
 40
-5.712629850793668
 40
-4.57080391611062
 40
-4.57080391611062
 40
-3.428102937082961
 40
-3.428102937082961
 40
-2.28540195805531
 40
-2.28540195805531
 40
-1.142700979027659
 40
-1.142700979027659
 40
0.0
 40
0.0
 40
0.0
 40
0.0
 10
104.5000000000001
 20
35.64894860194002
 30
0.0
 10
104.8809003263426
 20
35.64894860194002
 30
0.0
 10
105.2734503924224
 20
35.65740469835137
 30
0.0
 10
106.0517442874509
 20
35.69060538898057
 30
0.0
 10
106.4375029678666
 20
35.7152904448358
 30
0.0
 10
107.1753321256541
 20
35.77358708369005
 30
0.0
 10
107.5280611585635
 20
35.80711941637495
 30
0.0
 10
108.1795213260002
 20
35.87235440331224
 30
0.0
 10
108.4782559688614
 20
35.90390707812745
 30
0.0
 10
109.0068229479044
 20
35.95527499231528
 30
0.0
 10
109.2553413620807
 20
35.97703629546393
 30
0.0
 10
109.6945834151391
 20
36.00145974324735
 30
0.0
 10
109.88534049825
 20
36.004000266747
 30
0.0
 10
110.1926866708884
 20
35.98171474730194
 30
0.0
 10
110.3095199406206
 20
35.95678285006071
 30
0.0
 10
110.4631989272231
 20
35.87745192784476
 30
0.0
 10
110.5000000000001
 20
35.82301604578552
 30
0.0
 10
110.5000000000001
 20
35.69083205060511
 30
0.0
 10
110.4631989272231
 20
35.60897214402863
 30
0.0
 10
110.3095199406206
 20
35.41798792818864
 30
0.0
 10
110.1926866708884
 20
35.30889651923079
 30
0.0
 10
109.88534049825
 20
35.07483282293609
 30
0.0
 10
109.6945834151391
 20
34.94973917643384
 30
0.0
 10
109.2553413620807
 20
34.69904805130105
 30
0.0
 10
109.0068229479044
 20
34.57357088100218
 30
0.0
 10
108.4782559688614
 20
34.33863358144288
 30
0.0
 10
108.1795213260002
 20
34.22076259619632
 30
0.0
 10
107.5280611585635
 20
34.00301061792686
 30
0.0
 10
107.1753321256541
 20
33.90326495723809
 30
0.0
 10
106.4375029678666
 20
33.73826874474833
 30
0.0
 10
106.0517442874509
 20
33.67301285094754
 30
0.0
 10
105.2734503924224
 20
33.58642561934369
 30
0.0
 10
104.8809003263426
 20
33.56517046993679
 30
0.0
 10
104.5000000000001
 20
33.56517046993679
 30
0.0
  0
LINE
  5
4768D
330
1F
100
AcDbEntity
  8
AM_0
100
AcDbLine
 10
109.8179559475984
 20
36.00000000000003
 30
0.0
 11
176.6258004435723
 21
35.99999999999994
 31
0.0
  0
ELLIPSE
  5
4768F
330
1F
100
AcDbEntity
  8
AM_0
100
AcDbEllipse
 10
7.690717217111228
 20
8.066360960940415
 30
0.0
 11
2.737827453558194
 21
-1.656593140919959
 31
0.0
210
0.0
220
0.0
230
1.0
 40
0.9794461584762657
 41
4.419253457447876
 42
5.005524503321515
  0
ELLIPSE
  5
47691
330
1F
100
AcDbEntity
  8
AM_0
100
AcDbEllipse
 10
19.96576799295428
 20
11.35264894518264
 30
0.0
 11
-3.422284316947755
 21
2.070741426149926
 31
0.0
210
0.0
220
0.0
230
1.0
 40
0.9794461584762658
 41
0.0000000000000002
 42
6.283185307179586
  0
ELLIPSE
  5
47692
330
1F
100
AcDbEntity
  8
AM_0
100
AcDbEllipse
 10
12.45781986361305
 20
14.68100210101977
 30
0.0
 11
-2.138927698092341
 21
1.294213391343713
 31
0.0
210
0.0
220
0.0
230
1.0
 40
0.9794461584762655
 41
0.6255505835768795
 42
0.7003518865733841
  0
ELLIPSE
  5
47693
330
1F
100
AcDbEntity
  8
AM_0
100
AcDbEllipse
 10
11.65378486363113
 20
13.35218511983294
 30
0.0
 11
-2.138927698092347
 21
1.294213391343704
 31
0.0
210
0.0
220
0.0
230
0.9999999999999998
 40
0.9794461584762659
 41
3.063399209028295
 42
6.908735890756463
  0
ELLIPSE
  5
47694
330
1F
100
AcDbEntity
  8
AM_0
100
AcDbEllipse
 10
12.48914590257334
 20
14.73277419119597
 30
0.0
 11
2.138927698092339
 21
-1.294213391343718
 31
0.0
210
0.0
220
0.0
230
1.0
 40
0.9794461584762656
 41
3.477368490426634
 42
3.863522375951713
  0
LINE
  5
47695
330
1F
100
AcDbEntity
  8
AM_0
100
AcDbLine
 10
55.00000000000011
 20
5.0
 30
0.0
 11
55.00000000000011
 21
15.19765682192531
 31
0.0
  0
LINE
  5
47696
330
1F
100
AcDbEntity
  8
AM_0
100
AcDbLine
 10
55.24999999999989
 20
5.0
 30
0.0
 11
55.24999999999989
 21
14.43223563716992
 31
0.0
  0
LINE
  5
4769D
330
1F
100
AcDbEntity
  8
AM_0
100
AcDbLine
 10
55.00000000000011
 20
24.80234317807458
 30
0.0
 11
55.00000000000011
 21
33.29924175404551
 31
0.0
  0
LINE
  5
4769F
330
1F
100
AcDbEntity
  8
AM_0
100
AcDbLine
 10
55.24999999999989
 20
25.56776436282996
 30
0.0
 11
55.24999999999989
 21
33.56517046993679
 31
0.0
  0
LINE
  5
476A3
330
1F
100
AcDbEntity
  8
AM_0
100
AcDbLine
 10
19.1220903374516
 20
12.87369857469525
 30
0.0
 11
20.84467218307611
 21
12.8412791763418
 31
0.0
  0
LINE
  5
476A4
330
1F
100
AcDbEntity
  8
AM_0
100
AcDbLine
 10
20.84467218307611
 20
12.8412791763418
 30
0.0
 11
21.7050570593575
 21
11.34784132825644
 31
0.0
  0
LINE
  5
476A5
330
1F
100
AcDbEntity
  8
AM_0
100
AcDbLine
 10
21.7050570593575
 20
11.34784132825644
 30
0.0
 11
20.8428600900146
 21
9.88682287852464
 31
0.0
  0
LINE
  5
476A6
330
1F
100
AcDbEntity
  8
AM_0
100
AcDbLine
 10
20.8428600900146
 20
9.88682287852464
 30
0.0
 11
19.12027824439008
 21
9.919242276878208
 31
0.0
  0
LINE
  5
476A7
330
1F
100
AcDbEntity
  8
AM_0
100
AcDbLine
 10
19.43353863399341
 20
10.4369631786393
 30
0.0
 11
21.14846987678664
 21
10.4046877664432
 31
0.0
  0
LINE
  5
476A8
330
1F
100
AcDbEntity
  8
AM_0
100
AcDbLine
 10
19.12027824439008
 20
9.919242276878208
 30
0.0
 11
19.43353863399341
 21
10.4369631786393
 31
0.0
  0
LINE
  5
476A9
330
1F
100
AcDbEntity
  8
AM_0
100
AcDbLine
 10
19.12027824439008
 20
9.919242276878208
 30
0.0
 11
18.25989336810869
 21
11.41268012496346
 31
0.0
  0
LINE
  5
476AA
330
1F
100
AcDbEntity
  8
AM_0
100
AcDbLine
 10
18.57315375771202
 20
11.93040102672455
 30
0.0
 11
19.43353863399341
 21
10.4369631786393
 31
0.0
  0
LINE
  5
476AB
330
1F
100
AcDbEntity
  8
AM_0
100
AcDbLine
 10
18.25989336810869
 20
11.41268012496346
 30
0.0
 11
18.57315375771202
 21
11.93040102672455
 31
0.0
  0
LINE
  5
476AC
330
1F
100
AcDbEntity
  8
AM_0
100
AcDbLine
 10
18.25989336810869
 20
11.41268012496346
 30
0.0
 11
19.1220903374516
 21
12.87369857469525
 31
0.0
  0
LINE
  5
476AD
330
1F
100
AcDbEntity
  8
AM_0
100
AcDbLine
 10
19.12974094028289
 20
12.87355458853779
 30
0.0
 11
18.57315375771202
 21
11.93040102672455
 31
0.0
  0
ELLIPSE
  5
476AE
330
1F
100
AcDbEntity
  8
AM_0
100
AcDbEllipse
 10
19.9824752137331
 20
11.38026072661
 30
0.0
 11
-2.994498777329317
 21
1.811898747881142
 31
0.0
210
0.0
220
0.0
230
1.0
 40
0.9794461584762655
 41
0.0000000000000011
 42
6.283185307179587
  0
ELLIPSE
  5
476AF
330
1F
100
AcDbEntity
  8
AM_0
100
AcDbEllipse
 10
20.03468527866698
 20
11.46654754357019
 30
0.0
 11
3.422284316947789
 21
-2.070741426149874
 31
0.0
210
0.0
220
0.0
230
1.0
 40
0.9794461584762658
 41
3.158583406564019
 42
6.266194554205669
  0
LINE
  5
476B0
330
1F
100
AcDbEntity
  8
AM_0
100
AcDbLine
 10
12.68364610209267
 20
14.16522300155236
 30
0.0
 11
9.847941410725866
 21
14.28243105226522
 31
0.0
  0
LINE
  5
476B1
330
1F
100
AcDbEntity
  8
AM_0
100
AcDbLine
 10
9.872304702593169
 20
14.32269591132183
 30
0.0
 11
13.29146187397919
 21
14.26373463110815
 31
0.0
  0
ELLIPSE
  5
476B2
330
1F
100
AcDbEntity
  8
AM_0
100
AcDbEllipse
 10
13.29219886984527
 20
13.52206567907206
 30
0.0
 11
-0.6443135929625957
 21
0.3898585637002556
 31
0.0
210
0.0
220
0.0
230
1.0
 40
0.9794461584762656
 41
4.813486620207495
 42
5.248362546571907
  0
LINE
  5
476B3
330
1F
100
AcDbEntity
  8
AM_0
100
AcDbLine
 10
0.0029597478168171
 20
0.8703332546108413
 30
0.0
 11
0.968953384614224
 21
11.9116910473407
 31
0.0
  0
LINE
  5
476B4
330
1F
100
AcDbEntity
  8
AM_0
100
AcDbLine
 10
1.691496927482717
 20
12.61543060417023
 30
0.0
 11
12.85749282148458
 21
13.39033083510105
 31
0.0
  0
LINE
  5
476B5
330
1F
100
AcDbEntity
  8
AM_0
100
AcDbLine
 10
13.3545326396553
 20
14.21178133256206
 30
0.0
 11
9.649619279590183
 21
13.95466694298614
 31
0.0
  0
LINE
  5
476B6
330
1F
100
AcDbEntity
  8
AM_0
100
AcDbLine
 10
13.72028302410558
 20
12.52191936061456
 30
0.0
 11
12.75428938730806
 21
1.48056156788482
 31
0.0
  0
LINE
  5
476B7
330
1F
100
AcDbEntity
  8
AM_0
100
AcDbLine
 10
12.03174584443957
 20
0.7768220110552875
 30
0.0
 11
0.8657499504378166
 21
0.0019217801243485
 31
0.0
  0
LINE
  5
478E1
330
1F
100
AcDbEntity
  8
AM_0
100
AcDbLine
 10
1.077163393969386
 20
12.24350337374222
 30
0.0
 11
1.360312749790978
 21
12.83646020676088
 31
0.0
  0
LINE
  5
478E2
330
1F
100
AcDbEntity
  8
AM_0
100
AcDbLine
 10
12.64607937795279
 20
1.148749241483301
 30
0.0
 11
12.76370436856394
 21
1.343146357205228
 31
0.0
  0
ELLIPSE
  5
478E3
330
1F
100
AcDbEntity
  8
AM_0
100
AcDbEllipse
 10
0.7956266205616203
 20
0.7879972957823611
 30
0.0
 11
-0.6844568633895496
 21
0.4141482852299884
 31
0.0
210
0.0
220
0.0
230
1.0
 40
0.9794461584762655
 41
0.4487071035875302
 42
2.194036355581841
  0
ELLIPSE
  5
478E4
330
1F
100
AcDbEntity
  8
AM_0
100
AcDbEllipse
 10
1.761620257358914
 20
11.82935508851222
 30
0.0
 11
-0.6844568633895496
 21
0.4141482852299884
 31
0.0
210
0.0
220
0.0
230
1.0
 40
0.9794461584762655
 41
5.335629009171647
 42
6.731892410767117
  0
ELLIPSE
  5
478E5
330
1F
100
AcDbEntity
  8
AM_0
100
AcDbEllipse
 10
12.92761615136089
 20
12.60425531944304
 30
0.0
 11
-0.6844568633895496
 21
0.4141482852299884
 31
0.0
210
0.0
220
0.0
230
1.0
 40
0.9794461584762655
 41
3.590299757177324
 42
5.335629009171648
  0
ELLIPSE
  5
478E6
330
1F
100
AcDbEntity
  8
AM_0
100
AcDbEllipse
 10
13.4246559695315
 20
13.42570581690404
 30
0.0
 11
0.6844568633895496
 21
-0.4141482852299884
 31
0.0
210
0.0
220
0.0
230
1.0
 40
0.9794461584762655
 41
1.148798370785744
 42
2.194036355581845
  0
ELLIPSE
  5
478E7
330
1F
100
AcDbEntity
  8
AM_0
100
AcDbEllipse
 10
11.96162251456337
 20
1.5628975267133
 30
0.0
 11
-0.6844568633895496
 21
0.4141482852299884
 31
0.0
210
0.0
220
0.0
230
1.0
 40
0.9794461584762655
 41
2.194036355581837
 42
3.590299757177324
  0
ELLIPSE
  5
478E8
330
1F
100
AcDbEntity
  8
AM_0
100
AcDbEllipse
 10
6.861621385961144
 20
6.696126307612644
 30
0.0
 11
-2.207373384431297
 21
1.335628219866713
 31
0.0
210
0.0
220
0.0
230
0.9999999999999999
 40
0.9794461584762655
 41
0.0000000000000002
 42
6.283185307179586
  0
ELLIPSE
  5
478E9
330
1F
100
AcDbEntity
  8
AM_0
100
AcDbEllipse
 10
7.358661204131749
 20
7.517576805073645
 30
0.0
 11
2.207373384431297
 21
-1.335628219866713
 31
0.0
210
0.0
220
0.0
230
0.9999999999999999
 40
0.9794461584762655
 41
3.332728703297243
 42
6.092049257472146
  0
LINE
  5
47935
330
1F
100
AcDbEntity
  8
AM_0
100
AcDbLine
 10
3.005667522353747
 20
-114.6159532550523
 30
0.0
 11
6.499999999999886
 21
-114.6159532550523
 31
0.0
  0
LINE
  5
47936
330
1F
100
AcDbEntity
  8
AM_0
100
AcDbLine
 10
19.66313652796043
 20
-114.6159532550523
 30
0.0
 11
18.22458601363258
 21
-114.6159532550523
 31
0.0
  0
ELLIPSE
  5
47937
330
1F
100
AcDbEntity
  8
AM_0
100
AcDbEllipse
 10
43.20330893663038
 20
-97.11595325505232
 30
0.0
 11
-183.3433103711954
 21
-18.9641717015049
 31
0.0
210
0.0
220
0.0
230
1.0
 40
0.0180260166878641
 41
1.337376822944662
 42
1.339418301052013
  0
LINE
  5
47938
330
1F
100
AcDbEntity
  8
AM_0
100
AcDbLine
 10
1.127545094176298
 20
-104.7177962182897
 30
0.0
 11
1.281850538971185
 21
-104.3905867628003
 31
0.0
  0
ELLIPSE
  5
47939
330
1F
100
AcDbEntity
  8
AM_0
100
AcDbEllipse
 10
2.293251594613253
 20
-97.11595325505232
 30
0.0
 11
-1.71828308210606
 21
19.24918545451491
 31
0.0
210
0.0
220
0.0
230
1.0
 40
0.1030596650793658
 41
1.967556958600497
 42
2.702693601629871
  0
SPLINE
  5
4793A
330
1F
100
AcDbEntity
  8
AM_0
100
AcDbSpline
210
0.0
220
0.0
230
1.0
 70
     8
 71
     3
 72
    56
 73
    52
 74
     0
 42
0.0000000001
 43
0.0000000001
 40
5.589409271557328
 40
5.589409271557328
 40
5.589409271557328
 40
5.589409271557328
 40
5.597786069573777
 40
5.597786069573777
 40
6.422103119459052
 40
6.422103119459052
 40
7.303158330958613
 40
7.303158330958613
 40
8.184213542458174
 40
8.184213542458174
 40
9.065268753957735
 40
9.065268753957735
 40
9.946323965457296
 40
9.946323965457296
 40
10.77010456840531
 40
10.77010456840531
 40
11.59388517135333
 40
11.59388517135333
 40
12.41766577430134
 40
12.41766577430134
 40
13.24144637724935
 40
13.24144637724935
 40
14.00638298361855
 40
14.00638298361855
 40
14.77131958998775
 40
14.77131958998775
 40
15.53625619635695
 40
15.53625619635695
 40
16.30119280272614
 40
16.30119280272614
 40
17.19856119825642
 40
17.19856119825642
 40
18.0959295937867
 40
18.0959295937867
 40
18.99329798931698
 40
18.99329798931698
 40
19.89066638484726
 40
19.89066638484726
 40
20.69759465797569
 40
20.69759465797569
 40
21.50452293110412
 40
21.50452293110412
 40
22.31145120423255
 40
22.31145120423255
 40
23.11837947736099
 40
23.11837947736099
 40
23.86456886743104
 40
23.86456886743104
 40
24.6107582575011
 40
24.6107582575011
 40
25.19283910011613
 40
25.19283910011613
 40
25.19283910011613
 40
25.19283910011613
 10
18.22458601363258
 20
-114.6159532550523
 30
0.0
 10
18.22407656742973
 20
-114.6153177119104
 30
0.0
 10
18.22356980176244
 20
-114.6146811996915
 30
0.0
 10
18.17346109714413
 20
-114.551312793522
 30
0.0
 10
18.15013159768125
 20
-114.4790094963107
 30
0.0
 10
18.14742697634222
 20
-114.3180345261159
 30
0.0
 10
18.17103011364077
 20
-114.2223379374855
 30
0.0
 10
18.27107550957578
 20
-114.0104123036946
 30
0.0
 10
18.34745473202122
 20
-113.8941935610913
 30
0.0
 10
18.54905691352781
 20
-113.6496917899659
 30
0.0
 10
18.67435570501004
 20
-113.5213141671507
 30
0.0
 10
18.96529824379888
 20
-113.2635408437591
 30
0.0
 10
19.13097807524071
 20
-113.1341905278693
 30
0.0
 10
19.47758865972867
 20
-112.8952669156798
 30
0.0
 10
19.66905019601825
 20
-112.7764945386081
 30
0.0
 10
20.09318744762652
 20
-112.5485165798203
 30
0.0
 10
20.32589353077458
 20
-112.4393903658397
 30
0.0
 10
20.82087663296704
 20
-112.2468673051222
 30
0.0
 10
21.08379329095112
 20
-112.1633830419049
 30
0.0
 10
21.62340802354481
 20
-112.0345382494281
 30
0.0
 10
21.90014812214531
 20
-111.9892959370737
 30
0.0
 10
22.42681947221684
 20
-111.9425996651954
 30
0.0
 10
22.6851795408644
 20
-111.9375295879481
 30
0.0
 10
23.1925788681034
 20
-111.9626220475693
 30
0.0
 10
23.44164123826374
 20
-111.9926872403158
 30
0.0
 10
23.91446392856153
 20
-112.0802578121202
 30
0.0
 10
24.13871332349731
 20
-112.1377293508834
 30
0.0
 10
24.55117041716665
 20
-112.2684534996712
 30
0.0
 10
24.73939393275498
 20
-112.341632650091
 30
0.0
 10
25.10126612344834
 20
-112.5036838130862
 30
0.0
 10
25.28318165386133
 20
-112.6004692120255
 30
0.0
 10
25.60470044822455
 20
-112.8021120634974
 30
0.0
 10
25.74433158466434
 20
-112.9069071249504
 30
0.0
 10
25.97091957105738
 20
-113.1142992645675
 30
0.0
 10
26.05795198664305
 20
-113.2169687449796
 30
0.0
 10
26.17427758798124
 20
-113.4120916110036
 30
0.0
 10
26.20349746200202
 20
-113.5045446675022
 30
0.0
 10
26.20620037751337
 20
-113.6654181094202
 30
0.0
 10
26.1850335231228
 20
-113.7405475005393
 30
0.0
 10
26.08889798931011
 20
-113.8824981071268
 30
0.0
 10
26.01390517559673
 20
-113.9493338754423
 30
0.0
 10
25.81022038843742
 20
-114.0719260777419
 30
0.0
 10
25.68133103562559
 20
-114.1278347880434
 30
0.0
 10
25.37830419685099
 20
-114.2288852954173
 30
0.0
 10
25.20415139370732
 20
-114.2740965906317
 30
0.0
 10
24.84234542889124
 20
-114.3524156526029
 30
0.0
 10
24.64564089175929
 20
-114.3885232413214
 30
0.0
 10
24.21663172658452
 20
-114.4574585230362
 30
0.0
 10
23.98434690014949
 20
-114.4903486854286
 30
0.0
 10
23.55281269565137
 20
-114.5465540483737
 30
0.0
 10
23.35731391830507
 20
-114.5704300614742
 30
0.0
 10
23.15970001516803
 20
-114.5935585395291
 30
0.0
  0
LINE
  5
4793B
330
1F
100
AcDbEntity
  8
AM_0
100
AcDbLine
 10
6.499999999999886
 20
-114.6159532550523
 30
0.0
 11
18.22458601363258
 21
-114.6159532550523
 31
0.0
  0
LINE
  5
4793C
330
1F
100
AcDbEntity
  8
AM_0
100
AcDbLine
 10
13.18491596226193
 20
-103.3914724248305
 30
0.0
 11
13.54802388144015
 21
-103.3483423549881
 31
0.0
  0
LINE
  5
4793F
330
1F
100
AcDbEntity
  8
AM_0
100
AcDbLine
 10
2.511973253571682
 20
-92.53535716186497
 30
0.0
 11
1.469386978483385
 21
-94.7461935184557
 31
0.0
  0
LINE
  5
47940
330
1F
100
AcDbEntity
  8
AM_0
100
AcDbLine
 10
12.76275168743484
 20
-95.76681881518169
 30
0.0
 11
13.6871589611967
 21
-93.8065846763273
 31
0.0
  0
ELLIPSE
  5
47941
330
1F
100
AcDbEntity
  8
AM_0
100
AcDbEllipse
 10
14.77205687440403
 20
-96.94534996745671
 30
0.0
 11
1.640774970761682
 21
-18.37869845080522
 31
0.0
210
0.0
220
0.0
230
1.0
 40
0.1030611747877464
 41
4.639022208532884
 42
5.05902771194158
  0
LINE
  5
47942
330
1F
100
AcDbEntity
  8
AM_0
100
AcDbLine
 10
19.66311866268916
 20
-114.6136098509999
 30
0.0
 11
23.15964966112824
 21
-114.5869535538485
 31
0.0
  0
LINE
  5
47943
330
1F
100
AcDbEntity
  8
AM_0
100
AcDbLine
 10
23.15998108701126
 20
-114.5971077012125
 30
0.0
 11
23.98501649685738
 21
-114.5317699555561
 31
0.0
  0
LINE
  5
47945
330
1F
100
AcDbEntity
  8
AM_0
100
AcDbLine
 10
55.00000000000011
 20
-112.1159532550523
 30
0.0
 11
55.24999999999989
 21
-112.1159532550523
 31
0.0
  0
LINE
  5
47946
330
1F
100
AcDbEntity
  8
AM_0
100
AcDbLine
 10
55.24999999999989
 20
-112.1159532550523
 30
0.0
 11
348.0000000000001
 21
-112.1159532550524
 31
0.0
  0
LINE
  5
47949
330
1F
100
AcDbEntity
  8
AM_0
100
AcDbLine
 10
54.99746485750086
 20
-92.31278166641221
 30
0.0
 11
55.24757084051726
 21
-91.54739511381297
 31
0.0
  0
LINE
  5
4794A
330
1F
100
AcDbEntity
  8
AM_0
100
AcDbLine
 10
55.24999999999989
 20
-91.54818889222236
 30
0.0
 11
348.0000000000001
 21
-91.54818889222241
 31
0.0
  0
LINE
  5
4794D
330
1F
100
AcDbEntity
  8
AM_0
100
AcDbLine
 10
54.99746485750086
 20
-101.9191248436925
 30
0.0
 11
55.24757084051726
 21
-102.6845113962918
 31
0.0
  0
LINE
  5
4794F
330
1F
100
AcDbEntity
  8
AM_0
100
AcDbLine
 10
29.0
 20
-112.1159532550523
 30
0.0
 11
55.00000000000011
 21
-112.1159532550523
 31
0.0
  0
LINE
  5
47953
330
1F
100
AcDbEntity
  8
AM_0
100
AcDbLine
 10
55.00000000000011
 20
-82.11595325505232
 30
0.0
 11
55.24999999999989
 21
-82.11595325505232
 31
0.0
  0
LINE
  5
47961
330
1F
100
AcDbEntity
  8
AM_0
100
AcDbLine
 10
28.0
 20
-112.8659532550523
 30
0.0
 11
27.23767690783348
 21
-114.1863355824677
 31
0.0
  0
LINE
  5
47962
330
1F
100
AcDbEntity
  8
AM_0
100
AcDbLine
 10
27.23767690783348
 20
-114.1863355824677
 30
0.0
 11
23.98473642369208
 21
-114.5282334044182
 31
0.0
  0
LINE
  5
47965
330
1F
100
AcDbEntity
  8
AM_0
100
AcDbLine
 10
28.0
 20
-112.8659532550523
 30
0.0
 11
29.0
 21
-112.8659532550523
 31
0.0
  0
LINE
  5
47967
330
1F
100
AcDbEntity
  8
AM_0
100
AcDbLine
 10
6.499999999999886
 20
-114.6159532550523
 30
0.0
 11
6.499999999999886
 21
-104.2149154504299
 31
0.0
  0
ELLIPSE
  5
47969
330
1F
100
AcDbEntity
  8
AM_0
100
AcDbEllipse
 10
11.65378486363113
 20
-93.76719467002403
 30
0.0
 11
2.485912486549368
 21
0.2650266198289049
 31
0.0
210
0.0
220
0.0
230
1.0
 40
0.1725736339203707
 41
5.651606076119007
 42
8.919088163087032
  0
LINE
  5
4796A
330
1F
100
AcDbEntity
  8
AM_0
100
AcDbLine
 10
55.00000000000011
 20
-92.31361007697774
 30
0.0
 11
55.00000000000011
 21
-82.11595325505232
 31
0.0
  0
LINE
  5
4796B
330
1F
100
AcDbEntity
  8
AM_0
100
AcDbLine
 10
55.24999999999989
 20
-91.54818889222236
 30
0.0
 11
55.24999999999989
 21
-82.11595325505232
 31
0.0
  0
LINE
  5
4796C
330
1F
100
AcDbEntity
  8
AM_0
100
AcDbLine
 10
55.24999999999989
 20
-112.1159532550523
 30
0.0
 11
55.24999999999989
 21
-102.6837176178824
 31
0.0
  0
LINE
  5
47972
330
1F
100
AcDbEntity
  8
AM_0
100
AcDbLine
 10
55.00000000000011
 20
-112.1159532550523
 30
0.0
 11
55.00000000000011
 21
-101.918296433127
 31
0.0
  0
LINE
  5
47973
330
1F
100
AcDbEntity
  8
AM_0
100
AcDbLine
 10
29.0
 20
-112.1159532550523
 30
0.0
 11
29.0
 21
-112.8659532550523
 31
0.0
  0
LINE
  5
47981
330
1F
100
AcDbEntity
  8
AM_0
100
AcDbLine
 10
7.181482373494305
 20
-104.1449579505012
 30
0.0
 11
12.5053627135627
 21
-103.5122731677856
 31
0.0
  0
LINE
  5
47982
330
1F
100
AcDbEntity
  8
AM_0
100
AcDbLine
 10
7.174505876333228
 20
-104.1178346593637
 30
0.0
 11
7.181482387633082
 21
-104.1449579468645
 31
0.0
  0
ELLIPSE
  5
47983
330
1F
100
AcDbEntity
  8
AM_0
100
AcDbEllipse
 10
2.648764947960103
 20
-109.7893825254293
 30
0.0
 11
-0.8914010484972371
 21
8.154735323592938
 31
0.0
210
0.0
220
0.0
230
1.0
 40
0.1462585874464797
 41
6.195089033648786
 42
6.249177703577783
  0
LINE
  5
47984
330
1F
100
AcDbEntity
  8
AM_0
100
AcDbLine
 10
1.865757297823052
 20
-101.6548002957118
 30
0.0
 11
7.174505862177171
 21
-104.1178346630048
 31
0.0
  0
LINE
  5
47985
330
1F
100
AcDbEntity
  8
AM_0
100
AcDbLine
 10
7.181325614397224
 20
-104.1443484946057
 30
0.0
 11
2.089972560243382
 21
-104.6716753387253
 31
0.0
  0
LINE
  5
47986
330
1F
100
AcDbEntity
  8
AM_0
100
AcDbLine
 10
1.340965312237699
 20
-104.624067795205
 30
0.0
 11
0.5994821086811726
 21
-101.6954891284672
 31
0.0
  0
ELLIPSE
  5
47987
330
1F
100
AcDbEntity
  8
AM_0
100
AcDbEllipse
 10
12.4001777187483
 20
-103.3157330824273
 30
0.0
 11
1.193237993543695
 21
0.1272127775178978
 31
0.0
210
0.0
220
0.0
230
0.9999999999999999
 40
0.1725736339203717
 41
4.782243222670063
 42
5.955617778855626
  0
ELLIPSE
  5
47988
330
1F
100
AcDbEntity
  8
AM_0
100
AcDbEllipse
 10
2.089235564377304
 20
-104.5410754605108
 30
0.0
 11
0.7488365349739162
 21
0.07983451418437074
 31
0.0
210
0.0
220
0.0
230
1.0
 40
0.1725736339203717
 41
3.166218214284553
 42
4.694976760072853
  0
LINE
  5
47989
330
1F
100
AcDbEntity
  8
AM_0
100
AcDbLine
 10
0.0029597478168171
 20
-96.96351044399933
 30
0.0
 11
0.968953384614224
 21
-94.9150911395289
 31
0.0
  0
LINE
  5
4798A
330
1F
100
AcDbEntity
  8
AM_0
100
AcDbLine
 10
1.691496927482717
 20
-94.71406428212271
 30
0.0
 11
12.85749282148458
 21
-93.3871081458567
 31
0.0
  0
LINE
  5
4798B
330
1F
100
AcDbEntity
  8
AM_0
100
AcDbLine
 10
13.72028302410558
 20
-93.44813473559486
 30
0.0
 11
12.75428938730806
 21
-95.49655404006535
 31
0.0
  0
LINE
  5
4798C
330
1F
100
AcDbEntity
  8
AM_0
100
AcDbLine
 10
12.03174584443957
 20
-95.69758089747154
 30
0.0
 11
0.8657499504378166
 21
-97.02453703373749
 31
0.0
  0
LINE
  5
4798D
330
1F
100
AcDbEntity
  8
AM_0
100
AcDbLine
 10
1.362789768608423
 20
-101.6867007480846
 30
0.0
 11
12.52878566261018
 21
-100.3597446118185
 31
0.0
  0
LINE
  5
4798E
330
1F
100
AcDbEntity
  8
AM_0
100
AcDbLine
 10
0.0001346248658365
 20
-96.97831882851062
 30
0.0
 11
0.4971744430364424
 21
-101.6404825428576
 31
0.0
  0
LINE
  5
4798F
330
1F
100
AcDbEntity
  8
AM_0
100
AcDbLine
 10
13.72310814705668
 20
-93.43332635108357
 30
0.0
 11
13.76005834403838
 21
-93.77991401128486
 31
0.0
  0
ELLIPSE
  5
47990
330
1F
100
AcDbEntity
  8
AM_0
100
AcDbEllipse
 10
0.7956266205616203
 20
-96.89351031016531
 30
0.0
 11
0.7954919956957982
 21
0.08480851834525105
 31
0.0
210
0.0
220
0.0
230
1.0
 40
0.1725736339203717
 41
3.036913970678237
 42
4.782243222672548
  0
ELLIPSE
  5
47991
330
1F
100
AcDbEntity
  8
AM_0
100
AcDbEllipse
 10
1.292666438732226
 20
-101.5556740245124
 30
0.0
 11
0.7954919956957964
 21
0.08480851834526522
 31
0.0
210
0.0
220
0.0
230
1.0
 40
0.1725736339203717
 41
3.141592653589794
 42
4.782243222670044
  0
ELLIPSE
  5
47992
330
1F
100
AcDbEntity
  8
AM_0
100
AcDbEllipse
 10
1.761620257358914
 20
-94.84509100569488
 30
0.0
 11
0.7954919956957982
 21
0.08480851834525105
 31
0.0
210
0.0
220
0.0
230
1.0
 40
0.1725736339203717
 41
1.640650569082773
 42
3.036913970678242
  0
ELLIPSE
  5
47993
330
1F
100
AcDbEntity
  8
AM_0
100
AcDbEllipse
 10
12.92761615136089
 20
-93.51813486942888
 30
0.0
 11
0.7954919956957982
 21
0.08480851834525105
 31
0.0
210
0.0
220
0.0
230
1.0
 40
0.1725736339203717
 41
6.178506624268035
 42
7.923835876262359
  0
ELLIPSE
  5
47994
330
1F
100
AcDbEntity
  8
AM_0
100
AcDbEllipse
 10
11.96162251456337
 20
-95.56655417389936
 30
0.0
 11
0.7954919956957982
 21
0.08480851834525105
 31
0.0
210
0.0
220
0.0
230
1.0
 40
0.1725736339203717
 41
4.782243222672548
 42
6.178506624268035
  0
ELLIPSE
  5
47995
330
1F
100
AcDbEntity
  8
AM_0
100
AcDbEllipse
 10
12.45866233273398
 20
-100.2287178882464
 30
0.0
 11
0.7954919956957964
 21
0.08480851834526522
 31
0.0
210
0.0
220
0.0
230
1.0
 40
0.1725736339203717
 41
4.782243222670035
 42
5.834610956611977
  0
ELLIPSE
  5
47996
330
1F
100
AcDbEntity
  8
AM_0
100
AcDbEllipse
 10
6.861621385961144
 20
-95.20582258979709
 30
0.0
 11
2.565461686118948
 21
0.2735074716634344
 31
0.0
210
0.0
220
0.0
230
1.0
 40
0.1725736339203717
 41
2.588206867090708
 42
8.871392174270291
  0
LINE
  5
479AA
330
1F
100
AcDbEntity
  8
AM_0
100
AcDbLine
 10
176.6258004435723
 20
14.43223563716992
 30
0.0
 11
55.24999999999989
 21
14.43223563716992
 31
0.0
  0
LINE
  5
479AC
330
1F
100
AcDbEntity
  8
AM_0
100
AcDbLine
 10
348.0000000000001
 20
-82.11595325505243
 30
0.0
 11
55.24999999999989
 21
-82.11595325505232
 31
0.0
  0
LINE
  5
479AE
330
1F
100
AcDbEntity
  8
AM_0
100
AcDbLine
 10
348.0000000000001
 20
-102.6837176178825
 30
0.0
 11
55.24999999999989
 21
-102.6837176178824
 31
0.0
  0
LINE
  5
479B3
330
1F
100
AcDbEntity
  8
AM_5
100
AcDbLine
 10
0.810262334759841
 20
0.0
 30
0.0
 11
-4.768325019972394
 21
0.0000000000000284
 31
0.0
  0
LINE
  5
479B5
330
1F
100
AcDbEntity
  8
AM_5
100
AcDbLine
 10
0.0
 20
0.8024926669929755
 30
0.0
 11
0.0
 21
-3.739066776517575
 31
0.0
  0
SPLINE
  5
479F9
330
1F
100
AcDbEntity
  8
AM_11
  6
ACJISTGB
100
AcDbSpline
210
0.0
220
0.0
230
1.0
 70
     8
 71
     3
 72
     9
 73
     5
 74
     3
 42
0.0000000001
 43
0.0000000001
 44
0.0000000001
 40
0.0
 40
0.0
 40
0.0
 40
0.0
 40
4.562124827386266
 40
20.88453007513189
 40
20.88453007513189
 40
20.88453007513189
 40
20.88453007513189
 10
40.02048889272339
 20
-82.11595325505232
 30
0.0
 10
39.67266830575344
 20
-83.64945840130089
 30
0.0
 10
38.08041255121601
 20
-90.6695500381942
 30
0.0
 10
30.37374359591894
 20
-92.69867364944906
 30
0.0
 10
24.35055928935105
 20
-94.28454499831452
 30
0.0
 11
40.02048889272339
 21
-82.11595325505232
 31
0.0
 11
38.68525776208014
 21
-86.47830821177183
 31
0.0
 11
24.35055928935105
 21
-94.28454499831452
 31
0.0
  0
LINE
  5
484A5
330
1F
100
AcDbEntity
  8
AM_0
100
AcDbLine
 10
7.64210558981074
 20
28.96188328530596
 30
0.0
 11
17.91578701351853
 21
34.89339602085218
 31
0.0
  0
LINE
  5
484B3
330
1F
100
AcDbEntity
  8
AM_0
100
AcDbLine
 10
38.50000000000011
 20
35.38301988604869
 30
0.0
 11
55.00000000000011
 21
35.38301988604869
 31
0.0
  0
SPLINE
  5
484B4
330
1F
100
AcDbEntity
  8
AM_0
100
AcDbSpline
210
0.0
220
0.0
230
1.0
 70
     8
 71
     3
 72
    38
 73
    34
 74
     0
 42
0.0000000001
 43
0.0000000001
 40
0.0
 40
0.0
 40
0.0
 40
0.0
 40
1.14315334881353
 40
1.14315334881353
 40
2.286306697627061
 40
2.286306697627061
 40
3.429460046440591
 40
3.429460046440591
 40
4.572613395254122
 40
4.572613395254122
 40
5.714830060149229
 40
5.714830060149229
 40
6.857046725044336
 40
6.857046725044336
 40
7.999263389939443
 40
7.999263389939443
 40
9.141480054834551
 40
9.141480054834551
 40
10.28369671972966
 40
10.28369671972966
 40
11.42591338462476
 40
11.42591338462476
 40
12.56813004951987
 40
12.56813004951987
 40
13.71034671441498
 40
13.71034671441498
 40
14.85350006322851
 40
14.85350006322851
 40
15.99665341204204
 40
15.99665341204204
 40
17.13980676085557
 40
17.13980676085557
 40
18.2829601096691
 40
18.2829601096691
 40
18.2829601096691
 40
18.2829601096691
 10
38.50000000000011
 20
33.29924175404551
 30
0.0
 10
38.11894888372888
 20
33.29924175404551
 30
0.0
 10
37.72629558923461
 20
33.32079010690234
 30
0.0
 10
36.94789054769035
 20
33.40851703881648
 30
0.0
 10
36.56212353230706
 20
33.47461688654119
 30
0.0
 10
35.8243465113693
 20
33.64164747468186
 30
0.0
 10
35.47167563697599
 20
33.74258209910042
 30
0.0
 10
34.82034574719148
 20
33.96279736972315
 30
0.0
 10
34.52168260170697
 20
34.08194055402757
 30
0.0
 10
33.99325260687272
 20
34.31926488117034
 30
0.0
 10
33.74478314372323
 20
34.44595183213505
 30
0.0
 10
33.30558535303169
 20
34.6988894302531
 30
0.0
 10
33.11482348550544
 20
34.82501854150954
 30
0.0
 10
32.80743644020697
 20
35.06080599396907
 30
0.0
 10
32.69056702578928
 20
35.17058682513007
 30
0.0
 10
32.53682630215349
 20
35.36250427834099
 30
0.0
 10
32.50000000000011
 20
35.44460749582228
 30
0.0
 10
32.50000000000011
 20
35.57683672406219
 30
0.0
 10
32.53682630215349
 20
35.63106275722865
 30
0.0
 10
32.69056702578928
 20
35.70950037473645
 30
0.0
 10
32.80743644020697
 20
35.73374937447815
 30
0.0
 10
33.11482348550544
 20
35.75430027005254
 30
0.0
 10
33.30558535303169
 20
35.75070760031557
 30
0.0
 10
33.74478314372323
 20
35.72399354076063
 30
0.0
 10
33.99325260687272
 20
35.70099523238221
 30
0.0
 10
34.52168260170697
 20
35.6471927164944
 30
0.0
 10
34.82034574719148
 20
35.61435150549718
 30
0.0
 10
35.47167563697599
 20
35.54663582439522
 30
0.0
 10
35.8243465113693
 20
35.51191369616024
 30
0.0
 10
36.56212353230706
 20
35.45159399651621
 30
0.0
 10
36.94789054769035
 20
35.4260771389917
 30
0.0
 10
37.72629558923461
 20
35.39175914544083
 30
0.0
 10
38.11894888372888
 20
35.38301988604869
 30
0.0
 10
38.50000000000011
 20
35.38301988604869
 30
0.0
  0
LINE
  5
484B5
330
1F
100
AcDbEntity
  8
AM_0
100
AcDbLine
 10
55.00000000000011
 20
33.29924175404551
 30
0.0
 11
38.50000000000011
 21
33.29924175404551
 31
0.0
  0
LINE
  5
484B6
330
1F
100
AcDbEntity
  8
AM_0
100
AcDbLine
 10
33.52630943794259
 20
24.80234317807458
 30
0.0
 11
55.00000000000011
 21
24.80234317807458
 31
0.0
  0
SPLINE
  5
484B7
330
1F
100
AcDbEntity
  8
AM_0
100
AcDbSpline
210
0.0
220
0.0
230
1.0
 70
     8
 71
     3
 72
    32
 73
    28
 74
     0
 42
0.0000000001
 43
0.0000000001
 40
0.9387635054756067
 40
0.9387635054756067
 40
0.9387635054756067
 40
0.9387635054756067
 40
3.693880096871684
 40
3.693880096871684
 40
6.44899668826776
 40
6.44899668826776
 40
9.204113279663837
 40
9.204113279663837
 40
11.95922987105992
 40
11.95922987105992
 40
13.08782277618469
 40
13.08782277618469
 40
14.21641568130946
 40
14.21641568130946
 40
15.34500858643424
 40
15.34500858643424
 40
16.47360149155901
 40
16.47360149155901
 40
17.60219439668379
 40
17.60219439668379
 40
18.73078730180856
 40
18.73078730180856
 40
19.85938020693333
 40
19.85938020693333
 40
20.98797311205811
 40
20.98797311205811
 40
21.85159404454176
 40
21.85159404454176
 40
21.85159404454176
 40
21.85159404454176
 10
24.42124899679914
 20
34.89339602084922
 30
0.0
 10
25.33962119393118
 20
34.89339602084922
 30
0.0
 10
26.28250857075966
 20
34.86048248715198
 30
0.0
 10
28.13055486753376
 20
34.71188798826765
 30
0.0
 10
29.03575034180108
 20
34.59602310396051
 30
0.0
 10
30.72956290200546
 20
34.25155521264037
 30
0.0
 10
31.51959863589184
 20
34.02227607194635
 30
0.0
 10
32.91989876308151
 20
33.41541200909336
 30
0.0
 10
33.53051458726566
 20
33.03766445537821
 30
0.0
 10
34.22623735128661
 20
32.37996099789086
 30
0.0
 10
34.41731435592612
 20
32.16536526268658
 30
0.0
 10
34.75494284360627
 20
31.69376639601038
 30
0.0
 10
34.90147823039115
 20
31.43669725746554
 30
0.0
 10
35.13663820587101
 20
30.890559076247
 30
0.0
 10
35.22538835623254
 20
30.60112728587771
 30
0.0
 10
35.34142297147116
 20
30.00643867482262
 30
0.0
 10
35.36870123230187
 20
29.70117239700727
 30
0.0
 10
35.36870123230187
 20
29.0974476305008
 30
0.0
 10
35.34142297147116
 20
28.77574711544497
 30
0.0
 10
35.22538835623254
 20
28.11199937362574
 30
0.0
 10
35.13663820587101
 20
27.76995855672527
 30
0.0
 10
34.90147823039126
 20
27.08726849523626
 30
0.0
 10
34.75494284360627
 20
26.74624026916186
 30
0.0
 10
34.41731435592612
 20
26.08659769741914
 30
0.0
 10
34.22623735128661
 20
25.76800934369209
 30
0.0
 10
33.86935470626293
 20
25.24285276706127
 30
0.0
 10
33.7031611264905
 20
25.01982826750111
 30
0.0
 10
33.52630943794259
 20
24.80234317807458
 30
0.0
  0
LINE
  5
484B8
330
1F
100
AcDbEntity
  8
AM_0
100
AcDbLine
 10
17.91578701352285
 20
34.89339602084922
 30
0.0
 11
24.42124899679914
 21
34.89339602084922
 31
0.0
  0
LINE
  5
484B9
330
1F
100
AcDbEntity
  8
AM_0
100
AcDbLine
 10
17.91578701352285
 20
34.89339602085468
 30
0.0
 11
19.39946862736804
 21
35.74999999999992
 31
0.0
  0
LINE
  5
484BA
330
1F
100
AcDbEntity
  8
AM_0
100
AcDbLine
 10
19.39946862736815
 20
35.74999999999997
 30
0.0
 11
28.0
 21
35.74999999999997
 31
0.0
  0
ELLIPSE
  5
484BF
330
1F
100
AcDbEntity
  8
AM_0
100
AcDbEllipse
 10
30.36789518527621
 20
32.99999999999994
 30
0.0
 11
20.12797452066088
 21
-7.624088198220033
 31
0.0
210
0.0
220
0.0
230
1.0
 40
0.492136926477357
 41
4.578646585493384
 42
4.602000412785418
  0
LINE
  5
484C4
330
1F
100
AcDbEntity
  8
AM_0
100
AcDbLine
 10
2.511973253571682
 20
25.99999999999997
 30
0.0
 11
7.64210558981074
 21
28.96188328530596
 31
0.0
  0
ELLIPSE
  5
484C5
330
1F
100
AcDbEntity
  8
AM_0
100
AcDbEllipse
 10
111.9300119823624
 20
32.99999999999994
 30
0.0
 11
119.0540888875808
 21
-2.192457507238239
 31
0.0
210
0.0
220
0.0
230
0.9999999999999999
 40
0.1033666574631228
 41
3.646851075008863
 42
3.744859386224611
  0
ARC
  5
484C8
330
1F
100
AcDbEntity
  8
AM_0
100
AcDbCircle
 10
3.474489394335933
 20
-17.31274913090536
 30
0.0
 40
46.29396972172582
100
AcDbArc
 50
63.72850831167994
 51
77.16048269874447
  0
LINE
  5
484DA
330
1F
100
AcDbEntity
  8
AM_0
100
AcDbLine
 10
28.0
 20
35.74999999999997
 30
0.0
 11
33.15958799605767
 21
35.74999999999997
 31
0.0
  0
ARC
  5
484E0
330
1F
100
AcDbEntity
  8
AM_0
100
AcDbCircle
 10
24.42124899679914
 20
32.99999999999997
 30
0.0
 40
12.25168163996005
100
AcDbArc
 50
315.4312124161829
 51
318.0020032796586
  0
ELLIPSE
  5
484EC
330
1F
100
AcDbEntity
  8
AM_0
100
AcDbEllipse
 10
26.03588370691386
 20
34.20170414417578
 30
0.0
 11
7.230155013303024
 21
-9.714586822861939
 31
0.0
210
0.0
220
0.0
230
1.0
 40
0.7603153716690121
 41
5.351600411114927
 42
6.267520058689601
  0
LINE
  5
48565
330
1F
100
AcDbEntity
  8
AM_0
100
AcDbLine
 10
55.00000000000011
 20
-82.11595325505232
 30
0.0
 11
44.89278645570687
 21
-82.11595325505232
 31
0.0
  0
LINE
  5
48566
330
1F
100
AcDbEntity
  8
AM_0
100
AcDbLine
 10
39.21553402515008
 20
-82.11595325505232
 30
0.0
 11
39.92124899679914
 21
-82.11595325505232
 31
0.0
  0
ELLIPSE
  5
48573
330
1F
100
AcDbEntity
  8
AM_0
100
AcDbEllipse
 10
30.36789518527621
 20
-79.63678061220031
 30
0.0
 11
20.32416390102836
 21
11.74073256390694
 31
0.0
210
0.0
220
0.0
230
1.0
 40
0.2110850951394083
 41
4.273010669057114
 42
4.296364496349148
  0
LINE
  5
48574
330
1F
100
AcDbEntity
  8
AM_0
100
AcDbLine
 10
33.14945046032256
 20
-82.11595325505232
 30
0.0
 11
39.21553402515008
 21
-82.11595325505232
 31
0.0
  0
LINE
  5
48577
330
1F
100
AcDbEntity
  8
AM_0
100
AcDbLine
 10
2.511973253571682
 20
-92.53535716186474
 30
0.0
 11
7.64210558981074
 21
-91.46655716962135
 31
0.0
  0
ELLIPSE
  5
48578
330
1F
100
AcDbEntity
  8
AM_0
100
AcDbEllipse
 10
111.9300119823624
 20
-79.63678061220031
 30
0.0
 11
119.0540976436319
 21
12.31439720876943
 31
0.0
210
0.0
220
0.0
230
1.0
 40
0.0180260166878645
 41
3.64308298950552
 42
3.741091300721264
  0
ARC
  5
4857B
330
1F
100
AcDbEntity
  8
AM_0
100
AcDbCircle
 10
11.54792903304923
 20
-59.91794530332709
 30
0.0
 40
31.17542491420261
100
AcDbArc
 50
274.0725277434319
 51
293.4724681879136
  0
LINE
  5
48595
330
1F
100
AcDbEntity
  8
AM_0
100
AcDbLine
 10
39.92124899679914
 20
-82.11595325505232
 30
0.0
 11
44.89278645570687
 21
-82.11595325505232
 31
0.0
  0
ELLIPSE
  5
4859C
330
1F
100
AcDbEntity
  8
AM_0
100
AcDbEllipse
 10
26.03588370691386
 20
-81.99273546054741
 30
0.0
 11
9.989072659214367
 21
6.845930620759288
 31
0.0
210
0.0
220
0.0
230
0.9999999999999998
 40
0.3878147892589143
 41
4.295750228380812
 42
5.211669875955487
  0
LINE
  5
493CF
330
1F
100
AcDbEntity
  8
AM_0
100
AcDbLine
 10
54.99999999999989
 20
15.19765682192531
 30
0.0
 11
45.46963113341064
 21
15.19765682192531
 31
0.0
  0
LINE
  5
493D6
330
1F
100
AcDbEntity
  8
AM_0
100
AcDbLine
 10
46.66558323866252
 20
4.999999999999943
 30
0.0
 11
54.99999999999989
 21
4.999999999999943
 31
0.0
  0
SPLINE
  5
493DA
330
1F
100
AcDbEntity
  8
AM_0
100
AcDbSpline
210
0.0
220
0.0
230
1.0
 70
     8
 71
     3
 72
    30
 73
    26
 74
     0
 42
0.0000000001
 43
0.0000000001
 40
6.544833743987055
 40
6.544833743987055
 40
6.544833743987055
 40
6.544833743987055
 40
9.044717138920742
 40
9.044717138920742
 40
11.74669498756605
 40
11.74669498756605
 40
12.84486832454355
 40
12.84486832454355
 40
13.94304166152105
 40
13.94304166152105
 40
15.04121499849854
 40
15.04121499849854
 40
16.13938833547604
 40
16.13938833547604
 40
17.23756167245355
 40
17.23756167245355
 40
18.33573500943104
 40
18.33573500943104
 40
19.43390834640854
 40
19.43390834640854
 40
20.53208168338605
 40
20.53208168338605
 40
23.23405953203135
 40
23.23405953203135
 40
24.37450954930239
 40
24.37450954930239
 40
24.37450954930239
 40
24.37450954930239
 10
45.46963113341076
 20
15.19765682192531
 30
0.0
 10
46.23219155652464
 20
14.81677180603063
 30
0.0
 10
46.94512657479731
 20
14.35931629132662
 30
0.0
 10
48.27184562140371
 20
13.29096081263643
 30
0.0
 10
48.87324250948814
 20
12.67102988921909
 30
0.0
 10
49.55674144906573
 20
11.75166944474654
 30
0.0
 10
49.74351349388269
 20
11.46870600733888
 30
0.0
 10
50.07365438024829
 20
10.88706054497624
 30
0.0
 10
50.21700518876344
 20
10.58841471628224
 30
0.0
 10
50.44710534730984
 20
9.995460735079263
 30
0.0
 10
50.53397555347112
 20
9.700833735415984
 30
0.0
 10
50.64755930647982
 20
9.134225366691993
 30
0.0
 10
50.67426645516287
 20
8.862252027844505
 30
0.0
 10
50.67426645516287
 20
8.356632399586829
 30
0.0
 10
50.64755930647982
 20
8.103516904739649
 30
0.0
 10
50.53397555347112
 20
7.616140407853436
 30
0.0
 10
50.44710534730984
 20
7.381868781383673
 30
0.0
 10
50.21700518876344
 20
6.945532510580279
 30
0.0
 10
50.07365438024829
 20
6.743166164617662
 30
0.0
 10
49.74351349388269
 20
6.377090448177285
 30
0.0
 10
49.55674144906573
 20
6.213310817702165
 30
0.0
 10
48.87324250948814
 20
5.715700767983719
 30
0.0
 10
48.27184562140371
 20
5.44373204122229
 30
0.0
 10
47.29184596431651
 20
5.145457739104529
 30
0.0
 10
46.98536166494444
 20
5.067982745201164
 30
0.0
 10
46.66558323866252
 20
4.999999999999943
 30
0.0
  0
LINE
  5
493E8
330
1F
100
AcDbEntity
  8
AM_0
100
AcDbLine
 10
33.14945046032256
 20
24.40219782624178
 30
0.0
 11
39.03304170843467
 21
16.49688211657141
 31
0.0
  0
LINE
  5
493EE
330
1F
100
AcDbEntity
  8
AM_0
100
AcDbLine
 10
12.76416313592051
 20
1.445569519254264
 30
0.0
 11
24.3521837683287
 21
2.844987214290143
 31
0.0
  0
ELLIPSE
  5
493EF
330
1F
100
AcDbEntity
  8
AM_0
100
AcDbEllipse
 10
139.2222001710915
 20
3.999999999999943
 30
0.0
 11
119.0540888875808
 21
-2.192457507238239
 31
0.0
210
0.0
220
0.0
230
0.9999999999999999
 40
0.1033666574631228
 41
2.875470212551988
 42
2.922990146133327
  0
ARC
  5
493F0
330
1F
100
AcDbEntity
  8
AM_0
100
AcDbCircle
 10
14.87399216009374
 20
27.42327542040451
 30
0.0
 40
20.43726609147898
100
AcDbArc
 50
297.8412230280572
 51
317.8289468582669
  0
ELLIPSE
  5
493F1
330
1F
100
AcDbEntity
  8
AM_0
100
AcDbEllipse
 10
48.74128907362353
 20
3.999999999999943
 30
0.0
 11
20.12797452066088
 21
-7.624088198220033
 31
0.0
210
0.0
220
0.0
230
1.0
 40
0.4921369264773571
 41
2.249100534973735
 42
2.908907755535435
  0
LINE
  5
493F2
330
1F
100
AcDbEntity
  8
AM_0
100
AcDbLine
 10
39.03304170843467
 20
16.49688211657139
 30
0.0
 11
39.92124899679902
 21
16.49688211657139
 31
0.0
  0
LINE
  5
493F3
330
1F
100
AcDbEntity
  8
AM_0
100
AcDbLine
 10
39.92124899679902
 20
4.999999999999943
 30
0.0
 11
28.99999999999989
 21
4.999999999999943
 31
0.0
  0
LINE
  5
493F4
330
1F
100
AcDbEntity
  8
AM_0
100
AcDbLine
 10
28.99999999999989
 20
4.498928012332243
 30
0.0
 11
27.99999999999989
 21
4.498928012332243
 31
0.0
  0
LINE
  5
493F5
330
1F
100
AcDbEntity
  8
AM_0
100
AcDbLine
 10
27.23835847639464
 20
3.161646212422369
 30
0.0
 11
28.0008564536522
 21
4.498439496878831
 31
0.0
  0
LINE
  5
493F6
330
1F
100
AcDbEntity
  8
AM_0
100
AcDbLine
 10
24.35056994561967
 20
2.858337537663317
 30
0.0
 11
27.23768797925391
 21
3.161929686955574
 31
0.0
  0
ELLIPSE
  5
493F7
330
1F
100
AcDbEntity
  8
AM_0
100
AcDbEllipse
 10
139.2222001710915
 20
3.999999999999943
 30
0.0
 11
119.0540888875808
 21
-2.192457507238239
 31
0.0
210
0.0
220
0.0
230
0.9999999999999999
 40
0.1033666574631228
 41
3.033889551855747
 42
3.409353566352766
  0
LINE
  5
49400
330
1F
100
AcDbEntity
  8
AM_0
100
AcDbLine
 10
27.99999999999989
 20
4.249999999999943
 30
0.0
 11
27.23767690783336
 21
2.929617672584527
 31
0.0
  0
LINE
  5
49401
330
1F
100
AcDbEntity
  8
AM_0
100
AcDbLine
 10
27.99999999999989
 20
4.249999999999943
 30
0.0
 11
28.99999999999989
 21
4.249999999999943
 31
0.0
  0
LINE
  5
49404
330
1F
100
AcDbEntity
  8
AM_0
100
AcDbLine
 10
27.23767690783336
 20
2.929617672584527
 30
0.0
 11
12.87806081724011
 21
1.420361204673981
 31
0.0
  0
LINE
  5
4940C
330
1F
100
AcDbEntity
  8
AM_0
100
AcDbLine
 10
27.99999999999989
 20
4.249999999999943
 30
0.0
 11
27.99999999999989
 21
4.498928012332272
 31
0.0
  0
LINE
  5
4940D
330
1F
100
AcDbEntity
  8
AM_0
100
AcDbLine
 10
28.99999999999989
 20
4.498928012332243
 30
0.0
 11
28.99999999999989
 21
4.249999999999915
 31
0.0
  0
ARC
  5
4940E
330
1F
100
AcDbEntity
  8
AM_0
100
AcDbCircle
 10
39.92124899679902
 20
3.999999999999972
 30
0.0
 40
12.49688211657144
100
AcDbArc
 50
63.64181809859262
 51
90.0
  0
LINE
  5
4940F
330
1F
100
AcDbEntity
  8
AM_0
100
AcDbLine
 10
46.66558323866252
 20
4.999999999999943
 30
0.0
 11
39.92124899679902
 21
4.999999999999943
 31
0.0
  0
LINE
  5
49416
330
1F
100
AcDbEntity
  8
AM_0
100
AcDbLine
 10
27.23767690783336
 20
2.929617672584527
 30
0.0
 11
27.23767690783336
 21
3.162034974585822
 31
0.0
  0
LINE
  5
49418
330
1F
100
AcDbEntity
  8
AM_0
100
AcDbLine
 10
28.99999999999989
 20
4.999999999999943
 30
0.0
 11
28.99999999999989
 21
4.498928012332272
 31
0.0
  0
ARC
  5
4943C
330
1F
100
AcDbEntity
  8
AM_0
100
AcDbCircle
 10
-84.32488699240696
 20
20.00000000000003
 30
0.0
 40
19.24999999999999
100
AcDbArc
 50
246.7402043396544
 51
246.857172419174
  0
LINE
  5
4943D
330
1F
100
AcDbEntity
  8
AM_0
100
AcDbLine
 10
-69.32488699240696
 20
15.19765682192531
 30
0.0
 11
-69.32488699240696
 21
14.43223563717004
 31
0.0
  0
ARC
  5
4943E
330
1F
100
AcDbEntity
  8
AM_0
100
AcDbCircle
 10
-84.32488699240696
 20
18.25000000000003
 30
0.0
 40
17.5
100
AcDbArc
 50
90.0
 51
149.7414535867814
  0
ARC
  5
4943F
330
1F
100
AcDbEntity
  8
AM_0
100
AcDbCircle
 10
-66.8457143495549
 20
33.00000000000003
 30
0.0
 40
12.5
100
AcDbArc
 50
171.287777702095
 51
198.8474364808699
  0
LINE
  5
49440
330
1F
100
AcDbEntity
  8
AM_0
100
AcDbLine
 10
-91.92672995564419
 20
2.314568606836929
 30
0.0
 11
-91.47979635328591
 21
4.723623140966254
 31
0.0
  0
LINE
  5
49441
330
1F
100
AcDbEntity
  8
AM_0
100
AcDbLine
 10
-89.80045940762591
 20
13.7755589585571
 30
0.0
 11
-89.74296621653627
 21
14.08545786064349
 31
0.0
  0
ARC
  5
49442
330
1F
100
AcDbEntity
  8
AM_0
100
AcDbCircle
 10
-84.32488699240696
 20
20.00000000000003
 30
0.0
 40
19.24999999999999
100
AcDbArc
 50
204.6199773286554
 51
246.7402043396544
  0
ARC
  5
49443
330
1F
100
AcDbEntity
  8
AM_0
100
AcDbCircle
 10
-84.32488699240696
 20
18.25000000000003
 30
0.0
 40
17.5
100
AcDbArc
 50
149.7414535867814
 51
180.0
  0
LINE
  5
49444
330
1F
100
AcDbEntity
  8
AM_0
100
AcDbLine
 10
-79.74429089921944
 20
26.0
 30
0.0
 11
-99.44069313721332
 21
27.06829941613657
 31
0.0
  0
ARC
  5
49445
330
1F
100
AcDbEntity
  8
AM_0
100
AcDbCircle
 10
-84.32498640036476
 20
19.99990270466452
 30
0.0
 40
15.7501243407558
100
AcDbArc
 50
17.75301698478437
 51
71.01630003401444
  0
ARC
  5
49446
330
1F
100
AcDbEntity
  8
AM_0
100
AcDbCircle
 10
-84.32488699240696
 20
20.00000000000003
 30
0.0
 40
15.75
100
AcDbArc
 50
71.0165268569101
 51
90.0
  0
LINE
  5
49447
330
1F
100
AcDbEntity
  8
AM_0
100
AcDbLine
 10
-79.52254381433215
 20
5.0
 30
0.0
 11
-78.75712262957688
 21
5.0
 31
0.0
  0
ARC
  5
49448
330
1F
100
AcDbEntity
  8
AM_0
100
AcDbCircle
 10
-84.3251847382918
 20
20.00029774588481
 30
0.0
 40
15.75037435458871
100
AcDbArc
 50
287.7534914514745
 51
342.2465085485255
  0
LINE
  5
49449
330
1F
100
AcDbEntity
  8
AM_0
100
AcDbLine
 10
-69.32488699240696
 20
25.56776436282996
 30
0.0
 11
-69.32488699240696
 21
24.80234317807467
 31
0.0
  0
LINE
  5
4944A
330
1F
100
AcDbEntity
  8
AM_0
100
AcDbLine
 10
-87.69816582228771
 20
35.42180799845713
 30
0.0
 11
-87.65811480547939
 21
35.64894860194002
 31
0.0
  0
LINE
  5
4944B
330
1F
100
AcDbEntity
  8
AM_0
100
AcDbLine
 10
-75.88731217688962
 20
33.29924175404557
 30
0.0
 11
-75.84042176933292
 21
33.56517046993685
 31
0.0
  0
ARC
  5
4944C
330
1F
100
AcDbEntity
  8
AM_0
100
AcDbCircle
 10
-84.32488699240696
 20
20.00000000000006
 30
0.0
 40
15.99999999999997
100
AcDbArc
 50
57.97568716295761
 51
102.0243128370437
  0
LINE
  5
4944D
330
1F
100
AcDbEntity
  8
AM_0
100
AcDbLine
 10
-89.74296621653627
 20
14.08545786064349
 30
0.0
 11
-82.20123079626899
 21
12.7566408794566
 31
0.0
  0
ARC
  5
4944E
330
1F
100
AcDbEntity
  8
AM_0
100
AcDbCircle
 10
-66.8457143495549
 20
33.00000000000003
 30
0.0
 40
12.5
100
AcDbArc
 50
224.7528964152886
 51
226.0909721545988
  0
LINE
  5
4944F
330
1F
100
AcDbEntity
  8
AM_0
100
AcDbLine
 10
-69.32488699240696
 20
24.40219782624183
 30
0.0
 11
-69.32488699240696
 21
16.4968821165715
 31
0.0
  0
ARC
  5
49450
330
1F
100
AcDbEntity
  8
AM_0
100
AcDbCircle
 10
-66.84569163550134
 20
33.00001567399741
 30
0.0
 40
12.50002716566885
100
AcDbArc
 50
204.4629213516763
 51
224.7528741343455
  0
LINE
  5
49451
330
1F
100
AcDbEntity
  8
AM_0
100
AcDbLine
 10
-81.27139727624592
 20
13.29963411766607
 30
0.0
 11
-82.20123079626899
 21
12.75664087945648
 31
0.0
  0
LINE
  5
49452
330
1F
100
AcDbEntity
  8
AM_0
100
AcDbLine
 10
-82.20123079626899
 20
12.7566408794566
 30
0.0
 11
-79.74429089921944
 21
26.00000000000003
 31
0.0
  0
LINE
  5
49453
330
1F
100
AcDbEntity
  8
AM_0
100
AcDbLine
 10
-79.74429089921944
 20
26.00000000000003
 30
0.0
 11
-78.67549090697605
 21
28.96188328530602
 31
0.0
  0
ARC
  5
49454
330
1F
100
AcDbEntity
  8
AM_0
100
AcDbCircle
 10
-66.8457143495549
 20
33.00000000000003
 30
0.0
 40
12.5
100
AcDbArc
 50
198.8474364808699
 51
204.4628990707379
  0
LINE
  5
49455
330
1F
100
AcDbEntity
  8
AM_0
100
AcDbLine
 10
-82.68016677291155
 20
1.719960824700763
 30
0.0
 11
-81.48990507626547
 21
2.854690331584209
 31
0.0
  0
ARC
  5
49456
330
1F
100
AcDbEntity
  8
AM_0
100
AcDbCircle
 10
-69.04571434955494
 20
4.000000000000028
 30
0.0
 40
12.5
100
AcDbArc
 50
154.6505686649287
 51
157.3732603018834
  0
ARC
  5
49457
330
1F
100
AcDbEntity
  8
AM_0
100
AcDbCircle
 10
-69.04517901002225
 20
3.9995797456655
 30
0.0
 40
12.50066372119844
100
AcDbArc
 50
129.0845987888958
 51
154.6498784456178
  0
ARC
  5
49458
330
1F
100
AcDbEntity
  8
AM_0
100
AcDbCircle
 10
-69.04571434955494
 20
4.000000000000028
 30
0.0
 40
12.5
100
AcDbArc
 50
91.2797395391424
 51
129.0839085695872
  0
ARC
  5
49459
330
1F
100
AcDbEntity
  8
AM_0
100
AcDbCircle
 10
-69.04571434955494
 20
4.000000000000028
 30
0.0
 40
12.5
100
AcDbArc
 50
163.7273282002866
 51
185.2398315900032
  0
ARC
  5
4945A
330
1F
100
AcDbEntity
  8
AM_0
100
AcDbCircle
 10
-95.49858504053043
 20
14.51931053832161
 30
0.0
 40
15.82767907354735
100
AcDbArc
 50
344.7810312314214
 51
2.133652377216233
  0
LINE
  5
4945B
330
1F
100
AcDbEntity
  8
AM_0
100
AcDbLine
 10
-81.05441780876902
 20
7.505962601684416
 30
0.0
 11
-80.59194974596392
 21
8.812033682772324
 31
0.0
  0
LINE
  5
4945C
330
1F
100
AcDbEntity
  8
AM_0
100
AcDbLine
 10
-101.824886992407
 20
11.98049253382732
 30
0.0
 11
-101.824886992407
 21
18.25
 31
0.0
  0
ARC
  5
4945D
330
1F
100
AcDbEntity
  8
AM_0
100
AcDbCircle
 10
-84.32488699240696
 20
20.00000000000003
 30
0.0
 40
16.0
100
AcDbArc
 50
290.3641348063165
 51
339.6358651936835
  0
LINE
  5
4945E
330
1F
100
AcDbEntity
  8
AM_0
100
AcDbLine
 10
-69.32488699240696
 20
24.80234317807464
 30
0.0
 11
-69.32488699240696
 21
24.40219782624183
 31
0.0
  0
LINE
  5
4945F
330
1F
100
AcDbEntity
  8
AM_0
100
AcDbLine
 10
-69.32488699240696
 20
16.49688211657144
 30
0.0
 11
-69.32488699240696
 21
15.19765682192536
 31
0.0
  0
LINE
  5
49460
330
1F
100
AcDbEntity
  8
AM_0
100
AcDbLine
 10
-79.52254381433238
 20
5.0
 30
0.0
 11
-81.50565014393203
 21
5.0
 31
0.0
  0
ARC
  5
49461
330
1F
100
AcDbEntity
  8
AM_0
100
AcDbCircle
 10
-84.32488699240696
 20
20.00000000000003
 30
0.0
 40
16.0
100
AcDbArc
 50
102.0243128370437
 51
122.5806898697724
  0
ARC
  5
49462
330
1F
100
AcDbEntity
  8
AM_0
100
AcDbCircle
 10
-84.32488699240696
 20
20.00000000000003
 30
0.0
 40
16.0
100
AcDbArc
 50
20.3641348063165
 51
57.97568716295761
  0
ELLIPSE
  5
49463
330
1F
100
AcDbEntity
  8
AM_0
100
AcDbEllipse
 10
-69.20166919790188
 20
34.20170414417584
 30
0.0
 11
5.50242575176055
 21
10.78756921190663
 31
0.0
210
0.0
220
0.0
230
0.9999999999999999
 40
0.5210760259653821
 41
2.984733677957088
 42
3.900653325531763
  0
ELLIPSE
  5
49464
330
1F
100
AcDbEntity
  8
AM_0
100
AcDbEllipse
 10
-80.46430912519566
 20
11.35264894518264
 30
0.0
 11
0.6940889284919053
 21
3.939319809224043
 31
0.0
210
0.0
220
0.0
230
1.0
 40
0.1044201298677815
 41
4.029004132060299
 42
4.477254400046395
  0
ELLIPSE
  5
49465
330
1F
100
AcDbEntity
  8
AM_0
100
AcDbEllipse
 10
-80.46430912519566
 20
11.35264894518264
 30
0.0
 11
0.6940889284919053
 21
3.939319809224043
 31
0.0
210
0.0
220
0.0
230
1.0
 40
0.1044201298677815
 41
5.994721111919579
 42
9.657263242379276
  0
ELLIPSE
  5
49466
330
1F
100
AcDbEntity
  8
AM_0
100
AcDbEllipse
 10
-80.9761284073785
 20
13.477185119833
 30
0.0
 11
0.4338055803074407
 21
2.462074880765026
 31
0.0
210
0.0
220
0.0
230
1.0
 40
0.1044201298677815
 41
4.70504386322656
 42
7.94454267290473
  0
LINE
  5
49467
330
1F
100
AcDbEntity
  8
AM_0
100
AcDbLine
 10
-80.44961088838147
 20
12.87369857469531
 30
0.0
 11
-80.27167615951828
 21
12.8412791763418
 31
0.0
  0
LINE
  5
49468
330
1F
100
AcDbEntity
  8
AM_0
100
AcDbLine
 10
-80.27167615951828
 20
12.8412791763418
 30
0.0
 11
-80.44985597263656
 21
12.8726735899856
 31
0.0
  0
LINE
  5
49469
330
1F
100
AcDbEntity
  8
AM_0
100
AcDbLine
 10
-80.27167615951828
 20
12.8412791763418
 30
0.0
 11
-80.44308578168887
 21
11.34784132825649
 31
0.0
  0
LINE
  5
4946A
330
1F
100
AcDbEntity
  8
AM_0
100
AcDbLine
 10
-80.44308578168887
 20
11.34784132825649
 30
0.0
 11
-80.79919557733899
 21
11.41058613661392
 31
0.0
  0
LINE
  5
4946B
330
1F
100
AcDbEntity
  8
AM_0
100
AcDbLine
 10
-80.44308578168887
 20
11.34784132825649
 30
0.0
 11
-80.79243013272242
 21
9.886822878524697
 31
0.0
  0
LINE
  5
4946C
330
1F
100
AcDbEntity
  8
AM_0
100
AcDbLine
 10
-80.79243013272242
 20
9.886822878524697
 30
0.0
 11
-80.97036486158561
 21
9.919242276878208
 31
0.0
  0
LINE
  5
4946D
330
1F
100
AcDbEntity
  8
AM_0
100
AcDbLine
 10
-80.97036486158561
 20
9.919242276878208
 30
0.0
 11
-80.79895523941525
 21
11.41268012496346
 31
0.0
  0
LINE
  5
4946E
330
1F
100
AcDbEntity
  8
AM_0
100
AcDbLine
 10
-80.79895523941525
 20
11.41268012496352
 30
0.0
 11
-80.44961088838147
 21
12.87369857469531
 31
0.0
  0
LINE
  5
4946F
330
1F
100
AcDbEntity
  8
AM_0
100
AcDbLine
 10
-79.97925935941441
 20
14.80145554300833
 30
0.0
 11
-80.03687716894967
 21
14.88469256681088
 31
0.0
  0
LINE
  5
49470
330
1F
100
AcDbEntity
  8
AM_0
100
AcDbLine
 10
-81.18720139360096
 20
7.945749035768017
 30
0.0
 11
-81.26979819462156
 21
7.887217142168879
 31
0.0
  0
ELLIPSE
  5
49471
330
1F
100
AcDbEntity
  8
AM_0
100
AcDbEllipse
 10
-80.62102051055206
 20
11.38026072661
 30
0.0
 11
0.6073278124304179
 21
3.446904833071039
 31
0.0
210
0.0
220
0.0
230
0.9999999999999999
 40
0.1044201298677755
 41
3.007346325797339
 42
6.417431634971917
  0
LINE
  5
49472
330
1F
100
AcDbEntity
  8
AM_0
100
AcDbLine
 10
-89.96345103187571
 20
13.05500859325701
 30
0.0
 11
-90.94012515631664
 21
7.7905549575583
 31
0.0
  0
LINE
  5
49473
330
1F
100
AcDbEntity
  8
AM_0
100
AcDbLine
 10
-90.91326249981319
 20
7.781702776856889
 30
0.0
 11
-88.77219414845911
 21
2.315983176557097
 31
0.0
  0
ELLIPSE
  5
49474
330
1F
100
AcDbEntity
  8
AM_0
100
AcDbEllipse
 10
-96.99831626278353
 20
3.660382338556644
 30
0.0
 11
-8.249285220492601
 21
1.637191657900204
 31
0.0
210
0.0
220
0.0
230
1.0
 40
0.2447011224355264
 41
3.219228755898256
 42
3.2793872697889
  0
LINE
  5
49475
330
1F
100
AcDbEntity
  8
AM_0
100
AcDbLine
 10
-91.82758155221052
 20
2.74857165128293
 30
0.0
 11
-90.9397638098493
 21
7.790435882537224
 31
0.0
  0
LINE
  5
49476
330
1F
100
AcDbEntity
  8
AM_0
100
AcDbLine
 10
-90.94012515175439
 20
7.790554971403026
 30
0.0
 11
-90.91326249524525
 21
7.781702790718441
 31
0.0
  0
LINE
  5
49477
330
1F
100
AcDbEntity
  8
AM_0
100
AcDbLine
 10
-91.88181387591828
 20
1.994282455051348
 30
0.0
 11
-88.92287529194016
 21
1.030755643704481
 31
0.0
  0
ELLIPSE
  5
49478
330
1F
100
AcDbEntity
  8
AM_0
100
AcDbEllipse
 10
-89.85845083112451
 20
12.93150465501429
 30
0.0
 11
0.2082266785475577
 21
1.181795942767216
 31
0.0
210
0.0
220
0.0
230
1.0
 40
0.1044201298677794
 41
0.2701194673039918
 42
1.484513885733306
  0
ELLIPSE
  5
49479
330
1F
100
AcDbEntity
  8
AM_0
100
AcDbEllipse
 10
-91.75000919786532
 20
2.735656242808886
 30
0.0
 11
0.1306761478400578
 21
0.7416558839195433
 31
0.0
210
0.0
220
0.0
230
1.0
 40
0.1044201298677794
 41
1.571780348335482
 42
3.126836159076895
  0
LINE
  5
4947A
330
1F
100
AcDbEntity
  8
AM_0
100
AcDbLine
 10
-84.17244418135385
 20
0.8684114744865497
 30
0.0
 11
-82.12402487688348
 21
11.90976926721635
 31
0.0
  0
LINE
  5
4947B
330
1F
100
AcDbEntity
  8
AM_0
100
AcDbLine
 10
-86.78618859123014
 20
12.85814154480357
 30
0.0
 11
-88.83460789570097
 21
1.689861971947494
 31
0.0
  0
LINE
  5
4947C
330
1F
100
AcDbEntity
  8
AM_0
100
AcDbLine
 10
-81.92299801947718
 20
12.61350882404588
 30
0.0
 11
-80.59604188321134
 21
13.38840905497676
 31
0.0
  0
LINE
  5
4947D
330
1F
100
AcDbEntity
  8
AM_0
100
AcDbLine
 10
-80.65706847294939
 20
12.51999758049027
 30
0.0
 11
-82.70548777741999
 21
1.478639787760471
 31
0.0
  0
LINE
  5
4947E
330
1F
100
AcDbEntity
  8
AM_0
100
AcDbLine
 10
-82.90651463482607
 20
0.774900230930939
 30
0.0
 11
-84.23347077109213
 21
0.0000000000000568
 31
0.0
  0
LINE
  5
4947F
330
1F
100
AcDbEntity
  8
AM_0
100
AcDbLine
 10
-84.24126183321835
 20
-0.0017884461867652
 30
0.0
 11
-88.90342554756523
 21
0.8196620512742356
 31
0.0
  0
LINE
  5
49480
330
1F
100
AcDbEntity
  8
AM_0
100
AcDbLine
 10
-80.58825082108513
 20
13.39019750116353
 30
0.0
 11
-81.23639797526005
 21
13.50439786709802
 31
0.0
  0
ELLIPSE
  5
49481
330
1F
100
AcDbEntity
  8
AM_0
100
AcDbEllipse
 10
-84.10244404751995
 20
0.7860755156580694
 30
0.0
 11
0.1388177856983802
 21
0.7878639618448092
 31
0.0
210
0.0
220
0.0
230
1.0
 40
0.1044201298677794
 41
1.48451388573578
 42
3.229843137730089
  0
ELLIPSE
  5
49482
330
1F
100
AcDbEntity
  8
AM_0
100
AcDbEllipse
 10
-88.76460776186684
 20
1.607526013119013
 30
0.0
 11
0.1388177856983717
 21
0.7878639618448109
 31
0.0
210
0.0
220
0.0
230
1.0
 40
0.1044201298677794
 41
1.484513885733314
 42
3.141592653587325
  0
ELLIPSE
  5
49483
330
1F
100
AcDbEntity
  8
AM_0
100
AcDbEllipse
 10
-82.05402474304935
 20
11.82743330838787
 30
0.0
 11
0.1388177856983802
 21
0.7878639618448092
 31
0.0
210
0.0
220
0.0
230
1.0
 40
0.1044201298677794
 41
0.0882504841403148
 42
1.484513885735784
  0
ELLIPSE
  5
49484
330
1F
100
AcDbEntity
  8
AM_0
100
AcDbEllipse
 10
-86.71618845739647
 20
12.77580558597316
 30
0.0
 11
0.1388177856983717
 21
0.7878639618448109
 31
0.0
210
0.0
220
0.0
230
1.0
 40
0.1044201298677794
 41
0.2987184009518131
 42
1.484513885733323
  0
ELLIPSE
  5
49485
330
1F
100
AcDbEntity
  8
AM_0
100
AcDbEllipse
 10
-80.72706860678352
 20
12.60233353931875
 30
0.0
 11
0.1388177856983802
 21
0.7878639618448092
 31
0.0
210
0.0
220
0.0
230
1.0
 40
0.1044201298677794
 41
4.626106539325577
 42
6.371435791319901
  0
ELLIPSE
  5
49486
330
1F
100
AcDbEntity
  8
AM_0
100
AcDbEllipse
 10
-82.77548791125389
 20
1.560975746588952
 30
0.0
 11
0.1388177856983802
 21
0.7878639618448092
 31
0.0
210
0.0
220
0.0
230
1.0
 40
0.1044201298677794
 41
3.229843137730092
 42
4.626106539325577
  0
ELLIPSE
  5
49487
330
1F
100
AcDbEntity
  8
AM_0
100
AcDbEllipse
 10
-82.41475632715162
 20
6.694204527488409
 30
0.0
 11
0.4476873588772761
 21
2.540861276949509
 31
0.0
210
0.0
220
0.0
230
1.0
 40
0.1044201298677794
 41
1.03580678214825
 42
7.318992089327836
  0
LINE
  5
49493
330
1F
100
AcDbEntity
  8
AM_0
100
AcDbLine
 10
46.66558323866252
 20
-92.31361007697768
 30
0.0
 11
54.99999999999989
 21
-92.31361007697768
 31
0.0
  0
LINE
  5
49499
330
1F
100
AcDbEntity
  8
AM_0
100
AcDbLine
 10
54.99999999999989
 20
-101.918296433127
 30
0.0
 11
28.99999999999989
 21
-101.918296433127
 31
0.0
  0
SPLINE
  5
4949A
330
1F
100
AcDbEntity
  8
AM_0
100
AcDbSpline
210
0.0
220
0.0
230
1.0
 70
     8
 71
     3
 72
    30
 73
    26
 74
     0
 42
0.0000000001
 43
0.0000000001
 40
6.544833743987055
 40
6.544833743987055
 40
6.544833743987055
 40
6.544833743987055
 40
9.044717138920742
 40
9.044717138920742
 40
11.74669498756605
 40
11.74669498756605
 40
12.84486832454355
 40
12.84486832454355
 40
13.94304166152105
 40
13.94304166152105
 40
15.04121499849854
 40
15.04121499849854
 40
16.13938833547604
 40
16.13938833547604
 40
17.23756167245355
 40
17.23756167245355
 40
18.33573500943104
 40
18.33573500943104
 40
19.43390834640854
 40
19.43390834640854
 40
20.53208168338605
 40
20.53208168338605
 40
23.23405953203135
 40
23.23405953203135
 40
24.37450954930239
 40
24.37450954930239
 40
24.37450954930239
 40
24.37450954930239
 10
45.46963113341076
 20
-82.11595325505232
 30
0.0
 10
46.23219155652464
 20
-82.23789595889986
 30
0.0
 10
46.94512657479731
 20
-82.40010159968904
 30
0.0
 10
48.27184562140371
 20
-82.85359969403476
 30
0.0
 10
48.87324250948814
 20
-83.15444519504439
 30
0.0
 10
49.55674144906573
 20
-83.69497982629287
 30
0.0
 10
49.74351349388269
 20
-83.87198219951171
 30
0.0
 10
50.07365438024829
 20
-84.26526918653349
 30
0.0
 10
50.21700518876344
 20
-84.48162246583001
 30
0.0
 10
50.44710534730984
 20
-84.94576615918226
 30
0.0
 10
50.53397555347112
 20
-85.19387329893675
 30
0.0
 10
50.64755930647982
 20
-85.70789654657159
 30
0.0
 10
50.67426645516287
 20
-85.97382291986469
 30
0.0
 10
50.67426645516287
 20
-86.50329622586253
 30
0.0
 10
50.64755930647982
 20
-86.78723086504022
 30
0.0
 10
50.53397555347112
 20
-87.37691645321416
 30
0.0
 10
50.44710534730984
 20
-87.68265985340287
 30
0.0
 10
50.21700518876344
 20
-88.29636536151281
 30
0.0
 10
50.07365438024829
 20
-88.60466056822293
 30
0.0
 10
49.74351349388269
 20
-89.20380551552734
 30
0.0
 10
49.55674144906573
 20
-89.49462226139326
 30
0.0
 10
48.87324250948814
 20
-90.43790671099418
 30
0.0
 10
48.27184562140371
 20
-91.07103811674705
 30
0.0
 10
47.29184596431651
 20
-91.87478728040657
 30
0.0
 10
46.98536166494444
 20
-92.10126765574591
 30
0.0
 10
46.66558323866252
 20
-92.31361007697768
 30
0.0
  0
LINE
  5
494A3
330
1F
100
AcDbEntity
  8
AM_0
100
AcDbLine
 10
12.76301431553679
 20
-95.76887237661941
 30
0.0
 11
24.35086213975535
 21
-94.28691307232566
 31
0.0
  0
ELLIPSE
  5
494A4
330
1F
100
AcDbEntity
  8
AM_0
100
AcDbEllipse
 10
139.2222001710915
 20
-81.83678061220036
 30
0.0
 11
119.0540976436319
 21
12.31439720876943
 31
0.0
210
0.0
220
0.0
230
1.0
 40
0.0180260166878645
 41
2.871702127048629
 42
2.919222060629965
  0
ARC
  5
494A5
330
1F
100
AcDbEntity
  8
AM_0
100
AcDbCircle
 10
22.64414387609708
 20
-83.92054228608424
 30
0.0
 40
9.382002851735395
100
AcDbArc
 50
280.9026538393553
 51
321.8384422369799
  0
ELLIPSE
  5
494A6
330
1F
100
AcDbEntity
  8
AM_0
100
AcDbEllipse
 10
48.74128907362353
 20
-81.83678061220036
 30
0.0
 11
20.32416390102836
 21
11.74073256390694
 31
0.0
210
0.0
220
0.0
230
1.0
 40
0.2110850951394083
 41
1.943464618537466
 42
2.603271839099166
  0
LINE
  5
494A8
330
1F
100
AcDbEntity
  8
AM_0
100
AcDbLine
 10
39.92124899679902
 20
-94.29671640657745
 30
0.0
 11
28.99999999999989
 21
-94.29671640657745
 31
0.0
  0
LINE
  5
494A9
330
1F
100
AcDbEntity
  8
AM_0
100
AcDbLine
 10
28.99999999999989
 20
-94.32681947677196
 30
0.0
 11
27.99999999999989
 21
-94.32681947677196
 31
0.0
  0
ARC
  5
494AA
330
1F
100
AcDbEntity
  8
AM_0
100
AcDbCircle
 10
27.71575550716176
 20
-90.24887360383423
 30
0.0
 40
4.087840196768815
100
AcDbArc
 50
263.283808843923
 51
273.9872307736036
  0
LINE
  5
494AB
330
1F
100
AcDbEntity
  8
AM_0
100
AcDbLine
 10
24.35055427443763
 20
-94.28514481562814
 30
0.0
 11
27.23767172760802
 21
-94.3092812113984
 31
0.0
  0
ELLIPSE
  5
494AC
330
1F
100
AcDbEntity
  8
AM_0
100
AcDbEllipse
 10
139.2222001710915
 20
-81.83678061220036
 30
0.0
 11
119.0540976436319
 21
12.31439720876943
 31
0.0
210
0.0
220
0.0
230
1.0
 40
0.0180260166878645
 41
3.030121466352405
 42
3.405585480849413
  0
SPLINE
  5
494AD
330
1F
100
AcDbEntity
  8
AM_0
100
AcDbSpline
210
0.0
220
0.0
230
1.0
 70
     8
 71
     3
 72
    23
 73
    19
 74
     0
 42
0.0000000001
 43
0.0000000001
 40
-2.908183872004421
 40
-2.908183872004421
 40
-2.908183872004421
 40
-2.908183872004421
 40
-2.264921517802165
 40
-2.264921517802165
 40
-1.509947678534775
 40
-1.509947678534775
 40
-0.7549738392673859
 40
-0.7549738392673859
 40
0.0
 40
0.0
 40
0.0
 40
0.7535681372630618
 40
0.7535681372630618
 40
1.507136274526124
 40
1.507136274526124
 40
2.260704411789186
 40
2.260704411789186
 40
2.908105251309837
 40
2.908105251309837
 40
2.908105251309837
 40
2.908105251309837
 10
21.09746814522464
 20
-92.4729455766614
 30
0.0
 10
21.30385798287909
 20
-92.46229025855467
 30
0.0
 10
21.51033427992036
 20
-92.45262619863212
 30
0.0
 10
21.9459450773843
 20
-92.43729670529632
 30
0.0
 10
22.17277380395683
 20
-92.43268087295797
 30
0.0
 10
22.59338011641842
 20
-92.43485202423227
 30
0.0
 10
22.78749881913848
 20
-92.44168649243949
 30
0.0
 10
23.13161446544211
 20
-92.46818375286483
 30
0.0
 10
23.28159564708301
 20
-92.48786439393319
 30
0.0
 10
23.40673674798893
 20
-92.51274244926691
 30
0.0
 10
23.53164484599176
 20
-92.53757418361505
 30
0.0
 10
23.64028490522935
 20
-92.56926957633476
 30
0.0
 10
23.81070728618363
 20
-92.64491536389261
 30
0.0
 10
23.87250979007899
 20
-92.6888489925779
 30
0.0
 10
23.94285978409823
 20
-92.78401575297761
 30
0.0
 10
23.95145966094026
 20
-92.83527951323669
 30
0.0
 10
23.91904074597653
 20
-92.9308544107941
 30
0.0
 10
23.88489231761366
 20
-92.97508902714827
 30
0.0
 10
23.83443479300161
 20
-93.01705464408104
 30
0.0
  0
ARC
  5
494AE
330
1F
100
AcDbEntity
  8
AM_0
100
AcDbCircle
 10
20.73415307910415
 20
-87.81386150335561
 30
0.0
 40
6.023979614632213
100
AcDbArc
 50
271.4093668588885
 51
292.6147420572455
  0
LINE
  5
494C1
330
1F
100
AcDbEntity
  8
AM_0
100
AcDbLine
 10
27.99999999999989
 20
-112.8659532550523
 30
0.0
 11
27.99999999999989
 21
-94.32681947677196
 31
0.0
  0
LINE
  5
494C4
330
1F
100
AcDbEntity
  8
AM_0
100
AcDbLine
 10
28.99999999999989
 20
-94.32681947677196
 30
0.0
 11
28.99999999999989
 21
-101.918296433127
 31
0.0
  0
ARC
  5
494C6
330
1F
100
AcDbEntity
  8
AM_0
100
AcDbCircle
 10
39.92124899679897
 20
-81.8367806122003
 30
0.0
 40
12.45993579437712
100
AcDbArc
 50
270.0
 51
302.7709270126712
  0
LINE
  5
494C8
330
1F
100
AcDbEntity
  8
AM_0
100
AcDbLine
 10
27.23767690783336
 20
-114.1863355824677
 30
0.0
 11
27.23767690783336
 21
-94.30866156962543
 31
0.0
  0
LINE
  5
494CA
330
1F
100
AcDbEntity
  8
AM_0
100
AcDbLine
 10
28.99999999999989
 20
-94.29671640657745
 30
0.0
 11
28.99999999999989
 21
-94.32681947677196
 31
0.0
  0
ELLIPSE
  5
494CB
330
1F
100
AcDbEntity
  8
AM_0
100
AcDbEllipse
 10
19.96576799295406
 20
-93.25537538784101
 30
0.0
 11
3.977459978478988
 21
0.4240425917262635
 31
0.0
210
0.0
220
0.0
230
1.0
 40
0.1725736339203728
 41
5.581404217002765
 42
6.02965448498886
  0
ELLIPSE
  5
494CC
330
1F
100
AcDbEntity
  8
AM_0
100
AcDbEllipse
 10
19.96576799295406
 20
-93.25537538784101
 30
0.0
 11
3.977459978478988
 21
0.4240425917262635
 31
0.0
210
0.0
220
0.0
230
1.0
 40
0.1725736339203728
 41
1.263935889682457
 42
4.926478020142158
  0
LINE
  5
494CE
330
1F
100
AcDbEntity
  8
AM_0
100
AcDbLine
 10
19.1220903374516
 20
-93.24067715102689
 30
0.0
 11
20.84467218307589
 21
-93.06274242216369
 31
0.0
  0
LINE
  5
494CF
330
1F
100
AcDbEntity
  8
AM_0
100
AcDbLine
 10
20.84467218307589
 20
-93.06274242216369
 30
0.0
 11
20.89781655545085
 21
-93.56122917403019
 31
0.0
  0
LINE
  5
494D0
330
1F
100
AcDbEntity
  8
AM_0
100
AcDbLine
 10
20.84467218307589
 20
-93.06274242216369
 30
0.0
 11
21.70505705935739
 21
-93.23415204433417
 31
0.0
  0
LINE
  5
494D1
330
1F
100
AcDbEntity
  8
AM_0
100
AcDbLine
 10
21.70505705935739
 20
-93.23415204433417
 30
0.0
 11
20.84286009001437
 21
-93.58349639536783
 31
0.0
  0
LINE
  5
494D2
330
1F
100
AcDbEntity
  8
AM_0
100
AcDbLine
 10
20.84286009001437
 20
-93.58349639536783
 30
0.0
 11
19.12027824439008
 21
-93.76143112423102
 31
0.0
  0
LINE
  5
494D3
330
1F
100
AcDbEntity
  8
AM_0
100
AcDbLine
 10
19.12027824439008
 20
-93.76143112423102
 30
0.0
 11
18.25989336810858
 21
-93.59002150206061
 31
0.0
  0
LINE
  5
494D4
330
1F
100
AcDbEntity
  8
AM_0
100
AcDbLine
 10
18.25989336810858
 20
-93.59002150206061
 30
0.0
 11
19.1220903374516
 21
-93.24067715102689
 31
0.0
  0
LINE
  5
494D5
330
1F
100
AcDbEntity
  8
AM_0
100
AcDbLine
 10
19.1220903374516
 20
-93.24067715102694
 30
0.0
 11
19.17698417748272
 21
-93.75557366389882
 31
0.0
  0
LINE
  5
494D6
330
1F
100
AcDbEntity
  8
AM_0
100
AcDbLine
 10
16.54481063827268
 20
-93.67215780647604
 30
0.0
 11
16.34145031587411
 21
-93.91628946047058
 31
0.0
  0
LINE
  5
494D7
330
1F
100
AcDbEntity
  8
AM_0
100
AcDbLine
 10
23.39770294989933
 20
-92.94156133728046
 30
0.0
 11
23.64796187648119
 21
-93.13733200636619
 31
0.0
  0
ELLIPSE
  5
494D8
330
1F
100
AcDbEntity
  8
AM_0
100
AcDbEllipse
 10
19.98247521373298
 20
-93.41208677319736
 30
0.0
 11
3.480277481169118
 21
0.3710372677604594
 31
0.0
210
0.0
220
0.0
230
0.9999999999999998
 40
0.172573633920373
 41
5.292640709195881
 42
5.706466867871759
  0
ELLIPSE
  5
494D9
330
1F
100
AcDbEntity
  8
AM_0
100
AcDbEllipse
 10
19.98247521373298
 20
-93.41208677319736
 30
0.0
 11
3.480277481169118
 21
0.3710372677604594
 31
0.0
210
0.0
220
0.0
230
0.9999999999999998
 40
0.172573633920373
 41
5.809517593895745
 42
9.898445674058248
  0
TEXT
  5
49DDA
330
1F
100
AcDbEntity
  8
AM_0
100
AcDbText
 10
21.71186275674279
 20
-171.6192913797273
 30
0.0
 40
5.0
  1
B32U-PCLNR1204-40
100
AcDbText
  0
DIMENSION
  5
4A03F
330
1F
100
AcDbEntity
  8
AM_5
100
AcDbDimension
  2
*D8
 10
-85.97026972480205
 20
-9.206429176545271
 30
0.0
 11
-87.5499206471749
 21
-18.16507473393898
 31
0.0
 70
   162
 71
     5
 42
0.174532925199431
  3
AM_JIS$2
100
AcDb2LineAngularDimension
 13
-84.32488699240696
 23
50.02220203806402
 33
0.0
 14
-84.32488699240696
 24
-10.02220203806394
 34
0.0
 15
-84.32488699240696
 25
0.1250000000000568
 35
0.0
 16
-85.40476604789966
 26
-18.41580734684893
 36
0.0
1001
ACAD
1000
DSTYLE
1002
{
1070
   179
1070
     0
1070
   271
1070
     0
1002
}
  0
DIMENSION
  5
4A0A9
330
1F
100
AcDbEntity
  8
AM_5
100
AcDbDimension
  2
*D9
 10
0.968953384614224
 20
11.9116910473407
 30
0.0
 11
-26.60277687907601
 21
28.95196964358684
 31
0.0
 70
    34
 71
     5
 42
1.6580627893946
  3
AM_JIS$2
100
AcDb2LineAngularDimension
 13
0.810262334759841
 23
0.0
 33
0.0
 14
-4.768325019972394
 24
0.0000000000000284
 34
0.0
 15
0.0029597478168171
 25
0.8703332546108413
 35
0.0
 16
-16.17105636370369
 26
32.05349815948232
 36
0.0
1001
ACAD
1000
DSTYLE
1002
{
1070
   179
1070
     0
1070
   271
1070
     0
1002
}
  0
DIMENSION
  5
4A0E4
330
1F
100
AcDbEntity
  8
AM_5
100
AcDbDimension
  2
*D10
 10
-16.47869887559534
 20
20.00000000000003
 30
0.0
 11
-19.87907289134338
 21
10.00000000000002
 31
0.0
 70
    32
 71
     5
 42
20.00000000000003
  3
AM_JIS$0
100
AcDbAlignedDimension
 13
0.0
 23
0.0
 33
0.0
 14
-5.796508955942841
 24
20.00000000000003
 34
0.0
 50
90.0
100
AcDbRotatedDimension
1001
ACAD
1000
DSTYLE
1002
{
1070
   179
1070
     0
1070
   271
1070
     0
1002
}
  0
DIMENSION
  5
4A115
330
1F
100
AcDbEntity
  8
AM_5
100
AcDbDimension
  2
*D11
 10
350.0
 20
-41.86127876388974
 30
0.0
 11
175.0
 21
-38.46127876388974
 31
0.0
 70
    32
 71
     5
 42
350.0
  3
AM_JIS$0
100
AcDbAlignedDimension
 13
0.0
 23
-3.739066776517575
 33
0.0
 14
350.0
 24
6.999999999999943
 34
0.0
100
AcDbRotatedDimension
1001
ACAD
1000
DSTYLE
1002
{
1070
   179
1070
     0
1070
   271
1070
     0
1002
}
  0
LINE
  5
4A14B
330
1F
100
AcDbEntity
  8
AM_0
100
AcDbLine
 10
348.0000000000001
 20
4.999999999999943
 30
0.0
 11
350.0
 21
6.999999999999943
 31
0.0
  0
DIMENSION
  5
4A19A
330
1F
100
AcDbEntity
  8
AM_5
100
AcDbDimension
  2
*D12
 10
196.6492685184622
 20
4.793615485646804
 30
0.0
 11
216.2590720641997
 21
48.17023684104022
 31
0.0
 70
   163
 71
     5
 42
32.00000000000003
  3
AM_JIS$3
100
AcDbDiametricDimension
 15
206.602332368682
 25
35.2063845143533
 35
0.0
 40
0.0
1001
ACAD
1000
DSTYLE
1002
{
1070
   179
1070
     0
1070
   271
1070
     0
1002
}
  0
ENDSEC
  0
SECTION
  2
OBJECTS
  0
DICTIONARY
  5
C
330
0
100
AcDbDictionary
281
     1
  3
ACAD_COLOR
350
454BB
  3
ACAD_GROUP
350
D
  3
ACAD_LAYOUT
350
1A
  3
ACAD_MATERIAL
350
454BA
  3
ACAD_MLINESTYLE
350
17
  3
ACAD_PLOTSETTINGS
350
19
  3
ACAD_PLOTSTYLENAME
350
E
  3
ACAD_TABLESTYLE
350
454BC
  3
AcAmCatalogState
350
45523
  3
ACDBHEADERROUNDTRIPXREC
350
4A41C
  3
AcDbVariableDictionary
350
30
  3
ACDMSYSVARMGR
350
454D6
  3
ACGREF_MASTER
350
454CE
  3
ACGREFACAD_MASTER
350
454F6
  3
AcmDictionary
350
4D
  3
ACME_BOM_MANAGER_NAME
350
36
  3
ACME_COMMAND_HISTORY
350
2F
  3
ACME_SCOPE_NAME
350
2E
  3
ACMESTATEMGR
350
3B
  3
AcmeSysVarManager
350
32
  3
AcmSystemVariableManager
350
6A
  3
AD_APPL
350
45501
  3
ADSYSVARMGR
350
45500
  3
AmdtNamedDwgMgr
350
454F1
  3
AMG
350
3F
  3
AMGSNAPSETTINGS
350
73
  3
AMI_MASTER
350
454F9
  3
ASE_INDEX_DICTIONARY
350
460A1
  3
AUTOCAD_ASSEMBLIES_PROJECT
350
45509
  3
Designer_Assemblies_SysVars
350
45504
  3
DWGPROPS
350
4A41F
  3
FILENAME
350
2927
  3
GREFAM_MODULE
350
454FA
  3
table_dic_data
350
1688
  3
ZWKSIZE
350
2929
  0
DICTIONARY
  5
46010
330
2
100
AcDbDictionary
280
     1
281
     1
  3
ACAD_LAYERSTATES
360
46011
  0
DICTIONARY
  5
165
330
1F
100
AcDbDictionary
280
     1
281
     1
  3
ACAD_SORTENTS
360
467B4
  0
DICTIONARY
  5
454BB
102
{ACAD_REACTORS
330
C
102
}
330
C
100
AcDbDictionary
281
     1
  0
DICTIONARY
  5
D
102
{ACAD_REACTORS
330
C
102
}
330
C
100
AcDbDictionary
281
     1
  0
DICTIONARY
  5
1A
102
{ACAD_REACTORS
330
C
102
}
330
C
100
AcDbDictionary
281
     1
  3
Model
350
22
  3
ﾚｲｱｳﾄ1
350
1E
  3
ﾚｲｱｳﾄ2
350
26
  0
DICTIONARY
  5
454BA
102
{ACAD_REACTORS
330
C
102
}
330
C
100
AcDbDictionary
281
     1
  0
DICTIONARY
  5
17
102
{ACAD_REACTORS
330
C
102
}
330
C
100
AcDbDictionary
281
     1
  3
Standard
350
18
  0
DICTIONARY
  5
19
102
{ACAD_REACTORS
330
C
102
}
330
C
100
AcDbDictionary
281
     1
  0
ACDBDICTIONARYWDFLT
  5
E
102
{ACAD_REACTORS
330
C
102
}
330
C
100
AcDbDictionary
281
     1
  3
Normal
350
F
100
AcDbDictionaryWithDefault
340
F
  0
DICTIONARY
  5
454BC
102
{ACAD_REACTORS
330
C
102
}
330
C
100
AcDbDictionary
281
     1
  3
Standard
350
454BD
  0
ACAD_PROXY_OBJECT
  5
45523
102
{ACAD_REACTORS
330
C
102
}
330
C
100
AcDbProxyObject
 90
      499
 91
      574
 95
       25
 70
     0
 93
      584
310
3FFFFFFFE00A028140298231D2E20A1A0A226991818182E4B34482AC8E746FA41B7C1A1C1B3A422AE4B34482AC8E746FA41B7C1A1C1B3CAABC7C040089685FF7F2ABC3A05C44CC7240
  0
DICTIONARY
  5
4A41C
102
{ACAD_REACTORS
330
C
102
}
330
C
100
AcDbDictionary
281
     1
  3
COLORDICT
350
4A41D
  3
MATERIALDICT
350
4A41E
  0
DICTIONARY
  5
30
102
{ACAD_REACTORS
330
C
102
}
330
C
100
AcDbDictionary
281
     1
  3
CTABLESTYLE
350
45C54
  3
HIDETEXT
350
4A41B
  3
INDEXCTL
350
4A41A
  0
ACAD_PROXY_OBJECT
  5
454D6
102
{ACAD_REACTORS
330
C
102
}
330
C
100
AcDbProxyObject
 90
      499
 91
      507
 95
       25
 70
     0
 93
      240
310
4C51A47A0000000000000000000000000000000000000000000000000000
330
454D7
330
454D8
330
454D9
330
454DA
330
454DB
330
454DC
330
454DD
330
454DE
330
454DF
330
454E0
330
454E1
330
454E2
330
454E3
330
454E4
330
454E5
330
454E6
330
454E7
330
454E8
330
454E9
330
454EA
330
454EB
330
454EC
330
454ED
330
454EE
330
454EF
330
454F0
 94
        0
  0
ACAD_PROXY_OBJECT
  5
454CE
102
{ACAD_REACTORS
330
C
102
}
330
C
100
AcDbProxyObject
 90
      499
 91
      538
 95
       25
 70
     0
 93
       34
310
0400004280
  0
ACAD_PROXY_OBJECT
  5
454F6
102
{ACAD_REACTORS
330
C
102
}
330
C
100
AcDbProxyObject
 90
      499
 91
      544
 95
       25
 70
     0
 93
      114
310
04000041C080000000000000000000
  0
DICTIONARY
  5
4D
102
{ACAD_REACTORS
330
C
102
}
330
C
100
AcDbDictionary
281
     1
  3
AcmBOMDATA
350
4E
  3
AcmStdDictionary
350
17E
  3
AMDTSECTSYM_ARROWCOLOR
350
45517
  0
ACAD_PROXY_OBJECT
  5
36
102
{ACAD_REACTORS
330
C
102
}
330
C
100
AcDbProxyObject
 90
      499
 91
      510
 95
       25
 70
     0
 93
       50
310
00010040400000
330
0
330
0
330
37
 94
        0
  0
ACAD_PROXY_OBJECT
  5
2F
102
{ACAD_REACTORS
330
C
102
}
330
C
100
AcDbProxyObject
 90
      499
 91
      505
 95
       25
 70
     0
 93
     6996
310
478050653454C4543548050C475249505F535452455443488050653454C4543548050C475249505F5354524554434840405184D5347202D20436F6D6D616E642043414E43454C4C45442E014311D4925417D4D514915510D210101461354D1C80B4810DBDB5B585B990810D05390D1531311510B8050C475249505F5354524
310
5544348404052D4D5347202D205050413A2020206465736B746F702E6172782046696C6556657273696F6E3A20392E322E302E34014191111151125510101461354D1C80B4810DBDB5B585B990810D05390D1531311510B8050644444544495440405184D5347202D20436F6D6D616E642043414E43454C4C45442E014194D
310
1531150D510301461354D1C80B4810DBDB5B585B990810D05390D1531311510B8052D4D5347202D205050413A2020206465736B746F702E6172782046696C6556657273696F6E3A20392E322E302E34014B5354D1C80B481414104E88080819195CDADD1BDC0B985C9E08119A5B1955995C9CDA5BDB8E880E4B8C8B8C0B8D0
310
050E414D4454524553455444424D4F4440805084E202D20554E444F014213880B4815539113C0504554E444F80504554E444F80505505552474540405184D5347202D20436F6D6D616E642043414E43454C4C45442E01415454D05591501014B5354D1C80B481414104E88080819195CDADD1BDC0B985C9E08119A5B195599
310
5C9CDA5BDB8E880E4B8C8B8C0B8D0050E414D4454524553455444424D4F4440805084E202D20554E444F014213880B4815539113C0504554E444F80504554E444F805055153415645404052D4D5347202D205050413A2020206465736B746F702E6172782046696C6556657273696F6E3A20392E322E302E34014390535115
310
149154D15511109353D1102014213880B4815539113C05084E202D20554E444F014115539113E014115539113E01419493D510551160142111493D411D153D3601411353D591601411693D3D3601415454D05591501014B5354D1C80B481414104E88080819195CDADD1BDC0B985C9E08119A5B1955995C9CDA5BDB8E880E4
310
B8C8B8C0B8D0050E414D4454524553455444424D4F4440805084E202D20554E444F014213880B4815539113C0504554E444F80504554E444F805055055524745404052D4D5347202D205050413A2020206465736B746F702E6172782046696C6556657273696F6E3A20392E322E302E340
  0
ACAD_PROXY_OBJECT
  5
2E
102
{ACAD_REACTORS
330
C
102
}
330
C
100
AcDbProxyObject
 90
      499
 91
      504
 95
       25
 70
     0
 93
      586
310
09000046408000000000000000001344E200000000000000000000000000000000000000000000000000000000000000000000000000000000000000000000000000000000AAA406AA80
360
33
360
34
360
35
360
37
360
6B
360
6C
360
454CF
360
454D0
360
454D1
360
454D2
360
454D3
360
454D4
360
454D7
360
454D8
360
454D9
360
454DA
360
454DB
360
454DC
360
454DD
360
454DE
360
454DF
360
454E0
360
454E1
360
454E2
360
454E3
360
454E4
360
454E5
360
454E6
360
454E7
360
454E8
360
454E9
360
454EA
360
454EB
360
454EC
360
454ED
360
454EE
360
454EF
360
454F0
360
454FC
360
454FD
360
454FE
360
454FF
360
45505
360
45506
360
45507
360
45508
360
4550D
360
4550E
360
4550F
360
45510
360
45511
360
45512
 94
        0
  0
ACAD_PROXY_OBJECT
  5
3B
102
{ACAD_REACTORS
330
C
102
}
330
C
100
AcDbProxyObject
 90
      499
 91
      515
 95
       25
 70
     0
 93
       50
310
09000042641280
  0
ACAD_PROXY_OBJECT
  5
32
102
{ACAD_REACTORS
330
C
102
}
330
C
100
AcDbProxyObject
 90
      499
 91
      507
 95
       25
 70
     0
 93
       48
310
903412000000
330
33
330
34
330
35
 94
        0
  0
ACAD_PROXY_OBJECT
  5
6A
102
{ACAD_REACTORS
330
C
102
}
330
C
100
AcDbProxyObject
 90
      499
 91
      507
 95
       25
 70
     0
 93
       40
310
90240E0000
330
6B
330
6C
 94
        0
  0
ACAD_PROXY_OBJECT
  5
45501
102
{ACAD_REACTORS
330
C
102
}
330
C
100
AcDbProxyObject
 90
      499
 91
      554
 95
       25
 70
     0
 93
       42
310
000900004040
330
454FC
 94
        0
  0
ACAD_PROXY_OBJECT
  5
45500
102
{ACAD_REACTORS
330
C
102
}
330
C
100
AcDbProxyObject
 90
      499
 91
      507
 95
       25
 70
     0
 93
        8
310
AA
  0
ACAD_PROXY_OBJECT
  5
454F1
102
{ACAD_REACTORS
330
C
102
}
330
C
100
AcDbProxyObject
 90
      499
 91
      543
 95
       25
 70
     0
 93
       42
310
000100005E80
330
454CF
 94
        0
  0
DICTIONARY
  5
3F
102
{ACAD_REACTORS
330
C
102
}
330
C
100
AcDbDictionary
281
     1
  3
AcMgSettings
350
40
  3
AMGLAYCFG
350
42
  0
DICTIONARY
  5
73
102
{ACAD_REACTORS
330
C
102
}
330
C
100
AcDbDictionary
281
     1
  3
DIMENSION
350
40811
  3
FEA
350
40812
  3
HATCH (1)
350
40813
  3
HATCH (2)
350
40814
  3
SYMBOLS
350
40815
  0
ACAD_PROXY_OBJECT
  5
454F9
102
{ACAD_REACTORS
330
C
102
}
330
C
100
AcDbProxyObject
 90
      499
 91
      547
 95
       25
 70
     0
 93
       34
310
0500004280
  0
DICTIONARY
  5
460A1
102
{ACAD_REACTORS
330
C
102
}
330
C
100
AcDbDictionary
281
     1
  3
ASEBlockHierarchyIndexRecord
350
460A2
1001
DCO15
1040
1562583380.593
  0
ACAD_PROXY_OBJECT
  5
45509
102
{ACAD_REACTORS
330
C
102
}
330
C
100
AcDbProxyObject
 90
      499
 91
      557
 95
       25
 70
     0
 93
       98
310
0900004E400000000000000000
330
45510
330
0
330
45511
330
0
330
0
330
0
330
0
330
0
 94
        0
  0
ACAD_PROXY_OBJECT
  5
45504
102
{ACAD_REACTORS
330
C
102
}
330
C
100
AcDbProxyObject
 90
      499
 91
      507
 95
       25
 70
     0
 93
       56
310
90441600000000
330
45505
330
45506
330
45507
330
45508
 94
        0
  0
XRECORD
  5
4A41F
102
{ACAD_REACTORS
330
C
102
}
330
C
100
AcDbXrecord
280
     1
  1
DWGPROPS COOKIE
  2

  3

  4

  6

  7

  8

  9

300
AmdtFileType=82
301
=
302
=
303
=
304
=
305
=
306
=
307
=
308
=
309
=
 40
0.0
 41
2451943.235431667
 42
2455478.200938947
  1

 90
        1
  0
DICTIONARY
  5
2927
102
{ACAD_REACTORS
330
C
102
}
330
C
100
AcDbDictionary
281
     1
  3
FILENAME
350
2928
  0
ACAD_PROXY_OBJECT
  5
454FA
102
{ACAD_REACTORS
330
C
102
}
330
C
100
AcDbProxyObject
 90
      499
 91
      548
 95
       25
 70
     0
 93
        8
310
05
  0
DICTIONARY
  5
1688
102
{ACAD_REACTORS
330
C
102
}
330
C
100
AcDbDictionary
281
     1
  3
input_data
350
168A
  3
table_data
350
1689
  0
DICTIONARY
  5
2929
102
{ACAD_REACTORS
330
C
102
}
330
C
100
AcDbDictionary
281
     1
  3
ZWKSIZE
350
292A
  0
DICTIONARY
  5
46011
102
{ACAD_REACTORS
330
46010
102
}
330
46010
100
AcDbDictionary
281
     1
  0
SORTENTSTABLE
  5
467B4
102
{ACAD_REACTORS
330
165
102
}
330
165
100
AcDbSortentsTable
330
1F
331
42D54
  5
42D54
331
4348E
  5
4348E
331
4349D
  5
4349D
331
4349E
  5
4349E
331
434DB
  5
434DB
331
434DC
  5
434DC
331
434DD
  5
434DD
331
43C6E
  5
43C6F
331
43C71
  5
43C7D
331
43C90
  5
43C98
331
43C98
  5
43D3D
331
43DE7
  5
43DF0
331
43DF0
  5
43E9A
331
449D3
  5
449E5
331
449E5
  5
449F9
331
449F8
  5
449FA
331
449FA
  5
449FD
331
449FC
  5
44A05
331
449FD
  5
44A7C
331
44A05
  5
44A85
331
46603
  5
46605
331
46613
  5
46617
331
4661A
  5
46620
331
46635
  5
4663B
331
46636
  5
4663C
331
46639
  5
4663F
331
4663B
  5
46641
331
4663D
  5
46643
331
467B2
  5
468F9
331
467B3
  5
449F7
331
467BF
  5
4691E
331
46BB4
  5
46BB4
331
46E21
  5
46E21
331
46E45
  5
46E45
331
46EA0
  5
46EA0
331
47659
  5
47659
331
4765A
  5
4765A
331
4765B
  5
4765B
331
4765C
  5
4765C
331
4765D
  5
4765D
331
4765E
  5
4765E
331
47661
  5
47661
331
47662
  5
47662
331
4766D
  5
4766F
331
4767B
  5
4767D
331
4767C
  5
4767E
331
4767F
  5
47682
331
47680
  5
47683
331
47682
  5
47685
331
47684
  5
47687
331
47685
  5
47688
331
4768D
  5
47690
331
4768F
  5
47693
331
47691
  5
47695
331
47692
  5
47696
331
47693
  5
47697
331
47694
  5
47698
331
47695
  5
47699
331
47696
  5
4769A
331
4769D
  5
476A1
331
4769F
  5
476A3
331
476A3
  5
476A7
331
476A4
  5
476A8
331
476A5
  5
476A9
331
476A6
  5
476AA
331
476A7
  5
476AB
331
476A8
  5
476AC
331
476A9
  5
476AD
331
476AA
  5
476AE
331
476AB
  5
476AF
331
476AC
  5
476B0
331
476AD
  5
476B1
331
476AE
  5
476B2
331
476AF
  5
476B3
331
476B0
  5
476B4
331
476B1
  5
476B5
331
476B2
  5
476B6
331
476B3
  5
476B7
331
476B4
  5
476B8
331
476B5
  5
476B9
331
476B6
  5
476BA
331
476B7
  5
476BB
331
478E1
  5
478E5
331
478E2
  5
478E6
331
478E3
  5
478E7
331
478E4
  5
478E8
331
478E5
  5
478E9
331
478E6
  5
478EA
331
478E7
  5
478EB
331
478E8
  5
478EC
331
478E9
  5
478ED
331
47935
  5
47939
331
47936
  5
4793A
331
47937
  5
4793B
331
47938
  5
4793C
331
47939
  5
4793D
331
4793A
  5
4793E
331
4793B
  5
4793F
331
4793C
  5
47940
331
4793F
  5
47943
331
47940
  5
47944
331
47941
  5
47945
331
47942
  5
47946
331
47943
  5
47947
331
47945
  5
47949
331
47946
  5
4794A
331
47949
  5
4794E
331
4794A
  5
4794F
331
4794D
  5
47954
331
4794F
  5
47956
331
47953
  5
4795B
331
47961
  5
47969
331
47962
  5
4796A
331
47965
  5
4796D
331
47967
  5
4796F
331
47969
  5
47971
331
4796A
  5
47972
331
4796B
  5
47973
331
4796C
  5
47974
331
47972
  5
4797A
331
47973
  5
4797B
331
47981
  5
47989
331
47982
  5
4798A
331
47983
  5
4798B
331
47984
  5
4798C
331
47985
  5
4798D
331
47986
  5
4798E
331
47987
  5
4798F
331
47988
  5
47990
331
47989
  5
47991
331
4798A
  5
47992
331
4798B
  5
47993
331
4798C
  5
47994
331
4798D
  5
47995
331
4798E
  5
47996
331
4798F
  5
4799E
331
47990
  5
479A4
331
47991
  5
479A8
331
47992
  5
479A9
331
47993
  5
479AA
331
47994
  5
479AB
331
47995
  5
479AC
331
47996
  5
479AD
331
479AA
  5
4766E
331
479AC
  5
4795A
331
479AE
  5
47953
331
479B3
  5
479B3
331
479B5
  5
479B5
331
479F9
  5
479F9
331
484A5
  5
484A5
331
484B3
  5
484B3
331
484B4
  5
484B4
331
484B5
  5
484B5
331
484B6
  5
484B6
331
484B7
  5
484B7
331
484B8
  5
484B8
331
484B9
  5
484B9
331
484BA
  5
484BA
331
484BF
  5
484BF
331
484C4
  5
484C4
331
484C5
  5
484C5
331
484C8
  5
484C8
331
484DA
  5
484DA
331
484E0
  5
484E0
331
484EC
  5
484EC
331
48565
  5
48565
331
48566
  5
48566
331
48573
  5
48573
331
48574
  5
48574
331
48577
  5
48577
331
48578
  5
48578
331
4857B
  5
4857B
331
48595
  5
48595
331
4859C
  5
4859C
331
493CF
  5
493CF
331
493D6
  5
493D6
331
493DA
  5
493DA
331
493E8
  5
493E8
331
493EE
  5
493EE
331
493EF
  5
493EF
331
493F0
  5
493F0
331
493F1
  5
493F1
331
493F2
  5
493F2
331
493F3
  5
493F3
331
493F4
  5
493F4
331
493F5
  5
493F5
331
493F6
  5
493F6
331
493F7
  5
493F7
331
49400
  5
49400
331
49401
  5
49401
331
49404
  5
49404
331
4940C
  5
4940C
331
4940D
  5
4940D
331
4940E
  5
4940E
331
4940F
  5
4940F
331
49416
  5
49416
331
49418
  5
49418
331
4943C
  5
4943C
331
4943D
  5
4943D
331
4943E
  5
4943E
331
4943F
  5
4943F
331
49440
  5
49440
331
49441
  5
49441
331
49442
  5
49442
331
49443
  5
49443
331
49444
  5
49444
331
49445
  5
49445
331
49446
  5
49446
331
49447
  5
49447
331
49448
  5
49448
331
49449
  5
49449
331
4944A
  5
4944A
331
4944B
  5
4944B
331
4944C
  5
4944C
331
4944D
  5
4944D
331
4944E
  5
4944E
331
4944F
  5
4944F
331
49450
  5
49450
331
49451
  5
49451
331
49452
  5
49452
331
49453
  5
49453
331
49454
  5
49454
331
49455
  5
49455
331
49456
  5
49456
331
49457
  5
49457
331
49458
  5
49458
331
49459
  5
49459
331
4945A
  5
4945A
331
4945B
  5
4945B
331
4945C
  5
4945C
331
4945D
  5
4945D
331
4945E
  5
4945E
331
4945F
  5
4945F
331
49460
  5
49460
331
49461
  5
49461
331
49462
  5
49462
331
49463
  5
49463
331
49464
  5
49464
331
49465
  5
49465
331
49466
  5
49466
331
49467
  5
49467
331
49468
  5
49468
331
49469
  5
49469
331
4946A
  5
4946A
331
4946B
  5
4946B
331
4946C
  5
4946C
331
4946D
  5
4946D
331
4946E
  5
4946E
331
4946F
  5
4946F
331
49470
  5
49470
331
49471
  5
49471
331
49472
  5
49472
331
49473
  5
49473
331
49474
  5
49474
331
49475
  5
49475
331
49476
  5
49476
331
49477
  5
49477
331
49478
  5
49478
331
49479
  5
49479
331
4947A
  5
4947A
331
4947B
  5
4947B
331
4947C
  5
4947C
331
4947D
  5
4947D
331
4947E
  5
4947E
331
4947F
  5
4947F
331
49480
  5
49480
331
49481
  5
49481
331
49482
  5
49482
331
49483
  5
49483
331
49484
  5
49484
331
49485
  5
49485
331
49486
  5
49486
331
49487
  5
49487
331
49493
  5
49493
331
49499
  5
49499
331
4949A
  5
4949A
331
494A3
  5
494A3
331
494A4
  5
494A4
331
494A5
  5
494A5
331
494A6
  5
494A6
331
494A8
  5
494A8
331
494A9
  5
494A9
331
494AA
  5
494AA
331
494AB
  5
494AB
331
494AC
  5
494AC
331
494AD
  5
494AD
331
494AE
  5
494AE
331
494C1
  5
494C1
331
494C4
  5
494C4
331
494C6
  5
494C6
331
494C8
  5
494C8
331
494CA
  5
494CA
331
494CB
  5
494CB
331
494CC
  5
494CC
331
494CE
  5
494CE
331
494CF
  5
494CF
331
494D0
  5
494D0
331
494D1
  5
494D1
331
494D2
  5
494D2
331
494D3
  5
494D3
331
494D4
  5
494D4
331
494D5
  5
494D5
331
494D6
  5
494D6
331
494D7
  5
494D7
331
494D8
  5
494D8
331
494D9
  5
494D9
331
49DDA
  5
49DDA
  0
LAYOUT
  5
22
102
{ACAD_REACTORS
330
1A
102
}
330
1A
100
AcDbPlotSettings
  1

  2
SII LP-1010 (C2 VR)2R
  4
User259
  6
AM_VIEW1
 40
5.789083480834961
 41
5.789041519165039
 42
5.7890625
 43
5.7890625
 44
419.9466552734375
 45
593.9366455078125
 46
0.0
 47
0.0
 48
0.0
 49
0.0
140
594.0
141
420.0
142
1.0
143
1.028482829705812
 70
 11952
 72
     1
 73
     1
 74
     4
  7
sei_cad.ctb
 75
     0
147
0.9723059745061965
148
0.0
149
0.0
100
AcDbLayout
  1
Model
 70
     1
 71
     0
 10
0.0
 20
0.0
 11
12.0
 21
9.0
 12
0.0
 22
0.0
 32
0.0
 14
0.0
 24
0.0
 34
0.0
 15
0.0
 25
0.0
 35
0.0
146
0.0
 13
0.0
 23
0.0
 33
0.0
 16
1.0
 26
0.0
 36
0.0
 17
0.0
 27
1.0
 37
0.0
 76
     0
330
1F
1001
ACAD_PSEXT
1000
SII LP-1010 (C2 VR)2R
1000
SII LP-1010 (C2 VR)2R
1000
133.153.16.130#9100
1000

1070
     0
  0
LAYOUT
  5
1E
102
{ACAD_REACTORS
330
1A
102
}
330
1A
100
AcDbPlotSettings
  1

  2
Canon LASER SHOT LBP-2030
  4

  6

 40
0.0
 41
0.0
 42
0.0
 43
0.0
 44
0.0
 45
0.0
 46
0.0
 47
0.0
 48
0.0
 49
0.0
140
0.0
141
0.0
142
1.0
143
1.0
 70
   688
 72
     0
 73
     0
 74
     5
  7
sei_cad.ctb
 75
    16
147
1.0
148
0.0
149
0.0
100
AcDbLayout
  1
ﾚｲｱｳﾄ1
 70
     1
 71
     1
 10
0.0
 20
0.0
 11
420.0
 21
297.0
 12
0.0
 22
0.0
 32
0.0
 14
1.000000000000000E+20
 24
1.000000000000000E+20
 34
1.000000000000000E+20
 15
-1.000000000000000E+20
 25
-1.000000000000000E+20
 35
-1.000000000000000E+20
146
0.0
 13
0.0
 23
0.0
 33
0.0
 16
1.0
 26
0.0
 36
0.0
 17
0.0
 27
1.0
 37
0.0
 76
     0
330
1B
  0
LAYOUT
  5
26
102
{ACAD_REACTORS
330
1A
102
}
330
1A
100
AcDbPlotSettings
  1

  2
Canon LASER SHOT LBP-2030
  4

  6

 40
0.0
 41
0.0
 42
0.0
 43
0.0
 44
0.0
 45
0.0
 46
0.0
 47
0.0
 48
0.0
 49
0.0
140
0.0
141
0.0
142
1.0
143
1.0
 70
   688
 72
     0
 73
     0
 74
     5
  7
sei_cad.ctb
 75
    16
147
1.0
148
0.0
149
0.0
100
AcDbLayout
  1
ﾚｲｱｳﾄ2
 70
     1
 71
     2
 10
0.0
 20
0.0
 11
12.0
 21
9.0
 12
0.0
 22
0.0
 32
0.0
 14
0.0
 24
0.0
 34
0.0
 15
0.0
 25
0.0
 35
0.0
146
0.0
 13
0.0
 23
0.0
 33
0.0
 16
1.0
 26
0.0
 36
0.0
 17
0.0
 27
1.0
 37
0.0
 76
     0
330
23
  0
MLINESTYLE
  5
18
102
{ACAD_REACTORS
330
17
102
}
330
17
100
AcDbMlineStyle
  2
STANDARD
 70
     0
  3

 62
   256
 51
90.0
 52
90.0
 71
     2
 49
0.5
 62
   256
  6
BYLAYER
 49
-0.5
 62
   256
  6
BYLAYER
  0
ACDBPLACEHOLDER
  5
F
102
{ACAD_REACTORS
330
E
102
}
330
E
  0
TABLESTYLE
  5
454BD
102
{ACAD_REACTORS
330
454BC
102
}
330
454BC
100
AcDbTableStyle
  3
Standard
 70
     0
 71
     8
 40
1.5
 41
1.5
280
     0
281
     0
  7
STANDARD
140
4.5
170
     2
 62
     0
 63
     7
283
     0
274
    -2
284
     1
 64
     0
275
    -2
285
     1
 65
     0
276
    -2
286
     1
 66
     0
277
    -2
287
     1
 67
     0
278
    -2
288
     1
 68
     0
279
    -2
289
     1
 69
     0
  7
STANDARD
140
6.0
170
     5
 62
     0
 63
     7
283
     0
274
    -2
284
     1
 64
     0
275
    -2
285
     1
 65
     0
276
    -2
286
     1
 66
     0
277
    -2
287
     1
 67
     0
278
    -2
288
     1
 68
     0
279
    -2
289
     1
 69
     0
  7
STANDARD
140
4.5
170
     5
 62
     0
 63
     7
283
     0
274
    -2
284
     1
 64
     0
275
    -2
285
     1
 65
     0
276
    -2
286
     1
 66
     0
277
    -2
287
     1
 67
     0
278
    -2
288
     1
 68
     0
279
    -2
289
     1
 69
     0
  0
XRECORD
  5
4A41D
102
{ACAD_REACTORS
330
4A41C
102
}
330
4A41C
100
AcDbXrecord
280
     1
340
454BB
  0
XRECORD
  5
4A41E
102
{ACAD_REACTORS
330
4A41C
102
}
330
4A41C
100
AcDbXrecord
280
     1
340
454BA
  0
DICTIONARYVAR
  5
45C54
102
{ACAD_REACTORS
330
30
102
}
330
30
100
DictionaryVariables
280
     0
  1
STANDARD
  0
DICTIONARYVAR
  5
4A41B
102
{ACAD_REACTORS
330
30
102
}
330
30
100
DictionaryVariables
280
     0
  1
0
  0
DICTIONARYVAR
  5
4A41A
102
{ACAD_REACTORS
330
30
102
}
330
30
100
DictionaryVariables
280
     0
  1
1
  0
ACAD_PROXY_OBJECT
  5
4E
102
{ACAD_REACTORS
330
4D
102
}
330
4D
100
AcDbProxyObject
 90
      499
 91
      520
 95
       25
 70
     0
 93
      118
310
405010040CA904C415CD5B075DD1B8
350
4F
 94
        0
  0
DICTIONARY
  5
17E
102
{ACAD_REACTORS
330
4D
102
}
330
4D
100
AcDbDictionary
281
     1
  3
ISO
350
46486
  3
JIS
350
17F
  0
XRECORD
  5
45517
102
{ACAD_REACTORS
330
4D
102
}
330
4D
100
AcDbXrecord
280
     1
 90
-1023410169
  0
ACAD_PROXY_OBJECT
  5
33
330
2E
100
AcDbProxyObject
 90
      499
 91
      508
 95
       25
 70
     0
 93
      156
310
00010143D050D351505391D5531054925390D490
330
2E
 94
        0
  0
ACAD_PROXY_OBJECT
  5
34
330
2E
100
AcDbProxyObject
 90
      499
 91
      508
 95
       25
 70
     0
 93
      148
310
000101439050D351531253915054925390D490
330
2E
 94
        0
  0
ACAD_PROXY_OBJECT
  5
35
330
2E
100
AcDbProxyObject
 90
      499
 91
      509
 95
       25
 70
     0
 93
      156
310
000101439050D35154D6535093D314D256915080
330
2E
 94
        0
  0
ACAD_PROXY_OBJECT
  5
37
330
2E
100
AcDbProxyObject
 90
      499
 91
      511
 95
       25
 70
     0
 93
       88
310
000101411093D34C402B00
330
2E
330
0
330
0
 94
        0
  0
ACAD_PROXY_OBJECT
  5
6B
330
2E
100
AcDbProxyObject
 90
      499
 91
      509
 95
       25
 70
     0
 93
      108
310
00010142505351D153D35054D4E0
330
2E
 94
        0
  0
ACAD_PROXY_OBJECT
  5
6C
330
2E
100
AcDbProxyObject
 90
      499
 91
      522
 95
       25
 70
     0
 93
      140
310
00010142105350D55494D511005034A49530
330
2E
 94
        0
  0
ACAD_PROXY_OBJECT
  5
454CF
330
2E
100
AcDbProxyObject
 90
      499
 91
      539
 95
       25
 70
     0
 93
      486
310
0001014124FEA55D00507392E322E302E32014124FEA55D00507392E322E302E324050100004157D554D15488AAD84FA0A7401404000000000000F83F8
330
2E
330
454D0
330
454D6
 94
        0
  0
ACAD_PROXY_OBJECT
  5
454D0
330
2E
100
AcDbProxyObject
 90
      499
 91
      540
 95
       25
 70
     0
 93
       56
310
000190240E0000
330
2E
330
454D1
330
454D3
 94
        0
  0
ACAD_PROXY_OBJECT
  5
454D1
330
2E
100
AcDbProxyObject
 90
      499
 91
      541
 95
       25
 70
     0
 93
       48
310
0001AA000000
330
2E
330
1E
330
454D2
330
0
 94
        0
  0
ACAD_PROXY_OBJECT
  5
454D2
330
2E
100
AcDbProxyObject
 90
      499
 91
      542
 95
       25
 70
     0
 93
       28
310
0001AAA0
330
2E
 94
        0
  0
ACAD_PROXY_OBJECT
  5
454D3
330
2E
100
AcDbProxyObject
 90
      499
 91
      541
 95
       25
 70
     0
 93
       48
310
0001AA000000
330
2E
330
26
330
454D4
330
0
 94
        0
  0
ACAD_PROXY_OBJECT
  5
454D4
330
2E
100
AcDbProxyObject
 90
      499
 91
      542
 95
       25
 70
     0
 93
       28
310
0001AAA0
330
2E
 94
        0
  0
ACAD_PROXY_OBJECT
  5
454D7
330
2E
100
AcDbProxyObject
 90
      499
 91
      509
 95
       25
 70
     0
 93
      108
310
000101421053521310D05310D010
330
2E
 94
        0
  0
ACAD_PROXY_OBJECT
  5
454D8
330
2E
100
AcDbProxyObject
 90
      499
 91
      509
 95
       25
 70
     0
 93
      124
310
00010142905354915554D15112535010
330
2E
 94
        0
  0
ACAD_PROXY_OBJECT
  5
454D9
330
2E
100
AcDbProxyObject
 90
      499
 91
      509
 95
       25
 70
     0
 93
      132
310
00010143105354D150D51253D391125360
330
2E
 94
        0
  0
ACAD_PROXY_OBJECT
  5
454DA
330
2E
100
AcDbProxyObject
 90
      499
 91
      509
 95
       25
 70
     0
 93
      124
310
00010142905355941093D49111549010
330
2E
 94
        0
  0
ACAD_PROXY_OBJECT
  5
454DB
330
2E
100
AcDbProxyObject
 90
      499
 91
      509
 95
       25
 70
     0
 93
      116
310
0001014290535115D1D0D3D313D4A0
330
2E
 94
        0
  0
ACAD_PROXY_OBJECT
  5
454DC
330
2E
100
AcDbProxyObject
 90
      499
 91
      509
 95
       25
 70
     0
 93
      148
310
00010143505355925155D49151949154D21010
330
2E
 94
        0
  0
ACAD_PROXY_OBJECT
  5
454DD
330
2E
100
AcDbProxyObject
 90
      499
 91
      509
 95
       25
 70
     0
 93
      172
310
00010144105350539393D51154149154D15495915010
330
2E
 94
        0
  0
ACAD_PROXY_OBJECT
  5
454DE
330
2E
100
AcDbProxyObject
 90
      499
 91
      509
 95
       25
 70
     0
 93
      172
310
00010144105350555513D11253505494905391D15010
330
2E
 94
        0
  0
ACAD_PROXY_OBJECT
  5
454DF
330
2E
100
AcDbProxyObject
 90
      499
 91
      509
 95
       25
 70
     0
 93
      124
310
00010142D05351561514915191125360
330
2E
 94
        0
  0
ACAD_PROXY_OBJECT
  5
454E0
330
2E
100
AcDbProxyObject
 90
      499
 91
      509
 95
       25
 70
     0
 93
      132
310
00010142D05355105410539393D5115010
330
2E
 94
        0
  0
ACAD_PROXY_OBJECT
  5
454E1
330
2E
100
AcDbProxyObject
 90
      499
 91
      509
 95
       25
 70
     0
 93
      108
310
00010142105350555513D0D31010
330
2E
 94
        0
  0
ACAD_PROXY_OBJECT
  5
454E2
330
2E
100
AcDbProxyObject
 90
      499
 91
      509
 95
       25
 70
     0
 93
      108
310
00010142105350D3119150551050
330
2E
 94
        0
  0
ACAD_PROXY_OBJECT
  5
454E3
330
2E
100
AcDbProxyObject
 90
      499
 91
      509
 95
       25
 70
     0
 93
      108
310
00010142105350D315925155D3F0
330
2E
 94
        0
  0
ACAD_PROXY_OBJECT
  5
454E4
330
2E
100
AcDbProxyObject
 90
      499
 91
      509
 95
       25
 70
     0
 93
      148
310
0001014350535212511156915493D112535010
330
2E
 94
        0
  0
ACAD_PROXY_OBJECT
  5
454E5
330
2E
100
AcDbProxyObject
 90
      499
 91
      509
 95
       25
 70
     0
 93
      124
310
00010142905352105510D21254D3D010
330
2E
 94
        0
  0
ACAD_PROXY_OBJECT
  5
454E6
330
2E
100
AcDbProxyObject
 90
      499
 91
      509
 95
       25
 70
     0
 93
      148
310
00010143905354D25391D31152105513105660
330
2E
 94
        0
  0
ACAD_PROXY_OBJECT
  5
454E7
330
2E
100
AcDbProxyObject
 90
      499
 91
      509
 95
       25
 70
     0
 93
      124
310
00010142D0535115D1D193111254D420
330
2E
 94
        0
  0
ACAD_PROXY_OBJECT
  5
454E8
330
2E
100
AcDbProxyObject
 90
      499
 91
      509
 95
       25
 70
     0
 93
      100
310
00010142105350555513D213A0
330
2E
 94
        0
  0
ACAD_PROXY_OBJECT
  5
454E9
330
2E
100
AcDbProxyObject
 90
      499
 91
      509
 95
       25
 70
     0
 93
      116
310
000101425053521390D3D553951010
330
2E
 94
        0
  0
ACAD_PROXY_OBJECT
  5
454EA
330
2E
100
AcDbProxyObject
 90
      499
 91
      509
 95
       25
 70
     0
 93
      108
310
0001014210535213941493D29010
330
2E
 94
        0
  0
ACAD_PROXY_OBJECT
  5
454EB
330
2E
100
AcDbProxyObject
 90
      499
 91
      509
 95
       25
 70
     0
 93
      108
310
0001014210535213951654115070
330
2E
 94
        0
  0
ACAD_PROXY_OBJECT
  5
454EC
330
2E
100
AcDbProxyObject
 90
      499
 91
      509
 95
       25
 70
     0
 93
      108
310
000101421053521395925155D0F0
330
2E
 94
        0
  0
ACAD_PROXY_OBJECT
  5
454ED
330
2E
100
AcDbProxyObject
 90
      499
 91
      509
 95
       25
 70
     0
 93
      140
310
00010143505354D150D51253D390D3D41660
330
2E
 94
        0
  0
ACAD_PROXY_OBJECT
  5
454EE
330
2E
100
AcDbProxyObject
 90
      499
 91
      509
 95
       25
 70
     0
 93
      108
310
00010142105350D3141493D29030
330
2E
 94
        0
  0
ACAD_PROXY_OBJECT
  5
454EF
330
2E
100
AcDbProxyObject
 90
      499
 91
      508
 95
       25
 70
     0
 93
      212
310
00010143905350555513D2105510D21493D500000000000002E400
330
2E
 94
        0
  0
ACAD_PROXY_OBJECT
  5
454F0
330
2E
100
AcDbProxyObject
 90
      499
 91
      509
 95
       25
 70
     0
 93
      156
310
00010143905350555513D2105510D21111551010
330
2E
 94
        0
  0
ACAD_PROXY_OBJECT
  5
454FC
330
2E
100
AcDbProxyObject
 90
      499
 91
      550
 95
       25
 70
     0
 93
      698
310
0001000000009AA6A9AA4051E4D6F6E204D61722030362030313A33343A353820323030362028555443290141CE4B8C8B8C0B8C80518467269204F63742030382031333A34393A323120323031300141CE4B8C8B8C0B8C80
330
2E
330
454FD
330
454FE
330
45500
330
0
 94
        0
  0
ACAD_PROXY_OBJECT
  5
454FD
330
2E
100
AcDbProxyObject
 90
      499
 91
      551
 95
       25
 70
     0
 93
       70
310
0001AAA80820000000
330
2E
330
454FD
330
454FD
 94
        0
  0
ACAD_PROXY_OBJECT
  5
454FE
330
2E
100
AcDbProxyObject
 90
      499
 91
      552
 95
       25
 70
     0
 93
       48
310
000100000000
330
2E
330
0
330
454FF
330
0
330
0
 94
        0
  0
ACAD_PROXY_OBJECT
  5
454FF
330
2E
100
AcDbProxyObject
 90
      499
 91
      553
 95
       25
 70
     0
 93
       40
310
000100AAAA
330
2E
330
0
 94
        0
  0
ACAD_PROXY_OBJECT
  5
45505
330
2E
100
AcDbProxyObject
 90
      499
 91
      522
 95
       25
 70
     0
 93
      180
310
00010143105050D3D35411119390535140504434F4D500
330
2E
 94
        0
  0
ACAD_PROXY_OBJECT
  5
45506
330
2E
100
AcDbProxyObject
 90
      499
 91
      522
 95
       25
 70
     0
 93
      212
310
0001014390505193D311115491119390535140506466F6C6465720
330
2E
 94
        0
  0
ACAD_PROXY_OBJECT
  5
45507
330
2E
100
AcDbProxyObject
 90
      499
 91
      522
 95
       25
 70
     0
 93
      180
310
00010143105050539393D1119390535140504284156290
330
2E
 94
        0
  0
ACAD_PROXY_OBJECT
  5
45508
330
2E
100
AcDbProxyObject
 90
      499
 91
      522
 95
       25
 70
     0
 93
      436
310
00010143905050D3D35415925155D31254D50052295BD96CA0A90B396CA0A894591A496CA0A8DB691A496CA0A89BA96CA0A95E28F95310
330
2E
 94
        0
  0
ACAD_PROXY_OBJECT
  5
4550D
330
2E
100
AcDbProxyObject
 90
      499
 91
      558
 95
       25
 70
     0
 93
       32
310
00010000
330
2E
340
4550A
330
4550F
330
4550A
 94
        0
  0
ACAD_PROXY_OBJECT
  5
4550E
330
2E
100
AcDbProxyObject
 90
      499
 91
      559
 95
       25
 70
     0
 93
       18
310
000180
330
2E
 94
        0
  0
ACAD_PROXY_OBJECT
  5
4550F
330
2E
100
AcDbProxyObject
 90
      499
 91
      560
 95
       25
 70
     0
 93
      226
310
00010144508CCC954B5410D313948C4C8C0D0B4D0C1050055401550000
330
2E
330
4550D
330
4550E
 94
        0
  0
ACAD_PROXY_OBJECT
  5
45510
330
2E
100
AcDbProxyObject
 90
      499
 91
      561
 95
       25
 70
     0
 93
      178
310
000100AAAAAAA9BCE8C4A2A4155220CADC5B99FE690A80
330
2E
330
4550F
 94
        0
  0
ACAD_PROXY_OBJECT
  5
45511
330
2E
100
AcDbProxyObject
 90
      499
 91
      562
 95
       25
 70
     0
 93
      108
310
000190140A000000000000AAAAA0
330
2E
330
45512
330
45512
330
45512
330
45512
330
45512
330
0
 94
        0
  0
ACAD_PROXY_OBJECT
  5
45512
330
2E
100
AcDbProxyObject
 90
      499
 91
      563
 95
       25
 70
     0
 93
       51
310
00010000AAAA80
330
2E
330
45511
330
4550F
 94
        0
  0
DICTIONARY
  5
40
102
{ACAD_REACTORS
330
3F
102
}
330
3F
100
AcDbDictionary
281
     1
  3
DWGSETTINGS
350
41
  3
FEM
350
69
  3
Shaft
350
56
  3
TRANSSETTINGS
350
4C
  0
ACAD_PROXY_OBJECT
  5
42
102
{ACAD_REACTORS
330
3F
102
}
330
3F
100
AcDbProxyObject
 90
      499
 91
      519
 95
       25
 70
     0
 93
    23232
310
41502491013041105357CC201C00030C011E441013141105357CC603800030C011E441013241105357CCA01400030C011E441013341105357CCE01800030C010D9013441105357CD200C00030C010D9013541105357CD600C00030C010D9013641105357CDA00800030C011E9013741105357CDE01000030C010D901384110
310
5357CE200400030C011E9013941105357CE63F400030C0241102324141505357CC4C201C00030C011E902344141505357CC4C600C00030C010D902495041505357CC4CA01C00030C011E40902304E41505357CC13A01C00030C011E902314E41505357CC53A03800030C011E902324E41505357CC93A01400030C011E90233
310
4E41505357CCD3A01800030C010D902344E41505357CD13A00C00030C010D902354E41505357CD53A00C00030C010D902364E41505357CD93A00800030C011E902374E41505357CDD3A01000030C010D902384E41505357CE13A00400030C011E902394E41505357CE53A3F400030C024110332414E41905357CC4C13A01C0
310
0030C011E90334414E41905357CC4C53A00C00030C010D90349504E41905357CC4C93A01C00030C011E409044B4C494E41505357D0D3200400030C011E42504494E464F42105357D410549151A01000030C010D42D055241484D3541905357D093D4A01C00030C011E425045649455742105357D5925155D4E00400030C011
310
E42D06424548494E4441905357D25395A3F400030C0243505545241494C41505357D514A00C00030C010D4250348494441905357D21251201C00030C011E4250356495341905357D59254E01C00030C011E4250650415244494D42505357D41054911253600C00030C010D4250652454644494D42505357D49151911253601
310
000030C010D425774110531514901348070000C300479034110915312501348000000C0003FFFFFFFD034110921395901398000000C0003FFFFFFFE415092139594D06424548494E448000000C0003FFFFFFFE411093125110234418000000C0003FFFFFFFD03411093D05410234418000000C0003FFFFFFFD03411093D48C
310
9055241484D358010000C30047A411093D48CD055241484D358020000C30047A411093D48D5055241484D358000000C0003FFFFFFFE411093D48DD055241484D3581E0000C30047903411094105410234418000000C0003FFFFFFFD03411094115610234418000000C0003FFFFFFFD034110951112501358000000C0003FFF
310
FFFFD034110D0530C901348000000C0003FFFFFFFE4110D0530CD01348020000C30047A4110D0530D501348070000C30047A4110D0530DD013481E0000C30047A4110D15393901378000000C0003FFFFFFFE4110D15395D01378000000C0003FFFFFFFE4110D312539044B4C494E8000000C0003FFFFFFFE4110D3D38C5013
310
08000000C0003FFFFFFFD034110D3D38C901318000000C0003FFFFFFFD034110D3D38CD01328000000C0003FFFFFFFD034110D3D38D101328000000C0003FFFFFFFD034111115494101348000000C0003FFFFFFFD034111115510501348000000C0003FFFFFFFE4111125051D01358000000C0003FFFFFFFE4111125312501
310
358000000C0003FFFFFFFE411112535410650415244494D8000000C0003FFFFFFFE411112535490652454644494D8000000C0003FFFFFFFE411156135410234418000000C0003FFFFFFFD034111915353901388000000C0003FFFFFFFE415191535413901388030000C3004364151915354D410234418000000C0003FFFFFF
310
FE4151915354D510234418030000C300436415191535593901328000000C0003FFFFFFFE415191535595101328030000C3004364111931055101308000000C0003FFFFFFFD03411194905490234418000000C0003FFFFFFFD034111D49312501358000000C0003FFFFFFFD034111D5931250234418000000C0003FFFFFFFD0
310
34112105510D01388000000C0003FFFFFFFD014112125113901338000000C0003FFFFFFFD034112125115D01338000000C0003FFFFFFFD034112131253901348000000C0003FFFFFFFD01411213D0D3901378000000C0003FFFFFFFE411213D0D5D01378000000C0003FFFFFFFE4112539193D04494E464F8000000C0003FF
310
FFFFFE4113105112501348000000C0003FFFFFFFD034113115051101358000000C0003FFFFFFFE419397D0921395902394E8000000C0003FFFFFFFE419397D0D3D38C502304E8000000C0003FFFFFFFD03419397D0D3D38C902314E8000000C0003FFFFFFFD03419397D0D3D38CD02324E8000000C0003FFFFFFFD03419397
310
D0D3D38D102324E8000000C0003FFFFFFFD03419397D0D15393902374E8000000C0003FFFFFFFE419397D0D15395D02374E8000000C0003FFFFFFFE419397D1125312502354E8000000C0003FFFFFFFE419397D2105510D02384E8000000C0003FFFFFFFD01419397D2125113902334E8000000C0003FFFFFFFD03419397D2
310
125115D02334E8000000C0003FFFFFFFD03419397D3115051102354E8000000C0003FFFFFFFE419397D391D25410349504E8000000C0003FFFFFFFE419397D412105390334414E8000000C0003FFFFFFFE419397D510D3D3902304E8000000C0003FFFFFFFD03419397D5121312502344E8000000C0003FFFFFFFD01419397
310
D5131153902304E8000000C0003FFFFFFFD03419397D516150CD02364E8000000C0003FFFFFFFD03419397D594131250332414E8000000C0003FFFFFFFE411391D25410249508000000C0003FFFFFFFE411410530C9055241484D358010000C30047A411410530CD055241484D358020000C30047A411410530D5055241484
310
D358000000C0003FFFFFFFE411410530DD055241484D3581E0000C30047903411412105390234418000000C0003FFFFFFFE411413D4D3901368070000C30047A419413D4D49151901368050000C30047903411413D4D6101368000000C0003FFFFFFFD03411414D150D0234418000000C0003FFFFFFFD03411490D1D390137
310
8000000C0003FFFFFFFE411490D1D5D01378000000C0003FFFFFFFE4114919112501348000000C0003FFFFFFFD034114945514901348070000C30047903411494D093D01348000000C0003FFFFFFFD034114D09492D01348000000C0003FFFFFFFD014114D0D153901378000000C0003FFFFFFFD034114D150D51013480000
310
00C0003FFFFFFFD014114D15313901378000000C0003FFFFFFFD034114D15315D01378000000C0003FFFFFFFD034114D4D654D01308000000C0003FFFFFFFD034114D51312501348070000C300479034114D6508C501358000000C0003FFFFFFFD034114D6508C901358000000C0003FFFFFFFD034114D6508CD0135802000
310
0C30047A4114D6508D501358070000C300479034114D65353901378000000C0003FFFFFFFD034114D65355D01378000000C0003FFFFFFFD03411510D3D3901308000000C0003FFFFFFFD034115121312501348000000C0003FFFFFFFD01411512550C9055241484D358010000C30047A411512550CD055241484D358020000
310
C30047A411512550D5055241484D358000000C0003FFFFFFFE411512550DD055241484D3581E0000C300479034115131153901308000000C0003FFFFFFFD03415514905253105545241494C8000000C0003FFFFFFFE41151492D3901378000000C0003FFFFFFFD0341151492D5D01378000000C0003FFFFFFFD03411514931
310
2501348000000C0003FFFFFFFD01411516150C501368030000C300436411516150C901368030000C300436411516150CD01368000000C0003FFFFFFFE411516150D501368070000C30047A411516150DD013681E0000C30047A4115925155D04564945578000000C0003FFFFFFFE41159151121034849448000000C0003FFF
310
FFFFD0241159151159035649538000000C0003FFFFFFFD02411594131250232418000000C0003FFFFFFFE4116925690501348000000C0003FFFFFFFD01411354D653501358020000C30047AAAA3F400030C01013F90A4391E41D1E4190D4151E4110D40D0D4091E4051E4791E7F6
340
16
340
16
340
16
340
43
340
16
340
16
340
16
340
44
340
16
340
16
340
44
340
45
340
16
340
16
340
16
340
16
340
43
340
16
340
16
340
16
340
44
340
16
340
16
340
44
340
45
340
16
340
46
340
16
340
16
340
16
340
16
340
16
340
43
340
16
340
16
340
16
340
47
340
15
340
15
340
15
340
15
340
15
340
15
340
15
340
15
340
15
340
15
340
15
340
15
340
15
340
15
340
15
340
15
340
48
340
15
340
15
340
15
340
15
340
15
340
15
340
15
340
15
340
15
340
15
340
15
340
15
340
15
340
15
340
15
340
16
340
15
340
15
340
15
340
15
340
15
340
15
340
15
340
15
340
47
340
15
340
15
340
48
340
15
340
15
340
15
340
15
340
15
340
15
340
15
340
15
340
15
340
48
340
15
340
15
340
15
340
47
340
15
340
15
340
15
340
15
340
15
340
15
340
15
340
15
340
15
340
15
340
15
340
15
340
15
340
15
340
15
340
15
340
15
340
15
340
15
340
48
340
15
340
15
340
48
340
15
340
15
340
16
340
15
340
48
340
15
340
15
340
47
340
15
340
15
340
16
340
15
340
48
340
15
340
15
340
15
340
15
340
15
340
15
340
15
340
15
340
15
340
48
340
15
340
15
340
15
340
15
340
15
340
15
340
15
340
15
340
15
340
15
340
15
340
4B
340
16
 94
        0
  0
ACAD_PROXY_OBJECT
  5
40811
102
{ACAD_REACTORS
330
73
102
}
330
73
100
AcDbProxyObject
 90
      499
 91
      523
 95
       25
 70
     0
 93
      253
310
43D1444494D454E53494F4E2C414D44545F2A5F44494D404A9012A404A9012A0
  0
ACAD_PROXY_OBJECT
  5
40812
102
{ACAD_REACTORS
330
73
102
}
330
73
100
AcDbProxyObject
 90
      499
 91
      523
 95
       25
 70
     0
 93
      181
310
43D012A42D05357D191504B505357CA9012A404A9012A8
  0
ACAD_PROXY_OBJECT
  5
40813
102
{ACAD_REACTORS
330
73
102
}
330
73
100
AcDbProxyObject
 90
      499
 91
      523
 95
       25
 70
     0
 93
      133
310
43D054841544348404A9012A404A9012A8
  0
ACAD_PROXY_OBJECT
  5
40814
102
{ACAD_REACTORS
330
73
102
}
330
73
100
AcDbProxyObject
 90
      499
 91
      523
 95
       25
 70
     0
 93
      549
310
43D044C494E4549CE0B0E138B0A8B4E0B0A8B4E138B105357CE0B105357CE138B0A8B505357CE0B0A8B505357CE139012A404A910494E534552542C5354445041525432448
  0
ACAD_PROXY_OBJECT
  5
40815
102
{ACAD_REACTORS
330
73
102
}
330
73
100
AcDbProxyObject
 90
      499
 91
      523
 95
       25
 70
     0
 93
      909
310
43D6641434D46434652414D452C41434D444154554D5441524745542C41434D444154554D49442C41434D57454C4453594D2C41434D5355524653594D2C41434D4645415449442C41434D504152545245462C41434D42414C4C4F4F4E2C414D44544544474553594D404A9012A404A9012A0
  0
XRECORD
  5
460A2
102
{ACAD_REACTORS
330
460A1
102
}
330
460A1
100
AcDbXrecord
280
     1
330
0
330
0
330
0
330
0
330
0
330
0
330
0
330
0
330
0
330
0
330
0
330
0
330
0
330
0
330
0
330
0
330
0
330
0
330
0
330
0
330
0
330
0
330
0
330
0
330
0
330
0
330
0
330
0
330
0
330
0
330
0
330
0
330
0
330
0
330
0
330
0
330
0
330
0
330
0
330
0
330
0
330
0
330
0
330
0
330
0
330
0
330
0
330
0
330
0
330
0
330
0
330
0
330
0
330
0
330
0
330
0
330
0
330
0
330
0
330
0
330
0
330
0
330
0
330
0
330
0
330
0
330
0
330
0
330
0
330
0
330
0
330
0
330
0
330
0
330
0
330
0
330
0
330
0
330
0
330
0
330
0
330
0
330
0
330
0
330
0
330
0
330
0
330
0
330
0
330
0
330
0
330
0
330
0
  0
XRECORD
  5
2928
102
{ACAD_REACTORS
330
2927
102
}
330
2927
100
AcDbXrecord
280
     1
  1
25000264__00___
  0

  0
XRECORD
  5
168A
102
{ACAD_REACTORS
330
1688
102
}
330
1688
100
AcDbXrecord
280
     1
  1
1,,,,,,,,,^M^J2,,,,,,,,,^M^J3,,,,,,,,,^M^J4,,,,,,,,,^M^J5,,,,,,,,,^M^J6,,,,,,,,,^M^J7,,,,,,,,,^M^J8,,,,,,,,,^M^J9,,,,,,,,,^M^J10,,,,,,,,,
  0

  0
XRECORD
  5
1689
102
{ACAD_REACTORS
330
1688
102
}
330
1688
100
AcDbXrecord
280
     1
  1
10,10
  0

  0
XRECORD
  5
292A
102
{ACAD_REACTORS
330
2929
102
}
330
2929
100
AcDbXrecord
280
     1
  1
2
  0

  0
ACAD_PROXY_OBJECT
  5
4F
102
{ACAD_REACTORS
330
4E
102
}
330
4E
100
AcDbProxyObject
 90
      499
 91
      521
 95
       25
 70
     0
 93
      157
310
057356C1D77406406AA8FFFFFFFF05DD01009010
330
1F
330
0
330
4550F
 94
        0
  0
ACAD_PROXY_OBJECT
  5
46486
102
{ACAD_REACTORS
330
17E
102
}
330
17E
100
AcDbProxyObject
 90
      499
 91
      580
 95
       25
 70
     0
 93
     2497
310
5DC0000000000000C408030000C30040D254D3D01640600800030C0200800030C000000000000000C40C88A2085A0B6B23A22B233B2A9BA3220480A1C82C6DAA6EAE4CCA8CAF0E8A6E8C88120284A0B1B6A321A329BA3220480A1A82C6DAAECAD8C8D2DCCEA6E8C8812028420B1B6A4B229BA3220480A1682C6DA88C2E8EAD
310
AA6E8C88120284A0B1B6A127A6A9BA3220480A2082DAC8E888CAE8C2D2D8A6F2DAA6E8C88120288A0B6B23A29B2B1BA34B7B729BCB6A9BA3220480A2282DAC8E886CADCE8CAE498D2DCCAA6E8C88120288A0B6B23A2A343932B0B22634B732A9BA3220480A1682DAC8E89CDEE8CAA6E8C88120285A0B1A0B6B3A630BCA9BA3
310
220480A1682C682DACE88D2DAA6E8C88120288A0B1A0B6B3A437B632A1B430B93A29BA3220480A1A82C682DACEA8D2E8D8CAA6E8C8812032048080
340
45ACC
360
46487
360
46488
360
46489
360
4648A
360
4648B
360
4648C
360
4648D
360
4648E
360
4648F
360
46490
360
46491
360
46492
360
46498
360
46499
360
4649A
360
4649B
340
0
340
0
 94
        0
  0
ACAD_PROXY_OBJECT
  5
17F
102
{ACAD_REACTORS
330
17E
102
}
330
17E
100
AcDbProxyObject
 90
      499
 91
      526
 95
       25
 70
     0
 93
     2379
310
5DC33333333333309408000000C00040D29254D01640600800030C0200800030C003333333333330940C8121E8720B1B6A9BAB9332A32BC3A29BA3220480A1282C6DA8C868CA6E8C88120286A0B1B6ABB2B63234B733A9BA3220480A1082C6DA92C8A6E8C88120285A0B1B6A230BA3AB6A9BA3220480A1282C6DA849E9AA6E
310
8C88120286A0B1A0B6B3AA34BA3632A9BA3220480A2082DAC8E888CAE8C2D2D8A6F2DAA6E8C88120288A0B6B23A29B2B1BA34B7B729BCB6A9BA3220480A2282DAC8E886CADCE8CAE498D2DCCAA6E8C88120288A0B6B23A2A343932B0B22634B732A9BA3220480A1682DAC8E89CDEE8CAA6E8C88120285A0B1A0B6B3A630BCA
310
9BA3220480A1682C682DACE88D2DAA6E8C88120288A0B1A0B6B3A437B632A1B430B93A29BA3220480C812020
340
180
360
181
360
182
360
183
360
184
360
185
360
186
360
45514
360
45515
360
45516
360
45518
360
45519
360
4551A
360
45520
360
45521
360
45522
340
0
340
0
 94
        0
  0
ACAD_PROXY_OBJECT
  5
41
102
{ACAD_REACTORS
330
40
102
}
330
40
100
AcDbProxyObject
 90
      499
 91
      518
 95
       25
 70
     0
 93
     2946
310
4050B44574753455454494E4753A0E8482A68AA6A88882A069492A684A1A0A723A0A92920ACA0A811A1AA0C868A9C829C8E82A12686AF87260F862666A8321A2A72224A0A50004E73A14899F01FA0E868A9C889282A682A106260F86460F8666083A1A2A72224A9AA250000000000000042020C868A9C988A9C94000000000
310
000048808321A2A727A323250000000000000122020E868A9C9E8C8C62940000000000000488083A1A2A727A32319250000000000000122021CC6D0C2DACCCAE4C8D2DADADEC8CA9FC84A1A624A720A92920ACA0A8119182108698929C8AA8B2A082A0AB098929C8A84A22BA3AAA9A1A0A622A50A0E9882A6A89E849482A02
310
608426A0A5A2AB24A2ABA7E8120CA0A68682988A0C00800010652455649534941501304154D0D0531150540CC4E8C5085354414E44415244415034A4953425512535154D51053541282551CA009E4ADCD050756455253494F4E4150531352E3030441ED115D1D4D15515125391D4D153911F40
  0
ACAD_PROXY_OBJECT
  5
69
102
{ACAD_REACTORS
330
40
102
}
330
40
100
AcDbProxyObject
 90
      499
 91
      518
 95
       25
 70
     0
 93
      411
310
4050346454D21092DCC6E486DECACC942842630BCA3B937BAB820A8320A6AFA322A0A20F688AE8EA68AA8A8929C8EA68A9C88FA0
  0
ACAD_PROXY_OBJECT
  5
56
102
{ACAD_REACTORS
330
40
102
}
330
40
100
AcDbProxyObject
 90
      499
 91
      518
 95
       25
 70
     0
 93
      583
310
40505536861667421292DCE8CAE4E4EAE0E89FA0484A634B3B43A2634B732A7F21A98D2CED0E898D2DCCAACD2CAEE9FC8229B4B232A7E80A20F688AE8EA68AA8A8929C8EA68A9C88FA
  0
ACAD_PROXY_OBJECT
  5
4C
102
{ACAD_REACTORS
330
40
102
}
330
40
100
AcDbProxyObject
 90
      499
 91
      518
 95
       25
 70
     0
 93
      852
310
4050D5452414E5353455454494E4753A2488A482AE929C8EA8A4829CA69882A8929E9C0C00800050D4F524947494E414C4C595F4F4E0600400028529A7AAA921A2A620A723A0A81A52827212AAA0A48AA68AA4AC8A0C0080001107B44574753455454494E4753454E447D0
  0
ACAD_PROXY_OBJECT
  5
46487
330
46486
100
AcDbProxyObject
 90
      499
 91
      581
 95
       25
 70
     0
 93
       13
310
5DD8
  0
ACAD_PROXY_OBJECT
  5
46488
330
46486
100
AcDbProxyObject
 90
      499
 91
      582
 95
       25
 70
     0
 93
       96
310
5DEA0E80A0280A0280A0280F
  0
ACAD_PROXY_OBJECT
  5
46489
330
46486
100
AcDbProxyObject
 90
      499
 91
      583
 95
       25
 70
     0
 93
      272
310
5DD0E4050140501405014050140501405014050140D01405012C0000000000000040
340
45ACD
 94
        0
  0
ACAD_PROXY_OBJECT
  5
4648A
330
46486
100
AcDbProxyObject
 90
      499
 91
      584
 95
       25
 70
     0
 93
      497
310
5DE8666666666667A67E199999999999E99FD22405014050140501405014050140501405014050140501405014050140501405014050140501405014050100
340
45AC8
 94
        0
  0
ACAD_PROXY_OBJECT
  5
4648B
330
46486
100
AcDbProxyObject
 90
      499
 91
      585
 95
       25
 70
     0
 93
       10
310
5DC0
  0
ACAD_PROXY_OBJECT
  5
4648C
330
46486
100
AcDbProxyObject
 90
      499
 91
      586
 95
       25
 70
     0
 93
      257
310
5DE290EA22A7D90F49F80000000000001081400000000000004204010000618000
340
45AC9
340
45ACA
 94
        0
  0
ACAD_PROXY_OBJECT
  5
4648D
330
46486
100
AcDbProxyObject
 90
      499
 91
      587
 95
       25
 70
     0
 93
    13013
310
5DD0E411255115350141236025B690140501406901000000000000091013347454E545241434F2C4A504E2C302C8D8096DA2C47454E54524154582C25732C2847454E4D53472067656E647767203232322940690120281A8AA2CA0282484A4BE52028120280A0320200000000000012202668E8A9CA8A482869E5894A09C58
310
605921292F94588E8A9CA8A482A8B0584AE658508E8A9C9AA68E40CECADCC8EECE406464665280D202405044E414D454050496BC914F4051C40640A80000000000004E404CD1D15395149050D3CB1294138B0C0B25AF2453CB11D15395149055160B095CCB0A11D1539354D1C819D95B991DD9C80C8C8D8A50192C3D494628
310
4953424C414E4B28504152543A4E414D45292C424C4F434B3A4E414D452C504152543A4E414D452940480A0A888AA686A480A09251B1DBE80A3A80C81D0000000000100A28099A3A2A72A2920A1A7962528271618164946C76F9623A2A72A2920AA2C1612B9961423A2A726A9A39033B2B7323BB39019189B94A0348090142
310
14D51053911054911014122D2E29A50147501904A000000000000125013347454E545241434F2C4A504E2C302C8B4B8A692C47454E54524154582C25732C2847454E4D53472067656E64776720323138294069012028426A0AA22A924A0A62028246EF4BDFA028EA0320B40000000000001CA02668E8A9CA8A482869E5894A
310
09C5860591BBD2F7E588E8A9CA8A482A8B0584AE658508E8A9C9AA68E40CECADCC8EECE406464625280D202405044E4F544540504928D8B4C4051D40641A80000000000003E404CD1D15395149050D3CB1294138B0C0B24A362D30B11D15395149055160B095CCB0A11D1539354D1C819D95B991DD9C80C8C8D4A501240480
310
A0CAC8A9C889EA480A1106F1072706BF02B680A3A80C83D00000000000007C809BA3A2A72A2920A1A79625282716181641BC41C9C1AFC0AD9623A2A72A2920AA2C1612B9961423A2A726A9A39033B2B7323BB39019191A14A0248090141911154D0D48C90141A43825AF880C90147501908A000000000020145013447454E5
310
45241434F2C4A504E2C302C90E096BE20322C47454E54524154582C25732C2847454E4D53472067656E6477672033362940490120284A9AA20A72220A922192028345A5C53490192028EA03213400000000000024A026A8E8A9CA8A482869E5894A09C586059169714D24064588E8A9CA8A482A8B0584AE658508E8A9C9AA6
310
8E40CECADCC8EECE4064646052809202405094D4154455249414C32405068DDE97BF20324051D40642A8713D0AD7A37045404D11D15395149050D3CB1294138B0C0B2377A5EFC80C8B11D15395149055160B095CCB0A11D1539354D1C819D95B991DD9C80D0C0A501240480A089A82A6A680A091D7F2F9480A3A80A0485A06
310
8100000000000007C809923A2A72A2920A1A796252827161816475FCBE51623A2A72A2920AA2C1612B9961423A2A726A9A39033B2B7323BB3901A1914A024809014154149250D150141226FE29A501475014090C409020000000000000F9013247454E545241434F2C4A504E2C302C89BF8A692C47454E54524154582C2573
310
2C2847454E4D53472067656E6477672034332940490120281A224A6A02824850CB202028EA028121A81A040000000000001F202648E8A9CA8A482869E5894A09C58605921432C80588E8A9CA8A482A8B0584AE658508E8A9C9AA68E40CECADCC8EECE406868528092024050E445020000000000000510201C00030C0001018
310
0000000000003E400000000000000F901073D3C4954454D3E4050180000000000003E400000000000000F901073D3C4954454D3E40501800000000000034400000000000000D101073D3C4954454D3E40501800000000000034400000000000000D101073D3C4954454D3E405029010000000000000F9000000000000003E4
310
041CF4F125511534F901418F4F1455164F9014060000000000000F9000000000000003E4041CF4F125511534F9014060000000000000D100000000000000344041CF4F125511534F901901000000000000000F9000000000000003E40A2200000000000008204018000618048220681A048120280C88214844882034852034
310
8452028521485214814000000000000F0BF0000000000003C2FD018020000C3008070000C3003373333333333B0FCCDCCCCCCCCCCEC3F000000000000031012034164050341105901A000000000000062040100006180401000061804008000618008098A02808
340
0
340
0
 94
        0
  0
ACAD_PROXY_OBJECT
  5
4648E
330
46486
100
AcDbProxyObject
 90
      499
 91
      588
 95
       25
 70
     0
 93
      898
310
5DC4000000000000144048CF4F11115510525317D3105091530F880A0F11115510525317D05094D4D0D053114F8A51141C9A9999999999B93F26A666666666724FC000000000000E03F400000000000000400000000000000510000000000000024408070000C300000000000000051000
340
16
340
45ACC
 94
        0
  0
ACAD_PROXY_OBJECT
  5
4648F
330
46486
100
AcDbProxyObject
 90
      499
 91
      589
 95
       25
 70
     0
 93
      823
310
5DC0B00000000000002880959E9E29A2A1AA24A7A72FA620A122A62FA324A929AA1F169E29A2A1AA24A7A72FA620A122A62FA620A9AA1F000000000000048803FFFE01C00030C0088C0380006180000000000000048800000000000000A2000000000000002880
340
652
340
45ACC
 94
        0
  0
ACAD_PROXY_OBJECT
  5
46490
330
46486
100
AcDbProxyObject
 90
      499
 91
      590
 95
       25
 70
     0
 93
      152
310
5DE80000000000000840A3D0A5723F0BD1F200
  0
ACAD_PROXY_OBJECT
  5
46491
330
46486
100
AcDbProxyObject
 90
      499
 91
      591
 95
       25
 70
     0
 93
       14
310
5DE0
340
0
 94
        0
  0
ACAD_PROXY_OBJECT
  5
46492
330
46486
100
AcDbProxyObject
 90
      499
 91
      592
 95
       25
 70
     0
 93
     8619
310
5DD084050BA4050AA405024050E836583938376838C815B836720314043A013D2525633C486F6C653A63746469613E2078203C486F6C653A637464657074683E20555C503C696628657175616C28486F6C653A7461707065642C223022292C22252563222C486F6C653A6E6F6D696E616C202220782022293E3C6966286571
310
75616C28486F6C653A7461707065642C223022292C486F6C653A6469612C486F6C653A706974636864657363293E3C696628657175616C28486F6C653A7461707065642C223122292C22207820222C2222293E3C696628657175616C28486F6C653A7461707065642C223122292C486F6C653A74617064657074682C222229
310
3E203C696628657175616C28486F6C653A7465726D696E6174696F6E2C223022292C22202F20222C2222293E3C696628657175616C28486F6C653A7465726D696E6174696F6E2C223022292C486F6C653A64657074682C2222293E406901405034050E836583938376838C815B836720314043B013D2525633C486F6C653A6
310
3746469613E2078203C486F6C653A6374616E676C653E2525645C503C696628657175616C28486F6C653A7461707065642C223022292C22252563222C486F6C653A6E6F6D696E616C202220782022293E3C696628657175616C28486F6C653A7461707065642C223022292C486F6C653A6469612C486F6C653A70697463686
310
4657363293E3C696628657175616C28486F6C653A7461707065642C223122292C22207820222C2222293E3C696628657175616C28486F6C653A7461707065642C223122292C486F6C653A74617064657074682C2222293E203C696628657175616C28486F6C653A7465726D696E6174696F6E2C223022292C22202F20222C2
310
222293E3C696628657175616C28486F6C653A7465726D696E6174696F6E2C223022292C486F6C653A64657074682C2222293E406901405014050E836583938376838C815B8367203140416013D3C696628657175616C28486F6C653A7461707065642C223022292C22252563222C486F6C653A6E6F6D696E616C2022207820
310
22293E3C696628657175616C28486F6C653A7461707065642C223022292C486F6C653A6469612C486F6C653A706974636864657363293E3C696628657175616C28486F6C653A7461707065642C223122292C22207820222C2222293E3C696628657175616C28486F6C653A7461707065642C223122292C486F6C653A746170
310
64657074682C2222293E203C696628657175616C28486F6C653A7465726D696E6174696F6E2C223022292C22202F20222C2222293E3C696628657175616C28486F6C653A7465726D696E6174696F6E2C223022292C486F6C653A64657074682C2222293E4069014051E4090E836583938376838C815B83672032405173D3C5
310
35444503A444553433E203C535444503A5354443E40690E836583938376838C815B836720314050C3D3C535444503A444553433E40690240515AAABBA120
360
46493
330
46493
360
46494
330
46494
360
46495
330
46495
360
46496
360
46497
330
46496
330
46497
 94
        0
  0
ACAD_PROXY_OBJECT
  5
46498
330
46486
100
AcDbProxyObject
 90
      499
 91
      571
 95
       25
 70
     0
 93
       26
310
5DD02A80
340
0
 94
        0
  0
ACAD_PROXY_OBJECT
  5
46499
330
46486
100
AcDbProxyObject
 90
      499
 91
      572
 95
       25
 70
     0
 93
      250
310
5DD020000000000000A1000000000000002440408F0F9023C3E409A0DCFFFF80
340
45ACE
340
0
340
0
340
45ACF
340
45AD0
340
45AD1
340
45AD2
340
45AD3
340
45AD4
340
0
 94
        0
  0
ACAD_PROXY_OBJECT
  5
4649A
330
46486
100
AcDbProxyObject
 90
      499
 91
      593
 95
       25
 70
     0
 93
    13889
310
5DD1D003FFFFFFFD030300030000000000000310200800030C01030300030000000000000310200800030C00050C8DC0955782CC838A83588367014ED1D15395149050D3CB1294138B0C0B23702555E0B320E2A0D620D9CB11D15395149055160B095CCB0A11D1539354D1C819D95B991A5B5E880CCC0A78000C0000000000
310
00000000000000000000010000000000000310200800030C010000000000000310200800030C020143CF4F111959985D5B1D151A5D1B194F8050A8C8A8365815B8375838B014E51D15395149050D3CB1294138B0C0B2322A0D96056E0DD60E2CB11D15395149055160B095CCB0A11D1539354D1C819D95B991A5B5E880CCC4
310
A78000C000000000000000000000000000000010000000000000310200800030C010000000000000310200800030C020143CF4F111959985D5B1D151A5D1B194F90D44111409034110541D0C4350F4050E44D03449074510F000141232D24D7C053247454E545241434F2C4A504E2C302C8CB4935F2C47454E54524154582C
310
25732C2847454E4D53472067656E64696D7A20312900010104002214000281464500A608E8A9CA8A482869E5894A09C5860591914588E8A9CA8A482A8B0584AE658508E8A9C9AA68E40CECADCC8D2DAF4406452029E9E9E27B934B3B4B71F1E24A31427A91424A9A12620A7259427B934B3B4B7149624A9A12620A7259424B
310
A32B6949496111116111711149F1E24BA32B69F00808200111A000140560052F47454E545241434F2C4A504E2C302C582C47454E54524154582C25732C2847454E4D53472067656E64696D7A20332900010100002054000280AC80A5E8E8A9CA8A482869E5894A09C586058B2588E8A9CA8A482A8B0584AE658508E8A9C9AA
310
68E40CECADCC8D2DAF4406852000202000040E800050152014BD1D15395149050D3CB1294138B0C0B148B11D15395149055160B095CCB0A11D1539354D1C819D95B991A5B5E880D8A400040400008250000A0507A6029823A2A72A2920A1A79625282716181641E99623A2A72A2920AA2C1612B9961423A2A726A9A39033B2
310
B73234B6BD101B948000808180105A000140A0F4C053047454E545241434F2C4A504E2C302C83D32C47454E54524154582C25732C2847454E4D53472067656E64696D7A203829000101010020F400028248704B5F00A668E8A9CA8A482869E5894A09C58605921C12D7C588E8A9CA8A482A8B0584AE658508E8A9C9AA68E40
310
CECADCC8D2DAF440646052000200080043280005048B4B8A69014CD1D15395149050D3CB1294138B0C0B22D2E29A4B11D15395149055160B095CCB0A11D1539354D1C819D95B991A5B5E880C8C4A4000400100086D0000A09196926BE029923A2A72A2920A1A796252827161816465A49AF9623A2A72A2920AA2C1612B9961
310
423A2A726A9A39033B2B73234B6BD10189480A02620202080043E80005048D8096DA014CD1D15395149050D3CB1294138B0C0B236025B68B11D15395149055160B095CCB0A11D1539354D1C819D95B991A5B5E880C4D0A4000404140280D0000A190687072706CD06C5069D06B0029DA3A2A72A2920A1A7962528271618164
310
1A1C1C9C1B341B141A741AC1623A2A72A2920AA2C1612B9961423A2A726A9A39033B2B73234B6BD10189A94800080828050EA000143A322A0D0E0E4E0D9A0D8A0D3A0D60053D47454E545241434F2C4A504E2C302C8C8A8343839383668362834E83582C47454E54524154582C25732C2847454E4D53472067656E64696D7A
310
2031372900010105002274000281464500A628E8A9CA8A482869E5894A09C5860591914588E8A9CA8A482A8B0584AE658508E8A9C9AA68E40CECADCC8D2DAF440626C52000202080044A8000504909497CA014CD1D15395149050D3CB1294138B0C0B242525F28B11D15395149055160B095CCB0A11D1539354D1C819D95B9
310
91A5B5E880C4E4A400040418008A521E000000000000001CA040C00000000000034408080000000000006881010000000000000D102040000000000001A204080000000000003440818000000000000728103000000000000125020600000000004028A040000000000000034408000000000000004881000000000000000D
310
102000000000000001A204000000000000003440818000000000000508143C0000000000000039408180000000000006881030000000000000D102060000000000001A2040C00000000000034408180000000000006881030000000000000E5020600000000000024A040C0000000000805140800000000000000688100000
310
00000000009102000000000000001A2040000000000000034408180000000000006881030000000000000A10284220000000878000002020000008380000020400000081800000208000000828000002028900000000
340
0
340
0
340
0
340
0
340
45ACC
340
45ACC
 94
        0
  0
ACAD_PROXY_OBJECT
  5
4649B
330
46486
100
AcDbProxyObject
 90
      499
 91
      564
 95
       25
 70
     0
 93
     7018
310
5DD9740D254D3D0649534F5F4133429254D3D7D5125513115051349534F5F42525F5265766973696F6E6C69737446111413478342028323937783834316D6D2920421254D3D7D04D1E0D11141327835202835393478323130326D6D29421254D3D7D04C9E0D51141337837202834323078323038306D6D29421254D3D7D04C
310
DE0DD1141347839202832393778313839326D6D29421254D3D7D04D1E0E50E41312028353934783834316D6D29419254D3D7D04C51141327834202835393478313638326D6D29421254D3D7D04C9E0D11141347838202832393778313638326D6D29421254D3D7D04D1E0E10E41332028323937783432306D6D29419254D3D
310
7D04CD104130202838343078313138396D6D2920419254D3D7D04C11141347835202832393778313035316D6D29421254D3D7D04D1E0D51141347836202832393778313236316D6D29421254D3D7D04D1E0D91141347837202832393778313437316D6D29421254D3D7D04D1E0DD1141327833202835393478313236316D6D
310
29421254D3D7D04C9E0CD1141337834202834323078313138396D6D29421254D3D7D04CDE0D110413478332028323937783633306D6D29421254D3D7D04D1E0CD1141337835202834323078313438366D6D29421254D3D7D04CDE0D51141337836202834323078313738336D6D29421254D3D7D04CDE0D9104133783320283
310
43230783839316D6D29421254D3D7D04CDE0CD0E41322028343230783539346D6D29419254D3D7D04C9124130783220283131383978313638326D6D29421254D3D7D04C1E0C90E41342028323937783231306D6D29419254D3D7D04D1124130783320283131383978323532336D6D29421254D3D7D04C1E0CD114131783420
310
2838343178323337386D6D29421254D3D7D04C5E0D11141317833202838343178313738336D6D29421254D3D7D04C5E0CD02431254D3C82557247A25E4C81050A49534F5F5449544C4541431254D3C82557247A25E4C81090A49534F5F5449544C45424110E979A97F0838A835883675F42525F44D254D3D7D09497D4995D9
310
A5CDA5BDB9B1A5CDD10E979A97F0838A835883675F54525F44D254D3D7D51497D4995D9A5CDA5BDB9B1A5CDD10E979A97F0838A835883675F424C5F44D254D3D7D09317D4995D9A5CDA5BDB9B1A5CDD10E979A97F0838A835883675F544C5F44D254D3D7D51317D4995D9A5CDA5BDB9B1A5CDD00
  0
ACAD_PROXY_OBJECT
  5
181
330
17F
100
AcDbProxyObject
 90
      499
 91
      527
 95
       25
 70
     0
 93
       86
310
5DEA0C80A0280A0280A034
  0
ACAD_PROXY_OBJECT
  5
182
330
17F
100
AcDbProxyObject
 90
      499
 91
      528
 95
       25
 70
     0
 93
      282
310
5DD0E4050140501405014050140501405014050141101405014041000000000000001000
340
187
 94
        0
  0
ACAD_PROXY_OBJECT
  5
183
330
17F
100
AcDbProxyObject
 90
      499
 91
      529
 95
       25
 70
     0
 93
      323
310
5DCC199999999999E99F91740501405014050140501405014050140501405014050140501405014040
340
0
 94
        0
  0
ACAD_PROXY_OBJECT
  5
184
330
17F
100
AcDbProxyObject
 90
      499
 91
      530
 95
       25
 70
     0
 93
       10
310
5DC0
  0
ACAD_PROXY_OBJECT
  5
185
330
17F
100
AcDbProxyObject
 90
      499
 91
      531
 95
       25
 70
     0
 93
      257
310
5DE0C16A22A7D90F49F80000000000001081400000000000004204010000618000
340
188
340
189
 94
        0
  0
ACAD_PROXY_OBJECT
  5
186
330
17F
100
AcDbProxyObject
 90
      499
 91
      532
 95
       25
 70
     0
 93
     5277
310
5DD06411255115350141236025B6901405014069010000000000000910240690120281A8AA2CA0282484A4BE52028120280A032020000000000001220480D202405044E414D454050496BC914F4051C40640A80000000000004E4090193C3D3C4946284953424C414E4B28504152543A4E414D45292C424C4F434B3A4E414D
310
452C504152543A4E414D45293E3C41435F44455343524950544E3E40480A109A82A88AA492829880A091BBD2F7E80A3A80C81D0E27A15AF46E08A81203480901411393D5115014124A363B7D0147501904A0000000000000F902406428F4F1050D7D393D5114F901202832B22A72227A92028366EF6EE06F582028EA0320B4
310
0000000000001F20480C879E9E20A1AFAB27222FA620A122A61F20240506445020000000000000490201C00030C00010180000000000003E400000000000000F901073D3C4954454D3E4050180000000000003E400000000000000F901073D3C4954454D3E40501800000000000034400000000000000D101073D3C4954454
310
D3E40501800000000000034400000000000000D101073D3C4954454D3E405029010000000000000F9000000000000003E4041CF4F125511534F901418F4F1455164F9014060000000000000F9000000000000003E4041CF4F125511534F901800000000000034400000000000000D101073D3C4954454D3E40640400000000
310
0000003E400000000000000F90288800000000000020810000001800120881A068120480A032208521122080D21480D211480A1485214852050000000000003C2FC000000000000F0BF40600800030C0200400030C00CDCCCCCCCCCCEC3F3373333333333B0FC3333333333330940C80D069014090341504901A1999999999
310
9984A040100006180400800061804010000618008098A02808
340
0
340
0
 94
        0
  0
ACAD_PROXY_OBJECT
  5
45514
330
17F
100
AcDbProxyObject
 90
      499
 91
      564
 95
       25
 70
     0
 93
     3042
310
5DD9740D29254D064A49535F413342929254D7D512551311505134A49535F42525F5265766973696F6E6C6973744190F4134522028323937783231306D6D2941D29254D7D04D1490E41312028353934783834316D6D2941929254D7D04C50E41332028323937783432306D6D2941929254D7D04CD0F41344C2028323130783
310
239376D6D2941D29254D7D04D1310E41322028343230783539346D6D2941929254D7D04C90F4130202838343178313138396D6D2941929254D7D04C10243129254C82557247A25E4C81050A4A49535F5449544C454143129254C82557247A25E4C81090A4A49535F5449544C45424110E979A97F0838A835883675F42525F4
310
4D29254D7D09497D4995D9A5CDA5BDB9B1A5CDD10E979A97F0838A835883675F54525F44D29254D7D51497D4995D9A5CDA5BDB9B1A5CDD10E979A97F0838A835883675F424C5F44D29254D7D09317D4995D9A5CDA5BDB9B1A5CDD10E979A97F0838A835883675F544C5F44D29254D7D51317D4995D9A5CDA5BDB9B1A5CDD00
  0
ACAD_PROXY_OBJECT
  5
45515
330
17F
100
AcDbProxyObject
 90
      499
 91
      565
 95
       25
 70
     0
 93
      898
310
5DC4000000000000124048CF4F11115510525317D3105091530F880A0F11115510525317D05094D4D0D053114F8A50241C9A9999999999B93F26A666666666724FC000000000000E03F400000000000000400000000000000510000000000000024408070000C300000000000000049000
340
16
340
180
 94
        0
  0
ACAD_PROXY_OBJECT
  5
45516
330
17F
100
AcDbProxyObject
 90
      499
 91
      566
 95
       25
 70
     0
 93
      823
310
5DC0B00000000000002480959E9E29A2A1AA24A7A72FA620A122A62FA324A929AA1F169E29A2A1AA24A7A72FA620A122A62FA620A9AA1F000000000000048803FFFE01C00030C008140380006180000000000000048800000000000000A2000000000000002480
340
652
340
180
 94
        0
  0
ACAD_PROXY_OBJECT
  5
45518
330
17F
100
AcDbProxyObject
 90
      499
 91
      567
 95
       25
 70
     0
 93
      152
310
5DE8273108AC1C5A0640A3D0A5723F0BD1F200
  0
ACAD_PROXY_OBJECT
  5
45519
330
17F
100
AcDbProxyObject
 90
      499
 91
      568
 95
       25
 70
     0
 93
       14
310
5DE0
340
0
 94
        0
  0
ACAD_PROXY_OBJECT
  5
4551A
330
17F
100
AcDbProxyObject
 90
      499
 91
      569
 95
       25
 70
     0
 93
     6059
310
5DD084050BA4050AA405024050E836583938376838C815B83672031405983D3C486F6C653A6469613E3C696628657175616C28486F6C653A7465726D696E6174696F6E2C223022292C2220905B82B320222C22208368838A838B22293E3C696628657175616C28486F6C653A7465726D696E6174696F6E2C223022292C486F
310
6C653A64657074682C2222293E2C203C486F6C653A63746469613E2082B482AE82E882CC905B82B3203C486F6C653A637464657074683E406901405034050E836583938376838C815B83672031405EF3D3C486F6C653A6374616E676C653E252564202525633C486F6C653A63746469613E208E4D8C8A2C203C69662865717
310
5616C28486F6C653A7461707065642C223022292C22252563222C486F6C653A6E6F6D696E616C202220782022293E3C696628657175616C28486F6C653A7461707065642C223022292C486F6C653A6469612C486F6C653A706974636864657363293E203C696628657175616C28486F6C653A7465726D696E6174696F6E2C2
310
23022292C22905B82B320222C222022293E3C696628657175616C28486F6C653A7465726D696E6174696F6E2C223022292C486F6C653A64657074682C2222293E406901405014050E836583938376838C815B83672031405C73D3C696628657175616C28486F6C653A7461707065642C223022292C22252563222C486F6C65
310
3A6E6F6D696E616C202220782022293E3C696628657175616C28486F6C653A7461707065642C223022292C486F6C653A6469612C486F6C653A706974636864657363293E203C696628657175616C28486F6C653A7465726D696E6174696F6E2C223022292C22905B82B320222C222022293E3C696628657175616C28486F6C
310
653A7465726D696E6174696F6E2C223022292C486F6C653A64657074682C2222293E4069014051E4090E836583938376838C815B83672032405173D3C535444503A444553433E203C535444503A5354443E40690E836583938376838C815B836720314050C3D3C535444503A444553433E40690240515AAABBA120
360
4551E
330
4551E
360
4551F
330
4551F
360
4551D
330
4551D
360
4551C
360
4551B
330
4551C
330
4551B
 94
        0
  0
ACAD_PROXY_OBJECT
  5
45520
330
17F
100
AcDbProxyObject
 90
      499
 91
      571
 95
       25
 70
     0
 93
       26
310
5DD02A80
340
42
 94
        0
  0
ACAD_PROXY_OBJECT
  5
45521
330
17F
100
AcDbProxyObject
 90
      499
 91
      572
 95
       25
 70
     0
 93
      250
310
5DD020000000000000A1000000000000002440408F0F9023C3E409A0DCFFFF80
340
58
340
3E0D
340
3E0E
340
5F
340
60
340
61
340
62
340
63
340
68
340
0
 94
        0
  0
ACAD_PROXY_OBJECT
  5
45522
330
17F
100
AcDbProxyObject
 90
      499
 91
      573
 95
       25
 70
     0
 93
    13889
310
5DD1D003FFFFFFFD030300030CCCCCCCCCCCC250200800030C01030300030CCCCCCCCCCCC250200800030C00050C8DC0955782CC838A83588367014ED1D15395149050D3CB1294138B0C0B23702555E0B320E2A0D620D9CB11D15395149055160B095CCB0A11D1539354D1C819D95B991A5B5E880CCC0A78000C0000000000
310
00000000000000000000010CCCCCCCCCCCC250200800030C010CCCCCCCCCCCC250200800030C020143CF4F111959985D5B1D151A5D1B194F8050A8C8A8365815B8375838B014E51D15395149050D3CB1294138B0C0B2322A0D96056E0DD60E2CB11D15395149055160B095CCB0A11D1539354D1C819D95B991A5B5E880CCC4
310
A78000C000000000000000000000000000000010CCCCCCCCCCCC250200800030C010CCCCCCCCCCCC250200800030C020143CF4F111959985D5B1D151A5D1B194F90D44111409034110541D0C4350F4050E44D03449074510F000141232D24D7C053247454E545241434F2C4A504E2C302C8CB4935F2C47454E54524154582C
310
25732C2847454E4D53472067656E64696D7A20312900010104002214000281464500A608E8A9CA8A482869E5894A09C5860591914588E8A9CA8A482A8B0584AE658508E8A9C9AA68E40CECADCC8D2DAF4406452029E9E9E27B934B3B4B71F1E24A31427A91424A9A12620A7259427B934B3B4B7149624A9A12620A7259424B
310
A32B6949496111116111711149F1E24BA32B69F00808200111A000140560052F47454E545241434F2C4A504E2C302C582C47454E54524154582C25732C2847454E4D53472067656E64696D7A20332900010100002054000280AC80A5E8E8A9CA8A482869E5894A09C586058B2588E8A9CA8A482A8B0584AE658508E8A9C9AA
310
68E40CECADCC8D2DAF4406852000202000040E800050152014BD1D15395149050D3CB1294138B0C0B148B11D15395149055160B095CCB0A11D1539354D1C819D95B991A5B5E880D8A400040400008250000A0507A6029823A2A72A2920A1A79625282716181641E99623A2A72A2920AA2C1612B9961423A2A726A9A39033B2
310
B73234B6BD101B948000808180105A000140A0F4C053047454E545241434F2C4A504E2C302C83D32C47454E54524154582C25732C2847454E4D53472067656E64696D7A203829000101010020F400028248704B5F00A668E8A9CA8A482869E5894A09C58605921C12D7C588E8A9CA8A482A8B0584AE658508E8A9C9AA68E40
310
CECADCC8D2DAF440646052000200080043280005048B4B8A69014CD1D15395149050D3CB1294138B0C0B22D2E29A4B11D15395149055160B095CCB0A11D1539354D1C819D95B991A5B5E880C8C4A4000400100086D0000A09196926BE029923A2A72A2920A1A796252827161816465A49AF9623A2A72A2920AA2C1612B9961
310
423A2A726A9A39033B2B73234B6BD10189480A02620202080043E80005048D8096DA014CD1D15395149050D3CB1294138B0C0B236025B68B11D15395149055160B095CCB0A11D1539354D1C819D95B991A5B5E880C4D0A4000404140280D0000A190687072706CD06C5069D06B0029DA3A2A72A2920A1A7962528271618164
310
1A1C1C9C1B341B141A741AC1623A2A72A2920AA2C1612B9961423A2A726A9A39033B2B73234B6BD10189A94800080820050EA000143A322A0D0E0E4E0D9A0D8A0D3A0D60053D47454E545241434F2C4A504E2C302C8C8A8343839383668362834E83582C47454E54524154582C25732C2847454E4D53472067656E64696D7A
310
2031372900010105002274000281464500A628E8A9CA8A482869E5894A09C5860591914588E8A9CA8A482A8B0584AE658508E8A9C9AA68E40CECADCC8D2DAF440626C52000202080044A8000504909497CA014CD1D15395149050D3CB1294138B0C0B242525F28B11D15395149055160B095CCB0A11D1539354D1C819D95B9
310
91A5B5E880C4E4A400040418008A521E000000000000001CA040C00000000000034408080000000000006881010000000000000D102040000000000001A204080000000000003440818000000000000728103000000000000125020600000000004028A040000000000000034408000000000000004881000000000000000D
310
102000000000000001A204000000000000003440818000000000000508143C0000000000000039408180000000000006881030000000000000D102060000000000001A2040C00000000000034408180000000000006881030000000000000E5020600000000000024A040C0000000000805140800000000000000688100000
310
00000000009102000000000000001A2040000000000000034408180000000000006881030000000000000A10284220000000878000002020000008380000020400000081800000208000000828000002028900000000
340
0
340
0
340
0
340
0
340
180
340
180
 94
        0
  0
ACAD_PROXY_OBJECT
  5
46493
330
46492
100
AcDbProxyObject
 90
      499
 91
      570
 95
       25
 70
     0
 93
     2680
310
5DE0143A0D960E4E0DDA0E32056E0D9C80C4043A013D2525633C486F6C653A63746469613E2078203C486F6C653A637464657074683E20555C503C696628657175616C28486F6C653A7461707065642C223022292C22252563222C486F6C653A6E6F6D696E616C202220782022293E3C696628657175616C28486F6C653A74
310
61707065642C223022292C486F6C653A6469612C486F6C653A706974636864657363293E3C696628657175616C28486F6C653A7461707065642C223122292C22207820222C2222293E3C696628657175616C28486F6C653A7461707065642C223122292C486F6C653A74617064657074682C2222293E203C69662865717561
310
6C28486F6C653A7465726D696E6174696F6E2C223022292C22202F20222C2222293E3C696628657175616C28486F6C653A7465726D696E6174696F6E2C223022292C486F6C653A64657074682C2222293E
  0
ACAD_PROXY_OBJECT
  5
46494
330
46492
100
AcDbProxyObject
 90
      499
 91
      570
 95
       25
 70
     0
 93
     2688
310
5DE0143A0D960E4E0DDA0E32056E0D9C80C4043B013D2525633C486F6C653A63746469613E2078203C486F6C653A6374616E676C653E2525645C503C696628657175616C28486F6C653A7461707065642C223022292C22252563222C486F6C653A6E6F6D696E616C202220782022293E3C696628657175616C28486F6C653A
310
7461707065642C223022292C486F6C653A6469612C486F6C653A706974636864657363293E3C696628657175616C28486F6C653A7461707065642C223122292C22207820222C2222293E3C696628657175616C28486F6C653A7461707065642C223122292C486F6C653A74617064657074682C2222293E203C696628657175
310
616C28486F6C653A7465726D696E6174696F6E2C223022292C22202F20222C2222293E3C696628657175616C28486F6C653A7465726D696E6174696F6E2C223022292C486F6C653A64657074682C2222293E
  0
ACAD_PROXY_OBJECT
  5
46495
330
46492
100
AcDbProxyObject
 90
      499
 91
      570
 95
       25
 70
     0
 93
     2392
310
5DE0143A0D960E4E0DDA0E32056E0D9C80C40416013D3C696628657175616C28486F6C653A7461707065642C223022292C22252563222C486F6C653A6E6F6D696E616C202220782022293E3C696628657175616C28486F6C653A7461707065642C223022292C486F6C653A6469612C486F6C653A706974636864657363293E
310
3C696628657175616C28486F6C653A7461707065642C223122292C22207820222C2222293E3C696628657175616C28486F6C653A7461707065642C223122292C486F6C653A74617064657074682C2222293E203C696628657175616C28486F6C653A7465726D696E6174696F6E2C223022292C22202F20222C2222293E3C69
310
6628657175616C28486F6C653A7465726D696E6174696F6E2C223022292C486F6C653A64657074682C2222293E
  0
ACAD_PROXY_OBJECT
  5
46496
330
46492
100
AcDbProxyObject
 90
      499
 91
      570
 95
       25
 70
     0
 93
      344
310
5DE0143A0D960E4E0DDA0E32056E0D9C80C805173D3C535444503A444553433E203C535444503A5354443E
  0
ACAD_PROXY_OBJECT
  5
46497
330
46492
100
AcDbProxyObject
 90
      499
 91
      570
 95
       25
 70
     0
 93
      256
310
5DE0143A0D960E4E0DDA0E32056E0D9C80C4050C3D3C535444503A444553433E
  0
ACAD_PROXY_OBJECT
  5
4551E
330
4551A
100
AcDbProxyObject
 90
      499
 91
      570
 95
       25
 70
     0
 93
     1376
310
5DE0143A0D960E4E0DDA0E32056E0D9C80C405983D3C486F6C653A6469613E3C696628657175616C28486F6C653A7465726D696E6174696F6E2C223022292C2220905B82B320222C22208368838A838B22293E3C696628657175616C28486F6C653A7465726D696E6174696F6E2C223022292C486F6C653A64657074682C22
310
22293E2C203C486F6C653A63746469613E2082B482AE82E882CC905B82B3203C486F6C653A637464657074683E
  0
ACAD_PROXY_OBJECT
  5
4551F
330
4551A
100
AcDbProxyObject
 90
      499
 91
      570
 95
       25
 70
     0
 93
     2072
310
5DE0143A0D960E4E0DDA0E32056E0D9C80C405EF3D3C486F6C653A6374616E676C653E252564202525633C486F6C653A63746469613E208E4D8C8A2C203C696628657175616C28486F6C653A7461707065642C223022292C22252563222C486F6C653A6E6F6D696E616C202220782022293E3C696628657175616C28486F6C
310
653A7461707065642C223022292C486F6C653A6469612C486F6C653A706974636864657363293E203C696628657175616C28486F6C653A7465726D696E6174696F6E2C223022292C22905B82B320222C222022293E3C696628657175616C28486F6C653A7465726D696E6174696F6E2C223022292C486F6C653A6465707468
310
2C2222293E
  0
ACAD_PROXY_OBJECT
  5
4551D
330
4551A
100
AcDbProxyObject
 90
      499
 91
      570
 95
       25
 70
     0
 93
     1752
310
5DE0143A0D960E4E0DDA0E32056E0D9C80C405C73D3C696628657175616C28486F6C653A7461707065642C223022292C22252563222C486F6C653A6E6F6D696E616C202220782022293E3C696628657175616C28486F6C653A7461707065642C223022292C486F6C653A6469612C486F6C653A706974636864657363293E20
310
3C696628657175616C28486F6C653A7465726D696E6174696F6E2C223022292C22905B82B320222C222022293E3C696628657175616C28486F6C653A7465726D696E6174696F6E2C223022292C486F6C653A64657074682C2222293E
  0
ACAD_PROXY_OBJECT
  5
4551C
330
4551A
100
AcDbProxyObject
 90
      499
 91
      570
 95
       25
 70
     0
 93
      344
310
5DE0143A0D960E4E0DDA0E32056E0D9C80C805173D3C535444503A444553433E203C535444503A5354443E
  0
ACAD_PROXY_OBJECT
  5
4551B
330
4551A
100
AcDbProxyObject
 90
      499
 91
      570
 95
       25
 70
     0
 93
      256
310
5DE0143A0D960E4E0DDA0E32056E0D9C80C4050C3D3C535444503A444553433E
  0
ENDSEC
  0
EOF
