  0
SECTION
  2
HEADER
  9
$ACADVER
  1
AC1014
  9
$ACADMAINTVER
 70
     0
  9
$DWGCODEPAGE
  3
ANSI_932
  9
$INSBASE
 10
-587.250952
 20
747.890188
 30
0.0
  9
$EXTMIN
 10
1.219847
 20
150.213866
 30
0.0
  9
$EXTMAX
 10
201.571915
 20
249.891025
 30
0.0
  9
$LIMMIN
 10
-587.250952
 20
327.890188
  9
$LIMMAX
 10
600.749048
 20
957.890188
  9
$ORTHOMODE
 70
     1
  9
$REGENMODE
 70
     1
  9
$FILLMODE
 70
     1
  9
$QTEXTMODE
 70
     0
  9
$MIRRTEXT
 70
     1
  9
$DRAGMODE
 70
     2
  9
$LTSCALE
 40
5.0
  9
$OSMODE
 70
    37
  9
$ATTMODE
 70
     1
  9
$TEXTSIZE
 40
5.0
  9
$TRACEWID
 40
0.05
  9
$TEXTSTYLE
  7
STANDARD
  9
$CLAYER
  8
寸法
  9
$CELTYPE
  6
CONTINUOUS
  9
$CECOLOR
 62
   256
  9
$CELTSCALE
 40
1.0
  9
$DELOBJ
 70
     1
  9
$DISPSILH
 70
     0
  9
$DIMSCALE
 40
1.0
  9
$DIMASZ
 40
2.0
  9
$DIMEXO
 40
1.0
  9
$DIMDLI
 40
8.0
  9
$DIMRND
 40
0.0
  9
$DIMDLE
 40
0.0
  9
$DIMEXE
 40
2.0
  9
$DIMTP
 40
0.0
  9
$DIMTM
 40
0.0
  9
$DIMTXT
 40
3.0
  9
$DIMCEN
 40
-1.0
  9
$DIMTSZ
 40
0.0
  9
$DIMTOL
 70
     0
  9
$DIMLIM
 70
     0
  9
$DIMTIH
 70
     0
  9
$DIMTOH
 70
     0
  9
$DIMSE1
 70
     0
  9
$DIMSE2
 70
     0
  9
$DIMTAD
 70
     1
  9
$DIMZIN
 70
     8
  9
$DIMBLK
  1

  9
$DIMASO
 70
     1
  9
$DIMSHO
 70
     1
  9
$DIMPOST
  1

  9
$DIMAPOST
  1

  9
$DIMALT
 70
     0
  9
$DIMALTD
 70
     2
  9
$DIMALTF
 40
25.4
  9
$DIMLFAC
 40
1.0
  9
$DIMTOFL
 70
     1
  9
$DIMTVP
 40
0.0
  9
$DIMTIX
 70
     0
  9
$DIMSOXD
 70
     0
  9
$DIMSAH
 70
     1
  9
$DIMBLK1
  1
_OPEN30
  9
$DIMBLK2
  1
_OPEN30
  9
$DIMSTYLE
  2
STANDARD
  9
$DIMCLRD
 70
     1
  9
$DIMCLRE
 70
     1
  9
$DIMCLRT
 70
     3
  9
$DIMTFAC
 40
0.5
  9
$DIMGAP
 40
1.0
  9
$DIMJUST
 70
     0
  9
$DIMSD1
 70
     0
  9
$DIMSD2
 70
     0
  9
$DIMTOLJ
 70
     1
  9
$DIMTZIN
 70
    13
  9
$DIMALTZ
 70
     0
  9
$DIMALTTZ
 70
     0
  9
$DIMFIT
 70
     0
  9
$DIMUPT
 70
     0
  9
$DIMUNIT
 70
     2
  9
$DIMDEC
 70
     2
  9
$DIMTDEC
 70
     3
  9
$DIMALTU
 70
     2
  9
$DIMALTTD
 70
     2
  9
$DIMTXSTY
  7
STANDARD
  9
$DIMAUNIT
 70
     0
  9
$LUNITS
 70
     2
  9
$LUPREC
 70
     0
  9
$SKETCHINC
 40
0.1
  9
$FILLETRAD
 40
0.0
  9
$AUNITS
 70
     0
  9
$AUPREC
 70
     0
  9
$MENU
  1
acad
  9
$ELEVATION
 40
0.0
  9
$PELEVATION
 40
0.0
  9
$THICKNESS
 40
0.0
  9
$LIMCHECK
 70
     0
  9
$BLIPMODE
 70
     0
  9
$CHAMFERA
 40
0.0
  9
$CHAMFERB
 40
0.0
  9
$CHAMFERC
 40
0.0
  9
$CHAMFERD
 40
0.0
  9
$SKPOLY
 70
     0
  9
$TDCREATE
 40
2450751.535399305
  9
$TDUPDATE
 40
2452011.379212962
  9
$TDINDWG
 40
1.7468817130
  9
$TDUSRTIMER
 40
1.7468817130
  9
$USRTIMER
 70
     1
  9
$ANGBASE
 50
0.0
  9
$ANGDIR
 70
     0
  9
$PDMODE
 70
    32
  9
$PDSIZE
 40
0.0
  9
$PLINEWID
 40
0.0
  9
$COORDS
 70
     2
  9
$SPLFRAME
 70
     0
  9
$SPLINETYPE
 70
     5
  9
$SPLINESEGS
 70
     8
  9
$ATTDIA
 70
     0
  9
$ATTREQ
 70
     1
  9
$HANDLING
 70
     1
  9
$HANDSEED
  5
213C
  9
$SURFTAB1
 70
     6
  9
$SURFTAB2
 70
     6
  9
$SURFTYPE
 70
     6
  9
$SURFU
 70
     6
  9
$SURFV
 70
     6
  9
$UCSNAME
  2

  9
$UCSORG
 10
40.53800450572526
 20
146.9196145921314
 30
0.0
  9
$UCSXDIR
 10
1.0
 20
0.0
 30
0.0
  9
$UCSYDIR
 10
0.0
 20
1.0
 30
0.0
  9
$PUCSNAME
  2

  9
$PUCSORG
 10
0.0
 20
0.0
 30
0.0
  9
$PUCSXDIR
 10
1.0
 20
0.0
 30
0.0
  9
$PUCSYDIR
 10
0.0
 20
1.0
 30
0.0
  9
$USERI1
 70
     0
  9
$USERI2
 70
     0
  9
$USERI3
 70
     0
  9
$USERI4
 70
     0
  9
$USERI5
 70
     0
  9
$USERR1
 40
0.0
  9
$USERR2
 40
0.0
  9
$USERR3
 40
0.0
  9
$USERR4
 40
0.0
  9
$USERR5
 40
0.0
  9
$WORLDVIEW
 70
     1
  9
$SHADEDGE
 70
     3
  9
$SHADEDIF
 70
    70
  9
$TILEMODE
 70
     1
  9
$MAXACTVP
 70
    16
  9
$PINSBASE
 10
0.0
 20
0.0
 30
0.0
  9
$PLIMCHECK
 70
     0
  9
$PEXTMIN
 10
1.000000E+20
 20
1.000000E+20
 30
1.000000E+20
  9
$PEXTMAX
 10
-1.000000E+20
 20
-1.000000E+20
 30
-1.000000E+20
  9
$PLIMMIN
 10
0.0
 20
0.0
  9
$PLIMMAX
 10
12.0
 20
9.0
  9
$UNITMODE
 70
     0
  9
$VISRETAIN
 70
     0
  9
$PLINEGEN
 70
     0
  9
$PSLTSCALE
 70
     1
  9
$TREEDEPTH
 70
  3020
  9
$PICKSTYLE
 70
     0
  9
$CMLSTYLE
  2
STANDARD
  9
$CMLJUST
 70
     0
  9
$CMLSCALE
 40
1.0
  9
$PROXYGRAPHICS
 70
     1
  9
$MEASUREMENT
 70
     0
  0
ENDSEC
  0
SECTION
  2
CLASSES
  0
CLASS
  1
LWPOLYLINE
  2
AcDbPolyline
  3
"AutoCAD"
 90
        0
280
     0
281
     1
  0
CLASS
  1
ACDBDICTIONARYWDFLT
  2
AcDbDictionaryWithDefault
  3
AutoCAD 2000
 90
        0
280
     1
281
     0
  0
CLASS
  1
ACDBPLACEHOLDER
  2
AcDbPlaceHolder
  3
AutoCAD 2000
 90
        0
280
     1
281
     0
  0
CLASS
  1
LAYOUT
  2
AcDbLayout
  3
AutoCAD 2000
 90
        0
280
     1
281
     0
  0
CLASS
  1
LONG_TRANSACTION
  2
AcDbLongTransaction
  3
AutoCAD 2000
 90
        0
280
     1
281
     0
  0
CLASS
  1
LWPOLYLINE
  2
AcDbPolyline
  3
"AutoCAD"
 90
        0
280
     0
281
     1
  0
CLASS
  1
HATCH
  2
AcDbHatch
  3
"ACAD_SEDONA"
 90
        0
280
     0
281
     1
  0
CLASS
  1
XRECORD
  2
AcDbXrecord
  3
"<Built In>"
 90
        0
280
     0
281
     0
  0
CLASS
  1
DICTIONARYVAR
  2
AcDbDictionaryVar
  3
"AutoCAD"
 90
        0
280
     0
281
     0
  0
ENDSEC
  0
SECTION
  2
TABLES
  0
TABLE
  2
VPORT
  5
16
100
AcDbSymbolTable
 70
     1
  0
VPORT
  5
2137
100
AcDbSymbolTableRecord
100
AcDbViewportTableRecord
  2
*ACTIVE
 70
     0
 10
0.0
 20
0.0
 11
1.0
 21
1.0
 12
98.347759
 22
202.655846
 13
0.0
 23
0.0
 14
1.0
 24
1.0
 15
10.0
 25
10.0
 16
0.0
 26
0.0
 36
1.0
 17
0.0
 27
0.0
 37
0.0
 40
133.204118
 41
1.710425
 42
50.0
 43
0.0
 44
0.0
 50
0.0
 51
0.0
 71
     0
 72
   100
 73
     1
 74
     1
 75
     0
 76
     0
 77
     0
 78
     2
  0
ENDTAB
  0
TABLE
  2
LTYPE
  5
11
100
AcDbSymbolTable
 70
     3
  0
LTYPE
  5
12
100
AcDbSymbolTableRecord
100
AcDbLinetypeTableRecord
  2
BYBLOCK
 70
     0
  3

 72
    65
 73
     0
 40
0.0
  0
LTYPE
  5
13
100
AcDbSymbolTableRecord
100
AcDbLinetypeTableRecord
  2
BYLAYER
 70
     0
  3

 72
    65
 73
     0
 40
0.0
  0
LTYPE
  5
7
100
AcDbSymbolTableRecord
100
AcDbLinetypeTableRecord
  2
CONTINUOUS
 70
     0
  3
Solid line
 72
    65
 73
     0
 40
0.0
  0
LTYPE
  5
AA
100
AcDbSymbolTableRecord
100
AcDbLinetypeTableRecord
  2
CENTER
 70
     0
  3
Center ____ _ ____ _ ____ _ ____ _ ____ _ ____
 72
    65
 73
     4
 40
2.0
 49
1.25
 74
     0
 49
-0.25
 74
     0
 49
0.25
 74
     0
 49
-0.25
 74
     0
  0
LTYPE
  5
20FD
100
AcDbSymbolTableRecord
100
AcDbLinetypeTableRecord
  2
PHANTOM
 70
     0
  3
Phantom ______  __  __  ______  __  __  ______
 72
    65
 73
     6
 40
2.5
 49
1.25
 74
     0
 49
-0.25
 74
     0
 49
0.25
 74
     0
 49
-0.25
 74
     0
 49
0.25
 74
     0
 49
-0.25
 74
     0
  0
ENDTAB
  0
TABLE
  2
LAYER
  5
E
100
AcDbSymbolTable
 70
     5
  0
LAYER
  5
6
100
AcDbSymbolTableRecord
100
AcDbLayerTableRecord
  2
0
 70
     0
 62
     7
  6
CONTINUOUS
  0
LAYER
  5
2C
100
AcDbSymbolTableRecord
100
AcDbLayerTableRecord
  2
外形
 70
     0
 62
     3
  6
CONTINUOUS
  0
LAYER
  5
37
102
{ACAD_XDICTIONARY
360
38
102
}
100
AcDbSymbolTableRecord
100
AcDbLayerTableRecord
  2
DEFPOINTS
 70
     0
 62
     7
  6
CONTINUOUS
  0
LAYER
  5
1F
100
AcDbSymbolTableRecord
100
AcDbLayerTableRecord
  2
寸法
 70
     0
 62
     1
  6
CONTINUOUS
  0
LAYER
  5
673
100
AcDbSymbolTableRecord
100
AcDbLayerTableRecord
  2
参考
 70
     0
 62
     2
  6
CONTINUOUS
  0
ENDTAB
  0
TABLE
  2
STYLE
  5
F
100
AcDbSymbolTable
 70
     1
  0
STYLE
  5
10
100
AcDbSymbolTableRecord
100
AcDbTextStyleTableRecord
  2
STANDARD
 70
     0
 40
0.0
 41
1.0
 50
0.0
 71
     0
 42
5.0
  3
MONOTXT
  4
BIGFONT
  0
ENDTAB
  0
TABLE
  2
VIEW
  5
14
100
AcDbSymbolTable
 70
     0
  0
ENDTAB
  0
TABLE
  2
UCS
  5
15
100
AcDbSymbolTable
 70
     0
  0
ENDTAB
  0
TABLE
  2
APPID
  5
18
100
AcDbSymbolTable
 70
     2
  0
APPID
  5
19
100
AcDbSymbolTableRecord
100
AcDbRegAppTableRecord
  2
ACAD
 70
     0
  0
APPID
  5
C59
100
AcDbSymbolTableRecord
100
AcDbRegAppTableRecord
  2
DRAWINGVARIABLESXDATA
 70
     0
  0
ENDTAB
  0
TABLE
  2
DIMSTYLE
  5
1A
100
AcDbSymbolTable
 70
     2
  0
DIMSTYLE
105
21
102
{ACAD_XDICTIONARY
360
22
102
}
102
{ACAD_REACTORS
330
1C8F
330
1C99
330
2018
330
2030
330
2075
330
20AE
330
20E9
330
2107
330
2135
102
}
100
AcDbSymbolTableRecord
100
AcDbDimStyleTableRecord
  2
STANDARD
 70
     0
  3

  4

  5

  6
_OPEN30
  7
_OPEN30
 40
0.0
 41
2.0
 42
1.0
 43
8.0
 44
2.0
 45
0.0
 46
0.0
 47
0.0
 48
0.0
140
3.0
141
-1.0
142
0.0
143
25.4
144
1.0
145
0.0
146
1.0
147
1.0
 71
     0
 72
     0
 73
     0
 74
     0
 75
     0
 76
     0
 77
     1
 78
     8
170
     0
171
     2
172
     1
173
     1
174
     0
175
     0
176
     1
177
     1
178
     3
270
     2
271
     2
272
     2
273
     2
274
     2
340
10
275
     0
280
     0
281
     0
282
     0
283
     1
284
     8
285
     0
286
     0
287
     3
288
     0
  0
DIMSTYLE
105
674
100
AcDbSymbolTableRecord
100
AcDbDimStyleTableRecord
  2
参考寸法
 70
     0
  3

  4

  5

  6
_DOTSMALL
  7
_DOTSMALL
 40
1.0
 41
2.0
 42
1.0
 43
8.0
 44
2.0
 45
0.0
 46
0.0
 47
0.0
 48
0.0
140
3.0
141
-1.0
142
0.0
143
25.4
144
1.0
145
0.0
146
1.0
147
1.0
 71
     0
 72
     0
 73
     0
 74
     0
 75
     0
 76
     0
 77
     1
 78
     8
170
     0
171
     2
172
     1
173
     1
174
     0
175
     0
176
     2
177
     2
178
     2
270
     2
271
     3
272
     2
273
     2
274
     2
340
10
275
     0
280
     0
281
     0
282
     0
283
     1
284
     8
285
     0
286
     0
287
     3
288
     0
  0
ENDTAB
  0
TABLE
  2
BLOCK_RECORD
  5
1
100
AcDbSymbolTable
 70
    16
  0
BLOCK_RECORD
  5
2
102
{ACAD_XDICTIONARY
360
3
102
}
100
AcDbSymbolTableRecord
100
AcDbBlockTableRecord
  2
*MODEL_SPACE
  0
BLOCK_RECORD
  5
9
102
{ACAD_XDICTIONARY
360
A
102
}
100
AcDbSymbolTableRecord
100
AcDbBlockTableRecord
  2
*PAPER_SPACE
  0
BLOCK_RECORD
  5
24
100
AcDbSymbolTableRecord
100
AcDbBlockTableRecord
  2
_DOTSMALL
  0
BLOCK_RECORD
  5
470
100
AcDbSymbolTableRecord
100
AcDbBlockTableRecord
  2
_OPEN30
  0
BLOCK_RECORD
  5
1C83
100
AcDbSymbolTableRecord
100
AcDbBlockTableRecord
  2
*D6
  0
BLOCK_RECORD
  5
1C90
100
AcDbSymbolTableRecord
100
AcDbBlockTableRecord
  2
*D7
  0
BLOCK_RECORD
  5
200C
100
AcDbSymbolTableRecord
100
AcDbBlockTableRecord
  2
*D8
  0
BLOCK_RECORD
  5
2024
100
AcDbSymbolTableRecord
100
AcDbBlockTableRecord
  2
*D9
  0
BLOCK_RECORD
  5
2063
100
AcDbSymbolTableRecord
100
AcDbBlockTableRecord
  2
*D11
  0
BLOCK_RECORD
  5
209C
100
AcDbSymbolTableRecord
100
AcDbBlockTableRecord
  2
*D12
  0
BLOCK_RECORD
  5
20DD
100
AcDbSymbolTableRecord
100
AcDbBlockTableRecord
  2
*D13
  0
BLOCK_RECORD
  5
20FE
100
AcDbSymbolTableRecord
100
AcDbBlockTableRecord
  2
*D14
  0
BLOCK_RECORD
  5
2127
100
AcDbSymbolTableRecord
100
AcDbBlockTableRecord
  2
*D15
  0
ENDTAB
  0
ENDSEC
  0
SECTION
  2
BLOCKS
  0
BLOCK
  5
5
100
AcDbEntity
  8
0
100
AcDbBlockBegin
  2
*MODEL_SPACE
 70
     0
 10
0.0
 20
0.0
 30
0.0
  3
*MODEL_SPACE
  1

  0
ENDBLK
  5
8
100
AcDbEntity
  8
0
100
AcDbBlockEnd
  0
BLOCK
  5
C
100
AcDbEntity
 67
     1
  8
0
100
AcDbBlockBegin
  2
*PAPER_SPACE
 70
     0
 10
0.0
 20
0.0
 30
0.0
  3
*PAPER_SPACE
  1

  0
ENDBLK
  5
D
100
AcDbEntity
 67
     1
  8
0
100
AcDbBlockEnd
  0
BLOCK
  5
29
100
AcDbEntity
  8
0
100
AcDbBlockBegin
  2
_DOTSMALL
 70
     0
 10
0.0
 20
0.0
 30
0.0
  3
_DOTSMALL
  1

  0
POLYLINE
  5
25
100
AcDbEntity
  8
0
  6
BYBLOCK
 62
     0
100
AcDb2dPolyline
 66
     1
 10
0.0
 20
0.0
 30
0.0
 70
     1
 40
0.5
 41
0.5
  0
VERTEX
  5
26
100
AcDbEntity
  8
0
  6
BYBLOCK
 62
     0
100
AcDbVertex
100
AcDb2dVertex
 10
-0.0625
 20
0.0
 30
0.0
 42
1.0
  0
VERTEX
  5
27
100
AcDbEntity
  8
0
  6
BYBLOCK
 62
     0
100
AcDbVertex
100
AcDb2dVertex
 10
0.0625
 20
0.0
 30
0.0
 42
1.0
  0
SEQEND
  5
28
100
AcDbEntity
  8
0
  6
BYBLOCK
 62
     0
  0
ENDBLK
  5
2A
100
AcDbEntity
  8
0
100
AcDbBlockEnd
  0
BLOCK
  5
471
100
AcDbEntity
  8
0
100
AcDbBlockBegin
  2
_OPEN30
 70
     0
 10
0.0
 20
0.0
 30
0.0
  3
_OPEN30
  1

  0
LINE
  5
472
100
AcDbEntity
  8
0
  6
BYBLOCK
 62
     0
100
AcDbLine
 10
-1.0
 20
0.267949
 30
0.0
 11
0.0
 21
0.0
 31
0.0
  0
LINE
  5
473
100
AcDbEntity
  8
0
  6
BYBLOCK
 62
     0
100
AcDbLine
 10
0.0
 20
0.0
 30
0.0
 11
-1.0
 21
-0.267949
 31
0.0
  0
LINE
  5
474
100
AcDbEntity
  8
0
  6
BYBLOCK
 62
     0
100
AcDbLine
 10
0.0
 20
0.0
 30
0.0
 11
-1.0
 21
0.0
 31
0.0
  0
ENDBLK
  5
475
100
AcDbEntity
  8
0
100
AcDbBlockEnd
  0
BLOCK
  5
1CE1
100
AcDbEntity
  8
0
100
AcDbBlockBegin
  2
*D6
 70
     1
 10
0.0
 20
0.0
 30
0.0
  3
*D6
  1

  0
LINE
  5
1CE2
100
AcDbEntity
  8
0
  6
BYBLOCK
 62
     1
100
AcDbLine
 10
122.907762
 20
258.968606
 30
0.0
 11
122.907762
 21
243.545929
 31
0.0
  0
LINE
  5
1CE3
100
AcDbEntity
  8
0
  6
BYBLOCK
 62
     1
100
AcDbLine
 10
133.907762
 20
258.968606
 30
0.0
 11
133.907762
 21
243.545929
 31
0.0
  0
LINE
  5
1CE4
100
AcDbEntity
  8
0
  6
BYBLOCK
 62
     1
100
AcDbLine
 10
124.907762
 20
245.545929
 30
0.0
 11
131.907762
 21
245.545929
 31
0.0
  0
INSERT
  5
1CE5
100
AcDbEntity
  8
0
  6
BYBLOCK
 62
     1
100
AcDbBlockReference
  2
_OPEN30
 10
122.907762
 20
245.545929
 30
0.0
 41
2.0
 42
2.0
 43
2.0
 50
180.0
  0
INSERT
  5
1CE6
100
AcDbEntity
  8
0
  6
BYBLOCK
 62
     1
100
AcDbBlockReference
  2
_OPEN30
 10
133.907762
 20
245.545929
 30
0.0
 41
2.0
 42
2.0
 43
2.0
  0
MTEXT
  5
1CE7
100
AcDbEntity
  8
0
  6
BYBLOCK
 62
     3
100
AcDbMText
 10
128.407762
 20
248.045929
 30
0.0
 40
3.0
 41
0.0
 71
     5
 72
     1
  1
\A1;11
  0
POINT
  5
1CE8
100
AcDbEntity
  8
DEFPOINTS
  6
BYBLOCK
 62
     0
100
AcDbPoint
 10
122.907762
 20
259.968606
 30
0.0
  0
POINT
  5
1CE9
100
AcDbEntity
  8
DEFPOINTS
  6
BYBLOCK
 62
     0
100
AcDbPoint
 10
133.907762
 20
259.968606
 30
0.0
  0
POINT
  5
1CEA
100
AcDbEntity
  8
DEFPOINTS
  6
BYBLOCK
 62
     0
100
AcDbPoint
 10
133.907762
 20
245.545929
 30
0.0
  0
ENDBLK
  5
1CEB
100
AcDbEntity
  8
0
100
AcDbBlockEnd
  0
BLOCK
  5
1CEC
100
AcDbEntity
  8
0
100
AcDbBlockBegin
  2
*D7
 70
     1
 10
0.0
 20
0.0
 30
0.0
  3
*D7
  1

  0
LINE
  5
1CED
100
AcDbEntity
  8
0
  6
BYBLOCK
 62
     1
100
AcDbLine
 10
140.846952
 20
278.02751
 30
0.0
 11
133.383438
 21
268.630917
 31
0.0
  0
LINE
  5
1CEE
100
AcDbEntity
  8
0
  6
BYBLOCK
 62
     1
100
AcDbLine
 10
123.432087
 20
256.102126
 30
0.0
 11
122.188168
 21
254.536027
 31
0.0
  0
MTEXT
  5
1CEF
100
AcDbEntity
  8
0
  6
BYBLOCK
 62
     3
100
AcDbMText
 10
135.779531
 20
275.667161
 30
0.0
 40
3.0
 41
0.0
 71
     5
 72
     1
  1
\A1;\U+220512
 11
0.621959
 21
0.783049
 31
0.0
  0
LINE
  5
1CF0
100
AcDbEntity
  8
0
  6
BYBLOCK
 62
     1
100
AcDbLine
 10
124.676006
 20
257.668225
 30
0.0
 11
132.139519
 21
267.064818
 31
0.0
  0
INSERT
  5
1CF1
100
AcDbEntity
  8
0
  6
BYBLOCK
 62
     1
100
AcDbBlockReference
  2
_OPEN30
 10
124.676006
 20
257.668225
 30
0.0
 41
2.0
 42
2.0
 43
2.0
 50
51.540632
  0
INSERT
  5
1CF2
100
AcDbEntity
  8
0
  6
BYBLOCK
 62
     1
100
AcDbBlockReference
  2
_OPEN30
 10
132.139519
 20
267.064818
 30
0.0
 41
2.0
 42
2.0
 43
2.0
 50
231.540632
  0
POINT
  5
1CF3
100
AcDbEntity
  8
DEFPOINTS
  6
BYBLOCK
 62
     0
100
AcDbPoint
 10
132.139519
 20
267.064818
 30
0.0
  0
POINT
  5
1CF4
100
AcDbEntity
  8
DEFPOINTS
  6
BYBLOCK
 62
     0
100
AcDbPoint
 10
124.676006
 20
257.668225
 30
0.0
  0
ENDBLK
  5
1CF5
100
AcDbEntity
  8
0
100
AcDbBlockEnd
  0
BLOCK
  5
2019
100
AcDbEntity
  8
0
100
AcDbBlockBegin
  2
*D8
 70
     1
 10
0.0
 20
0.0
 30
0.0
  3
*D8
  1

  0
LINE
  5
201A
100
AcDbEntity
  8
0
  6
BYBLOCK
 62
     1
100
AcDbLine
 10
45.841349
 20
214.227497
 30
0.0
 11
45.841349
 21
191.967918
 31
0.0
  0
LINE
  5
201B
100
AcDbEntity
  8
0
  6
BYBLOCK
 62
     1
100
AcDbLine
 10
195.841349
 20
217.227497
 30
0.0
 11
195.841349
 21
191.967918
 31
0.0
  0
LINE
  5
201C
100
AcDbEntity
  8
0
  6
BYBLOCK
 62
     1
100
AcDbLine
 10
47.841349
 20
193.967918
 30
0.0
 11
193.841349
 21
193.967918
 31
0.0
  0
INSERT
  5
201D
100
AcDbEntity
  8
0
  6
BYBLOCK
 62
     1
100
AcDbBlockReference
  2
_OPEN30
 10
45.841349
 20
193.967918
 30
0.0
 41
2.0
 42
2.0
 43
2.0
 50
180.0
  0
INSERT
  5
201E
100
AcDbEntity
  8
0
  6
BYBLOCK
 62
     1
100
AcDbBlockReference
  2
_OPEN30
 10
195.841349
 20
193.967918
 30
0.0
 41
2.0
 42
2.0
 43
2.0
  0
MTEXT
  5
201F
100
AcDbEntity
  8
0
  6
BYBLOCK
 62
     3
100
AcDbMText
 10
120.841349
 20
196.467918
 30
0.0
 40
3.0
 41
0.0
 71
     5
 72
     1
  1
\A1;150
  0
POINT
  5
2020
100
AcDbEntity
  8
DEFPOINTS
  6
BYBLOCK
 62
     0
100
AcDbPoint
 10
45.841349
 20
215.227497
 30
0.0
  0
POINT
  5
2021
100
AcDbEntity
  8
DEFPOINTS
  6
BYBLOCK
 62
     0
100
AcDbPoint
 10
195.841349
 20
218.227497
 30
0.0
  0
POINT
  5
2022
100
AcDbEntity
  8
DEFPOINTS
  6
BYBLOCK
 62
     0
100
AcDbPoint
 10
195.841349
 20
193.967918
 30
0.0
  0
ENDBLK
  5
2023
100
AcDbEntity
  8
0
100
AcDbBlockEnd
  0
BLOCK
  5
2058
100
AcDbEntity
  8
0
100
AcDbBlockBegin
  2
*D9
 70
     1
 10
0.0
 20
0.0
 30
0.0
  3
*D9
  1

  0
LINE
  5
2059
100
AcDbEntity
  8
0
  6
BYBLOCK
 62
     1
100
AcDbLine
 10
39.632688
 20
223.227497
 30
0.0
 11
37.419604
 21
223.227497
 31
0.0
  0
LINE
  5
205A
100
AcDbEntity
  8
0
  6
BYBLOCK
 62
     1
100
AcDbLine
 10
44.841349
 20
215.227497
 30
0.0
 11
37.419604
 21
215.227497
 31
0.0
  0
LINE
  5
205B
100
AcDbEntity
  8
0
  6
BYBLOCK
 62
     1
100
AcDbLine
 10
39.419604
 20
221.227497
 30
0.0
 11
39.419604
 21
217.227497
 31
0.0
  0
INSERT
  5
205C
100
AcDbEntity
  8
0
  6
BYBLOCK
 62
     1
100
AcDbBlockReference
  2
_OPEN30
 10
39.419604
 20
223.227497
 30
0.0
 41
2.0
 42
2.0
 43
2.0
 50
90.0
  0
INSERT
  5
205D
100
AcDbEntity
  8
0
  6
BYBLOCK
 62
     1
100
AcDbBlockReference
  2
_OPEN30
 10
39.419604
 20
215.227497
 30
0.0
 41
2.0
 42
2.0
 43
2.0
 50
270.0
  0
MTEXT
  5
205E
100
AcDbEntity
  8
0
  6
BYBLOCK
 62
     3
100
AcDbMText
 10
36.919604
 20
219.227497
 30
0.0
 40
3.0
 41
0.0
 71
     5
 72
     1
  1
\A1;8
 11
0.0
 21
1.0
 31
0.0
  0
POINT
  5
205F
100
AcDbEntity
  8
DEFPOINTS
  6
BYBLOCK
 62
     0
100
AcDbPoint
 10
40.632688
 20
223.227497
 30
0.0
  0
POINT
  5
2060
100
AcDbEntity
  8
DEFPOINTS
  6
BYBLOCK
 62
     0
100
AcDbPoint
 10
45.841349
 20
215.227497
 30
0.0
  0
POINT
  5
2061
100
AcDbEntity
  8
DEFPOINTS
  6
BYBLOCK
 62
     0
100
AcDbPoint
 10
39.419604
 20
215.227497
 30
0.0
  0
ENDBLK
  5
2062
100
AcDbEntity
  8
0
100
AcDbBlockEnd
  0
BLOCK
  5
2076
100
AcDbEntity
  8
0
100
AcDbBlockBegin
  2
*D11
 70
     1
 10
0.0
 20
0.0
 30
0.0
  3
*D11
  1

  0
LINE
  5
2077
100
AcDbEntity
  8
0
  6
BYBLOCK
 62
     1
100
AcDbLine
 10
14.036445
 20
214.233741
 30
0.0
 11
13.204375
 21
198.356896
 31
0.0
  0
LINE
  5
2078
100
AcDbEntity
  8
0
  6
BYBLOCK
 62
     1
100
AcDbLine
 10
14.088781
 20
212.209222
 30
0.0
 11
14.088781
 21
198.333737
 31
0.0
  0
ARC
  5
2079
100
AcDbEntity
  8
0
  6
BYBLOCK
 62
     1
100
AcDbCircle
 10
14.088781
 20
215.232371
 30
0.0
 40
14.898634
100
AcDbArc
 50
251.570592
 51
267.0
  0
LINE
  5
207A
100
AcDbEntity
  8
0
  6
BYBLOCK
 62
     1
100
AcDbLine
 10
9.378786
 20
201.09783
 30
0.0
 11
1.219847
 21
203.8166
 31
0.0
  0
ARC
  5
207B
100
AcDbEntity
  8
0
  6
BYBLOCK
 62
     1
100
AcDbCircle
 10
14.088781
 20
215.232371
 30
0.0
 40
14.898634
100
AcDbArc
 50
251.605598
 51
259.302799
  0
ARC
  5
207C
100
AcDbEntity
  8
0
  6
BYBLOCK
 62
     1
100
AcDbCircle
 10
14.088781
 20
215.232371
 30
0.0
 40
14.898634
100
AcDbArc
 50
277.697201
 51
285.394402
  0
ARC
  5
207D
100
AcDbEntity
  8
0
  6
BYBLOCK
 62
     1
100
AcDbCircle
 10
14.088781
 20
215.232371
 30
0.0
 40
14.898634
100
AcDbArc
 50
267.0
 51
270.0
  0
INSERT
  5
207E
100
AcDbEntity
  8
0
  6
BYBLOCK
 62
     1
100
AcDbBlockReference
  2
_OPEN30
 10
13.309046
 20
200.354155
 30
0.0
 41
2.0
 42
2.0
 43
2.0
 50
353.1514
  0
INSERT
  5
207F
100
AcDbEntity
  8
0
  6
BYBLOCK
 62
     1
100
AcDbBlockReference
  2
_OPEN30
 10
14.088781
 20
200.333737
 30
0.0
 41
2.0
 42
2.0
 43
2.0
 50
183.8486
  0
MTEXT
  5
2080
100
AcDbEntity
  8
0
  6
BYBLOCK
 62
     3
100
AcDbMText
 10
6.089656
 20
204.829
 30
0.0
 40
3.0
 41
0.0
 71
     5
 72
     1
  1
\A1;3°
 11
0.948714
 21
-0.316136
 31
0.0
  0
POINT
  5
2081
100
AcDbEntity
  8
DEFPOINTS
  6
BYBLOCK
 62
     0
100
AcDbPoint
 10
13.828764
 20
200.336006
 30
0.0
  0
POINT
  5
2082
100
AcDbEntity
  8
DEFPOINTS
  6
BYBLOCK
 62
     0
100
AcDbPoint
 10
14.088781
 20
213.209222
 30
0.0
  0
POINT
  5
2083
100
AcDbEntity
  8
DEFPOINTS
  6
BYBLOCK
 62
     0
100
AcDbPoint
 10
14.088781
 20
215.232371
 30
0.0
  0
POINT
  5
2084
100
AcDbEntity
  8
DEFPOINTS
  6
BYBLOCK
 62
     0
100
AcDbPoint
 10
14.804586
 20
228.890754
 30
0.0
  0
POINT
  5
2085
100
AcDbEntity
  8
DEFPOINTS
  6
BYBLOCK
 62
     0
100
AcDbPoint
 10
14.088781
 20
233.245773
 30
0.0
  0
ENDBLK
  5
2086
100
AcDbEntity
  8
0
100
AcDbBlockEnd
  0
BLOCK
  5
20AF
100
AcDbEntity
  8
0
100
AcDbBlockBegin
  2
*D12
 70
     1
 10
0.0
 20
0.0
 30
0.0
  3
*D12
  1

  0
LINE
  5
20B0
100
AcDbEntity
  8
0
  6
BYBLOCK
 62
     1
100
AcDbLine
 10
44.845154
 20
174.688177
 30
0.0
 11
30.457509
 21
175.946933
 31
0.0
  0
LINE
  5
20B1
100
AcDbEntity
  8
0
  6
BYBLOCK
 62
     1
100
AcDbLine
 10
43.812379
 20
174.601021
 30
0.0
 11
30.398746
 21
174.601021
 31
0.0
  0
ARC
  5
20B2
100
AcDbEntity
  8
0
  6
BYBLOCK
 62
     1
100
AcDbCircle
 10
45.841349
 20
174.601021
 30
0.0
 40
13.442603
100
AcDbArc
 50
157.887454
 51
175.0
  0
LINE
  5
20B3
100
AcDbEntity
  8
0
  6
BYBLOCK
 62
     1
100
AcDbLine
 10
33.3875
 20
179.661182
 30
0.0
 11
36.624773
 21
187.62862
 31
0.0
  0
ARC
  5
20B4
100
AcDbEntity
  8
0
  6
BYBLOCK
 62
     1
100
AcDbCircle
 10
45.841349
 20
174.601021
 30
0.0
 40
13.442603
100
AcDbArc
 50
157.935223
 51
166.467612
  0
ARC
  5
20B5
100
AcDbEntity
  8
0
  6
BYBLOCK
 62
     1
100
AcDbCircle
 10
45.841349
 20
174.601021
 30
0.0
 40
13.442603
100
AcDbArc
 50
188.532388
 51
197.064777
  0
ARC
  5
20B6
100
AcDbEntity
  8
0
  6
BYBLOCK
 62
     1
100
AcDbCircle
 10
45.841349
 20
174.601021
 30
0.0
 40
13.442603
100
AcDbArc
 50
175.0
 51
180.0
  0
INSERT
  5
20B7
100
AcDbEntity
  8
0
  6
BYBLOCK
 62
     1
100
AcDbBlockReference
  2
_OPEN30
 10
32.449899
 20
175.772622
 30
0.0
 41
2.0
 42
2.0
 43
2.0
 50
260.733806
  0
INSERT
  5
20B8
100
AcDbEntity
  8
0
  6
BYBLOCK
 62
     1
100
AcDbBlockReference
  2
_OPEN30
 10
32.398746
 20
174.601021
 30
0.0
 41
2.0
 42
2.0
 43
2.0
 50
94.266194
  0
MTEXT
  5
20B9
100
AcDbEntity
  8
0
  6
BYBLOCK
 62
     3
100
AcDbMText
 10
32.690021
 20
184.585969
 30
0.0
 40
3.0
 41
0.0
 71
     5
 72
     1
  1
\A1;5°
 11
0.376427
 21
0.926446
 31
0.0
  0
POINT
  5
20BA
100
AcDbEntity
  8
DEFPOINTS
  6
BYBLOCK
 62
     0
100
AcDbPoint
 10
32.404433
 20
174.991996
 30
0.0
  0
POINT
  5
20BB
100
AcDbEntity
  8
DEFPOINTS
  6
BYBLOCK
 62
     0
100
AcDbPoint
 10
44.812379
 20
174.601021
 30
0.0
  0
POINT
  5
20BC
100
AcDbEntity
  8
DEFPOINTS
  6
BYBLOCK
 62
     0
100
AcDbPoint
 10
45.841349
 20
174.601021
 30
0.0
  0
POINT
  5
20BD
100
AcDbEntity
  8
DEFPOINTS
  6
BYBLOCK
 62
     0
100
AcDbPoint
 10
53.865006
 20
173.899042
 30
0.0
  0
POINT
  5
20BE
100
AcDbEntity
  8
DEFPOINTS
  6
BYBLOCK
 62
     0
100
AcDbPoint
 10
201.571915
 20
174.601021
 30
0.0
  0
ENDBLK
  5
20BF
100
AcDbEntity
  8
0
100
AcDbBlockEnd
  0
BLOCK
  5
20EA
100
AcDbEntity
  8
0
100
AcDbBlockBegin
  2
*D13
 70
     1
 10
0.0
 20
0.0
 30
0.0
  3
*D13
  1

  0
LINE
  5
20EB
100
AcDbEntity
  8
0
  6
BYBLOCK
 62
     1
100
AcDbLine
 10
45.841349
 20
173.601021
 30
0.0
 11
45.841349
 21
153.014007
 31
0.0
  0
LINE
  5
20EC
100
AcDbEntity
  8
0
  6
BYBLOCK
 62
     1
100
AcDbLine
 10
60.841349
 20
167.851021
 30
0.0
 11
60.841349
 21
153.014007
 31
0.0
  0
LINE
  5
20ED
100
AcDbEntity
  8
0
  6
BYBLOCK
 62
     1
100
AcDbLine
 10
47.841349
 20
155.014007
 30
0.0
 11
58.841349
 21
155.014007
 31
0.0
  0
INSERT
  5
20EE
100
AcDbEntity
  8
0
  6
BYBLOCK
 62
     1
100
AcDbBlockReference
  2
_OPEN30
 10
45.841349
 20
155.014007
 30
0.0
 41
2.0
 42
2.0
 43
2.0
 50
180.0
  0
INSERT
  5
20EF
100
AcDbEntity
  8
0
  6
BYBLOCK
 62
     1
100
AcDbBlockReference
  2
_OPEN30
 10
60.841349
 20
155.014007
 30
0.0
 41
2.0
 42
2.0
 43
2.0
  0
MTEXT
  5
20F0
100
AcDbEntity
  8
0
  6
BYBLOCK
 62
     3
100
AcDbMText
 10
53.341349
 20
157.514007
 30
0.0
 40
3.0
 41
0.0
 71
     5
 72
     1
  1
\A1;15
  0
POINT
  5
20F1
100
AcDbEntity
  8
DEFPOINTS
  6
BYBLOCK
 62
     0
100
AcDbPoint
 10
45.841349
 20
174.601021
 30
0.0
  0
POINT
  5
20F2
100
AcDbEntity
  8
DEFPOINTS
  6
BYBLOCK
 62
     0
100
AcDbPoint
 10
60.841349
 20
168.851021
 30
0.0
  0
POINT
  5
20F3
100
AcDbEntity
  8
DEFPOINTS
  6
BYBLOCK
 62
     0
100
AcDbPoint
 10
60.841349
 20
155.014007
 30
0.0
  0
ENDBLK
  5
20F4
100
AcDbEntity
  8
0
100
AcDbBlockEnd
  0
BLOCK
  5
2112
100
AcDbEntity
  8
0
100
AcDbBlockBegin
  2
*D14
 70
     1
 10
0.0
 20
0.0
 30
0.0
  3
*D14
  1

  0
LINE
  5
2113
100
AcDbEntity
  8
0
  6
BYBLOCK
 62
     1
100
AcDbLine
 10
25.234974
 20
246.276283
 30
0.0
 11
18.44235
 21
232.230077
 31
0.0
  0
LINE
  5
2114
100
AcDbEntity
  8
0
  6
BYBLOCK
 62
     1
100
AcDbLine
 10
9.735211
 20
214.224918
 30
0.0
 11
8.864498
 21
212.424402
 31
0.0
  0
MTEXT
  5
2115
100
AcDbEntity
  8
0
  6
BYBLOCK
 62
     3
100
AcDbMText
 10
20.807544
 20
242.863386
 30
0.0
 40
3.0
 41
0.0
 71
     5
 72
     1
  1
\A1;\U+220516
 11
0.435357
 21
0.900258
 31
0.0
  0
LINE
  5
2116
100
AcDbEntity
  8
0
  6
BYBLOCK
 62
     1
100
AcDbLine
 10
10.605925
 20
216.025434
 30
0.0
 11
17.571636
 21
230.429561
 31
0.0
  0
INSERT
  5
2117
100
AcDbEntity
  8
0
  6
BYBLOCK
 62
     1
100
AcDbBlockReference
  2
_OPEN30
 10
10.605925
 20
216.025434
 30
0.0
 41
2.0
 42
2.0
 43
2.0
 50
64.191992
  0
INSERT
  5
2118
100
AcDbEntity
  8
0
  6
BYBLOCK
 62
     1
100
AcDbBlockReference
  2
_OPEN30
 10
17.571636
 20
230.429561
 30
0.0
 41
2.0
 42
2.0
 43
2.0
 50
244.191992
  0
POINT
  5
2119
100
AcDbEntity
  8
DEFPOINTS
  6
BYBLOCK
 62
     0
100
AcDbPoint
 10
17.571636
 20
230.429561
 30
0.0
  0
POINT
  5
211A
100
AcDbEntity
  8
DEFPOINTS
  6
BYBLOCK
 62
     0
100
AcDbPoint
 10
10.605925
 20
216.025434
 30
0.0
  0
ENDBLK
  5
211B
100
AcDbEntity
  8
0
100
AcDbBlockEnd
  0
BLOCK
  5
2128
100
AcDbEntity
  8
0
100
AcDbBlockBegin
  2
*D15
 70
     1
 10
0.0
 20
0.0
 30
0.0
  3
*D15
  1

  0
LINE
  5
2129
100
AcDbEntity
  8
0
  6
BYBLOCK
 62
     1
100
AcDbLine
 10
46.854357
 20
227.223692
 30
0.0
 11
47.446658
 21
233.993729
 31
0.0
  0
LINE
  5
212A
100
AcDbEntity
  8
0
  6
BYBLOCK
 62
     1
100
AcDbLine
 10
44.364509
 20
215.229019
 30
0.0
 11
26.968571
 21
215.229019
 31
0.0
  0
ARC
  5
212B
100
AcDbEntity
  8
0
  6
BYBLOCK
 62
     1
100
AcDbCircle
 10
45.804959
 20
215.229019
 30
0.0
 40
16.836388
100
AcDbArc
 50
91.810192
 51
173.189808
  0
INSERT
  5
212C
100
AcDbEntity
  8
0
  6
BYBLOCK
 62
     1
100
AcDbBlockReference
  2
_OPEN30
 10
47.272347
 20
232.00134
 30
0.0
 41
2.0
 42
2.0
 43
2.0
 50
358.405096
  0
INSERT
  5
212D
100
AcDbEntity
  8
0
  6
BYBLOCK
 62
     1
100
AcDbBlockReference
  2
_OPEN30
 10
28.968571
 20
215.229019
 30
0.0
 41
2.0
 42
2.0
 43
2.0
 50
266.594904
  0
MTEXT
  5
212E
100
AcDbEntity
  8
0
  6
BYBLOCK
 62
     3
100
AcDbMText
 10
32.741484
 20
229.4853
 30
0.0
 40
3.0
 41
0.0
 71
     5
 72
     1
  1
\A1;95°
 11
0.737277
 21
0.67559
 31
0.0
  0
POINT
  5
212F
100
AcDbEntity
  8
DEFPOINTS
  6
BYBLOCK
 62
     0
100
AcDbPoint
 10
38.248802
 20
230.274565
 30
0.0
  0
POINT
  5
2130
100
AcDbEntity
  8
DEFPOINTS
  6
BYBLOCK
 62
     0
100
AcDbPoint
 10
46.276211
 20
215.229019
 30
0.0
  0
POINT
  5
2131
100
AcDbEntity
  8
DEFPOINTS
  6
BYBLOCK
 62
     0
100
AcDbPoint
 10
45.842871
 20
215.66236
 30
0.0
  0
POINT
  5
2132
100
AcDbEntity
  8
DEFPOINTS
  6
BYBLOCK
 62
     0
100
AcDbPoint
 10
46.767201
 20
226.227497
 30
0.0
  0
POINT
  5
2133
100
AcDbEntity
  8
DEFPOINTS
  6
BYBLOCK
 62
     0
100
AcDbPoint
 10
45.364509
 20
215.229019
 30
0.0
  0
ENDBLK
  5
2134
100
AcDbEntity
  8
0
100
AcDbBlockEnd
  0
ENDSEC
  0
SECTION
  2
ENTITIES
  0
TEXT
  5
1453
100
AcDbEntity
  8
外形
  6
CONTINUOUS
 62
     2
100
AcDbText
 10
81.945496
 20
150.213866
 30
0.0
 40
6.0
  1
BBPC012R
100
AcDbText
  0
LINE
  5
1A59
100
AcDbEntity
  8
外形
  6
CENTER
 62
     1
100
AcDbLine
 10
200.857906
 20
223.227497
 30
0.0
 11
40.632688
 21
223.227497
 31
0.0
  0
LINE
  5
1A5A
100
AcDbEntity
  8
寸法
  6
CONTINUOUS
100
AcDbLine
 10
45.841349
 20
215.727497
 30
0.0
 11
45.841349
 21
230.031763
 31
0.0
  0
LINE
  5
1A66
100
AcDbEntity
  8
外形
  6
CONTINUOUS
100
AcDbLine
 10
194.841349
 20
229.227497
 30
0.0
 11
137.520259
 21
229.227497
 31
0.0
  0
LINE
  5
1A78
100
AcDbEntity
  8
外形
  6
CONTINUOUS
100
AcDbLine
 10
46.504016
 20
223.219279
 30
0.0
 11
54.060936
 21
223.880424
 31
0.0
  0
ARC
  5
1A7A
100
AcDbEntity
  8
外形
  6
CONTINUOUS
100
AcDbCircle
 10
46.873241
 20
222.850054
 30
0.0
 40
0.4
100
AcDbArc
 50
95.0
 51
175.0
  0
LINE
  5
1A7B
100
AcDbEntity
  8
外形
  6
CONTINUOUS
100
AcDbLine
 10
45.842871
 20
215.66236
 30
0.0
 11
46.767201
 21
226.227497
 31
0.0
  0
CIRCLE
  5
1A7E
100
AcDbEntity
  8
外形
  6
CONTINUOUS
100
AcDbCircle
 10
50.168574
 20
219.554722
 30
0.0
 40
2.5515
  0
LINE
  5
1A81
100
AcDbEntity
  8
外形
  6
CENTER
 62
     1
100
AcDbLine
 10
54.123467
 20
219.554722
 30
0.0
 11
44.101049
 21
219.554722
 31
0.0
  0
LINE
  5
1A83
100
AcDbEntity
  8
外形
  6
CONTINUOUS
100
AcDbLine
 10
51.130357
 20
219.893642
 30
0.0
 11
51.710733
 21
219.554722
 31
0.0
  0
LINE
  5
1A84
100
AcDbEntity
  8
外形
  6
CONTINUOUS
100
AcDbLine
 10
51.710733
 20
219.554722
 30
0.0
 11
51.130357
 21
219.215802
 31
0.0
  0
LINE
  5
1A85
100
AcDbEntity
  8
外形
  6
CONTINUOUS
100
AcDbLine
 10
50.355952
 20
220.55711
 30
0.0
 11
50.939653
 21
220.890271
 31
0.0
  0
LINE
  5
1A86
100
AcDbEntity
  8
外形
  6
CONTINUOUS
100
AcDbLine
 10
50.939653
 20
220.890271
 30
0.0
 11
50.942979
 21
220.21819
 31
0.0
  0
LINE
  5
1A87
100
AcDbEntity
  8
外形
  6
CONTINUOUS
100
AcDbLine
 10
49.394169
 20
220.21819
 30
0.0
 11
49.397494
 21
220.890271
 31
0.0
  0
LINE
  5
1A88
100
AcDbEntity
  8
外形
  6
CONTINUOUS
100
AcDbLine
 10
49.397494
 20
220.890271
 30
0.0
 11
49.981195
 21
220.55711
 31
0.0
  0
LINE
  5
1A89
100
AcDbEntity
  8
外形
  6
CONTINUOUS
100
AcDbLine
 10
49.206791
 20
219.215802
 30
0.0
 11
48.626414
 21
219.554722
 31
0.0
  0
LINE
  5
1A8A
100
AcDbEntity
  8
外形
  6
CONTINUOUS
100
AcDbLine
 10
48.626414
 20
219.554722
 30
0.0
 11
49.206791
 21
219.893642
 31
0.0
  0
LINE
  5
1A8B
100
AcDbEntity
  8
外形
  6
CONTINUOUS
100
AcDbLine
 10
49.981195
 20
218.552333
 30
0.0
 11
49.397494
 21
218.219172
 31
0.0
  0
LINE
  5
1A8C
100
AcDbEntity
  8
外形
  6
CONTINUOUS
100
AcDbLine
 10
49.397494
 20
218.219172
 30
0.0
 11
49.394169
 21
218.891253
 31
0.0
  0
LINE
  5
1A8D
100
AcDbEntity
  8
外形
  6
CONTINUOUS
100
AcDbLine
 10
50.942979
 20
218.891253
 30
0.0
 11
50.939653
 21
218.219172
 31
0.0
  0
LINE
  5
1A8E
100
AcDbEntity
  8
外形
  6
CONTINUOUS
100
AcDbLine
 10
50.939653
 20
218.219172
 30
0.0
 11
50.355952
 21
218.552333
 31
0.0
  0
ARC
  5
1A8F
100
AcDbEntity
  8
外形
  6
CONTINUOUS
100
AcDbCircle
 10
51.320974
 20
220.22006
 30
0.0
 40
0.378
100
AcDbArc
 50
180.283476
 51
239.716524
  0
ARC
  5
1A90
100
AcDbEntity
  8
外形
  6
CONTINUOUS
100
AcDbCircle
 10
51.320974
 20
218.889383
 30
0.0
 40
0.378
100
AcDbArc
 50
120.283476
 51
179.716524
  0
ARC
  5
1A91
100
AcDbEntity
  8
外形
  6
CONTINUOUS
100
AcDbCircle
 10
50.168574
 20
218.224044
 30
0.0
 40
0.378
100
AcDbArc
 50
60.283476
 51
119.716524
  0
ARC
  5
1A92
100
AcDbEntity
  8
外形
  6
CONTINUOUS
100
AcDbCircle
 10
49.016173
 20
218.889383
 30
0.0
 40
0.378
100
AcDbArc
 50
0.283476
 51
59.716524
  0
ARC
  5
1A93
100
AcDbEntity
  8
外形
  6
CONTINUOUS
100
AcDbCircle
 10
49.016173
 20
220.22006
 30
0.0
 40
0.378
100
AcDbArc
 50
300.283476
 51
359.716524
  0
ARC
  5
1A94
100
AcDbEntity
  8
外形
  6
CONTINUOUS
100
AcDbCircle
 10
50.168574
 20
220.885399
 30
0.0
 40
0.378
100
AcDbArc
 50
240.283476
 51
299.716524
  0
LINE
  5
1A96
100
AcDbEntity
  8
外形
  6
CENTER
 62
     1
100
AcDbLine
 10
50.168574
 20
213.487198
 30
0.0
 11
50.168574
 21
225.622246
 31
0.0
  0
LINE
  5
1A97
100
AcDbEntity
  8
外形
  6
CONTINUOUS
100
AcDbLine
 10
52.707913
 20
224.215382
 30
0.0
 11
52.211117
 21
223.718586
 31
0.0
  0
LINE
  5
1A99
100
AcDbEntity
  8
外形
  6
CONTINUOUS
100
AcDbLine
 10
54.829234
 20
222.094062
 30
0.0
 11
54.332438
 21
221.597266
 31
0.0
  0
ARC
  5
1A9A
100
AcDbEntity
  8
外形
  6
CONTINUOUS
100
AcDbCircle
 10
53.768574
 20
223.154722
 30
0.0
 40
1.5
100
AcDbArc
 50
315.0
 51
135.0
  0
ARC
  5
1A9C
100
AcDbEntity
  8
外形
  6
CONTINUOUS
100
AcDbCircle
 10
54.095798
 20
223.481946
 30
0.0
 40
0.4
100
AcDbArc
 50
355.0
 51
95.0
  0
LINE
  5
1A9D
100
AcDbEntity
  8
外形
  6
CONTINUOUS
100
AcDbLine
 10
53.862384
 20
216.224527
 30
0.0
 11
54.494276
 21
223.447084
 31
0.0
  0
ARC
  5
1A9F
100
AcDbEntity
  8
外形
  6
CONTINUOUS
100
AcDbCircle
 10
53.463906
 20
216.259389
 30
0.0
 40
0.4
100
AcDbArc
 50
275.0
 51
355.0
  0
LINE
  5
1AA0
100
AcDbEntity
  8
外形
  6
CONTINUOUS
100
AcDbLine
 10
46.276211
 20
215.229019
 30
0.0
 11
53.498768
 21
215.860911
 31
0.0
  0
ARC
  5
1AA3
100
AcDbEntity
  8
外形
  6
CONTINUOUS
100
AcDbCircle
 10
46.241349
 20
215.627497
 30
0.0
 40
0.4
100
AcDbArc
 50
175.0
 51
275.0
  0
LINE
  5
1ABB
100
AcDbEntity
  8
外形
  6
CONTINUOUS
100
AcDbLine
 10
195.841349
 20
218.227497
 30
0.0
 11
195.841349
 21
228.227497
 31
0.0
  0
LINE
  5
1ABC
100
AcDbEntity
  8
外形
  6
CENTER
 62
     1
100
AcDbLine
 10
128.407762
 20
232.339994
 30
0.0
 11
128.407762
 21
214.115001
 31
0.0
  0
ARC
  5
1ABD
100
AcDbEntity
  8
外形
  6
CONTINUOUS
100
AcDbCircle
 10
128.407762
 20
223.227497
 30
0.0
 40
6.0
100
AcDbArc
 50
203.556464
 51
336.443536
  0
LINE
  5
1ABE
100
AcDbEntity
  8
外形
  6
CONTINUOUS
100
AcDbLine
 10
122.907762
 20
225.625413
 30
0.0
 11
122.907762
 21
220.829581
 31
0.0
  0
LINE
  5
1ABF
100
AcDbEntity
  8
外形
  6
CONTINUOUS
100
AcDbLine
 10
133.907762
 20
220.829581
 30
0.0
 11
133.907762
 21
225.625413
 31
0.0
  0
ARC
  5
1AC0
100
AcDbEntity
  8
外形
  6
CONTINUOUS
100
AcDbCircle
 10
128.407762
 20
223.227497
 30
0.0
 40
6.0
100
AcDbArc
 50
23.556464
 51
156.443536
  0
LINE
  5
1AC5
100
AcDbEntity
  8
外形
  6
CONTINUOUS
100
AcDbLine
 10
137.520259
 20
217.227497
 30
0.0
 11
194.841349
 21
217.227497
 31
0.0
  0
LINE
  5
1AC8
100
AcDbEntity
  8
外形
  6
CENTER
 62
     1
100
AcDbLine
 10
24.107056
 20
223.227497
 30
0.0
 11
4.070505
 21
223.227497
 31
0.0
  0
LINE
  5
1AC9
100
AcDbEntity
  8
外形
  6
CENTER
 62
     1
100
AcDbLine
 10
14.088781
 20
213.209222
 30
0.0
 11
14.088781
 21
233.245773
 31
0.0
  0
LINE
  5
1ACF
100
AcDbEntity
  8
外形
  6
CENTER
 62
     1
100
AcDbLine
 10
44.812379
 20
174.601021
 30
0.0
 11
201.571915
 21
174.601021
 31
0.0
  0
LINE
  5
1AD3
100
AcDbEntity
  8
外形
  6
CONTINUOUS
100
AcDbLine
 10
14.508636
 20
223.243686
 30
0.0
 11
12.110256
 21
222.955303
 31
0.0
  0
LINE
  5
1AD4
100
AcDbEntity
  8
外形
  6
CONTINUOUS
100
AcDbLine
 10
14.088781
 20
215.232371
 30
0.0
 11
14.804586
 21
228.890754
 31
0.0
  0
LINE
  5
1AD5
100
AcDbEntity
  8
外形
  6
CONTINUOUS
100
AcDbLine
 10
11.725134
 20
215.606735
 30
0.0
 11
12.110256
 21
222.955303
 31
0.0
  0
LINE
  5
1AD6
100
AcDbEntity
  8
外形
  6
CONTINUOUS
100
AcDbLine
 10
14.088781
 20
215.232371
 30
0.0
 11
11.725134
 21
215.606735
 31
0.0
  0
LINE
  5
1B2D
100
AcDbEntity
  8
外形
  6
CONTINUOUS
100
AcDbLine
 10
194.841349
 20
217.227497
 30
0.0
 11
194.841349
 21
220.829581
 31
0.0
  0
LINE
  5
1B2F
100
AcDbEntity
  8
外形
  6
CONTINUOUS
100
AcDbLine
 10
195.841349
 20
228.227497
 30
0.0
 11
194.841349
 21
229.227497
 31
0.0
  0
LINE
  5
1B30
100
AcDbEntity
  8
外形
  6
CONTINUOUS
100
AcDbLine
 10
195.841349
 20
218.227497
 30
0.0
 11
194.841349
 21
217.227497
 31
0.0
  0
ELLIPSE
  5
1B31
100
AcDbEntity
  8
外形
  6
CONTINUOUS
100
AcDbEllipse
 10
194.841349
 20
223.227497
 30
0.0
 11
0.0
 21
2.397915761655212
 31
0.0
210
0.0
220
0.0
230
1.0
 40
0.208514
 41
3.141592653589793
 42
6.283185307179586
  0
LINE
  5
1B32
100
AcDbEntity
  8
外形
  6
CONTINUOUS
100
AcDbLine
 10
194.841349
 20
225.625413
 30
0.0
 11
194.841349
 21
229.227497
 31
0.0
  0
LINE
  5
1B35
100
AcDbEntity
  8
外形
  6
CONTINUOUS
100
AcDbLine
 10
137.520259
 20
225.625413
 30
0.0
 11
194.841349
 21
225.625413
 31
0.0
  0
LINE
  5
1B36
100
AcDbEntity
  8
外形
  6
CONTINUOUS
100
AcDbLine
 10
137.520259
 20
220.829581
 30
0.0
 11
194.841349
 21
220.829581
 31
0.0
  0
LINE
  5
1C3D
100
AcDbEntity
  8
外形
  6
CONTINUOUS
100
AcDbLine
 10
45.841349
 20
174.601021
 30
0.0
 11
47.299201
 21
167.101021
 31
0.0
  0
LINE
  5
1C3E
100
AcDbEntity
  8
外形
  6
CONTINUOUS
100
AcDbLine
 10
45.841349
 20
174.601021
 30
0.0
 11
53.865006
 21
173.899042
 31
0.0
  0
LINE
  5
1C40
100
AcDbEntity
  8
外形
  6
CONTINUOUS
100
AcDbLine
 10
46.306941
 20
172.25188
 30
0.0
 11
53.4238
 21
171.629235
 31
0.0
  0
LINE
  5
1C41
100
AcDbEntity
  8
外形
  6
CONTINUOUS
100
AcDbLine
 10
53.4238
 20
171.629235
 30
0.0
 11
54.137366
 21
175.300212
 31
0.0
  0
LINE
  5
1C42
100
AcDbEntity
  8
外形
  6
CONTINUOUS
100
AcDbLine
 10
46.504016
 20
175.707107
 30
0.0
 11
48.306941
 21
175.707107
 31
0.0
  0
LINE
  5
1C45
100
AcDbEntity
  8
外形
  6
CONTINUOUS
100
AcDbLine
 10
46.504016
 20
175.707107
 30
0.0
 11
45.841349
 21
174.601021
 31
0.0
  0
LINE
  5
1C64
100
AcDbEntity
  8
外形
  6
CONTINUOUS
100
AcDbLine
 10
62.456912
 20
180.101021
 30
0.0
 11
195.341349
 21
180.101021
 31
0.0
  0
SPLINE
  5
1C65
100
AcDbEntity
  8
外形
  6
CONTINUOUS
100
AcDbSpline
210
0.0
220
0.0
230
1.0
 70
     8
 71
     3
 72
    14
 73
    10
 74
     8
 42
0.0000001
 43
0.0000001
 44
0.0000000001
 40
0.0
 40
0.0
 40
0.0
 40
0.0
 40
0.6135873336059695
 40
2.05430690828202
 40
3.585261090772308
 40
5.191520223502664
 40
6.860407277048766
 40
8.626215165291077
 40
12.36090154227206
 40
12.36090154227206
 40
12.36090154227206
 40
12.36090154227206
 10
65.22578643471655
 20
180.1010214905336
 30
0.0
 10
65.03783384248326
 20
180.0170790122946
 30
0.0
 10
64.40856350473811
 20
179.7360373357473
 30
0.0
 10
63.5994452776628
 20
178.8144572829114
 30
0.0
 10
62.29872588997928
 20
178.0074029855384
 30
0.0
 10
60.93996016546105
 20
177.1639881388641
 30
0.0
 10
59.5130032514059
 20
176.2645650946252
 30
0.0
 10
57.22355269293776
 20
175.4999020799202
 30
0.0
 10
55.38541297432748
 20
175.3809661097748
 30
0.0
 10
54.13736597435432
 20
175.300211812794
 30
0.0
 11
65.22578643471655
 21
180.1010214905336
 31
0.0
 11
64.67670715362543
 21
179.8271577305394
 31
0.0
 11
63.57898346580661
 21
178.8940577369395
 31
0.0
 11
62.32117646760972
 21
178.0212792632296
 31
0.0
 11
60.95738576716869
 21
177.1726666738401
 31
0.0
 11
59.51103215025715
 21
176.3400531906796
 31
0.0
 11
57.8438766004944
 21
175.7580996950513
 31
0.0
 11
54.13736597435432
 21
175.300211812794
 31
0.0
  0
SPLINE
  5
1C6C
100
AcDbEntity
  8
外形
  6
CONTINUOUS
100
AcDbSpline
210
0.0
220
0.0
230
1.0
 70
     8
 71
     3
 72
    11
 73
     7
 74
     5
 42
0.0000001
 43
0.0000001
 44
0.0000000001
 40
0.0
 40
0.0
 40
0.0
 40
0.0
 40
1.618076367815852
 40
3.234235905485328
 40
5.060400771679748
 40
14.87535924035737
 40
14.87535924035737
 40
14.87535924035737
 40
14.87535924035737
 10
62.45691181374443
 20
180.1010214905336
 30
0.0
 10
61.95204520755585
 20
179.9093363260751
 30
0.0
 10
60.94291007790824
 20
179.5261930741423
 30
0.0
 10
59.45820940512886
 20
178.7211392740883
 30
0.0
 10
55.41496612763289
 20
176.9160307204094
 30
0.0
 10
51.55846538649146
 20
176.2601219167637
 30
0.0
 10
48.30694115468986
 20
175.7071067581889
 30
0.0
 11
62.45691181374443
 21
180.1010214905336
 31
0.0
 11
60.95738576716866
 21
179.4930800725294
 31
0.0
 11
59.51103215025712
 21
178.7719470292933
 31
0.0
 11
57.8438766004944
 21
178.0266481017358
 31
0.0
 11
48.30694115468986
 21
175.7071067581889
 31
0.0
  0
LINE
  5
1C6D
100
AcDbEntity
  8
外形
  6
CONTINUOUS
100
AcDbLine
 10
60.841349
 20
169.101021
 30
0.0
 11
195.341349
 21
169.101021
 31
0.0
  0
LINE
  5
1C6F
100
AcDbEntity
  8
外形
  6
CONTINUOUS
100
AcDbLine
 10
46.504016
 20
175.707107
 30
0.0
 11
54.137366
 21
175.300212
 31
0.0
  0
LINE
  5
1C70
100
AcDbEntity
  8
外形
  6
CONTINUOUS
100
AcDbLine
 10
194.841349
 20
169.101021
 30
0.0
 11
194.841349
 21
180.101021
 31
0.0
  0
LINE
  5
1C72
100
AcDbEntity
  8
外形
  6
CONTINUOUS
100
AcDbLine
 10
195.841349
 20
169.601021
 30
0.0
 11
195.341349
 21
169.101021
 31
0.0
  0
LINE
  5
1C73
100
AcDbEntity
  8
外形
  6
CONTINUOUS
100
AcDbLine
 10
195.841349
 20
179.601021
 30
0.0
 11
195.341349
 21
180.101021
 31
0.0
  0
LINE
  5
1C75
100
AcDbEntity
  8
外形
  6
CONTINUOUS
100
AcDbLine
 10
195.841349
 20
169.601021
 30
0.0
 11
195.841349
 21
179.601021
 31
0.0
  0
DIMENSION
  5
1C8F
100
AcDbEntity
  8
寸法
  6
CONTINUOUS
100
AcDbDimension
  2
*D6
 10
133.907762
 20
206.406904
 30
0.0
 11
128.407762
 21
208.906904
 31
0.0
 12
0.0
 22
-39.139024
 32
0.0
 70
    32
  3
STANDARD
100
AcDbAlignedDimension
 13
122.907762
 23
220.829581
 33
0.0
 14
133.907762
 24
220.829581
 34
0.0
100
AcDbRotatedDimension
1001
ACAD
1000
DSTYLE
1002
{
1070
    40
1040
1.0
1002
}
  0
DIMENSION
  5
1C99
100
AcDbEntity
  8
寸法
  6
CONTINUOUS
100
AcDbDimension
  2
*D7
 10
124.676006
 20
218.529201
 30
0.0
 11
137.737155
 21
234.973239
 31
0.0
 12
0.0
 22
-39.139024
 32
0.0
 70
   163
  3
STANDARD
100
AcDbDiametricDimension
 15
132.139519
 25
227.925794
 35
0.0
 40
0.0
1001
ACAD
1000
DSTYLE
1002
{
1070
    40
1040
1.0
1002
}
  0
LINE
  5
1E84
100
AcDbEntity
  8
外形
  6
CONTINUOUS
100
AcDbLine
 10
61.306941
 20
217.477497
 30
0.0
 11
60.056287
 21
216.755432
 31
0.0
  0
LINE
  5
1E85
100
AcDbEntity
  8
外形
  6
CONTINUOUS
100
AcDbLine
 10
60.056287
 20
229.699563
 30
0.0
 11
61.306941
 21
228.977497
 31
0.0
  0
LINE
  5
1E86
100
AcDbEntity
  8
外形
  6
CONTINUOUS
100
AcDbLine
 10
60.056287
 20
229.699563
 30
0.0
 11
60.056287
 21
227.556207
 31
0.0
  0
LINE
  5
1E8B
100
AcDbEntity
  8
外形
  6
CONTINUOUS
100
AcDbLine
 10
53.738378
 20
230.252308
 30
0.0
 11
60.056287
 21
229.699563
 31
0.0
  0
LINE
  5
1E8D
100
AcDbEntity
  8
外形
  6
CONTINUOUS
100
AcDbLine
 10
61.306941
 20
217.477497
 30
0.0
 11
61.306941
 21
217.691281
 31
0.0
  0
LINE
  5
1E8E
100
AcDbEntity
  8
外形
  6
CONTINUOUS
100
AcDbLine
 10
69.091349
 20
229.227497
 30
0.0
 11
69.091349
 21
225.625413
 31
0.0
  0
LINE
  5
1E8F
100
AcDbEntity
  8
外形
  6
CONTINUOUS
100
AcDbLine
 10
68.841349
 20
217.477497
 30
0.0
 11
68.841349
 21
221.150841
 31
0.0
  0
LINE
  5
1E91
100
AcDbEntity
  8
外形
  6
CONTINUOUS
100
AcDbLine
 10
68.841349
 20
217.477497
 30
0.0
 11
61.306941
 21
217.477497
 31
0.0
  0
LINE
  5
1E92
100
AcDbEntity
  8
外形
  6
CONTINUOUS
100
AcDbLine
 10
119.416384
 20
217.227497
 30
0.0
 11
69.091349
 21
217.227497
 31
0.0
  0
LINE
  5
1E93
100
AcDbEntity
  8
外形
  6
CONTINUOUS
100
AcDbLine
 10
68.841349
 20
217.477497
 30
0.0
 11
69.091349
 21
217.227497
 31
0.0
  0
LINE
  5
1E94
100
AcDbEntity
  8
外形
  6
CONTINUOUS
100
AcDbLine
 10
68.841349
 20
228.977497
 30
0.0
 11
61.306941
 21
228.977497
 31
0.0
  0
LINE
  5
1E95
100
AcDbEntity
  8
外形
  6
CONTINUOUS
100
AcDbLine
 10
68.841349
 20
228.977497
 30
0.0
 11
69.091349
 21
229.227497
 31
0.0
  0
LINE
  5
1E96
100
AcDbEntity
  8
外形
  6
CONTINUOUS
100
AcDbLine
 10
69.091349
 20
229.227497
 30
0.0
 11
119.416384
 21
229.227497
 31
0.0
  0
LINE
  5
1E97
100
AcDbEntity
  8
外形
  6
CONTINUOUS
100
AcDbLine
 10
53.863338
 20
216.213619
 30
0.0
 11
60.056287
 21
216.755432
 31
0.0
  0
LINE
  5
1E99
100
AcDbEntity
  8
外形
  6
CONTINUOUS
100
AcDbLine
 10
46.767201
 20
226.227497
 30
0.0
 11
53.738378
 21
230.252308
 31
0.0
  0
LINE
  5
1E9B
100
AcDbEntity
  8
外形
  6
CONTINUOUS
100
AcDbLine
 10
119.416384
 20
225.625413
 30
0.0
 11
69.091349
 21
225.625413
 31
0.0
  0
LINE
  5
1E9C
100
AcDbEntity
  8
外形
  6
CONTINUOUS
100
AcDbLine
 10
119.416384
 20
220.829581
 30
0.0
 11
69.091349
 21
220.829581
 31
0.0
  0
ARC
  5
1ECB
100
AcDbEntity
  8
外形
  6
CONTINUOUS
100
AcDbCircle
 10
14.088781
 20
223.227497
 30
0.0
 40
7.5
100
AcDbArc
 50
186.699765
 51
252.034329
  0
ARC
  5
1ECC
100
AcDbEntity
  8
外形
  6
CONTINUOUS
100
AcDbCircle
 10
14.088781
 20
223.227497
 30
0.0
 40
5.75
100
AcDbArc
 50
271.964836
 51
335.352853
  0
ARC
  5
1ECE
100
AcDbEntity
  8
外形
  6
CONTINUOUS
100
AcDbCircle
 10
14.088781
 20
221.477497
 30
0.0
 40
7.5
100
AcDbArc
 50
90.0
 51
173.300235
  0
LINE
  5
1EFC
100
AcDbEntity
  8
外形
  6
CONTINUOUS
100
AcDbLine
 10
19.314917
 20
225.625413
 30
0.0
 11
19.314917
 21
220.829581
 31
0.0
  0
ARC
  5
1EFD
100
AcDbEntity
  8
外形
  6
CONTINUOUS
100
AcDbCircle
 10
14.088781
 20
223.227497
 30
0.0
 40
5.75
100
AcDbArc
 50
24.647147
 51
90.0
  0
SPLINE
  5
1FBC
100
AcDbEntity
  8
外形
  6
CONTINUOUS
100
AcDbSpline
210
0.0
220
0.0
230
1.0
 70
     8
 71
     3
 72
    11
 73
     7
 74
     0
 42
0.0000001
 43
0.0000001
 40
0.0
 40
0.0
 40
0.0
 40
0.0
 40
2.284591338681359
 40
3.681329005032262
 40
5.115952261649427
 40
5.889016341278958
 40
5.889016341278958
 40
5.889016341278958
 40
5.889016341278958
 10
65.68998500581249
 20
220.8295814809986
 30
0.0
 10
65.48952350183111
 20
220.0179216582364
 30
0.0
 10
65.16650522871405
 20
218.7100348615199
 30
0.0
 10
63.40570895538541
 20
218.2065545206211
 30
0.0
 10
62.2670764042849
 20
217.8797357040592
 30
0.0
 10
61.55699025735976
 20
217.7355802397343
 30
0.0
 10
61.30694115468988
 20
217.6912807868412
 30
0.0
  0
SPLINE
  5
1FBD
100
AcDbEntity
  8
外形
  6
CONTINUOUS
100
AcDbSpline
210
0.0
220
0.0
230
-1.0
 70
     8
 71
     3
 72
    13
 73
     9
 74
     7
 42
0.0000001
 43
0.0000001
 44
0.0000000001
 40
0.0
 40
0.0
 40
0.0
 40
0.0
 40
1.829710369930159
 40
4.026668329519889
 40
6.01623423455328
 40
7.86929019835324
 40
9.621429224942129
 40
12.21951551344579
 40
12.21951551344579
 40
12.21951551344579
 40
12.21951551344579
 10
62.92111038484049
 20
225.6254130043102
 30
0.0
 10
62.51778991478022
 20
226.1009496267735
 30
0.0
 10
61.63019710767336
 20
227.1474694960754
 30
0.0
 10
59.61099424592927
 20
227.6628613315058
 30
0.0
 10
57.70765352083725
 20
228.2619118857518
 30
0.0
 10
55.87052274092411
 20
228.6209125953207
 30
0.0
 10
53.82275495413614
 20
228.9160537557671
 30
0.0
 10
52.37097967448073
 20
228.9449778390442
 30
0.0
 10
51.50393551587694
 20
228.9622521774352
 30
0.0
 11
62.92111038484049
 21
225.6254130043102
 31
0.0
 11
61.61537214432412
 21
226.9071648075401
 31
0.0
 11
59.56500076141814
 21
227.6962157997865
 31
0.0
 11
57.65101316743773
 21
228.2393768997931
 31
0.0
 11
55.8357237858124
 21
228.6115876813845
 31
0.0
 11
54.09946071401375
 21
228.8469208792215
 31
0.0
 11
51.50393551587694
 21
228.9622521774352
 31
0.0
  0
LINE
  5
1FBE
100
AcDbEntity
  8
外形
  6
CONTINUOUS
100
AcDbLine
 10
63.340289
 20
225.304153
 30
0.0
 11
65.738205
 21
221.150841
 31
0.0
  0
LINE
  5
1FBF
100
AcDbEntity
  8
外形
  6
CONTINUOUS
100
AcDbLine
 10
69.091349
 20
220.829581
 30
0.0
 11
69.091349
 21
217.227497
 31
0.0
  0
LINE
  5
1FC0
100
AcDbEntity
  8
外形
  6
CONTINUOUS
100
AcDbLine
 10
68.841349
 20
225.304153
 30
0.0
 11
68.841349
 21
228.977497
 31
0.0
  0
ELLIPSE
  5
1FC2
100
AcDbEntity
  8
外形
  6
CONTINUOUS
100
AcDbEllipse
 10
69.091349
 20
223.227497
 30
0.0
 11
0.0
 21
2.397915761655212
 31
0.0
210
0.0
220
0.0
230
1.0
 40
0.208514
 41
0.0
 42
0.5235987755983029
  0
LINE
  5
1FC4
100
AcDbEntity
  8
外形
  6
CONTINUOUS
100
AcDbLine
 10
61.306941
 20
227.088302
 30
0.0
 11
61.306941
 21
228.977497
 31
0.0
  0
DIMENSION
  5
2018
100
AcDbEntity
  8
寸法
  6
CONTINUOUS
100
AcDbDimension
  2
*D8
 10
195.841349
 20
193.967918
 30
0.0
 11
120.841349
 21
196.467918
 31
0.0
 70
    32
  3
STANDARD
100
AcDbAlignedDimension
 13
45.841349
 23
215.227497
 33
0.0
 14
195.841349
 24
218.227497
 34
0.0
100
AcDbRotatedDimension
1001
ACAD
1000
DSTYLE
1002
{
1070
    40
1040
1.0
1002
}
  0
DIMENSION
  5
2030
100
AcDbEntity
  8
寸法
  6
CONTINUOUS
100
AcDbDimension
  2
*D9
 10
39.419604
 20
215.227497
 30
0.0
 11
36.919604
 21
219.227497
 31
0.0
 70
    32
  3
STANDARD
100
AcDbAlignedDimension
 13
40.632688
 23
223.227497
 33
0.0
 14
45.841349
 24
215.227497
 34
0.0
 50
90.0
100
AcDbRotatedDimension
1001
ACAD
1000
DSTYLE
1002
{
1070
    40
1040
1.0
1002
}
  0
MTEXT
  5
2031
100
AcDbEntity
  8
寸法
  6
CONTINUOUS
 62
     3
100
AcDbMText
 10
21.804399
 20
234.047141
 30
0.0
 40
3.0
 41
0.0
 71
     4
 72
     1
  1
最小加工径
 11
0.439156
 21
0.898411
 31
0.0
  0
DIMENSION
  5
2075
100
AcDbEntity
  8
寸法
  6
CONTINUOUS
100
AcDbDimension
  2
*D11
 10
14.088781
 20
233.245773
 30
0.0
 11
6.089656
 21
204.829
 31
0.0
 70
    34
  3
STANDARD
100
AcDb2LineAngularDimension
 13
14.088781
 23
215.232371
 33
0.0
 14
14.804586
 24
228.890754
 34
0.0
 15
14.088781
 25
213.209222
 35
0.0
 16
13.828764
 26
200.336006
 36
0.0
1001
ACAD
1000
DSTYLE
1002
{
1070
    40
1040
1.0
1002
}
  0
LINE
  5
2089
100
AcDbEntity
  8
外形
  6
CONTINUOUS
100
AcDbLine
 10
8.561882
 20
226.547349
 30
0.0
 11
14.665011
 21
226.227497
 31
0.0
  0
LINE
  5
2090
100
AcDbEntity
  8
外形
  6
CONTINUOUS
100
AcDbLine
 10
63.340289
 20
225.304153
 30
0.0
 11
68.841349
 21
225.304153
 31
0.0
  0
LINE
  5
2091
100
AcDbEntity
  8
外形
  6
CONTINUOUS
100
AcDbLine
 10
65.738205
 20
221.150841
 30
0.0
 11
68.841349
 21
221.150841
 31
0.0
  0
SPLINE
  5
2092
100
AcDbEntity
  8
外形
  6
CONTINUOUS
100
AcDbSpline
210
0.6082995979167189
220
0.7937075022792455
230
0.0
 70
    24
 71
     3
 72
     8
 73
     4
 74
     2
 42
0.0000001
 43
0.0000001
 44
0.0000000001
 40
0.0
 40
0.0
 40
0.0
 40
0.0
 40
0.5281275822419753
 40
0.5281275822419753
 40
0.5281275822419753
 40
0.5281275822419753
 10
62.92111038484059
 20
225.62541300431
 30
0.0
 10
63.06083665956927
 20
225.5183264056678
 30
0.0
 10
63.20056293429797
 20
225.4112398070257
 30
0.0
 10
63.34028920902665
 20
225.3041532083835
 30
0.0
 11
62.92111038484059
 21
225.62541300431
 31
0.0
 11
63.34028920902665
 21
225.3041532083835
 31
0.0
  0
SPLINE
  5
2093
100
AcDbEntity
  8
外形
  6
CONTINUOUS
100
AcDbSpline
210
-0.9889223515574446
220
0.1484337649933263
230
0.0
 70
    24
 71
     3
 72
     8
 73
     4
 74
     2
 42
0.0000001
 43
0.0000001
 44
0.0000000001
 40
0.0
 40
0.0
 40
0.0
 40
0.0
 40
0.3248584637832089
 40
0.3248584637832089
 40
0.3248584637832089
 40
0.3248584637832089
 10
65.68998500581249
 20
220.8295814809986
 30
0.0
 10
65.70605832743559
 20
220.9366680796413
 30
0.0
 10
65.72213164905868
 20
221.0437546782839
 30
0.0
 10
65.73820497068178
 20
221.1508412769265
 30
0.0
 11
65.68998500581249
 21
220.8295814809986
 31
0.0
 11
65.73820497068178
 21
221.1508412769265
 31
0.0
  0
ELLIPSE
  5
2094
100
AcDbEntity
  8
外形
  6
CONTINUOUS
100
AcDbEllipse
 10
69.091349
 20
223.227497
 30
0.0
 11
0.0
 21
2.397915761655212
 31
0.0
210
0.0
220
0.0
230
1.0
 40
0.208514
 41
2.61799387799149
 42
3.141592653589793
  0
LINE
  5
2095
100
AcDbEntity
  8
外形
  6
CONTINUOUS
100
AcDbLine
 10
69.091349
 20
169.101021
 30
0.0
 11
69.091349
 21
180.101021
 31
0.0
  0
LINE
  5
2096
100
AcDbEntity
  8
外形
  6
CONTINUOUS
100
AcDbLine
 10
68.841349
 20
169.101021
 30
0.0
 11
68.841349
 21
180.101021
 31
0.0
  0
DIMENSION
  5
20AE
100
AcDbEntity
  8
寸法
  6
CONTINUOUS
100
AcDbDimension
  2
*D12
 10
201.571915
 20
174.601021
 30
0.0
 11
32.690021
 21
184.585969
 31
0.0
 70
    34
  3
STANDARD
100
AcDb2LineAngularDimension
 13
45.841349
 23
174.601021
 33
0.0
 14
53.865006
 24
173.899042
 34
0.0
 15
44.812379
 25
174.601021
 35
0.0
 16
32.404433
 26
174.991996
 36
0.0
1001
ACAD
1000
DSTYLE
1002
{
1070
    40
1040
1.0
1002
}
  0
LINE
  5
20C5
100
AcDbEntity
  8
外形
  6
CONTINUOUS
100
AcDbLine
 10
59.590695
 20
176.378684
 30
0.0
 11
59.590695
 21
168.128956
 31
0.0
  0
LINE
  5
20C6
100
AcDbEntity
  8
外形
  6
CONTINUOUS
100
AcDbLine
 10
60.841349
 20
177.100091
 30
0.0
 11
60.841349
 21
168.851021
 31
0.0
  0
LINE
  5
20C9
100
AcDbEntity
  8
外形
  6
CONTINUOUS
100
AcDbLine
 10
47.841349
 20
167.101021
 30
0.0
 11
59.590695
 21
168.128956
 31
0.0
  0
LINE
  5
20CA
100
AcDbEntity
  8
外形
  6
CONTINUOUS
100
AcDbLine
 10
60.841349
 20
168.851021
 30
0.0
 11
59.590695
 21
168.128956
 31
0.0
  0
LINE
  5
20CB
100
AcDbEntity
  8
外形
  6
CONTINUOUS
100
AcDbLine
 10
47.841349
 20
167.101021
 30
0.0
 11
47.299201
 21
167.101021
 31
0.0
  0
DIMENSION
  5
20E9
100
AcDbEntity
  8
寸法
  6
CONTINUOUS
100
AcDbDimension
  2
*D13
 10
60.841349
 20
155.014007
 30
0.0
 11
53.341349
 21
157.514007
 31
0.0
 70
    32
  3
STANDARD
100
AcDbAlignedDimension
 13
45.841349
 23
174.601021
 33
0.0
 14
60.841349
 24
168.851021
 34
0.0
100
AcDbRotatedDimension
1001
ACAD
1000
DSTYLE
1002
{
1070
    40
1040
1.0
1002
}
  0
CIRCLE
  5
20FA
100
AcDbEntity
  8
外形
  6
PHANTOM
 62
     1
100
AcDbCircle
 10
14.088781
 20
223.227497
 30
0.0
 40
8.0
  0
DIMENSION
  5
2107
100
AcDbEntity
  8
寸法
  6
CONTINUOUS
100
AcDbDimension
  2
*D14
 10
10.605925
 20
216.025434
 30
0.0
 11
23.058189
 21
241.774993
 31
0.0
 70
   163
  3
STANDARD
100
AcDbDiametricDimension
 15
17.571636
 25
230.429561
 35
0.0
 40
0.0
1001
ACAD
1000
DSTYLE
1002
{
1070
    40
1040
1.0
1002
}
  0
LINE
  5
2126
100
AcDbEntity
  8
寸法
  6
CONTINUOUS
100
AcDbLine
 10
46.276211
 20
215.229019
 30
0.0
 11
45.364509
 21
215.229019
 31
0.0
  0
DIMENSION
  5
2135
100
AcDbEntity
  8
寸法
  6
CONTINUOUS
100
AcDbDimension
  2
*D15
 10
45.364509
 20
215.229019
 30
0.0
 11
32.741484
 21
229.4853
 31
0.0
 70
    34
  3
STANDARD
100
AcDb2LineAngularDimension
 13
45.842871
 23
215.66236
 33
0.0
 14
46.767201
 24
226.227497
 34
0.0
 15
46.276211
 25
215.229019
 35
0.0
 16
38.248802
 26
230.274565
 36
0.0
1001
ACAD
1000
DSTYLE
1002
{
1070
   284
1070
    13
1070
   146
1040
0.5
1070
   272
1070
     3
1070
    40
1040
1.0
1070
   287
1070
     0
1002
}
  0
ENDSEC
  0
SECTION
  2
OBJECTS
  0
DICTIONARY
  5
1E
100
AcDbDictionary
  3
ACAD_GROUP
350
1C
  3
ACAD_MLINESTYLE
350
1D
  3
ACDBVARIABLEDICTIONARY
350
147A
  3
DRAWINGVARIABLESDICT
350
C58
  0
DICTIONARY
  5
38
100
AcDbDictionary
280
     1
  3
ACAD_XREC_ROUNDTRIP
360
39
  0
DICTIONARY
  5
22
100
AcDbDictionary
280
     1
  3
ACAD_XREC_ROUNDTRIP
360
23
  0
DICTIONARY
  5
3
100
AcDbDictionary
280
     1
  3
ACAD_LAYOUTSELFREF
360
4
  0
DICTIONARY
  5
A
100
AcDbDictionary
280
     1
  3
ACAD_LAYOUTSELFREF
360
B
  0
DICTIONARY
  5
1C
102
{ACAD_REACTORS
330
1E
102
}
100
AcDbDictionary
  3
*A1
350
1666
  3
*A2
350
1679
  3
*A3
350
16C2
  3
*A4
350
1A57
  3
*A5
350
1A58
  0
DICTIONARY
  5
1D
102
{ACAD_REACTORS
330
1E
102
}
100
AcDbDictionary
  3
STANDARD
350
20
  0
DICTIONARY
  5
147A
102
{ACAD_REACTORS
330
1E
102
}
100
AcDbDictionary
  3
SORTENTS
350
147B
  0
DICTIONARY
  5
C58
102
{ACAD_REACTORS
330
1E
102
}
100
AcDbDictionary
1001
DRAWINGVARIABLESXDATA
1000
POLARMODE
1000
0
  0
XRECORD
  5
39
102
{ACAD_REACTORS
330
38
102
}
100
AcDbXrecord
102
PLOTBIT
280
     0
  0
XRECORD
  5
23
102
{ACAD_REACTORS
330
22
102
}
100
AcDbXrecord
102
ACADR14ROUNDTRIP
1000
DSTYLE
1002
{
1070
   341
340
0
1070
   343
340
0
1070
   344
340
0
1002
}
  0
XRECORD
  5
4
102
{ACAD_REACTORS
330
3
102
}
100
AcDbXrecord
340
2
  0
XRECORD
  5
B
102
{ACAD_REACTORS
330
A
102
}
100
AcDbXrecord
340
9
  0
GROUP
  5
1666
102
{ACAD_REACTORS
330
1C
102
}
100
AcDbGroup
300

 70
     1
 71
     1
  0
GROUP
  5
1679
102
{ACAD_REACTORS
330
1C
102
}
100
AcDbGroup
300

 70
     1
 71
     1
  0
GROUP
  5
16C2
102
{ACAD_REACTORS
330
1C
102
}
100
AcDbGroup
300

 70
     1
 71
     1
  0
GROUP
  5
1A57
102
{ACAD_REACTORS
330
1C
102
}
100
AcDbGroup
300

 70
     1
 71
     1
  0
GROUP
  5
1A58
102
{ACAD_REACTORS
330
1C
102
}
100
AcDbGroup
300

 70
     1
 71
     1
  0
MLINESTYLE
  5
20
102
{ACAD_REACTORS
330
1D
102
}
100
AcDbMlineStyle
  2
STANDARD
 70
     0
  3

 62
     0
 51
90.0
 52
90.0
 71
     2
 49
0.5
 62
   256
  6
BYLAYER
 49
-0.5
 62
   256
  6
BYLAYER
  0
DICTIONARYVAR
  5
147B
102
{ACAD_REACTORS
330
147A
102
}
100
DictionaryVariables
280
     0
  1
96
  0
ENDSEC
  0
EOF
