  0
SECTION
  2
HEADER
  9
$ACADVER
  1
AC1014
  9
$ACADMAINTVER
 70
     0
  9
$DWGCODEPAGE
  3
ANSI_932
  9
$INSBASE
 10
-587.250952
 20
747.890188
 30
0.0
  9
$EXTMIN
 10
-78.407191
 20
150.213866
 30
0.0
  9
$EXTMAX
 10
242.806259
 20
298.699147
 30
0.0
  9
$LIMMIN
 10
-587.250952
 20
327.890188
  9
$LIMMAX
 10
600.749048
 20
957.890188
  9
$ORTHOMODE
 70
     0
  9
$REGENMODE
 70
     1
  9
$FILLMODE
 70
     1
  9
$QTEXTMODE
 70
     0
  9
$MIRRTEXT
 70
     1
  9
$DRAGMODE
 70
     2
  9
$LTSCALE
 40
5.0
  9
$OSMODE
 70
    37
  9
$ATTMODE
 70
     1
  9
$TEXTSIZE
 40
5.0
  9
$TRACEWID
 40
0.05
  9
$TEXTSTYLE
  7
STANDARD
  9
$CLAYER
  8
外形
  9
$CELTYPE
  6
CONTINUOUS
  9
$CECOLOR
 62
   256
  9
$CELTSCALE
 40
1.0
  9
$DELOBJ
 70
     1
  9
$DISPSILH
 70
     0
  9
$DIMSCALE
 40
1.0
  9
$DIMASZ
 40
2.0
  9
$DIMEXO
 40
1.0
  9
$DIMDLI
 40
8.0
  9
$DIMRND
 40
0.0
  9
$DIMDLE
 40
0.0
  9
$DIMEXE
 40
2.0
  9
$DIMTP
 40
0.0
  9
$DIMTM
 40
0.0
  9
$DIMTXT
 40
3.0
  9
$DIMCEN
 40
-1.0
  9
$DIMTSZ
 40
0.0
  9
$DIMTOL
 70
     0
  9
$DIMLIM
 70
     0
  9
$DIMTIH
 70
     0
  9
$DIMTOH
 70
     0
  9
$DIMSE1
 70
     0
  9
$DIMSE2
 70
     0
  9
$DIMTAD
 70
     1
  9
$DIMZIN
 70
     8
  9
$DIMBLK
  1

  9
$DIMASO
 70
     1
  9
$DIMSHO
 70
     1
  9
$DIMPOST
  1

  9
$DIMAPOST
  1

  9
$DIMALT
 70
     0
  9
$DIMALTD
 70
     2
  9
$DIMALTF
 40
25.4
  9
$DIMLFAC
 40
1.0
  9
$DIMTOFL
 70
     1
  9
$DIMTVP
 40
0.0
  9
$DIMTIX
 70
     0
  9
$DIMSOXD
 70
     0
  9
$DIMSAH
 70
     1
  9
$DIMBLK1
  1
_OPEN30
  9
$DIMBLK2
  1
_OPEN30
  9
$DIMSTYLE
  2
STANDARD
  9
$DIMCLRD
 70
     1
  9
$DIMCLRE
 70
     1
  9
$DIMCLRT
 70
     3
  9
$DIMTFAC
 40
0.5
  9
$DIMGAP
 40
1.0
  9
$DIMJUST
 70
     0
  9
$DIMSD1
 70
     0
  9
$DIMSD2
 70
     0
  9
$DIMTOLJ
 70
     1
  9
$DIMTZIN
 70
    13
  9
$DIMALTZ
 70
     0
  9
$DIMALTTZ
 70
     0
  9
$DIMFIT
 70
     0
  9
$DIMUPT
 70
     0
  9
$DIMUNIT
 70
     2
  9
$DIMDEC
 70
     2
  9
$DIMTDEC
 70
     3
  9
$DIMALTU
 70
     2
  9
$DIMALTTD
 70
     2
  9
$DIMTXSTY
  7
STANDARD
  9
$DIMAUNIT
 70
     0
  9
$LUNITS
 70
     2
  9
$LUPREC
 70
     0
  9
$SKETCHINC
 40
0.1
  9
$FILLETRAD
 40
0.0
  9
$AUNITS
 70
     0
  9
$AUPREC
 70
     0
  9
$MENU
  1
acad
  9
$ELEVATION
 40
0.0
  9
$PELEVATION
 40
0.0
  9
$THICKNESS
 40
0.0
  9
$LIMCHECK
 70
     0
  9
$BLIPMODE
 70
     0
  9
$CHAMFERA
 40
0.0
  9
$CHAMFERB
 40
0.0
  9
$CHAMFERC
 40
0.0
  9
$CHAMFERD
 40
0.0
  9
$SKPOLY
 70
     0
  9
$TDCREATE
 40
2450751.535399305
  9
$TDUPDATE
 40
2452011.389872684
  9
$TDINDWG
 40
1.7825559028
  9
$TDUSRTIMER
 40
1.7825559028
  9
$USRTIMER
 70
     1
  9
$ANGBASE
 50
0.0
  9
$ANGDIR
 70
     0
  9
$PDMODE
 70
    32
  9
$PDSIZE
 40
0.0
  9
$PLINEWID
 40
0.0
  9
$COORDS
 70
     2
  9
$SPLFRAME
 70
     0
  9
$SPLINETYPE
 70
     5
  9
$SPLINESEGS
 70
     8
  9
$ATTDIA
 70
     0
  9
$ATTREQ
 70
     1
  9
$HANDLING
 70
     1
  9
$HANDSEED
  5
2292
  9
$SURFTAB1
 70
     6
  9
$SURFTAB2
 70
     6
  9
$SURFTYPE
 70
     6
  9
$SURFU
 70
     6
  9
$SURFV
 70
     6
  9
$UCSNAME
  2

  9
$UCSORG
 10
40.53800450572526
 20
146.9196145921314
 30
0.0
  9
$UCSXDIR
 10
1.0
 20
0.0
 30
0.0
  9
$UCSYDIR
 10
0.0
 20
1.0
 30
0.0
  9
$PUCSNAME
  2

  9
$PUCSORG
 10
0.0
 20
0.0
 30
0.0
  9
$PUCSXDIR
 10
1.0
 20
0.0
 30
0.0
  9
$PUCSYDIR
 10
0.0
 20
1.0
 30
0.0
  9
$USERI1
 70
     0
  9
$USERI2
 70
     0
  9
$USERI3
 70
     0
  9
$USERI4
 70
     0
  9
$USERI5
 70
     0
  9
$USERR1
 40
0.0
  9
$USERR2
 40
0.0
  9
$USERR3
 40
0.0
  9
$USERR4
 40
0.0
  9
$USERR5
 40
0.0
  9
$WORLDVIEW
 70
     1
  9
$SHADEDGE
 70
     3
  9
$SHADEDIF
 70
    70
  9
$TILEMODE
 70
     1
  9
$MAXACTVP
 70
    16
  9
$PINSBASE
 10
0.0
 20
0.0
 30
0.0
  9
$PLIMCHECK
 70
     0
  9
$PEXTMIN
 10
1.000000E+20
 20
1.000000E+20
 30
1.000000E+20
  9
$PEXTMAX
 10
-1.000000E+20
 20
-1.000000E+20
 30
-1.000000E+20
  9
$PLIMMIN
 10
0.0
 20
0.0
  9
$PLIMMAX
 10
12.0
 20
9.0
  9
$UNITMODE
 70
     0
  9
$VISRETAIN
 70
     0
  9
$PLINEGEN
 70
     0
  9
$PSLTSCALE
 70
     1
  9
$TREEDEPTH
 70
  3020
  9
$PICKSTYLE
 70
     0
  9
$CMLSTYLE
  2
STANDARD
  9
$CMLJUST
 70
     0
  9
$CMLSCALE
 40
1.0
  9
$PROXYGRAPHICS
 70
     1
  9
$MEASUREMENT
 70
     0
  0
ENDSEC
  0
SECTION
  2
CLASSES
  0
CLASS
  1
LWPOLYLINE
  2
AcDbPolyline
  3
"AutoCAD"
 90
        0
280
     0
281
     1
  0
CLASS
  1
ACDBDICTIONARYWDFLT
  2
AcDbDictionaryWithDefault
  3
AutoCAD 2000
 90
        0
280
     1
281
     0
  0
CLASS
  1
ACDBPLACEHOLDER
  2
AcDbPlaceHolder
  3
AutoCAD 2000
 90
        0
280
     1
281
     0
  0
CLASS
  1
LAYOUT
  2
AcDbLayout
  3
AutoCAD 2000
 90
        0
280
     1
281
     0
  0
CLASS
  1
LONG_TRANSACTION
  2
AcDbLongTransaction
  3
AutoCAD 2000
 90
        0
280
     1
281
     0
  0
CLASS
  1
LWPOLYLINE
  2
AcDbPolyline
  3
"AutoCAD"
 90
        0
280
     0
281
     1
  0
CLASS
  1
HATCH
  2
AcDbHatch
  3
"ACAD_SEDONA"
 90
        0
280
     0
281
     1
  0
CLASS
  1
XRECORD
  2
AcDbXrecord
  3
"<Built In>"
 90
        0
280
     0
281
     0
  0
CLASS
  1
DICTIONARYVAR
  2
AcDbDictionaryVar
  3
"AutoCAD"
 90
        0
280
     0
281
     0
  0
ENDSEC
  0
SECTION
  2
TABLES
  0
TABLE
  2
VPORT
  5
16
100
AcDbSymbolTable
 70
     1
  0
VPORT
  5
228C
100
AcDbSymbolTableRecord
100
AcDbViewportTableRecord
  2
*ACTIVE
 70
     0
 10
0.0
 20
0.0
 11
1.0
 21
1.0
 12
86.280033
 22
230.433766
 13
0.0
 23
0.0
 14
1.0
 24
1.0
 15
10.0
 25
10.0
 16
0.0
 26
0.0
 36
1.0
 17
0.0
 27
0.0
 37
0.0
 40
211.672469
 41
1.710425
 42
50.0
 43
0.0
 44
0.0
 50
0.0
 51
0.0
 71
     0
 72
   100
 73
     1
 74
     1
 75
     0
 76
     0
 77
     0
 78
     2
  0
ENDTAB
  0
TABLE
  2
LTYPE
  5
11
100
AcDbSymbolTable
 70
     3
  0
LTYPE
  5
12
100
AcDbSymbolTableRecord
100
AcDbLinetypeTableRecord
  2
BYBLOCK
 70
     0
  3

 72
    65
 73
     0
 40
0.0
  0
LTYPE
  5
13
100
AcDbSymbolTableRecord
100
AcDbLinetypeTableRecord
  2
BYLAYER
 70
     0
  3

 72
    65
 73
     0
 40
0.0
  0
LTYPE
  5
7
100
AcDbSymbolTableRecord
100
AcDbLinetypeTableRecord
  2
CONTINUOUS
 70
     0
  3
Solid line
 72
    65
 73
     0
 40
0.0
  0
LTYPE
  5
AA
100
AcDbSymbolTableRecord
100
AcDbLinetypeTableRecord
  2
CENTER
 70
     0
  3
Center ____ _ ____ _ ____ _ ____ _ ____ _ ____
 72
    65
 73
     4
 40
2.0
 49
1.25
 74
     0
 49
-0.25
 74
     0
 49
0.25
 74
     0
 49
-0.25
 74
     0
  0
LTYPE
  5
1B6B
100
AcDbSymbolTableRecord
100
AcDbLinetypeTableRecord
  2
PHANTOM
 70
     0
  3
Phantom ______  __  __  ______  __  __  ______
 72
    65
 73
     6
 40
2.5
 49
1.25
 74
     0
 49
-0.25
 74
     0
 49
0.25
 74
     0
 49
-0.25
 74
     0
 49
0.25
 74
     0
 49
-0.25
 74
     0
  0
ENDTAB
  0
TABLE
  2
LAYER
  5
E
100
AcDbSymbolTable
 70
     5
  0
LAYER
  5
6
100
AcDbSymbolTableRecord
100
AcDbLayerTableRecord
  2
0
 70
     0
 62
     7
  6
CONTINUOUS
  0
LAYER
  5
2C
100
AcDbSymbolTableRecord
100
AcDbLayerTableRecord
  2
外形
 70
     0
 62
     3
  6
CONTINUOUS
  0
LAYER
  5
37
102
{ACAD_XDICTIONARY
360
38
102
}
100
AcDbSymbolTableRecord
100
AcDbLayerTableRecord
  2
DEFPOINTS
 70
     0
 62
     7
  6
CONTINUOUS
  0
LAYER
  5
1F
100
AcDbSymbolTableRecord
100
AcDbLayerTableRecord
  2
寸法
 70
     0
 62
     1
  6
CONTINUOUS
  0
LAYER
  5
673
100
AcDbSymbolTableRecord
100
AcDbLayerTableRecord
  2
参考
 70
     0
 62
     2
  6
CONTINUOUS
  0
ENDTAB
  0
TABLE
  2
STYLE
  5
F
100
AcDbSymbolTable
 70
     2
  0
STYLE
  5
10
100
AcDbSymbolTableRecord
100
AcDbTextStyleTableRecord
  2
STANDARD
 70
     0
 40
0.0
 41
1.0
 50
0.0
 71
     0
 42
5.0
  3
MONOTXT
  4
BIGFONT
  0
STYLE
  5
1B6A
100
AcDbSymbolTableRecord
100
AcDbTextStyleTableRecord
  2

 70
     1
 40
0.0
 41
1.0
 50
0.0
 71
     0
 42
5.0
  3
ltypeshp.shx
  4

  0
ENDTAB
  0
TABLE
  2
VIEW
  5
14
100
AcDbSymbolTable
 70
     0
  0
ENDTAB
  0
TABLE
  2
UCS
  5
15
100
AcDbSymbolTable
 70
     0
  0
ENDTAB
  0
TABLE
  2
APPID
  5
18
100
AcDbSymbolTable
 70
     2
  0
APPID
  5
19
100
AcDbSymbolTableRecord
100
AcDbRegAppTableRecord
  2
ACAD
 70
     0
  0
APPID
  5
C59
100
AcDbSymbolTableRecord
100
AcDbRegAppTableRecord
  2
DRAWINGVARIABLESXDATA
 70
     0
  0
ENDTAB
  0
TABLE
  2
DIMSTYLE
  5
1A
100
AcDbSymbolTable
 70
     2
  0
DIMSTYLE
105
21
102
{ACAD_XDICTIONARY
360
22
102
}
102
{ACAD_REACTORS
330
1E17
330
1E18
330
2162
330
2171
330
219D
330
21BA
330
21C7
330
2224
102
}
100
AcDbSymbolTableRecord
100
AcDbDimStyleTableRecord
  2
STANDARD
 70
     0
  3

  4

  5

  6
_OPEN30
  7
_OPEN30
 40
0.0
 41
2.0
 42
1.0
 43
8.0
 44
2.0
 45
0.0
 46
0.0
 47
0.0
 48
0.0
140
3.0
141
-1.0
142
0.0
143
25.4
144
1.0
145
0.0
146
1.0
147
1.0
 71
     0
 72
     0
 73
     0
 74
     0
 75
     0
 76
     0
 77
     1
 78
     8
170
     0
171
     2
172
     1
173
     1
174
     0
175
     0
176
     1
177
     1
178
     3
270
     2
271
     2
272
     2
273
     2
274
     2
340
10
275
     0
280
     0
281
     0
282
     0
283
     1
284
     8
285
     0
286
     0
287
     3
288
     0
  0
DIMSTYLE
105
674
100
AcDbSymbolTableRecord
100
AcDbDimStyleTableRecord
  2
参考寸法
 70
     0
  3

  4

  5

  6
_DOTSMALL
  7
_DOTSMALL
 40
1.0
 41
2.0
 42
1.0
 43
8.0
 44
2.0
 45
0.0
 46
0.0
 47
0.0
 48
0.0
140
3.0
141
-1.0
142
0.0
143
25.4
144
1.0
145
0.0
146
1.0
147
1.0
 71
     0
 72
     0
 73
     0
 74
     0
 75
     0
 76
     0
 77
     1
 78
     8
170
     0
171
     2
172
     1
173
     1
174
     0
175
     0
176
     2
177
     2
178
     2
270
     2
271
     3
272
     2
273
     2
274
     2
340
10
275
     0
280
     0
281
     0
282
     0
283
     1
284
     8
285
     0
286
     0
287
     3
288
     0
  0
ENDTAB
  0
TABLE
  2
BLOCK_RECORD
  5
1
100
AcDbSymbolTable
 70
    15
  0
BLOCK_RECORD
  5
2
102
{ACAD_XDICTIONARY
360
3
102
}
100
AcDbSymbolTableRecord
100
AcDbBlockTableRecord
  2
*MODEL_SPACE
  0
BLOCK_RECORD
  5
9
102
{ACAD_XDICTIONARY
360
A
102
}
100
AcDbSymbolTableRecord
100
AcDbBlockTableRecord
  2
*PAPER_SPACE
  0
BLOCK_RECORD
  5
24
100
AcDbSymbolTableRecord
100
AcDbBlockTableRecord
  2
_DOTSMALL
  0
BLOCK_RECORD
  5
470
100
AcDbSymbolTableRecord
100
AcDbBlockTableRecord
  2
_OPEN30
  0
BLOCK_RECORD
  5
1E1E
100
AcDbSymbolTableRecord
100
AcDbBlockTableRecord
  2
*D4
  0
BLOCK_RECORD
  5
1E2A
100
AcDbSymbolTableRecord
100
AcDbBlockTableRecord
  2
*D5
  0
BLOCK_RECORD
  5
2154
100
AcDbSymbolTableRecord
100
AcDbBlockTableRecord
  2
*D6
  0
BLOCK_RECORD
  5
2163
100
AcDbSymbolTableRecord
100
AcDbBlockTableRecord
  2
*D7
  0
BLOCK_RECORD
  5
2194
100
AcDbSymbolTableRecord
100
AcDbBlockTableRecord
  2
*D9
  0
BLOCK_RECORD
  5
21A8
100
AcDbSymbolTableRecord
100
AcDbBlockTableRecord
  2
*D10
  0
BLOCK_RECORD
  5
21BB
100
AcDbSymbolTableRecord
100
AcDbBlockTableRecord
  2
*D11
  0
BLOCK_RECORD
  5
2218
100
AcDbSymbolTableRecord
100
AcDbBlockTableRecord
  2
*D12
  0
ENDTAB
  0
ENDSEC
  0
SECTION
  2
BLOCKS
  0
BLOCK
  5
5
100
AcDbEntity
  8
0
100
AcDbBlockBegin
  2
*MODEL_SPACE
 70
     0
 10
0.0
 20
0.0
 30
0.0
  3
*MODEL_SPACE
  1

  0
ENDBLK
  5
8
100
AcDbEntity
  8
0
100
AcDbBlockEnd
  0
BLOCK
  5
C
100
AcDbEntity
 67
     1
  8
0
100
AcDbBlockBegin
  2
*PAPER_SPACE
 70
     0
 10
0.0
 20
0.0
 30
0.0
  3
*PAPER_SPACE
  1

  0
ENDBLK
  5
D
100
AcDbEntity
 67
     1
  8
0
100
AcDbBlockEnd
  0
BLOCK
  5
29
100
AcDbEntity
  8
0
100
AcDbBlockBegin
  2
_DOTSMALL
 70
     0
 10
0.0
 20
0.0
 30
0.0
  3
_DOTSMALL
  1

  0
POLYLINE
  5
25
100
AcDbEntity
  8
0
  6
BYBLOCK
 62
     0
100
AcDb2dPolyline
 66
     1
 10
0.0
 20
0.0
 30
0.0
 70
     1
 40
0.5
 41
0.5
  0
VERTEX
  5
26
100
AcDbEntity
  8
0
  6
BYBLOCK
 62
     0
100
AcDbVertex
100
AcDb2dVertex
 10
-0.0625
 20
0.0
 30
0.0
 42
1.0
  0
VERTEX
  5
27
100
AcDbEntity
  8
0
  6
BYBLOCK
 62
     0
100
AcDbVertex
100
AcDb2dVertex
 10
0.0625
 20
0.0
 30
0.0
 42
1.0
  0
SEQEND
  5
28
100
AcDbEntity
  8
0
  6
BYBLOCK
 62
     0
  0
ENDBLK
  5
2A
100
AcDbEntity
  8
0
100
AcDbBlockEnd
  0
BLOCK
  5
471
100
AcDbEntity
  8
0
100
AcDbBlockBegin
  2
_OPEN30
 70
     0
 10
0.0
 20
0.0
 30
0.0
  3
_OPEN30
  1

  0
LINE
  5
472
100
AcDbEntity
  8
0
  6
BYBLOCK
 62
     0
100
AcDbLine
 10
-1.0
 20
0.267949
 30
0.0
 11
0.0
 21
0.0
 31
0.0
  0
LINE
  5
473
100
AcDbEntity
  8
0
  6
BYBLOCK
 62
     0
100
AcDbLine
 10
0.0
 20
0.0
 30
0.0
 11
-1.0
 21
-0.267949
 31
0.0
  0
LINE
  5
474
100
AcDbEntity
  8
0
  6
BYBLOCK
 62
     0
100
AcDbLine
 10
0.0
 20
0.0
 30
0.0
 11
-1.0
 21
0.0
 31
0.0
  0
ENDBLK
  5
475
100
AcDbEntity
  8
0
100
AcDbBlockEnd
  0
BLOCK
  5
1E1F
100
AcDbEntity
  8
0
100
AcDbBlockBegin
  2
*D4
 70
     1
 10
0.0
 20
0.0
 30
0.0
  3
*D4
  1

  0
LINE
  5
1E20
100
AcDbEntity
  8
0
  6
BYBLOCK
 62
     1
100
AcDbLine
 10
124.271808
 20
250.296003
 30
0.0
 11
124.271808
 21
226.819744
 31
0.0
  0
LINE
  5
1E21
100
AcDbEntity
  8
0
  6
BYBLOCK
 62
     1
100
AcDbLine
 10
142.271808
 20
250.296003
 30
0.0
 11
142.271808
 21
226.819744
 31
0.0
  0
LINE
  5
1E22
100
AcDbEntity
  8
0
  6
BYBLOCK
 62
     1
100
AcDbLine
 10
126.271808
 20
228.819744
 30
0.0
 11
140.271808
 21
228.819744
 31
0.0
  0
INSERT
  5
1E23
100
AcDbEntity
  8
0
  6
BYBLOCK
 62
     1
100
AcDbBlockReference
  2
_OPEN30
 10
124.271808
 20
228.819744
 30
0.0
 41
2.0
 42
2.0
 43
2.0
 50
180.0
  0
INSERT
  5
1E24
100
AcDbEntity
  8
0
  6
BYBLOCK
 62
     1
100
AcDbBlockReference
  2
_OPEN30
 10
142.271808
 20
228.819744
 30
0.0
 41
2.0
 42
2.0
 43
2.0
  0
MTEXT
  5
1E25
100
AcDbEntity
  8
0
  6
BYBLOCK
 62
     3
100
AcDbMText
 10
133.271808
 20
231.319744
 30
0.0
 40
3.0
 41
0.0
 71
     5
 72
     1
  1
\A1;18
  0
POINT
  5
1E26
100
AcDbEntity
  8
DEFPOINTS
  6
BYBLOCK
 62
     0
100
AcDbPoint
 10
124.271808
 20
251.296003
 30
0.0
  0
POINT
  5
1E27
100
AcDbEntity
  8
DEFPOINTS
  6
BYBLOCK
 62
     0
100
AcDbPoint
 10
142.271808
 20
251.296003
 30
0.0
  0
POINT
  5
1E28
100
AcDbEntity
  8
DEFPOINTS
  6
BYBLOCK
 62
     0
100
AcDbPoint
 10
142.271808
 20
228.819744
 30
0.0
  0
ENDBLK
  5
1E29
100
AcDbEntity
  8
0
100
AcDbBlockEnd
  0
BLOCK
  5
1E2B
100
AcDbEntity
  8
0
100
AcDbBlockBegin
  2
*D5
 70
     1
 10
0.0
 20
0.0
 30
0.0
  3
*D5
  1

  0
LINE
  5
1E2C
100
AcDbEntity
  8
0
  6
BYBLOCK
 62
     1
100
AcDbLine
 10
148.756888
 20
274.75802
 30
0.0
 11
140.828273
 21
264.97691
 31
0.0
  0
LINE
  5
1E2D
100
AcDbEntity
  8
0
  6
BYBLOCK
 62
     1
100
AcDbLine
 10
125.715343
 20
246.332893
 30
0.0
 11
124.455932
 21
244.779225
 31
0.0
  0
MTEXT
  5
1E2E
100
AcDbEntity
  8
0
  6
BYBLOCK
 62
     3
100
AcDbMText
 10
143.666276
 20
272.448114
 30
0.0
 40
3.0
 41
0.0
 71
     5
 72
     1
  1
\A1;\U+220520
 11
0.629705
 21
0.776834
 31
0.0
  0
LINE
  5
1E2F
100
AcDbEntity
  8
0
  6
BYBLOCK
 62
     1
100
AcDbLine
 10
126.974754
 20
247.886561
 30
0.0
 11
139.568862
 21
263.423242
 31
0.0
  0
INSERT
  5
1E30
100
AcDbEntity
  8
0
  6
BYBLOCK
 62
     1
100
AcDbBlockReference
  2
_OPEN30
 10
126.974754
 20
247.886561
 30
0.0
 41
2.0
 42
2.0
 43
2.0
 50
50.971609
  0
INSERT
  5
1E31
100
AcDbEntity
  8
0
  6
BYBLOCK
 62
     1
100
AcDbBlockReference
  2
_OPEN30
 10
139.568862
 20
263.423242
 30
0.0
 41
2.0
 42
2.0
 43
2.0
 50
230.971609
  0
POINT
  5
1E32
100
AcDbEntity
  8
DEFPOINTS
  6
BYBLOCK
 62
     0
100
AcDbPoint
 10
139.568862
 20
263.423242
 30
0.0
  0
POINT
  5
1E33
100
AcDbEntity
  8
DEFPOINTS
  6
BYBLOCK
 62
     0
100
AcDbPoint
 10
126.974754
 20
247.886561
 30
0.0
  0
ENDBLK
  5
1E34
100
AcDbEntity
  8
0
100
AcDbBlockEnd
  0
BLOCK
  5
21C8
100
AcDbEntity
  8
0
100
AcDbBlockBegin
  2
*D6
 70
     1
 10
0.0
 20
0.0
 30
0.0
  3
*D6
  1

  0
LINE
  5
21C9
100
AcDbEntity
  8
0
  6
BYBLOCK
 62
     1
100
AcDbLine
 10
-22.112643
 20
379.228255
 30
0.0
 11
-24.679709
 21
379.228255
 31
0.0
  0
LINE
  5
21CA
100
AcDbEntity
  8
0
  6
BYBLOCK
 62
     1
100
AcDbLine
 10
-10.275918
 20
366.728255
 30
0.0
 11
-24.679709
 21
366.728255
 31
0.0
  0
LINE
  5
21CB
100
AcDbEntity
  8
0
  6
BYBLOCK
 62
     1
100
AcDbLine
 10
-22.679709
 20
377.228255
 30
0.0
 11
-22.679709
 21
368.728255
 31
0.0
  0
LINE
  5
21CC
100
AcDbEntity
  8
0
  6
BYBLOCK
 62
     1
100
AcDbLine
 10
-22.679709
 20
366.728255
 30
0.0
 11
-22.679709
 21
349.728255
 31
0.0
  0
INSERT
  5
21CD
100
AcDbEntity
  8
0
  6
BYBLOCK
 62
     1
100
AcDbBlockReference
  2
_OPEN30
 10
-22.679709
 20
379.228255
 30
0.0
 41
2.0
 42
2.0
 43
2.0
 50
90.0
  0
INSERT
  5
21CE
100
AcDbEntity
  8
0
  6
BYBLOCK
 62
     1
100
AcDbBlockReference
  2
_OPEN30
 10
-22.679709
 20
366.728255
 30
0.0
 41
2.0
 42
2.0
 43
2.0
 50
270.0
  0
MTEXT
  5
21CF
100
AcDbEntity
  8
0
  6
BYBLOCK
 62
     3
100
AcDbMText
 10
-25.179709
 20
356.228255
 30
0.0
 40
3.0
 41
0.0
 71
     5
 72
     1
  1
\A1;12.5
 11
0.0
 21
1.0
 31
0.0
  0
POINT
  5
21D0
100
AcDbEntity
  8
DEFPOINTS
  6
BYBLOCK
 62
     0
100
AcDbPoint
 10
-21.112643
 20
379.228255
 30
0.0
  0
POINT
  5
21D1
100
AcDbEntity
  8
DEFPOINTS
  6
BYBLOCK
 62
     0
100
AcDbPoint
 10
-9.275918
 20
366.728255
 30
0.0
  0
POINT
  5
21D2
100
AcDbEntity
  8
DEFPOINTS
  6
BYBLOCK
 62
     0
100
AcDbPoint
 10
-22.679709
 20
366.728255
 30
0.0
  0
ENDBLK
  5
21D3
100
AcDbEntity
  8
0
100
AcDbBlockEnd
  0
BLOCK
  5
21D4
100
AcDbEntity
  8
0
100
AcDbBlockBegin
  2
*D7
 70
     1
 10
0.0
 20
0.0
 30
0.0
  3
*D7
  1

  0
LINE
  5
21D5
100
AcDbEntity
  8
0
  6
BYBLOCK
 62
     1
100
AcDbLine
 10
-7.694234
 20
385.22445
 30
0.0
 11
-7.072221
 21
392.334097
 31
0.0
  0
LINE
  5
21D6
100
AcDbEntity
  8
0
  6
BYBLOCK
 62
     1
100
AcDbLine
 10
-10.312441
 20
366.728255
 30
0.0
 11
-35.016093
 21
366.728255
 31
0.0
  0
ARC
  5
21D7
100
AcDbEntity
  8
0
  6
BYBLOCK
 62
     1
100
AcDbCircle
 10
-9.312441
 20
366.728255
 30
0.0
 40
23.703652
100
AcDbArc
 50
89.835777
 51
175.164223
  0
INSERT
  5
21D8
100
AcDbEntity
  8
0
  6
BYBLOCK
 62
     1
100
AcDbBlockReference
  2
_OPEN30
 10
-7.246532
 20
390.341707
 30
0.0
 41
2.0
 42
2.0
 43
2.0
 50
357.417889
  0
INSERT
  5
21D9
100
AcDbEntity
  8
0
  6
BYBLOCK
 62
     1
100
AcDbBlockReference
  2
_OPEN30
 10
-33.016093
 20
366.728255
 30
0.0
 41
2.0
 42
2.0
 43
2.0
 50
267.582111
  0
MTEXT
  5
21DA
100
AcDbEntity
  8
0
  6
BYBLOCK
 62
     3
100
AcDbMText
 10
-27.015372
 20
386.047614
 30
0.0
 40
3.0
 41
0.0
 71
     5
 72
     1
  1
\A1;95°
 11
0.737277
 21
0.67559
 31
0.0
  0
POINT
  5
21DB
100
AcDbEntity
  8
DEFPOINTS
  6
BYBLOCK
 62
     0
100
AcDbPoint
 10
-19.950621
 20
387.910612
 30
0.0
  0
POINT
  5
21DC
100
AcDbEntity
  8
DEFPOINTS
  6
BYBLOCK
 62
     0
100
AcDbPoint
 10
-7.78139
 20
384.228255
 30
0.0
  0
POINT
  5
21DD
100
AcDbEntity
  8
DEFPOINTS
  6
BYBLOCK
 62
     0
100
AcDbPoint
 10
-8.875918
 20
366.728255
 30
0.0
  0
POINT
  5
21DE
100
AcDbEntity
  8
DEFPOINTS
  6
BYBLOCK
 62
     0
100
AcDbPoint
 10
-9.275918
 20
366.728255
 30
0.0
  0
POINT
  5
21DF
100
AcDbEntity
  8
DEFPOINTS
  6
BYBLOCK
 62
     0
100
AcDbPoint
 10
-9.274396
 20
367.163117
 30
0.0
  0
ENDBLK
  5
21E0
100
AcDbEntity
  8
0
100
AcDbBlockEnd
  0
BLOCK
  5
21E1
100
AcDbEntity
  8
0
100
AcDbBlockBegin
  2
*D9
 70
     1
 10
0.0
 20
0.0
 30
0.0
  3
*D9
  1

  0
LINE
  5
21E2
100
AcDbEntity
  8
0
  6
BYBLOCK
 62
     1
100
AcDbLine
 10
-36.767876
 20
404.836092
 30
0.0
 11
-47.368286
 21
390.799361
 31
0.0
  0
LINE
  5
21E3
100
AcDbEntity
  8
0
  6
BYBLOCK
 62
     1
100
AcDbLine
 10
-64.845071
 20
367.657149
 30
0.0
 11
-66.050366
 21
366.061134
 31
0.0
  0
MTEXT
  5
21E4
100
AcDbEntity
  8
0
  6
BYBLOCK
 62
     3
100
AcDbMText
 10
-41.776133
 20
402.352674
 30
0.0
 40
3.0
 41
0.0
 71
     5
 72
     1
  1
\A1;\U+220525
 11
0.602648
 21
0.798007
 31
0.0
  0
LINE
  5
21E5
100
AcDbEntity
  8
0
  6
BYBLOCK
 62
     1
100
AcDbLine
 10
-63.639775
 20
369.253163
 30
0.0
 11
-48.573581
 21
389.203346
 31
0.0
  0
INSERT
  5
21E6
100
AcDbEntity
  8
0
  6
BYBLOCK
 62
     1
100
AcDbBlockReference
  2
_OPEN30
 10
-63.639775
 20
369.253163
 30
0.0
 41
2.0
 42
2.0
 43
2.0
 50
52.940234
  0
INSERT
  5
21E7
100
AcDbEntity
  8
0
  6
BYBLOCK
 62
     1
100
AcDbBlockReference
  2
_OPEN30
 10
-48.573581
 20
389.203346
 30
0.0
 41
2.0
 42
2.0
 43
2.0
 50
232.940234
  0
POINT
  5
21E8
100
AcDbEntity
  8
DEFPOINTS
  6
BYBLOCK
 62
     0
100
AcDbPoint
 10
-48.573581
 20
389.203346
 30
0.0
  0
POINT
  5
21E9
100
AcDbEntity
  8
DEFPOINTS
  6
BYBLOCK
 62
     0
100
AcDbPoint
 10
-63.639775
 20
369.253163
 30
0.0
  0
ENDBLK
  5
21EA
100
AcDbEntity
  8
0
100
AcDbBlockEnd
  0
BLOCK
  5
21FC
100
AcDbEntity
  8
0
100
AcDbBlockBegin
  2
*D10
 70
     1
 10
0.0
 20
0.0
 30
0.0
  3
*D10
  1

  0
LINE
  5
21FD
100
AcDbEntity
  8
0
  6
BYBLOCK
 62
     1
100
AcDbLine
 10
-10.272113
 20
307.490373
 30
0.0
 11
-26.277456
 21
308.890659
 31
0.0
  0
LINE
  5
21FE
100
AcDbEntity
  8
0
  6
BYBLOCK
 62
     1
100
AcDbLine
 10
-22.112643
 20
307.403217
 30
0.0
 11
-26.342399
 21
307.403217
 31
0.0
  0
ARC
  5
21FF
100
AcDbEntity
  8
0
  6
BYBLOCK
 62
     1
100
AcDbCircle
 10
-9.275918
 20
307.403217
 30
0.0
 40
15.066481
100
AcDbArc
 50
159.743512
 51
175.0
  0
LINE
  5
2200
100
AcDbEntity
  8
0
  6
BYBLOCK
 62
     1
100
AcDbLine
 10
-23.410569
 20
312.619584
 30
0.0
 11
-20.433049
 21
320.687692
 31
0.0
  0
ARC
  5
2201
100
AcDbEntity
  8
0
  6
BYBLOCK
 62
     1
100
AcDbCircle
 10
-9.275918
 20
307.403217
 30
0.0
 40
15.066481
100
AcDbArc
 50
159.777353
 51
167.388677
  0
ARC
  5
2202
100
AcDbEntity
  8
0
  6
BYBLOCK
 62
     1
100
AcDbCircle
 10
-9.275918
 20
307.403217
 30
0.0
 40
15.066481
100
AcDbArc
 50
187.611323
 51
195.222647
  0
ARC
  5
2203
100
AcDbEntity
  8
0
  6
BYBLOCK
 62
     1
100
AcDbCircle
 10
-9.275918
 20
307.403217
 30
0.0
 40
15.066481
100
AcDbArc
 50
175.0
 51
180.0
  0
INSERT
  5
2204
100
AcDbEntity
  8
0
  6
BYBLOCK
 62
     1
100
AcDbBlockReference
  2
_OPEN30
 10
-24.285067
 20
308.716348
 30
0.0
 41
2.0
 42
2.0
 43
2.0
 50
261.194338
  0
INSERT
  5
2205
100
AcDbEntity
  8
0
  6
BYBLOCK
 62
     1
100
AcDbBlockReference
  2
_OPEN30
 10
-24.342399
 20
307.403217
 30
0.0
 41
2.0
 42
2.0
 43
2.0
 50
93.805662
  0
MTEXT
  5
2206
100
AcDbEntity
  8
0
  6
BYBLOCK
 62
     3
100
AcDbMText
 10
-24.26719
 20
317.519196
 30
0.0
 40
3.0
 41
0.0
 71
     5
 72
     1
  1
\A1;5°
 11
0.346223
 21
0.938152
 31
0.0
  0
POINT
  5
2207
100
AcDbEntity
  8
DEFPOINTS
  6
BYBLOCK
 62
     0
100
AcDbPoint
 10
-24.336025
 20
307.841422
 30
0.0
  0
POINT
  5
2208
100
AcDbEntity
  8
DEFPOINTS
  6
BYBLOCK
 62
     0
100
AcDbPoint
 10
0.368508
 20
306.559439
 30
0.0
  0
POINT
  5
2209
100
AcDbEntity
  8
DEFPOINTS
  6
BYBLOCK
 62
     0
100
AcDbPoint
 10
-21.112643
 20
307.403217
 30
0.0
  0
POINT
  5
220A
100
AcDbEntity
  8
DEFPOINTS
  6
BYBLOCK
 62
     0
100
AcDbPoint
 10
245.801963
 20
307.403217
 30
0.0
  0
POINT
  5
220B
100
AcDbEntity
  8
DEFPOINTS
  6
BYBLOCK
 62
     0
100
AcDbPoint
 10
-9.275918
 20
307.403217
 30
0.0
  0
ENDBLK
  5
220C
100
AcDbEntity
  8
0
100
AcDbBlockEnd
  0
BLOCK
  5
2230
100
AcDbEntity
  8
0
100
AcDbBlockBegin
  2
*D11
 70
     1
 10
0.0
 20
0.0
 30
0.0
  3
*D11
  1

  0
LINE
  5
2231
100
AcDbEntity
  8
0
  6
BYBLOCK
 62
     1
100
AcDbLine
 10
-9.275918
 20
306.403217
 30
0.0
 11
-9.275918
 21
279.967658
 31
0.0
  0
LINE
  5
2232
100
AcDbEntity
  8
0
  6
BYBLOCK
 62
     1
100
AcDbLine
 10
8.748801
 20
296.653217
 30
0.0
 11
8.748801
 21
279.967658
 31
0.0
  0
LINE
  5
2233
100
AcDbEntity
  8
0
  6
BYBLOCK
 62
     1
100
AcDbLine
 10
-7.275918
 20
281.967658
 30
0.0
 11
6.748801
 21
281.967658
 31
0.0
  0
INSERT
  5
2234
100
AcDbEntity
  8
0
  6
BYBLOCK
 62
     1
100
AcDbBlockReference
  2
_OPEN30
 10
-9.275918
 20
281.967658
 30
0.0
 41
2.0
 42
2.0
 43
2.0
 50
180.0
  0
INSERT
  5
2235
100
AcDbEntity
  8
0
  6
BYBLOCK
 62
     1
100
AcDbBlockReference
  2
_OPEN30
 10
8.748801
 20
281.967658
 30
0.0
 41
2.0
 42
2.0
 43
2.0
  0
MTEXT
  5
2236
100
AcDbEntity
  8
0
  6
BYBLOCK
 62
     3
100
AcDbMText
 10
-0.263559
 20
284.467658
 30
0.0
 40
3.0
 41
0.0
 71
     5
 72
     1
  1
\A1;18
  0
POINT
  5
2237
100
AcDbEntity
  8
DEFPOINTS
  6
BYBLOCK
 62
     0
100
AcDbPoint
 10
-9.275918
 20
307.403217
 30
0.0
  0
POINT
  5
2238
100
AcDbEntity
  8
DEFPOINTS
  6
BYBLOCK
 62
     0
100
AcDbPoint
 10
8.748801
 20
297.653217
 30
0.0
  0
POINT
  5
2239
100
AcDbEntity
  8
DEFPOINTS
  6
BYBLOCK
 62
     0
100
AcDbPoint
 10
8.748801
 20
281.967658
 30
0.0
  0
ENDBLK
  5
223A
100
AcDbEntity
  8
0
100
AcDbBlockEnd
  0
BLOCK
  5
2225
100
AcDbEntity
  8
0
100
AcDbBlockBegin
  2
*D12
 70
     1
 10
0.0
 20
0.0
 30
0.0
  3
*D12
  1

  0
LINE
  5
2226
100
AcDbEntity
  8
0
  6
BYBLOCK
 62
     1
100
AcDbLine
 10
-9.275918
 20
365.728255
 30
0.0
 11
-9.275918
 21
337.029976
 31
0.0
  0
LINE
  5
2227
100
AcDbEntity
  8
0
  6
BYBLOCK
 62
     1
100
AcDbLine
 10
240.724082
 20
369.228255
 30
0.0
 11
240.724082
 21
337.029976
 31
0.0
  0
LINE
  5
2228
100
AcDbEntity
  8
0
  6
BYBLOCK
 62
     1
100
AcDbLine
 10
-7.275918
 20
339.029976
 30
0.0
 11
238.724082
 21
339.029976
 31
0.0
  0
INSERT
  5
2229
100
AcDbEntity
  8
0
  6
BYBLOCK
 62
     1
100
AcDbBlockReference
  2
_OPEN30
 10
-9.275918
 20
339.029976
 30
0.0
 41
2.0
 42
2.0
 43
2.0
 50
180.0
  0
INSERT
  5
222A
100
AcDbEntity
  8
0
  6
BYBLOCK
 62
     1
100
AcDbBlockReference
  2
_OPEN30
 10
240.724082
 20
339.029976
 30
0.0
 41
2.0
 42
2.0
 43
2.0
  0
MTEXT
  5
222B
100
AcDbEntity
  8
0
  6
BYBLOCK
 62
     3
100
AcDbMText
 10
115.724082
 20
341.529976
 30
0.0
 40
3.0
 41
0.0
 71
     5
 72
     1
  1
\A1;250
  0
POINT
  5
222C
100
AcDbEntity
  8
DEFPOINTS
  6
BYBLOCK
 62
     0
100
AcDbPoint
 10
-9.275918
 20
366.728255
 30
0.0
  0
POINT
  5
222D
100
AcDbEntity
  8
DEFPOINTS
  6
BYBLOCK
 62
     0
100
AcDbPoint
 10
240.724082
 20
370.228255
 30
0.0
  0
POINT
  5
222E
100
AcDbEntity
  8
DEFPOINTS
  6
BYBLOCK
 62
     0
100
AcDbPoint
 10
240.724082
 20
339.029976
 30
0.0
  0
ENDBLK
  5
222F
100
AcDbEntity
  8
0
100
AcDbBlockEnd
  0
ENDSEC
  0
SECTION
  2
ENTITIES
  0
TEXT
  5
1453
100
AcDbEntity
  8
外形
  6
CONTINUOUS
 62
     2
100
AcDbText
 10
81.945496
 20
150.213866
 30
0.0
 40
6.0
  1
BBPC320R
100
AcDbText
  0
LINE
  5
1AFE
100
AcDbEntity
  8
外形
  6
CENTER
 62
     1
100
AcDbLine
 10
0.644545
 20
264.177751
 30
0.0
 11
-14.789741
 21
264.177751
 31
0.0
  0
LINE
  5
1AFF
100
AcDbEntity
  8
外形
  6
CENTER
 62
     1
100
AcDbLine
 10
-7.072598
 20
271.894894
 30
0.0
 11
-7.072598
 21
256.460608
 31
0.0
  0
LINE
  5
1B01
100
AcDbEntity
  8
外形
  6
CONTINUOUS
100
AcDbLine
 10
-3.010876
 20
259.752414
 30
0.0
 11
-11.83676
 21
258.980249
 31
0.0
  0
LINE
  5
1B04
100
AcDbEntity
  8
外形
  6
CONTINUOUS
100
AcDbLine
 10
-11.468683
 20
268.573835
 30
0.0
 11
-2.308436
 21
269.375253
 31
0.0
  0
LINE
  5
1B05
100
AcDbEntity
  8
外形
  6
CONTINUOUS
100
AcDbLine
 10
-1.875096
 20
268.941913
 30
0.0
 11
-2.647261
 21
260.116029
 31
0.0
  0
ARC
  5
1B06
100
AcDbEntity
  8
外形
  6
CONTINUOUS
100
AcDbCircle
 10
-11.099458
 20
268.20461
 30
0.0
 40
0.4
100
AcDbArc
 50
95.0
 51
175.0
  0
ARC
  5
1B07
100
AcDbEntity
  8
外形
  6
CONTINUOUS
100
AcDbCircle
 10
-2.273574
 20
268.976775
 30
0.0
 40
0.4
100
AcDbArc
 50
355.0
 51
95.0
  0
ARC
  5
1B08
100
AcDbEntity
  8
外形
  6
CONTINUOUS
100
AcDbCircle
 10
-3.045739
 20
260.150891
 30
0.0
 40
0.4
100
AcDbArc
 50
275.0
 51
355.0
  0
ARC
  5
1B09
100
AcDbEntity
  8
外形
  6
CONTINUOUS
100
AcDbCircle
 10
-11.871623
 20
259.378727
 30
0.0
 40
0.4
100
AcDbArc
 50
175.0
 51
275.0
  0
ARC
  5
1B0D
100
AcDbEntity
  8
外形
  6
CONTINUOUS
100
AcDbCircle
 10
-2.972598
 20
268.277751
 30
0.0
 40
1.75
100
AcDbArc
 50
315.0
 51
135.0
  0
LINE
  5
1B10
100
AcDbEntity
  8
外形
  6
CONTINUOUS
100
AcDbLine
 10
-4.210035
 20
269.515188
 30
0.0
 11
-4.545706
 21
269.179517
 31
0.0
  0
LINE
  5
1B11
100
AcDbEntity
  8
外形
  6
CONTINUOUS
100
AcDbLine
 10
-1.735161
 20
267.040314
 30
0.0
 11
-2.070832
 21
266.704644
 31
0.0
  0
LINE
  5
1C7F
100
AcDbEntity
  8
外形
  6
CONTINUOUS
100
AcDbLine
 10
-6.110815
 20
264.516671
 30
0.0
 11
-5.530439
 21
264.177751
 31
0.0
  0
LINE
  5
1C80
100
AcDbEntity
  8
外形
  6
CONTINUOUS
100
AcDbLine
 10
-5.530439
 20
264.177751
 30
0.0
 11
-6.110815
 21
263.838831
 31
0.0
  0
LINE
  5
1C81
100
AcDbEntity
  8
外形
  6
CONTINUOUS
100
AcDbLine
 10
-6.88522
 20
265.18014
 30
0.0
 11
-6.301518
 21
265.5133
 31
0.0
  0
LINE
  5
1C82
100
AcDbEntity
  8
外形
  6
CONTINUOUS
100
AcDbLine
 10
-6.301518
 20
265.5133
 30
0.0
 11
-6.298193
 21
264.841219
 31
0.0
  0
LINE
  5
1C83
100
AcDbEntity
  8
外形
  6
CONTINUOUS
100
AcDbLine
 10
-7.847003
 20
264.841219
 30
0.0
 11
-7.843678
 21
265.5133
 31
0.0
  0
LINE
  5
1C84
100
AcDbEntity
  8
外形
  6
CONTINUOUS
100
AcDbLine
 10
-7.843678
 20
265.5133
 30
0.0
 11
-7.259976
 21
265.18014
 31
0.0
  0
LINE
  5
1C85
100
AcDbEntity
  8
外形
  6
CONTINUOUS
100
AcDbLine
 10
-8.034381
 20
263.838831
 30
0.0
 11
-8.614758
 21
264.177751
 31
0.0
  0
LINE
  5
1C86
100
AcDbEntity
  8
外形
  6
CONTINUOUS
100
AcDbLine
 10
-8.614758
 20
264.177751
 30
0.0
 11
-8.034381
 21
264.516671
 31
0.0
  0
LINE
  5
1C87
100
AcDbEntity
  8
外形
  6
CONTINUOUS
100
AcDbLine
 10
-7.259976
 20
263.175362
 30
0.0
 11
-7.843678
 21
262.842202
 31
0.0
  0
LINE
  5
1C88
100
AcDbEntity
  8
外形
  6
CONTINUOUS
100
AcDbLine
 10
-7.843678
 20
262.842202
 30
0.0
 11
-7.847003
 21
263.514282
 31
0.0
  0
LINE
  5
1C89
100
AcDbEntity
  8
外形
  6
CONTINUOUS
100
AcDbLine
 10
-6.298193
 20
263.514282
 30
0.0
 11
-6.301518
 21
262.842202
 31
0.0
  0
LINE
  5
1C8A
100
AcDbEntity
  8
外形
  6
CONTINUOUS
100
AcDbLine
 10
-6.301518
 20
262.842202
 30
0.0
 11
-6.88522
 21
263.175362
 31
0.0
  0
ARC
  5
1C8B
100
AcDbEntity
  8
外形
  6
CONTINUOUS
100
AcDbCircle
 10
-5.920198
 20
264.84309
 30
0.0
 40
0.378
100
AcDbArc
 50
180.283476
 51
239.716524
  0
ARC
  5
1C8C
100
AcDbEntity
  8
外形
  6
CONTINUOUS
100
AcDbCircle
 10
-5.920198
 20
263.512412
 30
0.0
 40
0.378
100
AcDbArc
 50
120.283476
 51
179.716524
  0
ARC
  5
1C8D
100
AcDbEntity
  8
外形
  6
CONTINUOUS
100
AcDbCircle
 10
-7.072598
 20
262.847074
 30
0.0
 40
0.378
100
AcDbArc
 50
60.283476
 51
119.716524
  0
ARC
  5
1C8E
100
AcDbEntity
  8
外形
  6
CONTINUOUS
100
AcDbCircle
 10
-8.224999
 20
263.512412
 30
0.0
 40
0.378
100
AcDbArc
 50
0.283476
 51
59.716524
  0
ARC
  5
1C8F
100
AcDbEntity
  8
外形
  6
CONTINUOUS
100
AcDbCircle
 10
-8.224999
 20
264.84309
 30
0.0
 40
0.378
100
AcDbArc
 50
300.283476
 51
359.716524
  0
ARC
  5
1C90
100
AcDbEntity
  8
外形
  6
CONTINUOUS
100
AcDbCircle
 10
-7.072598
 20
265.508428
 30
0.0
 40
0.378
100
AcDbArc
 50
240.283476
 51
299.716524
  0
CIRCLE
  5
1C91
100
AcDbEntity
  8
外形
  6
CONTINUOUS
100
AcDbCircle
 10
-7.072598
 20
264.177751
 30
0.0
 40
2.5515
  0
LINE
  5
1DD6
100
AcDbEntity
  8
外形
  6
CENTER
 62
     1
100
AcDbLine
 10
-24.108347
 20
271.478727
 30
0.0
 11
242.806259
 21
271.478727
 31
0.0
  0
LINE
  5
1DDC
100
AcDbEntity
  8
外形
  6
CONTINUOUS
100
AcDbLine
 10
-0.479283
 20
282.424171
 30
0.0
 11
4.42582
 21
281.99503
 31
0.0
  0
LINE
  5
1DDF
100
AcDbEntity
  8
外形
  6
CONTINUOUS
100
AcDbLine
 10
5.753096
 20
281.228727
 30
0.0
 11
14.753096
 21
281.228727
 31
0.0
  0
LINE
  5
1DE0
100
AcDbEntity
  8
外形
  6
CONTINUOUS
100
AcDbLine
 10
5.753096
 20
261.728727
 30
0.0
 11
14.753096
 21
261.728727
 31
0.0
  0
LINE
  5
1DE1
100
AcDbEntity
  8
外形
  6
CONTINUOUS
100
AcDbLine
 10
5.753096
 20
281.228727
 30
0.0
 11
5.753096
 21
277.900361
 31
0.0
  0
LINE
  5
1DE2
100
AcDbEntity
  8
外形
  6
CONTINUOUS
100
AcDbLine
 10
4.42582
 20
260.962424
 30
0.0
 11
5.753096
 21
261.728727
 31
0.0
  0
LINE
  5
1DE3
100
AcDbEntity
  8
外形
  6
CONTINUOUS
100
AcDbLine
 10
4.42582
 20
281.99503
 30
0.0
 11
5.753096
 21
281.228727
 31
0.0
  0
LINE
  5
1DE4
100
AcDbEntity
  8
外形
  6
CONTINUOUS
100
AcDbLine
 10
4.42582
 20
281.99503
 30
0.0
 11
4.42582
 21
278.433504
 31
0.0
  0
LINE
  5
1DE7
100
AcDbEntity
  8
外形
  6
CONTINUOUS
100
AcDbLine
 10
15.003096
 20
261.478727
 30
0.0
 11
111.457537
 21
261.478727
 31
0.0
  0
LINE
  5
1DE8
100
AcDbEntity
  8
外形
  6
CONTINUOUS
100
AcDbLine
 10
15.003096
 20
261.478727
 30
0.0
 11
14.753096
 21
261.728727
 31
0.0
  0
LINE
  5
1DEA
100
AcDbEntity
  8
外形
  6
CONTINUOUS
100
AcDbLine
 10
14.753096
 20
281.228727
 30
0.0
 11
15.003096
 21
281.478727
 31
0.0
  0
LINE
  5
1DEB
100
AcDbEntity
  8
外形
  6
CONTINUOUS
100
AcDbLine
 10
15.003096
 20
281.478727
 30
0.0
 11
111.457537
 21
281.478727
 31
0.0
  0
LINE
  5
1DED
100
AcDbEntity
  8
外形
  6
CONTINUOUS
100
AcDbLine
 10
-10.777094
 20
276.478727
 30
0.0
 11
-12.2701
 21
259.413589
 31
0.0
  0
LINE
  5
1DF1
100
AcDbEntity
  8
外形
  6
CONTINUOUS
100
AcDbLine
 10
-10.246904
 20
196.284402
 30
0.0
 11
-10.246904
 21
187.853689
 31
0.0
  0
LINE
  5
1DF3
100
AcDbEntity
  8
外形
  6
CONTINUOUS
100
AcDbLine
 10
15.003096
 20
190.653689
 30
0.0
 11
15.003096
 21
208.653689
 31
0.0
  0
LINE
  5
1DF4
100
AcDbEntity
  8
外形
  6
CONTINUOUS
100
AcDbLine
 10
14.753096
 20
208.430193
 30
0.0
 11
14.753096
 21
190.653689
 31
0.0
  0
LINE
  5
1DF5
100
AcDbEntity
  8
外形
  6
CONTINUOUS
100
AcDbLine
 10
4.42582
 20
201.420945
 30
0.0
 11
4.42582
 21
189.137386
 31
0.0
  0
LINE
  5
1DF6
100
AcDbEntity
  8
外形
  6
CONTINUOUS
100
AcDbLine
 10
5.753096
 20
202.110099
 30
0.0
 11
5.753096
 21
189.903689
 31
0.0
  0
LINE
  5
1DFB
100
AcDbEntity
  8
外形
  6
CONTINUOUS
100
AcDbLine
 10
-10.246904
 20
187.853689
 30
0.0
 11
4.42582
 21
189.137386
 31
0.0
  0
LINE
  5
1DFE
100
AcDbEntity
  8
外形
  6
CONTINUOUS
100
AcDbLine
 10
4.42582
 20
189.137386
 30
0.0
 11
5.753096
 21
189.903689
 31
0.0
  0
LINE
  5
1E00
100
AcDbEntity
  8
外形
  6
CENTER
 62
     1
100
AcDbLine
 10
-24.108347
 20
199.653689
 30
0.0
 11
242.806259
 21
199.653689
 31
0.0
  0
LINE
  5
1E01
100
AcDbEntity
  8
外形
  6
CONTINUOUS
100
AcDbLine
 10
-11.031393
 20
187.853689
 30
0.0
 11
-10.246904
 21
187.853689
 31
0.0
  0
LINE
  5
1E03
100
AcDbEntity
  8
外形
  6
CONTINUOUS
100
AcDbLine
 10
-0.479283
 20
282.424171
 30
0.0
 11
-10.777094
 21
276.478727
 31
0.0
  0
LINE
  5
1E04
100
AcDbEntity
  8
外形
  6
CONTINUOUS
100
AcDbLine
 10
-2.627197
 20
260.345365
 30
0.0
 11
4.42582
 21
260.962424
 31
0.0
  0
LINE
  5
1E07
100
AcDbEntity
  8
外形
  6
CONTINUOUS
100
AcDbLine
 10
14.753096
 20
261.728727
 30
0.0
 11
15.003096
 21
261.478727
 31
0.0
  0
ELLIPSE
  5
1E09
100
AcDbEntity
  8
外形
  6
CONTINUOUS
100
AcDbEllipse
 10
15.003096
 20
271.478727
 30
0.0
 11
0.0
 21
4.35889894354068
 31
0.0
210
0.0
220
0.0
230
1.0
 40
0.057354
 41
2.641983645482341
 42
3.141592653589793
  0
LINE
  5
1E0A
100
AcDbEntity
  8
外形
  6
CONTINUOUS
100
AcDbLine
 10
14.753096
 20
261.728727
 30
0.0
 11
14.753096
 21
267.3529
 31
0.0
  0
LINE
  5
1E0B
100
AcDbEntity
  8
外形
  6
CONTINUOUS
100
AcDbLine
 10
15.003096
 20
261.478727
 30
0.0
 11
15.003096
 21
267.119828
 31
0.0
  0
LINE
  5
1E0C
100
AcDbEntity
  8
外形
  6
CONTINUOUS
100
AcDbLine
 10
14.875653
 20
275.228727
 30
0.0
 11
10.585968
 21
275.228727
 31
0.0
  0
LINE
  5
1E0D
100
AcDbEntity
  8
外形
  6
CONTINUOUS
100
AcDbLine
 10
15.003096
 20
281.478727
 30
0.0
 11
14.753096
 21
281.228727
 31
0.0
  0
ELLIPSE
  5
1E0E
100
AcDbEntity
  8
外形
  6
CONTINUOUS
100
AcDbEllipse
 10
15.003096
 20
271.478727
 30
0.0
 11
0.0
 21
4.35889894354068
 31
0.0
210
0.0
220
0.0
230
1.0
 40
0.057354
 41
0.0
 42
0.5349208077923994
  0
LINE
  5
1E0F
100
AcDbEntity
  8
外形
  6
CONTINUOUS
100
AcDbLine
 10
14.753096
 20
275.228727
 30
0.0
 11
14.753096
 21
281.228727
 31
0.0
  0
LINE
  5
1E10
100
AcDbEntity
  8
外形
  6
CONTINUOUS
100
AcDbLine
 10
15.003096
 20
275.837626
 30
0.0
 11
15.003096
 21
281.478727
 31
0.0
  0
LINE
  5
1E11
100
AcDbEntity
  8
外形
  6
CONTINUOUS
100
AcDbLine
 10
15.003096
 20
275.837626
 30
0.0
 11
111.457537
 21
275.837626
 31
0.0
  0
LINE
  5
1E12
100
AcDbEntity
  8
外形
  6
CONTINUOUS
100
AcDbLine
 10
15.003096
 20
267.119828
 30
0.0
 11
111.457537
 21
267.119828
 31
0.0
  0
LINE
  5
1E15
100
AcDbEntity
  8
外形
  6
CONTINUOUS
100
AcDbLine
 10
5.753096
 20
262.143237
 30
0.0
 11
5.753096
 21
261.728727
 31
0.0
  0
LINE
  5
1E16
100
AcDbEntity
  8
外形
  6
CONTINUOUS
100
AcDbLine
 10
4.42582
 20
261.961711
 30
0.0
 11
4.42582
 21
260.962424
 31
0.0
  0
DIMENSION
  5
1E17
100
AcDbEntity
  8
寸法
  6
CONTINUOUS
100
AcDbDimension
  2
*D4
 10
135.707798
 20
244.643569
 30
0.0
 11
126.707798
 21
247.143569
 31
0.0
 12
-6.56401
 22
15.823825
 32
0.0
 70
    32
  3
STANDARD
100
AcDbAlignedDimension
 13
117.707798
 23
267.119828
 33
0.0
 14
135.707798
 24
267.119828
 34
0.0
100
AcDbRotatedDimension
1001
ACAD
1000
DSTYLE
1002
{
1070
    40
1040
1.0
1002
}
  0
DIMENSION
  5
1E18
100
AcDbEntity
  8
寸法
  6
CONTINUOUS
100
AcDbDimension
  2
*D5
 10
120.410744
 20
263.710386
 30
0.0
 11
139.044351
 21
286.697675
 31
0.0
 12
-6.56401
 22
15.823825
 32
0.0
 70
   163
  3
STANDARD
100
AcDbDiametricDimension
 15
133.004852
 25
279.247067
 35
0.0
 40
0.0
1001
ACAD
1000
DSTYLE
1002
{
1070
    40
1040
1.0
1002
}
  0
LINE
  5
1E19
100
AcDbEntity
  8
外形
  6
CONTINUOUS
100
AcDbLine
 10
135.707798
 20
267.119828
 30
0.0
 11
135.707798
 21
275.837626
 31
0.0
  0
LINE
  5
1E1A
100
AcDbEntity
  8
外形
  6
CONTINUOUS
100
AcDbLine
 10
117.707798
 20
275.837626
 30
0.0
 11
117.707798
 21
267.119828
 31
0.0
  0
LINE
  5
1E1B
100
AcDbEntity
  8
外形
  6
CENTER
 62
     1
100
AcDbLine
 10
126.707798
 20
257.466875
 30
0.0
 11
126.707798
 21
285.490578
 31
0.0
  0
ARC
  5
1E1C
100
AcDbEntity
  8
外形
  6
CONTINUOUS
100
AcDbCircle
 10
126.707798
 20
271.478727
 30
0.0
 40
10.0
100
AcDbArc
 50
205.841933
 51
334.158067
  0
ARC
  5
1E1D
100
AcDbEntity
  8
外形
  6
CONTINUOUS
100
AcDbCircle
 10
126.707798
 20
271.478727
 30
0.0
 40
10.0
100
AcDbArc
 50
25.841933
 51
154.158067
  0
LINE
  5
1E37
100
AcDbEntity
  8
外形
  6
CONTINUOUS
100
AcDbLine
 10
142.791235
 20
281.478727
 30
0.0
 11
236.728377
 21
281.478727
 31
0.0
  0
LINE
  5
1E38
100
AcDbEntity
  8
外形
  6
CONTINUOUS
100
AcDbLine
 10
142.791235
 20
275.837626
 30
0.0
 11
236.728377
 21
275.837626
 31
0.0
  0
LINE
  5
1E39
100
AcDbEntity
  8
外形
  6
CONTINUOUS
100
AcDbLine
 10
142.791235
 20
267.119828
 30
0.0
 11
236.728377
 21
267.119828
 31
0.0
  0
LINE
  5
1E3A
100
AcDbEntity
  8
外形
  6
CONTINUOUS
100
AcDbLine
 10
142.791235
 20
261.478727
 30
0.0
 11
236.728377
 21
261.478727
 31
0.0
  0
LINE
  5
1E3C
100
AcDbEntity
  8
外形
  6
CONTINUOUS
100
AcDbLine
 10
237.728377
 20
262.478727
 30
0.0
 11
237.728377
 21
280.478727
 31
0.0
  0
ELLIPSE
  5
1E3D
100
AcDbEntity
  8
外形
  6
CONTINUOUS
100
AcDbEllipse
 10
236.728377
 20
271.478727
 30
0.0
 11
0.0
 21
4.35889894354068
 31
0.0
210
0.0
220
0.0
230
1.0
 40
0.229416
 41
3.141592653589793
 42
6.283185307179586
  0
LINE
  5
1E3E
100
AcDbEntity
  8
外形
  6
CONTINUOUS
100
AcDbLine
 10
236.728377
 20
261.478727
 30
0.0
 11
237.728377
 21
262.478727
 31
0.0
  0
LINE
  5
1E3F
100
AcDbEntity
  8
外形
  6
CONTINUOUS
100
AcDbLine
 10
236.728377
 20
261.478727
 30
0.0
 11
236.728377
 21
267.119828
 31
0.0
  0
LINE
  5
1E40
100
AcDbEntity
  8
外形
  6
CONTINUOUS
100
AcDbLine
 10
237.728377
 20
280.478727
 30
0.0
 11
236.728377
 21
281.478727
 31
0.0
  0
LINE
  5
1E41
100
AcDbEntity
  8
外形
  6
CONTINUOUS
100
AcDbLine
 10
236.728377
 20
275.837626
 30
0.0
 11
236.728377
 21
281.478727
 31
0.0
  0
LINE
  5
1E42
100
AcDbEntity
  8
外形
  6
CENTER
 62
     1
100
AcDbLine
 10
-59.102383
 20
290.783535
 30
0.0
 11
-59.102383
 21
252.173919
 31
0.0
  0
LINE
  5
1E43
100
AcDbEntity
  8
外形
  6
CENTER
 62
     1
100
AcDbLine
 10
-39.797575
 20
271.478727
 30
0.0
 11
-78.407191
 21
271.478727
 31
0.0
  0
ARC
  5
1E44
100
AcDbEntity
  8
外形
  6
CONTINUOUS
100
AcDbCircle
 10
-59.102383
 20
271.478727
 30
0.0
 40
11.8
100
AcDbArc
 50
194.087413
 51
254.365988
  0
ARC
  5
1E46
100
AcDbEntity
  8
外形
  6
CONTINUOUS
100
AcDbCircle
 10
-59.102383
 20
271.478727
 30
0.0
 40
9.75
100
AcDbArc
 50
270.0
 51
337.380135
  0
ARC
  5
1E48
100
AcDbEntity
  8
外形
  6
CONTINUOUS
100
AcDbCircle
 10
-59.102383
 20
269.728727
 30
0.0
 40
11.5
100
AcDbArc
 50
90.0
 51
185.599697
  0
LINE
  5
1E4C
100
AcDbEntity
  8
外形
  6
CONTINUOUS
100
AcDbLine
 10
-50.102383
 20
275.228727
 30
0.0
 11
-50.102383
 21
267.728727
 31
0.0
  0
ARC
  5
1E4D
100
AcDbEntity
  8
外形
  6
CONTINUOUS
100
AcDbCircle
 10
-59.102383
 20
271.478727
 30
0.0
 40
9.75
100
AcDbArc
 50
22.619865
 51
90.0
  0
LINE
  5
1E4E
100
AcDbEntity
  8
外形
  6
CONTINUOUS
100
AcDbLine
 10
-59.102383
 20
258.978727
 30
0.0
 11
-59.102383
 21
281.211348
 31
0.0
  0
LINE
  5
1E51
100
AcDbEntity
  8
外形
  6
CONTINUOUS
100
AcDbLine
 10
-62.282383
 20
259.596856
 30
0.0
 11
-59.102383
 21
258.978727
 31
0.0
  0
LINE
  5
1E52
100
AcDbEntity
  8
外形
  6
CONTINUOUS
100
AcDbLine
 10
-62.282383
 20
267.955706
 30
0.0
 11
-59.102383
 21
268.573835
 31
0.0
  0
LINE
  5
1E53
100
AcDbEntity
  8
外形
  6
CONTINUOUS
100
AcDbLine
 10
-62.282383
 20
259.596856
 30
0.0
 11
-62.282383
 21
267.955706
 31
0.0
  0
SPLINE
  5
1EDD
100
AcDbEntity
  8
外形
  6
CONTINUOUS
100
AcDbSpline
210
0.0
220
0.0
230
-1.0
 70
     8
 71
     3
 72
    11
 73
     7
 74
     0
 42
0.0000001
 43
0.0000001
 40
0.0
 40
0.0
 40
0.0
 40
0.0
 40
3.75003464606191
 40
8.042375267766473
 40
11.8270835128091
 40
15.31154209804682
 40
15.31154209804682
 40
15.31154209804682
 40
15.311542098074
 10
10.585967906964
 20
275.228726707816
 30
0.0
 10
9.527831194622805
 20
275.8982665297152
 30
0.0
 10
7.258536820453429
 20
277.3341707313156
 30
0.0
 10
3.579627905622864
 20
278.8044080395778
 30
0.0
 10
-0.113279730721644
 20
279.9119822750288
 30
0.0
 10
-2.487531819341153
 20
280.4094193413964
 30
0.0
 10
-3.633418847222617
 20
280.6031296567097
 30
0.0
  0
SPLINE
  5
1EDE
100
AcDbEntity
  8
外形
  6
CONTINUOUS
100
AcDbSpline
210
0.0
220
0.0
230
1.0
 70
     8
 71
     3
 72
    13
 73
     9
 74
     0
 42
0.0000001
 43
0.0000001
 40
0.0815807711827132
 40
0.0815807711827132
 40
0.0815807711827132
 40
0.0815807711827132
 40
2.166326240074002
 40
4.797615177311008
 40
7.407492152352061
 40
10.0912879806501
 40
12.96595313593214
 40
19.53348752111876
 40
19.53348752111876
 40
19.53348752111876
 40
19.53348752111876
 10
14.88332555356141
 20
267.6526162161989
 30
0.0
 10
14.60405993923588
 20
267.0043953233076
 30
0.0
 10
13.96086738104769
 20
265.5464892948712
 30
0.0
 10
11.89345932463721
 20
264.0726401695351
 30
0.0
 10
9.488911773795994
 20
262.9980814461303
 30
0.0
 10
6.846135782237704
 20
262.2874839701229
 30
0.0
 10
2.839791685965916
 20
261.7026843898487
 30
0.0
 10
-0.3121253384944098
 20
261.7019426480841
 30
0.0
 10
-2.506287187255465
 20
261.7273659918608
 30
0.0
  0
LINE
  5
1EE5
100
AcDbEntity
  8
外形
  6
CONTINUOUS
100
AcDbLine
 10
-2.627197
 20
198.809911
 30
0.0
 11
-12.271623
 21
199.653689
 31
0.0
  0
LINE
  5
1EE6
100
AcDbEntity
  8
外形
  6
CONTINUOUS
100
AcDbLine
 10
-11.031393
 20
187.853689
 30
0.0
 11
-12.271623
 21
199.653689
 31
0.0
  0
LINE
  5
1EE8
100
AcDbEntity
  8
外形
  6
CONTINUOUS
100
AcDbLine
 10
-2.959648
 20
195.64685
 30
0.0
 11
-2.528417
 21
199.749738
 31
0.0
  0
LINE
  5
1EE9
100
AcDbEntity
  8
外形
  6
CONTINUOUS
100
AcDbLine
 10
-11.933001
 20
196.431916
 30
0.0
 11
-2.959648
 21
195.64685
 31
0.0
  0
LINE
  5
1EFB
100
AcDbEntity
  8
外形
  6
CONTINUOUS
100
AcDbLine
 10
-12.271623
 20
199.653689
 30
0.0
 11
-11.468683
 21
200.429596
 31
0.0
  0
LINE
  5
1F13
100
AcDbEntity
  8
外形
  6
CONTINUOUS
100
AcDbLine
 10
10.585968
 20
208.653689
 30
0.0
 11
237.728377
 21
208.653689
 31
0.0
  0
LINE
  5
1F14
100
AcDbEntity
  8
外形
  6
CONTINUOUS
100
AcDbLine
 10
5.753096
 20
190.653689
 30
0.0
 11
237.728377
 21
190.653689
 31
0.0
  0
SPLINE
  5
1F15
100
AcDbEntity
  8
外形
  6
CONTINUOUS
100
AcDbSpline
210
0.0
220
0.0
230
1.0
 70
     8
 71
     3
 72
    13
 73
     9
 74
     7
 42
0.0000001
 43
0.0000001
 44
0.0000000001
 40
0.0
 40
0.0
 40
0.0
 40
0.0
 40
1.622889678135137
 40
4.190482902718159
 40
7.018522272130844
 40
10.02060373914504
 40
13.24088569274332
 40
19.99610355932505
 40
19.99610355932505
 40
19.99610355932505
 40
19.99610355932505
 10
14.9160949258862
 20
208.6536890298714
 30
0.0
 10
14.59589002711052
 20
208.2134020357789
 30
0.0
 10
13.76908511747063
 20
207.0765317075665
 30
0.0
 10
11.7761760709297
 20
205.7822054661519
 30
0.0
 10
9.455351086825308
 20
204.2347787436287
 30
0.0
 10
6.835360559033103
 20
202.7428281399818
 30
0.0
 10
3.082803219438783
 20
200.5192993374804
 30
0.0
 10
-0.2628228402564138
 20
200.0604569586131
 30
0.0
 10
-2.528416879728474
 20
199.7497376671948
 30
0.0
 11
14.9160949258862
 21
208.6536890298714
 31
0.0
 11
13.90102304717383
 21
207.3874347155866
 31
0.0
 11
11.85939859227141
 21
205.8304168762318
 31
0.0
 11
9.485445148537515
 21
204.2934875603776
 31
0.0
 11
6.899007915165952
 21
202.769402401202
 31
0.0
 11
4.05689783316285
 21
201.2552603528964
 31
0.0
 11
-2.528416879728474
 21
199.7497376671948
 31
0.0
  0
SPLINE
  5
1F23
100
AcDbEntity
  8
外形
  6
CONTINUOUS
100
AcDbSpline
210
0.0
220
0.0
230
-1.0
 70
     8
 71
     3
 72
    13
 73
     9
 74
     7
 42
0.0000001
 43
0.0000001
 44
0.0000000001
 40
0.0
 40
0.0
 40
0.0
 40
0.0
 40
3.340460425008672
 40
7.553020650993623
 40
11.46242536466795
 40
15.18102016883392
 40
18.83575570431221
 40
23.56877104139974
 40
23.56877104139974
 40
23.56877104139974
 40
23.56877104139974
 10
10.58596790693144
 20
208.6536890298714
 30
0.0
 10
9.504890459892813
 20
208.3830558239117
 30
0.0
 10
7.060496800361569
 20
207.771134731192
 30
0.0
 10
3.492913034280562
 20
206.3845125602532
 30
0.0
 10
-0.1701113387354085
 20
204.9183715653895
 30
0.0
 10
-3.62813856365005
 20
203.4403200407381
 30
0.0
 10
-7.271558472380965
 20
201.6886152758293
 30
0.0
 10
-9.954666431902346
 20
200.8837585148758
 30
0.0
 10
-11.4686826820764
 20
200.4295963143494
 30
0.0
 11
10.58596790693144
 21
208.6536890298714
 31
0.0
 11
7.361039785710239
 21
207.782761671244
 31
0.0
 11
3.402664240584471
 21
206.3416070295415
 31
0.0
 11
-0.2233823155764298
 21
204.8803638643384
 31
0.0
 11
-3.637326352176629
 21
203.4062765424568
 31
0.0
 11
-6.977198431905833
 21
201.9222461097051
 31
0.0
 11
-11.4686826820764
 21
200.4295963143494
 31
0.0
  0
LINE
  5
1F24
100
AcDbEntity
  8
外形
  6
CONTINUOUS
100
AcDbLine
 10
14.883326
 20
267.652616
 30
0.0
 11
10.585968
 21
275.228727
 31
0.0
  0
LINE
  5
1F26
100
AcDbEntity
  8
外形
  6
CONTINUOUS
100
AcDbLine
 10
236.728377
 20
190.653689
 30
0.0
 11
236.728377
 21
208.653689
 31
0.0
  0
LINE
  5
1F27
100
AcDbEntity
  8
外形
  6
CONTINUOUS
100
AcDbLine
 10
237.728377
 20
190.653689
 30
0.0
 11
237.728377
 21
208.653689
 31
0.0
  0
MTEXT
  5
202A
100
AcDbEntity
  8
寸法
  6
CONTINUOUS
 62
     3
100
AcDbMText
 10
-45.785171
 20
284.124976
 30
0.0
 40
3.0
 41
0.0
 71
     4
 72
     1
  1
最小加工径
 11
0.60584
 21
0.795587
 31
0.0
  0
DIMENSION
  5
2162
100
AcDbEntity
  8
寸法
  6
CONTINUOUS
100
AcDbDimension
  2
*D6
 10
-25.675414
 20
258.978727
 30
0.0
 11
-25.675414
 21
248.478727
 31
0.0
 12
-2.995705
 22
-107.749528
 32
0.0
 70
   160
  3
STANDARD
100
AcDbAlignedDimension
 13
-24.108347
 23
271.478727
 33
0.0
 14
-12.271623
 24
258.978727
 34
0.0
 50
90.0
100
AcDbRotatedDimension
1001
ACAD
1000
DSTYLE
1002
{
1070
    40
1040
1.0
1002
}
  0
DIMENSION
  5
2171
100
AcDbEntity
  8
寸法
  6
CONTINUOUS
100
AcDbDimension
  2
*D7
 10
-12.2701
 20
259.413589
 30
0.0
 11
-30.011077
 21
278.298085
 31
0.0
 12
-2.995705
 22
-107.749528
 32
0.0
 70
    34
  3
STANDARD
100
AcDb2LineAngularDimension
 13
-11.871623
 23
258.978727
 33
0.0
 14
-12.271623
 24
258.978727
 34
0.0
 15
-10.777094
 25
276.478727
 35
0.0
 16
-22.946325
 26
280.161084
 36
0.0
1001
ACAD
1000
DSTYLE
1002
{
1070
    40
1040
1.0
1002
}
  0
CIRCLE
  5
217F
100
AcDbEntity
  8
外形
  6
PHANTOM
 62
     1
100
AcDbCircle
 10
-59.102383
 20
271.478727
 30
0.0
 40
12.5
  0
DIMENSION
  5
219D
100
AcDbEntity
  8
寸法
  6
CONTINUOUS
100
AcDbDimension
  2
*D9
 10
-66.63548
 20
261.503635
 30
0.0
 11
-42.776819
 21
293.096527
 31
0.0
 12
-2.995705
 22
-107.749528
 32
0.0
 70
   163
  3
STANDARD
100
AcDbDiametricDimension
 15
-51.569286
 25
281.453818
 35
0.0
 40
0.0
1001
ACAD
1000
DSTYLE
1002
{
1070
    40
1040
1.0
1002
}
  0
DIMENSION
  5
21BA
100
AcDbEntity
  8
寸法
  6
CONTINUOUS
100
AcDbDimension
  2
*D10
 10
-12.271623
 20
199.653689
 30
0.0
 11
-27.262894
 21
209.769668
 31
0.0
 12
-2.995705
 22
-107.749528
 32
0.0
 70
    34
  3
STANDARD
100
AcDb2LineAngularDimension
 13
-24.108347
 23
199.653689
 33
0.0
 14
242.806259
 24
199.653689
 34
0.0
 15
-2.627197
 25
198.809911
 35
0.0
 16
-27.33173
 26
200.091893
 36
0.0
1001
ACAD
1000
DSTYLE
1002
{
1070
    40
1040
1.0
1002
}
  0
DIMENSION
  5
21C7
100
AcDbEntity
  8
寸法
  6
CONTINUOUS
100
AcDbDimension
  2
*D11
 10
5.753096
 20
174.21813
 30
0.0
 11
-3.259263
 21
176.71813
 31
0.0
 12
-2.995705
 22
-107.749528
 32
0.0
 70
    32
  1
18
  3
STANDARD
100
AcDbAlignedDimension
 13
-12.271623
 23
199.653689
 33
0.0
 14
5.753096
 24
189.903689
 34
0.0
100
AcDbRotatedDimension
1001
ACAD
1000
DSTYLE
1002
{
1070
    40
1040
1.0
1002
}
  0
DIMENSION
  5
2224
100
AcDbEntity
  8
寸法
  6
CONTINUOUS
100
AcDbDimension
  2
*D12
 10
237.728377
 20
231.280448
 30
0.0
 11
112.728377
 21
233.780448
 31
0.0
 12
-2.995705
 22
-107.749528
 32
0.0
 70
    32
  3
STANDARD
100
AcDbAlignedDimension
 13
-12.271623
 23
258.978727
 33
0.0
 14
237.728377
 24
262.478727
 34
0.0
100
AcDbRotatedDimension
1001
ACAD
1000
DSTYLE
1002
{
1070
    40
1040
1.0
1002
}
  0
ENDSEC
  0
SECTION
  2
OBJECTS
  0
DICTIONARY
  5
1E
100
AcDbDictionary
  3
ACAD_GROUP
350
1C
  3
ACAD_MLINESTYLE
350
1D
  3
ACDBVARIABLEDICTIONARY
350
147A
  3
DRAWINGVARIABLESDICT
350
C58
  0
DICTIONARY
  5
38
100
AcDbDictionary
280
     1
  3
ACAD_XREC_ROUNDTRIP
360
39
  0
DICTIONARY
  5
22
100
AcDbDictionary
280
     1
  3
ACAD_XREC_ROUNDTRIP
360
23
  0
DICTIONARY
  5
3
100
AcDbDictionary
280
     1
  3
ACAD_LAYOUTSELFREF
360
4
  0
DICTIONARY
  5
A
100
AcDbDictionary
280
     1
  3
ACAD_LAYOUTSELFREF
360
B
  0
DICTIONARY
  5
1C
102
{ACAD_REACTORS
330
1E
102
}
100
AcDbDictionary
  3
*A1
350
1666
  3
*A2
350
1679
  3
*A3
350
16C2
  3
*A4
350
1AFC
  3
*A5
350
1AFD
  0
DICTIONARY
  5
1D
102
{ACAD_REACTORS
330
1E
102
}
100
AcDbDictionary
  3
STANDARD
350
20
  0
DICTIONARY
  5
147A
102
{ACAD_REACTORS
330
1E
102
}
100
AcDbDictionary
  3
SORTENTS
350
147B
  0
DICTIONARY
  5
C58
102
{ACAD_REACTORS
330
1E
102
}
100
AcDbDictionary
1001
DRAWINGVARIABLESXDATA
1000
POLARMODE
1000
0
  0
XRECORD
  5
39
102
{ACAD_REACTORS
330
38
102
}
100
AcDbXrecord
102
PLOTBIT
280
     0
  0
XRECORD
  5
23
102
{ACAD_REACTORS
330
22
102
}
100
AcDbXrecord
102
ACADR14ROUNDTRIP
1000
DSTYLE
1002
{
1070
   341
340
0
1070
   343
340
0
1070
   344
340
0
1002
}
  0
XRECORD
  5
4
102
{ACAD_REACTORS
330
3
102
}
100
AcDbXrecord
340
2
  0
XRECORD
  5
B
102
{ACAD_REACTORS
330
A
102
}
100
AcDbXrecord
340
9
  0
GROUP
  5
1666
102
{ACAD_REACTORS
330
1C
102
}
100
AcDbGroup
300

 70
     1
 71
     1
  0
GROUP
  5
1679
102
{ACAD_REACTORS
330
1C
102
}
100
AcDbGroup
300

 70
     1
 71
     1
  0
GROUP
  5
16C2
102
{ACAD_REACTORS
330
1C
102
}
100
AcDbGroup
300

 70
     1
 71
     1
  0
GROUP
  5
1AFC
102
{ACAD_REACTORS
330
1C
102
}
100
AcDbGroup
300

 70
     1
 71
     1
  0
GROUP
  5
1AFD
102
{ACAD_REACTORS
330
1C
102
}
100
AcDbGroup
300

 70
     1
 71
     1
  0
MLINESTYLE
  5
20
102
{ACAD_REACTORS
330
1D
102
}
100
AcDbMlineStyle
  2
STANDARD
 70
     0
  3

 62
     0
 51
90.0
 52
90.0
 71
     2
 49
0.5
 62
   256
  6
BYLAYER
 49
-0.5
 62
   256
  6
BYLAYER
  0
DICTIONARYVAR
  5
147B
102
{ACAD_REACTORS
330
147A
102
}
100
DictionaryVariables
280
     0
  1
96
  0
ENDSEC
  0
EOF
