  0
SECTION
  2
HEADER
  9
$ACADVER
  1
AC1014
  9
$ACADMAINTVER
 70
     0
  9
$DWGCODEPAGE
  3
ANSI_932
  9
$INSBASE
 10
-587.250952
 20
747.890188
 30
0.0
  9
$EXTMIN
 10
-73.417244
 20
150.213866
 30
0.0
  9
$EXTMAX
 10
315.881723
 20
322.957668
 30
0.0
  9
$LIMMIN
 10
-587.250952
 20
327.890188
  9
$LIMMAX
 10
600.749048
 20
957.890188
  9
$ORTHOMODE
 70
     0
  9
$REGENMODE
 70
     1
  9
$FILLMODE
 70
     1
  9
$QTEXTMODE
 70
     0
  9
$MIRRTEXT
 70
     1
  9
$DRAGMODE
 70
     2
  9
$LTSCALE
 40
5.0
  9
$OSMODE
 70
    37
  9
$ATTMODE
 70
     1
  9
$TEXTSIZE
 40
5.0
  9
$TRACEWID
 40
0.05
  9
$TEXTSTYLE
  7
STANDARD
  9
$CLAYER
  8
外形
  9
$CELTYPE
  6
CONTINUOUS
  9
$CECOLOR
 62
   256
  9
$CELTSCALE
 40
1.0
  9
$DELOBJ
 70
     1
  9
$DISPSILH
 70
     0
  9
$DIMSCALE
 40
1.0
  9
$DIMASZ
 40
2.0
  9
$DIMEXO
 40
1.0
  9
$DIMDLI
 40
8.0
  9
$DIMRND
 40
0.0
  9
$DIMDLE
 40
0.0
  9
$DIMEXE
 40
2.0
  9
$DIMTP
 40
0.0
  9
$DIMTM
 40
0.0
  9
$DIMTXT
 40
3.0
  9
$DIMCEN
 40
-1.0
  9
$DIMTSZ
 40
0.0
  9
$DIMTOL
 70
     0
  9
$DIMLIM
 70
     0
  9
$DIMTIH
 70
     0
  9
$DIMTOH
 70
     0
  9
$DIMSE1
 70
     0
  9
$DIMSE2
 70
     0
  9
$DIMTAD
 70
     1
  9
$DIMZIN
 70
     8
  9
$DIMBLK
  1

  9
$DIMASO
 70
     1
  9
$DIMSHO
 70
     1
  9
$DIMPOST
  1

  9
$DIMAPOST
  1

  9
$DIMALT
 70
     0
  9
$DIMALTD
 70
     2
  9
$DIMALTF
 40
25.4
  9
$DIMLFAC
 40
1.0
  9
$DIMTOFL
 70
     1
  9
$DIMTVP
 40
0.0
  9
$DIMTIX
 70
     0
  9
$DIMSOXD
 70
     0
  9
$DIMSAH
 70
     1
  9
$DIMBLK1
  1
_OPEN30
  9
$DIMBLK2
  1
_OPEN30
  9
$DIMSTYLE
  2
STANDARD
  9
$DIMCLRD
 70
     1
  9
$DIMCLRE
 70
     1
  9
$DIMCLRT
 70
     3
  9
$DIMTFAC
 40
0.5
  9
$DIMGAP
 40
1.0
  9
$DIMJUST
 70
     0
  9
$DIMSD1
 70
     0
  9
$DIMSD2
 70
     0
  9
$DIMTOLJ
 70
     1
  9
$DIMTZIN
 70
    13
  9
$DIMALTZ
 70
     0
  9
$DIMALTTZ
 70
     0
  9
$DIMFIT
 70
     0
  9
$DIMUPT
 70
     0
  9
$DIMUNIT
 70
     2
  9
$DIMDEC
 70
     2
  9
$DIMTDEC
 70
     3
  9
$DIMALTU
 70
     2
  9
$DIMALTTD
 70
     2
  9
$DIMTXSTY
  7
STANDARD
  9
$DIMAUNIT
 70
     0
  9
$LUNITS
 70
     2
  9
$LUPREC
 70
     0
  9
$SKETCHINC
 40
0.1
  9
$FILLETRAD
 40
0.0
  9
$AUNITS
 70
     0
  9
$AUPREC
 70
     0
  9
$MENU
  1
acad
  9
$ELEVATION
 40
0.0
  9
$PELEVATION
 40
0.0
  9
$THICKNESS
 40
0.0
  9
$LIMCHECK
 70
     0
  9
$BLIPMODE
 70
     0
  9
$CHAMFERA
 40
0.0
  9
$CHAMFERB
 40
0.0
  9
$CHAMFERC
 40
0.0
  9
$CHAMFERD
 40
0.0
  9
$SKPOLY
 70
     0
  9
$TDCREATE
 40
2450751.535399305
  9
$TDUPDATE
 40
2452011.390567129
  9
$TDINDWG
 40
1.7930747685
  9
$TDUSRTIMER
 40
1.7930747685
  9
$USRTIMER
 70
     1
  9
$ANGBASE
 50
0.0
  9
$ANGDIR
 70
     0
  9
$PDMODE
 70
    32
  9
$PDSIZE
 40
0.0
  9
$PLINEWID
 40
0.0
  9
$COORDS
 70
     2
  9
$SPLFRAME
 70
     0
  9
$SPLINETYPE
 70
     5
  9
$SPLINESEGS
 70
     8
  9
$ATTDIA
 70
     0
  9
$ATTREQ
 70
     1
  9
$HANDLING
 70
     1
  9
$HANDSEED
  5
224B
  9
$SURFTAB1
 70
     6
  9
$SURFTAB2
 70
     6
  9
$SURFTYPE
 70
     6
  9
$SURFU
 70
     6
  9
$SURFV
 70
     6
  9
$UCSNAME
  2

  9
$UCSORG
 10
40.53800450572526
 20
146.9196145921314
 30
0.0
  9
$UCSXDIR
 10
1.0
 20
0.0
 30
0.0
  9
$UCSYDIR
 10
0.0
 20
1.0
 30
0.0
  9
$PUCSNAME
  2

  9
$PUCSORG
 10
0.0
 20
0.0
 30
0.0
  9
$PUCSXDIR
 10
1.0
 20
0.0
 30
0.0
  9
$PUCSYDIR
 10
0.0
 20
1.0
 30
0.0
  9
$USERI1
 70
     0
  9
$USERI2
 70
     0
  9
$USERI3
 70
     0
  9
$USERI4
 70
     0
  9
$USERI5
 70
     0
  9
$USERR1
 40
0.0
  9
$USERR2
 40
0.0
  9
$USERR3
 40
0.0
  9
$USERR4
 40
0.0
  9
$USERR5
 40
0.0
  9
$WORLDVIEW
 70
     1
  9
$SHADEDGE
 70
     3
  9
$SHADEDIF
 70
    70
  9
$TILEMODE
 70
     1
  9
$MAXACTVP
 70
    16
  9
$PINSBASE
 10
0.0
 20
0.0
 30
0.0
  9
$PLIMCHECK
 70
     0
  9
$PEXTMIN
 10
1.000000E+20
 20
1.000000E+20
 30
1.000000E+20
  9
$PEXTMAX
 10
-1.000000E+20
 20
-1.000000E+20
 30
-1.000000E+20
  9
$PLIMMIN
 10
0.0
 20
0.0
  9
$PLIMMAX
 10
12.0
 20
9.0
  9
$UNITMODE
 70
     0
  9
$VISRETAIN
 70
     0
  9
$PLINEGEN
 70
     0
  9
$PSLTSCALE
 70
     1
  9
$TREEDEPTH
 70
  3020
  9
$PICKSTYLE
 70
     0
  9
$CMLSTYLE
  2
STANDARD
  9
$CMLJUST
 70
     0
  9
$CMLSCALE
 40
1.0
  9
$PROXYGRAPHICS
 70
     1
  9
$MEASUREMENT
 70
     0
  0
ENDSEC
  0
SECTION
  2
CLASSES
  0
CLASS
  1
LWPOLYLINE
  2
AcDbPolyline
  3
"AutoCAD"
 90
        0
280
     0
281
     1
  0
CLASS
  1
ACDBDICTIONARYWDFLT
  2
AcDbDictionaryWithDefault
  3
AutoCAD 2000
 90
        0
280
     1
281
     0
  0
CLASS
  1
ACDBPLACEHOLDER
  2
AcDbPlaceHolder
  3
AutoCAD 2000
 90
        0
280
     1
281
     0
  0
CLASS
  1
LAYOUT
  2
AcDbLayout
  3
AutoCAD 2000
 90
        0
280
     1
281
     0
  0
CLASS
  1
LONG_TRANSACTION
  2
AcDbLongTransaction
  3
AutoCAD 2000
 90
        0
280
     1
281
     0
  0
CLASS
  1
LWPOLYLINE
  2
AcDbPolyline
  3
"AutoCAD"
 90
        0
280
     0
281
     1
  0
CLASS
  1
HATCH
  2
AcDbHatch
  3
"ACAD_SEDONA"
 90
        0
280
     0
281
     1
  0
CLASS
  1
XRECORD
  2
AcDbXrecord
  3
"<Built In>"
 90
        0
280
     0
281
     0
  0
CLASS
  1
DICTIONARYVAR
  2
AcDbDictionaryVar
  3
"AutoCAD"
 90
        0
280
     0
281
     0
  0
ENDSEC
  0
SECTION
  2
TABLES
  0
TABLE
  2
VPORT
  5
16
100
AcDbSymbolTable
 70
     1
  0
VPORT
  5
2246
100
AcDbSymbolTableRecord
100
AcDbViewportTableRecord
  2
*ACTIVE
 70
     0
 10
0.0
 20
0.0
 11
1.0
 21
1.0
 12
123.93635
 22
266.217657
 13
0.0
 23
0.0
 14
1.0
 24
1.0
 15
10.0
 25
10.0
 16
0.0
 26
0.0
 36
1.0
 17
0.0
 27
0.0
 37
0.0
 40
306.91611
 41
1.710425
 42
50.0
 43
0.0
 44
0.0
 50
0.0
 51
0.0
 71
     0
 72
   100
 73
     1
 74
     1
 75
     0
 76
     0
 77
     0
 78
     2
  0
ENDTAB
  0
TABLE
  2
LTYPE
  5
11
100
AcDbSymbolTable
 70
     3
  0
LTYPE
  5
12
100
AcDbSymbolTableRecord
100
AcDbLinetypeTableRecord
  2
BYBLOCK
 70
     0
  3

 72
    65
 73
     0
 40
0.0
  0
LTYPE
  5
13
100
AcDbSymbolTableRecord
100
AcDbLinetypeTableRecord
  2
BYLAYER
 70
     0
  3

 72
    65
 73
     0
 40
0.0
  0
LTYPE
  5
7
100
AcDbSymbolTableRecord
100
AcDbLinetypeTableRecord
  2
CONTINUOUS
 70
     0
  3
Solid line
 72
    65
 73
     0
 40
0.0
  0
LTYPE
  5
AA
100
AcDbSymbolTableRecord
100
AcDbLinetypeTableRecord
  2
CENTER
 70
     0
  3
Center ____ _ ____ _ ____ _ ____ _ ____ _ ____
 72
    65
 73
     4
 40
2.0
 49
1.25
 74
     0
 49
-0.25
 74
     0
 49
0.25
 74
     0
 49
-0.25
 74
     0
  0
LTYPE
  5
1B6B
100
AcDbSymbolTableRecord
100
AcDbLinetypeTableRecord
  2
PHANTOM
 70
     0
  3
Phantom ______  __  __  ______  __  __  ______
 72
    65
 73
     6
 40
2.5
 49
1.25
 74
     0
 49
-0.25
 74
     0
 49
0.25
 74
     0
 49
-0.25
 74
     0
 49
0.25
 74
     0
 49
-0.25
 74
     0
  0
ENDTAB
  0
TABLE
  2
LAYER
  5
E
100
AcDbSymbolTable
 70
     5
  0
LAYER
  5
6
100
AcDbSymbolTableRecord
100
AcDbLayerTableRecord
  2
0
 70
     0
 62
     7
  6
CONTINUOUS
  0
LAYER
  5
2C
100
AcDbSymbolTableRecord
100
AcDbLayerTableRecord
  2
外形
 70
     0
 62
     3
  6
CONTINUOUS
  0
LAYER
  5
37
102
{ACAD_XDICTIONARY
360
38
102
}
100
AcDbSymbolTableRecord
100
AcDbLayerTableRecord
  2
DEFPOINTS
 70
     0
 62
     7
  6
CONTINUOUS
  0
LAYER
  5
1F
100
AcDbSymbolTableRecord
100
AcDbLayerTableRecord
  2
寸法
 70
     0
 62
     1
  6
CONTINUOUS
  0
LAYER
  5
673
100
AcDbSymbolTableRecord
100
AcDbLayerTableRecord
  2
参考
 70
     0
 62
     2
  6
CONTINUOUS
  0
ENDTAB
  0
TABLE
  2
STYLE
  5
F
100
AcDbSymbolTable
 70
     1
  0
STYLE
  5
10
100
AcDbSymbolTableRecord
100
AcDbTextStyleTableRecord
  2
STANDARD
 70
     0
 40
0.0
 41
1.0
 50
0.0
 71
     0
 42
5.0
  3
MONOTXT
  4
BIGFONT
  0
ENDTAB
  0
TABLE
  2
VIEW
  5
14
100
AcDbSymbolTable
 70
     0
  0
ENDTAB
  0
TABLE
  2
UCS
  5
15
100
AcDbSymbolTable
 70
     0
  0
ENDTAB
  0
TABLE
  2
APPID
  5
18
100
AcDbSymbolTable
 70
     2
  0
APPID
  5
19
100
AcDbSymbolTableRecord
100
AcDbRegAppTableRecord
  2
ACAD
 70
     0
  0
APPID
  5
C59
100
AcDbSymbolTableRecord
100
AcDbRegAppTableRecord
  2
DRAWINGVARIABLESXDATA
 70
     0
  0
ENDTAB
  0
TABLE
  2
DIMSTYLE
  5
1A
100
AcDbSymbolTable
 70
     2
  0
DIMSTYLE
105
21
102
{ACAD_XDICTIONARY
360
22
102
}
102
{ACAD_REACTORS
330
20FC
330
2124
330
2131
330
2193
330
21A0
330
21C0
330
21DE
330
2207
330
2214
102
}
100
AcDbSymbolTableRecord
100
AcDbDimStyleTableRecord
  2
STANDARD
 70
     0
  3

  4

  5

  6
_OPEN30
  7
_OPEN30
 40
0.0
 41
2.0
 42
1.0
 43
8.0
 44
2.0
 45
0.0
 46
0.0
 47
0.0
 48
0.0
140
3.0
141
-1.0
142
0.0
143
25.4
144
1.0
145
0.0
146
1.0
147
1.0
 71
     0
 72
     0
 73
     0
 74
     0
 75
     0
 76
     0
 77
     1
 78
     8
170
     0
171
     2
172
     1
173
     1
174
     0
175
     0
176
     1
177
     1
178
     3
270
     2
271
     2
272
     2
273
     2
274
     2
340
10
275
     0
280
     0
281
     0
282
     0
283
     1
284
     8
285
     0
286
     0
287
     3
288
     0
  0
DIMSTYLE
105
674
100
AcDbSymbolTableRecord
100
AcDbDimStyleTableRecord
  2
参考寸法
 70
     0
  3

  4

  5

  6
_DOTSMALL
  7
_DOTSMALL
 40
1.0
 41
2.0
 42
1.0
 43
8.0
 44
2.0
 45
0.0
 46
0.0
 47
0.0
 48
0.0
140
3.0
141
-1.0
142
0.0
143
25.4
144
1.0
145
0.0
146
1.0
147
1.0
 71
     0
 72
     0
 73
     0
 74
     0
 75
     0
 76
     0
 77
     1
 78
     8
170
     0
171
     2
172
     1
173
     1
174
     0
175
     0
176
     2
177
     2
178
     2
270
     2
271
     3
272
     2
273
     2
274
     2
340
10
275
     0
280
     0
281
     0
282
     0
283
     1
284
     8
285
     0
286
     0
287
     3
288
     0
  0
ENDTAB
  0
TABLE
  2
BLOCK_RECORD
  5
1
100
AcDbSymbolTable
 70
    15
  0
BLOCK_RECORD
  5
2
102
{ACAD_XDICTIONARY
360
3
102
}
100
AcDbSymbolTableRecord
100
AcDbBlockTableRecord
  2
*MODEL_SPACE
  0
BLOCK_RECORD
  5
9
102
{ACAD_XDICTIONARY
360
A
102
}
100
AcDbSymbolTableRecord
100
AcDbBlockTableRecord
  2
*PAPER_SPACE
  0
BLOCK_RECORD
  5
24
100
AcDbSymbolTableRecord
100
AcDbBlockTableRecord
  2
_DOTSMALL
  0
BLOCK_RECORD
  5
470
100
AcDbSymbolTableRecord
100
AcDbBlockTableRecord
  2
_OPEN30
  0
BLOCK_RECORD
  5
20EA
100
AcDbSymbolTableRecord
100
AcDbBlockTableRecord
  2
*D4
  0
BLOCK_RECORD
  5
2116
100
AcDbSymbolTableRecord
100
AcDbBlockTableRecord
  2
*D7
  0
BLOCK_RECORD
  5
2125
100
AcDbSymbolTableRecord
100
AcDbBlockTableRecord
  2
*D8
  0
BLOCK_RECORD
  5
2187
100
AcDbSymbolTableRecord
100
AcDbBlockTableRecord
  2
*D9
  0
BLOCK_RECORD
  5
2194
100
AcDbSymbolTableRecord
100
AcDbBlockTableRecord
  2
*D10
  0
BLOCK_RECORD
  5
21B7
100
AcDbSymbolTableRecord
100
AcDbBlockTableRecord
  2
*D11
  0
BLOCK_RECORD
  5
21D5
100
AcDbSymbolTableRecord
100
AcDbBlockTableRecord
  2
*D12
  0
BLOCK_RECORD
  5
21F5
100
AcDbSymbolTableRecord
100
AcDbBlockTableRecord
  2
*D13
  0
BLOCK_RECORD
  5
2208
100
AcDbSymbolTableRecord
100
AcDbBlockTableRecord
  2
*D14
  0
ENDTAB
  0
ENDSEC
  0
SECTION
  2
BLOCKS
  0
BLOCK
  5
5
100
AcDbEntity
  8
0
100
AcDbBlockBegin
  2
*MODEL_SPACE
 70
     0
 10
0.0
 20
0.0
 30
0.0
  3
*MODEL_SPACE
  1

  0
ENDBLK
  5
8
100
AcDbEntity
  8
0
100
AcDbBlockEnd
  0
BLOCK
  5
C
100
AcDbEntity
 67
     1
  8
0
100
AcDbBlockBegin
  2
*PAPER_SPACE
 70
     0
 10
0.0
 20
0.0
 30
0.0
  3
*PAPER_SPACE
  1

  0
ENDBLK
  5
D
100
AcDbEntity
 67
     1
  8
0
100
AcDbBlockEnd
  0
BLOCK
  5
29
100
AcDbEntity
  8
0
100
AcDbBlockBegin
  2
_DOTSMALL
 70
     0
 10
0.0
 20
0.0
 30
0.0
  3
_DOTSMALL
  1

  0
POLYLINE
  5
25
100
AcDbEntity
  8
0
  6
BYBLOCK
 62
     0
100
AcDb2dPolyline
 66
     1
 10
0.0
 20
0.0
 30
0.0
 70
     1
 40
0.5
 41
0.5
  0
VERTEX
  5
26
100
AcDbEntity
  8
0
  6
BYBLOCK
 62
     0
100
AcDbVertex
100
AcDb2dVertex
 10
-0.0625
 20
0.0
 30
0.0
 42
1.0
  0
VERTEX
  5
27
100
AcDbEntity
  8
0
  6
BYBLOCK
 62
     0
100
AcDbVertex
100
AcDb2dVertex
 10
0.0625
 20
0.0
 30
0.0
 42
1.0
  0
SEQEND
  5
28
100
AcDbEntity
  8
0
  6
BYBLOCK
 62
     0
  0
ENDBLK
  5
2A
100
AcDbEntity
  8
0
100
AcDbBlockEnd
  0
BLOCK
  5
471
100
AcDbEntity
  8
0
100
AcDbBlockBegin
  2
_OPEN30
 70
     0
 10
0.0
 20
0.0
 30
0.0
  3
_OPEN30
  1

  0
LINE
  5
472
100
AcDbEntity
  8
0
  6
BYBLOCK
 62
     0
100
AcDbLine
 10
-1.0
 20
0.267949
 30
0.0
 11
0.0
 21
0.0
 31
0.0
  0
LINE
  5
473
100
AcDbEntity
  8
0
  6
BYBLOCK
 62
     0
100
AcDbLine
 10
0.0
 20
0.0
 30
0.0
 11
-1.0
 21
-0.267949
 31
0.0
  0
LINE
  5
474
100
AcDbEntity
  8
0
  6
BYBLOCK
 62
     0
100
AcDbLine
 10
0.0
 20
0.0
 30
0.0
 11
-1.0
 21
0.0
 31
0.0
  0
ENDBLK
  5
475
100
AcDbEntity
  8
0
100
AcDbBlockEnd
  0
BLOCK
  5
2176
100
AcDbEntity
  8
0
100
AcDbBlockBegin
  2
*D4
 70
     1
 10
0.0
 20
0.0
 30
0.0
  3
*D4
  1

  0
LINE
  5
2177
100
AcDbEntity
  8
0
  6
BYBLOCK
 62
     1
100
AcDbLine
 10
-51.496088
 20
281.070476
 30
0.0
 11
-52.319617
 21
257.487673
 31
0.0
  0
LINE
  5
2178
100
AcDbEntity
  8
0
  6
BYBLOCK
 62
     1
100
AcDbLine
 10
-51.460891
 20
273.122037
 30
0.0
 11
-51.460891
 21
257.472684
 31
0.0
  0
ARC
  5
2179
100
AcDbEntity
  8
0
  6
BYBLOCK
 62
     1
100
AcDbCircle
 10
-51.460891
 20
282.07839
 30
0.0
 40
22.605706
100
AcDbArc
 50
257.848441
 51
268.0
  0
LINE
  5
217A
100
AcDbEntity
  8
0
  6
BYBLOCK
 62
     1
100
AcDbLine
 10
-56.219355
 20
259.979183
 30
0.0
 11
-64.626665
 21
261.789469
 31
0.0
  0
ARC
  5
217B
100
AcDbEntity
  8
0
  6
BYBLOCK
 62
     1
100
AcDbCircle
 10
-51.460891
 20
282.07839
 30
0.0
 40
22.605706
100
AcDbArc
 50
257.858404
 51
262.929202
  0
ARC
  5
217C
100
AcDbEntity
  8
0
  6
BYBLOCK
 62
     1
100
AcDbCircle
 10
-51.460891
 20
282.07839
 30
0.0
 40
22.605706
100
AcDbArc
 50
275.070798
 51
280.141596
  0
ARC
  5
217D
100
AcDbEntity
  8
0
  6
BYBLOCK
 62
     1
100
AcDbCircle
 10
-51.460891
 20
282.07839
 30
0.0
 40
22.605706
100
AcDbArc
 50
268.0
 51
270.0
  0
INSERT
  5
217E
100
AcDbEntity
  8
0
  6
BYBLOCK
 62
     1
100
AcDbBlockReference
  2
_OPEN30
 10
-52.249818
 20
259.486455
 30
0.0
 41
2.0
 42
2.0
 43
2.0
 50
355.464601
  0
INSERT
  5
217F
100
AcDbEntity
  8
0
  6
BYBLOCK
 62
     1
100
AcDbBlockReference
  2
_OPEN30
 10
-51.460891
 20
259.472684
 30
0.0
 41
2.0
 42
2.0
 43
2.0
 50
182.535399
  0
MTEXT
  5
2180
100
AcDbEntity
  8
0
  6
BYBLOCK
 62
     3
100
AcDbMText
 10
-59.896764
 20
263.328311
 30
0.0
 40
3.0
 41
0.0
 71
     5
 72
     1
  1
\A1;2°
 11
0.977594
 21
-0.210498
 31
0.0
  0
POINT
  5
2181
100
AcDbEntity
  8
DEFPOINTS
  6
BYBLOCK
 62
     0
100
AcDbPoint
 10
-51.723914
 20
259.474214
 30
0.0
  0
POINT
  5
2182
100
AcDbEntity
  8
DEFPOINTS
  6
BYBLOCK
 62
     0
100
AcDbPoint
 10
-51.460891
 20
318.034744
 30
0.0
  0
POINT
  5
2183
100
AcDbEntity
  8
DEFPOINTS
  6
BYBLOCK
 62
     0
100
AcDbPoint
 10
-51.461188
 20
282.069867
 30
0.0
  0
POINT
  5
2184
100
AcDbEntity
  8
DEFPOINTS
  6
BYBLOCK
 62
     0
100
AcDbPoint
 10
-50.545417
 20
308.294135
 30
0.0
  0
POINT
  5
2185
100
AcDbEntity
  8
DEFPOINTS
  6
BYBLOCK
 62
     0
100
AcDbPoint
 10
-51.460891
 20
274.122037
 30
0.0
  0
ENDBLK
  5
2186
100
AcDbEntity
  8
0
100
AcDbBlockEnd
  0
BLOCK
  5
215E
100
AcDbEntity
  8
0
100
AcDbBlockBegin
  2
*D7
 70
     1
 10
0.0
 20
0.0
 30
0.0
  3
*D7
  1

  0
LINE
  5
215F
100
AcDbEntity
  8
0
  6
BYBLOCK
 62
     1
100
AcDbLine
 10
-3.764615
 20
304.074585
 30
0.0
 11
-3.046937
 21
312.277686
 31
0.0
  0
LINE
  5
2160
100
AcDbEntity
  8
0
  6
BYBLOCK
 62
     1
100
AcDbLine
 10
-6.689033
 20
282.07839
 30
0.0
 11
-36.003685
 21
282.07839
 31
0.0
  0
ARC
  5
2161
100
AcDbEntity
  8
0
  6
BYBLOCK
 62
     1
100
AcDbCircle
 10
-5.689033
 20
282.07839
 30
0.0
 40
28.314652
100
AcDbArc
 50
89.047918
 51
175.952082
  0
INSERT
  5
2162
100
AcDbEntity
  8
0
  6
BYBLOCK
 62
     1
100
AcDbBlockReference
  2
_OPEN30
 10
-3.221248
 20
310.285296
 30
0.0
 41
2.0
 42
2.0
 43
2.0
 50
357.023959
  0
INSERT
  5
2163
100
AcDbEntity
  8
0
  6
BYBLOCK
 62
     1
100
AcDbBlockReference
  2
_OPEN30
 10
-34.003685
 20
282.07839
 30
0.0
 41
2.0
 42
2.0
 43
2.0
 50
267.976041
  0
MTEXT
  5
2164
100
AcDbEntity
  8
0
  6
BYBLOCK
 62
     3
100
AcDbMText
 10
-26.50711
 20
304.797335
 30
0.0
 40
3.0
 41
0.0
 71
     5
 72
     1
  1
\A1;95°
 11
0.737277
 21
0.67559
 31
0.0
  0
POINT
  5
2165
100
AcDbEntity
  8
DEFPOINTS
  6
BYBLOCK
 62
     0
100
AcDbPoint
 10
-18.396625
 20
307.381287
 30
0.0
  0
POINT
  5
2166
100
AcDbEntity
  8
DEFPOINTS
  6
BYBLOCK
 62
     0
100
AcDbPoint
 10
-5.252509
 20
282.07839
 30
0.0
  0
POINT
  5
2167
100
AcDbEntity
  8
DEFPOINTS
  6
BYBLOCK
 62
     0
100
AcDbPoint
 10
-3.851771
 20
303.07839
 30
0.0
  0
POINT
  5
2168
100
AcDbEntity
  8
DEFPOINTS
  6
BYBLOCK
 62
     0
100
AcDbPoint
 10
-5.650987
 20
282.513253
 30
0.0
  0
POINT
  5
2169
100
AcDbEntity
  8
DEFPOINTS
  6
BYBLOCK
 62
     0
100
AcDbPoint
 10
-5.652509
 20
282.07839
 30
0.0
  0
ENDBLK
  5
216A
100
AcDbEntity
  8
0
100
AcDbBlockEnd
  0
BLOCK
  5
216B
100
AcDbEntity
  8
0
100
AcDbBlockBegin
  2
*D8
 70
     1
 10
0.0
 20
0.0
 30
0.0
  3
*D8
  1

  0
LINE
  5
216C
100
AcDbEntity
  8
0
  6
BYBLOCK
 62
     1
100
AcDbLine
 10
-14.598188
 20
296.07839
 30
0.0
 11
-22.81079
 21
296.07839
 31
0.0
  0
LINE
  5
216D
100
AcDbEntity
  8
0
  6
BYBLOCK
 62
     1
100
AcDbLine
 10
-7.689033
 20
282.07839
 30
0.0
 11
-22.81079
 21
282.07839
 31
0.0
  0
LINE
  5
216E
100
AcDbEntity
  8
0
  6
BYBLOCK
 62
     1
100
AcDbLine
 10
-20.81079
 20
294.07839
 30
0.0
 11
-20.81079
 21
284.07839
 31
0.0
  0
INSERT
  5
216F
100
AcDbEntity
  8
0
  6
BYBLOCK
 62
     1
100
AcDbBlockReference
  2
_OPEN30
 10
-20.81079
 20
296.07839
 30
0.0
 41
2.0
 42
2.0
 43
2.0
 50
90.0
  0
INSERT
  5
2170
100
AcDbEntity
  8
0
  6
BYBLOCK
 62
     1
100
AcDbBlockReference
  2
_OPEN30
 10
-20.81079
 20
282.07839
 30
0.0
 41
2.0
 42
2.0
 43
2.0
 50
270.0
  0
MTEXT
  5
2171
100
AcDbEntity
  8
0
  6
BYBLOCK
 62
     3
100
AcDbMText
 10
-23.31079
 20
289.07839
 30
0.0
 40
3.0
 41
0.0
 71
     5
 72
     1
  1
\A1;14
 11
0.0
 21
1.0
 31
0.0
  0
POINT
  5
2172
100
AcDbEntity
  8
DEFPOINTS
  6
BYBLOCK
 62
     0
100
AcDbPoint
 10
-13.598188
 20
296.07839
 30
0.0
  0
POINT
  5
2173
100
AcDbEntity
  8
DEFPOINTS
  6
BYBLOCK
 62
     0
100
AcDbPoint
 10
-6.689033
 20
282.07839
 30
0.0
  0
POINT
  5
2174
100
AcDbEntity
  8
DEFPOINTS
  6
BYBLOCK
 62
     0
100
AcDbPoint
 10
-20.81079
 20
282.07839
 30
0.0
  0
ENDBLK
  5
2175
100
AcDbEntity
  8
0
100
AcDbBlockEnd
  0
BLOCK
  5
21A1
100
AcDbEntity
  8
0
100
AcDbBlockBegin
  2
*D9
 70
     1
 10
0.0
 20
0.0
 30
0.0
  3
*D9
  1

  0
LINE
  5
21A2
100
AcDbEntity
  8
0
  6
BYBLOCK
 62
     1
100
AcDbLine
 10
146.809201
 20
289.141219
 30
0.0
 11
146.809201
 21
261.212422
 31
0.0
  0
LINE
  5
21A3
100
AcDbEntity
  8
0
  6
BYBLOCK
 62
     1
100
AcDbLine
 10
168.809201
 20
289.141219
 30
0.0
 11
168.809201
 21
261.212422
 31
0.0
  0
LINE
  5
21A4
100
AcDbEntity
  8
0
  6
BYBLOCK
 62
     1
100
AcDbLine
 10
148.809201
 20
263.212422
 30
0.0
 11
166.809201
 21
263.212422
 31
0.0
  0
INSERT
  5
21A5
100
AcDbEntity
  8
0
  6
BYBLOCK
 62
     1
100
AcDbBlockReference
  2
_OPEN30
 10
146.809201
 20
263.212422
 30
0.0
 41
2.0
 42
2.0
 43
2.0
 50
180.0
  0
INSERT
  5
21A6
100
AcDbEntity
  8
0
  6
BYBLOCK
 62
     1
100
AcDbBlockReference
  2
_OPEN30
 10
168.809201
 20
263.212422
 30
0.0
 41
2.0
 42
2.0
 43
2.0
  0
MTEXT
  5
21A7
100
AcDbEntity
  8
0
  6
BYBLOCK
 62
     3
100
AcDbMText
 10
157.809201
 20
265.712422
 30
0.0
 40
3.0
 41
0.0
 71
     5
 72
     1
  1
\A1;22
  0
POINT
  5
21A8
100
AcDbEntity
  8
DEFPOINTS
  6
BYBLOCK
 62
     0
100
AcDbPoint
 10
146.809201
 20
290.141219
 30
0.0
  0
POINT
  5
21A9
100
AcDbEntity
  8
DEFPOINTS
  6
BYBLOCK
 62
     0
100
AcDbPoint
 10
168.809201
 20
290.141219
 30
0.0
  0
POINT
  5
21AA
100
AcDbEntity
  8
DEFPOINTS
  6
BYBLOCK
 62
     0
100
AcDbPoint
 10
168.809201
 20
263.212422
 30
0.0
  0
ENDBLK
  5
21AB
100
AcDbEntity
  8
0
100
AcDbBlockEnd
  0
BLOCK
  5
21AC
100
AcDbEntity
  8
0
100
AcDbBlockBegin
  2
*D10
 70
     1
 10
0.0
 20
0.0
 30
0.0
  3
*D10
  1

  0
LINE
  5
21AD
100
AcDbEntity
  8
0
  6
BYBLOCK
 62
     1
100
AcDbLine
 10
-5.652509
 20
281.07839
 30
0.0
 11
-5.652509
 21
242.181111
 31
0.0
  0
LINE
  5
21AE
100
AcDbEntity
  8
0
  6
BYBLOCK
 62
     1
100
AcDbLine
 10
294.347491
 20
283.57839
 30
0.0
 11
294.347491
 21
242.181111
 31
0.0
  0
LINE
  5
21AF
100
AcDbEntity
  8
0
  6
BYBLOCK
 62
     1
100
AcDbLine
 10
-3.652509
 20
244.181111
 30
0.0
 11
292.347491
 21
244.181111
 31
0.0
  0
INSERT
  5
21B0
100
AcDbEntity
  8
0
  6
BYBLOCK
 62
     1
100
AcDbBlockReference
  2
_OPEN30
 10
-5.652509
 20
244.181111
 30
0.0
 41
2.0
 42
2.0
 43
2.0
 50
180.0
  0
INSERT
  5
21B1
100
AcDbEntity
  8
0
  6
BYBLOCK
 62
     1
100
AcDbBlockReference
  2
_OPEN30
 10
294.347491
 20
244.181111
 30
0.0
 41
2.0
 42
2.0
 43
2.0
  0
MTEXT
  5
21B2
100
AcDbEntity
  8
0
  6
BYBLOCK
 62
     3
100
AcDbMText
 10
144.347491
 20
246.681111
 30
0.0
 40
3.0
 41
0.0
 71
     5
 72
     1
  1
\A1;300
  0
POINT
  5
21B3
100
AcDbEntity
  8
DEFPOINTS
  6
BYBLOCK
 62
     0
100
AcDbPoint
 10
-5.652509
 20
282.07839
 30
0.0
  0
POINT
  5
21B4
100
AcDbEntity
  8
DEFPOINTS
  6
BYBLOCK
 62
     0
100
AcDbPoint
 10
294.347491
 20
284.57839
 30
0.0
  0
POINT
  5
21B5
100
AcDbEntity
  8
DEFPOINTS
  6
BYBLOCK
 62
     0
100
AcDbPoint
 10
294.347491
 20
244.181111
 30
0.0
  0
ENDBLK
  5
21B6
100
AcDbEntity
  8
0
100
AcDbBlockEnd
  0
BLOCK
  5
21C1
100
AcDbEntity
  8
0
100
AcDbBlockBegin
  2
*D11
 70
     1
 10
0.0
 20
0.0
 30
0.0
  3
*D11
  1

  0
LINE
  5
21C2
100
AcDbEntity
  8
0
  6
BYBLOCK
 62
     1
100
AcDbLine
 10
149.618939
 20
284.11304
 30
0.0
 11
148.489248
 21
282.462646
 31
0.0
  0
LINE
  5
21C3
100
AcDbEntity
  8
0
  6
BYBLOCK
 62
     1
100
AcDbLine
 10
165.999462
 20
308.043741
 30
0.0
 11
174.460979
 21
320.405375
 31
0.0
  0
LINE
  5
21C4
100
AcDbEntity
  8
0
  6
BYBLOCK
 62
     1
100
AcDbLine
 10
150.748631
 20
285.763433
 30
0.0
 11
164.869771
 21
306.393348
 31
0.0
  0
INSERT
  5
21C5
100
AcDbEntity
  8
0
  6
BYBLOCK
 62
     1
100
AcDbBlockReference
  2
_OPEN30
 10
150.748631
 20
285.763433
 30
0.0
 41
2.0
 42
2.0
 43
2.0
 50
55.608429
  0
INSERT
  5
21C6
100
AcDbEntity
  8
0
  6
BYBLOCK
 62
     1
100
AcDbBlockReference
  2
_OPEN30
 10
164.869771
 20
306.393348
 30
0.0
 41
2.0
 42
2.0
 43
2.0
 50
235.608429
  0
MTEXT
  5
21C7
100
AcDbEntity
  8
0
  6
BYBLOCK
 62
     3
100
AcDbMText
 10
169.573759
 20
317.691506
 30
0.0
 40
3.0
 41
0.0
 71
     5
 72
     1
  1
\A1;\U+220525
 11
0.564846
 21
0.825197
 31
0.0
  0
POINT
  5
21C8
100
AcDbEntity
  8
DEFPOINTS
  6
BYBLOCK
 62
     0
100
AcDbPoint
 10
164.869771
 20
306.393348
 30
0.0
  0
POINT
  5
21C9
100
AcDbEntity
  8
DEFPOINTS
  6
BYBLOCK
 62
     0
100
AcDbPoint
 10
150.748631
 20
285.763433
 30
0.0
  0
ENDBLK
  5
21CA
100
AcDbEntity
  8
0
100
AcDbBlockEnd
  0
BLOCK
  5
21E9
100
AcDbEntity
  8
0
100
AcDbBlockBegin
  2
*D12
 70
     1
 10
0.0
 20
0.0
 30
0.0
  3
*D12
  1

  0
LINE
  5
21EA
100
AcDbEntity
  8
0
  6
BYBLOCK
 62
     1
100
AcDbLine
 10
-28.691528
 20
321.35832
 30
0.0
 11
-40.753148
 21
307.966951
 31
0.0
  0
LINE
  5
21EB
100
AcDbEntity
  8
0
  6
BYBLOCK
 62
     1
100
AcDbLine
 10
-62.169228
 20
284.189829
 30
0.0
 11
-63.507733
 21
282.703759
 31
0.0
  0
MTEXT
  5
21EC
100
AcDbEntity
  8
0
  6
BYBLOCK
 62
     3
100
AcDbMText
 10
-33.895378
 20
319.316276
 30
0.0
 40
3.0
 41
0.0
 71
     5
 72
     1
  1
\A1;\U+220528
 11
0.669252
 21
0.743035
 31
0.0
  0
LINE
  5
21ED
100
AcDbEntity
  8
0
  6
BYBLOCK
 62
     1
100
AcDbLine
 10
-60.830723
 20
285.675899
 30
0.0
 11
-42.091653
 21
306.480881
 31
0.0
  0
INSERT
  5
21EE
100
AcDbEntity
  8
0
  6
BYBLOCK
 62
     1
100
AcDbBlockReference
  2
_OPEN30
 10
-60.830723
 20
285.675899
 30
0.0
 41
2.0
 42
2.0
 43
2.0
 50
47.990602
  0
INSERT
  5
21EF
100
AcDbEntity
  8
0
  6
BYBLOCK
 62
     1
100
AcDbBlockReference
  2
_OPEN30
 10
-42.091653
 20
306.480881
 30
0.0
 41
2.0
 42
2.0
 43
2.0
 50
227.990602
  0
POINT
  5
21F0
100
AcDbEntity
  8
DEFPOINTS
  6
BYBLOCK
 62
     0
100
AcDbPoint
 10
-42.091653
 20
306.480881
 30
0.0
  0
POINT
  5
21F1
100
AcDbEntity
  8
DEFPOINTS
  6
BYBLOCK
 62
     0
100
AcDbPoint
 10
-60.830723
 20
285.675899
 30
0.0
  0
ENDBLK
  5
21F2
100
AcDbEntity
  8
0
100
AcDbBlockEnd
  0
BLOCK
  5
2220
100
AcDbEntity
  8
0
100
AcDbBlockBegin
  2
*D13
 70
     1
 10
0.0
 20
0.0
 30
0.0
  3
*D13
  1

  0
LINE
  5
2221
100
AcDbEntity
  8
0
  6
BYBLOCK
 62
     1
100
AcDbLine
 10
-6.648704
 20
197.891617
 30
0.0
 11
-24.104497
 21
199.418801
 31
0.0
  0
LINE
  5
2222
100
AcDbEntity
  8
0
  6
BYBLOCK
 62
     1
100
AcDbLine
 10
-14.598188
 20
197.804461
 30
0.0
 11
-24.17498
 21
197.804461
 31
0.0
  0
ARC
  5
2223
100
AcDbEntity
  8
0
  6
BYBLOCK
 62
     1
100
AcDbCircle
 10
-5.652509
 20
197.804461
 30
0.0
 40
16.522471
100
AcDbArc
 50
161.094906
 51
175.0
  0
LINE
  5
2224
100
AcDbEntity
  8
0
  6
BYBLOCK
 62
     1
100
AcDbLine
 10
-21.283701
 20
203.157767
 30
0.0
 11
-18.497288
 21
211.293854
 31
0.0
  0
ARC
  5
2225
100
AcDbEntity
  8
0
  6
BYBLOCK
 62
     1
100
AcDbCircle
 10
-5.652509
 20
197.804461
 30
0.0
 40
16.522471
100
AcDbArc
 50
161.120522
 51
168.060261
  0
ARC
  5
2226
100
AcDbEntity
  8
0
  6
BYBLOCK
 62
     1
100
AcDbCircle
 10
-5.652509
 20
197.804461
 30
0.0
 40
16.522471
100
AcDbArc
 50
186.939739
 51
193.879478
  0
ARC
  5
2227
100
AcDbEntity
  8
0
  6
BYBLOCK
 62
     1
100
AcDbCircle
 10
-5.652509
 20
197.804461
 30
0.0
 40
16.522471
100
AcDbArc
 50
175.0
 51
180.0
  0
INSERT
  5
2228
100
AcDbEntity
  8
0
  6
BYBLOCK
 62
     1
100
AcDbBlockReference
  2
_OPEN30
 10
-22.112107
 20
199.244489
 30
0.0
 41
2.0
 42
2.0
 43
2.0
 50
261.530131
  0
INSERT
  5
2229
100
AcDbEntity
  8
0
  6
BYBLOCK
 62
     1
100
AcDbBlockReference
  2
_OPEN30
 10
-22.17498
 20
197.804461
 30
0.0
 41
2.0
 42
2.0
 43
2.0
 50
93.469869
  0
MTEXT
  5
222A
100
AcDbEntity
  8
0
  6
BYBLOCK
 62
     3
100
AcDbMText
 10
-22.255636
 20
208.035814
 30
0.0
 40
3.0
 41
0.0
 71
     5
 72
     1
  1
\A1;5°
 11
0.324002
 21
0.946057
 31
0.0
  0
POINT
  5
222B
100
AcDbEntity
  8
DEFPOINTS
  6
BYBLOCK
 62
     0
100
AcDbPoint
 10
-22.167991
 20
198.285013
 30
0.0
  0
POINT
  5
222C
100
AcDbEntity
  8
DEFPOINTS
  6
BYBLOCK
 62
     0
100
AcDbPoint
 10
-5.652509
 20
197.804461
 30
0.0
  0
POINT
  5
222D
100
AcDbEntity
  8
DEFPOINTS
  6
BYBLOCK
 62
     0
100
AcDbPoint
 10
-13.598188
 20
197.804461
 30
0.0
  0
POINT
  5
222E
100
AcDbEntity
  8
DEFPOINTS
  6
BYBLOCK
 62
     0
100
AcDbPoint
 10
315.881723
 20
197.804461
 30
0.0
  0
POINT
  5
222F
100
AcDbEntity
  8
DEFPOINTS
  6
BYBLOCK
 62
     0
100
AcDbPoint
 10
7.172424
 20
196.682425
 30
0.0
  0
ENDBLK
  5
2230
100
AcDbEntity
  8
0
100
AcDbBlockEnd
  0
BLOCK
  5
2231
100
AcDbEntity
  8
0
100
AcDbBlockBegin
  2
*D14
 70
     1
 10
0.0
 20
0.0
 30
0.0
  3
*D14
  1

  0
LINE
  5
2232
100
AcDbEntity
  8
0
  6
BYBLOCK
 62
     1
100
AcDbLine
 10
-5.652509
 20
196.804461
 30
0.0
 11
-5.652509
 21
167.02726
 31
0.0
  0
LINE
  5
2233
100
AcDbEntity
  8
0
  6
BYBLOCK
 62
     1
100
AcDbLine
 10
11.706636
 20
184.554461
 30
0.0
 11
11.706636
 21
167.02726
 31
0.0
  0
LINE
  5
2234
100
AcDbEntity
  8
0
  6
BYBLOCK
 62
     1
100
AcDbLine
 10
-3.652509
 20
169.02726
 30
0.0
 11
9.706636
 21
169.02726
 31
0.0
  0
INSERT
  5
2235
100
AcDbEntity
  8
0
  6
BYBLOCK
 62
     1
100
AcDbBlockReference
  2
_OPEN30
 10
-5.652509
 20
169.02726
 30
0.0
 41
2.0
 42
2.0
 43
2.0
 50
180.0
  0
INSERT
  5
2236
100
AcDbEntity
  8
0
  6
BYBLOCK
 62
     1
100
AcDbBlockReference
  2
_OPEN30
 10
11.706636
 20
169.02726
 30
0.0
 41
2.0
 42
2.0
 43
2.0
  0
MTEXT
  5
2237
100
AcDbEntity
  8
0
  6
BYBLOCK
 62
     3
100
AcDbMText
 10
3.027063
 20
171.52726
 30
0.0
 40
3.0
 41
0.0
 71
     5
 72
     1
  1
\A1;17.4
  0
POINT
  5
2238
100
AcDbEntity
  8
DEFPOINTS
  6
BYBLOCK
 62
     0
100
AcDbPoint
 10
-5.652509
 20
197.804461
 30
0.0
  0
POINT
  5
2239
100
AcDbEntity
  8
DEFPOINTS
  6
BYBLOCK
 62
     0
100
AcDbPoint
 10
11.706636
 20
185.554461
 30
0.0
  0
POINT
  5
223A
100
AcDbEntity
  8
DEFPOINTS
  6
BYBLOCK
 62
     0
100
AcDbPoint
 10
11.706636
 20
169.02726
 30
0.0
  0
ENDBLK
  5
223B
100
AcDbEntity
  8
0
100
AcDbBlockEnd
  0
ENDSEC
  0
SECTION
  2
ENTITIES
  0
TEXT
  5
1453
100
AcDbEntity
  8
外形
  6
CONTINUOUS
 62
     2
100
AcDbText
 10
81.945496
 20
150.213866
 30
0.0
 40
6.0
  1
BBPC425R
100
AcDbText
  0
LINE
  5
1F9A
100
AcDbEntity
  8
外形
  6
CENTER
 62
     1
100
AcDbLine
 10
-29.504537
 20
296.07839
 30
0.0
 11
-73.417244
 21
296.07839
 31
0.0
  0
LINE
  5
1F9F
100
AcDbEntity
  8
外形
  6
CONTINUOUS
100
AcDbLine
 10
6.092268
 20
308.819584
 30
0.0
 11
11.706636
 21
308.32839
 31
0.0
  0
LINE
  5
1FA1
100
AcDbEntity
  8
外形
  6
CONTINUOUS
100
AcDbLine
 10
11.706636
 20
308.32839
 30
0.0
 11
29.376584
 21
308.32839
 31
0.0
  0
LINE
  5
1FA2
100
AcDbEntity
  8
外形
  6
CONTINUOUS
100
AcDbLine
 10
11.706636
 20
283.82839
 30
0.0
 11
29.376584
 21
283.82839
 31
0.0
  0
LINE
  5
1FA5
100
AcDbEntity
  8
外形
  6
CONTINUOUS
100
AcDbLine
 10
11.706636
 20
308.32839
 30
0.0
 11
11.706636
 21
306.379605
 31
0.0
  0
LINE
  5
1FA6
100
AcDbEntity
  8
外形
  6
CONTINUOUS
100
AcDbLine
 10
29.376584
 20
301.469355
 30
0.0
 11
29.376584
 21
308.32839
 31
0.0
  0
LINE
  5
1FA7
100
AcDbEntity
  8
外形
  6
CENTER
 62
     1
100
AcDbLine
 10
-51.460891
 20
318.034744
 30
0.0
 11
-51.460891
 21
274.122037
 31
0.0
  0
ARC
  5
1FA8
100
AcDbEntity
  8
外形
  6
CONTINUOUS
100
AcDbCircle
 10
-51.460891
 20
296.07839
 30
0.0
 40
13.25
100
AcDbArc
 50
182.162618
 51
249.193666
  0
ARC
  5
1FA9
100
AcDbEntity
  8
外形
  6
CONTINUOUS
100
AcDbCircle
 10
-51.460891
 20
296.07839
 30
0.0
 40
12.25
100
AcDbArc
 50
270.285856
 51
333.891094
  0
LINE
  5
1FAA
100
AcDbEntity
  8
外形
  6
CENTER
 62
     1
100
AcDbLine
 10
-55.335015
 20
295.213068
 30
0.0
 11
-46.899204
 21
294.918483
 31
0.0
  0
ARC
  5
1FAB
100
AcDbEntity
  8
外形
  6
CONTINUOUS
100
AcDbCircle
 10
-51.460891
 20
295.07839
 30
0.0
 40
13.25
100
AcDbArc
 50
90.0
 51
177.837382
  0
LINE
  5
1FAF
100
AcDbEntity
  8
外形
  6
CONTINUOUS
100
AcDbLine
 10
-51.461188
 20
282.069867
 30
0.0
 11
-50.727554
 21
303.07839
 31
0.0
  0
LINE
  5
1FB1
100
AcDbEntity
  8
外形
  6
CONTINUOUS
100
AcDbLine
 10
0.276584
 20
184.554461
 30
0.0
 11
11.706636
 21
185.554461
 31
0.0
  0
LINE
  5
1FB4
100
AcDbEntity
  8
外形
  6
CONTINUOUS
100
AcDbLine
 10
0.276584
 20
184.554461
 30
0.0
 11
0.276584
 21
192.560626
 31
0.0
  0
LINE
  5
1FB5
100
AcDbEntity
  8
外形
  6
CONTINUOUS
100
AcDbLine
 10
0.276584
 20
184.554461
 30
0.0
 11
-3.07697
 21
184.554461
 31
0.0
  0
LINE
  5
1FB7
100
AcDbEntity
  8
外形
  6
CONTINUOUS
100
AcDbLine
 10
29.376584
 20
186.804461
 30
0.0
 11
29.376584
 21
208.804461
 31
0.0
  0
LINE
  5
1FB8
100
AcDbEntity
  8
外形
  6
CONTINUOUS
100
AcDbLine
 10
11.706636
 20
198.660528
 30
0.0
 11
11.706636
 21
185.554461
 31
0.0
  0
LINE
  5
1FBD
100
AcDbEntity
  8
外形
  6
CONTINUOUS
100
AcDbLine
 10
-56.185998
 20
283.160675
 30
0.0
 11
-51.461188
 21
282.069867
 31
0.0
  0
LINE
  5
1FBE
100
AcDbEntity
  8
外形
  6
CONTINUOUS
100
AcDbLine
 10
-56.185998
 20
283.160675
 30
0.0
 11
-55.803628
 21
294.11032
 31
0.0
  0
LINE
  5
1FBF
100
AcDbEntity
  8
外形
  6
CONTINUOUS
100
AcDbLine
 10
-5.217647
 20
282.079912
 30
0.0
 11
6.819948
 21
283.133066
 31
0.0
  0
LINE
  5
1FC0
100
AcDbEntity
  8
外形
  6
CONTINUOUS
100
AcDbLine
 10
-3.851771
 20
303.07839
 30
0.0
 11
-5.650987
 21
282.513253
 31
0.0
  0
LINE
  5
1FC2
100
AcDbEntity
  8
外形
  6
CONTINUOUS
100
AcDbLine
 10
-4.568581
 20
294.88521
 30
0.0
 11
7.803377
 21
295.967616
 31
0.0
  0
LINE
  5
1FC4
100
AcDbEntity
  8
外形
  6
CONTINUOUS
100
AcDbLine
 10
7.183564
 20
283.496681
 30
0.0
 11
8.236717
 21
295.534276
 31
0.0
  0
ARC
  5
1FC5
100
AcDbEntity
  8
外形
  6
CONTINUOUS
100
AcDbCircle
 10
-4.199356
 20
294.515985
 30
0.0
 40
0.4
100
AcDbArc
 50
95.0
 51
175.0
  0
ARC
  5
1FC6
100
AcDbEntity
  8
外形
  6
CONTINUOUS
100
AcDbCircle
 10
-5.252509
 20
282.47839
 30
0.0
 40
0.4
100
AcDbArc
 50
175.0
 51
275.0
  0
ARC
  5
1FC7
100
AcDbEntity
  8
外形
  6
CONTINUOUS
100
AcDbCircle
 10
6.785086
 20
283.531543
 30
0.0
 40
0.4
100
AcDbArc
 50
275.0
 51
355.0
  0
ARC
  5
1FC8
100
AcDbEntity
  8
外形
  6
CONTINUOUS
100
AcDbCircle
 10
7.838239
 20
295.569138
 30
0.0
 40
0.4
100
AcDbArc
 50
355.0
 51
95.0
  0
LINE
  5
1FCC
100
AcDbEntity
  8
外形
  6
CONTINUOUS
 62
     1
100
AcDbLine
 10
-5.652509
 20
282.47839
 30
0.0
 11
-5.652509
 21
294.750142
 31
0.0
  0
LINE
  5
1FD1
100
AcDbEntity
  8
外形
  6
CENTER
 62
     1
100
AcDbLine
 10
9.33593
 20
289.078768
 30
0.0
 11
-6.640194
 21
289.078768
 31
0.0
  0
LINE
  5
1FD2
100
AcDbEntity
  8
外形
  6
CENTER
 62
     1
100
AcDbLine
 10
1.347868
 20
297.06683
 30
0.0
 11
1.347868
 21
281.090705
 31
0.0
  0
ARC
  5
1FD5
100
AcDbEntity
  8
外形
  6
CONTINUOUS
100
AcDbCircle
 10
6.747868
 20
294.478768
 30
0.0
 40
2.5
100
AcDbArc
 50
315.0
 51
135.0
  0
LINE
  5
1FD7
100
AcDbEntity
  8
外形
  6
CONTINUOUS
100
AcDbLine
 10
4.980101
 20
296.246534
 30
0.0
 11
4.403754
 21
295.670188
 31
0.0
  0
LINE
  5
1FD8
100
AcDbEntity
  8
外形
  6
CONTINUOUS
100
AcDbLine
 10
8.515635
 20
292.711001
 30
0.0
 11
7.939288
 21
292.134654
 31
0.0
  0
LINE
  5
1FDB
100
AcDbEntity
  8
外形
  6
CONTINUOUS
100
AcDbLine
 10
7.172424
 20
283.431698
 30
0.0
 11
11.706636
 21
283.82839
 31
0.0
  0
LINE
  5
1FDD
100
AcDbEntity
  8
外形
  6
CONTINUOUS
100
AcDbLine
 10
2.309651
 20
289.417688
 30
0.0
 11
2.890028
 21
289.078768
 31
0.0
  0
LINE
  5
1FDE
100
AcDbEntity
  8
外形
  6
CONTINUOUS
100
AcDbLine
 10
2.890028
 20
289.078768
 30
0.0
 11
2.309651
 21
288.739847
 31
0.0
  0
LINE
  5
1FDF
100
AcDbEntity
  8
外形
  6
CONTINUOUS
100
AcDbLine
 10
1.535246
 20
290.081156
 30
0.0
 11
2.118948
 21
290.414317
 31
0.0
  0
LINE
  5
1FE0
100
AcDbEntity
  8
外形
  6
CONTINUOUS
100
AcDbLine
 10
2.118948
 20
290.414317
 30
0.0
 11
2.122273
 21
289.742236
 31
0.0
  0
LINE
  5
1FE1
100
AcDbEntity
  8
外形
  6
CONTINUOUS
100
AcDbLine
 10
0.573463
 20
289.742236
 30
0.0
 11
0.576788
 21
290.414317
 31
0.0
  0
LINE
  5
1FE2
100
AcDbEntity
  8
外形
  6
CONTINUOUS
100
AcDbLine
 10
0.576788
 20
290.414317
 30
0.0
 11
1.16049
 21
290.081156
 31
0.0
  0
LINE
  5
1FE3
100
AcDbEntity
  8
外形
  6
CONTINUOUS
100
AcDbLine
 10
0.386085
 20
288.739847
 30
0.0
 11
-0.194292
 21
289.078768
 31
0.0
  0
LINE
  5
1FE4
100
AcDbEntity
  8
外形
  6
CONTINUOUS
100
AcDbLine
 10
-0.194292
 20
289.078768
 30
0.0
 11
0.386085
 21
289.417688
 31
0.0
  0
LINE
  5
1FE5
100
AcDbEntity
  8
外形
  6
CONTINUOUS
100
AcDbLine
 10
1.16049
 20
288.076379
 30
0.0
 11
0.576788
 21
287.743218
 31
0.0
  0
LINE
  5
1FE6
100
AcDbEntity
  8
外形
  6
CONTINUOUS
100
AcDbLine
 10
0.576788
 20
287.743218
 30
0.0
 11
0.573463
 21
288.415299
 31
0.0
  0
LINE
  5
1FE7
100
AcDbEntity
  8
外形
  6
CONTINUOUS
100
AcDbLine
 10
2.122273
 20
288.415299
 30
0.0
 11
2.118948
 21
287.743218
 31
0.0
  0
LINE
  5
1FE8
100
AcDbEntity
  8
外形
  6
CONTINUOUS
100
AcDbLine
 10
2.118948
 20
287.743218
 30
0.0
 11
1.535246
 21
288.076379
 31
0.0
  0
ARC
  5
1FE9
100
AcDbEntity
  8
外形
  6
CONTINUOUS
100
AcDbCircle
 10
2.500268
 20
289.744106
 30
0.0
 40
0.378
100
AcDbArc
 50
180.283476
 51
239.716524
  0
ARC
  5
1FEA
100
AcDbEntity
  8
外形
  6
CONTINUOUS
100
AcDbCircle
 10
2.500268
 20
288.413429
 30
0.0
 40
0.378
100
AcDbArc
 50
120.283476
 51
179.716524
  0
ARC
  5
1FEB
100
AcDbEntity
  8
外形
  6
CONTINUOUS
100
AcDbCircle
 10
1.347868
 20
287.74809
 30
0.0
 40
0.378
100
AcDbArc
 50
60.283476
 51
119.716524
  0
ARC
  5
1FEC
100
AcDbEntity
  8
外形
  6
CONTINUOUS
100
AcDbCircle
 10
0.195468
 20
288.413429
 30
0.0
 40
0.378
100
AcDbArc
 50
0.283476
 51
59.716524
  0
ARC
  5
1FED
100
AcDbEntity
  8
外形
  6
CONTINUOUS
100
AcDbCircle
 10
0.195468
 20
289.744106
 30
0.0
 40
0.378
100
AcDbArc
 50
300.283476
 51
359.716524
  0
ARC
  5
1FEE
100
AcDbEntity
  8
外形
  6
CONTINUOUS
100
AcDbCircle
 10
1.347868
 20
290.409445
 30
0.0
 40
0.378
100
AcDbArc
 50
240.283476
 51
299.716524
  0
CIRCLE
  5
1FEF
100
AcDbEntity
  8
外形
  6
CONTINUOUS
100
AcDbCircle
 10
1.347868
 20
289.078768
 30
0.0
 40
2.5515
  0
LINE
  5
1FF1
100
AcDbEntity
  8
外形
  6
CONTINUOUS
100
AcDbLine
 10
-3.851771
 20
303.07839
 30
0.0
 11
6.092268
 21
308.819584
 31
0.0
  0
LINE
  5
1FF3
100
AcDbEntity
  8
外形
  6
CONTINUOUS
100
AcDbLine
 10
-51.014237
 20
294.868886
 30
0.0
 11
-55.803628
 21
294.11032
 31
0.0
  0
LINE
  5
200D
100
AcDbEntity
  8
外形
  6
CONTINUOUS
100
AcDbLine
 10
29.626584
 20
283.57839
 30
0.0
 11
29.376584
 21
283.82839
 31
0.0
  0
LINE
  5
200E
100
AcDbEntity
  8
外形
  6
CONTINUOUS
100
AcDbLine
 10
29.626584
 20
308.57839
 30
0.0
 11
29.626584
 21
302.015561
 31
0.0
  0
LINE
  5
200F
100
AcDbEntity
  8
外形
  6
CONTINUOUS
100
AcDbLine
 10
29.626584
 20
283.57839
 30
0.0
 11
139.15953
 21
283.57839
 31
0.0
  0
LINE
  5
2011
100
AcDbEntity
  8
外形
  6
CONTINUOUS
100
AcDbLine
 10
29.376584
 20
308.32839
 30
0.0
 11
29.626584
 21
308.57839
 31
0.0
  0
LINE
  5
2012
100
AcDbEntity
  8
外形
  6
CONTINUOUS
100
AcDbLine
 10
29.626584
 20
308.57839
 30
0.0
 11
139.15953
 21
308.57839
 31
0.0
  0
LINE
  5
2038
100
AcDbEntity
  8
外形
  6
CONTINUOUS
100
AcDbLine
 10
294.347491
 20
284.57839
 30
0.0
 11
294.347491
 21
307.57839
 31
0.0
  0
LINE
  5
2039
100
AcDbEntity
  8
外形
  6
CONTINUOUS
100
AcDbLine
 10
293.347491
 20
283.57839
 30
0.0
 11
293.347491
 21
290.141219
 31
0.0
  0
LINE
  5
203A
100
AcDbEntity
  8
外形
  6
CONTINUOUS
100
AcDbLine
 10
294.347491
 20
307.57839
 30
0.0
 11
293.347491
 21
308.57839
 31
0.0
  0
LINE
  5
203B
100
AcDbEntity
  8
外形
  6
CONTINUOUS
100
AcDbLine
 10
293.347491
 20
283.57839
 30
0.0
 11
294.347491
 21
284.57839
 31
0.0
  0
LINE
  5
203D
100
AcDbEntity
  8
外形
  6
CENTER
 62
     1
100
AcDbLine
 10
157.809201
 20
277.862784
 30
0.0
 11
157.809201
 21
315.951994
 31
0.0
  0
ARC
  5
203E
100
AcDbEntity
  8
外形
  6
CONTINUOUS
100
AcDbCircle
 10
157.809201
 20
296.07839
 30
0.0
 40
12.5
100
AcDbArc
 50
28.357637
 51
151.642363
  0
LINE
  5
203F
100
AcDbEntity
  8
外形
  6
CONTINUOUS
100
AcDbLine
 10
146.809201
 20
302.015561
 30
0.0
 11
146.809201
 21
290.141219
 31
0.0
  0
LINE
  5
2040
100
AcDbEntity
  8
外形
  6
CONTINUOUS
100
AcDbLine
 10
168.809201
 20
290.141219
 30
0.0
 11
168.809201
 21
302.015561
 31
0.0
  0
ARC
  5
2043
100
AcDbEntity
  8
外形
  6
CONTINUOUS
100
AcDbCircle
 10
157.809201
 20
296.07839
 30
0.0
 40
12.5
100
AcDbArc
 50
208.357637
 51
331.642363
  0
LINE
  5
2044
100
AcDbEntity
  8
外形
  6
CONTINUOUS
100
AcDbLine
 10
139.15953
 20
302.015561
 30
0.0
 11
29.626584
 21
302.015561
 31
0.0
  0
LINE
  5
2045
100
AcDbEntity
  8
外形
  6
CONTINUOUS
100
AcDbLine
 10
139.15953
 20
290.141219
 30
0.0
 11
29.626584
 21
290.141219
 31
0.0
  0
LINE
  5
2046
100
AcDbEntity
  8
外形
  6
CONTINUOUS
100
AcDbLine
 10
177.101963
 20
302.015561
 30
0.0
 11
293.347491
 21
302.015561
 31
0.0
  0
LINE
  5
2047
100
AcDbEntity
  8
外形
  6
CONTINUOUS
100
AcDbLine
 10
177.101963
 20
308.57839
 30
0.0
 11
293.347491
 21
308.57839
 31
0.0
  0
LINE
  5
2048
100
AcDbEntity
  8
外形
  6
CONTINUOUS
100
AcDbLine
 10
177.101963
 20
283.57839
 30
0.0
 11
293.347491
 21
283.57839
 31
0.0
  0
LINE
  5
2049
100
AcDbEntity
  8
外形
  6
CONTINUOUS
100
AcDbLine
 10
177.101963
 20
290.141219
 30
0.0
 11
293.347491
 21
290.141219
 31
0.0
  0
ARC
  5
204D
100
AcDbEntity
  8
外形
  6
CONTINUOUS
100
AcDbCircle
 10
-51.460891
 20
296.07839
 30
0.0
 40
12.25
100
AcDbArc
 50
26.108906
 51
90.0
  0
LINE
  5
2062
100
AcDbEntity
  8
外形
  6
CONTINUOUS
100
AcDbLine
 10
29.626584
 20
290.141219
 30
0.0
 11
23.086282
 21
301.469355
 31
0.0
  0
SPLINE
  5
2073
100
AcDbEntity
  8
外形
  6
CONTINUOUS
100
AcDbSpline
210
0.0
220
0.0
230
-1.0
 70
     8
 71
     3
 72
    12
 73
     8
 74
     0
 42
0.0000001
 43
0.0000001
 40
10.76046722226755
 40
10.76046722226755
 40
10.76046722226755
 40
10.76046722226755
 40
10.94778865566111
 40
14.31393235217749
 40
17.86532571840832
 40
21.66623235300385
 40
23.16974106400952
 40
23.16974106400952
 40
23.16974106400952
 40
23.16974106400952
 10
4.406201810421551
 20
307.8461329988759
 30
0.0
 10
4.468118424595827
 20
307.8379073699428
 30
0.0
 10
5.642392905526049
 20
307.6798772426281
 30
0.0
 10
7.979414589807042
 20
307.2890126971094
 30
0.0
 10
11.46306747586322
 20
306.4861219861967
 30
0.0
 10
14.29337344748269
 20
305.6368572342805
 30
0.0
 10
15.95404095794564
 20
305.0281859186103
 30
0.0
 10
16.42206334203476
 20
304.8485611112707
 30
0.0
  0
SPLINE
  5
2074
100
AcDbEntity
  8
外形
  6
CONTINUOUS
100
AcDbSpline
210
0.0
220
0.0
230
1.0
 70
     8
 71
     3
 72
    11
 73
     7
 74
     0
 42
0.0000001
 43
0.0000001
 40
10.27221704632892
 40
10.27221704632892
 40
10.27221704632892
 40
10.27221704632892
 40
10.42275191627087
 40
13.15936813089644
 40
16.07197774955483
 40
23.53519184642161
 40
23.53519184642161
 40
23.53519184642161
 40
23.53519184642161
 10
20.97685364109634
 20
284.9280114954229
 30
0.0
 10
20.92830904798388
 20
284.9152596124888
 30
0.0
 10
19.9965774256449
 20
284.6732990929597
 30
0.0
 10
18.09964155184067
 20
284.2865676784679
 30
0.0
 10
13.75223659422876
 20
283.7815122344476
 30
0.0
 10
10.28873976011707
 20
283.814447818947
 30
0.0
 10
7.797485175855129
 20
283.8381380169751
 30
0.0
  0
LINE
  5
2090
100
AcDbEntity
  8
外形
  6
CENTER
 62
     1
100
AcDbLine
 10
-13.598188
 20
296.07839
 30
0.0
 11
315.881723
 21
296.07839
 31
0.0
  0
LINE
  5
2091
100
AcDbEntity
  8
外形
  6
CENTER
 62
     1
100
AcDbLine
 10
-13.598188
 20
197.804461
 30
0.0
 11
315.881723
 21
197.804461
 31
0.0
  0
LINE
  5
2092
100
AcDbEntity
  8
外形
  6
CONTINUOUS
100
AcDbLine
 10
22.770929
 20
208.804461
 30
0.0
 11
294.347491
 21
208.804461
 31
0.0
  0
LINE
  5
2093
100
AcDbEntity
  8
外形
  6
CONTINUOUS
100
AcDbLine
 10
11.706636
 20
186.804461
 30
0.0
 11
294.347491
 21
186.804461
 31
0.0
  0
LINE
  5
2095
100
AcDbEntity
  8
外形
  6
CONTINUOUS
100
AcDbLine
 10
-4.568581
 20
198.719935
 30
0.0
 11
-4.568581
 21
198.251115
 31
0.0
  0
LINE
  5
2096
100
AcDbEntity
  8
外形
  6
CONTINUOUS
100
AcDbLine
 10
-5.652509
 20
197.804461
 30
0.0
 11
-4.568581
 21
198.251115
 31
0.0
  0
LINE
  5
2099
100
AcDbEntity
  8
外形
  6
CONTINUOUS
100
AcDbLine
 10
-5.652509
 20
197.804461
 30
0.0
 11
7.172424
 21
196.682425
 31
0.0
  0
LINE
  5
209B
100
AcDbEntity
  8
外形
  6
CONTINUOUS
100
AcDbLine
 10
-4.718152
 20
192.997608
 30
0.0
 11
6.269315
 21
192.03633
 31
0.0
  0
LINE
  5
209C
100
AcDbEntity
  8
外形
  6
CONTINUOUS
100
AcDbLine
 10
-5.652509
 20
197.804461
 30
0.0
 11
-3.07697
 21
184.554461
 31
0.0
  0
LINE
  5
209D
100
AcDbEntity
  8
外形
  6
CONTINUOUS
100
AcDbLine
 10
-4.568581
 20
198.251115
 30
0.0
 11
7.275918
 21
197.214856
 31
0.0
  0
LINE
  5
209E
100
AcDbEntity
  8
外形
  6
CONTINUOUS
100
AcDbLine
 10
6.269315
 20
192.03633
 30
0.0
 11
7.568476
 21
198.719935
 31
0.0
  0
SPLINE
  5
20AD
100
AcDbEntity
  8
外形
  6
CONTINUOUS
100
AcDbSpline
210
0.0
220
0.0
230
1.0
 70
     8
 71
     3
 72
    14
 73
    10
 74
     8
 42
0.0000001
 43
0.0000001
 44
0.0000000001
 40
0.0
 40
0.0
 40
0.0
 40
0.0
 40
2.523920712229552
 40
5.144895382819503
 40
7.963975680976868
 40
10.92707695592643
 40
14.0072113623635
 40
17.27032523385894
 40
24.98841002007157
 40
24.98841002007157
 40
24.98841002007157
 40
24.98841002007157
 10
29.62658385102166
 20
208.8044611435259
 30
0.0
 10
29.05304383757743
 20
208.1853668137116
 30
0.0
 10
27.8839091049634
 20
206.923371718716
 30
0.0
 10
25.68080466022145
 20
205.4182011620139
 30
0.0
 10
23.34106603968455
 20
203.8861910783273
 30
0.0
 10
20.80467384503093
 20
202.360955807914
 30
0.0
 10
18.09601447705963
 20
200.8775090095579
 30
0.0
 10
14.02217483899783
 20
198.3957749801572
 30
0.0
 10
10.23222479570063
 20
198.5861387843053
 30
0.0
 10
7.568475902573595
 20
198.7199351053116
 30
0.0
 11
29.62658385102166
 21
208.8044611435259
 31
0.0
 11
27.84480881020284
 21
207.0168780082462
 31
0.0
 11
25.7333319326335
 21
205.4640825872831
 31
0.0
 11
23.37049551752752
 21
203.9264812726022
 31
0.0
 11
20.83111466094195
 21
202.3995516636109
 31
0.0
 11
18.15126925089576
 21
200.8811128140118
 31
0.0
 11
15.25913617968826
 21
199.369994540423
 31
0.0
 11
7.568475902573595
 21
198.7199351053116
 31
0.0
  0
SPLINE
  5
20BD
100
AcDbEntity
  8
外形
  6
CONTINUOUS
100
AcDbSpline
210
0.0
220
0.0
230
1.0
 70
     8
 71
     3
 72
    14
 73
    10
 74
     8
 42
0.0000001
 43
0.0000001
 44
0.0000000001
 40
0.0
 40
0.0
 40
0.0
 40
0.0
 40
4.06831907498746
 40
8.216779864186925
 40
12.13624756725655
 40
15.89662526693233
 40
19.53159956139804
 40
23.14227069629843
 40
29.19959992215686
 40
29.19959992215686
 40
29.19959992215686
 40
29.19959992215686
 10
22.77092925061941
 20
208.8044611435259
 30
0.0
 10
21.47557659414973
 20
208.402049325942
 30
0.0
 10
18.85935416210414
 20
207.5892985905922
 30
0.0
 10
15.07649027243138
 20
206.1505357375099
 30
0.0
 10
11.4158486598266
 20
204.6867528438255
 30
0.0
 10
7.948444751160407
 20
203.1997251754346
 30
0.0
 10
4.587453148106233
 20
201.7373615804832
 30
0.0
 10
0.6116588763634807
 20
199.7262437944366
 30
0.0
 10
-2.573174963237839
 20
199.1075608780687
 30
0.0
 10
-4.568581084075617
 20
198.7199351053116
 30
0.0
 11
22.77092925061941
 21
208.8044611435259
 31
0.0
 11
18.8983678972579
 21
207.5576697975671
 31
0.0
 11
15.00984477482709
 21
206.112292737473
 31
0.0
 11
11.37268118992256
 21
204.6517215710965
 31
0.0
 11
7.912062046530159
 21
203.1804786990305
 31
0.0
 11
4.591907456551211
 21
201.7007450675724
 31
0.0
 11
1.301677095550203
 21
200.2136908601038
 31
0.0
 11
-4.568581084075617
 21
198.7199351053116
 31
0.0
  0
LINE
  5
20BE
100
AcDbEntity
  8
外形
  6
CONTINUOUS
100
AcDbLine
 10
11.706636
 20
283.833017
 30
0.0
 11
11.706636
 21
283.82839
 31
0.0
  0
LINE
  5
20BF
100
AcDbEntity
  8
外形
  6
CONTINUOUS
100
AcDbLine
 10
7.797485
 20
283.838138
 30
0.0
 11
7.213437
 21
283.838138
 31
0.0
  0
LINE
  5
20C0
100
AcDbEntity
  8
外形
  6
CONTINUOUS
100
AcDbLine
 10
29.626584
 20
290.141219
 30
0.0
 11
29.626584
 21
283.57839
 31
0.0
  0
LINE
  5
20C1
100
AcDbEntity
  8
外形
  6
CONTINUOUS
100
AcDbLine
 10
-40.460891
 20
301.469355
 30
0.0
 11
-40.460891
 21
290.687426
 31
0.0
  0
LINE
  5
20C2
100
AcDbEntity
  8
外形
  6
CONTINUOUS
100
AcDbLine
 10
29.376584
 20
301.469355
 30
0.0
 11
23.086282
 21
301.469355
 31
0.0
  0
SPLINE
  5
20C4
100
AcDbEntity
  8
外形
  6
CONTINUOUS
100
AcDbSpline
210
0.0
220
0.0
230
1.0
 70
     8
 71
     3
 72
    10
 73
     6
 74
     4
 42
0.0000001
 43
0.0000001
 44
0.0000000001
 40
0.0
 40
0.0
 40
0.0
 40
0.0
 40
3.31724220445197
 40
6.316905674101562
 40
10.48119576429665
 40
10.48119576429665
 40
10.48119576429665
 40
10.48119576429665
 10
29.31123145031712
 20
290.687425676549
 30
0.0
 10
28.75616160901422
 20
289.7067785429096
 30
0.0
 10
27.69916196474851
 20
287.8393672835013
 30
0.0
 10
24.56874733183326
 20
286.0558884280274
 30
0.0
 10
22.29724255251576
 20
285.3426218161842
 30
0.0
 10
20.97685364109634
 20
284.9280114954229
 30
0.0
 11
29.31123145031712
 21
290.687425676549
 31
0.0
 11
27.41722511272292
 21
287.9640388446519
 31
0.0
 11
24.89346961045508
 21
286.3427310096239
 31
0.0
 11
20.97685364109634
 21
284.9280114954229
 31
0.0
  0
SPLINE
  5
20C5
100
AcDbEntity
  8
外形
  6
CONTINUOUS
100
AcDbSpline
210
0.0
220
0.0
230
-1.0
 70
     8
 71
     3
 72
    10
 73
     6
 74
     4
 42
0.0000001
 43
0.0000001
 44
0.0000000001
 40
0.0
 40
0.0
 40
0.0
 40
0.0
 40
2.533640492546903
 40
4.997161355262409
 40
7.499590802092814
 40
7.499590802092814
 40
7.499590802092814
 40
7.499590802092814
 10
23.08628165132275
 20
301.4693550029729
 30
0.0
 10
22.40007652396796
 20
301.9670980706307
 30
0.0
 10
21.04665730198777
 20
302.9488089447134
 30
0.0
 10
18.72210071280012
 20
303.9028445469813
 30
0.0
 10
17.19273669196713
 20
304.531679932751
 30
0.0
 10
16.42206334203476
 20
304.8485611112707
 30
0.0
 11
23.08628165132275
 21
301.4693550029729
 31
0.0
 11
20.97741263348274
 21
302.8736361753411
 31
0.0
 11
18.73658995347817
 21
303.8971833202307
 31
0.0
 11
16.42206334203476
 21
304.8485611112707
 31
0.0
  0
LINE
  5
20C6
100
AcDbEntity
  8
外形
  6
CONTINUOUS
100
AcDbLine
 10
29.626584
 20
302.015561
 30
0.0
 11
29.376584
 21
301.469355
 31
0.0
  0
LINE
  5
20C7
100
AcDbEntity
  8
外形
  6
CONTINUOUS
100
AcDbLine
 10
29.376584
 20
283.82839
 30
0.0
 11
29.376584
 21
290.574232
 31
0.0
  0
DIMENSION
  5
20FC
100
AcDbEntity
  8
寸法
  6
CONTINUOUS
100
AcDbDimension
  2
*D4
 10
-51.460891
 20
274.122037
 30
0.0
 11
-59.896764
 21
263.328311
 31
0.0
 70
    34
  3
STANDARD
100
AcDb2LineAngularDimension
 13
-51.461188
 23
282.069867
 33
0.0
 14
-50.545417
 24
308.294135
 34
0.0
 15
-51.460891
 25
318.034744
 35
0.0
 16
-51.723914
 26
259.474214
 36
0.0
1001
ACAD
1000
DSTYLE
1002
{
1070
    40
1040
1.0
1002
}
  0
LINE
  5
20FD
100
AcDbEntity
  8
外形
  6
CONTINUOUS
100
AcDbLine
 10
-61.721137
 20
303.462295
 30
0.0
 11
-50.727554
 21
303.07839
 31
0.0
  0
LINE
  5
20FF
100
AcDbEntity
  8
外形
  6
CONTINUOUS
100
AcDbLine
 10
-50.727554
 20
303.07839
 30
0.0
 11
-48.057549
 21
307.846133
 31
0.0
  0
DIMENSION
  5
2124
100
AcDbEntity
  8
寸法
  6
CONTINUOUS
100
AcDbDimension
  2
*D7
 10
-5.652509
 20
282.07839
 30
0.0
 11
-26.50711
 21
304.797335
 31
0.0
 70
    34
  3
STANDARD
100
AcDb2LineAngularDimension
 13
-3.851771
 23
303.07839
 33
0.0
 14
-5.650987
 24
282.513253
 34
0.0
 15
-5.252509
 25
282.07839
 35
0.0
 16
-18.396625
 26
307.381287
 36
0.0
1001
ACAD
1000
DSTYLE
1002
{
1070
    40
1040
1.0
1002
}
  0
DIMENSION
  5
2131
100
AcDbEntity
  8
寸法
  6
CONTINUOUS
100
AcDbDimension
  2
*D8
 10
-20.81079
 20
282.07839
 30
0.0
 11
-23.31079
 21
289.07839
 31
0.0
 70
    32
  3
STANDARD
100
AcDbAlignedDimension
 13
-13.598188
 23
296.07839
 33
0.0
 14
-6.689033
 24
282.07839
 34
0.0
 50
90.0
100
AcDbRotatedDimension
1001
ACAD
1000
DSTYLE
1002
{
1070
    40
1040
1.0
1002
}
  0
DIMENSION
  5
2193
100
AcDbEntity
  8
寸法
  6
CONTINUOUS
100
AcDbDimension
  2
*D9
 10
168.809201
 20
263.212422
 30
0.0
 11
157.809201
 21
265.712422
 31
0.0
 70
    32
  3
STANDARD
100
AcDbAlignedDimension
 13
146.809201
 23
290.141219
 33
0.0
 14
168.809201
 24
290.141219
 34
0.0
100
AcDbRotatedDimension
1001
ACAD
1000
DSTYLE
1002
{
1070
    40
1040
1.0
1002
}
  0
DIMENSION
  5
21A0
100
AcDbEntity
  8
寸法
  6
CONTINUOUS
100
AcDbDimension
  2
*D10
 10
294.347491
 20
244.181111
 30
0.0
 11
144.347491
 21
246.681111
 31
0.0
 70
    32
  3
STANDARD
100
AcDbAlignedDimension
 13
-5.652509
 23
282.07839
 33
0.0
 14
294.347491
 24
284.57839
 34
0.0
100
AcDbRotatedDimension
1001
ACAD
1000
DSTYLE
1002
{
1070
    40
1040
1.0
1002
}
  0
DIMENSION
  5
21C0
100
AcDbEntity
  8
外形
  6
CONTINUOUS
100
AcDbDimension
  2
*D11
 10
150.748631
 20
285.763433
 30
0.0
 11
171.636751
 21
316.279392
 31
0.0
 70
   163
  3
STANDARD
100
AcDbDiametricDimension
 15
164.869771
 25
306.393348
 35
0.0
 40
0.0
1001
ACAD
1000
DSTYLE
1002
{
1070
   284
1070
    13
1070
   146
1040
0.5
1070
   272
1070
     3
1070
    40
1040
1.0
1070
   287
1070
     0
1002
}
  0
ELLIPSE
  5
21CC
100
AcDbEntity
  8
外形
  6
CONTINUOUS
100
AcDbEllipse
 10
293.347491
 20
296.07839
 30
0.0
 11
0.0
 21
5.937171043518958
 31
0.0
210
0.0
220
0.0
230
1.0
 40
0.252646
 41
5.553457650952619
 42
6.283185307179586
  0
ELLIPSE
  5
21CD
100
AcDbEntity
  8
外形
  6
CONTINUOUS
100
AcDbEllipse
 10
293.347491
 20
296.07839
 30
0.0
 11
0.0
 21
5.937171043518958
 31
0.0
210
0.0
220
0.0
230
1.0
 40
0.252646
 41
9.424777960769379
 42
10.15450561699634
  0
LINE
  5
21CE
100
AcDbEntity
  8
外形
  6
CONTINUOUS
100
AcDbLine
 10
293.347491
 20
302.015561
 30
0.0
 11
293.347491
 21
308.57839
 31
0.0
  0
LINE
  5
21D0
100
AcDbEntity
  8
外形
  6
CONTINUOUS
100
AcDbLine
 10
294.347491
 20
186.804461
 30
0.0
 11
294.347491
 21
208.804461
 31
0.0
  0
LINE
  5
21D1
100
AcDbEntity
  8
外形
  6
CONTINUOUS
100
AcDbLine
 10
293.347491
 20
186.804461
 30
0.0
 11
293.347491
 21
208.804461
 31
0.0
  0
CIRCLE
  5
21D4
100
AcDbEntity
  8
外形
  6
PHANTOM
 62
     1
100
AcDbCircle
 10
-51.461188
 20
296.07839
 30
0.0
 40
14.0
  0
DIMENSION
  5
21DE
100
AcDbEntity
  8
寸法
  6
CONTINUOUS
100
AcDbDimension
  2
*D12
 10
-60.830723
 20
285.675899
 30
0.0
 11
-32.037791
 21
317.643144
 31
0.0
 70
   163
  3
STANDARD
100
AcDbDiametricDimension
 15
-42.091653
 25
306.480881
 35
0.0
 40
0.0
1001
ACAD
1000
DSTYLE
1002
{
1070
    40
1040
1.0
1002
}
  0
MTEXT
  5
21F3
100
AcDbEntity
  8
寸法
  6
CONTINUOUS
 62
     3
100
AcDbMText
 10
-35.614924
 20
309.358147
 30
0.0
 40
3.0
 41
0.0
 71
     4
 72
     1
  1
最小加工径
 11
0.674323
 21
0.738436
 31
0.0
  0
DIMENSION
  5
2207
100
AcDbEntity
  8
寸法
  6
CONTINUOUS
100
AcDbDimension
  2
*D13
 10
7.172424
 20
196.682425
 30
0.0
 11
-22.255636
 21
208.035814
 31
0.0
 70
    34
  3
STANDARD
100
AcDb2LineAngularDimension
 13
-13.598188
 23
197.804461
 33
0.0
 14
315.881723
 24
197.804461
 34
0.0
 15
-5.652509
 25
197.804461
 35
0.0
 16
-22.167991
 26
198.285013
 36
0.0
1001
ACAD
1000
DSTYLE
1002
{
1070
    40
1040
1.0
1002
}
  0
DIMENSION
  5
2214
100
AcDbEntity
  8
寸法
  6
CONTINUOUS
100
AcDbDimension
  2
*D14
 10
11.706636
 20
169.02726
 30
0.0
 11
3.027063
 21
171.52726
 31
0.0
 70
    32
  1
17.4
  3
STANDARD
100
AcDbAlignedDimension
 13
-5.652509
 23
197.804461
 33
0.0
 14
11.706636
 24
185.554461
 34
0.0
100
AcDbRotatedDimension
1001
ACAD
1000
DSTYLE
1002
{
1070
    40
1040
1.0
1002
}
  0
ENDSEC
  0
SECTION
  2
OBJECTS
  0
DICTIONARY
  5
1E
100
AcDbDictionary
  3
ACAD_GROUP
350
1C
  3
ACAD_MLINESTYLE
350
1D
  3
ACDBVARIABLEDICTIONARY
350
147A
  3
DRAWINGVARIABLESDICT
350
C58
  0
DICTIONARY
  5
38
100
AcDbDictionary
280
     1
  3
ACAD_XREC_ROUNDTRIP
360
39
  0
DICTIONARY
  5
22
100
AcDbDictionary
280
     1
  3
ACAD_XREC_ROUNDTRIP
360
23
  0
DICTIONARY
  5
3
100
AcDbDictionary
280
     1
  3
ACAD_LAYOUTSELFREF
360
4
  0
DICTIONARY
  5
A
100
AcDbDictionary
280
     1
  3
ACAD_LAYOUTSELFREF
360
B
  0
DICTIONARY
  5
1C
102
{ACAD_REACTORS
330
1E
102
}
100
AcDbDictionary
  3
*A1
350
1666
  3
*A2
350
1679
  3
*A3
350
16C2
  3
*A4
350
1AFC
  3
*A5
350
1AFD
  0
DICTIONARY
  5
1D
102
{ACAD_REACTORS
330
1E
102
}
100
AcDbDictionary
  3
STANDARD
350
20
  0
DICTIONARY
  5
147A
102
{ACAD_REACTORS
330
1E
102
}
100
AcDbDictionary
  3
SORTENTS
350
147B
  0
DICTIONARY
  5
C58
102
{ACAD_REACTORS
330
1E
102
}
100
AcDbDictionary
1001
DRAWINGVARIABLESXDATA
1000
POLARMODE
1000
0
  0
XRECORD
  5
39
102
{ACAD_REACTORS
330
38
102
}
100
AcDbXrecord
102
PLOTBIT
280
     0
  0
XRECORD
  5
23
102
{ACAD_REACTORS
330
22
102
}
100
AcDbXrecord
102
ACADR14ROUNDTRIP
1000
DSTYLE
1002
{
1070
   341
340
0
1070
   343
340
0
1070
   344
340
0
1002
}
  0
XRECORD
  5
4
102
{ACAD_REACTORS
330
3
102
}
100
AcDbXrecord
340
2
  0
XRECORD
  5
B
102
{ACAD_REACTORS
330
A
102
}
100
AcDbXrecord
340
9
  0
GROUP
  5
1666
102
{ACAD_REACTORS
330
1C
102
}
100
AcDbGroup
300

 70
     1
 71
     1
  0
GROUP
  5
1679
102
{ACAD_REACTORS
330
1C
102
}
100
AcDbGroup
300

 70
     1
 71
     1
  0
GROUP
  5
16C2
102
{ACAD_REACTORS
330
1C
102
}
100
AcDbGroup
300

 70
     1
 71
     1
  0
GROUP
  5
1AFC
102
{ACAD_REACTORS
330
1C
102
}
100
AcDbGroup
300

 70
     1
 71
     1
  0
GROUP
  5
1AFD
102
{ACAD_REACTORS
330
1C
102
}
100
AcDbGroup
300

 70
     1
 71
     1
  0
MLINESTYLE
  5
20
102
{ACAD_REACTORS
330
1D
102
}
100
AcDbMlineStyle
  2
STANDARD
 70
     0
  3

 62
     0
 51
90.0
 52
90.0
 71
     2
 49
0.5
 62
   256
  6
BYLAYER
 49
-0.5
 62
   256
  6
BYLAYER
  0
DICTIONARYVAR
  5
147B
102
{ACAD_REACTORS
330
147A
102
}
100
DictionaryVariables
280
     0
  1
96
  0
ENDSEC
  0
EOF
