  0
SECTION
  2
HEADER
  9
$ACADVER
  1
AC1014
  9
$ACADMAINTVER
 70
     0
  9
$DWGCODEPAGE
  3
ANSI_932
  9
$INSBASE
 10
-587.250952
 20
747.890188
 30
0.0
  9
$EXTMIN
 10
21.125691
 20
150.213866
 30
0.0
  9
$EXTMAX
 10
171.001272
 20
242.542443
 30
0.0
  9
$LIMMIN
 10
-587.250952
 20
327.890188
  9
$LIMMAX
 10
600.749048
 20
957.890188
  9
$ORTHOMODE
 70
     0
  9
$REGENMODE
 70
     1
  9
$FILLMODE
 70
     1
  9
$QTEXTMODE
 70
     0
  9
$MIRRTEXT
 70
     1
  9
$DRAGMODE
 70
     2
  9
$LTSCALE
 40
5.0
  9
$OSMODE
 70
    37
  9
$ATTMODE
 70
     1
  9
$TEXTSIZE
 40
5.0
  9
$TRACEWID
 40
0.05
  9
$TEXTSTYLE
  7
STANDARD
  9
$CLAYER
  8
寸法
  9
$CELTYPE
  6
CONTINUOUS
  9
$CECOLOR
 62
   256
  9
$CELTSCALE
 40
1.0
  9
$DELOBJ
 70
     1
  9
$DISPSILH
 70
     0
  9
$DIMSCALE
 40
1.0
  9
$DIMASZ
 40
1.0
  9
$DIMEXO
 40
1.0
  9
$DIMDLI
 40
8.0
  9
$DIMRND
 40
0.0
  9
$DIMDLE
 40
0.0
  9
$DIMEXE
 40
2.0
  9
$DIMTP
 40
0.0
  9
$DIMTM
 40
0.0
  9
$DIMTXT
 40
1.5
  9
$DIMCEN
 40
-1.0
  9
$DIMTSZ
 40
0.0
  9
$DIMTOL
 70
     0
  9
$DIMLIM
 70
     0
  9
$DIMTIH
 70
     0
  9
$DIMTOH
 70
     0
  9
$DIMSE1
 70
     0
  9
$DIMSE2
 70
     0
  9
$DIMTAD
 70
     1
  9
$DIMZIN
 70
     8
  9
$DIMBLK
  1

  9
$DIMASO
 70
     1
  9
$DIMSHO
 70
     1
  9
$DIMPOST
  1

  9
$DIMAPOST
  1

  9
$DIMALT
 70
     0
  9
$DIMALTD
 70
     2
  9
$DIMALTF
 40
25.4
  9
$DIMLFAC
 40
1.0
  9
$DIMTOFL
 70
     1
  9
$DIMTVP
 40
0.0
  9
$DIMTIX
 70
     0
  9
$DIMSOXD
 70
     0
  9
$DIMSAH
 70
     1
  9
$DIMBLK1
  1
_DOTSMALL
  9
$DIMBLK2
  1
_DOTSMALL
  9
$DIMSTYLE
  2
STANDARD
  9
$DIMCLRD
 70
     2
  9
$DIMCLRE
 70
     2
  9
$DIMCLRT
 70
     2
  9
$DIMTFAC
 40
1.0
  9
$DIMGAP
 40
1.0
  9
$DIMJUST
 70
     0
  9
$DIMSD1
 70
     0
  9
$DIMSD2
 70
     0
  9
$DIMTOLJ
 70
     1
  9
$DIMTZIN
 70
     8
  9
$DIMALTZ
 70
     0
  9
$DIMALTTZ
 70
     0
  9
$DIMFIT
 70
     3
  9
$DIMUPT
 70
     0
  9
$DIMUNIT
 70
     2
  9
$DIMDEC
 70
     3
  9
$DIMTDEC
 70
     2
  9
$DIMALTU
 70
     2
  9
$DIMALTTD
 70
     2
  9
$DIMTXSTY
  7
STANDARD
  9
$DIMAUNIT
 70
     0
  9
$LUNITS
 70
     2
  9
$LUPREC
 70
     0
  9
$SKETCHINC
 40
0.1
  9
$FILLETRAD
 40
0.2
  9
$AUNITS
 70
     0
  9
$AUPREC
 70
     0
  9
$MENU
  1
acad
  9
$ELEVATION
 40
0.0
  9
$PELEVATION
 40
0.0
  9
$THICKNESS
 40
0.0
  9
$LIMCHECK
 70
     0
  9
$BLIPMODE
 70
     0
  9
$CHAMFERA
 40
1.5
  9
$CHAMFERB
 40
1.5
  9
$CHAMFERC
 40
0.0
  9
$CHAMFERD
 40
0.0
  9
$SKPOLY
 70
     0
  9
$TDCREATE
 40
2450751.535399305
  9
$TDUPDATE
 40
2452009.698692129
  9
$TDINDWG
 40
1.7614356481
  9
$TDUSRTIMER
 40
1.7614356481
  9
$USRTIMER
 70
     1
  9
$ANGBASE
 50
0.0
  9
$ANGDIR
 70
     0
  9
$PDMODE
 70
    32
  9
$PDSIZE
 40
0.0
  9
$PLINEWID
 40
0.0
  9
$COORDS
 70
     2
  9
$SPLFRAME
 70
     0
  9
$SPLINETYPE
 70
     5
  9
$SPLINESEGS
 70
     8
  9
$ATTDIA
 70
     0
  9
$ATTREQ
 70
     1
  9
$HANDLING
 70
     1
  9
$HANDSEED
  5
1D1C
  9
$SURFTAB1
 70
     6
  9
$SURFTAB2
 70
     6
  9
$SURFTYPE
 70
     6
  9
$SURFU
 70
     6
  9
$SURFV
 70
     6
  9
$UCSNAME
  2

  9
$UCSORG
 10
40.53800450572526
 20
146.9196145921314
 30
0.0
  9
$UCSXDIR
 10
1.0
 20
0.0
 30
0.0
  9
$UCSYDIR
 10
0.0
 20
1.0
 30
0.0
  9
$PUCSNAME
  2

  9
$PUCSORG
 10
0.0
 20
0.0
 30
0.0
  9
$PUCSXDIR
 10
1.0
 20
0.0
 30
0.0
  9
$PUCSYDIR
 10
0.0
 20
1.0
 30
0.0
  9
$USERI1
 70
     0
  9
$USERI2
 70
     0
  9
$USERI3
 70
     0
  9
$USERI4
 70
     0
  9
$USERI5
 70
     0
  9
$USERR1
 40
0.0
  9
$USERR2
 40
0.0
  9
$USERR3
 40
0.0
  9
$USERR4
 40
0.0
  9
$USERR5
 40
0.0
  9
$WORLDVIEW
 70
     1
  9
$SHADEDGE
 70
     3
  9
$SHADEDIF
 70
    70
  9
$TILEMODE
 70
     1
  9
$MAXACTVP
 70
    16
  9
$PINSBASE
 10
0.0
 20
0.0
 30
0.0
  9
$PLIMCHECK
 70
     0
  9
$PEXTMIN
 10
1.000000E+20
 20
1.000000E+20
 30
1.000000E+20
  9
$PEXTMAX
 10
-1.000000E+20
 20
-1.000000E+20
 30
-1.000000E+20
  9
$PLIMMIN
 10
0.0
 20
0.0
  9
$PLIMMAX
 10
12.0
 20
9.0
  9
$UNITMODE
 70
     0
  9
$VISRETAIN
 70
     0
  9
$PLINEGEN
 70
     0
  9
$PSLTSCALE
 70
     1
  9
$TREEDEPTH
 70
  3020
  9
$PICKSTYLE
 70
     1
  9
$CMLSTYLE
  2
STANDARD
  9
$CMLJUST
 70
     0
  9
$CMLSCALE
 40
1.0
  9
$PROXYGRAPHICS
 70
     1
  9
$MEASUREMENT
 70
     0
  0
ENDSEC
  0
SECTION
  2
CLASSES
  0
CLASS
  1
LWPOLYLINE
  2
AcDbPolyline
  3
"AutoCAD"
 90
        0
280
     0
281
     1
  0
CLASS
  1
ACDBDICTIONARYWDFLT
  2
AcDbDictionaryWithDefault
  3
AutoCAD 2000
 90
        0
280
     1
281
     0
  0
CLASS
  1
ACDBPLACEHOLDER
  2
AcDbPlaceHolder
  3
AutoCAD 2000
 90
        0
280
     1
281
     0
  0
CLASS
  1
LAYOUT
  2
AcDbLayout
  3
AutoCAD 2000
 90
        0
280
     1
281
     0
  0
CLASS
  1
LONG_TRANSACTION
  2
AcDbLongTransaction
  3
AutoCAD 2000
 90
        0
280
     1
281
     0
  0
CLASS
  1
LWPOLYLINE
  2
AcDbPolyline
  3
"AutoCAD"
 90
        0
280
     0
281
     1
  0
CLASS
  1
HATCH
  2
AcDbHatch
  3
"ACAD_SEDONA"
 90
        0
280
     0
281
     1
  0
CLASS
  1
XRECORD
  2
AcDbXrecord
  3
"<Built In>"
 90
        0
280
     0
281
     0
  0
CLASS
  1
DICTIONARYVAR
  2
AcDbDictionaryVar
  3
"AutoCAD"
 90
        0
280
     0
281
     0
  0
ENDSEC
  0
SECTION
  2
TABLES
  0
TABLE
  2
VPORT
  5
16
100
AcDbSymbolTable
 70
     2
  0
VPORT
  5
1D1B
100
AcDbSymbolTableRecord
100
AcDbViewportTableRecord
  2
*ACTIVE
 70
     0
 10
0.0
 20
0.0
 11
1.0
 21
1.0
 12
78.378643
 22
210.426017
 13
0.0
 23
0.0
 14
1.0
 24
1.0
 15
10.0
 25
10.0
 16
0.0
 26
0.0
 36
1.0
 17
0.0
 27
0.0
 37
0.0
 40
160.789241
 41
1.710425
 42
50.0
 43
0.0
 44
0.0
 50
0.0
 51
0.0
 71
     0
 72
   100
 73
     1
 74
     1
 75
     0
 76
     0
 77
     0
 78
     2
  0
ENDTAB
  0
TABLE
  2
LTYPE
  5
11
100
AcDbSymbolTable
 70
     3
  0
LTYPE
  5
12
100
AcDbSymbolTableRecord
100
AcDbLinetypeTableRecord
  2
BYBLOCK
 70
     0
  3

 72
    65
 73
     0
 40
0.0
  0
LTYPE
  5
13
100
AcDbSymbolTableRecord
100
AcDbLinetypeTableRecord
  2
BYLAYER
 70
     0
  3

 72
    65
 73
     0
 40
0.0
  0
LTYPE
  5
7
100
AcDbSymbolTableRecord
100
AcDbLinetypeTableRecord
  2
CONTINUOUS
 70
     0
  3
Solid line
 72
    65
 73
     0
 40
0.0
  0
LTYPE
  5
AA
100
AcDbSymbolTableRecord
100
AcDbLinetypeTableRecord
  2
CENTER
 70
     0
  3
Center ____ _ ____ _ ____ _ ____ _ ____ _ ____
 72
    65
 73
     4
 40
2.0
 49
1.25
 74
     0
 49
-0.25
 74
     0
 49
0.25
 74
     0
 49
-0.25
 74
     0
  0
LTYPE
  5
1C88
100
AcDbSymbolTableRecord
100
AcDbLinetypeTableRecord
  2
PHANTOM
 70
     0
  3
Phantom ______  __  __  ______  __  __  ______
 72
    65
 73
     6
 40
2.5
 49
1.25
 74
     0
 49
-0.25
 74
     0
 49
0.25
 74
     0
 49
-0.25
 74
     0
 49
0.25
 74
     0
 49
-0.25
 74
     0
  0
ENDTAB
  0
TABLE
  2
LAYER
  5
E
100
AcDbSymbolTable
 70
     5
  0
LAYER
  5
6
100
AcDbSymbolTableRecord
100
AcDbLayerTableRecord
  2
0
 70
     0
 62
     7
  6
CONTINUOUS
  0
LAYER
  5
2C
100
AcDbSymbolTableRecord
100
AcDbLayerTableRecord
  2
外形
 70
     0
 62
     3
  6
CONTINUOUS
  0
LAYER
  5
37
102
{ACAD_XDICTIONARY
360
38
102
}
100
AcDbSymbolTableRecord
100
AcDbLayerTableRecord
  2
DEFPOINTS
 70
     0
 62
     7
  6
CONTINUOUS
  0
LAYER
  5
1F
100
AcDbSymbolTableRecord
100
AcDbLayerTableRecord
  2
寸法
 70
     0
 62
     1
  6
CONTINUOUS
  0
LAYER
  5
673
100
AcDbSymbolTableRecord
100
AcDbLayerTableRecord
  2
参考
 70
     0
 62
     2
  6
CONTINUOUS
  0
ENDTAB
  0
TABLE
  2
STYLE
  5
F
100
AcDbSymbolTable
 70
     1
  0
STYLE
  5
10
100
AcDbSymbolTableRecord
100
AcDbTextStyleTableRecord
  2
STANDARD
 70
     0
 40
0.0
 41
1.0
 50
0.0
 71
     0
 42
5.0
  3
MONOTXT
  4
BIGFONT
  0
ENDTAB
  0
TABLE
  2
VIEW
  5
14
100
AcDbSymbolTable
 70
     0
  0
ENDTAB
  0
TABLE
  2
UCS
  5
15
100
AcDbSymbolTable
 70
     0
  0
ENDTAB
  0
TABLE
  2
APPID
  5
18
100
AcDbSymbolTable
 70
     2
  0
APPID
  5
19
100
AcDbSymbolTableRecord
100
AcDbRegAppTableRecord
  2
ACAD
 70
     0
  0
APPID
  5
C59
100
AcDbSymbolTableRecord
100
AcDbRegAppTableRecord
  2
DRAWINGVARIABLESXDATA
 70
     0
  0
ENDTAB
  0
TABLE
  2
DIMSTYLE
  5
1A
100
AcDbSymbolTable
 70
     2
  0
DIMSTYLE
105
21
102
{ACAD_XDICTIONARY
360
22
102
}
102
{ACAD_REACTORS
330
1B13
330
1B36
330
1B4C
330
1B63
330
1BC6
330
1C93
330
1CAE
330
1D04
102
}
100
AcDbSymbolTableRecord
100
AcDbDimStyleTableRecord
  2
STANDARD
 70
     0
  3

  4

  5

  6
_OPEN30
  7
_OPEN30
 40
0.0
 41
2.0
 42
1.0
 43
8.0
 44
2.0
 45
0.0
 46
0.0
 47
0.0
 48
0.0
140
3.0
141
-1.0
142
0.0
143
25.4
144
1.0
145
0.0
146
1.0
147
1.0
 71
     0
 72
     0
 73
     0
 74
     0
 75
     0
 76
     0
 77
     1
 78
     8
170
     0
171
     2
172
     1
173
     1
174
     0
175
     0
176
     1
177
     1
178
     3
270
     2
271
     2
272
     2
273
     2
274
     2
340
10
275
     0
280
     0
281
     0
282
     0
283
     1
284
     8
285
     0
286
     0
287
     3
288
     0
  0
DIMSTYLE
105
674
100
AcDbSymbolTableRecord
100
AcDbDimStyleTableRecord
  2
参考寸法
 70
     0
  3

  4

  5

  6
_DOTSMALL
  7
_DOTSMALL
 40
1.0
 41
2.0
 42
1.0
 43
8.0
 44
2.0
 45
0.0
 46
0.0
 47
0.0
 48
0.0
140
3.0
141
-1.0
142
0.0
143
25.4
144
1.0
145
0.0
146
1.0
147
1.0
 71
     0
 72
     0
 73
     0
 74
     0
 75
     0
 76
     0
 77
     1
 78
     8
170
     0
171
     2
172
     1
173
     1
174
     0
175
     0
176
     2
177
     2
178
     2
270
     2
271
     3
272
     2
273
     2
274
     2
340
10
275
     0
280
     0
281
     0
282
     0
283
     1
284
     8
285
     0
286
     0
287
     3
288
     0
  0
ENDTAB
  0
TABLE
  2
BLOCK_RECORD
  5
1
100
AcDbSymbolTable
 70
    15
  0
BLOCK_RECORD
  5
2
102
{ACAD_XDICTIONARY
360
3
102
}
100
AcDbSymbolTableRecord
100
AcDbBlockTableRecord
  2
*MODEL_SPACE
  0
BLOCK_RECORD
  5
9
102
{ACAD_XDICTIONARY
360
A
102
}
100
AcDbSymbolTableRecord
100
AcDbBlockTableRecord
  2
*PAPER_SPACE
  0
BLOCK_RECORD
  5
24
100
AcDbSymbolTableRecord
100
AcDbBlockTableRecord
  2
_DOTSMALL
  0
BLOCK_RECORD
  5
470
100
AcDbSymbolTableRecord
100
AcDbBlockTableRecord
  2
_OPEN30
  0
BLOCK_RECORD
  5
1B07
100
AcDbSymbolTableRecord
100
AcDbBlockTableRecord
  2
*D2
  0
BLOCK_RECORD
  5
1B2A
100
AcDbSymbolTableRecord
100
AcDbBlockTableRecord
  2
*D3
  0
BLOCK_RECORD
  5
1B42
100
AcDbSymbolTableRecord
100
AcDbBlockTableRecord
  2
*D4
  0
BLOCK_RECORD
  5
1B57
100
AcDbSymbolTableRecord
100
AcDbBlockTableRecord
  2
*D5
  0
BLOCK_RECORD
  5
1BB6
100
AcDbSymbolTableRecord
100
AcDbBlockTableRecord
  2
*D6
  0
BLOCK_RECORD
  5
1C89
100
AcDbSymbolTableRecord
100
AcDbBlockTableRecord
  2
*D12
  0
BLOCK_RECORD
  5
1CA0
100
AcDbSymbolTableRecord
100
AcDbBlockTableRecord
  2
*D13
  0
BLOCK_RECORD
  5
1CF8
100
AcDbSymbolTableRecord
100
AcDbBlockTableRecord
  2
*D14
  0
ENDTAB
  0
ENDSEC
  0
SECTION
  2
BLOCKS
  0
BLOCK
  5
5
100
AcDbEntity
  8
0
100
AcDbBlockBegin
  2
*MODEL_SPACE
 70
     0
 10
0.0
 20
0.0
 30
0.0
  3
*MODEL_SPACE
  1

  0
ENDBLK
  5
8
100
AcDbEntity
  8
0
100
AcDbBlockEnd
  0
BLOCK
  5
C
100
AcDbEntity
 67
     1
  8
0
100
AcDbBlockBegin
  2
*PAPER_SPACE
 70
     0
 10
0.0
 20
0.0
 30
0.0
  3
*PAPER_SPACE
  1

  0
ENDBLK
  5
D
100
AcDbEntity
 67
     1
  8
0
100
AcDbBlockEnd
  0
BLOCK
  5
29
100
AcDbEntity
  8
0
100
AcDbBlockBegin
  2
_DOTSMALL
 70
     0
 10
0.0
 20
0.0
 30
0.0
  3
_DOTSMALL
  1

  0
POLYLINE
  5
25
100
AcDbEntity
  8
0
  6
BYBLOCK
 62
     0
100
AcDb2dPolyline
 66
     1
 10
0.0
 20
0.0
 30
0.0
 70
     1
 40
0.5
 41
0.5
  0
VERTEX
  5
26
100
AcDbEntity
  8
0
  6
BYBLOCK
 62
     0
100
AcDbVertex
100
AcDb2dVertex
 10
-0.0625
 20
0.0
 30
0.0
 42
1.0
  0
VERTEX
  5
27
100
AcDbEntity
  8
0
  6
BYBLOCK
 62
     0
100
AcDbVertex
100
AcDb2dVertex
 10
0.0625
 20
0.0
 30
0.0
 42
1.0
  0
SEQEND
  5
28
100
AcDbEntity
  8
0
  6
BYBLOCK
 62
     0
  0
ENDBLK
  5
2A
100
AcDbEntity
  8
0
100
AcDbBlockEnd
  0
BLOCK
  5
471
100
AcDbEntity
  8
0
100
AcDbBlockBegin
  2
_OPEN30
 70
     0
 10
0.0
 20
0.0
 30
0.0
  3
_OPEN30
  1

  0
LINE
  5
472
100
AcDbEntity
  8
0
  6
BYBLOCK
 62
     0
100
AcDbLine
 10
-1.0
 20
0.267949
 30
0.0
 11
0.0
 21
0.0
 31
0.0
  0
LINE
  5
473
100
AcDbEntity
  8
0
  6
BYBLOCK
 62
     0
100
AcDbLine
 10
0.0
 20
0.0
 30
0.0
 11
-1.0
 21
-0.267949
 31
0.0
  0
LINE
  5
474
100
AcDbEntity
  8
0
  6
BYBLOCK
 62
     0
100
AcDbLine
 10
0.0
 20
0.0
 30
0.0
 11
-1.0
 21
0.0
 31
0.0
  0
ENDBLK
  5
475
100
AcDbEntity
  8
0
100
AcDbBlockEnd
  0
BLOCK
  5
1B14
100
AcDbEntity
  8
0
100
AcDbBlockBegin
  2
*D2
 70
     1
 10
0.0
 20
0.0
 30
0.0
  3
*D2
  1

  0
LINE
  5
1B15
100
AcDbEntity
  8
0
  6
BYBLOCK
 62
     1
100
AcDbLine
 10
43.590368
 20
331.029866
 30
0.0
 11
43.590368
 21
310.063057
 31
0.0
  0
LINE
  5
1B16
100
AcDbEntity
  8
0
  6
BYBLOCK
 62
     1
100
AcDbLine
 10
143.590368
 20
332.829866
 30
0.0
 11
143.590368
 21
310.063057
 31
0.0
  0
LINE
  5
1B17
100
AcDbEntity
  8
0
  6
BYBLOCK
 62
     1
100
AcDbLine
 10
45.590368
 20
312.063057
 30
0.0
 11
141.590368
 21
312.063057
 31
0.0
  0
INSERT
  5
1B18
100
AcDbEntity
  8
0
  6
BYBLOCK
 62
     1
100
AcDbBlockReference
  2
_OPEN30
 10
43.590368
 20
312.063057
 30
0.0
 41
2.0
 42
2.0
 43
2.0
 50
180.0
  0
INSERT
  5
1B19
100
AcDbEntity
  8
0
  6
BYBLOCK
 62
     1
100
AcDbBlockReference
  2
_OPEN30
 10
143.590368
 20
312.063057
 30
0.0
 41
2.0
 42
2.0
 43
2.0
  0
MTEXT
  5
1B1A
100
AcDbEntity
  8
0
  6
BYBLOCK
 62
     3
100
AcDbMText
 10
93.590368
 20
314.563057
 30
0.0
 40
3.0
 41
0.0
 71
     5
 72
     1
  1
\A1;100
  0
POINT
  5
1B1B
100
AcDbEntity
  8
DEFPOINTS
  6
BYBLOCK
 62
     0
100
AcDbPoint
 10
43.590368
 20
332.029866
 30
0.0
  0
POINT
  5
1B1C
100
AcDbEntity
  8
DEFPOINTS
  6
BYBLOCK
 62
     0
100
AcDbPoint
 10
143.590368
 20
333.829866
 30
0.0
  0
POINT
  5
1B1D
100
AcDbEntity
  8
DEFPOINTS
  6
BYBLOCK
 62
     0
100
AcDbPoint
 10
143.590368
 20
312.063057
 30
0.0
  0
ENDBLK
  5
1B1E
100
AcDbEntity
  8
0
100
AcDbBlockEnd
  0
BLOCK
  5
1B37
100
AcDbEntity
  8
0
100
AcDbBlockBegin
  2
*D3
 70
     1
 10
0.0
 20
0.0
 30
0.0
  3
*D3
  1

  0
LINE
  5
1B38
100
AcDbEntity
  8
0
  6
BYBLOCK
 62
     1
100
AcDbLine
 10
124.438735
 20
333.893375
 30
0.0
 11
124.438735
 21
318.315443
 31
0.0
  0
LINE
  5
1B39
100
AcDbEntity
  8
0
  6
BYBLOCK
 62
     1
100
AcDbLine
 10
131.438735
 20
333.893375
 30
0.0
 11
131.438735
 21
318.315443
 31
0.0
  0
LINE
  5
1B3A
100
AcDbEntity
  8
0
  6
BYBLOCK
 62
     1
100
AcDbLine
 10
126.438735
 20
320.315443
 30
0.0
 11
129.438735
 21
320.315443
 31
0.0
  0
INSERT
  5
1B3B
100
AcDbEntity
  8
0
  6
BYBLOCK
 62
     1
100
AcDbBlockReference
  2
_OPEN30
 10
124.438735
 20
320.315443
 30
0.0
 41
2.0
 42
2.0
 43
2.0
 50
180.0
  0
INSERT
  5
1B3C
100
AcDbEntity
  8
0
  6
BYBLOCK
 62
     1
100
AcDbBlockReference
  2
_OPEN30
 10
131.438735
 20
320.315443
 30
0.0
 41
2.0
 42
2.0
 43
2.0
  0
MTEXT
  5
1B3D
100
AcDbEntity
  8
0
  6
BYBLOCK
 62
     3
100
AcDbMText
 10
127.938735
 20
322.815443
 30
0.0
 40
3.0
 41
0.0
 71
     5
 72
     1
  1
\A1;7
  0
POINT
  5
1B3E
100
AcDbEntity
  8
DEFPOINTS
  6
BYBLOCK
 62
     0
100
AcDbPoint
 10
124.438735
 20
334.893375
 30
0.0
  0
POINT
  5
1B3F
100
AcDbEntity
  8
DEFPOINTS
  6
BYBLOCK
 62
     0
100
AcDbPoint
 10
131.438735
 20
334.893375
 30
0.0
  0
POINT
  5
1B40
100
AcDbEntity
  8
DEFPOINTS
  6
BYBLOCK
 62
     0
100
AcDbPoint
 10
131.438735
 20
320.315443
 30
0.0
  0
ENDBLK
  5
1B41
100
AcDbEntity
  8
0
100
AcDbBlockEnd
  0
BLOCK
  5
1B4D
100
AcDbEntity
  8
0
100
AcDbBlockBegin
  2
*D4
 70
     1
 10
0.0
 20
0.0
 30
0.0
  3
*D4
  1

  0
LINE
  5
1B4E
100
AcDbEntity
  8
0
  6
BYBLOCK
 62
     1
100
AcDbLine
 10
125.178934
 20
331.50225
 30
0.0
 11
124.259
 21
329.726378
 31
0.0
  0
LINE
  5
1B4F
100
AcDbEntity
  8
0
  6
BYBLOCK
 62
     1
100
AcDbLine
 10
130.698535
 20
342.157483
 30
0.0
 11
134.961017
 21
350.385929
 31
0.0
  0
LINE
  5
1B50
100
AcDbEntity
  8
0
  6
BYBLOCK
 62
     1
100
AcDbLine
 10
126.098867
 20
333.278122
 30
0.0
 11
129.778602
 21
340.381611
 31
0.0
  0
INSERT
  5
1B51
100
AcDbEntity
  8
0
  6
BYBLOCK
 62
     1
100
AcDbBlockReference
  2
_OPEN30
 10
126.098867
 20
333.278122
 30
0.0
 41
2.0
 42
2.0
 43
2.0
 50
62.615035
  0
INSERT
  5
1B52
100
AcDbEntity
  8
0
  6
BYBLOCK
 62
     1
100
AcDbBlockReference
  2
_OPEN30
 10
129.778602
 20
340.381611
 30
0.0
 41
2.0
 42
2.0
 43
2.0
 50
242.615035
  0
MTEXT
  5
1B53
100
AcDbEntity
  8
0
  6
BYBLOCK
 62
     3
100
AcDbMText
 10
131.131293
 20
348.428069
 30
0.0
 40
3.0
 41
0.0
 71
     5
 72
     1
  1
\A1;\U+22058
 11
0.459967
 21
0.887936
 31
0.0
  0
POINT
  5
1B54
100
AcDbEntity
  8
DEFPOINTS
  6
BYBLOCK
 62
     0
100
AcDbPoint
 10
129.778602
 20
340.381611
 30
0.0
  0
POINT
  5
1B55
100
AcDbEntity
  8
DEFPOINTS
  6
BYBLOCK
 62
     0
100
AcDbPoint
 10
126.098867
 20
333.278122
 30
0.0
  0
ENDBLK
  5
1B56
100
AcDbEntity
  8
0
100
AcDbBlockEnd
  0
BLOCK
  5
1CBC
100
AcDbEntity
  8
0
100
AcDbBlockBegin
  2
*D5
 70
     1
 10
0.0
 20
0.0
 30
0.0
  3
*D5
  1

  0
LINE
  5
1CBD
100
AcDbEntity
  8
0
  6
BYBLOCK
 62
     1
100
AcDbLine
 10
62.415015
 20
216.587204
 30
0.0
 11
54.594424
 21
216.587204
 31
0.0
  0
LINE
  5
1CBE
100
AcDbEntity
  8
0
  6
BYBLOCK
 62
     1
100
AcDbLine
 10
59.181471
 20
220.587204
 30
0.0
 11
54.594424
 21
220.587204
 31
0.0
  0
LINE
  5
1CBF
100
AcDbEntity
  8
0
  6
BYBLOCK
 62
     1
100
AcDbLine
 10
56.594424
 20
222.587204
 30
0.0
 11
56.594424
 21
224.587204
 31
0.0
  0
LINE
  5
1CC0
100
AcDbEntity
  8
0
  6
BYBLOCK
 62
     1
100
AcDbLine
 10
56.594424
 20
214.587204
 30
0.0
 11
56.594424
 21
208.587204
 31
0.0
  0
LINE
  5
1CC1
100
AcDbEntity
  8
0
  6
BYBLOCK
 62
     1
100
AcDbLine
 10
56.594424
 20
220.587204
 30
0.0
 11
56.594424
 21
216.587204
 31
0.0
  0
INSERT
  5
1CC2
100
AcDbEntity
  8
0
  6
BYBLOCK
 62
     1
100
AcDbBlockReference
  2
_OPEN30
 10
56.594424
 20
220.587204
 30
0.0
 41
2.0
 42
2.0
 43
2.0
 50
270.0
  0
INSERT
  5
1CC3
100
AcDbEntity
  8
0
  6
BYBLOCK
 62
     1
100
AcDbBlockReference
  2
_OPEN30
 10
56.594424
 20
216.587204
 30
0.0
 41
2.0
 42
2.0
 43
2.0
 50
90.0
  0
MTEXT
  5
1CC4
100
AcDbEntity
  8
0
  6
BYBLOCK
 62
     3
100
AcDbMText
 10
54.094424
 20
210.587204
 30
0.0
 40
3.0
 41
0.0
 71
     5
 72
     1
  1
\A1;4
 11
0.0
 21
1.0
 31
0.0
  0
POINT
  5
1CC5
100
AcDbEntity
  8
DEFPOINTS
  6
BYBLOCK
 62
     0
100
AcDbPoint
 10
63.415015
 20
216.587204
 30
0.0
  0
POINT
  5
1CC6
100
AcDbEntity
  8
DEFPOINTS
  6
BYBLOCK
 62
     0
100
AcDbPoint
 10
60.181471
 20
220.587204
 30
0.0
  0
POINT
  5
1CC7
100
AcDbEntity
  8
DEFPOINTS
  6
BYBLOCK
 62
     0
100
AcDbPoint
 10
56.594424
 20
220.587204
 30
0.0
  0
ENDBLK
  5
1CC8
100
AcDbEntity
  8
0
100
AcDbBlockEnd
  0
BLOCK
  5
1BC7
100
AcDbEntity
  8
0
100
AcDbBlockBegin
  2
*D6
 70
     1
 10
0.0
 20
0.0
 30
0.0
  3
*D6
  1

  0
LINE
  5
1BC8
100
AcDbEntity
  8
0
  6
BYBLOCK
 62
     1
100
AcDbLine
 10
17.433532
 20
331.766562
 30
0.0
 11
14.738664
 21
319.088205
 31
0.0
  0
LINE
  5
1BC9
100
AcDbEntity
  8
0
  6
BYBLOCK
 62
     1
100
AcDbLine
 10
17.661228
 20
329.553318
 30
0.0
 11
17.661228
 21
318.781032
 31
0.0
  0
ARC
  5
1BCA
100
AcDbEntity
  8
0
  6
BYBLOCK
 62
     1
100
AcDbCircle
 10
17.661228
 20
332.837787
 30
0.0
 40
12.056755
100
AcDbArc
 50
238.903037
 51
258.0
  0
LINE
  5
1BCB
100
AcDbEntity
  8
0
  6
BYBLOCK
 62
     1
100
AcDbLine
 10
11.434059
 20
322.513654
 30
0.0
 11
1.501043
 21
328.504914
 31
0.0
  0
ARC
  5
1BCC
100
AcDbEntity
  8
0
  6
BYBLOCK
 62
     1
100
AcDbCircle
 10
17.661228
 20
332.837787
 30
0.0
 40
12.056755
100
AcDbArc
 50
238.969449
 51
248.484724
  0
ARC
  5
1BCD
100
AcDbEntity
  8
0
  6
BYBLOCK
 62
     1
100
AcDbCircle
 10
17.661228
 20
332.837787
 30
0.0
 40
12.056755
100
AcDbArc
 50
279.515276
 51
289.030551
  0
ARC
  5
1BCE
100
AcDbEntity
  8
0
  6
BYBLOCK
 62
     1
100
AcDbCircle
 10
17.661228
 20
332.837787
 30
0.0
 40
12.056755
100
AcDbArc
 50
258.0
 51
270.0
  0
INSERT
  5
1BCF
100
AcDbEntity
  8
0
  6
BYBLOCK
 62
     1
100
AcDbBlockReference
  2
_OPEN30
 10
15.154488
 20
321.044501
 30
0.0
 41
2.0
 42
2.0
 43
2.0
 50
343.242362
  0
INSERT
  5
1BD0
100
AcDbEntity
  8
0
  6
BYBLOCK
 62
     1
100
AcDbBlockReference
  2
_OPEN30
 10
17.661228
 20
320.781032
 30
0.0
 41
2.0
 42
2.0
 43
2.0
 50
184.757638
  0
MTEXT
  5
1BD1
100
AcDbEntity
  8
0
  6
BYBLOCK
 62
     3
100
AcDbMText
 10
7.758771
 20
327.65002
 30
0.0
 40
3.0
 41
0.0
 71
     5
 72
     1
  1
\A1;12°
 11
0.856294
 21
-0.516488
 31
0.0
  0
POINT
  5
1BD2
100
AcDbEntity
  8
DEFPOINTS
  6
BYBLOCK
 62
     0
100
AcDbPoint
 10
16.820191
 20
320.810401
 30
0.0
  0
POINT
  5
1BD3
100
AcDbEntity
  8
DEFPOINTS
  6
BYBLOCK
 62
     0
100
AcDbPoint
 10
17.641444
 20
332.744709
 30
0.0
  0
POINT
  5
1BD4
100
AcDbEntity
  8
DEFPOINTS
  6
BYBLOCK
 62
     0
100
AcDbPoint
 10
17.661228
 20
343.106415
 30
0.0
  0
POINT
  5
1BD5
100
AcDbEntity
  8
DEFPOINTS
  6
BYBLOCK
 62
     0
100
AcDbPoint
 10
17.661228
 20
330.553318
 30
0.0
  0
POINT
  5
1BD6
100
AcDbEntity
  8
DEFPOINTS
  6
BYBLOCK
 62
     0
100
AcDbPoint
 10
19.180024
 20
339.98316
 30
0.0
  0
ENDBLK
  5
1BD7
100
AcDbEntity
  8
0
100
AcDbBlockEnd
  0
BLOCK
  5
1CD3
100
AcDbEntity
  8
0
100
AcDbBlockBegin
  2
*D12
 70
     1
 10
0.0
 20
0.0
 30
0.0
  3
*D12
  1

  0
LINE
  5
1CD4
100
AcDbEntity
  8
0
  6
BYBLOCK
 62
     1
100
AcDbLine
 10
34.162848
 20
215.354932
 30
0.0
 11
33.135029
 21
213.639244
 31
0.0
  0
LINE
  5
1CD5
100
AcDbEntity
  8
0
  6
BYBLOCK
 62
     1
100
AcDbLine
 10
40.329766
 20
225.649063
 30
0.0
 11
47.028755
 21
236.831356
 31
0.0
  0
LINE
  5
1CD6
100
AcDbEntity
  8
0
  6
BYBLOCK
 62
     1
100
AcDbLine
 10
35.190668
 20
217.070621
 30
0.0
 11
39.301946
 21
223.933375
 31
0.0
  0
INSERT
  5
1CD7
100
AcDbEntity
  8
0
  6
BYBLOCK
 62
     1
100
AcDbBlockReference
  2
_OPEN30
 10
35.190668
 20
217.070621
 30
0.0
 41
2.0
 42
2.0
 43
2.0
 50
59.075391
  0
INSERT
  5
1CD8
100
AcDbEntity
  8
0
  6
BYBLOCK
 62
     1
100
AcDbBlockReference
  2
_OPEN30
 10
39.301946
 20
223.933375
 30
0.0
 41
2.0
 42
2.0
 43
2.0
 50
239.075391
  0
MTEXT
  5
1CD9
100
AcDbEntity
  8
0
  6
BYBLOCK
 62
     3
100
AcDbMText
 10
43.08546
 20
235.113676
 30
0.0
 40
3.0
 41
0.0
 71
     5
 72
     1
  1
\A1;\U+22058
 11
0.51391
 21
0.857844
 31
0.0
  0
POINT
  5
1CDA
100
AcDbEntity
  8
DEFPOINTS
  6
BYBLOCK
 62
     0
100
AcDbPoint
 10
39.301946
 20
223.933375
 30
0.0
  0
POINT
  5
1CDB
100
AcDbEntity
  8
DEFPOINTS
  6
BYBLOCK
 62
     0
100
AcDbPoint
 10
35.190668
 20
217.070621
 30
0.0
  0
ENDBLK
  5
1CDC
100
AcDbEntity
  8
0
100
AcDbBlockEnd
  0
BLOCK
  5
1CAF
100
AcDbEntity
  8
0
100
AcDbBlockBegin
  2
*D13
 70
     1
 10
0.0
 20
0.0
 30
0.0
  3
*D13
  1

  0
LINE
  5
1CB0
100
AcDbEntity
  8
0
  6
BYBLOCK
 62
     1
100
AcDbLine
 10
63.60937
 20
224.317183
 30
0.0
 11
64.108411
 21
233.839451
 31
0.0
  0
LINE
  5
1CB1
100
AcDbEntity
  8
0
  6
BYBLOCK
 62
     1
100
AcDbLine
 10
49.80087
 20
216.587204
 30
0.0
 11
45.928336
 21
216.587204
 31
0.0
  0
ARC
  5
1CB2
100
AcDbEntity
  8
0
  6
BYBLOCK
 62
     1
100
AcDbCircle
 10
63.204259
 20
216.587204
 30
0.0
 40
15.275923
100
AcDbArc
 50
94.506817
 51
172.493183
  0
INSERT
  5
1CB3
100
AcDbEntity
  8
0
  6
BYBLOCK
 62
     1
100
AcDbBlockReference
  2
_OPEN30
 10
64.003739
 20
231.842192
 30
0.0
 41
2.0
 42
2.0
 43
2.0
 50
0.753408
  0
INSERT
  5
1CB4
100
AcDbEntity
  8
0
  6
BYBLOCK
 62
     1
100
AcDbBlockReference
  2
_OPEN30
 10
47.928336
 20
216.587204
 30
0.0
 41
2.0
 42
2.0
 43
2.0
 50
266.246592
  0
MTEXT
  5
1CB5
100
AcDbEntity
  8
0
  6
BYBLOCK
 62
     3
100
AcDbMText
 10
50.968121
 20
229.481403
 30
0.0
 40
3.0
 41
0.0
 71
     5
 72
     1
  1
\A1;93°
 11
0.725374
 21
0.688355
 31
0.0
  0
POINT
  5
1CB6
100
AcDbEntity
  8
DEFPOINTS
  6
BYBLOCK
 62
     0
100
AcDbPoint
 10
56.032648
 20
230.075044
 30
0.0
  0
POINT
  5
1CB7
100
AcDbEntity
  8
DEFPOINTS
  6
BYBLOCK
 62
     0
100
AcDbPoint
 10
63.415015
 20
216.587204
 30
0.0
  0
POINT
  5
1CB8
100
AcDbEntity
  8
DEFPOINTS
  6
BYBLOCK
 62
     0
100
AcDbPoint
 10
63.21529
 20
216.797671
 30
0.0
  0
POINT
  5
1CB9
100
AcDbEntity
  8
DEFPOINTS
  6
BYBLOCK
 62
     0
100
AcDbPoint
 10
63.557034
 20
223.318554
 30
0.0
  0
POINT
  5
1CBA
100
AcDbEntity
  8
DEFPOINTS
  6
BYBLOCK
 62
     0
100
AcDbPoint
 10
50.80087
 20
216.587204
 30
0.0
  0
ENDBLK
  5
1CBB
100
AcDbEntity
  8
0
100
AcDbBlockEnd
  0
BLOCK
  5
1D10
100
AcDbEntity
  8
0
100
AcDbBlockBegin
  2
*D14
 70
     1
 10
0.0
 20
0.0
 30
0.0
  3
*D14
  1

  0
LINE
  5
1D11
100
AcDbEntity
  8
0
  6
BYBLOCK
 62
     1
100
AcDbLine
 10
63.215015
 20
213.787204
 30
0.0
 11
63.215015
 21
203.744506
 31
0.0
  0
LINE
  5
1D12
100
AcDbEntity
  8
0
  6
BYBLOCK
 62
     1
100
AcDbLine
 10
93.215015
 20
216.087204
 30
0.0
 11
93.215015
 21
203.744506
 31
0.0
  0
LINE
  5
1D13
100
AcDbEntity
  8
0
  6
BYBLOCK
 62
     1
100
AcDbLine
 10
65.215015
 20
205.744506
 30
0.0
 11
91.215015
 21
205.744506
 31
0.0
  0
INSERT
  5
1D14
100
AcDbEntity
  8
0
  6
BYBLOCK
 62
     1
100
AcDbBlockReference
  2
_OPEN30
 10
63.215015
 20
205.744506
 30
0.0
 41
2.0
 42
2.0
 43
2.0
 50
180.0
  0
INSERT
  5
1D15
100
AcDbEntity
  8
0
  6
BYBLOCK
 62
     1
100
AcDbBlockReference
  2
_OPEN30
 10
93.215015
 20
205.744506
 30
0.0
 41
2.0
 42
2.0
 43
2.0
  0
MTEXT
  5
1D16
100
AcDbEntity
  8
0
  6
BYBLOCK
 62
     3
100
AcDbMText
 10
78.215015
 20
208.244506
 30
0.0
 40
3.0
 41
0.0
 71
     5
 72
     1
  1
\A1;30
  0
POINT
  5
1D17
100
AcDbEntity
  8
DEFPOINTS
  6
BYBLOCK
 62
     0
100
AcDbPoint
 10
63.215015
 20
214.787204
 30
0.0
  0
POINT
  5
1D18
100
AcDbEntity
  8
DEFPOINTS
  6
BYBLOCK
 62
     0
100
AcDbPoint
 10
93.215015
 20
217.087204
 30
0.0
  0
POINT
  5
1D19
100
AcDbEntity
  8
DEFPOINTS
  6
BYBLOCK
 62
     0
100
AcDbPoint
 10
93.215015
 20
205.744506
 30
0.0
  0
ENDBLK
  5
1D1A
100
AcDbEntity
  8
0
100
AcDbBlockEnd
  0
ENDSEC
  0
SECTION
  2
ENTITIES
  0
TEXT
  5
1453
100
AcDbEntity
  8
外形
  6
CONTINUOUS
 62
     2
100
AcDbText
 10
81.945496
 20
150.213866
 30
0.0
 40
6.0
  1
BBPT508R
100
AcDbText
  0
LINE
  5
1950
100
AcDbEntity
  8
外形
  6
CENTER
 62
     1
100
AcDbLine
 10
43.562424
 20
220.587204
 30
0.0
 11
31.009327
 21
220.587204
 31
0.0
  0
ARC
  5
1956
100
AcDbEntity
  8
外形
  6
CONTINUOUS
100
AcDbCircle
 10
63.415015
 20
216.787204
 30
0.0
 40
0.2
100
AcDbArc
 50
177.0
 51
297.0
  0
LINE
  5
195A
100
AcDbEntity
  8
外形
  6
CONTINUOUS
100
AcDbLine
 10
69.033412
 20
219.762153
 30
0.0
 11
63.544204
 21
223.326886
 31
0.0
  0
ARC
  5
195B
100
AcDbEntity
  8
外形
  6
CONTINUOUS
100
AcDbCircle
 10
63.738631
 20
222.962151
 30
0.0
 40
0.2
100
AcDbArc
 50
57.0
 51
177.0
  0
ARC
  5
195C
100
AcDbEntity
  8
外形
  6
CONTINUOUS
100
AcDbCircle
 10
68.924484
 20
219.594418
 30
0.0
 40
0.2
100
AcDbArc
 50
297.0
 51
57.0
  0
LINE
  5
195F
100
AcDbEntity
  8
外形
  6
CONTINUOUS
100
AcDbLine
 10
163.215015
 20
223.587204
 30
0.0
 11
163.215015
 21
217.587204
 31
0.0
  0
LINE
  5
1960
100
AcDbEntity
  8
外形
  6
CENTER
 62
     1
100
AcDbLine
 10
62.684451
 20
219.921445
 30
0.0
 11
70.676778
 21
219.502585
 31
0.0
  0
LINE
  5
1962
100
AcDbEntity
  8
外形
  6
CENTER
 62
     1
100
AcDbLine
 10
67.677642
 20
219.900092
 30
0.0
 11
70.114927
 21
219.772359
 31
0.0
  0
LINE
  5
1963
100
AcDbEntity
  8
外形
  6
CENTER
 62
     1
100
AcDbLine
 10
68.934874
 20
221.130178
 30
0.0
 11
68.790846
 21
218.381966
 31
0.0
  0
ARC
  5
1964
100
AcDbEntity
  8
外形
  6
CONTINUOUS
100
AcDbCircle
 10
68.867141
 20
219.837753
 30
0.0
 40
1.0
100
AcDbArc
 50
267.0
 51
87.0
  0
LINE
  5
1969
100
AcDbEntity
  8
外形
  6
CENTER
 62
     1
100
AcDbLine
 10
65.61517
 20
222.560276
 30
0.0
 11
65.323282
 21
216.990726
 31
0.0
  0
LINE
  5
196C
100
AcDbEntity
  8
外形
  6
CONTINUOUS
100
AcDbLine
 10
65.059377
 20
217.087204
 30
0.0
 11
65.059377
 21
217.400583
 31
0.0
  0
LINE
  5
196D
100
AcDbEntity
  8
外形
  6
CONTINUOUS
100
AcDbLine
 10
63.58405
 20
224.087204
 30
0.0
 11
93.215015
 21
224.087204
 31
0.0
  0
LINE
  5
196E
100
AcDbEntity
  8
外形
  6
CONTINUOUS
100
AcDbLine
 10
65.059377
 20
217.087204
 30
0.0
 11
93.215015
 21
217.087204
 31
0.0
  0
LINE
  5
1971
100
AcDbEntity
  8
外形
  6
CONTINUOUS
100
AcDbLine
 10
63.21529
 20
216.797671
 30
0.0
 11
63.557034
 21
223.318554
 31
0.0
  0
LINE
  5
1972
100
AcDbEntity
  8
外形
  6
CONTINUOUS
100
AcDbLine
 10
63.505814
 20
216.609003
 30
0.0
 11
69.015282
 21
219.416217
 31
0.0
  0
LINE
  5
1995
100
AcDbEntity
  8
外形
  6
CONTINUOUS
100
AcDbLine
 10
67.244033
 20
220.924189
 30
0.0
 11
68.919477
 21
220.836383
 31
0.0
  0
LINE
  5
1996
100
AcDbEntity
  8
外形
  6
CONTINUOUS
100
AcDbLine
 10
67.969606
 20
218.883419
 30
0.0
 11
68.814805
 21
218.839124
 31
0.0
  0
LINE
  5
1998
100
AcDbEntity
  8
外形
  6
CENTER
 62
     1
100
AcDbLine
 10
37.285875
 20
226.863753
 30
0.0
 11
37.285875
 21
214.310655
 31
0.0
  0
ARC
  5
1999
100
AcDbEntity
  8
外形
  6
CONTINUOUS
100
AcDbCircle
 10
37.285875
 20
220.587204
 30
0.0
 40
3.5
100
AcDbArc
 50
271.717971
 51
245.458726
  0
LINE
  5
199A
100
AcDbEntity
  8
外形
  6
CONTINUOUS
100
AcDbLine
 10
37.266091
 20
216.502047
 30
0.0
 11
38.804671
 21
223.740497
 31
0.0
  0
LINE
  5
19A1
100
AcDbEntity
  8
外形
  6
CONTINUOUS
100
AcDbLine
 10
63.544204
 20
223.326886
 30
0.0
 11
63.58405
 21
224.087204
 31
0.0
  0
LINE
  5
19A2
100
AcDbEntity
  8
外形
  6
CONTINUOUS
100
AcDbLine
 10
37.112095
 20
223.42503
 30
0.0
 11
37.894613
 21
223.258701
 31
0.0
  0
LINE
  5
19A4
100
AcDbEntity
  8
外形
  6
CONTINUOUS
100
AcDbLine
 10
35.739759
 20
216.968694
 30
0.0
 11
37.266091
 21
216.502047
 31
0.0
  0
LINE
  5
19A8
100
AcDbEntity
  8
外形
  6
CONTINUOUS
100
AcDbLine
 10
36.634466
 20
221.17796
 30
0.0
 11
38.18972
 21
220.84738
 31
0.0
  0
LINE
  5
19A9
100
AcDbEntity
  8
外形
  6
CONTINUOUS
100
AcDbLine
 10
36.158568
 20
218.939039
 30
0.0
 11
37.713823
 21
218.608459
 31
0.0
  0
LINE
  5
19AA
100
AcDbEntity
  8
外形
  6
CONTINUOUS
100
AcDbLine
 10
36.502925
 20
216.73537
 30
0.0
 11
36.936196
 21
218.773749
 31
0.0
  0
LINE
  5
19AB
100
AcDbEntity
  8
外形
  6
CONTINUOUS
100
AcDbLine
 10
37.412093
 20
221.01267
 30
0.0
 11
37.889723
 21
223.259741
 31
0.0
  0
LINE
  5
19AE
100
AcDbEntity
  8
外形
  6
CONTINUOUS
100
AcDbLine
 10
37.894613
 20
223.258701
 30
0.0
 11
38.68172
 21
223.162056
 31
0.0
  0
LINE
  5
19B2
100
AcDbEntity
  8
外形
  6
CENTER
 62
     1
100
AcDbLine
 10
60.181471
 20
220.587204
 30
0.0
 11
171.001272
 21
220.587204
 31
0.0
  0
LINE
  5
19B8
100
AcDbEntity
  8
外形
  6
CONTINUOUS
100
AcDbLine
 10
65.285
 20
223.987366
 30
0.0
 11
63.578818
 21
223.987366
 31
0.0
  0
LINE
  5
19F2
100
AcDbEntity
  8
外形
  6
CONTINUOUS
100
AcDbLine
 10
68.749938
 20
217.187042
 30
0.0
 11
65.059377
 21
217.187042
 31
0.0
  0
SPLINE
  5
19FB
100
AcDbEntity
  8
外形
  6
CONTINUOUS
100
AcDbSpline
210
0.0
220
0.0
230
1.0
 70
     8
 71
     3
 72
    25
 73
    21
 74
    19
 42
0.0000001
 43
0.0000001
 44
0.0000000001
 40
0.0
 40
0.0
 40
0.0
 40
0.0
 40
2.774445138807342
 40
3.941226480098857
 40
4.855559981189141
 40
5.653857790986951
 40
6.407310710055339
 40
7.204153847033485
 40
8.082346002894913
 40
9.122005234958626
 40
10.93454927336358
 40
12.28254778968329
 40
12.86430289931016
 40
13.41370839045709
 40
13.93865196160211
 40
14.46648330843222
 40
15.0772252228703
 40
15.83925937397181
 40
16.88645506176485
 40
19.57168263940981
 40
19.57168263940981
 40
19.57168263940981
 40
19.57168263940981
 10
65.28499978239219
 20
223.9873656523655
 30
0.0
 10
66.21033677800483
 20
223.9768504828901
 30
0.0
 10
67.52482039100261
 20
223.9619132027113
 30
0.0
 10
69.13692243235466
 20
223.8041665478912
 30
0.0
 10
70.08464735170709
 20
223.6480330143972
 30
0.0
 10
70.88436177878499
 20
223.4537439348652
 30
0.0
 10
71.62642522076581
 20
223.2009482347073
 30
0.0
 10
72.37494182850402
 20
222.8951777344515
 30
0.0
 10
73.19204223220058
 20
222.4898784232425
 30
0.0
 10
74.20425546837293
 20
221.818498151517
 30
0.0
 10
75.44121974314094
 20
220.8143409408006
 30
0.0
 10
75.23642087146143
 20
219.5017615488902
 30
0.0
 10
75.15479393778164
 20
218.648533841357
 30
0.0
 10
74.70564823853476
 20
218.2742838782692
 30
0.0
 10
74.27944481597677
 20
217.9640983772866
 30
0.0
 10
73.78067114077919
 20
217.7108208019847
 30
0.0
 10
73.17531521928976
 20
217.5193266329932
 30
0.0
 10
72.38208464607057
 20
217.3653296408438
 30
0.0
 10
70.89071006997453
 20
217.2079462410843
 30
0.0
 10
69.6456643571255
 20
217.1957886790671
 30
0.0
 10
68.74993768150192
 20
217.1870421306497
 30
0.0
 11
65.28499978239219
 21
223.9873656523655
 31
0.0
 11
68.05806180526471
 21
223.8997708719625
 31
0.0
 11
69.21885845174372
 21
223.7817461122334
 31
0.0
 11
70.120470115041
 21
223.6297521655699
 31
0.0
 11
70.89548561542193
 21
223.4383615511259
 31
0.0
 11
71.60988229614119
 21
223.198927460341
 31
0.0
 11
72.3471268602469
 21
222.896554449565
 31
0.0
 11
73.13151906659104
 21
222.501648980822
 31
0.0
 11
74.00331583118577
 21
221.9352024078273
 31
0.0
 11
75.21501541901983
 21
220.5872038915076
 31
0.0
 11
75.21501541901983
 21
219.2392053751879
 31
0.0
 11
75.08243605592169
 21
218.6727588021931
 31
0.0
 11
74.70047262251572
 21
218.2778533334502
 31
0.0
 11
74.27136154687127
 21
217.9754803226741
 31
0.0
 11
73.80096039161492
 21
217.7360462318893
 31
0.0
 11
73.22098166894122
 21
217.5446556174452
 31
0.0
 11
72.47425957363223
 21
217.3926616707817
 31
0.0
 11
71.43373616465805
 21
217.2746369110527
 31
0.0
 11
68.74993768150192
 21
217.1870421306497
 31
0.0
  0
LINE
  5
19FC
100
AcDbEntity
  8
外形
  6
CONTINUOUS
100
AcDbLine
 10
75.215015
 20
180.894191
 30
0.0
 11
162.715015
 21
180.894191
 31
0.0
  0
LINE
  5
19FD
100
AcDbEntity
  8
外形
  6
CENTER
 62
     1
100
AcDbLine
 10
60.181471
 20
177.394191
 30
0.0
 11
171.001272
 21
177.394191
 31
0.0
  0
LINE
  5
19FE
100
AcDbEntity
  8
外形
  6
CONTINUOUS
100
AcDbLine
 10
63.58405
 20
173.894191
 30
0.0
 11
162.715015
 21
173.894191
 31
0.0
  0
LINE
  5
1A0B
100
AcDbEntity
  8
外形
  6
CONTINUOUS
100
AcDbLine
 10
63.215015
 20
177.394191
 30
0.0
 11
65.059377
 21
177.394191
 31
0.0
  0
LINE
  5
1A11
100
AcDbEntity
  8
外形
  6
CONTINUOUS
100
AcDbLine
 10
63.58405
 20
175.848074
 30
0.0
 11
63.58405
 21
173.894191
 31
0.0
  0
LINE
  5
1A15
100
AcDbEntity
  8
外形
  6
CONTINUOUS
100
AcDbLine
 10
63.306088
 20
175.848074
 30
0.0
 11
65.059377
 21
175.848074
 31
0.0
  0
LINE
  5
1A16
100
AcDbEntity
  8
外形
  6
CONTINUOUS
100
AcDbLine
 10
65.059377
 20
177.49912
 30
0.0
 11
68.749938
 21
177.49912
 31
0.0
  0
LINE
  5
1A17
100
AcDbEntity
  8
外形
  6
CONTINUOUS
100
AcDbLine
 10
65.059377
 20
175.848074
 30
0.0
 11
65.059377
 21
177.49912
 31
0.0
  0
LINE
  5
1A1C
100
AcDbEntity
  8
外形
  6
CONTINUOUS
100
AcDbLine
 10
63.215015
 20
177.394191
 30
0.0
 11
63.306088
 21
175.848074
 31
0.0
  0
LINE
  5
1A35
100
AcDbEntity
  8
外形
  6
CONTINUOUS
100
AcDbLine
 10
63.58405
 20
178.790035
 30
0.0
 11
63.58405
 21
178.912986
 31
0.0
  0
LINE
  5
1A3C
100
AcDbEntity
  8
外形
  6
CONTINUOUS
100
AcDbLine
 10
63.58405
 20
178.790035
 30
0.0
 11
63.215015
 21
177.394191
 31
0.0
  0
LINE
  5
1A4F
100
AcDbEntity
  8
外形
  6
CONTINUOUS
100
AcDbLine
 10
69.124484
 20
177.997518
 30
0.0
 11
63.215015
 21
177.394191
 31
0.0
  0
LINE
  5
1A50
100
AcDbEntity
  8
外形
  6
CONTINUOUS
100
AcDbLine
 10
63.215015
 20
177.394191
 30
0.0
 11
63.58405
 21
178.790035
 31
0.0
  0
LINE
  5
1A51
100
AcDbEntity
  8
外形
  6
CONTINUOUS
100
AcDbLine
 10
63.58405
 20
178.790035
 30
0.0
 11
69.124484
 21
177.997518
 31
0.0
  0
LINE
  5
1A53
100
AcDbEntity
  8
外形
  6
CONTINUOUS
100
AcDbLine
 10
63.58405
 20
178.912986
 30
0.0
 11
65.285
 21
178.912986
 31
0.0
  0
SPLINE
  5
1A85
100
AcDbEntity
  8
外形
  6
CONTINUOUS
100
AcDbSpline
210
0.0
220
0.0
230
1.0
 70
     8
 71
     3
 72
    14
 73
    10
 74
     8
 42
0.0000001
 43
0.0000001
 44
0.0000000001
 40
0.0
 40
0.0
 40
0.0
 40
0.0
 40
1.001395679350992
 40
2.008442763708436
 40
3.032776278735913
 40
4.090554550968828
 40
5.21593797040655
 40
6.480351212235937
 40
7.923852392039369
 40
7.923852392039369
 40
7.923852392039369
 40
7.923852392039369
 10
68.74993768150469
 20
177.4991196478424
 30
0.0
 10
69.08346991965323
 20
177.5127497195353
 30
0.0
 10
69.75241669462542
 20
177.5400867846186
 30
0.0
 10
70.75891099543031
 20
177.6540227225685
 30
0.0
 10
71.76409094736252
 20
177.8785226911301
 30
0.0
 10
72.78695888158733
 20
178.2182406370957
 30
0.0
 10
73.78237807573817
 20
178.762147006806
 30
0.0
 10
74.94487549820312
 20
179.4657579762751
 30
0.0
 10
75.12108425629164
 20
180.3975059525821
 30
0.0
 10
75.21501541901983
 20
180.8941905199871
 30
0.0
 11
68.74993768150469
 21
177.4991196478424
 31
0.0
 11
69.74993768150469
 21
177.5519713897516
 31
0.0
 11
70.74993768150469
 21
177.6708992254875
 31
0.0
 11
71.74993768150469
 21
177.8928432499814
 31
0.0
 11
72.74993768150469
 21
178.2376546088547
 31
0.0
 11
73.74993768150469
 21
178.7538792118574
 31
0.0
 11
74.74993768150469
 21
179.5276626738889
 31
0.0
 11
75.21501541901983
 21
180.8941905199871
 31
0.0
  0
SPLINE
  5
1A8F
100
AcDbEntity
  8
外形
  6
CONTINUOUS
100
AcDbSpline
210
0.0
220
0.0
230
1.0
 70
     8
 71
     3
 72
    14
 73
    10
 74
     8
 42
0.0000001
 43
0.0000001
 44
0.0000000001
 40
0.0
 40
0.0
 40
0.0
 40
0.0
 40
0.4760796876357322
 40
1.502734553753267
 40
2.546126103506728
 40
3.602004608866803
 40
4.650986581035295
 40
5.686401385663313
 40
10.17152370905724
 40
10.17152370905724
 40
10.17152370905724
 40
10.17152370905724
 10
75.21501541901983
 20
180.8941905199871
 30
0.0
 10
75.06000129587718
 20
180.8602635055053
 30
0.0
 10
74.57070279141243
 20
180.7531736667838
 30
0.0
 10
73.74107329569207
 20
180.5721275384329
 30
0.0
 10
72.74346234171524
 20
180.2681600687719
 30
0.0
 10
71.75384354303514
 20
179.9187253298404
 30
0.0
 10
70.75642791302001
 20
179.6018584173474
 30
0.0
 10
68.64267258381595
 20
179.0137930304512
 30
0.0
 10
66.79010529886939
 20
178.9581738384088
 30
0.0
 10
65.28499978239219
 20
178.91298640935
 30
0.0
 11
75.21501541901983
 21
180.8941905199871
 31
0.0
 11
74.74993768150469
 21
180.7924331269037
 31
0.0
 11
73.74993768150469
 21
180.5600106363336
 31
0.0
 11
72.74993768150469
 21
180.2622423940764
 31
0.0
 11
71.74993768150469
 21
179.9233037298886
 31
0.0
 11
70.74993768150469
 21
179.6065022495661
 31
0.0
 11
69.74993768150469
 21
179.3380179527388
 31
0.0
 11
65.28499978239219
 21
178.91298640935
 31
0.0
  0
LINE
  5
1A93
100
AcDbEntity
  8
外形
  6
CONTINUOUS
100
AcDbLine
 10
93.715015
 20
224.587204
 30
0.0
 11
142.704019
 21
224.587204
 31
0.0
  0
LINE
  5
1A94
100
AcDbEntity
  8
外形
  6
CONTINUOUS
100
AcDbLine
 10
93.715015
 20
216.587204
 30
0.0
 11
142.704019
 21
216.587204
 31
0.0
  0
LINE
  5
1A97
100
AcDbEntity
  8
外形
  6
CENTER
 62
     1
100
AcDbLine
 10
147.563382
 20
214.531748
 30
0.0
 11
147.563382
 21
227.08233
 31
0.0
  0
ARC
  5
1A98
100
AcDbEntity
  8
外形
  6
CONTINUOUS
100
AcDbCircle
 10
147.563382
 20
220.587204
 30
0.0
 40
4.0
100
AcDbArc
 50
208.955024
 51
331.044976
  0
LINE
  5
1A99
100
AcDbEntity
  8
外形
  6
CONTINUOUS
100
AcDbLine
 10
144.063382
 20
222.523696
 30
0.0
 11
144.063382
 21
218.650712
 31
0.0
  0
LINE
  5
1A9A
100
AcDbEntity
  8
外形
  6
CONTINUOUS
100
AcDbLine
 10
151.063382
 20
218.650712
 30
0.0
 11
151.063382
 21
222.523696
 31
0.0
  0
ARC
  5
1A9B
100
AcDbEntity
  8
外形
  6
CONTINUOUS
100
AcDbCircle
 10
147.563382
 20
220.587204
 30
0.0
 40
4.0
100
AcDbArc
 50
28.955024
 51
151.044976
  0
LINE
  5
1A9C
100
AcDbEntity
  8
外形
  6
CONTINUOUS
100
AcDbLine
 10
93.715015
 20
222.523696
 30
0.0
 11
142.704019
 21
222.523696
 31
0.0
  0
LINE
  5
1A9D
100
AcDbEntity
  8
外形
  6
CONTINUOUS
100
AcDbLine
 10
93.715015
 20
218.650712
 30
0.0
 11
142.704019
 21
218.650712
 31
0.0
  0
LINE
  5
1AA3
100
AcDbEntity
  8
外形
  6
CONTINUOUS
100
AcDbLine
 10
152.568897
 20
222.523696
 30
0.0
 11
162.215015
 21
222.523696
 31
0.0
  0
LINE
  5
1AA4
100
AcDbEntity
  8
外形
  6
CONTINUOUS
100
AcDbLine
 10
152.568897
 20
218.650712
 30
0.0
 11
162.215015
 21
218.650712
 31
0.0
  0
LINE
  5
1AA5
100
AcDbEntity
  8
外形
  6
CONTINUOUS
100
AcDbLine
 10
152.568897
 20
224.587204
 30
0.0
 11
162.215015
 21
224.587204
 31
0.0
  0
LINE
  5
1AA6
100
AcDbEntity
  8
外形
  6
CONTINUOUS
100
AcDbLine
 10
152.568897
 20
216.587204
 30
0.0
 11
162.215015
 21
216.587204
 31
0.0
  0
LINE
  5
1AAA
100
AcDbEntity
  8
外形
  6
CONTINUOUS
100
AcDbLine
 10
162.215015
 20
224.587204
 30
0.0
 11
162.215015
 21
222.523696
 31
0.0
  0
LINE
  5
1AAB
100
AcDbEntity
  8
外形
  6
CONTINUOUS
100
AcDbLine
 10
162.215015
 20
216.587204
 30
0.0
 11
163.215015
 21
217.587204
 31
0.0
  0
LINE
  5
1AAC
100
AcDbEntity
  8
外形
  6
CONTINUOUS
100
AcDbLine
 10
162.215015
 20
224.587204
 30
0.0
 11
163.215015
 21
223.587204
 31
0.0
  0
ELLIPSE
  5
1AAE
100
AcDbEntity
  8
外形
  6
CONTINUOUS
100
AcDbEllipse
 10
162.215015
 20
220.587204
 30
0.0
 11
0.0
 21
1.936491673104285
 31
0.0
210
0.0
220
0.0
230
1.0
 40
0.258199
 41
3.141592653589793
 42
6.283185307179586
  0
LINE
  5
1AAF
100
AcDbEntity
  8
外形
  6
CONTINUOUS
100
AcDbLine
 10
162.215015
 20
218.650712
 30
0.0
 11
162.215015
 21
216.587204
 31
0.0
  0
LINE
  5
1AB2
100
AcDbEntity
  8
外形
  6
CONTINUOUS
100
AcDbLine
 10
162.215015
 20
180.894191
 30
0.0
 11
162.215015
 21
173.894191
 31
0.0
  0
LINE
  5
1AB3
100
AcDbEntity
  8
外形
  6
CONTINUOUS
100
AcDbLine
 10
162.715015
 20
173.894191
 30
0.0
 11
163.215015
 21
174.394191
 31
0.0
  0
LINE
  5
1AB6
100
AcDbEntity
  8
外形
  6
CONTINUOUS
100
AcDbLine
 10
162.715015
 20
180.894191
 30
0.0
 11
163.215015
 21
180.394191
 31
0.0
  0
LINE
  5
1AB7
100
AcDbEntity
  8
外形
  6
CONTINUOUS
100
AcDbLine
 10
163.215015
 20
180.394191
 30
0.0
 11
163.215015
 21
174.394191
 31
0.0
  0
ARC
  5
1AD8
100
AcDbEntity
  8
外形
  6
CONTINUOUS
100
AcDbCircle
 10
65.359377
 20
220.48532
 30
0.0
 40
0.2
100
AcDbArc
 50
240.283476
 51
299.716524
  0
ARC
  5
1AD9
100
AcDbEntity
  8
外形
  6
CONTINUOUS
100
AcDbCircle
 10
64.749641
 20
220.133289
 30
0.0
 40
0.2
100
AcDbArc
 50
300.283476
 51
359.716524
  0
ARC
  5
1ADA
100
AcDbEntity
  8
外形
  6
CONTINUOUS
100
AcDbCircle
 10
64.749641
 20
219.429227
 30
0.0
 40
0.2
100
AcDbArc
 50
0.283476
 51
59.716524
  0
ARC
  5
1ADB
100
AcDbEntity
  8
外形
  6
CONTINUOUS
100
AcDbCircle
 10
65.359377
 20
219.077196
 30
0.0
 40
0.2
100
AcDbArc
 50
60.283476
 51
119.716524
  0
ARC
  5
1ADC
100
AcDbEntity
  8
外形
  6
CONTINUOUS
100
AcDbCircle
 10
65.969112
 20
219.429227
 30
0.0
 40
0.2
100
AcDbArc
 50
120.283476
 51
179.716524
  0
ARC
  5
1ADD
100
AcDbEntity
  8
外形
  6
CONTINUOUS
100
AcDbCircle
 10
65.969112
 20
220.133289
 30
0.0
 40
0.2
100
AcDbArc
 50
180.283476
 51
239.716524
  0
LINE
  5
1ADE
100
AcDbEntity
  8
外形
  6
CONTINUOUS
100
AcDbLine
 10
65.767355
 20
219.074618
 30
0.0
 11
65.458519
 21
219.250893
 31
0.0
  0
LINE
  5
1ADF
100
AcDbEntity
  8
外形
  6
CONTINUOUS
100
AcDbLine
 10
65.769115
 20
219.430216
 30
0.0
 11
65.767355
 21
219.074618
 31
0.0
  0
LINE
  5
1AE0
100
AcDbEntity
  8
外形
  6
CONTINUOUS
100
AcDbLine
 10
64.951398
 20
219.074618
 30
0.0
 11
64.949639
 21
219.430216
 31
0.0
  0
LINE
  5
1AE1
100
AcDbEntity
  8
外形
  6
CONTINUOUS
100
AcDbLine
 10
65.260235
 20
219.250893
 30
0.0
 11
64.951398
 21
219.074618
 31
0.0
  0
LINE
  5
1AE2
100
AcDbEntity
  8
外形
  6
CONTINUOUS
100
AcDbLine
 10
64.543419
 20
219.781258
 30
0.0
 11
64.850497
 21
219.960581
 31
0.0
  0
LINE
  5
1AE3
100
AcDbEntity
  8
外形
  6
CONTINUOUS
100
AcDbLine
 10
64.850497
 20
219.601935
 30
0.0
 11
64.543419
 21
219.781258
 31
0.0
  0
LINE
  5
1AE4
100
AcDbEntity
  8
外形
  6
CONTINUOUS
100
AcDbLine
 10
64.951398
 20
220.487898
 30
0.0
 11
65.260235
 21
220.311622
 31
0.0
  0
LINE
  5
1AE5
100
AcDbEntity
  8
外形
  6
CONTINUOUS
100
AcDbLine
 10
64.949639
 20
220.132299
 30
0.0
 11
64.951398
 21
220.487898
 31
0.0
  0
LINE
  5
1AE6
100
AcDbEntity
  8
外形
  6
CONTINUOUS
100
AcDbLine
 10
65.767355
 20
220.487898
 30
0.0
 11
65.769115
 21
220.132299
 31
0.0
  0
LINE
  5
1AE7
100
AcDbEntity
  8
外形
  6
CONTINUOUS
100
AcDbLine
 10
65.458519
 20
220.311622
 30
0.0
 11
65.767355
 21
220.487898
 31
0.0
  0
LINE
  5
1AE8
100
AcDbEntity
  8
外形
  6
CONTINUOUS
100
AcDbLine
 10
66.175334
 20
219.781258
 30
0.0
 11
65.868257
 21
219.601935
 31
0.0
  0
LINE
  5
1AE9
100
AcDbEntity
  8
外形
  6
CONTINUOUS
100
AcDbLine
 10
65.868257
 20
219.960581
 30
0.0
 11
66.175334
 21
219.781258
 31
0.0
  0
CIRCLE
  5
1AEA
100
AcDbEntity
  8
外形
  6
CONTINUOUS
100
AcDbCircle
 10
65.359377
 20
219.781258
 30
0.0
 40
1.35
  0
DIMENSION
  5
1B13
100
AcDbEntity
  8
寸法
  6
CONTINUOUS
100
AcDbDimension
  2
*D2
 10
163.215015
 20
195.820394
 30
0.0
 11
113.215015
 21
198.320394
 31
0.0
 12
19.624648
 22
-116.242663
 32
0.0
 70
    32
  3
STANDARD
100
AcDbAlignedDimension
 13
63.215015
 23
215.787204
 33
0.0
 14
163.215015
 24
217.587204
 34
0.0
100
AcDbRotatedDimension
1001
ACAD
1000
DSTYLE
1002
{
1070
   284
1070
    13
1070
   146
1040
0.5
1070
   272
1070
     3
1070
    40
1040
1.0
1070
   287
1070
     0
1002
}
  0
DIMENSION
  5
1B36
100
AcDbEntity
  8
寸法
  6
CONTINUOUS
100
AcDbDimension
  2
*D3
 10
151.063382
 20
204.072781
 30
0.0
 11
147.563382
 21
206.572781
 31
0.0
 12
19.624648
 22
-116.242663
 32
0.0
 70
    32
  3
STANDARD
100
AcDbAlignedDimension
 13
144.063382
 23
218.650712
 33
0.0
 14
151.063382
 24
218.650712
 34
0.0
100
AcDbRotatedDimension
1001
ACAD
1000
DSTYLE
1002
{
1070
   284
1070
    13
1070
   146
1040
0.5
1070
   272
1070
     3
1070
    40
1040
1.0
1070
   287
1070
     0
1002
}
  0
DIMENSION
  5
1B4C
100
AcDbEntity
  8
寸法
  6
CONTINUOUS
100
AcDbDimension
  2
*D4
 10
145.723515
 20
217.035459
 30
0.0
 11
152.975781
 21
231.03549
 31
0.0
 12
19.624648
 22
-116.242663
 32
0.0
 70
   163
  3
STANDARD
100
AcDbDiametricDimension
 15
149.403249
 25
224.138948
 35
0.0
 40
0.0
1001
ACAD
1000
DSTYLE
1002
{
1070
   284
1070
    13
1070
   146
1040
0.5
1070
   272
1070
     3
1070
    40
1040
1.0
1070
   287
1070
     0
1002
}
  0
DIMENSION
  5
1B63
100
AcDbEntity
  8
寸法
  6
CONTINUOUS
100
AcDbDimension
  2
*D5
 10
56.594424
 20
220.587204
 30
0.0
 11
56.594424
 21
210.587204
 31
0.0
 70
   160
  3
STANDARD
100
AcDbAlignedDimension
 13
63.415015
 23
216.587204
 33
0.0
 14
60.181471
 24
220.587204
 34
0.0
 50
90.0
100
AcDbRotatedDimension
1001
ACAD
1000
DSTYLE
1002
{
1070
   284
1070
    13
1070
   146
1040
0.5
1070
   272
1070
     3
1070
    40
1040
1.0
1070
   287
1070
     0
1002
}
  0
MTEXT
  5
1B93
100
AcDbEntity
  8
寸法
  6
BYBLOCK
 62
     3
100
AcDbMText
 10
47.999687
 20
234.530707
 30
0.0
 40
3.0
 41
0.0
 71
     5
 72
     1
  1
最小加工径
 11
0.499856
 21
0.866109
 31
0.0
  0
DIMENSION
  5
1BC6
100
AcDbEntity
  8
寸法
  6
CONTINUOUS
100
AcDbDimension
  2
*D6
 10
38.804671
 20
223.740497
 30
0.0
 11
27.383419
 21
211.407358
 31
0.0
 12
19.624648
 22
-116.242663
 32
0.0
 70
    34
  3
STANDARD
100
AcDb2LineAngularDimension
 13
37.285875
 23
226.863753
 33
0.0
 14
37.285875
 24
214.310655
 34
0.0
 15
37.266091
 25
216.502047
 35
0.0
 16
36.444839
 26
204.567739
 36
0.0
1001
ACAD
1000
DSTYLE
1002
{
1070
   284
1070
    13
1070
   146
1040
0.5
1070
   272
1070
     3
1070
    40
1040
1.0
1070
   287
1070
     0
1002
}
  0
LINE
  5
1C24
100
AcDbEntity
  8
外形
  6
CONTINUOUS
100
AcDbLine
 10
35.739759
 20
216.968694
 30
0.0
 11
37.112095
 21
223.42503
 31
0.0
  0
CIRCLE
  5
1C85
100
AcDbEntity
  8
寸法
  6
PHANTOM
100
AcDbCircle
 10
37.246307
 20
220.501998
 30
0.0
 40
4.0
  0
DIMENSION
  5
1C93
100
AcDbEntity
  8
寸法
  6
CONTINUOUS
100
AcDbDimension
  2
*D12
 10
35.190668
 20
217.070621
 30
0.0
 11
45.23007
 21
233.828901
 31
0.0
 70
   163
  3
STANDARD
100
AcDbDiametricDimension
 15
39.301946
 25
223.933375
 35
0.0
 40
0.0
1001
ACAD
1000
DSTYLE
1002
{
1070
   284
1070
    13
1070
   146
1040
0.5
1070
   272
1070
     3
1070
    40
1040
1.0
1070
   287
1070
     0
1002
}
  0
LINE
  5
1C9E
100
AcDbEntity
  8
寸法
  6
CONTINUOUS
100
AcDbLine
 10
63.415015
 20
216.587204
 30
0.0
 11
49.501237
 21
216.587204
 31
0.0
  0
DIMENSION
  5
1CAE
100
AcDbEntity
  8
寸法
  6
CONTINUOUS
100
AcDbDimension
  2
*D13
 10
50.80087
 20
216.587204
 30
0.0
 11
50.968121
 21
229.481403
 31
0.0
 70
    34
  3
STANDARD
100
AcDb2LineAngularDimension
 13
63.21529
 23
216.797671
 33
0.0
 14
63.557034
 24
223.318554
 34
0.0
 15
63.415015
 25
216.587204
 35
0.0
 16
56.032648
 26
230.075044
 36
0.0
1001
ACAD
1000
DSTYLE
1002
{
1070
   284
1070
    13
1070
   146
1040
0.5
1070
   272
1070
     3
1070
    40
1040
1.0
1070
   287
1070
     0
1002
}
  0
LINE
  5
1CE0
100
AcDbEntity
  8
外形
  6
CONTINUOUS
100
AcDbLine
 10
93.215015
 20
224.087204
 30
0.0
 11
93.215015
 21
217.087204
 31
0.0
  0
LINE
  5
1CE1
100
AcDbEntity
  8
外形
  6
CONTINUOUS
100
AcDbLine
 10
93.215015
 20
224.087204
 30
0.0
 11
93.715015
 21
224.587204
 31
0.0
  0
LINE
  5
1CE2
100
AcDbEntity
  8
外形
  6
CONTINUOUS
100
AcDbLine
 10
93.215015
 20
217.087204
 30
0.0
 11
93.715015
 21
216.587204
 31
0.0
  0
LINE
  5
1CE3
100
AcDbEntity
  8
外形
  6
CONTINUOUS
100
AcDbLine
 10
93.715015
 20
224.587204
 30
0.0
 11
93.715015
 21
222.523696
 31
0.0
  0
ELLIPSE
  5
1CE4
100
AcDbEntity
  8
外形
  6
CONTINUOUS
100
AcDbEllipse
 10
93.715015
 20
220.587204
 30
0.0
 11
0.0
 21
1.936491673104285
 31
0.0
210
0.0
220
0.0
230
1.0
 40
0.258199
 41
0.0
 42
3.141592653589793
  0
LINE
  5
1CE5
100
AcDbEntity
  8
外形
  6
CONTINUOUS
100
AcDbLine
 10
93.715015
 20
218.650712
 30
0.0
 11
93.715015
 21
216.587204
 31
0.0
  0
LINE
  5
1CE6
100
AcDbEntity
  8
外形
  6
CONTINUOUS
100
AcDbLine
 10
93.715015
 20
173.894191
 30
0.0
 11
93.715015
 21
180.894191
 31
0.0
  0
LINE
  5
1CE7
100
AcDbEntity
  8
外形
  6
CONTINUOUS
100
AcDbLine
 10
93.215015
 20
173.894191
 30
0.0
 11
93.215015
 21
180.894191
 31
0.0
  0
DIMENSION
  5
1D04
100
AcDbEntity
  8
寸法
  6
CONTINUOUS
100
AcDbDimension
  2
*D14
 10
93.215015
 20
205.744506
 30
0.0
 11
78.215015
 21
208.244506
 31
0.0
 70
    32
  3
STANDARD
100
AcDbAlignedDimension
 13
63.215015
 23
214.787204
 33
0.0
 14
93.215015
 24
217.087204
 34
0.0
100
AcDbRotatedDimension
1001
ACAD
1000
DSTYLE
1002
{
1070
   284
1070
    13
1070
   146
1040
0.5
1070
   272
1070
     3
1070
    40
1040
1.0
1070
   287
1070
     0
1002
}
  0
ENDSEC
  0
SECTION
  2
OBJECTS
  0
DICTIONARY
  5
1E
100
AcDbDictionary
  3
ACAD_GROUP
350
1C
  3
ACAD_MLINESTYLE
350
1D
  3
ACDBVARIABLEDICTIONARY
350
147A
  3
DRAWINGVARIABLESDICT
350
C58
  0
DICTIONARY
  5
38
100
AcDbDictionary
280
     1
  3
ACAD_XREC_ROUNDTRIP
360
39
  0
DICTIONARY
  5
22
100
AcDbDictionary
280
     1
  3
ACAD_XREC_ROUNDTRIP
360
23
  0
DICTIONARY
  5
3
100
AcDbDictionary
280
     1
  3
ACAD_LAYOUTSELFREF
360
4
  0
DICTIONARY
  5
A
100
AcDbDictionary
280
     1
  3
ACAD_LAYOUTSELFREF
360
B
  0
DICTIONARY
  5
1C
102
{ACAD_REACTORS
330
1E
102
}
100
AcDbDictionary
  0
DICTIONARY
  5
1D
102
{ACAD_REACTORS
330
1E
102
}
100
AcDbDictionary
  3
STANDARD
350
20
  0
DICTIONARY
  5
147A
102
{ACAD_REACTORS
330
1E
102
}
100
AcDbDictionary
  3
SORTENTS
350
147B
  0
DICTIONARY
  5
C58
102
{ACAD_REACTORS
330
1E
102
}
100
AcDbDictionary
1001
DRAWINGVARIABLESXDATA
1000
POLARMODE
1000
0
  0
XRECORD
  5
39
102
{ACAD_REACTORS
330
38
102
}
100
AcDbXrecord
102
PLOTBIT
280
     0
  0
XRECORD
  5
23
102
{ACAD_REACTORS
330
22
102
}
100
AcDbXrecord
102
ACADR14ROUNDTRIP
1000
DSTYLE
1002
{
1070
   341
340
0
1070
   343
340
0
1070
   344
340
0
1002
}
  0
XRECORD
  5
4
102
{ACAD_REACTORS
330
3
102
}
100
AcDbXrecord
340
2
  0
XRECORD
  5
B
102
{ACAD_REACTORS
330
A
102
}
100
AcDbXrecord
340
9
  0
MLINESTYLE
  5
20
102
{ACAD_REACTORS
330
1D
102
}
100
AcDbMlineStyle
  2
STANDARD
 70
     0
  3

 62
     0
 51
90.0
 52
90.0
 71
     2
 49
0.5
 62
   256
  6
BYLAYER
 49
-0.5
 62
   256
  6
BYLAYER
  0
DICTIONARYVAR
  5
147B
102
{ACAD_REACTORS
330
147A
102
}
100
DictionaryVariables
280
     0
  1
96
  0
ENDSEC
  0
EOF
