  0
SECTION
  2
HEADER
  9
$ACADVER
  1
AC1014
  9
$ACADMAINTVER
 70
     0
  9
$DWGCODEPAGE
  3
ANSI_932
  9
$INSBASE
 10
-587.250952
 20
747.890188
 30
0.0
  9
$EXTMIN
 10
10.409244
 20
150.213866
 30
0.0
  9
$EXTMAX
 10
167.535267
 20
242.121123
 30
0.0
  9
$LIMMIN
 10
-587.250952
 20
327.890188
  9
$LIMMAX
 10
600.749048
 20
957.890188
  9
$ORTHOMODE
 70
     1
  9
$REGENMODE
 70
     1
  9
$FILLMODE
 70
     1
  9
$QTEXTMODE
 70
     0
  9
$MIRRTEXT
 70
     1
  9
$DRAGMODE
 70
     2
  9
$LTSCALE
 40
5.0
  9
$OSMODE
 70
    37
  9
$ATTMODE
 70
     1
  9
$TEXTSIZE
 40
5.0
  9
$TRACEWID
 40
0.05
  9
$TEXTSTYLE
  7
STANDARD
  9
$CLAYER
  8
寸法
  9
$CELTYPE
  6
CONTINUOUS
  9
$CECOLOR
 62
   256
  9
$CELTSCALE
 40
1.0
  9
$DELOBJ
 70
     1
  9
$DISPSILH
 70
     0
  9
$DIMSCALE
 40
0.0
  9
$DIMASZ
 40
2.0
  9
$DIMEXO
 40
1.0
  9
$DIMDLI
 40
8.0
  9
$DIMRND
 40
0.0
  9
$DIMDLE
 40
0.0
  9
$DIMEXE
 40
2.0
  9
$DIMTP
 40
0.0
  9
$DIMTM
 40
0.0
  9
$DIMTXT
 40
3.0
  9
$DIMCEN
 40
-1.0
  9
$DIMTSZ
 40
0.0
  9
$DIMTOL
 70
     0
  9
$DIMLIM
 70
     0
  9
$DIMTIH
 70
     0
  9
$DIMTOH
 70
     0
  9
$DIMSE1
 70
     0
  9
$DIMSE2
 70
     0
  9
$DIMTAD
 70
     1
  9
$DIMZIN
 70
     8
  9
$DIMBLK
  1

  9
$DIMASO
 70
     1
  9
$DIMSHO
 70
     1
  9
$DIMPOST
  1

  9
$DIMAPOST
  1

  9
$DIMALT
 70
     0
  9
$DIMALTD
 70
     2
  9
$DIMALTF
 40
25.4
  9
$DIMLFAC
 40
1.0
  9
$DIMTOFL
 70
     1
  9
$DIMTVP
 40
0.0
  9
$DIMTIX
 70
     0
  9
$DIMSOXD
 70
     0
  9
$DIMSAH
 70
     1
  9
$DIMBLK1
  1
_OPEN30
  9
$DIMBLK2
  1
_OPEN30
  9
$DIMSTYLE
  2
STANDARD
  9
$DIMCLRD
 70
     1
  9
$DIMCLRE
 70
     1
  9
$DIMCLRT
 70
     3
  9
$DIMTFAC
 40
1.0
  9
$DIMGAP
 40
1.0
  9
$DIMJUST
 70
     0
  9
$DIMSD1
 70
     0
  9
$DIMSD2
 70
     0
  9
$DIMTOLJ
 70
     1
  9
$DIMTZIN
 70
     8
  9
$DIMALTZ
 70
     0
  9
$DIMALTTZ
 70
     0
  9
$DIMFIT
 70
     3
  9
$DIMUPT
 70
     0
  9
$DIMUNIT
 70
     2
  9
$DIMDEC
 70
     2
  9
$DIMTDEC
 70
     2
  9
$DIMALTU
 70
     2
  9
$DIMALTTD
 70
     2
  9
$DIMTXSTY
  7
STANDARD
  9
$DIMAUNIT
 70
     0
  9
$LUNITS
 70
     2
  9
$LUPREC
 70
     0
  9
$SKETCHINC
 40
0.1
  9
$FILLETRAD
 40
0.0
  9
$AUNITS
 70
     0
  9
$AUPREC
 70
     0
  9
$MENU
  1
acad
  9
$ELEVATION
 40
0.0
  9
$PELEVATION
 40
0.0
  9
$THICKNESS
 40
0.0
  9
$LIMCHECK
 70
     0
  9
$BLIPMODE
 70
     0
  9
$CHAMFERA
 40
0.0
  9
$CHAMFERB
 40
0.0
  9
$CHAMFERC
 40
0.0
  9
$CHAMFERD
 40
0.0
  9
$SKPOLY
 70
     0
  9
$TDCREATE
 40
2450751.535399305
  9
$TDUPDATE
 40
2451997.825277778
  9
$TDINDWG
 40
1.7607348380
  9
$TDUSRTIMER
 40
1.7607348380
  9
$USRTIMER
 70
     1
  9
$ANGBASE
 50
0.0
  9
$ANGDIR
 70
     0
  9
$PDMODE
 70
    32
  9
$PDSIZE
 40
0.0
  9
$PLINEWID
 40
0.0
  9
$COORDS
 70
     2
  9
$SPLFRAME
 70
     0
  9
$SPLINETYPE
 70
     5
  9
$SPLINESEGS
 70
     8
  9
$ATTDIA
 70
     0
  9
$ATTREQ
 70
     1
  9
$HANDLING
 70
     1
  9
$HANDSEED
  5
1D89
  9
$SURFTAB1
 70
     6
  9
$SURFTAB2
 70
     6
  9
$SURFTYPE
 70
     6
  9
$SURFU
 70
     6
  9
$SURFV
 70
     6
  9
$UCSNAME
  2

  9
$UCSORG
 10
40.53800450572526
 20
146.9196145921314
 30
0.0
  9
$UCSXDIR
 10
1.0
 20
0.0
 30
0.0
  9
$UCSYDIR
 10
0.0
 20
1.0
 30
0.0
  9
$PUCSNAME
  2

  9
$PUCSORG
 10
0.0
 20
0.0
 30
0.0
  9
$PUCSXDIR
 10
1.0
 20
0.0
 30
0.0
  9
$PUCSYDIR
 10
0.0
 20
1.0
 30
0.0
  9
$USERI1
 70
     0
  9
$USERI2
 70
     0
  9
$USERI3
 70
     0
  9
$USERI4
 70
     0
  9
$USERI5
 70
     0
  9
$USERR1
 40
0.0
  9
$USERR2
 40
0.0
  9
$USERR3
 40
0.0
  9
$USERR4
 40
0.0
  9
$USERR5
 40
0.0
  9
$WORLDVIEW
 70
     1
  9
$SHADEDGE
 70
     3
  9
$SHADEDIF
 70
    70
  9
$TILEMODE
 70
     1
  9
$MAXACTVP
 70
    16
  9
$PINSBASE
 10
0.0
 20
0.0
 30
0.0
  9
$PLIMCHECK
 70
     0
  9
$PEXTMIN
 10
1.000000E+20
 20
1.000000E+20
 30
1.000000E+20
  9
$PEXTMAX
 10
-1.000000E+20
 20
-1.000000E+20
 30
-1.000000E+20
  9
$PLIMMIN
 10
0.0
 20
0.0
  9
$PLIMMAX
 10
12.0
 20
9.0
  9
$UNITMODE
 70
     0
  9
$VISRETAIN
 70
     0
  9
$PLINEGEN
 70
     0
  9
$PSLTSCALE
 70
     1
  9
$TREEDEPTH
 70
  3020
  9
$PICKSTYLE
 70
     1
  9
$CMLSTYLE
  2
STANDARD
  9
$CMLJUST
 70
     0
  9
$CMLSCALE
 40
1.0
  9
$PROXYGRAPHICS
 70
     1
  9
$MEASUREMENT
 70
     0
  0
ENDSEC
  0
SECTION
  2
CLASSES
  0
CLASS
  1
LWPOLYLINE
  2
AcDbPolyline
  3
"AutoCAD"
 90
        0
280
     0
281
     1
  0
CLASS
  1
ACDBDICTIONARYWDFLT
  2
AcDbDictionaryWithDefault
  3
AutoCAD 2000
 90
        0
280
     1
281
     0
  0
CLASS
  1
ACDBPLACEHOLDER
  2
AcDbPlaceHolder
  3
AutoCAD 2000
 90
        0
280
     1
281
     0
  0
CLASS
  1
LAYOUT
  2
AcDbLayout
  3
AutoCAD 2000
 90
        0
280
     1
281
     0
  0
CLASS
  1
LONG_TRANSACTION
  2
AcDbLongTransaction
  3
AutoCAD 2000
 90
        0
280
     1
281
     0
  0
CLASS
  1
LWPOLYLINE
  2
AcDbPolyline
  3
"AutoCAD"
 90
        0
280
     0
281
     1
  0
CLASS
  1
HATCH
  2
AcDbHatch
  3
"ACAD_SEDONA"
 90
        0
280
     0
281
     1
  0
CLASS
  1
XRECORD
  2
AcDbXrecord
  3
"<Built In>"
 90
        0
280
     0
281
     0
  0
CLASS
  1
DICTIONARYVAR
  2
AcDbDictionaryVar
  3
"AutoCAD"
 90
        0
280
     0
281
     0
  0
ENDSEC
  0
SECTION
  2
TABLES
  0
TABLE
  2
VPORT
  5
16
100
AcDbSymbolTable
 70
     1
  0
VPORT
  5
1D84
100
AcDbSymbolTableRecord
100
AcDbViewportTableRecord
  2
*ACTIVE
 70
     0
 10
0.0
 20
0.0
 11
1.0
 21
1.0
 12
101.277766
 22
194.248106
 13
0.0
 23
0.0
 14
1.0
 24
1.0
 15
10.0
 25
10.0
 16
0.0
 26
0.0
 36
1.0
 17
0.0
 27
0.0
 37
0.0
 40
145.630048
 41
1.710425
 42
50.0
 43
0.0
 44
0.0
 50
0.0
 51
0.0
 71
     0
 72
   100
 73
     1
 74
     1
 75
     0
 76
     0
 77
     0
 78
     2
  0
ENDTAB
  0
TABLE
  2
LTYPE
  5
11
100
AcDbSymbolTable
 70
     2
  0
LTYPE
  5
12
100
AcDbSymbolTableRecord
100
AcDbLinetypeTableRecord
  2
BYBLOCK
 70
     0
  3

 72
    65
 73
     0
 40
0.0
  0
LTYPE
  5
13
100
AcDbSymbolTableRecord
100
AcDbLinetypeTableRecord
  2
BYLAYER
 70
     0
  3

 72
    65
 73
     0
 40
0.0
  0
LTYPE
  5
7
100
AcDbSymbolTableRecord
100
AcDbLinetypeTableRecord
  2
CONTINUOUS
 70
     0
  3
Solid line
 72
    65
 73
     0
 40
0.0
  0
LTYPE
  5
AA
100
AcDbSymbolTableRecord
100
AcDbLinetypeTableRecord
  2
CENTER
 70
     0
  3
Center ____ _ ____ _ ____ _ ____ _ ____ _ ____
 72
    65
 73
     4
 40
2.0
 49
1.25
 74
     0
 49
-0.25
 74
     0
 49
0.25
 74
     0
 49
-0.25
 74
     0
  0
ENDTAB
  0
TABLE
  2
LAYER
  5
E
100
AcDbSymbolTable
 70
     4
  0
LAYER
  5
6
100
AcDbSymbolTableRecord
100
AcDbLayerTableRecord
  2
0
 70
     0
 62
     7
  6
CONTINUOUS
  0
LAYER
  5
2C
100
AcDbSymbolTableRecord
100
AcDbLayerTableRecord
  2
外形
 70
     0
 62
     3
  6
CONTINUOUS
  0
LAYER
  5
37
102
{ACAD_XDICTIONARY
360
38
102
}
100
AcDbSymbolTableRecord
100
AcDbLayerTableRecord
  2
DEFPOINTS
 70
     0
 62
     7
  6
CONTINUOUS
  0
LAYER
  5
1F
100
AcDbSymbolTableRecord
100
AcDbLayerTableRecord
  2
寸法
 70
     0
 62
     1
  6
CONTINUOUS
  0
ENDTAB
  0
TABLE
  2
STYLE
  5
F
100
AcDbSymbolTable
 70
     1
  0
STYLE
  5
10
100
AcDbSymbolTableRecord
100
AcDbTextStyleTableRecord
  2
STANDARD
 70
     0
 40
0.0
 41
1.0
 50
0.0
 71
     0
 42
5.0
  3
MONOTXT
  4
BIGFONT
  0
ENDTAB
  0
TABLE
  2
VIEW
  5
14
100
AcDbSymbolTable
 70
     0
  0
ENDTAB
  0
TABLE
  2
UCS
  5
15
100
AcDbSymbolTable
 70
     0
  0
ENDTAB
  0
TABLE
  2
APPID
  5
18
100
AcDbSymbolTable
 70
     2
  0
APPID
  5
19
100
AcDbSymbolTableRecord
100
AcDbRegAppTableRecord
  2
ACAD
 70
     0
  0
APPID
  5
C59
100
AcDbSymbolTableRecord
100
AcDbRegAppTableRecord
  2
DRAWINGVARIABLESXDATA
 70
     0
  0
ENDTAB
  0
TABLE
  2
DIMSTYLE
  5
1A
100
AcDbSymbolTable
 70
     1
  0
DIMSTYLE
105
21
102
{ACAD_XDICTIONARY
360
22
102
}
102
{ACAD_REACTORS
330
1B3C
330
1B52
330
1B69
330
1B81
330
1C70
330
1CDA
330
1D2D
330
1D5C
102
}
100
AcDbSymbolTableRecord
100
AcDbDimStyleTableRecord
  2
STANDARD
 70
     0
  3

  4

  5

  6
_OPEN30
  7
_OPEN30
 40
0.0
 41
2.0
 42
1.0
 43
8.0
 44
2.0
 45
0.0
 46
0.0
 47
0.0
 48
0.0
140
3.0
141
-1.0
142
0.0
143
25.4
144
1.0
145
0.0
146
1.0
147
1.0
 71
     0
 72
     0
 73
     0
 74
     0
 75
     0
 76
     0
 77
     1
 78
     8
170
     0
171
     2
172
     1
173
     1
174
     0
175
     0
176
     1
177
     1
178
     3
270
     2
271
     2
272
     2
273
     2
274
     2
340
10
275
     0
280
     0
281
     0
282
     0
283
     1
284
     8
285
     0
286
     0
287
     3
288
     0
  0
ENDTAB
  0
TABLE
  2
BLOCK_RECORD
  5
1
100
AcDbSymbolTable
 70
    11
  0
BLOCK_RECORD
  5
2
102
{ACAD_XDICTIONARY
360
3
102
}
100
AcDbSymbolTableRecord
100
AcDbBlockTableRecord
  2
*MODEL_SPACE
  0
BLOCK_RECORD
  5
9
102
{ACAD_XDICTIONARY
360
A
102
}
100
AcDbSymbolTableRecord
100
AcDbBlockTableRecord
  2
*PAPER_SPACE
  0
BLOCK_RECORD
  5
24
100
AcDbSymbolTableRecord
100
AcDbBlockTableRecord
  2
_DOTSMALL
  0
BLOCK_RECORD
  5
470
100
AcDbSymbolTableRecord
100
AcDbBlockTableRecord
  2
_OPEN30
  0
BLOCK_RECORD
  5
1B30
100
AcDbSymbolTableRecord
100
AcDbBlockTableRecord
  2
*D2
  0
BLOCK_RECORD
  5
1B48
100
AcDbSymbolTableRecord
100
AcDbBlockTableRecord
  2
*D3
  0
BLOCK_RECORD
  5
1B5D
100
AcDbSymbolTableRecord
100
AcDbBlockTableRecord
  2
*D4
  0
BLOCK_RECORD
  5
1B75
100
AcDbSymbolTableRecord
100
AcDbBlockTableRecord
  2
*D5
  0
BLOCK_RECORD
  5
1C60
100
AcDbSymbolTableRecord
100
AcDbBlockTableRecord
  2
*D7
  0
BLOCK_RECORD
  5
1CDB
100
AcDbSymbolTableRecord
100
AcDbBlockTableRecord
  2
*D8
  0
BLOCK_RECORD
  5
1D21
100
AcDbSymbolTableRecord
100
AcDbBlockTableRecord
  2
*D9
  0
BLOCK_RECORD
  5
1D4E
100
AcDbSymbolTableRecord
100
AcDbBlockTableRecord
  2
*D10
  0
ENDTAB
  0
ENDSEC
  0
SECTION
  2
BLOCKS
  0
BLOCK
  5
5
100
AcDbEntity
  8
0
100
AcDbBlockBegin
  2
*MODEL_SPACE
 70
     0
 10
0.0
 20
0.0
 30
0.0
  3
*MODEL_SPACE
  1

  0
ENDBLK
  5
8
100
AcDbEntity
  8
0
100
AcDbBlockEnd
  0
BLOCK
  5
C
100
AcDbEntity
 67
     1
  8
0
100
AcDbBlockBegin
  2
*PAPER_SPACE
 70
     0
 10
0.0
 20
0.0
 30
0.0
  3
*PAPER_SPACE
  1

  0
ENDBLK
  5
D
100
AcDbEntity
 67
     1
  8
0
100
AcDbBlockEnd
  0
BLOCK
  5
29
100
AcDbEntity
  8
0
100
AcDbBlockBegin
  2
_DOTSMALL
 70
     0
 10
0.0
 20
0.0
 30
0.0
  3
_DOTSMALL
  1

  0
POLYLINE
  5
25
100
AcDbEntity
  8
0
  6
BYBLOCK
 62
     0
100
AcDb2dPolyline
 66
     1
 10
0.0
 20
0.0
 30
0.0
 70
     1
 40
0.5
 41
0.5
  0
VERTEX
  5
26
100
AcDbEntity
  8
0
  6
BYBLOCK
 62
     0
100
AcDbVertex
100
AcDb2dVertex
 10
-0.0625
 20
0.0
 30
0.0
 42
1.0
  0
VERTEX
  5
27
100
AcDbEntity
  8
0
  6
BYBLOCK
 62
     0
100
AcDbVertex
100
AcDb2dVertex
 10
0.0625
 20
0.0
 30
0.0
 42
1.0
  0
SEQEND
  5
28
100
AcDbEntity
  8
0
  6
BYBLOCK
 62
     0
  0
ENDBLK
  5
2A
100
AcDbEntity
  8
0
100
AcDbBlockEnd
  0
BLOCK
  5
471
100
AcDbEntity
  8
0
100
AcDbBlockBegin
  2
_OPEN30
 70
     0
 10
0.0
 20
0.0
 30
0.0
  3
_OPEN30
  1

  0
LINE
  5
472
100
AcDbEntity
  8
0
  6
BYBLOCK
 62
     0
100
AcDbLine
 10
-1.0
 20
0.267949
 30
0.0
 11
0.0
 21
0.0
 31
0.0
  0
LINE
  5
473
100
AcDbEntity
  8
0
  6
BYBLOCK
 62
     0
100
AcDbLine
 10
0.0
 20
0.0
 30
0.0
 11
-1.0
 21
-0.267949
 31
0.0
  0
LINE
  5
474
100
AcDbEntity
  8
0
  6
BYBLOCK
 62
     0
100
AcDbLine
 10
0.0
 20
0.0
 30
0.0
 11
-1.0
 21
0.0
 31
0.0
  0
ENDBLK
  5
475
100
AcDbEntity
  8
0
100
AcDbBlockEnd
  0
BLOCK
  5
1B3D
100
AcDbEntity
  8
0
100
AcDbBlockBegin
  2
*D2
 70
     1
 10
0.0
 20
0.0
 30
0.0
  3
*D2
  1

  0
LINE
  5
1B3E
100
AcDbEntity
  8
0
  6
BYBLOCK
 62
     1
100
AcDbLine
 10
104.683195
 20
329.791282
 30
0.0
 11
104.683195
 21
318.475155
 31
0.0
  0
LINE
  5
1B3F
100
AcDbEntity
  8
0
  6
BYBLOCK
 62
     1
100
AcDbLine
 10
111.683195
 20
329.791282
 30
0.0
 11
111.683195
 21
318.475155
 31
0.0
  0
LINE
  5
1B40
100
AcDbEntity
  8
0
  6
BYBLOCK
 62
     1
100
AcDbLine
 10
106.683195
 20
320.475155
 30
0.0
 11
109.683195
 21
320.475155
 31
0.0
  0
INSERT
  5
1B41
100
AcDbEntity
  8
0
  6
BYBLOCK
 62
     1
100
AcDbBlockReference
  2
_OPEN30
 10
104.683195
 20
320.475155
 30
0.0
 41
2.0
 42
2.0
 43
2.0
 50
180.0
  0
INSERT
  5
1B42
100
AcDbEntity
  8
0
  6
BYBLOCK
 62
     1
100
AcDbBlockReference
  2
_OPEN30
 10
111.683195
 20
320.475155
 30
0.0
 41
2.0
 42
2.0
 43
2.0
  0
MTEXT
  5
1B43
100
AcDbEntity
  8
0
  6
BYBLOCK
 62
     3
100
AcDbMText
 10
108.183195
 20
322.975155
 30
0.0
 40
3.0
 41
0.0
 71
     5
 72
     1
  1
\A1;7
  0
POINT
  5
1B44
100
AcDbEntity
  8
DEFPOINTS
  6
BYBLOCK
 62
     0
100
AcDbPoint
 10
104.683195
 20
330.791282
 30
0.0
  0
POINT
  5
1B45
100
AcDbEntity
  8
DEFPOINTS
  6
BYBLOCK
 62
     0
100
AcDbPoint
 10
111.683195
 20
330.791282
 30
0.0
  0
POINT
  5
1B46
100
AcDbEntity
  8
DEFPOINTS
  6
BYBLOCK
 62
     0
100
AcDbPoint
 10
111.683195
 20
320.475155
 30
0.0
  0
ENDBLK
  5
1B47
100
AcDbEntity
  8
0
100
AcDbBlockEnd
  0
BLOCK
  5
1B53
100
AcDbEntity
  8
0
100
AcDbBlockBegin
  2
*D3
 70
     1
 10
0.0
 20
0.0
 30
0.0
  3
*D3
  1

  0
LINE
  5
1B54
100
AcDbEntity
  8
0
  6
BYBLOCK
 62
     1
100
AcDbLine
 10
105.079223
 20
327.593053
 30
0.0
 11
104.044566
 21
325.881479
 31
0.0
  0
LINE
  5
1B55
100
AcDbEntity
  8
0
  6
BYBLOCK
 62
     1
100
AcDbLine
 10
111.287166
 20
337.862495
 30
0.0
 11
117.949389
 21
348.883427
 31
0.0
  0
LINE
  5
1B56
100
AcDbEntity
  8
0
  6
BYBLOCK
 62
     1
100
AcDbLine
 10
106.11388
 20
329.304626
 30
0.0
 11
110.252509
 21
336.150921
 31
0.0
  0
INSERT
  5
1B57
100
AcDbEntity
  8
0
  6
BYBLOCK
 62
     1
100
AcDbBlockReference
  2
_OPEN30
 10
106.11388
 20
329.304626
 30
0.0
 41
2.0
 42
2.0
 43
2.0
 50
58.846773
  0
INSERT
  5
1B58
100
AcDbEntity
  8
0
  6
BYBLOCK
 62
     1
100
AcDbBlockReference
  2
_OPEN30
 10
110.252509
 20
336.150921
 30
0.0
 41
2.0
 42
2.0
 43
2.0
 50
238.846773
  0
MTEXT
  5
1B59
100
AcDbEntity
  8
0
  6
BYBLOCK
 62
     3
100
AcDbMText
 10
113.999272
 20
347.181494
 30
0.0
 40
3.0
 41
0.0
 71
     5
 72
     1
  1
\A1;\U+22058
 11
0.517329
 21
0.855787
 31
0.0
  0
POINT
  5
1B5A
100
AcDbEntity
  8
DEFPOINTS
  6
BYBLOCK
 62
     0
100
AcDbPoint
 10
110.252509
 20
336.150921
 30
0.0
  0
POINT
  5
1B5B
100
AcDbEntity
  8
DEFPOINTS
  6
BYBLOCK
 62
     0
100
AcDbPoint
 10
106.11388
 20
329.304626
 30
0.0
  0
ENDBLK
  5
1B5C
100
AcDbEntity
  8
0
100
AcDbBlockEnd
  0
BLOCK
  5
1B6A
100
AcDbEntity
  8
0
100
AcDbBlockBegin
  2
*D4
 70
     1
 10
0.0
 20
0.0
 30
0.0
  3
*D4
  1

  0
LINE
  5
1B6B
100
AcDbEntity
  8
0
  6
BYBLOCK
 62
     1
100
AcDbLine
 10
46.307342
 20
326.727774
 30
0.0
 11
46.307342
 21
307.767751
 31
0.0
  0
LINE
  5
1B6C
100
AcDbEntity
  8
0
  6
BYBLOCK
 62
     1
100
AcDbLine
 10
146.307342
 20
328.727774
 30
0.0
 11
146.307342
 21
307.767751
 31
0.0
  0
LINE
  5
1B6D
100
AcDbEntity
  8
0
  6
BYBLOCK
 62
     1
100
AcDbLine
 10
48.307342
 20
309.767751
 30
0.0
 11
144.307342
 21
309.767751
 31
0.0
  0
INSERT
  5
1B6E
100
AcDbEntity
  8
0
  6
BYBLOCK
 62
     1
100
AcDbBlockReference
  2
_OPEN30
 10
46.307342
 20
309.767751
 30
0.0
 41
2.0
 42
2.0
 43
2.0
 50
180.0
  0
INSERT
  5
1B6F
100
AcDbEntity
  8
0
  6
BYBLOCK
 62
     1
100
AcDbBlockReference
  2
_OPEN30
 10
146.307342
 20
309.767751
 30
0.0
 41
2.0
 42
2.0
 43
2.0
  0
MTEXT
  5
1B70
100
AcDbEntity
  8
0
  6
BYBLOCK
 62
     3
100
AcDbMText
 10
96.307342
 20
312.267751
 30
0.0
 40
3.0
 41
0.0
 71
     5
 72
     1
  1
\A1;100
  0
POINT
  5
1B71
100
AcDbEntity
  8
DEFPOINTS
  6
BYBLOCK
 62
     0
100
AcDbPoint
 10
46.307342
 20
327.727774
 30
0.0
  0
POINT
  5
1B72
100
AcDbEntity
  8
DEFPOINTS
  6
BYBLOCK
 62
     0
100
AcDbPoint
 10
146.307342
 20
329.727774
 30
0.0
  0
POINT
  5
1B73
100
AcDbEntity
  8
DEFPOINTS
  6
BYBLOCK
 62
     0
100
AcDbPoint
 10
146.307342
 20
309.767751
 30
0.0
  0
ENDBLK
  5
1B74
100
AcDbEntity
  8
0
100
AcDbBlockEnd
  0
BLOCK
  5
1B8D
100
AcDbEntity
  8
0
100
AcDbBlockBegin
  2
*D5
 70
     1
 10
0.0
 20
0.0
 30
0.0
  3
*D5
  1

  0
LINE
  5
1B8E
100
AcDbEntity
  8
0
  6
BYBLOCK
 62
     1
100
AcDbLine
 10
45.307342
 20
327.727774
 30
0.0
 11
40.224237
 21
327.727774
 31
0.0
  0
LINE
  5
1B8F
100
AcDbEntity
  8
0
  6
BYBLOCK
 62
     1
100
AcDbLine
 10
42.909768
 20
332.727774
 30
0.0
 11
40.224237
 21
332.727774
 31
0.0
  0
LINE
  5
1B90
100
AcDbEntity
  8
0
  6
BYBLOCK
 62
     1
100
AcDbLine
 10
42.224237
 20
325.727774
 30
0.0
 11
42.224237
 21
323.727774
 31
0.0
  0
LINE
  5
1B91
100
AcDbEntity
  8
0
  6
BYBLOCK
 62
     1
100
AcDbLine
 10
42.224237
 20
334.727774
 30
0.0
 11
42.224237
 21
340.727774
 31
0.0
  0
LINE
  5
1B92
100
AcDbEntity
  8
0
  6
BYBLOCK
 62
     1
100
AcDbLine
 10
42.224237
 20
327.727774
 30
0.0
 11
42.224237
 21
332.727774
 31
0.0
  0
INSERT
  5
1B93
100
AcDbEntity
  8
0
  6
BYBLOCK
 62
     1
100
AcDbBlockReference
  2
_OPEN30
 10
42.224237
 20
327.727774
 30
0.0
 41
2.0
 42
2.0
 43
2.0
 50
90.0
  0
INSERT
  5
1B94
100
AcDbEntity
  8
0
  6
BYBLOCK
 62
     1
100
AcDbBlockReference
  2
_OPEN30
 10
42.224237
 20
332.727774
 30
0.0
 41
2.0
 42
2.0
 43
2.0
 50
270.0
  0
MTEXT
  5
1B95
100
AcDbEntity
  8
0
  6
BYBLOCK
 62
     3
100
AcDbMText
 10
39.724237
 20
338.727774
 30
0.0
 40
3.0
 41
0.0
 71
     5
 72
     1
  1
\A1;5
 11
0.0
 21
1.0
 31
0.0
  0
POINT
  5
1B96
100
AcDbEntity
  8
DEFPOINTS
  6
BYBLOCK
 62
     0
100
AcDbPoint
 10
46.307342
 20
327.727774
 30
0.0
  0
POINT
  5
1B97
100
AcDbEntity
  8
DEFPOINTS
  6
BYBLOCK
 62
     0
100
AcDbPoint
 10
43.909768
 20
332.727774
 30
0.0
  0
POINT
  5
1B98
100
AcDbEntity
  8
DEFPOINTS
  6
BYBLOCK
 62
     0
100
AcDbPoint
 10
42.224237
 20
332.727774
 30
0.0
  0
ENDBLK
  5
1B99
100
AcDbEntity
  8
0
100
AcDbBlockEnd
  0
BLOCK
  5
1D73
100
AcDbEntity
  8
0
100
AcDbBlockBegin
  2
*D7
 70
     1
 10
0.0
 20
0.0
 30
0.0
  3
*D7
  1

  0
LINE
  5
1D74
100
AcDbEntity
  8
0
  6
BYBLOCK
 62
     1
100
AcDbLine
 10
28.122452
 20
214.274122
 30
0.0
 11
24.104738
 21
196.871488
 31
0.0
  0
LINE
  5
1D75
100
AcDbEntity
  8
0
  6
BYBLOCK
 62
     1
100
AcDbLine
 10
28.380864
 20
213.350083
 30
0.0
 11
28.380864
 21
196.384285
 31
0.0
  0
ARC
  5
1D76
100
AcDbEntity
  8
0
  6
BYBLOCK
 62
     1
100
AcDbCircle
 10
28.380864
 20
215.393426
 30
0.0
 40
17.009142
100
AcDbArc
 50
243.494642
 51
257.0
  0
LINE
  5
1D77
100
AcDbEntity
  8
0
  6
BYBLOCK
 62
     1
100
AcDbLine
 10
20.789999
 20
200.172071
 30
0.0
 11
10.409244
 21
205.348936
 31
0.0
  0
ARC
  5
1D78
100
AcDbEntity
  8
0
  6
BYBLOCK
 62
     1
100
AcDbCircle
 10
28.380864
 20
215.393426
 30
0.0
 40
17.009142
100
AcDbArc
 50
243.518112
 51
250.259056
  0
ARC
  5
1D79
100
AcDbEntity
  8
0
  6
BYBLOCK
 62
     1
100
AcDbCircle
 10
28.380864
 20
215.393426
 30
0.0
 40
17.009142
100
AcDbArc
 50
276.740944
 51
283.481888
  0
ARC
  5
1D7A
100
AcDbEntity
  8
0
  6
BYBLOCK
 62
     1
100
AcDbCircle
 10
28.380864
 20
215.393426
 30
0.0
 40
17.009142
100
AcDbArc
 50
257.0
 51
270.0
  0
INSERT
  5
1D7B
100
AcDbEntity
  8
0
  6
BYBLOCK
 62
     1
100
AcDbBlockReference
  2
_OPEN30
 10
24.55464
 20
198.820228
 30
0.0
 41
2.0
 42
2.0
 43
2.0
 50
343.629528
  0
INSERT
  5
1D7C
100
AcDbEntity
  8
0
  6
BYBLOCK
 62
     1
100
AcDbBlockReference
  2
_OPEN30
 10
28.380864
 20
198.384285
 30
0.0
 41
2.0
 42
2.0
 43
2.0
 50
183.370472
  0
MTEXT
  5
1D7D
100
AcDbEntity
  8
0
  6
BYBLOCK
 62
     3
100
AcDbMText
 10
16.715325
 20
204.997735
 30
0.0
 40
3.0
 41
0.0
 71
     5
 72
     1
  1
\A1;13°
 11
0.894893
 21
-0.446281
 31
0.0
  0
POINT
  5
1D7E
100
AcDbEntity
  8
DEFPOINTS
  6
BYBLOCK
 62
     0
100
AcDbPoint
 10
27.095673
 20
198.432908
 30
0.0
  0
POINT
  5
1D7F
100
AcDbEntity
  8
DEFPOINTS
  6
BYBLOCK
 62
     0
100
AcDbPoint
 10
30.201
 20
223.277301
 30
0.0
  0
POINT
  5
1D80
100
AcDbEntity
  8
DEFPOINTS
  6
BYBLOCK
 62
     0
100
AcDbPoint
 10
28.380864
 20
214.350083
 30
0.0
  0
POINT
  5
1D81
100
AcDbEntity
  8
DEFPOINTS
  6
BYBLOCK
 62
     0
100
AcDbPoint
 10
28.380864
 20
226.394492
 30
0.0
  0
POINT
  5
1D82
100
AcDbEntity
  8
DEFPOINTS
  6
BYBLOCK
 62
     0
100
AcDbPoint
 10
28.347403
 20
215.248492
 30
0.0
  0
ENDBLK
  5
1D83
100
AcDbEntity
  8
0
100
AcDbBlockEnd
  0
BLOCK
  5
1D5D
100
AcDbEntity
  8
0
100
AcDbBlockBegin
  2
*D8
 70
     1
 10
0.0
 20
0.0
 30
0.0
  3
*D8
  1

  0
LINE
  5
1D5E
100
AcDbEntity
  8
0
  6
BYBLOCK
 62
     1
100
AcDbLine
 10
60.884904
 20
215.372287
 30
0.0
 11
36.611642
 21
215.372287
 31
0.0
  0
LINE
  5
1D5F
100
AcDbEntity
  8
0
  6
BYBLOCK
 62
     1
100
AcDbLine
 10
38.611642
 20
217.372287
 30
0.0
 11
38.611642
 21
236.570648
 31
0.0
  0
INSERT
  5
1D60
100
AcDbEntity
  8
0
  6
BYBLOCK
 62
     1
100
AcDbBlockReference
  2
_OPEN30
 10
38.611642
 20
215.372287
 30
0.0
 41
2.0
 42
2.0
 43
2.0
 50
270.0
  0
MTEXT
  5
1D61
100
AcDbEntity
  8
0
  6
BYBLOCK
 62
     3
100
AcDbMText
 10
36.111642
 20
231.570648
 30
0.0
 40
3.0
 41
0.0
 71
     5
 72
     1
  1
\A1;\U+220510
 11
0.0
 21
1.0
 31
0.0
  0
POINT
  5
1D62
100
AcDbEntity
  8
DEFPOINTS
  6
BYBLOCK
 62
     0
100
AcDbPoint
 10
61.884904
 20
215.372287
 30
0.0
  0
POINT
  5
1D63
100
AcDbEntity
  8
DEFPOINTS
  6
BYBLOCK
 62
     0
100
AcDbPoint
 10
61.884904
 20
242.121123
 30
0.0
  0
POINT
  5
1D64
100
AcDbEntity
  8
DEFPOINTS
  6
BYBLOCK
 62
     0
100
AcDbPoint
 10
38.611642
 20
242.121123
 30
0.0
  0
ENDBLK
  5
1D65
100
AcDbEntity
  8
0
100
AcDbBlockEnd
  0
BLOCK
  5
1D39
100
AcDbEntity
  8
0
100
AcDbBlockBegin
  2
*D9
 70
     1
 10
0.0
 20
0.0
 30
0.0
  3
*D9
  1

  0
LINE
  5
1D3A
100
AcDbEntity
  8
0
  6
BYBLOCK
 62
     1
100
AcDbLine
 10
62.855669
 20
214.372287
 30
0.0
 11
62.855669
 21
202.188909
 31
0.0
  0
LINE
  5
1D3B
100
AcDbEntity
  8
0
  6
BYBLOCK
 62
     1
100
AcDbLine
 10
80.844913
 20
215.872287
 30
0.0
 11
80.844913
 21
202.188909
 31
0.0
  0
LINE
  5
1D3C
100
AcDbEntity
  8
0
  6
BYBLOCK
 62
     1
100
AcDbLine
 10
64.855669
 20
204.188909
 30
0.0
 11
78.844913
 21
204.188909
 31
0.0
  0
INSERT
  5
1D3D
100
AcDbEntity
  8
0
  6
BYBLOCK
 62
     1
100
AcDbBlockReference
  2
_OPEN30
 10
62.855669
 20
204.188909
 30
0.0
 41
2.0
 42
2.0
 43
2.0
 50
180.0
  0
INSERT
  5
1D3E
100
AcDbEntity
  8
0
  6
BYBLOCK
 62
     1
100
AcDbBlockReference
  2
_OPEN30
 10
80.844913
 20
204.188909
 30
0.0
 41
2.0
 42
2.0
 43
2.0
  0
MTEXT
  5
1D3F
100
AcDbEntity
  8
0
  6
BYBLOCK
 62
     3
100
AcDbMText
 10
71.850291
 20
206.688909
 30
0.0
 40
3.0
 41
0.0
 71
     5
 72
     1
  1
\A1;18
  0
POINT
  5
1D40
100
AcDbEntity
  8
DEFPOINTS
  6
BYBLOCK
 62
     0
100
AcDbPoint
 10
62.855669
 20
215.372287
 30
0.0
  0
POINT
  5
1D41
100
AcDbEntity
  8
DEFPOINTS
  6
BYBLOCK
 62
     0
100
AcDbPoint
 10
80.844913
 20
216.872287
 30
0.0
  0
POINT
  5
1D42
100
AcDbEntity
  8
DEFPOINTS
  6
BYBLOCK
 62
     0
100
AcDbPoint
 10
80.844913
 20
204.188909
 30
0.0
  0
ENDBLK
  5
1D43
100
AcDbEntity
  8
0
100
AcDbBlockEnd
  0
BLOCK
  5
1D66
100
AcDbEntity
  8
0
100
AcDbBlockBegin
  2
*D10
 70
     1
 10
0.0
 20
0.0
 30
0.0
  3
*D10
  1

  0
LINE
  5
1D67
100
AcDbEntity
  8
0
  6
BYBLOCK
 62
     1
100
AcDbLine
 10
63.044334
 20
219.177459
 30
0.0
 11
63.819808
 21
233.974392
 31
0.0
  0
LINE
  5
1D68
100
AcDbEntity
  8
0
  6
BYBLOCK
 62
     1
100
AcDbLine
 10
61.843495
 20
215.373778
 30
0.0
 11
44.218851
 21
215.373778
 31
0.0
  0
ARC
  5
1D69
100
AcDbEntity
  8
0
  6
BYBLOCK
 62
     1
100
AcDbCircle
 10
62.844991
 20
215.373778
 30
0.0
 40
16.62614
100
AcDbArc
 50
93.896415
 51
173.103585
  0
INSERT
  5
1D6A
100
AcDbEntity
  8
0
  6
BYBLOCK
 62
     1
100
AcDbBlockReference
  2
_OPEN30
 10
63.715136
 20
231.977133
 30
0.0
 41
2.0
 42
2.0
 43
2.0
 50
0.448207
  0
INSERT
  5
1D6B
100
AcDbEntity
  8
0
  6
BYBLOCK
 62
     1
100
AcDbBlockReference
  2
_OPEN30
 10
46.218851
 20
215.373778
 30
0.0
 41
2.0
 42
2.0
 43
2.0
 50
266.551793
  0
MTEXT
  5
1D6C
100
AcDbEntity
  8
0
  6
BYBLOCK
 62
     3
100
AcDbMText
 10
49.679425
 20
229.24739
 30
0.0
 40
3.0
 41
0.0
 71
     5
 72
     1
  1
\A1;93°
 11
0.725374
 21
0.688355
 31
0.0
  0
POINT
  5
1D6D
100
AcDbEntity
  8
DEFPOINTS
  6
BYBLOCK
 62
     0
100
AcDbPoint
 10
55.039491
 20
230.053788
 30
0.0
  0
POINT
  5
1D6E
100
AcDbEntity
  8
DEFPOINTS
  6
BYBLOCK
 62
     0
100
AcDbPoint
 10
62.991998
 20
218.178829
 30
0.0
  0
POINT
  5
1D6F
100
AcDbEntity
  8
DEFPOINTS
  6
BYBLOCK
 62
     0
100
AcDbPoint
 10
63.080043
 20
215.373778
 30
0.0
  0
POINT
  5
1D70
100
AcDbEntity
  8
DEFPOINTS
  6
BYBLOCK
 62
     0
100
AcDbPoint
 10
62.843495
 20
215.373778
 30
0.0
  0
POINT
  5
1D71
100
AcDbEntity
  8
DEFPOINTS
  6
BYBLOCK
 62
     0
100
AcDbPoint
 10
62.855943
 20
215.582754
 30
0.0
  0
ENDBLK
  5
1D72
100
AcDbEntity
  8
0
100
AcDbBlockEnd
  0
ENDSEC
  0
SECTION
  2
ENTITIES
  0
TEXT
  5
1453
100
AcDbEntity
  8
外形
  6
CONTINUOUS
 62
     2
100
AcDbText
 10
81.945496
 20
150.213866
 30
0.0
 40
6.0
  1
BBPW608R
100
AcDbText
  0
ARC
  5
195E
100
AcDbEntity
  8
外形
  6
CONTINUOUS
100
AcDbCircle
 10
69.484052
 20
218.239144
 30
0.0
 40
1.0
100
AcDbArc
 50
267.0
 51
87.0
  0
LINE
  5
195F
100
AcDbEntity
  8
外形
  6
CONTINUOUS
100
AcDbLine
 10
69.536388
 20
219.237773
 30
0.0
 11
67.776094
 21
219.330027
 31
0.0
  0
LINE
  5
1960
100
AcDbEntity
  8
外形
  6
CONTINUOUS
100
AcDbLine
 10
69.431716
 20
217.240514
 30
0.0
 11
69.048072
 21
217.26062
 31
0.0
  0
LINE
  5
1963
100
AcDbEntity
  8
外形
  6
CONTINUOUS
100
AcDbLine
 10
69.048072
 20
217.26062
 30
0.0
 11
66.451079
 21
215.934531
 31
0.0
  0
LINE
  5
1965
100
AcDbEntity
  8
外形
  6
CONTINUOUS
100
AcDbLine
 10
67.776094
 20
219.330027
 30
0.0
 11
63.998407
 21
221.778601
 31
0.0
  0
LINE
  5
1966
100
AcDbEntity
  8
外形
  6
CONTINUOUS
100
AcDbLine
 10
63.522437
 20
220.657287
 30
0.0
 11
63.471155
 21
219.678767
 31
0.0
  0
ARC
  5
1990
100
AcDbEntity
  8
外形
  6
CONTINUOUS
100
AcDbCircle
 10
65.368732
 20
218.054182
 30
0.0
 40
2.38
100
AcDbArc
 50
277.0
 51
297.002101
  0
LINE
  5
1991
100
AcDbEntity
  8
外形
  6
CONTINUOUS
100
AcDbLine
 10
62.991998
 20
218.178829
 30
0.0
 11
62.855943
 21
215.582754
 31
0.0
  0
ARC
  5
1992
100
AcDbEntity
  8
外形
  6
CONTINUOUS
100
AcDbCircle
 10
63.055669
 20
215.572287
 30
0.0
 40
0.2
100
AcDbArc
 50
177.0
 51
277.0
  0
LINE
  5
1993
100
AcDbEntity
  8
外形
  6
CONTINUOUS
100
AcDbLine
 10
63.080043
 20
215.373778
 30
0.0
 11
65.658964
 21
215.69043
 31
0.0
  0
LINE
  5
1994
100
AcDbEntity
  8
外形
  6
CONTINUOUS
100
AcDbLine
 10
68.834374
 20
217.412322
 30
0.0
 11
67.270685
 21
219.487407
 31
0.0
  0
ARC
  5
1995
100
AcDbEntity
  8
外形
  6
CONTINUOUS
100
AcDbCircle
 10
68.674647
 20
217.291959
 30
0.0
 40
0.2
100
AcDbArc
 50
297.0
 51
37.0
  0
LINE
  5
1996
100
AcDbEntity
  8
外形
  6
CONTINUOUS
100
AcDbLine
 10
66.449151
 20
215.933547
 30
0.0
 11
68.765445
 21
217.113758
 31
0.0
  0
LINE
  5
1997
100
AcDbEntity
  8
外形
  6
CONTINUOUS
100
AcDbLine
 10
64.191778
 20
221.376447
 30
0.0
 11
63.176546
 21
218.98471
 31
0.0
  0
ARC
  5
1998
100
AcDbEntity
  8
外形
  6
CONTINUOUS
100
AcDbCircle
 10
64.375878
 20
221.298301
 30
0.0
 40
0.2
100
AcDbArc
 50
57.0
 51
157.0
  0
LINE
  5
1999
100
AcDbEntity
  8
外形
  6
CONTINUOUS
100
AcDbLine
 10
66.665046
 20
220.050171
 30
0.0
 11
64.484806
 21
221.466035
 31
0.0
  0
ARC
  5
199F
100
AcDbEntity
  8
外形
  6
CONTINUOUS
100
AcDbCircle
 10
65.368732
 20
218.054182
 30
0.0
 40
2.38
100
AcDbArc
 50
157.0
 51
177.002101
  0
ARC
  5
19A0
100
AcDbEntity
  8
外形
  6
CONTINUOUS
100
AcDbCircle
 10
65.368732
 20
218.054182
 30
0.0
 40
2.38
100
AcDbArc
 50
37.0
 51
57.002101
  0
LINE
  5
19AB
100
AcDbEntity
  8
外形
  6
CONTINUOUS
100
AcDbLine
 10
71.744913
 20
215.772287
 30
0.0
 11
72.844913
 21
216.872287
 31
0.0
  0
LINE
  5
19B1
100
AcDbEntity
  8
外形
  6
CENTER
 62
     1
100
AcDbLine
 10
60.447339
 20
220.372287
 30
0.0
 11
167.535267
 21
220.372287
 31
0.0
  0
LINE
  5
19B2
100
AcDbEntity
  8
外形
  6
CONTINUOUS
100
AcDbLine
 10
72.844913
 20
216.872287
 30
0.0
 11
80.844913
 21
216.872287
 31
0.0
  0
LINE
  5
19D3
100
AcDbEntity
  8
外形
  6
CONTINUOUS
100
AcDbLine
 10
63.522437
 20
220.657287
 30
0.0
 11
64.844676
 21
223.772287
 31
0.0
  0
LINE
  5
1A0D
100
AcDbEntity
  8
外形
  6
CENTER
 62
     1
100
AcDbLine
 10
28.380864
 20
214.350083
 30
0.0
 11
28.380864
 21
226.394492
 31
0.0
  0
LINE
  5
1A26
100
AcDbEntity
  8
外形
  6
CONTINUOUS
100
AcDbLine
 10
71.744913
 20
215.772287
 30
0.0
 11
66.045012
 21
215.772287
 31
0.0
  0
LINE
  5
1A2B
100
AcDbEntity
  8
外形
  6
CENTER
 62
     1
100
AcDbLine
 10
22.35866
 20
219.772287
 30
0.0
 11
34.403069
 21
219.772287
 31
0.0
  0
ARC
  5
1A2C
100
AcDbEntity
  8
外形
  6
CONTINUOUS
100
AcDbCircle
 10
28.380864
 20
219.772287
 30
0.0
 40
4.0
100
AcDbArc
 50
271.256151
 51
236.58957
  0
LINE
  5
1A2D
100
AcDbEntity
  8
外形
  6
CONTINUOUS
100
AcDbLine
 10
64.844676
 20
223.772287
 30
0.0
 11
72.844913
 21
223.772287
 31
0.0
  0
LINE
  5
1A3D
100
AcDbEntity
  8
外形
  6
CONTINUOUS
100
AcDbLine
 10
72.844913
 20
223.139228
 30
0.0
 11
72.844913
 21
223.872287
 31
0.0
  0
LINE
  5
1A3F
100
AcDbEntity
  8
外形
  6
CONTINUOUS
100
AcDbLine
 10
80.844913
 20
216.872287
 30
0.0
 11
80.844913
 21
223.872287
 31
0.0
  0
LINE
  5
1A40
100
AcDbEntity
  8
外形
  6
CONTINUOUS
100
AcDbLine
 10
81.344913
 20
216.372287
 30
0.0
 11
80.844913
 21
216.872287
 31
0.0
  0
LINE
  5
1A41
100
AcDbEntity
  8
外形
  6
CONTINUOUS
100
AcDbLine
 10
72.844913
 20
223.872287
 30
0.0
 11
80.844913
 21
223.872287
 31
0.0
  0
LINE
  5
1A42
100
AcDbEntity
  8
外形
  6
CONTINUOUS
100
AcDbLine
 10
81.344913
 20
224.372287
 30
0.0
 11
118.155438
 21
224.372287
 31
0.0
  0
LINE
  5
1A43
100
AcDbEntity
  8
外形
  6
CONTINUOUS
100
AcDbLine
 10
81.344913
 20
216.372287
 30
0.0
 11
118.155438
 21
216.372287
 31
0.0
  0
LINE
  5
1A44
100
AcDbEntity
  8
外形
  6
CONTINUOUS
100
AcDbLine
 10
81.344913
 20
224.372287
 30
0.0
 11
80.844913
 21
223.872287
 31
0.0
  0
LINE
  5
1A45
100
AcDbEntity
  8
外形
  6
CONTINUOUS
100
AcDbLine
 10
81.344913
 20
224.372287
 30
0.0
 11
81.344913
 21
222.308779
 31
0.0
  0
LINE
  5
1A46
100
AcDbEntity
  8
外形
  6
CONTINUOUS
100
AcDbLine
 10
162.844913
 20
223.372287
 30
0.0
 11
162.844913
 21
217.372287
 31
0.0
  0
LINE
  5
1A47
100
AcDbEntity
  8
外形
  6
CONTINUOUS
100
AcDbLine
 10
161.844913
 20
216.372287
 30
0.0
 11
161.844913
 21
218.435796
 31
0.0
  0
LINE
  5
1A48
100
AcDbEntity
  8
外形
  6
CONTINUOUS
100
AcDbLine
 10
161.844913
 20
224.372287
 30
0.0
 11
162.844913
 21
223.372287
 31
0.0
  0
LINE
  5
1A49
100
AcDbEntity
  8
外形
  6
CONTINUOUS
100
AcDbLine
 10
161.844913
 20
216.372287
 30
0.0
 11
162.844913
 21
217.372287
 31
0.0
  0
LINE
  5
1A4B
100
AcDbEntity
  8
外形
  6
CENTER
 62
     1
100
AcDbLine
 10
124.720765
 20
213.398967
 30
0.0
 11
124.720765
 21
228.075916
 31
0.0
  0
ARC
  5
1A4D
100
AcDbEntity
  8
外形
  6
CONTINUOUS
100
AcDbCircle
 10
124.720765
 20
220.372287
 30
0.0
 40
4.0
100
AcDbArc
 50
208.955024
 51
331.044976
  0
LINE
  5
1A4E
100
AcDbEntity
  8
外形
  6
CONTINUOUS
100
AcDbLine
 10
121.220765
 20
218.435796
 30
0.0
 11
121.220765
 21
222.308779
 31
0.0
  0
LINE
  5
1A4F
100
AcDbEntity
  8
外形
  6
CONTINUOUS
100
AcDbLine
 10
128.220765
 20
222.308779
 30
0.0
 11
128.220765
 21
218.435796
 31
0.0
  0
LINE
  5
1A50
100
AcDbEntity
  8
外形
  6
CONTINUOUS
100
AcDbLine
 10
118.155438
 20
222.308779
 30
0.0
 11
81.344913
 21
222.308779
 31
0.0
  0
LINE
  5
1A51
100
AcDbEntity
  8
外形
  6
CONTINUOUS
100
AcDbLine
 10
118.155438
 20
218.435796
 30
0.0
 11
81.344913
 21
218.435796
 31
0.0
  0
ARC
  5
1A52
100
AcDbEntity
  8
外形
  6
CONTINUOUS
100
AcDbCircle
 10
124.720765
 20
220.372287
 30
0.0
 40
4.0
100
AcDbArc
 50
28.955024
 51
151.044976
  0
LINE
  5
1A55
100
AcDbEntity
  8
外形
  6
CONTINUOUS
100
AcDbLine
 10
130.946741
 20
222.308779
 30
0.0
 11
161.844913
 21
222.308779
 31
0.0
  0
LINE
  5
1A56
100
AcDbEntity
  8
外形
  6
CONTINUOUS
100
AcDbLine
 10
130.946741
 20
224.372287
 30
0.0
 11
161.844913
 21
224.372287
 31
0.0
  0
LINE
  5
1A57
100
AcDbEntity
  8
外形
  6
CONTINUOUS
100
AcDbLine
 10
130.946741
 20
218.435796
 30
0.0
 11
161.844913
 21
218.435796
 31
0.0
  0
LINE
  5
1A58
100
AcDbEntity
  8
外形
  6
CONTINUOUS
100
AcDbLine
 10
130.946741
 20
216.372287
 30
0.0
 11
161.844913
 21
216.372287
 31
0.0
  0
ELLIPSE
  5
1A5C
100
AcDbEntity
  8
外形
  6
CONTINUOUS
100
AcDbEllipse
 10
161.844913
 20
220.372287
 30
0.0
 11
0.0
 21
1.936491673104455
 31
0.0
210
0.0
220
0.0
230
1.0
 40
0.258199
 41
3.141592653589793
 42
6.283185307179586
  0
LINE
  5
1A5D
100
AcDbEntity
  8
外形
  6
CONTINUOUS
100
AcDbLine
 10
161.844913
 20
222.308779
 30
0.0
 11
161.844913
 21
224.372287
 31
0.0
  0
ELLIPSE
  5
1A5F
100
AcDbEntity
  8
外形
  6
CONTINUOUS
100
AcDbEllipse
 10
81.344913
 20
220.372287
 30
0.0
 11
0.0
 21
1.936491673104455
 31
0.0
210
0.0
220
0.0
230
1.0
 40
0.258199
 41
0.0
 42
3.141592653589793
  0
LINE
  5
1A60
100
AcDbEntity
  8
外形
  6
CONTINUOUS
100
AcDbLine
 10
81.344913
 20
218.435796
 30
0.0
 11
81.344913
 21
216.372287
 31
0.0
  0
LINE
  5
1A62
100
AcDbEntity
  8
外形
  6
CONTINUOUS
100
AcDbLine
 10
30.201
 20
223.277301
 30
0.0
 11
28.347403
 21
215.248492
 31
0.0
  0
LINE
  5
1A64
100
AcDbEntity
  8
外形
  6
CONTINUOUS
100
AcDbLine
 10
26.075243
 20
215.986761
 30
0.0
 11
28.347403
 21
215.248492
 31
0.0
  0
LINE
  5
1A67
100
AcDbEntity
  8
外形
  6
CONTINUOUS
100
AcDbLine
 10
27.359616
 20
221.549993
 30
0.0
 11
29.725457
 21
221.217496
 31
0.0
  0
LINE
  5
1A68
100
AcDbEntity
  8
外形
  6
CONTINUOUS
100
AcDbLine
 10
27.359616
 20
221.549993
 30
0.0
 11
26.075243
 21
215.986761
 31
0.0
  0
LINE
  5
1A8C
100
AcDbEntity
  8
外形
  6
CONTINUOUS
100
AcDbLine
 10
80.844913
 20
172.534008
 30
0.0
 11
80.844913
 21
179.534008
 31
0.0
  0
LINE
  5
1A8E
100
AcDbEntity
  8
外形
  6
CONTINUOUS
100
AcDbLine
 10
77.914361
 20
179.534008
 30
0.0
 11
80.844913
 21
179.534008
 31
0.0
  0
LINE
  5
1A8F
100
AcDbEntity
  8
外形
  6
CONTINUOUS
100
AcDbLine
 10
81.344913
 20
179.534008
 30
0.0
 11
81.344913
 21
172.534008
 31
0.0
  0
LINE
  5
1A90
100
AcDbEntity
  8
外形
  6
CONTINUOUS
100
AcDbLine
 10
72.844913
 20
172.534008
 30
0.0
 11
80.844913
 21
172.534008
 31
0.0
  0
LINE
  5
1A93
100
AcDbEntity
  8
外形
  6
CENTER
 62
     1
100
AcDbLine
 10
60.447339
 20
176.034008
 30
0.0
 11
167.535267
 21
176.034008
 31
0.0
  0
LINE
  5
1A94
100
AcDbEntity
  8
外形
  6
CONTINUOUS
100
AcDbLine
 10
162.344913
 20
172.534008
 30
0.0
 11
162.844913
 21
173.034008
 31
0.0
  0
LINE
  5
1A95
100
AcDbEntity
  8
外形
  6
CONTINUOUS
100
AcDbLine
 10
162.344913
 20
179.534008
 30
0.0
 11
162.844913
 21
179.034008
 31
0.0
  0
LINE
  5
1A98
100
AcDbEntity
  8
外形
  6
CONTINUOUS
100
AcDbLine
 10
161.844913
 20
172.534008
 30
0.0
 11
161.844913
 21
179.534008
 31
0.0
  0
LINE
  5
1A99
100
AcDbEntity
  8
外形
  6
CONTINUOUS
100
AcDbLine
 10
162.844913
 20
179.034008
 30
0.0
 11
162.844913
 21
173.034008
 31
0.0
  0
LINE
  5
1A9A
100
AcDbEntity
  8
外形
  6
CONTINUOUS
100
AcDbLine
 10
77.914361
 20
179.534008
 30
0.0
 11
162.344913
 21
179.534008
 31
0.0
  0
LINE
  5
1A9B
100
AcDbEntity
  8
外形
  6
CONTINUOUS
100
AcDbLine
 10
72.844913
 20
172.534008
 30
0.0
 11
162.344913
 21
172.534008
 31
0.0
  0
LINE
  5
1A9C
100
AcDbEntity
  8
外形
  6
CONTINUOUS
100
AcDbLine
 10
72.844913
 20
172.534008
 30
0.0
 11
72.844913
 21
176.195322
 31
0.0
  0
LINE
  5
1AA9
100
AcDbEntity
  8
外形
  6
CONTINUOUS
100
AcDbLine
 10
72.344913
 20
172.034008
 30
0.0
 11
63.205624
 21
172.034008
 31
0.0
  0
LINE
  5
1AAB
100
AcDbEntity
  8
外形
  6
CONTINUOUS
100
AcDbLine
 10
72.844913
 20
172.534008
 30
0.0
 11
72.344913
 21
172.034008
 31
0.0
  0
LINE
  5
1AAC
100
AcDbEntity
  8
外形
  6
CONTINUOUS
100
AcDbLine
 10
72.344913
 20
176.154255
 30
0.0
 11
72.344913
 21
172.034008
 31
0.0
  0
LINE
  5
1AAF
100
AcDbEntity
  8
外形
  6
CONTINUOUS
100
AcDbLine
 10
66.045012
 20
173.728386
 30
0.0
 11
63.057385
 21
173.728386
 31
0.0
  0
LINE
  5
1AC0
100
AcDbEntity
  8
外形
  6
CONTINUOUS
100
AcDbLine
 10
64.76826
 20
177.854144
 30
0.0
 11
68.521538
 21
177.854144
 31
0.0
  0
LINE
  5
1AC1
100
AcDbEntity
  8
外形
  6
CONTINUOUS
100
AcDbLine
 10
66.045012
 20
176.251168
 30
0.0
 11
66.045012
 21
173.728386
 31
0.0
  0
LINE
  5
1AC3
100
AcDbEntity
  8
外形
  6
CONTINUOUS
100
AcDbLine
 10
63.266425
 20
176.034008
 30
0.0
 11
64.76826
 21
177.854144
 31
0.0
  0
LINE
  5
1AC8
100
AcDbEntity
  8
外形
  6
CONTINUOUS
100
AcDbLine
 10
64.375878
 20
177.3786
 30
0.0
 11
68.874647
 21
176.472319
 31
0.0
  0
LINE
  5
1AC9
100
AcDbEntity
  8
外形
  6
CONTINUOUS
100
AcDbLine
 10
68.874647
 20
176.472319
 30
0.0
 11
63.266425
 21
176.034008
 31
0.0
  0
SPLINE
  5
1B01
100
AcDbEntity
  8
外形
  6
CONTINUOUS
100
AcDbSpline
210
0.0
220
0.0
230
1.0
 70
     8
 71
     3
 72
    17
 73
    13
 74
     0
 42
0.0000001
 43
0.0000001
 40
0.9460835157900746
 40
0.9460835157900746
 40
0.9460835157900746
 40
0.9460835157900746
 40
3.392594238266896
 40
4.664492632116373
 40
5.58468344232085
 40
6.531711998802561
 40
8.119296029995673
 40
10.3347619739421
 40
11.86842621843332
 40
13.21831769486039
 40
14.80002108426463
 40
18.41953899790193
 40
18.41953899790193
 40
18.41953899790193
 40
18.41953899790193
 10
72.84491321621453
 20
216.8722872172973
 30
0.0
 10
73.65876458730426
 20
216.9060184504893
 30
0.0
 10
74.8953438009012
 20
216.9846852528984
 30
0.0
 10
76.43535888112729
 20
217.2691061995988
 30
0.0
 10
77.35017973574954
 20
217.7974039299234
 30
0.0
 10
78.16158919684757
 20
218.6906590468816
 30
0.0
 10
77.97796792419146
 20
220.5014627147625
 30
0.0
 10
76.50479323756403
 20
221.6694771634022
 30
0.0
 10
75.02516301630051
 20
222.481179869008
 30
0.0
 10
73.61980136578939
 20
222.9991048693592
 30
0.0
 10
71.46816200009931
 20
223.4130468849274
 30
0.0
 10
69.73066118058072
 20
223.4469065143435
 30
0.0
 10
68.52153836599689
 20
223.4704693523926
 30
0.0
  0
SPLINE
  5
1B20
100
AcDbEntity
  8
外形
  6
CONTINUOUS
100
AcDbSpline
210
0.0
220
0.0
230
1.0
 70
     8
 71
     3
 72
    11
 73
     7
 74
     5
 42
0.0000001
 43
0.0000001
 44
0.0000000001
 40
0.0
 40
0.0
 40
0.0
 40
0.0
 40
3.424693030054875
 40
4.775120552695442
 40
5.749058945958405
 40
7.630273516398975
 40
7.630273516398975
 40
7.630273516398975
 40
7.630273516398975
 10
71.90067181197463
 20
176.1216967495805
 30
0.0
 10
73.05767720511369
 20
176.2049600696983
 30
0.0
 10
74.67091383212583
 20
176.3210558446163
 30
0.0
 10
76.41045223474577
 20
177.1021569398947
 30
0.0
 10
77.67124732593126
 20
177.8540014550203
 30
0.0
 10
77.81780013981647
 20
178.8667343862401
 30
0.0
 10
77.9143614422492
 20
179.5340078985161
 30
0.0
 11
71.90067181197463
 21
176.1216967495805
 31
0.0
 11
75.28507317404894
 21
176.6454808372502
 31
0.0
 11
76.52218294261533
 21
177.1869731404483
 31
0.0
 11
77.31670866555544
 21
177.750253594093
 31
0.0
 11
77.9143614422492
 21
179.5340078985161
 31
0.0
  0
SPLINE
  5
1B2A
100
AcDbEntity
  8
外形
  6
CONTINUOUS
100
AcDbSpline
210
0.0
220
0.0
230
1.0
 70
     8
 71
     3
 72
    10
 73
     6
 74
     4
 42
0.0000001
 43
0.0000001
 44
0.0000000001
 40
0.0
 40
0.0
 40
0.0
 40
0.0
 40
1.705992900455038
 40
4.398118744029752
 40
9.583967894797044
 40
9.583967894797044
 40
9.583967894797044
 40
9.583967894797044
 10
77.9143614422492
 20
179.5340078984837
 30
0.0
 10
77.37784757797832
 20
179.3455306032356
 30
0.0
 10
75.99469312156049
 20
178.8596285078436
 30
0.0
 10
72.88305664597658
 20
178.0831046551987
 30
0.0
 10
70.2528978528556
 20
177.9450326807801
 30
0.0
 10
68.52153836599689
 20
177.8541437871497
 30
0.0
 11
77.9143614422492
 21
179.5340078984837
 31
0.0
 11
76.29808117982969
 21
178.9880684423935
 31
0.0
 11
73.68424053716005
 21
178.3435696818274
 31
0.0
 11
68.52153836599689
 21
177.8541437871497
 31
0.0
  0
LINE
  5
1B2B
100
AcDbEntity
  8
外形
  6
CONTINUOUS
100
AcDbLine
 10
71.900672
 20
176.121697
 30
0.0
 11
66.045012
 21
176.121697
 31
0.0
  0
LINE
  5
1B2C
100
AcDbEntity
  8
外形
  6
CONTINUOUS
100
AcDbLine
 10
64.716562
 20
223.470469
 30
0.0
 11
68.521538
 21
223.470469
 31
0.0
  0
DIMENSION
  5
1B3C
100
AcDbEntity
  8
寸法
  6
CONTINUOUS
100
AcDbDimension
  2
*D2
 10
128.220765
 20
208.119668
 30
0.0
 11
124.720765
 21
210.619668
 31
0.0
 12
16.537571
 22
-112.355487
 32
0.0
 70
    32
  3
STANDARD
100
AcDbAlignedDimension
 13
121.220765
 23
218.435796
 33
0.0
 14
128.220765
 24
218.435796
 34
0.0
100
AcDbRotatedDimension
1001
ACAD
1000
DSTYLE
1002
{
1070
   284
1070
    13
1070
   146
1040
0.5
1070
   272
1070
     3
1070
    40
1040
1.0
1070
   287
1070
     0
1002
}
  0
DIMENSION
  5
1B52
100
AcDbEntity
  8
寸法
  6
CONTINUOUS
100
AcDbDimension
  2
*D3
 10
122.651451
 20
216.94914
 30
0.0
 11
132.67631
 21
233.532686
 31
0.0
 12
16.537571
 22
-112.355487
 32
0.0
 70
   163
  3
STANDARD
100
AcDbDiametricDimension
 15
126.79008
 25
223.795435
 35
0.0
 40
0.0
1001
ACAD
1000
DSTYLE
1002
{
1070
   284
1070
    13
1070
   146
1040
0.5
1070
   272
1070
     3
1070
    40
1040
1.0
1070
   287
1070
     0
1002
}
  0
DIMENSION
  5
1B69
100
AcDbEntity
  8
寸法
  6
CONTINUOUS
100
AcDbDimension
  2
*D4
 10
162.844913
 20
197.412264
 30
0.0
 11
112.844913
 21
199.912264
 31
0.0
 12
16.537571
 22
-112.355487
 32
0.0
 70
    32
  3
STANDARD
100
AcDbAlignedDimension
 13
62.844913
 23
215.372287
 33
0.0
 14
162.844913
 24
217.372287
 34
0.0
100
AcDbRotatedDimension
1001
ACAD
1000
DSTYLE
1002
{
1070
   284
1070
    13
1070
   146
1040
0.5
1070
   272
1070
     3
1070
    40
1040
1.0
1070
   287
1070
     0
1002
}
  0
DIMENSION
  5
1B81
100
AcDbEntity
  8
寸法
  6
CONTINUOUS
100
AcDbDimension
  2
*D5
 10
58.761808
 20
220.372287
 30
0.0
 11
56.261808
 21
226.372287
 31
0.0
 12
16.537571
 22
-112.355487
 32
0.0
 70
    32
  3
STANDARD
100
AcDbAlignedDimension
 13
62.844913
 23
215.372287
 33
0.0
 14
60.447339
 24
220.372287
 34
0.0
 50
90.0
100
AcDbRotatedDimension
1001
ACAD
1000
DSTYLE
1002
{
1070
   284
1070
    13
1070
   146
1040
0.5
1070
   272
1070
     3
1070
    40
1040
1.0
1070
   287
1070
     0
1002
}
  0
LINE
  5
1C05
100
AcDbEntity
  8
寸法
  6
CONTINUOUS
100
AcDbLine
 10
62.855943
 20
215.582754
 30
0.0
 11
62.855943
 21
217.896013
 31
0.0
  0
ARC
  5
1C3F
100
AcDbEntity
  8
外形
  6
CONTINUOUS
100
AcDbCircle
 10
65.468599
 20
218.753098
 30
0.0
 40
0.2
100
AcDbArc
 50
240.283476
 51
299.716524
  0
ARC
  5
1C40
100
AcDbEntity
  8
外形
  6
CONTINUOUS
100
AcDbCircle
 10
64.858863
 20
218.401067
 30
0.0
 40
0.2
100
AcDbArc
 50
300.283476
 51
359.716524
  0
ARC
  5
1C41
100
AcDbEntity
  8
外形
  6
CONTINUOUS
100
AcDbCircle
 10
64.858863
 20
217.697005
 30
0.0
 40
0.2
100
AcDbArc
 50
0.283476
 51
59.716524
  0
ARC
  5
1C42
100
AcDbEntity
  8
外形
  6
CONTINUOUS
100
AcDbCircle
 10
65.468599
 20
217.344974
 30
0.0
 40
0.2
100
AcDbArc
 50
60.283476
 51
119.716524
  0
ARC
  5
1C43
100
AcDbEntity
  8
外形
  6
CONTINUOUS
100
AcDbCircle
 10
66.078335
 20
217.697005
 30
0.0
 40
0.2
100
AcDbArc
 50
120.283476
 51
179.716524
  0
ARC
  5
1C44
100
AcDbEntity
  8
外形
  6
CONTINUOUS
100
AcDbCircle
 10
66.078335
 20
218.401067
 30
0.0
 40
0.2
100
AcDbArc
 50
180.283476
 51
239.716524
  0
LINE
  5
1C45
100
AcDbEntity
  8
外形
  6
CONTINUOUS
100
AcDbLine
 10
65.876578
 20
217.342396
 30
0.0
 11
65.567741
 21
217.518672
 31
0.0
  0
LINE
  5
1C46
100
AcDbEntity
  8
外形
  6
CONTINUOUS
100
AcDbLine
 10
65.878337
 20
217.697994
 30
0.0
 11
65.876578
 21
217.342396
 31
0.0
  0
LINE
  5
1C47
100
AcDbEntity
  8
外形
  6
CONTINUOUS
100
AcDbLine
 10
65.06062
 20
217.342396
 30
0.0
 11
65.058861
 21
217.697994
 31
0.0
  0
LINE
  5
1C48
100
AcDbEntity
  8
外形
  6
CONTINUOUS
100
AcDbLine
 10
65.369457
 20
217.518672
 30
0.0
 11
65.06062
 21
217.342396
 31
0.0
  0
LINE
  5
1C49
100
AcDbEntity
  8
外形
  6
CONTINUOUS
100
AcDbLine
 10
64.652642
 20
218.049036
 30
0.0
 11
64.959719
 21
218.228359
 31
0.0
  0
LINE
  5
1C4A
100
AcDbEntity
  8
外形
  6
CONTINUOUS
100
AcDbLine
 10
64.959719
 20
217.869713
 30
0.0
 11
64.652642
 21
218.049036
 31
0.0
  0
LINE
  5
1C4B
100
AcDbEntity
  8
外形
  6
CONTINUOUS
100
AcDbLine
 10
65.06062
 20
218.755676
 30
0.0
 11
65.369457
 21
218.5794
 31
0.0
  0
LINE
  5
1C4C
100
AcDbEntity
  8
外形
  6
CONTINUOUS
100
AcDbLine
 10
65.058861
 20
218.400077
 30
0.0
 11
65.06062
 21
218.755676
 31
0.0
  0
LINE
  5
1C4D
100
AcDbEntity
  8
外形
  6
CONTINUOUS
100
AcDbLine
 10
65.876578
 20
218.755676
 30
0.0
 11
65.878337
 21
218.400077
 31
0.0
  0
LINE
  5
1C4E
100
AcDbEntity
  8
外形
  6
CONTINUOUS
100
AcDbLine
 10
65.567741
 20
218.5794
 30
0.0
 11
65.876578
 21
218.755676
 31
0.0
  0
LINE
  5
1C4F
100
AcDbEntity
  8
外形
  6
CONTINUOUS
100
AcDbLine
 10
66.284556
 20
218.049036
 30
0.0
 11
65.977479
 21
217.869713
 31
0.0
  0
LINE
  5
1C50
100
AcDbEntity
  8
外形
  6
CONTINUOUS
100
AcDbLine
 10
65.977479
 20
218.228359
 30
0.0
 11
66.284556
 21
218.049036
 31
0.0
  0
CIRCLE
  5
1C51
100
AcDbEntity
  8
外形
  6
CONTINUOUS
100
AcDbCircle
 10
65.468599
 20
218.049036
 30
0.0
 40
1.35
  0
DIMENSION
  5
1C70
100
AcDbEntity
  8
寸法
  6
CONTINUOUS
100
AcDbDimension
  2
*D7
 10
28.347403
 20
215.248492
 30
0.0
 11
16.715325
 21
204.997735
 31
0.0
 70
    34
  3
STANDARD
100
AcDb2LineAngularDimension
 13
28.380864
 23
214.350083
 33
0.0
 14
28.380864
 24
226.394492
 34
0.0
 15
30.201
 25
223.277301
 35
0.0
 16
27.095673
 26
198.432908
 36
0.0
1001
ACAD
1000
DSTYLE
1002
{
1070
   284
1070
    13
1070
   146
1040
0.5
1070
   272
1070
     3
1070
    40
1040
1.0
1070
   287
1070
     0
1002
}
  0
MTEXT
  5
1CD9
100
AcDbEntity
  8
寸法
  6
BYBLOCK
 62
     3
100
AcDbMText
 10
41.731488
 20
232.239364
 30
0.0
 40
3.0
 41
0.0
 71
     5
 72
     1
  1
最小加工径
 11
0.0
 21
1.0
 31
0.0
  0
DIMENSION
  5
1CDA
100
AcDbEntity
  8
寸法
  6
CONTINUOUS
100
AcDbDimension
  2
*D8
 10
38.611642
 20
242.121123
 30
0.0
 11
38.611642
 21
231.570648
 31
0.0
 70
   160
  1
%%c10
  3
STANDARD
100
AcDbAlignedDimension
 13
61.884904
 23
215.372287
 33
0.0
 14
61.884904
 24
242.121123
 34
0.0
 50
90.0
100
AcDbRotatedDimension
1001
ACAD
1000
DSTYLE
1002
{
1070
   284
1070
    13
1070
   146
1040
0.5
1070
   272
1070
     3
1070
    76
1070
     1
1070
   282
1070
     1
1070
    40
1040
1.0
1070
   287
1070
     0
1002
}
  0
DIMENSION
  5
1D2D
100
AcDbEntity
  8
寸法
  6
CONTINUOUS
100
AcDbDimension
  2
*D9
 10
80.844913
 20
204.188909
 30
0.0
 11
71.850291
 21
206.688909
 31
0.0
 70
    32
  1
18
  3
STANDARD
100
AcDbAlignedDimension
 13
62.855669
 23
215.372287
 33
0.0
 14
80.844913
 24
216.872287
 34
0.0
100
AcDbRotatedDimension
1001
ACAD
1000
DSTYLE
1002
{
1070
   284
1070
    13
1070
   146
1040
0.5
1070
   272
1070
     3
1070
    40
1040
1.0
1070
   287
1070
     0
1002
}
  0
LINE
  5
1D44
100
AcDbEntity
  8
外形
  6
CONTINUOUS
100
AcDbLine
 10
62.855669
 20
176.034008
 30
0.0
 11
63.205624
 21
172.034008
 31
0.0
  0
LINE
  5
1D45
100
AcDbEntity
  8
外形
  6
CONTINUOUS
100
AcDbLine
 10
62.855669
 20
176.034008
 30
0.0
 11
66.045012
 21
176.034008
 31
0.0
  0
LINE
  5
1D4D
100
AcDbEntity
  8
寸法
  6
CONTINUOUS
100
AcDbLine
 10
63.080043
 20
215.373778
 30
0.0
 11
62.843495
 21
215.373778
 31
0.0
  0
DIMENSION
  5
1D5C
100
AcDbEntity
  8
寸法
  6
CONTINUOUS
100
AcDbDimension
  2
*D10
 10
62.855943
 20
215.582754
 30
0.0
 11
49.679425
 21
229.24739
 31
0.0
 70
    34
  3
STANDARD
100
AcDb2LineAngularDimension
 13
63.080043
 23
215.373778
 33
0.0
 14
62.843495
 24
215.373778
 34
0.0
 15
62.991998
 25
218.178829
 35
0.0
 16
55.039491
 26
230.053788
 36
0.0
1001
ACAD
1000
DSTYLE
1002
{
1070
   284
1070
    13
1070
   146
1040
0.5
1070
   272
1070
     3
1070
    40
1040
1.0
1070
   287
1070
     0
1002
}
  0
ENDSEC
  0
SECTION
  2
OBJECTS
  0
DICTIONARY
  5
1E
100
AcDbDictionary
  3
ACAD_GROUP
350
1C
  3
ACAD_MLINESTYLE
350
1D
  3
ACDBVARIABLEDICTIONARY
350
147A
  3
DRAWINGVARIABLESDICT
350
C58
  0
DICTIONARY
  5
38
100
AcDbDictionary
280
     1
  3
ACAD_XREC_ROUNDTRIP
360
39
  0
DICTIONARY
  5
22
100
AcDbDictionary
280
     1
  3
ACAD_XREC_ROUNDTRIP
360
23
  0
DICTIONARY
  5
3
100
AcDbDictionary
280
     1
  3
ACAD_LAYOUTSELFREF
360
4
  0
DICTIONARY
  5
A
100
AcDbDictionary
280
     1
  3
ACAD_LAYOUTSELFREF
360
B
  0
DICTIONARY
  5
1C
102
{ACAD_REACTORS
330
1E
102
}
100
AcDbDictionary
  0
DICTIONARY
  5
1D
102
{ACAD_REACTORS
330
1E
102
}
100
AcDbDictionary
  3
STANDARD
350
20
  0
DICTIONARY
  5
147A
102
{ACAD_REACTORS
330
1E
102
}
100
AcDbDictionary
  3
SORTENTS
350
147B
  0
DICTIONARY
  5
C58
102
{ACAD_REACTORS
330
1E
102
}
100
AcDbDictionary
1001
DRAWINGVARIABLESXDATA
1000
POLARMODE
1000
0
  0
XRECORD
  5
39
102
{ACAD_REACTORS
330
38
102
}
100
AcDbXrecord
102
PLOTBIT
280
     0
  0
XRECORD
  5
23
102
{ACAD_REACTORS
330
22
102
}
100
AcDbXrecord
102
ACADR14ROUNDTRIP
1000
DSTYLE
1002
{
1070
   341
340
0
1070
   343
340
0
1070
   344
340
0
1002
}
  0
XRECORD
  5
4
102
{ACAD_REACTORS
330
3
102
}
100
AcDbXrecord
340
2
  0
XRECORD
  5
B
102
{ACAD_REACTORS
330
A
102
}
100
AcDbXrecord
340
9
  0
MLINESTYLE
  5
20
102
{ACAD_REACTORS
330
1D
102
}
100
AcDbMlineStyle
  2
STANDARD
 70
     0
  3

 62
     0
 51
90.0
 52
90.0
 71
     2
 49
0.5
 62
   256
  6
BYLAYER
 49
-0.5
 62
   256
  6
BYLAYER
  0
DICTIONARYVAR
  5
147B
102
{ACAD_REACTORS
330
147A
102
}
100
DictionaryVariables
280
     0
  1
96
  0
ENDSEC
  0
EOF
