  0
SECTION
  2
HEADER
  9
$ACADVER
  1
AC1014
  9
$ACADMAINTVER
 70
     0
  9
$DWGCODEPAGE
  3
ANSI_932
  9
$INSBASE
 10
-587.250952
 20
747.890188
 30
0.0
  9
$EXTMIN
 10
11.513022
 20
150.213866
 30
0.0
  9
$EXTMAX
 10
190.903894
 20
241.121123
 30
0.0
  9
$LIMMIN
 10
-587.250952
 20
327.890188
  9
$LIMMAX
 10
600.749048
 20
957.890188
  9
$ORTHOMODE
 70
     1
  9
$REGENMODE
 70
     1
  9
$FILLMODE
 70
     1
  9
$QTEXTMODE
 70
     0
  9
$MIRRTEXT
 70
     1
  9
$DRAGMODE
 70
     2
  9
$LTSCALE
 40
5.0
  9
$OSMODE
 70
    37
  9
$ATTMODE
 70
     1
  9
$TEXTSIZE
 40
5.0
  9
$TRACEWID
 40
0.05
  9
$TEXTSTYLE
  7
STANDARD
  9
$CLAYER
  8
寸法
  9
$CELTYPE
  6
CONTINUOUS
  9
$CECOLOR
 62
   256
  9
$CELTSCALE
 40
1.0
  9
$DELOBJ
 70
     1
  9
$DISPSILH
 70
     0
  9
$DIMSCALE
 40
1.0
  9
$DIMASZ
 40
2.0
  9
$DIMEXO
 40
1.0
  9
$DIMDLI
 40
8.0
  9
$DIMRND
 40
0.0
  9
$DIMDLE
 40
0.0
  9
$DIMEXE
 40
2.0
  9
$DIMTP
 40
0.0
  9
$DIMTM
 40
0.0
  9
$DIMTXT
 40
3.0
  9
$DIMCEN
 40
-1.0
  9
$DIMTSZ
 40
0.0
  9
$DIMTOL
 70
     0
  9
$DIMLIM
 70
     0
  9
$DIMTIH
 70
     0
  9
$DIMTOH
 70
     0
  9
$DIMSE1
 70
     0
  9
$DIMSE2
 70
     0
  9
$DIMTAD
 70
     1
  9
$DIMZIN
 70
     8
  9
$DIMBLK
  1

  9
$DIMASO
 70
     1
  9
$DIMSHO
 70
     1
  9
$DIMPOST
  1

  9
$DIMAPOST
  1

  9
$DIMALT
 70
     0
  9
$DIMALTD
 70
     2
  9
$DIMALTF
 40
25.4
  9
$DIMLFAC
 40
1.0
  9
$DIMTOFL
 70
     1
  9
$DIMTVP
 40
0.0
  9
$DIMTIX
 70
     0
  9
$DIMSOXD
 70
     0
  9
$DIMSAH
 70
     1
  9
$DIMBLK1
  1
_OPEN30
  9
$DIMBLK2
  1
_OPEN30
  9
$DIMSTYLE
  2
STANDARD
  9
$DIMCLRD
 70
     1
  9
$DIMCLRE
 70
     1
  9
$DIMCLRT
 70
     3
  9
$DIMTFAC
 40
1.0
  9
$DIMGAP
 40
1.0
  9
$DIMJUST
 70
     0
  9
$DIMSD1
 70
     0
  9
$DIMSD2
 70
     0
  9
$DIMTOLJ
 70
     1
  9
$DIMTZIN
 70
     8
  9
$DIMALTZ
 70
     0
  9
$DIMALTTZ
 70
     0
  9
$DIMFIT
 70
     3
  9
$DIMUPT
 70
     0
  9
$DIMUNIT
 70
     2
  9
$DIMDEC
 70
     2
  9
$DIMTDEC
 70
     2
  9
$DIMALTU
 70
     2
  9
$DIMALTTD
 70
     2
  9
$DIMTXSTY
  7
STANDARD
  9
$DIMAUNIT
 70
     0
  9
$LUNITS
 70
     2
  9
$LUPREC
 70
     0
  9
$SKETCHINC
 40
0.1
  9
$FILLETRAD
 40
0.0
  9
$AUNITS
 70
     0
  9
$AUPREC
 70
     0
  9
$MENU
  1
acad
  9
$ELEVATION
 40
0.0
  9
$PELEVATION
 40
0.0
  9
$THICKNESS
 40
0.0
  9
$LIMCHECK
 70
     0
  9
$BLIPMODE
 70
     0
  9
$CHAMFERA
 40
1.0
  9
$CHAMFERB
 40
1.0
  9
$CHAMFERC
 40
0.0
  9
$CHAMFERD
 40
0.0
  9
$SKPOLY
 70
     0
  9
$TDCREATE
 40
2450751.535399305
  9
$TDUPDATE
 40
2451997.824259259
  9
$TDINDWG
 40
1.8038881944
  9
$TDUSRTIMER
 40
1.8038881944
  9
$USRTIMER
 70
     1
  9
$ANGBASE
 50
0.0
  9
$ANGDIR
 70
     0
  9
$PDMODE
 70
    32
  9
$PDSIZE
 40
0.0
  9
$PLINEWID
 40
0.0
  9
$COORDS
 70
     2
  9
$SPLFRAME
 70
     0
  9
$SPLINETYPE
 70
     5
  9
$SPLINESEGS
 70
     8
  9
$ATTDIA
 70
     0
  9
$ATTREQ
 70
     1
  9
$HANDLING
 70
     1
  9
$HANDSEED
  5
1F43
  9
$SURFTAB1
 70
     6
  9
$SURFTAB2
 70
     6
  9
$SURFTYPE
 70
     6
  9
$SURFU
 70
     6
  9
$SURFV
 70
     6
  9
$UCSNAME
  2

  9
$UCSORG
 10
40.53800450572526
 20
146.9196145921314
 30
0.0
  9
$UCSXDIR
 10
1.0
 20
0.0
 30
0.0
  9
$UCSYDIR
 10
0.0
 20
1.0
 30
0.0
  9
$PUCSNAME
  2

  9
$PUCSORG
 10
0.0
 20
0.0
 30
0.0
  9
$PUCSXDIR
 10
1.0
 20
0.0
 30
0.0
  9
$PUCSYDIR
 10
0.0
 20
1.0
 30
0.0
  9
$USERI1
 70
     0
  9
$USERI2
 70
     0
  9
$USERI3
 70
     0
  9
$USERI4
 70
     0
  9
$USERI5
 70
     0
  9
$USERR1
 40
0.0
  9
$USERR2
 40
0.0
  9
$USERR3
 40
0.0
  9
$USERR4
 40
0.0
  9
$USERR5
 40
0.0
  9
$WORLDVIEW
 70
     1
  9
$SHADEDGE
 70
     3
  9
$SHADEDIF
 70
    70
  9
$TILEMODE
 70
     1
  9
$MAXACTVP
 70
    16
  9
$PINSBASE
 10
0.0
 20
0.0
 30
0.0
  9
$PLIMCHECK
 70
     0
  9
$PEXTMIN
 10
1.000000E+20
 20
1.000000E+20
 30
1.000000E+20
  9
$PEXTMAX
 10
-1.000000E+20
 20
-1.000000E+20
 30
-1.000000E+20
  9
$PLIMMIN
 10
0.0
 20
0.0
  9
$PLIMMAX
 10
12.0
 20
9.0
  9
$UNITMODE
 70
     0
  9
$VISRETAIN
 70
     0
  9
$PLINEGEN
 70
     0
  9
$PSLTSCALE
 70
     1
  9
$TREEDEPTH
 70
  3020
  9
$PICKSTYLE
 70
     1
  9
$CMLSTYLE
  2
STANDARD
  9
$CMLJUST
 70
     0
  9
$CMLSCALE
 40
1.0
  9
$PROXYGRAPHICS
 70
     1
  9
$MEASUREMENT
 70
     0
  0
ENDSEC
  0
SECTION
  2
CLASSES
  0
CLASS
  1
LWPOLYLINE
  2
AcDbPolyline
  3
"AutoCAD"
 90
        0
280
     0
281
     1
  0
CLASS
  1
ACDBDICTIONARYWDFLT
  2
AcDbDictionaryWithDefault
  3
AutoCAD 2000
 90
        0
280
     1
281
     0
  0
CLASS
  1
ACDBPLACEHOLDER
  2
AcDbPlaceHolder
  3
AutoCAD 2000
 90
        0
280
     1
281
     0
  0
CLASS
  1
LAYOUT
  2
AcDbLayout
  3
AutoCAD 2000
 90
        0
280
     1
281
     0
  0
CLASS
  1
LONG_TRANSACTION
  2
AcDbLongTransaction
  3
AutoCAD 2000
 90
        0
280
     1
281
     0
  0
CLASS
  1
LWPOLYLINE
  2
AcDbPolyline
  3
"AutoCAD"
 90
        0
280
     0
281
     1
  0
CLASS
  1
HATCH
  2
AcDbHatch
  3
"ACAD_SEDONA"
 90
        0
280
     0
281
     1
  0
CLASS
  1
XRECORD
  2
AcDbXrecord
  3
"<Built In>"
 90
        0
280
     0
281
     0
  0
CLASS
  1
DICTIONARYVAR
  2
AcDbDictionaryVar
  3
"AutoCAD"
 90
        0
280
     0
281
     0
  0
ENDSEC
  0
SECTION
  2
TABLES
  0
TABLE
  2
VPORT
  5
16
100
AcDbSymbolTable
 70
     1
  0
VPORT
  5
1F3E
100
AcDbSymbolTableRecord
100
AcDbViewportTableRecord
  2
*ACTIVE
 70
     0
 10
0.0
 20
0.0
 11
1.0
 21
1.0
 12
125.751734
 22
186.450393
 13
0.0
 23
0.0
 14
1.0
 24
1.0
 15
10.0
 25
10.0
 16
0.0
 26
0.0
 36
1.0
 17
0.0
 27
0.0
 37
0.0
 40
148.650061
 41
1.710425
 42
50.0
 43
0.0
 44
0.0
 50
0.0
 51
0.0
 71
     0
 72
   100
 73
     1
 74
     1
 75
     0
 76
     0
 77
     0
 78
     2
  0
ENDTAB
  0
TABLE
  2
LTYPE
  5
11
100
AcDbSymbolTable
 70
     2
  0
LTYPE
  5
12
100
AcDbSymbolTableRecord
100
AcDbLinetypeTableRecord
  2
BYBLOCK
 70
     0
  3

 72
    65
 73
     0
 40
0.0
  0
LTYPE
  5
13
100
AcDbSymbolTableRecord
100
AcDbLinetypeTableRecord
  2
BYLAYER
 70
     0
  3

 72
    65
 73
     0
 40
0.0
  0
LTYPE
  5
7
100
AcDbSymbolTableRecord
100
AcDbLinetypeTableRecord
  2
CONTINUOUS
 70
     0
  3
Solid line
 72
    65
 73
     0
 40
0.0
  0
LTYPE
  5
AA
100
AcDbSymbolTableRecord
100
AcDbLinetypeTableRecord
  2
CENTER
 70
     0
  3
Center ____ _ ____ _ ____ _ ____ _ ____ _ ____
 72
    65
 73
     4
 40
2.0
 49
1.25
 74
     0
 49
-0.25
 74
     0
 49
0.25
 74
     0
 49
-0.25
 74
     0
  0
ENDTAB
  0
TABLE
  2
LAYER
  5
E
100
AcDbSymbolTable
 70
     4
  0
LAYER
  5
6
100
AcDbSymbolTableRecord
100
AcDbLayerTableRecord
  2
0
 70
     0
 62
     7
  6
CONTINUOUS
  0
LAYER
  5
2C
100
AcDbSymbolTableRecord
100
AcDbLayerTableRecord
  2
外形
 70
     0
 62
     3
  6
CONTINUOUS
  0
LAYER
  5
37
102
{ACAD_XDICTIONARY
360
38
102
}
100
AcDbSymbolTableRecord
100
AcDbLayerTableRecord
  2
DEFPOINTS
 70
     0
 62
     7
  6
CONTINUOUS
  0
LAYER
  5
1F
100
AcDbSymbolTableRecord
100
AcDbLayerTableRecord
  2
寸法
 70
     0
 62
     1
  6
CONTINUOUS
  0
ENDTAB
  0
TABLE
  2
STYLE
  5
F
100
AcDbSymbolTable
 70
     1
  0
STYLE
  5
10
100
AcDbSymbolTableRecord
100
AcDbTextStyleTableRecord
  2
STANDARD
 70
     0
 40
0.0
 41
1.0
 50
0.0
 71
     0
 42
5.0
  3
MONOTXT
  4
BIGFONT
  0
ENDTAB
  0
TABLE
  2
VIEW
  5
14
100
AcDbSymbolTable
 70
     0
  0
ENDTAB
  0
TABLE
  2
UCS
  5
15
100
AcDbSymbolTable
 70
     0
  0
ENDTAB
  0
TABLE
  2
APPID
  5
18
100
AcDbSymbolTable
 70
     2
  0
APPID
  5
19
100
AcDbSymbolTableRecord
100
AcDbRegAppTableRecord
  2
ACAD
 70
     0
  0
APPID
  5
C59
100
AcDbSymbolTableRecord
100
AcDbRegAppTableRecord
  2
DRAWINGVARIABLESXDATA
 70
     0
  0
ENDTAB
  0
TABLE
  2
DIMSTYLE
  5
1A
100
AcDbSymbolTable
 70
     1
  0
DIMSTYLE
105
21
102
{ACAD_XDICTIONARY
360
22
102
}
102
{ACAD_REACTORS
330
1B69
330
1CDA
330
1D2A
330
1DDE
330
1E96
330
1EBC
330
1F09
330
1F16
102
}
100
AcDbSymbolTableRecord
100
AcDbDimStyleTableRecord
  2
STANDARD
 70
     0
  3

  4

  5

  6
_OPEN30
  7
_OPEN30
 40
0.0
 41
2.0
 42
1.0
 43
8.0
 44
2.0
 45
0.0
 46
0.0
 47
0.0
 48
0.0
140
3.0
141
-1.0
142
0.0
143
25.4
144
1.0
145
0.0
146
1.0
147
1.0
 71
     0
 72
     0
 73
     0
 74
     0
 75
     0
 76
     0
 77
     1
 78
     8
170
     0
171
     2
172
     1
173
     1
174
     0
175
     0
176
     1
177
     1
178
     3
270
     2
271
     2
272
     2
273
     2
274
     2
340
10
275
     0
280
     0
281
     0
282
     0
283
     1
284
     8
285
     0
286
     0
287
     3
288
     0
  0
ENDTAB
  0
TABLE
  2
BLOCK_RECORD
  5
1
100
AcDbSymbolTable
 70
     9
  0
BLOCK_RECORD
  5
2
102
{ACAD_XDICTIONARY
360
3
102
}
100
AcDbSymbolTableRecord
100
AcDbBlockTableRecord
  2
*MODEL_SPACE
  0
BLOCK_RECORD
  5
9
102
{ACAD_XDICTIONARY
360
A
102
}
100
AcDbSymbolTableRecord
100
AcDbBlockTableRecord
  2
*PAPER_SPACE
  0
BLOCK_RECORD
  5
470
100
AcDbSymbolTableRecord
100
AcDbBlockTableRecord
  2
_OPEN30
  0
BLOCK_RECORD
  5
1B5D
100
AcDbSymbolTableRecord
100
AcDbBlockTableRecord
  2
*D1
  0
BLOCK_RECORD
  5
1CDB
100
AcDbSymbolTableRecord
100
AcDbBlockTableRecord
  2
*D2
  0
BLOCK_RECORD
  5
1D1E
100
AcDbSymbolTableRecord
100
AcDbBlockTableRecord
  2
*D3
  0
BLOCK_RECORD
  5
1DCE
100
AcDbSymbolTableRecord
100
AcDbBlockTableRecord
  2
*D4
  0
BLOCK_RECORD
  5
1E8A
100
AcDbSymbolTableRecord
100
AcDbBlockTableRecord
  2
*D5
  0
BLOCK_RECORD
  5
1EAE
100
AcDbSymbolTableRecord
100
AcDbBlockTableRecord
  2
*D6
  0
BLOCK_RECORD
  5
1EFF
100
AcDbSymbolTableRecord
100
AcDbBlockTableRecord
  2
*D7
  0
BLOCK_RECORD
  5
1F0A
100
AcDbSymbolTableRecord
100
AcDbBlockTableRecord
  2
*D8
  0
ENDTAB
  0
ENDSEC
  0
SECTION
  2
BLOCKS
  0
BLOCK
  5
5
100
AcDbEntity
  8
0
100
AcDbBlockBegin
  2
*MODEL_SPACE
 70
     0
 10
0.0
 20
0.0
 30
0.0
  3
*MODEL_SPACE
  1

  0
ENDBLK
  5
8
100
AcDbEntity
  8
0
100
AcDbBlockEnd
  0
BLOCK
  5
C
100
AcDbEntity
 67
     1
  8
0
100
AcDbBlockBegin
  2
*PAPER_SPACE
 70
     0
 10
0.0
 20
0.0
 30
0.0
  3
*PAPER_SPACE
  1

  0
ENDBLK
  5
D
100
AcDbEntity
 67
     1
  8
0
100
AcDbBlockEnd
  0
BLOCK
  5
471
100
AcDbEntity
  8
0
100
AcDbBlockBegin
  2
_OPEN30
 70
     0
 10
0.0
 20
0.0
 30
0.0
  3
_OPEN30
  1

  0
LINE
  5
472
100
AcDbEntity
  8
0
  6
BYBLOCK
 62
     0
100
AcDbLine
 10
-1.0
 20
0.267949
 30
0.0
 11
0.0
 21
0.0
 31
0.0
  0
LINE
  5
473
100
AcDbEntity
  8
0
  6
BYBLOCK
 62
     0
100
AcDbLine
 10
0.0
 20
0.0
 30
0.0
 11
-1.0
 21
-0.267949
 31
0.0
  0
LINE
  5
474
100
AcDbEntity
  8
0
  6
BYBLOCK
 62
     0
100
AcDbLine
 10
0.0
 20
0.0
 30
0.0
 11
-1.0
 21
0.0
 31
0.0
  0
ENDBLK
  5
475
100
AcDbEntity
  8
0
100
AcDbBlockEnd
  0
BLOCK
  5
1D01
100
AcDbEntity
  8
0
100
AcDbBlockBegin
  2
*D1
 70
     1
 10
0.0
 20
0.0
 30
0.0
  3
*D1
  1

  0
LINE
  5
1D02
100
AcDbEntity
  8
0
  6
BYBLOCK
 62
     1
100
AcDbLine
 10
62.844913
 20
214.372287
 30
0.0
 11
62.844913
 21
195.412264
 31
0.0
  0
LINE
  5
1D03
100
AcDbEntity
  8
0
  6
BYBLOCK
 62
     1
100
AcDbLine
 10
187.844913
 20
216.372287
 30
0.0
 11
187.844913
 21
195.412264
 31
0.0
  0
LINE
  5
1D04
100
AcDbEntity
  8
0
  6
BYBLOCK
 62
     1
100
AcDbLine
 10
64.844913
 20
197.412264
 30
0.0
 11
185.844913
 21
197.412264
 31
0.0
  0
INSERT
  5
1D05
100
AcDbEntity
  8
0
  6
BYBLOCK
 62
     1
100
AcDbBlockReference
  2
_OPEN30
 10
62.844913
 20
197.412264
 30
0.0
 41
2.0
 42
2.0
 43
2.0
 50
180.0
  0
INSERT
  5
1D06
100
AcDbEntity
  8
0
  6
BYBLOCK
 62
     1
100
AcDbBlockReference
  2
_OPEN30
 10
187.844913
 20
197.412264
 30
0.0
 41
2.0
 42
2.0
 43
2.0
  0
MTEXT
  5
1D07
100
AcDbEntity
  8
0
  6
BYBLOCK
 62
     3
100
AcDbMText
 10
125.344913
 20
199.912264
 30
0.0
 40
3.0
 41
0.0
 71
     5
 72
     1
  1
\A1;125
  0
POINT
  5
1D08
100
AcDbEntity
  8
DEFPOINTS
  6
BYBLOCK
 62
     0
100
AcDbPoint
 10
62.844913
 20
215.372287
 30
0.0
  0
POINT
  5
1D09
100
AcDbEntity
  8
DEFPOINTS
  6
BYBLOCK
 62
     0
100
AcDbPoint
 10
187.844913
 20
217.372287
 30
0.0
  0
POINT
  5
1D0A
100
AcDbEntity
  8
DEFPOINTS
  6
BYBLOCK
 62
     0
100
AcDbPoint
 10
187.844913
 20
197.412264
 30
0.0
  0
ENDBLK
  5
1D0B
100
AcDbEntity
  8
0
100
AcDbBlockEnd
  0
BLOCK
  5
1EF1
100
AcDbEntity
  8
0
100
AcDbBlockBegin
  2
*D2
 70
     1
 10
0.0
 20
0.0
 30
0.0
  3
*D2
  1

  0
LINE
  5
1EF2
100
AcDbEntity
  8
0
  6
BYBLOCK
 62
     1
100
AcDbLine
 10
60.884904
 20
214.372287
 30
0.0
 11
41.577394
 21
214.372287
 31
0.0
  0
LINE
  5
1EF3
100
AcDbEntity
  8
0
  6
BYBLOCK
 62
     1
100
AcDbLine
 10
43.577394
 20
216.372287
 30
0.0
 11
43.577394
 21
235.570648
 31
0.0
  0
INSERT
  5
1EF4
100
AcDbEntity
  8
0
  6
BYBLOCK
 62
     1
100
AcDbBlockReference
  2
_OPEN30
 10
43.577394
 20
214.372287
 30
0.0
 41
2.0
 42
2.0
 43
2.0
 50
270.0
  0
MTEXT
  5
1EF5
100
AcDbEntity
  8
0
  6
BYBLOCK
 62
     3
100
AcDbMText
 10
41.077394
 20
230.570648
 30
0.0
 40
3.0
 41
0.0
 71
     5
 72
     1
  1
\A1;\U+220512
 11
0.0
 21
1.0
 31
0.0
  0
POINT
  5
1EF6
100
AcDbEntity
  8
DEFPOINTS
  6
BYBLOCK
 62
     0
100
AcDbPoint
 10
61.884904
 20
214.372287
 30
0.0
  0
POINT
  5
1EF7
100
AcDbEntity
  8
DEFPOINTS
  6
BYBLOCK
 62
     0
100
AcDbPoint
 10
61.884904
 20
241.121123
 30
0.0
  0
POINT
  5
1EF8
100
AcDbEntity
  8
DEFPOINTS
  6
BYBLOCK
 62
     0
100
AcDbPoint
 10
43.577394
 20
241.121123
 30
0.0
  0
ENDBLK
  5
1EF9
100
AcDbEntity
  8
0
100
AcDbBlockEnd
  0
BLOCK
  5
1EC8
100
AcDbEntity
  8
0
100
AcDbBlockBegin
  2
*D3
 70
     1
 10
0.0
 20
0.0
 30
0.0
  3
*D3
  1

  0
LINE
  5
1EC9
100
AcDbEntity
  8
0
  6
BYBLOCK
 62
     1
100
AcDbLine
 10
61.844913
 20
214.372287
 30
0.0
 11
57.447339
 21
214.372287
 31
0.0
  0
LINE
  5
1ECA
100
AcDbEntity
  8
0
  6
BYBLOCK
 62
     1
100
AcDbLine
 10
59.447339
 20
220.372287
 30
0.0
 11
57.447339
 21
220.372287
 31
0.0
  0
LINE
  5
1ECB
100
AcDbEntity
  8
0
  6
BYBLOCK
 62
     1
100
AcDbLine
 10
59.447339
 20
216.372287
 30
0.0
 11
59.447339
 21
218.372287
 31
0.0
  0
INSERT
  5
1ECC
100
AcDbEntity
  8
0
  6
BYBLOCK
 62
     1
100
AcDbBlockReference
  2
_OPEN30
 10
59.447339
 20
214.372287
 30
0.0
 41
2.0
 42
2.0
 43
2.0
 50
270.0
  0
INSERT
  5
1ECD
100
AcDbEntity
  8
0
  6
BYBLOCK
 62
     1
100
AcDbBlockReference
  2
_OPEN30
 10
59.447339
 20
220.372287
 30
0.0
 41
2.0
 42
2.0
 43
2.0
 50
90.0
  0
MTEXT
  5
1ECE
100
AcDbEntity
  8
0
  6
BYBLOCK
 62
     3
100
AcDbMText
 10
56.947339
 20
217.372287
 30
0.0
 40
3.0
 41
0.0
 71
     5
 72
     1
  1
\A1;6
 11
0.0
 21
1.0
 31
0.0
  0
POINT
  5
1ECF
100
AcDbEntity
  8
DEFPOINTS
  6
BYBLOCK
 62
     0
100
AcDbPoint
 10
62.844913
 20
214.372287
 30
0.0
  0
POINT
  5
1ED0
100
AcDbEntity
  8
DEFPOINTS
  6
BYBLOCK
 62
     0
100
AcDbPoint
 10
60.447339
 20
220.372287
 30
0.0
  0
POINT
  5
1ED1
100
AcDbEntity
  8
DEFPOINTS
  6
BYBLOCK
 62
     0
100
AcDbPoint
 10
59.447339
 20
220.372287
 30
0.0
  0
ENDBLK
  5
1ED2
100
AcDbEntity
  8
0
100
AcDbBlockEnd
  0
BLOCK
  5
1F2C
100
AcDbEntity
  8
0
100
AcDbBlockBegin
  2
*D4
 70
     1
 10
0.0
 20
0.0
 30
0.0
  3
*D4
  1

  0
LINE
  5
1F2D
100
AcDbEntity
  8
0
  6
BYBLOCK
 62
     1
100
AcDbLine
 10
28.189527
 20
213.298039
 30
0.0
 11
25.450069
 21
197.761803
 31
0.0
  0
LINE
  5
1F2E
100
AcDbEntity
  8
0
  6
BYBLOCK
 62
     1
100
AcDbLine
 10
28.380864
 20
211.128956
 30
0.0
 11
28.380864
 21
197.505391
 31
0.0
  0
ARC
  5
1F2F
100
AcDbEntity
  8
0
  6
BYBLOCK
 62
     1
100
AcDbCircle
 10
28.380864
 20
214.383166
 30
0.0
 40
14.877775
100
AcDbArc
 50
244.548828
 51
260.0
  0
LINE
  5
1F30
100
AcDbEntity
  8
0
  6
BYBLOCK
 62
     1
100
AcDbLine
 10
21.987263
 20
200.949252
 30
0.0
 11
11.513022
 21
205.934256
 31
0.0
  0
ARC
  5
1F31
100
AcDbEntity
  8
0
  6
BYBLOCK
 62
     1
100
AcDbCircle
 10
28.380864
 20
214.383166
 30
0.0
 40
14.877775
100
AcDbArc
 50
244.583982
 51
252.291991
  0
ARC
  5
1F32
100
AcDbEntity
  8
0
  6
BYBLOCK
 62
     1
100
AcDbCircle
 10
28.380864
 20
214.383166
 30
0.0
 40
14.877775
100
AcDbArc
 50
277.708009
 51
285.416018
  0
ARC
  5
1F33
100
AcDbEntity
  8
0
  6
BYBLOCK
 62
     1
100
AcDbCircle
 10
28.380864
 20
214.383166
 30
0.0
 40
14.877775
100
AcDbArc
 50
260.0
 51
270.0
  0
INSERT
  5
1F34
100
AcDbEntity
  8
0
  6
BYBLOCK
 62
     1
100
AcDbBlockReference
  2
_OPEN30
 10
25.797366
 20
199.731418
 30
0.0
 41
2.0
 42
2.0
 43
2.0
 50
346.145996
  0
INSERT
  5
1F35
100
AcDbEntity
  8
0
  6
BYBLOCK
 62
     1
100
AcDbBlockReference
  2
_OPEN30
 10
28.380864
 20
199.505391
 30
0.0
 41
2.0
 42
2.0
 43
2.0
 50
183.854004
  0
MTEXT
  5
1F36
100
AcDbEntity
  8
0
  6
BYBLOCK
 62
     3
100
AcDbMText
 10
17.824497
 20
205.699134
 30
0.0
 40
3.0
 41
0.0
 71
     5
 72
     1
  1
\A1;10°
 11
0.902952
 21
-0.429742
 31
0.0
  0
POINT
  5
1F37
100
AcDbEntity
  8
DEFPOINTS
  6
BYBLOCK
 62
     0
100
AcDbPoint
 10
27.515799
 20
199.530562
 30
0.0
  0
POINT
  5
1F38
100
AcDbEntity
  8
DEFPOINTS
  6
BYBLOCK
 62
     0
100
AcDbPoint
 10
30.167872
 20
224.517791
 30
0.0
  0
POINT
  5
1F39
100
AcDbEntity
  8
DEFPOINTS
  6
BYBLOCK
 62
     0
100
AcDbPoint
 10
28.380864
 20
212.128956
 30
0.0
  0
POINT
  5
1F3A
100
AcDbEntity
  8
DEFPOINTS
  6
BYBLOCK
 62
     0
100
AcDbPoint
 10
28.380864
 20
226.394492
 30
0.0
  0
POINT
  5
1F3B
100
AcDbEntity
  8
DEFPOINTS
  6
BYBLOCK
 62
     0
100
AcDbPoint
 10
28.363175
 20
214.282847
 30
0.0
  0
ENDBLK
  5
1F3C
100
AcDbEntity
  8
0
100
AcDbBlockEnd
  0
BLOCK
  5
1EA2
100
AcDbEntity
  8
0
100
AcDbBlockBegin
  2
*D5
 70
     1
 10
0.0
 20
0.0
 30
0.0
  3
*D5
  1

  0
LINE
  5
1EA3
100
AcDbEntity
  8
0
  6
BYBLOCK
 62
     1
100
AcDbLine
 10
62.855669
 20
213.372287
 30
0.0
 11
62.855669
 21
199.680847
 31
0.0
  0
LINE
  5
1EA4
100
AcDbEntity
  8
0
  6
BYBLOCK
 62
     1
100
AcDbLine
 10
82.854913
 20
214.872287
 30
0.0
 11
82.854913
 21
199.680847
 31
0.0
  0
LINE
  5
1EA5
100
AcDbEntity
  8
0
  6
BYBLOCK
 62
     1
100
AcDbLine
 10
64.855669
 20
201.680847
 30
0.0
 11
80.854913
 21
201.680847
 31
0.0
  0
INSERT
  5
1EA6
100
AcDbEntity
  8
0
  6
BYBLOCK
 62
     1
100
AcDbBlockReference
  2
_OPEN30
 10
62.855669
 20
201.680847
 30
0.0
 41
2.0
 42
2.0
 43
2.0
 50
180.0
  0
INSERT
  5
1EA7
100
AcDbEntity
  8
0
  6
BYBLOCK
 62
     1
100
AcDbBlockReference
  2
_OPEN30
 10
82.854913
 20
201.680847
 30
0.0
 41
2.0
 42
2.0
 43
2.0
  0
MTEXT
  5
1EA8
100
AcDbEntity
  8
0
  6
BYBLOCK
 62
     3
100
AcDbMText
 10
72.855291
 20
204.180847
 30
0.0
 40
3.0
 41
0.0
 71
     5
 72
     1
  1
\A1;20
  0
POINT
  5
1EA9
100
AcDbEntity
  8
DEFPOINTS
  6
BYBLOCK
 62
     0
100
AcDbPoint
 10
62.855669
 20
214.372287
 30
0.0
  0
POINT
  5
1EAA
100
AcDbEntity
  8
DEFPOINTS
  6
BYBLOCK
 62
     0
100
AcDbPoint
 10
82.854913
 20
215.872287
 30
0.0
  0
POINT
  5
1EAB
100
AcDbEntity
  8
DEFPOINTS
  6
BYBLOCK
 62
     0
100
AcDbPoint
 10
82.854913
 20
201.680847
 30
0.0
  0
ENDBLK
  5
1EAC
100
AcDbEntity
  8
0
100
AcDbBlockEnd
  0
BLOCK
  5
1EE4
100
AcDbEntity
  8
0
100
AcDbBlockBegin
  2
*D6
 70
     1
 10
0.0
 20
0.0
 30
0.0
  3
*D6
  1

  0
LINE
  5
1EE5
100
AcDbEntity
  8
0
  6
BYBLOCK
 62
     1
100
AcDbLine
 10
63.044334
 20
218.177459
 30
0.0
 11
63.527007
 21
227.387413
 31
0.0
  0
LINE
  5
1EE6
100
AcDbEntity
  8
0
  6
BYBLOCK
 62
     1
100
AcDbLine
 10
61.680487
 20
214.373778
 30
0.0
 11
49.813497
 21
214.373778
 31
0.0
  0
ARC
  5
1EE7
100
AcDbEntity
  8
0
  6
BYBLOCK
 62
     1
100
AcDbCircle
 10
62.844991
 20
214.373778
 30
0.0
 40
11.031494
100
AcDbArc
 50
97.401953
 51
169.598047
  0
INSERT
  5
1EE8
100
AcDbEntity
  8
0
  6
BYBLOCK
 62
     1
100
AcDbBlockReference
  2
_OPEN30
 10
63.422335
 20
225.390154
 30
0.0
 41
2.0
 42
2.0
 43
2.0
 50
2.200976
  0
INSERT
  5
1EE9
100
AcDbEntity
  8
0
  6
BYBLOCK
 62
     1
100
AcDbBlockReference
  2
_OPEN30
 10
51.813497
 20
214.373778
 30
0.0
 41
2.0
 42
2.0
 43
2.0
 50
264.799024
  0
MTEXT
  5
1EEA
100
AcDbEntity
  8
0
  6
BYBLOCK
 62
     3
100
AcDbMText
 10
53.530525
 20
224.189177
 30
0.0
 40
3.0
 41
0.0
 71
     5
 72
     1
  1
\A1;93°
 11
0.725374
 21
0.688355
 31
0.0
  0
POINT
  5
1EEB
100
AcDbEntity
  8
DEFPOINTS
  6
BYBLOCK
 62
     0
100
AcDbPoint
 10
57.666018
 20
224.114009
 30
0.0
  0
POINT
  5
1EEC
100
AcDbEntity
  8
DEFPOINTS
  6
BYBLOCK
 62
     0
100
AcDbPoint
 10
63.080043
 20
214.373778
 30
0.0
  0
POINT
  5
1EED
100
AcDbEntity
  8
DEFPOINTS
  6
BYBLOCK
 62
     0
100
AcDbPoint
 10
62.991998
 20
217.178829
 30
0.0
  0
POINT
  5
1EEE
100
AcDbEntity
  8
DEFPOINTS
  6
BYBLOCK
 62
     0
100
AcDbPoint
 10
62.855943
 20
214.582754
 30
0.0
  0
POINT
  5
1EEF
100
AcDbEntity
  8
DEFPOINTS
  6
BYBLOCK
 62
     0
100
AcDbPoint
 10
62.680487
 20
214.373778
 30
0.0
  0
ENDBLK
  5
1EF0
100
AcDbEntity
  8
0
100
AcDbBlockEnd
  0
BLOCK
  5
1F17
100
AcDbEntity
  8
0
100
AcDbBlockBegin
  2
*D7
 70
     1
 10
0.0
 20
0.0
 30
0.0
  3
*D7
  1

  0
LINE
  5
1F18
100
AcDbEntity
  8
0
  6
BYBLOCK
 62
     1
100
AcDbLine
 10
143.812916
 20
214.36684
 30
0.0
 11
144.840479
 21
212.650998
 31
0.0
  0
LINE
  5
1F19
100
AcDbEntity
  8
0
  6
BYBLOCK
 62
     1
100
AcDbLine
 10
136.619975
 20
226.377735
 30
0.0
 11
129.489032
 21
238.285104
 31
0.0
  0
LINE
  5
1F1A
100
AcDbEntity
  8
0
  6
BYBLOCK
 62
     1
100
AcDbLine
 10
142.785353
 20
216.082682
 30
0.0
 11
137.647538
 21
224.661893
 31
0.0
  0
INSERT
  5
1F1B
100
AcDbEntity
  8
0
  6
BYBLOCK
 62
     1
100
AcDbBlockReference
  2
_OPEN30
 10
142.785353
 20
216.082682
 30
0.0
 41
2.0
 42
2.0
 43
2.0
 50
120.916044
  0
INSERT
  5
1F1C
100
AcDbEntity
  8
0
  6
BYBLOCK
 62
     1
100
AcDbBlockReference
  2
_OPEN30
 10
137.647538
 20
224.661893
 30
0.0
 41
2.0
 42
2.0
 43
2.0
 50
300.916044
  0
MTEXT
  5
1F1D
100
AcDbEntity
  8
0
  6
BYBLOCK
 62
     3
100
AcDbMText
 10
134.202742
 20
235.279953
 30
0.0
 40
3.0
 41
0.0
 71
     5
 72
     1
  1
\A1;\U+220510
 11
0.513782
 21
-0.857921
 31
0.0
  0
POINT
  5
1F1E
100
AcDbEntity
  8
DEFPOINTS
  6
BYBLOCK
 62
     0
100
AcDbPoint
 10
137.647538
 20
224.661893
 30
0.0
  0
POINT
  5
1F1F
100
AcDbEntity
  8
DEFPOINTS
  6
BYBLOCK
 62
     0
100
AcDbPoint
 10
142.785353
 20
216.082682
 30
0.0
  0
ENDBLK
  5
1F20
100
AcDbEntity
  8
0
100
AcDbBlockEnd
  0
BLOCK
  5
1F21
100
AcDbEntity
  8
0
100
AcDbBlockBegin
  2
*D8
 70
     1
 10
0.0
 20
0.0
 30
0.0
  3
*D8
  1

  0
LINE
  5
1F22
100
AcDbEntity
  8
0
  6
BYBLOCK
 62
     1
100
AcDbLine
 10
135.716445
 20
217.192838
 30
0.0
 11
135.716445
 21
204.213117
 31
0.0
  0
LINE
  5
1F23
100
AcDbEntity
  8
0
  6
BYBLOCK
 62
     1
100
AcDbLine
 10
144.716445
 20
217.192838
 30
0.0
 11
144.716445
 21
204.213117
 31
0.0
  0
LINE
  5
1F24
100
AcDbEntity
  8
0
  6
BYBLOCK
 62
     1
100
AcDbLine
 10
137.716445
 20
206.213117
 30
0.0
 11
142.716445
 21
206.213117
 31
0.0
  0
INSERT
  5
1F25
100
AcDbEntity
  8
0
  6
BYBLOCK
 62
     1
100
AcDbBlockReference
  2
_OPEN30
 10
135.716445
 20
206.213117
 30
0.0
 41
2.0
 42
2.0
 43
2.0
 50
180.0
  0
INSERT
  5
1F26
100
AcDbEntity
  8
0
  6
BYBLOCK
 62
     1
100
AcDbBlockReference
  2
_OPEN30
 10
144.716445
 20
206.213117
 30
0.0
 41
2.0
 42
2.0
 43
2.0
  0
MTEXT
  5
1F27
100
AcDbEntity
  8
0
  6
BYBLOCK
 62
     3
100
AcDbMText
 10
140.216445
 20
208.713117
 30
0.0
 40
3.0
 41
0.0
 71
     5
 72
     1
  1
\A1;9
  0
POINT
  5
1F28
100
AcDbEntity
  8
DEFPOINTS
  6
BYBLOCK
 62
     0
100
AcDbPoint
 10
135.716445
 20
218.192838
 30
0.0
  0
POINT
  5
1F29
100
AcDbEntity
  8
DEFPOINTS
  6
BYBLOCK
 62
     0
100
AcDbPoint
 10
144.716445
 20
218.192838
 30
0.0
  0
POINT
  5
1F2A
100
AcDbEntity
  8
DEFPOINTS
  6
BYBLOCK
 62
     0
100
AcDbPoint
 10
144.716445
 20
206.213117
 30
0.0
  0
ENDBLK
  5
1F2B
100
AcDbEntity
  8
0
100
AcDbBlockEnd
  0
ENDSEC
  0
SECTION
  2
ENTITIES
  0
TEXT
  5
1453
100
AcDbEntity
  8
外形
  6
CONTINUOUS
 62
     2
100
AcDbText
 10
81.945496
 20
150.213866
 30
0.0
 40
6.0
  1
BBPW610R
100
AcDbText
  0
ARC
  5
195E
100
AcDbEntity
  8
外形
  6
CONTINUOUS
100
AcDbCircle
 10
69.484052
 20
217.239144
 30
0.0
 40
1.0
100
AcDbArc
 50
267.0
 51
87.0
  0
LINE
  5
195F
100
AcDbEntity
  8
外形
  6
CONTINUOUS
100
AcDbLine
 10
69.536388
 20
218.237773
 30
0.0
 11
67.776094
 21
218.330027
 31
0.0
  0
LINE
  5
1960
100
AcDbEntity
  8
外形
  6
CONTINUOUS
100
AcDbLine
 10
69.431716
 20
216.240514
 30
0.0
 11
69.048072
 21
216.26062
 31
0.0
  0
LINE
  5
1963
100
AcDbEntity
  8
外形
  6
CONTINUOUS
100
AcDbLine
 10
69.048072
 20
216.26062
 30
0.0
 11
66.451079
 21
214.934531
 31
0.0
  0
LINE
  5
1965
100
AcDbEntity
  8
外形
  6
CONTINUOUS
100
AcDbLine
 10
67.776094
 20
218.330027
 30
0.0
 11
63.998407
 21
220.778601
 31
0.0
  0
LINE
  5
1966
100
AcDbEntity
  8
外形
  6
CONTINUOUS
100
AcDbLine
 10
63.522437
 20
219.657287
 30
0.0
 11
63.471155
 21
218.678767
 31
0.0
  0
ARC
  5
1990
100
AcDbEntity
  8
外形
  6
CONTINUOUS
100
AcDbCircle
 10
65.368732
 20
217.054182
 30
0.0
 40
2.38
100
AcDbArc
 50
277.0
 51
297.002101
  0
LINE
  5
1991
100
AcDbEntity
  8
外形
  6
CONTINUOUS
100
AcDbLine
 10
62.991998
 20
217.178829
 30
0.0
 11
62.855943
 21
214.582754
 31
0.0
  0
ARC
  5
1992
100
AcDbEntity
  8
外形
  6
CONTINUOUS
100
AcDbCircle
 10
63.055669
 20
214.572287
 30
0.0
 40
0.2
100
AcDbArc
 50
177.0
 51
277.0
  0
LINE
  5
1993
100
AcDbEntity
  8
外形
  6
CONTINUOUS
100
AcDbLine
 10
63.080043
 20
214.373778
 30
0.0
 11
65.658964
 21
214.69043
 31
0.0
  0
LINE
  5
1994
100
AcDbEntity
  8
外形
  6
CONTINUOUS
100
AcDbLine
 10
68.834374
 20
216.412322
 30
0.0
 11
67.270685
 21
218.487407
 31
0.0
  0
ARC
  5
1995
100
AcDbEntity
  8
外形
  6
CONTINUOUS
100
AcDbCircle
 10
68.674647
 20
216.291959
 30
0.0
 40
0.2
100
AcDbArc
 50
297.0
 51
37.0
  0
LINE
  5
1996
100
AcDbEntity
  8
外形
  6
CONTINUOUS
100
AcDbLine
 10
66.449151
 20
214.933547
 30
0.0
 11
68.765445
 21
216.113758
 31
0.0
  0
LINE
  5
1997
100
AcDbEntity
  8
外形
  6
CONTINUOUS
100
AcDbLine
 10
64.191778
 20
220.376447
 30
0.0
 11
63.176546
 21
217.98471
 31
0.0
  0
ARC
  5
1998
100
AcDbEntity
  8
外形
  6
CONTINUOUS
100
AcDbCircle
 10
64.375878
 20
220.298301
 30
0.0
 40
0.2
100
AcDbArc
 50
57.0
 51
157.0
  0
LINE
  5
1999
100
AcDbEntity
  8
外形
  6
CONTINUOUS
100
AcDbLine
 10
66.665046
 20
219.050171
 30
0.0
 11
64.484806
 21
220.466035
 31
0.0
  0
ARC
  5
199F
100
AcDbEntity
  8
外形
  6
CONTINUOUS
100
AcDbCircle
 10
65.368732
 20
217.054182
 30
0.0
 40
2.38
100
AcDbArc
 50
157.0
 51
177.002101
  0
ARC
  5
19A0
100
AcDbEntity
  8
外形
  6
CONTINUOUS
100
AcDbCircle
 10
65.368732
 20
217.054182
 30
0.0
 40
2.38
100
AcDbArc
 50
37.0
 51
57.002101
  0
LINE
  5
19AB
100
AcDbEntity
  8
外形
  6
CONTINUOUS
100
AcDbLine
 10
71.744913
 20
214.772287
 30
0.0
 11
72.844913
 21
215.872287
 31
0.0
  0
LINE
  5
19B1
100
AcDbEntity
  8
外形
  6
CENTER
 62
     1
100
AcDbLine
 10
60.447339
 20
220.372287
 30
0.0
 11
190.903894
 21
220.372287
 31
0.0
  0
LINE
  5
19D3
100
AcDbEntity
  8
外形
  6
CONTINUOUS
100
AcDbLine
 10
63.522437
 20
219.657287
 30
0.0
 11
65.736073
 21
224.872287
 31
0.0
  0
LINE
  5
1A0C
100
AcDbEntity
  8
外形
  6
CENTER
 62
     1
100
AcDbLine
 10
22.35866
 20
220.372287
 30
0.0
 11
34.403069
 21
220.372287
 31
0.0
  0
LINE
  5
1A0D
100
AcDbEntity
  8
外形
  6
CENTER
 62
     1
100
AcDbLine
 10
28.380864
 20
212.128956
 30
0.0
 11
28.380864
 21
226.394492
 31
0.0
  0
LINE
  5
1A26
100
AcDbEntity
  8
外形
  6
CONTINUOUS
100
AcDbLine
 10
71.744913
 20
214.772287
 30
0.0
 11
66.045012
 21
214.772287
 31
0.0
  0
LINE
  5
1A2B
100
AcDbEntity
  8
外形
  6
CENTER
 62
     1
100
AcDbLine
 10
22.35866
 20
219.772287
 30
0.0
 11
34.403069
 21
219.772287
 31
0.0
  0
LINE
  5
1A3D
100
AcDbEntity
  8
外形
  6
CONTINUOUS
100
AcDbLine
 10
72.844913
 20
224.388205
 30
0.0
 11
72.844913
 21
224.872287
 31
0.0
  0
LINE
  5
1A46
100
AcDbEntity
  8
外形
  6
CONTINUOUS
100
AcDbLine
 10
187.844913
 20
224.372287
 30
0.0
 11
187.844913
 21
216.372287
 31
0.0
  0
LINE
  5
1A48
100
AcDbEntity
  8
外形
  6
CONTINUOUS
100
AcDbLine
 10
186.844913
 20
225.372287
 30
0.0
 11
187.844913
 21
224.372287
 31
0.0
  0
LINE
  5
1A49
100
AcDbEntity
  8
外形
  6
CONTINUOUS
100
AcDbLine
 10
186.844913
 20
215.372287
 30
0.0
 11
187.844913
 21
216.372287
 31
0.0
  0
LINE
  5
1A4B
100
AcDbEntity
  8
外形
  6
CENTER
 62
     1
100
AcDbLine
 10
140.216445
 20
213.398967
 30
0.0
 11
140.216445
 21
228.075916
 31
0.0
  0
LINE
  5
1A62
100
AcDbEntity
  8
外形
  6
CONTINUOUS
100
AcDbLine
 10
30.167872
 20
224.517791
 30
0.0
 11
28.363175
 21
214.282847
 31
0.0
  0
LINE
  5
1A64
100
AcDbEntity
  8
外形
  6
CONTINUOUS
100
AcDbLine
 10
26.05549
 20
214.901189
 30
0.0
 11
28.363175
 21
214.282847
 31
0.0
  0
LINE
  5
1A67
100
AcDbEntity
  8
外形
  6
CONTINUOUS
100
AcDbLine
 10
27.046946
 20
220.524015
 30
0.0
 11
29.426946
 21
220.315792
 31
0.0
  0
LINE
  5
1A68
100
AcDbEntity
  8
外形
  6
CONTINUOUS
100
AcDbLine
 10
27.046946
 20
220.524015
 30
0.0
 11
26.05549
 21
214.901189
 31
0.0
  0
LINE
  5
1A93
100
AcDbEntity
  8
外形
  6
CENTER
 62
     1
100
AcDbLine
 10
60.447339
 20
176.034008
 30
0.0
 11
190.580918
 21
176.034008
 31
0.0
  0
LINE
  5
1A94
100
AcDbEntity
  8
外形
  6
CONTINUOUS
100
AcDbLine
 10
187.344913
 20
171.534008
 30
0.0
 11
187.844913
 21
172.034008
 31
0.0
  0
LINE
  5
1A95
100
AcDbEntity
  8
外形
  6
CONTINUOUS
100
AcDbLine
 10
187.344913
 20
180.534008
 30
0.0
 11
187.844913
 21
180.034008
 31
0.0
  0
LINE
  5
1A98
100
AcDbEntity
  8
外形
  6
CONTINUOUS
100
AcDbLine
 10
186.844913
 20
171.534008
 30
0.0
 11
186.844913
 21
180.534008
 31
0.0
  0
LINE
  5
1A99
100
AcDbEntity
  8
外形
  6
CONTINUOUS
100
AcDbLine
 10
187.844913
 20
180.034008
 30
0.0
 11
187.844913
 21
172.034008
 31
0.0
  0
LINE
  5
1A9C
100
AcDbEntity
  8
外形
  6
CONTINUOUS
100
AcDbLine
 10
72.844913
 20
171.434008
 30
0.0
 11
72.844913
 21
176.590272
 31
0.0
  0
LINE
  5
1AAB
100
AcDbEntity
  8
外形
  6
CONTINUOUS
100
AcDbLine
 10
72.844913
 20
171.434008
 30
0.0
 11
72.344913
 21
170.934008
 31
0.0
  0
LINE
  5
1AAC
100
AcDbEntity
  8
外形
  6
CONTINUOUS
100
AcDbLine
 10
72.344913
 20
176.516522
 30
0.0
 11
72.344913
 21
170.934008
 31
0.0
  0
LINE
  5
1AAF
100
AcDbEntity
  8
外形
  6
CONTINUOUS
100
AcDbLine
 10
66.045012
 20
173.728386
 30
0.0
 11
63.057659
 21
173.728386
 31
0.0
  0
LINE
  5
1AC0
100
AcDbEntity
  8
外形
  6
CONTINUOUS
100
AcDbLine
 10
64.76826
 20
177.854144
 30
0.0
 11
68.654202
 21
177.854144
 31
0.0
  0
LINE
  5
1AC1
100
AcDbEntity
  8
外形
  6
CONTINUOUS
100
AcDbLine
 10
66.045012
 20
176.251168
 30
0.0
 11
66.045012
 21
173.728386
 31
0.0
  0
LINE
  5
1AC3
100
AcDbEntity
  8
外形
  6
CONTINUOUS
100
AcDbLine
 10
63.266425
 20
176.034008
 30
0.0
 11
64.76826
 21
177.854144
 31
0.0
  0
LINE
  5
1AC8
100
AcDbEntity
  8
外形
  6
CONTINUOUS
100
AcDbLine
 10
64.375878
 20
177.3786
 30
0.0
 11
68.874647
 21
176.472319
 31
0.0
  0
LINE
  5
1AC9
100
AcDbEntity
  8
外形
  6
CONTINUOUS
100
AcDbLine
 10
68.874647
 20
176.472319
 30
0.0
 11
63.266425
 21
176.034008
 31
0.0
  0
LINE
  5
1B2B
100
AcDbEntity
  8
外形
  6
CONTINUOUS
100
AcDbLine
 10
68.654202
 20
176.121697
 30
0.0
 11
66.045012
 21
176.121697
 31
0.0
  0
DIMENSION
  5
1B69
100
AcDbEntity
  8
寸法
  6
CONTINUOUS
100
AcDbDimension
  2
*D1
 10
187.844913
 20
197.412264
 30
0.0
 11
125.344913
 21
199.912264
 31
0.0
 70
    32
  3
STANDARD
100
AcDbAlignedDimension
 13
62.844913
 23
215.372287
 33
0.0
 14
187.844913
 24
217.372287
 34
0.0
100
AcDbRotatedDimension
1001
ACAD
1000
DSTYLE
1002
{
1070
   284
1070
    13
1070
   146
1040
0.5
1070
   272
1070
     3
1070
    40
1040
1.0
1070
   287
1070
     0
1002
}
  0
LINE
  5
1C05
100
AcDbEntity
  8
寸法
  6
CONTINUOUS
100
AcDbLine
 10
62.855943
 20
214.582754
 30
0.0
 11
62.855943
 21
216.896013
 31
0.0
  0
ARC
  5
1C3F
100
AcDbEntity
  8
外形
  6
CONTINUOUS
100
AcDbCircle
 10
65.468599
 20
217.753098
 30
0.0
 40
0.2
100
AcDbArc
 50
240.283476
 51
299.716524
  0
ARC
  5
1C40
100
AcDbEntity
  8
外形
  6
CONTINUOUS
100
AcDbCircle
 10
64.858863
 20
217.401067
 30
0.0
 40
0.2
100
AcDbArc
 50
300.283476
 51
359.716524
  0
ARC
  5
1C41
100
AcDbEntity
  8
外形
  6
CONTINUOUS
100
AcDbCircle
 10
64.858863
 20
216.697005
 30
0.0
 40
0.2
100
AcDbArc
 50
0.283476
 51
59.716524
  0
ARC
  5
1C42
100
AcDbEntity
  8
外形
  6
CONTINUOUS
100
AcDbCircle
 10
65.468599
 20
216.344974
 30
0.0
 40
0.2
100
AcDbArc
 50
60.283476
 51
119.716524
  0
ARC
  5
1C43
100
AcDbEntity
  8
外形
  6
CONTINUOUS
100
AcDbCircle
 10
66.078335
 20
216.697005
 30
0.0
 40
0.2
100
AcDbArc
 50
120.283476
 51
179.716524
  0
ARC
  5
1C44
100
AcDbEntity
  8
外形
  6
CONTINUOUS
100
AcDbCircle
 10
66.078335
 20
217.401067
 30
0.0
 40
0.2
100
AcDbArc
 50
180.283476
 51
239.716524
  0
LINE
  5
1C45
100
AcDbEntity
  8
外形
  6
CONTINUOUS
100
AcDbLine
 10
65.876578
 20
216.342396
 30
0.0
 11
65.567741
 21
216.518672
 31
0.0
  0
LINE
  5
1C46
100
AcDbEntity
  8
外形
  6
CONTINUOUS
100
AcDbLine
 10
65.878337
 20
216.697994
 30
0.0
 11
65.876578
 21
216.342396
 31
0.0
  0
LINE
  5
1C47
100
AcDbEntity
  8
外形
  6
CONTINUOUS
100
AcDbLine
 10
65.06062
 20
216.342396
 30
0.0
 11
65.058861
 21
216.697994
 31
0.0
  0
LINE
  5
1C48
100
AcDbEntity
  8
外形
  6
CONTINUOUS
100
AcDbLine
 10
65.369457
 20
216.518672
 30
0.0
 11
65.06062
 21
216.342396
 31
0.0
  0
LINE
  5
1C49
100
AcDbEntity
  8
外形
  6
CONTINUOUS
100
AcDbLine
 10
64.652642
 20
217.049036
 30
0.0
 11
64.959719
 21
217.228359
 31
0.0
  0
LINE
  5
1C4A
100
AcDbEntity
  8
外形
  6
CONTINUOUS
100
AcDbLine
 10
64.959719
 20
216.869713
 30
0.0
 11
64.652642
 21
217.049036
 31
0.0
  0
LINE
  5
1C4B
100
AcDbEntity
  8
外形
  6
CONTINUOUS
100
AcDbLine
 10
65.06062
 20
217.755676
 30
0.0
 11
65.369457
 21
217.5794
 31
0.0
  0
LINE
  5
1C4C
100
AcDbEntity
  8
外形
  6
CONTINUOUS
100
AcDbLine
 10
65.058861
 20
217.400077
 30
0.0
 11
65.06062
 21
217.755676
 31
0.0
  0
LINE
  5
1C4D
100
AcDbEntity
  8
外形
  6
CONTINUOUS
100
AcDbLine
 10
65.876578
 20
217.755676
 30
0.0
 11
65.878337
 21
217.400077
 31
0.0
  0
LINE
  5
1C4E
100
AcDbEntity
  8
外形
  6
CONTINUOUS
100
AcDbLine
 10
65.567741
 20
217.5794
 30
0.0
 11
65.876578
 21
217.755676
 31
0.0
  0
LINE
  5
1C4F
100
AcDbEntity
  8
外形
  6
CONTINUOUS
100
AcDbLine
 10
66.284556
 20
217.049036
 30
0.0
 11
65.977479
 21
216.869713
 31
0.0
  0
LINE
  5
1C50
100
AcDbEntity
  8
外形
  6
CONTINUOUS
100
AcDbLine
 10
65.977479
 20
217.228359
 30
0.0
 11
66.284556
 21
217.049036
 31
0.0
  0
CIRCLE
  5
1C51
100
AcDbEntity
  8
外形
  6
CONTINUOUS
100
AcDbCircle
 10
65.468599
 20
217.049036
 30
0.0
 40
1.35
  0
MTEXT
  5
1CD9
100
AcDbEntity
  8
寸法
  6
BYBLOCK
 62
     3
100
AcDbMText
 10
46.686314
 20
231.239364
 30
0.0
 40
3.0
 41
0.0
 71
     5
 72
     1
  1
最小加工径
 11
0.0
 21
1.0
 31
0.0
  0
DIMENSION
  5
1CDA
100
AcDbEntity
  8
寸法
  6
CONTINUOUS
100
AcDbDimension
  2
*D2
 10
43.577394
 20
241.121123
 30
0.0
 11
43.577394
 21
230.570648
 31
0.0
 70
   160
  1
%%c12
  3
STANDARD
100
AcDbAlignedDimension
 13
61.884904
 23
214.372287
 33
0.0
 14
61.884904
 24
241.121123
 34
0.0
 50
90.0
100
AcDbRotatedDimension
1001
ACAD
1000
DSTYLE
1002
{
1070
   284
1070
    13
1070
   146
1040
0.5
1070
   272
1070
     3
1070
    76
1070
     1
1070
   282
1070
     1
1070
    40
1040
1.0
1070
   287
1070
     0
1002
}
  0
ARC
  5
1CED
100
AcDbEntity
  8
外形
  6
CONTINUOUS
100
AcDbCircle
 10
28.380864
 20
219.772287
 30
0.0
 40
5.1
100
AcDbArc
 50
270.573247
 51
243.550252
  0
LINE
  5
1CEE
100
AcDbEntity
  8
外形
  6
CONTINUOUS
100
AcDbLine
 10
65.736073
 20
224.872287
 30
0.0
 11
82.854913
 21
224.872287
 31
0.0
  0
LINE
  5
1CEF
100
AcDbEntity
  8
外形
  6
CONTINUOUS
100
AcDbLine
 10
72.844913
 20
215.872287
 30
0.0
 11
82.854913
 21
215.872287
 31
0.0
  0
LINE
  5
1CF0
100
AcDbEntity
  8
外形
  6
CONTINUOUS
100
AcDbLine
 10
71.744913
 20
224.515527
 30
0.0
 11
71.744913
 21
224.872287
 31
0.0
  0
LINE
  5
1CF2
100
AcDbEntity
  8
外形
  6
CONTINUOUS
100
AcDbLine
 10
82.854913
 20
215.872287
 30
0.0
 11
82.854913
 21
224.872287
 31
0.0
  0
LINE
  5
1CF3
100
AcDbEntity
  8
外形
  6
CONTINUOUS
100
AcDbLine
 10
83.354913
 20
225.372287
 30
0.0
 11
132.53623
 21
225.372287
 31
0.0
  0
LINE
  5
1CF4
100
AcDbEntity
  8
外形
  6
CONTINUOUS
100
AcDbLine
 10
83.354913
 20
215.372287
 30
0.0
 11
132.53623
 21
215.372287
 31
0.0
  0
LINE
  5
1CF5
100
AcDbEntity
  8
外形
  6
CONTINUOUS
100
AcDbLine
 10
83.354913
 20
225.372287
 30
0.0
 11
82.854913
 21
224.872287
 31
0.0
  0
LINE
  5
1CF6
100
AcDbEntity
  8
外形
  6
CONTINUOUS
100
AcDbLine
 10
82.854913
 20
215.872287
 30
0.0
 11
83.354913
 21
215.372287
 31
0.0
  0
LINE
  5
1CF7
100
AcDbEntity
  8
外形
  6
CONTINUOUS
100
AcDbLine
 10
83.354913
 20
215.372287
 30
0.0
 11
83.354913
 21
218.192838
 31
0.0
  0
LINE
  5
1D0C
100
AcDbEntity
  8
外形
  6
CONTINUOUS
100
AcDbLine
 10
186.844913
 20
215.372287
 30
0.0
 11
186.844913
 21
218.192838
 31
0.0
  0
ARC
  5
1D0D
100
AcDbEntity
  8
外形
  6
CONTINUOUS
100
AcDbCircle
 10
140.216445
 20
220.372287
 30
0.0
 40
5.0
100
AcDbArc
 50
25.841933
 51
154.158067
  0
LINE
  5
1D0E
100
AcDbEntity
  8
外形
  6
CONTINUOUS
100
AcDbLine
 10
144.716445
 20
218.192838
 30
0.0
 11
144.716445
 21
222.551737
 31
0.0
  0
LINE
  5
1D0F
100
AcDbEntity
  8
外形
  6
CONTINUOUS
100
AcDbLine
 10
135.716445
 20
218.192838
 30
0.0
 11
135.716445
 21
222.551737
 31
0.0
  0
ARC
  5
1D10
100
AcDbEntity
  8
外形
  6
CONTINUOUS
100
AcDbCircle
 10
140.216445
 20
220.372287
 30
0.0
 40
5.0
100
AcDbArc
 50
205.841933
 51
334.158067
  0
LINE
  5
1D11
100
AcDbEntity
  8
外形
  6
CONTINUOUS
100
AcDbLine
 10
132.53623
 20
222.551737
 30
0.0
 11
83.354913
 21
222.551737
 31
0.0
  0
LINE
  5
1D12
100
AcDbEntity
  8
外形
  6
CONTINUOUS
100
AcDbLine
 10
132.53623
 20
218.192838
 30
0.0
 11
83.354913
 21
218.192838
 31
0.0
  0
LINE
  5
1D15
100
AcDbEntity
  8
外形
  6
CONTINUOUS
100
AcDbLine
 10
147.872455
 20
225.372287
 30
0.0
 11
186.844913
 21
225.372287
 31
0.0
  0
LINE
  5
1D16
100
AcDbEntity
  8
外形
  6
CONTINUOUS
100
AcDbLine
 10
147.872455
 20
222.551737
 30
0.0
 11
186.844913
 21
222.551737
 31
0.0
  0
LINE
  5
1D17
100
AcDbEntity
  8
外形
  6
CONTINUOUS
100
AcDbLine
 10
147.872455
 20
218.192838
 30
0.0
 11
186.844913
 21
218.192838
 31
0.0
  0
LINE
  5
1D18
100
AcDbEntity
  8
外形
  6
CONTINUOUS
100
AcDbLine
 10
147.872455
 20
215.372287
 30
0.0
 11
186.844913
 21
215.372287
 31
0.0
  0
ELLIPSE
  5
1D1A
100
AcDbEntity
  8
外形
  6
CONTINUOUS
100
AcDbEllipse
 10
186.844913
 20
220.372287
 30
0.0
 11
0.0
 21
2.17944947177034
 31
0.0
210
0.0
220
0.0
230
1.0
 40
0.229416
 41
3.141592653589793
 42
6.283185307179586
  0
LINE
  5
1D1B
100
AcDbEntity
  8
外形
  6
CONTINUOUS
100
AcDbLine
 10
186.844913
 20
222.551737
 30
0.0
 11
186.844913
 21
225.372287
 31
0.0
  0
ELLIPSE
  5
1D1C
100
AcDbEntity
  8
外形
  6
CONTINUOUS
100
AcDbEllipse
 10
83.354913
 20
220.372287
 30
0.0
 11
0.0
 21
-2.17944947177034
 31
0.0
210
0.0
220
0.0
230
1.0
 40
0.229416
 41
3.141592653589793
 42
6.283185307179587
  0
LINE
  5
1D1D
100
AcDbEntity
  8
外形
  6
CONTINUOUS
100
AcDbLine
 10
83.354913
 20
222.551737
 30
0.0
 11
83.354913
 21
225.372287
 31
0.0
  0
DIMENSION
  5
1D2A
100
AcDbEntity
  8
寸法
  6
CONTINUOUS
100
AcDbDimension
  2
*D3
 10
59.447339
 20
220.372287
 30
0.0
 11
59.447339
 21
217.372287
 31
0.0
 70
   160
  3
STANDARD
100
AcDbAlignedDimension
 13
62.844913
 23
214.372287
 33
0.0
 14
60.447339
 24
220.372287
 34
0.0
 50
90.0
100
AcDbRotatedDimension
1001
ACAD
1000
DSTYLE
1002
{
1070
   284
1070
    13
1070
   146
1040
0.5
1070
   272
1070
     3
1070
    40
1040
1.0
1070
   287
1070
     0
1002
}
  0
LINE
  5
1D7E
100
AcDbEntity
  8
外形
  6
CONTINUOUS
100
AcDbLine
 10
68.654202
 20
224.765122
 30
0.0
 11
65.690584
 21
224.765122
 31
0.0
  0
SPLINE
  5
1D7F
100
AcDbEntity
  8
外形
  6
CONTINUOUS
100
AcDbSpline
210
0.0
220
0.0
230
-1.0
 70
     8
 71
     3
 72
    12
 73
     8
 74
     0
 42
0.0000001
 43
0.0000001
 40
5.933724131608622
 40
5.933724131608622
 40
5.933724131608622
 40
5.933724131608622
 40
6.3729736898749
 40
7.258696125287183
 40
8.232109916462487
 40
10.56690560895378
 40
23.82053328406728
 40
23.82053328406728
 40
23.82053328406728
 40
23.82053328406728
 10
79.52944031398953
 20
215.8722872172972
 30
0.0
 10
79.65751875593806
 20
215.943653348182
 30
0.0
 10
80.03515826446877
 20
216.1733924854983
 30
0.0
 10
80.63174487072959
 20
216.6510742465387
 30
0.0
 10
81.54663348344616
 20
217.7892619501303
 30
0.0
 10
80.0542273291674
 20
223.9633908296756
 30
0.0
 10
73.89279215145624
 20
224.3967069690625
 30
0.0
 10
68.65420157279415
 20
224.7651220833828
 30
0.0
  0
LINE
  5
1D81
100
AcDbEntity
  8
外形
  6
CONTINUOUS
100
AcDbLine
 10
63.277181
 20
170.934008
 30
0.0
 11
72.344913
 21
170.934008
 31
0.0
  0
LINE
  5
1D83
100
AcDbEntity
  8
外形
  6
CONTINUOUS
100
AcDbLine
 10
83.354913
 20
171.534008
 30
0.0
 11
83.354913
 21
180.534008
 31
0.0
  0
LINE
  5
1D84
100
AcDbEntity
  8
外形
  6
CONTINUOUS
100
AcDbLine
 10
82.854913
 20
171.534008
 30
0.0
 11
82.854913
 21
180.534008
 31
0.0
  0
LINE
  5
1D86
100
AcDbEntity
  8
外形
  6
CONTINUOUS
100
AcDbLine
 10
72.844913
 20
171.534008
 30
0.0
 11
187.344913
 21
171.534008
 31
0.0
  0
SPLINE
  5
1DC0
100
AcDbEntity
  8
外形
  6
CONTINUOUS
100
AcDbSpline
210
0.0
220
0.0
230
1.0
 70
     8
 71
     3
 72
    10
 73
     6
 74
     4
 42
0.0000001
 43
0.0000001
 44
0.0000000001
 40
0.0
 40
0.0
 40
0.0
 40
0.0
 40
0.8050071102590838
 40
1.729693882469939
 40
13.43285134188043
 40
13.43285134188043
 40
13.43285134188043
 40
13.43285134188043
 10
81.16136306775922
 20
180.5340078985161
 30
0.0
 10
80.97313847009692
 20
180.3430305824774
 30
0.0
 10
80.5687060980623
 20
179.9326835295971
 30
0.0
 10
77.24196523505606
 20
176.9015088906817
 30
0.0
 10
72.78489670991281
 20
176.4967846473973
 30
0.0
 10
68.65420157300928
 20
176.1216967495805
 30
0.0
 11
81.16136306775922
 21
180.5340078985161
 31
0.0
 11
80.59150414869415
 21
179.9654155489988
 31
0.0
 11
79.90420002912884
 21
179.3468214381876
 31
0.0
 11
68.65420157300928
 21
176.1216967495805
 31
0.0
  0
SPLINE
  5
1DCC
100
AcDbEntity
  8
外形
  6
CONTINUOUS
100
AcDbSpline
210
0.0
220
0.0
230
1.0
 70
     8
 71
     3
 72
    11
 73
     7
 74
     5
 42
0.0000001
 43
0.0000001
 44
0.0000000001
 40
0.0
 40
0.0
 40
0.0
 40
0.0
 40
3.737040299216744
 40
5.553220907131191
 40
9.72555873668336
 40
12.33225233909003
 40
12.33225233909003
 40
12.33225233909003
 40
12.33225233909003
 10
68.65420157300942
 20
177.8541437871497
 30
0.0
 10
69.91388307664272
 20
177.8763953588699
 30
0.0
 10
71.78576271994467
 20
177.9094610695391
 30
0.0
 10
74.83920523166379
 20
179.050831083752
 30
0.0
 10
77.57915782024665
 20
179.8851982345971
 30
0.0
 10
79.79093061316405
 20
180.3538142540267
 30
0.0
 10
80.64140815514662
 20
180.5340078985161
 30
0.0
 11
68.65420157300942
 21
177.8541437871497
 31
0.0
 11
72.37510455140878
 21
178.2010605254439
 31
0.0
 11
74.10211730968524
 21
178.7631449793429
 31
0.0
 11
78.09748318044744
 21
179.9654155489988
 31
0.0
 11
80.64140815514662
 21
180.5340078985161
 31
0.0
  0
LINE
  5
1DCD
100
AcDbEntity
  8
外形
  6
CONTINUOUS
100
AcDbLine
 10
80.641408
 20
180.534008
 30
0.0
 11
187.344913
 21
180.534008
 31
0.0
  0
DIMENSION
  5
1DDE
100
AcDbEntity
  8
寸法
  6
CONTINUOUS
100
AcDbDimension
  2
*D4
 10
28.363175
 20
214.282847
 30
0.0
 11
17.824497
 21
205.699134
 31
0.0
 70
    34
  3
STANDARD
100
AcDb2LineAngularDimension
 13
28.380864
 23
212.128956
 33
0.0
 14
28.380864
 24
226.394492
 34
0.0
 15
30.167872
 25
224.517791
 35
0.0
 16
27.515799
 26
199.530562
 36
0.0
1001
ACAD
1000
DSTYLE
1002
{
1070
   284
1070
    13
1070
   146
1040
0.5
1070
   272
1070
     3
1070
    40
1040
1.0
1070
   287
1070
     0
1002
}
  0
DIMENSION
  5
1E96
100
AcDbEntity
  8
寸法
  6
CONTINUOUS
100
AcDbDimension
  2
*D5
 10
82.854913
 20
201.680847
 30
0.0
 11
72.855291
 21
204.180847
 31
0.0
 70
    32
  3
STANDARD
100
AcDbAlignedDimension
 13
62.855669
 23
214.372287
 33
0.0
 14
82.854913
 24
215.872287
 34
0.0
100
AcDbRotatedDimension
1001
ACAD
1000
DSTYLE
1002
{
1070
   284
1070
    13
1070
   146
1040
0.5
1070
   272
1070
     3
1070
    40
1040
1.0
1070
   287
1070
     0
1002
}
  0
LINE
  5
1EAD
100
AcDbEntity
  8
寸法
  6
CONTINUOUS
100
AcDbLine
 10
63.080043
 20
214.373778
 30
0.0
 11
62.680487
 21
214.373778
 31
0.0
  0
DIMENSION
  5
1EBC
100
AcDbEntity
  8
寸法
  6
CONTINUOUS
100
AcDbDimension
  2
*D6
 10
62.680487
 20
214.373778
 30
0.0
 11
53.530525
 21
224.189177
 31
0.0
 70
    34
  3
STANDARD
100
AcDb2LineAngularDimension
 13
62.991998
 23
217.178829
 33
0.0
 14
62.855943
 24
214.582754
 34
0.0
 15
63.080043
 25
214.373778
 35
0.0
 16
57.666018
 26
224.114009
 36
0.0
1001
ACAD
1000
DSTYLE
1002
{
1070
   284
1070
    13
1070
   146
1040
0.5
1070
   272
1070
     3
1070
    40
1040
1.0
1070
   287
1070
     0
1002
}
  0
LINE
  5
1EFC
100
AcDbEntity
  8
外形
  6
CONTINUOUS
100
AcDbLine
 10
66.045012
 20
176.034008
 30
0.0
 11
62.855943
 21
176.034008
 31
0.0
  0
LINE
  5
1EFD
100
AcDbEntity
  8
外形
  6
CONTINUOUS
100
AcDbLine
 10
62.855943
 20
176.034008
 30
0.0
 11
63.302136
 21
170.934008
 31
0.0
  0
DIMENSION
  5
1F09
100
AcDbEntity
  8
寸法
  6
CONTINUOUS
100
AcDbDimension
  2
*D7
 10
142.785353
 20
216.082682
 30
0.0
 11
132.057939
 21
233.995499
 31
0.0
 70
   163
  3
STANDARD
100
AcDbDiametricDimension
 15
137.647538
 25
224.661893
 35
0.0
 40
0.0
1001
ACAD
1000
DSTYLE
1002
{
1070
   284
1070
    13
1070
   146
1040
0.5
1070
   272
1070
     3
1070
    40
1040
1.0
1070
   287
1070
     0
1002
}
  0
DIMENSION
  5
1F16
100
AcDbEntity
  8
寸法
  6
CONTINUOUS
100
AcDbDimension
  2
*D8
 10
144.716445
 20
206.213117
 30
0.0
 11
140.216445
 21
208.713117
 31
0.0
 70
    32
  3
STANDARD
100
AcDbAlignedDimension
 13
135.716445
 23
218.192838
 33
0.0
 14
144.716445
 24
218.192838
 34
0.0
100
AcDbRotatedDimension
1001
ACAD
1000
DSTYLE
1002
{
1070
   284
1070
    13
1070
   146
1040
0.5
1070
   272
1070
     3
1070
    40
1040
1.0
1070
   287
1070
     0
1002
}
  0
ENDSEC
  0
SECTION
  2
OBJECTS
  0
DICTIONARY
  5
1E
100
AcDbDictionary
  3
ACAD_GROUP
350
1C
  3
ACAD_MLINESTYLE
350
1D
  3
ACDBVARIABLEDICTIONARY
350
147A
  3
DRAWINGVARIABLESDICT
350
C58
  0
DICTIONARY
  5
38
100
AcDbDictionary
280
     1
  3
ACAD_XREC_ROUNDTRIP
360
39
  0
DICTIONARY
  5
22
100
AcDbDictionary
280
     1
  3
ACAD_XREC_ROUNDTRIP
360
23
  0
DICTIONARY
  5
3
100
AcDbDictionary
280
     1
  3
ACAD_LAYOUTSELFREF
360
4
  0
DICTIONARY
  5
A
100
AcDbDictionary
280
     1
  3
ACAD_LAYOUTSELFREF
360
B
  0
DICTIONARY
  5
1C
102
{ACAD_REACTORS
330
1E
102
}
100
AcDbDictionary
  0
DICTIONARY
  5
1D
102
{ACAD_REACTORS
330
1E
102
}
100
AcDbDictionary
  3
STANDARD
350
20
  0
DICTIONARY
  5
147A
102
{ACAD_REACTORS
330
1E
102
}
100
AcDbDictionary
  3
SORTENTS
350
147B
  0
DICTIONARY
  5
C58
102
{ACAD_REACTORS
330
1E
102
}
100
AcDbDictionary
1001
DRAWINGVARIABLESXDATA
1000
POLARMODE
1000
0
  0
XRECORD
  5
39
102
{ACAD_REACTORS
330
38
102
}
100
AcDbXrecord
102
PLOTBIT
280
     0
  0
XRECORD
  5
23
102
{ACAD_REACTORS
330
22
102
}
100
AcDbXrecord
102
ACADR14ROUNDTRIP
1000
DSTYLE
1002
{
1070
   341
340
0
1070
   343
340
0
1070
   344
340
0
1002
}
  0
XRECORD
  5
4
102
{ACAD_REACTORS
330
3
102
}
100
AcDbXrecord
340
2
  0
XRECORD
  5
B
102
{ACAD_REACTORS
330
A
102
}
100
AcDbXrecord
340
9
  0
MLINESTYLE
  5
20
102
{ACAD_REACTORS
330
1D
102
}
100
AcDbMlineStyle
  2
STANDARD
 70
     0
  3

 62
     0
 51
90.0
 52
90.0
 71
     2
 49
0.5
 62
   256
  6
BYLAYER
 49
-0.5
 62
   256
  6
BYLAYER
  0
DICTIONARYVAR
  5
147B
102
{ACAD_REACTORS
330
147A
102
}
100
DictionaryVariables
280
     0
  1
96
  0
ENDSEC
  0
EOF
