  0
SECTION
  2
HEADER
  9
$ACADVER
  1
AC1014
  9
$ACADMAINTVER
 70
     0
  9
$DWGCODEPAGE
  3
ANSI_932
  9
$INSBASE
 10
-587.250952
 20
747.890188
 30
0.0
  9
$EXTMIN
 10
477.490588
 20
-358.470486
 30
0.0
  9
$EXTMAX
 10
836.69079
 20
-218.884936
 30
0.0
  9
$LIMMIN
 10
491.445759
 20
-397.527026
  9
$LIMMAX
 10
839.377002
 20
-190.327281
  9
$ORTHOMODE
 70
     1
  9
$REGENMODE
 70
     1
  9
$FILLMODE
 70
     1
  9
$QTEXTMODE
 70
     0
  9
$MIRRTEXT
 70
     1
  9
$DRAGMODE
 70
     2
  9
$LTSCALE
 40
5.0
  9
$OSMODE
 70
    47
  9
$ATTMODE
 70
     1
  9
$TEXTSIZE
 40
5.0
  9
$TRACEWID
 40
0.05
  9
$TEXTSTYLE
  7
STANDARD
  9
$CLAYER
  8
外形
  9
$CELTYPE
  6
CONTINUOUS
  9
$CECOLOR
 62
   256
  9
$CELTSCALE
 40
1.0
  9
$DELOBJ
 70
     1
  9
$DISPSILH
 70
     0
  9
$DIMSCALE
 40
1.0
  9
$DIMASZ
 40
2.0
  9
$DIMEXO
 40
1.0
  9
$DIMDLI
 40
8.0
  9
$DIMRND
 40
0.0
  9
$DIMDLE
 40
0.0
  9
$DIMEXE
 40
2.0
  9
$DIMTP
 40
0.0
  9
$DIMTM
 40
0.0
  9
$DIMTXT
 40
2.0
  9
$DIMCEN
 40
-1.0
  9
$DIMTSZ
 40
0.0
  9
$DIMTOL
 70
     0
  9
$DIMLIM
 70
     0
  9
$DIMTIH
 70
     0
  9
$DIMTOH
 70
     0
  9
$DIMSE1
 70
     0
  9
$DIMSE2
 70
     0
  9
$DIMTAD
 70
     1
  9
$DIMZIN
 70
     8
  9
$DIMBLK
  1

  9
$DIMASO
 70
     1
  9
$DIMSHO
 70
     1
  9
$DIMPOST
  1

  9
$DIMAPOST
  1

  9
$DIMALT
 70
     0
  9
$DIMALTD
 70
     2
  9
$DIMALTF
 40
25.4
  9
$DIMLFAC
 40
1.0
  9
$DIMTOFL
 70
     1
  9
$DIMTVP
 40
0.0
  9
$DIMTIX
 70
     0
  9
$DIMSOXD
 70
     0
  9
$DIMSAH
 70
     1
  9
$DIMBLK1
  1
_DOTSMALL
  9
$DIMBLK2
  1
_DOTSMALL
  9
$DIMSTYLE
  2
参考寸法
  9
$DIMCLRD
 70
     2
  9
$DIMCLRE
 70
     2
  9
$DIMCLRT
 70
     2
  9
$DIMTFAC
 40
1.0
  9
$DIMGAP
 40
1.0
  9
$DIMJUST
 70
     0
  9
$DIMSD1
 70
     0
  9
$DIMSD2
 70
     0
  9
$DIMTOLJ
 70
     1
  9
$DIMTZIN
 70
     8
  9
$DIMALTZ
 70
     0
  9
$DIMALTTZ
 70
     0
  9
$DIMFIT
 70
     3
  9
$DIMUPT
 70
     0
  9
$DIMUNIT
 70
     2
  9
$DIMDEC
 70
     3
  9
$DIMTDEC
 70
     2
  9
$DIMALTU
 70
     2
  9
$DIMALTTD
 70
     2
  9
$DIMTXSTY
  7
STANDARD
  9
$DIMAUNIT
 70
     0
  9
$LUNITS
 70
     2
  9
$LUPREC
 70
     3
  9
$SKETCHINC
 40
0.1
  9
$FILLETRAD
 40
11.5
  9
$AUNITS
 70
     0
  9
$AUPREC
 70
     3
  9
$MENU
  1
acad
  9
$ELEVATION
 40
0.0
  9
$PELEVATION
 40
0.0
  9
$THICKNESS
 40
0.0
  9
$LIMCHECK
 70
     0
  9
$BLIPMODE
 70
     0
  9
$CHAMFERA
 40
0.0
  9
$CHAMFERB
 40
0.0
  9
$CHAMFERC
 40
0.0
  9
$CHAMFERD
 40
0.0
  9
$SKPOLY
 70
     0
  9
$TDCREATE
 40
2450751.535399305
  9
$TDUPDATE
 40
2452030.643807870
  9
$TDINDWG
 40
2.1119237269
  9
$TDUSRTIMER
 40
2.1119237269
  9
$USRTIMER
 70
     1
  9
$ANGBASE
 50
0.0
  9
$ANGDIR
 70
     0
  9
$PDMODE
 70
    32
  9
$PDSIZE
 40
0.0
  9
$PLINEWID
 40
0.0
  9
$COORDS
 70
     2
  9
$SPLFRAME
 70
     0
  9
$SPLINETYPE
 70
     5
  9
$SPLINESEGS
 70
     8
  9
$ATTDIA
 70
     0
  9
$ATTREQ
 70
     1
  9
$HANDLING
 70
     1
  9
$HANDSEED
  5
3D70
  9
$SURFTAB1
 70
     6
  9
$SURFTAB2
 70
     6
  9
$SURFTYPE
 70
     6
  9
$SURFU
 70
     6
  9
$SURFV
 70
     6
  9
$UCSNAME
  2

  9
$UCSORG
 10
40.53800450572526
 20
146.9196145921314
 30
0.0
  9
$UCSXDIR
 10
1.0
 20
0.0
 30
0.0
  9
$UCSYDIR
 10
0.0
 20
1.0
 30
0.0
  9
$PUCSNAME
  2

  9
$PUCSORG
 10
0.0
 20
0.0
 30
0.0
  9
$PUCSXDIR
 10
1.0
 20
0.0
 30
0.0
  9
$PUCSYDIR
 10
0.0
 20
1.0
 30
0.0
  9
$USERI1
 70
     0
  9
$USERI2
 70
     0
  9
$USERI3
 70
     0
  9
$USERI4
 70
     0
  9
$USERI5
 70
     0
  9
$USERR1
 40
0.0
  9
$USERR2
 40
0.0
  9
$USERR3
 40
0.0
  9
$USERR4
 40
0.0
  9
$USERR5
 40
0.0
  9
$WORLDVIEW
 70
     1
  9
$SHADEDGE
 70
     3
  9
$SHADEDIF
 70
    70
  9
$TILEMODE
 70
     1
  9
$MAXACTVP
 70
    16
  9
$PINSBASE
 10
0.0
 20
0.0
 30
0.0
  9
$PLIMCHECK
 70
     0
  9
$PEXTMIN
 10
1.000000E+20
 20
1.000000E+20
 30
1.000000E+20
  9
$PEXTMAX
 10
-1.000000E+20
 20
-1.000000E+20
 30
-1.000000E+20
  9
$PLIMMIN
 10
0.0
 20
0.0
  9
$PLIMMAX
 10
12.0
 20
9.0
  9
$UNITMODE
 70
     0
  9
$VISRETAIN
 70
     0
  9
$PLINEGEN
 70
     0
  9
$PSLTSCALE
 70
     1
  9
$TREEDEPTH
 70
  3020
  9
$PICKSTYLE
 70
     1
  9
$CMLSTYLE
  2
STANDARD
  9
$CMLJUST
 70
     0
  9
$CMLSCALE
 40
1.0
  9
$PROXYGRAPHICS
 70
     1
  9
$MEASUREMENT
 70
     0
  0
ENDSEC
  0
SECTION
  2
CLASSES
  0
CLASS
  1
LWPOLYLINE
  2
AcDbPolyline
  3
"AutoCAD"
 90
        0
280
     0
281
     1
  0
CLASS
  1
ACDBDICTIONARYWDFLT
  2
AcDbDictionaryWithDefault
  3
AutoCAD 2000
 90
        0
280
     1
281
     0
  0
CLASS
  1
ACDBPLACEHOLDER
  2
AcDbPlaceHolder
  3
AutoCAD 2000
 90
        0
280
     1
281
     0
  0
CLASS
  1
LAYOUT
  2
AcDbLayout
  3
AutoCAD 2000
 90
        0
280
     1
281
     0
  0
CLASS
  1
LONG_TRANSACTION
  2
AcDbLongTransaction
  3
AutoCAD 2000
 90
        0
280
     1
281
     0
  0
CLASS
  1
LWPOLYLINE
  2
AcDbPolyline
  3
"AutoCAD"
 90
        0
280
     0
281
     1
  0
CLASS
  1
HATCH
  2
AcDbHatch
  3
"ACAD_SEDONA"
 90
        0
280
     0
281
     1
  0
CLASS
  1
XRECORD
  2
AcDbXrecord
  3
"<Built In>"
 90
        0
280
     0
281
     0
  0
CLASS
  1
DICTIONARYVAR
  2
AcDbDictionaryVar
  3
"AutoCAD"
 90
        0
280
     0
281
     0
  0
ENDSEC
  0
SECTION
  2
TABLES
  0
TABLE
  2
VPORT
  5
16
100
AcDbSymbolTable
 70
     1
  0
VPORT
  5
3D6B
100
AcDbSymbolTableRecord
100
AcDbViewportTableRecord
  2
*ACTIVE
 70
     0
 10
0.0
 20
0.0
 11
1.0
 21
1.0
 12
650.277791
 22
-287.759173
 13
0.0
 23
0.0
 14
1.0
 24
1.0
 15
10.0
 25
10.0
 16
0.0
 26
0.0
 36
1.0
 17
0.0
 27
0.0
 37
0.0
 40
239.224199
 41
1.710425
 42
50.0
 43
0.0
 44
0.0
 50
0.0
 51
0.0
 71
     0
 72
   100
 73
     1
 74
     1
 75
     0
 76
     0
 77
     0
 78
     2
  0
ENDTAB
  0
TABLE
  2
LTYPE
  5
11
100
AcDbSymbolTable
 70
     2
  0
LTYPE
  5
12
100
AcDbSymbolTableRecord
100
AcDbLinetypeTableRecord
  2
BYBLOCK
 70
     0
  3

 72
    65
 73
     0
 40
0.0
  0
LTYPE
  5
13
100
AcDbSymbolTableRecord
100
AcDbLinetypeTableRecord
  2
BYLAYER
 70
     0
  3

 72
    65
 73
     0
 40
0.0
  0
LTYPE
  5
7
100
AcDbSymbolTableRecord
100
AcDbLinetypeTableRecord
  2
CONTINUOUS
 70
     0
  3
Solid line
 72
    65
 73
     0
 40
0.0
  0
LTYPE
  5
AA
100
AcDbSymbolTableRecord
100
AcDbLinetypeTableRecord
  2
CENTER
 70
     0
  3
Center ____ _ ____ _ ____ _ ____ _ ____ _ ____
 72
    65
 73
     4
 40
2.0
 49
1.25
 74
     0
 49
-0.25
 74
     0
 49
0.25
 74
     0
 49
-0.25
 74
     0
  0
ENDTAB
  0
TABLE
  2
LAYER
  5
E
100
AcDbSymbolTable
 70
     5
  0
LAYER
  5
6
100
AcDbSymbolTableRecord
100
AcDbLayerTableRecord
  2
0
 70
     0
 62
     7
  6
CONTINUOUS
  0
LAYER
  5
2C
100
AcDbSymbolTableRecord
100
AcDbLayerTableRecord
  2
外形
 70
     0
 62
     4
  6
CONTINUOUS
  0
LAYER
  5
37
102
{ACAD_XDICTIONARY
360
38
102
}
100
AcDbSymbolTableRecord
100
AcDbLayerTableRecord
  2
DEFPOINTS
 70
     0
 62
     7
  6
CONTINUOUS
  0
LAYER
  5
1F
100
AcDbSymbolTableRecord
100
AcDbLayerTableRecord
  2
寸法
 70
     0
 62
     1
  6
CONTINUOUS
  0
LAYER
  5
673
100
AcDbSymbolTableRecord
100
AcDbLayerTableRecord
  2
参考
 70
     0
 62
     2
  6
CONTINUOUS
  0
ENDTAB
  0
TABLE
  2
STYLE
  5
F
100
AcDbSymbolTable
 70
     1
  0
STYLE
  5
10
100
AcDbSymbolTableRecord
100
AcDbTextStyleTableRecord
  2
STANDARD
 70
     0
 40
0.0
 41
1.0
 50
0.0
 71
     0
 42
5.0
  3
MONOTXT
  4
BIGFONT
  0
ENDTAB
  0
TABLE
  2
VIEW
  5
14
100
AcDbSymbolTable
 70
     0
  0
ENDTAB
  0
TABLE
  2
UCS
  5
15
100
AcDbSymbolTable
 70
     0
  0
ENDTAB
  0
TABLE
  2
APPID
  5
18
100
AcDbSymbolTable
 70
     2
  0
APPID
  5
19
100
AcDbSymbolTableRecord
100
AcDbRegAppTableRecord
  2
ACAD
 70
     0
  0
APPID
  5
C59
100
AcDbSymbolTableRecord
100
AcDbRegAppTableRecord
  2
DRAWINGVARIABLESXDATA
 70
     0
  0
ENDTAB
  0
TABLE
  2
DIMSTYLE
  5
1A
100
AcDbSymbolTable
 70
     2
  0
DIMSTYLE
105
21
102
{ACAD_XDICTIONARY
360
22
102
}
102
{ACAD_REACTORS
330
36A1
330
366C
330
3632
330
362C
330
387F
330
38D6
330
390C
330
3B7A
330
3D5E
102
}
100
AcDbSymbolTableRecord
100
AcDbDimStyleTableRecord
  2
STANDARD
 70
     0
  3

  4

  5

  6
_OPEN30
  7
_OPEN30
 40
0.0
 41
2.0
 42
1.0
 43
8.0
 44
2.0
 45
0.0
 46
0.0
 47
0.0
 48
0.0
140
3.0
141
-1.0
142
0.0
143
25.4
144
1.0
145
0.0
146
1.0
147
1.0
 71
     0
 72
     0
 73
     0
 74
     0
 75
     0
 76
     0
 77
     1
 78
     8
170
     0
171
     2
172
     1
173
     1
174
     0
175
     0
176
     1
177
     1
178
     3
270
     2
271
     2
272
     2
273
     2
274
     2
340
10
275
     0
280
     0
281
     0
282
     0
283
     1
284
     8
285
     0
286
     0
287
     3
288
     0
  0
DIMSTYLE
105
674
100
AcDbSymbolTableRecord
100
AcDbDimStyleTableRecord
  2
参考寸法
 70
     0
  3

  4

  5

  6
_DOTSMALL
  7
_DOTSMALL
 40
1.0
 41
2.0
 42
1.0
 43
8.0
 44
2.0
 45
0.0
 46
0.0
 47
0.0
 48
0.0
140
2.0
141
-1.0
142
0.0
143
25.4
144
1.0
145
0.0
146
1.0
147
1.0
 71
     0
 72
     0
 73
     0
 74
     0
 75
     0
 76
     0
 77
     1
 78
     8
170
     0
171
     2
172
     1
173
     1
174
     0
175
     0
176
     2
177
     2
178
     2
270
     2
271
     3
272
     2
273
     2
274
     2
340
10
275
     0
280
     0
281
     0
282
     0
283
     1
284
     8
285
     0
286
     0
287
     3
288
     0
  0
ENDTAB
  0
TABLE
  2
BLOCK_RECORD
  5
1
100
AcDbSymbolTable
 70
    20
  0
BLOCK_RECORD
  5
2
102
{ACAD_XDICTIONARY
360
3
102
}
100
AcDbSymbolTableRecord
100
AcDbBlockTableRecord
  2
*MODEL_SPACE
  0
BLOCK_RECORD
  5
9
102
{ACAD_XDICTIONARY
360
A
102
}
100
AcDbSymbolTableRecord
100
AcDbBlockTableRecord
  2
*PAPER_SPACE
  0
BLOCK_RECORD
  5
24
100
AcDbSymbolTableRecord
100
AcDbBlockTableRecord
  2
_DOTSMALL
  0
BLOCK_RECORD
  5
470
100
AcDbSymbolTableRecord
100
AcDbBlockTableRecord
  2
_OPEN30
  0
BLOCK_RECORD
  5
36AD
100
AcDbSymbolTableRecord
100
AcDbBlockTableRecord
  2
*D2
  0
BLOCK_RECORD
  5
36D5
100
AcDbSymbolTableRecord
100
AcDbBlockTableRecord
  2
*D4
  0
BLOCK_RECORD
  5
36FB
100
AcDbSymbolTableRecord
100
AcDbBlockTableRecord
  2
*D7
  0
BLOCK_RECORD
  5
3752
100
AcDbSymbolTableRecord
100
AcDbBlockTableRecord
  2
*D12
  0
BLOCK_RECORD
  5
3875
100
AcDbSymbolTableRecord
100
AcDbBlockTableRecord
  2
*D15
  0
BLOCK_RECORD
  5
38C8
100
AcDbSymbolTableRecord
100
AcDbBlockTableRecord
  2
*D16
  0
BLOCK_RECORD
  5
38FC
100
AcDbSymbolTableRecord
100
AcDbBlockTableRecord
  2
*D17
  0
BLOCK_RECORD
  5
3B6E
100
AcDbSymbolTableRecord
100
AcDbBlockTableRecord
  2
*D18
  0
BLOCK_RECORD
  5
3D52
100
AcDbSymbolTableRecord
100
AcDbBlockTableRecord
  2
*D19
  0
ENDTAB
  0
ENDSEC
  0
SECTION
  2
BLOCKS
  0
BLOCK
  5
5
100
AcDbEntity
  8
0
100
AcDbBlockBegin
  2
*MODEL_SPACE
 70
     0
 10
0.0
 20
0.0
 30
0.0
  3
*MODEL_SPACE
  1

  0
ENDBLK
  5
8
100
AcDbEntity
  8
0
100
AcDbBlockEnd
  0
BLOCK
  5
C
100
AcDbEntity
 67
     1
  8
0
100
AcDbBlockBegin
  2
*PAPER_SPACE
 70
     0
 10
0.0
 20
0.0
 30
0.0
  3
*PAPER_SPACE
  1

  0
ENDBLK
  5
D
100
AcDbEntity
 67
     1
  8
0
100
AcDbBlockEnd
  0
BLOCK
  5
29
100
AcDbEntity
  8
0
100
AcDbBlockBegin
  2
_DOTSMALL
 70
     0
 10
0.0
 20
0.0
 30
0.0
  3
_DOTSMALL
  1

  0
POLYLINE
  5
25
100
AcDbEntity
  8
0
  6
BYBLOCK
 62
     0
100
AcDb2dPolyline
 66
     1
 10
0.0
 20
0.0
 30
0.0
 70
     1
 40
0.5
 41
0.5
  0
VERTEX
  5
26
100
AcDbEntity
  8
0
  6
BYBLOCK
 62
     0
100
AcDbVertex
100
AcDb2dVertex
 10
-0.0625
 20
0.0
 30
0.0
 42
1.0
  0
VERTEX
  5
27
100
AcDbEntity
  8
0
  6
BYBLOCK
 62
     0
100
AcDbVertex
100
AcDb2dVertex
 10
0.0625
 20
0.0
 30
0.0
 42
1.0
  0
SEQEND
  5
28
100
AcDbEntity
  8
0
  6
BYBLOCK
 62
     0
  0
ENDBLK
  5
2A
100
AcDbEntity
  8
0
100
AcDbBlockEnd
  0
BLOCK
  5
471
100
AcDbEntity
  8
0
100
AcDbBlockBegin
  2
_OPEN30
 70
     0
 10
0.0
 20
0.0
 30
0.0
  3
_OPEN30
  1

  0
LINE
  5
472
100
AcDbEntity
  8
0
  6
BYBLOCK
 62
     0
100
AcDbLine
 10
-1.0
 20
0.267949
 30
0.0
 11
0.0
 21
0.0
 31
0.0
  0
LINE
  5
473
100
AcDbEntity
  8
0
  6
BYBLOCK
 62
     0
100
AcDbLine
 10
0.0
 20
0.0
 30
0.0
 11
-1.0
 21
-0.267949
 31
0.0
  0
LINE
  5
474
100
AcDbEntity
  8
0
  6
BYBLOCK
 62
     0
100
AcDbLine
 10
0.0
 20
0.0
 30
0.0
 11
-1.0
 21
0.0
 31
0.0
  0
ENDBLK
  5
475
100
AcDbEntity
  8
0
100
AcDbBlockEnd
  0
BLOCK
  5
37CD
100
AcDbEntity
  8
0
100
AcDbBlockBegin
  2
*D2
 70
     1
 10
0.0
 20
0.0
 30
0.0
  3
*D2
  1

  0
LINE
  5
37CE
100
AcDbEntity
  8
0
  6
BYBLOCK
 62
     1
100
AcDbLine
 10
1176.719795
 20
-263.122003
 30
0.0
 11
1176.719795
 21
-282.134702
 31
0.0
  0
LINE
  5
37CF
100
AcDbEntity
  8
0
  6
BYBLOCK
 62
     1
100
AcDbLine
 10
1206.719795
 20
-263.122003
 30
0.0
 11
1206.719795
 21
-282.134702
 31
0.0
  0
LINE
  5
37D0
100
AcDbEntity
  8
0
  6
BYBLOCK
 62
     1
100
AcDbLine
 10
1178.719795
 20
-280.134702
 30
0.0
 11
1204.719795
 21
-280.134702
 31
0.0
  0
INSERT
  5
37D1
100
AcDbEntity
  8
0
  6
BYBLOCK
 62
     1
100
AcDbBlockReference
  2
_OPEN30
 10
1176.719795
 20
-280.134702
 30
0.0
 41
2.0
 42
2.0
 43
2.0
 50
180.0
  0
INSERT
  5
37D2
100
AcDbEntity
  8
0
  6
BYBLOCK
 62
     1
100
AcDbBlockReference
  2
_OPEN30
 10
1206.719795
 20
-280.134702
 30
0.0
 41
2.0
 42
2.0
 43
2.0
  0
MTEXT
  5
37D3
100
AcDbEntity
  8
0
  6
BYBLOCK
 62
     3
100
AcDbMText
 10
1191.719795
 20
-277.634702
 30
0.0
 40
3.0
 41
0.0
 71
     5
 72
     1
  1
\A1;30
  0
POINT
  5
37D4
100
AcDbEntity
  8
DEFPOINTS
  6
BYBLOCK
 62
     0
100
AcDbPoint
 10
1176.719795
 20
-262.122003
 30
0.0
  0
POINT
  5
37D5
100
AcDbEntity
  8
DEFPOINTS
  6
BYBLOCK
 62
     0
100
AcDbPoint
 10
1206.719795
 20
-262.122003
 30
0.0
  0
POINT
  5
37D6
100
AcDbEntity
  8
DEFPOINTS
  6
BYBLOCK
 62
     0
100
AcDbPoint
 10
1206.719795
 20
-280.134702
 30
0.0
  0
ENDBLK
  5
37D7
100
AcDbEntity
  8
0
100
AcDbBlockEnd
  0
BLOCK
  5
3844
100
AcDbEntity
  8
0
100
AcDbBlockBegin
  2
*D4
 70
     1
 10
0.0
 20
0.0
 30
0.0
  3
*D4
  1

  0
LINE
  5
3845
100
AcDbEntity
  8
0
  6
BYBLOCK
 62
     1
100
AcDbLine
 10
1000.238697
 20
-256.554239
 30
0.0
 11
989.367983
 21
-256.554239
 31
0.0
  0
LINE
  5
3846
100
AcDbEntity
  8
0
  6
BYBLOCK
 62
     1
100
AcDbLine
 10
1002.168344
 20
-278.554239
 30
0.0
 11
989.367983
 21
-278.554239
 31
0.0
  0
LINE
  5
3847
100
AcDbEntity
  8
0
  6
BYBLOCK
 62
     1
100
AcDbLine
 10
991.367983
 20
-258.554239
 30
0.0
 11
991.367983
 21
-276.554239
 31
0.0
  0
INSERT
  5
3848
100
AcDbEntity
  8
0
  6
BYBLOCK
 62
     1
100
AcDbBlockReference
  2
_OPEN30
 10
991.367983
 20
-256.554239
 30
0.0
 41
2.0
 42
2.0
 43
2.0
 50
90.0
  0
INSERT
  5
3849
100
AcDbEntity
  8
0
  6
BYBLOCK
 62
     1
100
AcDbBlockReference
  2
_OPEN30
 10
991.367983
 20
-278.554239
 30
0.0
 41
2.0
 42
2.0
 43
2.0
 50
270.0
  0
MTEXT
  5
384A
100
AcDbEntity
  8
0
  6
BYBLOCK
 62
     3
100
AcDbMText
 10
988.867983
 20
-267.554239
 30
0.0
 40
3.0
 41
0.0
 71
     5
 72
     1
  1
\A1;22
 11
0.0
 21
1.0
 31
0.0
  0
POINT
  5
384B
100
AcDbEntity
  8
DEFPOINTS
  6
BYBLOCK
 62
     0
100
AcDbPoint
 10
1001.238697
 20
-256.554239
 30
0.0
  0
POINT
  5
384C
100
AcDbEntity
  8
DEFPOINTS
  6
BYBLOCK
 62
     0
100
AcDbPoint
 10
1003.168344
 20
-278.554239
 30
0.0
  0
POINT
  5
384D
100
AcDbEntity
  8
DEFPOINTS
  6
BYBLOCK
 62
     0
100
AcDbPoint
 10
991.367983
 20
-278.554239
 30
0.0
  0
ENDBLK
  5
384E
100
AcDbEntity
  8
0
100
AcDbBlockEnd
  0
BLOCK
  5
3865
100
AcDbEntity
  8
0
100
AcDbBlockBegin
  2
*D7
 70
     1
 10
0.0
 20
0.0
 30
0.0
  3
*D7
  1

  0
LINE
  5
3866
100
AcDbEntity
  8
0
  6
BYBLOCK
 62
     1
100
AcDbLine
 10
1003.168344
 20
-279.554239
 30
0.0
 11
1003.168344
 21
-295.327484
 31
0.0
  0
LINE
  5
3867
100
AcDbEntity
  8
0
  6
BYBLOCK
 62
     1
100
AcDbLine
 10
1253.168344
 20
-270.554239
 30
0.0
 11
1253.168344
 21
-295.327484
 31
0.0
  0
LINE
  5
3868
100
AcDbEntity
  8
0
  6
BYBLOCK
 62
     1
100
AcDbLine
 10
1005.168344
 20
-293.327484
 30
0.0
 11
1251.168344
 21
-293.327484
 31
0.0
  0
INSERT
  5
3869
100
AcDbEntity
  8
0
  6
BYBLOCK
 62
     1
100
AcDbBlockReference
  2
_OPEN30
 10
1003.168344
 20
-293.327484
 30
0.0
 41
2.0
 42
2.0
 43
2.0
 50
180.0
  0
INSERT
  5
386A
100
AcDbEntity
  8
0
  6
BYBLOCK
 62
     1
100
AcDbBlockReference
  2
_OPEN30
 10
1253.168344
 20
-293.327484
 30
0.0
 41
2.0
 42
2.0
 43
2.0
  0
MTEXT
  5
386B
100
AcDbEntity
  8
0
  6
BYBLOCK
 62
     3
100
AcDbMText
 10
1128.168344
 20
-290.827484
 30
0.0
 40
3.0
 41
0.0
 71
     5
 72
     1
  1
\A1;250
  0
POINT
  5
386C
100
AcDbEntity
  8
DEFPOINTS
  6
BYBLOCK
 62
     0
100
AcDbPoint
 10
1003.168344
 20
-278.554239
 30
0.0
  0
POINT
  5
386D
100
AcDbEntity
  8
DEFPOINTS
  6
BYBLOCK
 62
     0
100
AcDbPoint
 10
1253.168344
 20
-269.554239
 30
0.0
  0
POINT
  5
386E
100
AcDbEntity
  8
DEFPOINTS
  6
BYBLOCK
 62
     0
100
AcDbPoint
 10
1253.168344
 20
-293.327484
 30
0.0
  0
ENDBLK
  5
386F
100
AcDbEntity
  8
0
100
AcDbBlockEnd
  0
BLOCK
  5
3777
100
AcDbEntity
  8
0
100
AcDbBlockBegin
  2
*D12
 70
     1
 10
0.0
 20
0.0
 30
0.0
  3
*D12
  1

  0
LINE
  5
3778
100
AcDbEntity
  8
0
  6
BYBLOCK
 62
     1
100
AcDbLine
 10
999.238697
 20
-323.296519
 30
0.0
 11
993.045483
 21
-323.296519
 31
0.0
  0
LINE
  5
3779
100
AcDbEntity
  8
0
  6
BYBLOCK
 62
     1
100
AcDbLine
 10
1002.173823
 20
-323.401048
 30
0.0
 11
993.100937
 21
-324.354647
 31
0.0
  0
ARC
  5
377A
100
AcDbEntity
  8
0
  6
BYBLOCK
 62
     1
100
AcDbCircle
 10
1003.168344
 20
-323.296519
 30
0.0
 40
8.122861
100
AcDbArc
 50
151.492272
 51
180.0
  0
LINE
  5
377B
100
AcDbEntity
  8
0
  6
BYBLOCK
 62
     1
100
AcDbLine
 10
996.030358
 20
-319.419662
 30
0.0
 11
1000.134943
 21
-311.862389
 31
0.0
  0
ARC
  5
377C
100
AcDbEntity
  8
0
  6
BYBLOCK
 62
     1
100
AcDbCircle
 10
1003.168344
 20
-323.296519
 30
0.0
 40
8.122861
100
AcDbArc
 50
151.71366
 51
165.85683
  0
ARC
  5
377D
100
AcDbEntity
  8
0
  6
BYBLOCK
 62
     1
100
AcDbCircle
 10
1003.168344
 20
-323.296519
 30
0.0
 40
8.122861
100
AcDbArc
 50
200.14317
 51
214.28634
  0
ARC
  5
377E
100
AcDbEntity
  8
0
  6
BYBLOCK
 62
     1
100
AcDbCircle
 10
1003.168344
 20
-323.296519
 30
0.0
 40
8.122861
100
AcDbArc
 50
180.0
 51
186.0
  0
INSERT
  5
377F
100
AcDbEntity
  8
0
  6
BYBLOCK
 62
     1
100
AcDbBlockReference
  2
_OPEN30
 10
995.045483
 20
-323.296519
 30
0.0
 41
2.0
 42
2.0
 43
2.0
 50
262.928415
  0
INSERT
  5
3780
100
AcDbEntity
  8
0
  6
BYBLOCK
 62
     1
100
AcDbBlockReference
  2
_OPEN30
 10
995.089981
 20
-324.14559
 30
0.0
 41
2.0
 42
2.0
 43
2.0
 50
103.071585
  0
MTEXT
  5
3781
100
AcDbEntity
  8
0
  6
BYBLOCK
 62
     3
100
AcDbMText
 10
1000.279532
 20
-316.834219
 30
0.0
 40
3.0
 41
0.0
 71
     5
 72
     1
  1
\A1;6°
 11
-0.477277
 21
-0.878753
 31
0.0
  0
POINT
  5
3782
100
AcDbEntity
  8
DEFPOINTS
  6
BYBLOCK
 62
     0
100
AcDbPoint
 10
995.06527
 20
-323.863142
 30
0.0
  0
POINT
  5
3783
100
AcDbEntity
  8
DEFPOINTS
  6
BYBLOCK
 62
     0
100
AcDbPoint
 10
1003.168344
 20
-323.296519
 30
0.0
  0
POINT
  5
3784
100
AcDbEntity
  8
DEFPOINTS
  6
BYBLOCK
 62
     0
100
AcDbPoint
 10
1000.238697
 20
-323.296519
 30
0.0
  0
POINT
  5
3785
100
AcDbEntity
  8
DEFPOINTS
  6
BYBLOCK
 62
     0
100
AcDbPoint
 10
1258.033333
 20
-323.296519
 30
0.0
  0
POINT
  5
3786
100
AcDbEntity
  8
DEFPOINTS
  6
BYBLOCK
 62
     0
100
AcDbPoint
 10
1021.299596
 20
-321.390848
 30
0.0
  0
ENDBLK
  5
3787
100
AcDbEntity
  8
0
100
AcDbBlockEnd
  0
BLOCK
  5
3880
100
AcDbEntity
  8
0
100
AcDbBlockBegin
  2
*D15
 70
     1
 10
0.0
 20
0.0
 30
0.0
  3
*D15
  1

  0
LINE
  5
3881
100
AcDbEntity
  8
0
  6
BYBLOCK
 62
     1
100
AcDbLine
 10
1176.357298
 20
-226.873394
 30
0.0
 11
1183.445791
 21
-240.568593
 31
0.0
  0
LINE
  5
3882
100
AcDbEntity
  8
0
  6
BYBLOCK
 62
     1
100
AcDbLine
 10
1199.993799
 20
-272.539884
 30
0.0
 11
1200.913133
 21
-274.316067
 31
0.0
  0
MTEXT
  5
3883
100
AcDbEntity
  8
0
  6
BYBLOCK
 62
     3
100
AcDbMText
 10
1180.875861
 20
-230.164684
 30
0.0
 40
3.0
 41
0.0
 71
     5
 72
     1
  1
\A1;\U+220532
 11
0.459667
 21
-0.888091
 31
0.0
  0
LINE
  5
3884
100
AcDbEntity
  8
0
  6
BYBLOCK
 62
     1
100
AcDbLine
 10
1199.074465
 20
-270.763701
 30
0.0
 11
1184.365124
 21
-242.344776
 31
0.0
  0
INSERT
  5
3885
100
AcDbEntity
  8
0
  6
BYBLOCK
 62
     1
100
AcDbBlockReference
  2
_OPEN30
 10
1199.074465
 20
-270.763701
 30
0.0
 41
2.0
 42
2.0
 43
2.0
 50
117.365615
  0
INSERT
  5
3886
100
AcDbEntity
  8
0
  6
BYBLOCK
 62
     1
100
AcDbBlockReference
  2
_OPEN30
 10
1184.365124
 20
-242.344776
 30
0.0
 41
2.0
 42
2.0
 43
2.0
 50
297.365615
  0
POINT
  5
3887
100
AcDbEntity
  8
DEFPOINTS
  6
BYBLOCK
 62
     0
100
AcDbPoint
 10
1184.365124
 20
-242.344776
 30
0.0
  0
POINT
  5
3888
100
AcDbEntity
  8
DEFPOINTS
  6
BYBLOCK
 62
     0
100
AcDbPoint
 10
1199.074465
 20
-270.763701
 30
0.0
  0
ENDBLK
  5
3889
100
AcDbEntity
  8
0
100
AcDbBlockEnd
  0
BLOCK
  5
38D7
100
AcDbEntity
  8
0
100
AcDbBlockBegin
  2
*D16
 70
     1
 10
0.0
 20
0.0
 30
0.0
  3
*D16
  1

  0
LINE
  5
38D8
100
AcDbEntity
  8
0
  6
BYBLOCK
 62
     1
100
AcDbLine
 10
1005.807113
 20
-247.558044
 30
0.0
 11
1006.447372
 21
-240.239856
 31
0.0
  0
LINE
  5
38D9
100
AcDbEntity
  8
0
  6
BYBLOCK
 62
     1
100
AcDbLine
 10
1002.095298
 20
-278.554239
 30
0.0
 11
964.634561
 21
-278.554239
 31
0.0
  0
ARC
  5
38DA
100
AcDbEntity
  8
0
  6
BYBLOCK
 62
     1
100
AcDbCircle
 10
1003.095298
 20
-278.554239
 30
0.0
 40
36.460737
100
AcDbArc
 50
88.14327
 51
176.85673
  0
INSERT
  5
38DB
100
AcDbEntity
  8
0
  6
BYBLOCK
 62
     1
100
AcDbBlockReference
  2
_OPEN30
 10
1006.27306
 20
-242.232245
 30
0.0
 41
2.0
 42
2.0
 43
2.0
 50
356.571635
  0
INSERT
  5
38DC
100
AcDbEntity
  8
0
  6
BYBLOCK
 62
     1
100
AcDbBlockReference
  2
_OPEN30
 10
966.634561
 20
-278.554239
 30
0.0
 41
2.0
 42
2.0
 43
2.0
 50
268.428365
  0
MTEXT
  5
38DD
100
AcDbEntity
  8
0
  6
BYBLOCK
 62
     3
100
AcDbMText
 10
976.773805
 20
-249.82937
 30
0.0
 40
3.0
 41
0.0
 71
     5
 72
     1
  1
\A1;95°
 11
0.737277
 21
0.67559
 31
0.0
  0
POINT
  5
38DE
100
AcDbEntity
  8
DEFPOINTS
  6
BYBLOCK
 62
     0
100
AcDbPoint
 10
986.731749
 20
-245.971734
 30
0.0
  0
POINT
  5
38DF
100
AcDbEntity
  8
DEFPOINTS
  6
BYBLOCK
 62
     0
100
AcDbPoint
 10
1005.719958
 20
-248.554239
 30
0.0
  0
POINT
  5
38E0
100
AcDbEntity
  8
DEFPOINTS
  6
BYBLOCK
 62
     0
100
AcDbPoint
 10
1003.968344
 20
-278.554239
 30
0.0
  0
POINT
  5
38E1
100
AcDbEntity
  8
DEFPOINTS
  6
BYBLOCK
 62
     0
100
AcDbPoint
 10
1003.168344
 20
-278.554239
 30
0.0
  0
POINT
  5
38E2
100
AcDbEntity
  8
DEFPOINTS
  6
BYBLOCK
 62
     0
100
AcDbPoint
 10
1003.171389
 20
-277.684514
 30
0.0
  0
ENDBLK
  5
38E3
100
AcDbEntity
  8
0
100
AcDbBlockEnd
  0
BLOCK
  5
390D
100
AcDbEntity
  8
0
100
AcDbBlockBegin
  2
*D17
 70
     1
 10
0.0
 20
0.0
 30
0.0
  3
*D17
  1

  0
LINE
  5
390E
100
AcDbEntity
  8
0
  6
BYBLOCK
 62
     1
100
AcDbLine
 10
920.659482
 20
-279.539046
 30
0.0
 11
916.349756
 21
-303.980718
 31
0.0
  0
LINE
  5
390F
100
AcDbEntity
  8
0
  6
BYBLOCK
 62
     1
100
AcDbLine
 10
920.83313
 20
-279.554239
 30
0.0
 11
920.83313
 21
-304.372962
 31
0.0
  0
ARC
  5
3910
100
AcDbEntity
  8
0
  6
BYBLOCK
 62
     1
100
AcDbCircle
 10
920.83313
 20
-278.554239
 30
0.0
 40
23.818724
100
AcDbArc
 50
255.187599
 51
260.0
  0
LINE
  5
3911
100
AcDbEntity
  8
0
  6
BYBLOCK
 62
     1
100
AcDbLine
 10
914.743754
 20
-301.58142
 30
0.0
 11
903.529245
 21
-298.615822
 31
0.0
  0
ARC
  5
3912
100
AcDbEntity
  8
0
  6
BYBLOCK
 62
     1
100
AcDbCircle
 10
920.83313
 20
-278.554239
 30
0.0
 40
23.818724
100
AcDbArc
 50
264.812401
 51
265.187599
  0
INSERT
  5
3913
100
AcDbEntity
  8
0
  6
BYBLOCK
 62
     1
100
AcDbBlockReference
  2
_OPEN30
 10
916.697052
 20
-302.011102
 30
0.0
 41
2.0
 42
2.0
 43
2.0
 50
172.406201
  0
INSERT
  5
3914
100
AcDbEntity
  8
0
  6
BYBLOCK
 62
     1
100
AcDbBlockReference
  2
_OPEN30
 10
920.83313
 20
-302.372962
 30
0.0
 41
2.0
 42
2.0
 43
2.0
 50
357.593799
  0
MTEXT
  5
3915
100
AcDbEntity
  8
0
  6
BYBLOCK
 62
     3
100
AcDbMText
 10
909.775637
 20
-297.681701
 30
0.0
 40
3.0
 41
0.0
 71
     5
 72
     1
  1
\A1;10°
 11
0.966768
 21
-0.255655
 31
0.0
  0
POINT
  5
3916
100
AcDbEntity
  8
DEFPOINTS
  6
BYBLOCK
 62
     0
100
AcDbPoint
 10
919.448195
 20
-302.332665
 30
0.0
  0
POINT
  5
3917
100
AcDbEntity
  8
DEFPOINTS
  6
BYBLOCK
 62
     0
100
AcDbPoint
 10
920.83313
 20
-237.419272
 30
0.0
  0
POINT
  5
3918
100
AcDbEntity
  8
DEFPOINTS
  6
BYBLOCK
 62
     0
100
AcDbPoint
 10
927.232326
 20
-242.262595
 30
0.0
  0
POINT
  5
3919
100
AcDbEntity
  8
DEFPOINTS
  6
BYBLOCK
 62
     0
100
AcDbPoint
 10
920.83313
 20
-278.554239
 30
0.0
  0
POINT
  5
391A
100
AcDbEntity
  8
DEFPOINTS
  6
BYBLOCK
 62
     0
100
AcDbPoint
 10
920.83313
 20
-278.554239
 30
0.0
  0
ENDBLK
  5
391B
100
AcDbEntity
  8
0
100
AcDbBlockEnd
  0
BLOCK
  5
3B86
100
AcDbEntity
  8
0
100
AcDbBlockBegin
  2
*D18
 70
     1
 10
0.0
 20
0.0
 30
0.0
  3
*D18
  1

  0
LINE
  5
3B87
100
AcDbEntity
  8
0
  6
BYBLOCK
 62
     1
100
AcDbLine
 10
1003.168344
 20
-324.296519
 30
0.0
 11
1003.168344
 21
-353.784883
 31
0.0
  0
LINE
  5
3B88
100
AcDbEntity
  8
0
  6
BYBLOCK
 62
     1
100
AcDbLine
 10
1028.168344
 20
-340.046519
 30
0.0
 11
1028.168344
 21
-353.784883
 31
0.0
  0
LINE
  5
3B89
100
AcDbEntity
  8
0
  6
BYBLOCK
 62
     1
100
AcDbLine
 10
1005.168344
 20
-351.784883
 30
0.0
 11
1026.168344
 21
-351.784883
 31
0.0
  0
INSERT
  5
3B8A
100
AcDbEntity
  8
0
  6
BYBLOCK
 62
     1
100
AcDbBlockReference
  2
_OPEN30
 10
1003.168344
 20
-351.784883
 30
0.0
 41
2.0
 42
2.0
 43
2.0
 50
180.0
  0
INSERT
  5
3B8B
100
AcDbEntity
  8
0
  6
BYBLOCK
 62
     1
100
AcDbBlockReference
  2
_OPEN30
 10
1028.168344
 20
-351.784883
 30
0.0
 41
2.0
 42
2.0
 43
2.0
  0
MTEXT
  5
3B8C
100
AcDbEntity
  8
0
  6
BYBLOCK
 62
     3
100
AcDbMText
 10
1015.668344
 20
-349.284883
 30
0.0
 40
3.0
 41
0.0
 71
     5
 72
     1
  1
\A1;25
  0
POINT
  5
3B8D
100
AcDbEntity
  8
DEFPOINTS
  6
BYBLOCK
 62
     0
100
AcDbPoint
 10
1003.168344
 20
-323.296519
 30
0.0
  0
POINT
  5
3B8E
100
AcDbEntity
  8
DEFPOINTS
  6
BYBLOCK
 62
     0
100
AcDbPoint
 10
1028.168344
 20
-339.046519
 30
0.0
  0
POINT
  5
3B8F
100
AcDbEntity
  8
DEFPOINTS
  6
BYBLOCK
 62
     0
100
AcDbPoint
 10
1028.168344
 20
-351.784883
 30
0.0
  0
ENDBLK
  5
3B90
100
AcDbEntity
  8
0
100
AcDbBlockEnd
  0
BLOCK
  5
3D5F
100
AcDbEntity
  8
0
100
AcDbBlockBegin
  2
*D19
 70
     1
 10
0.0
 20
0.0
 30
0.0
  3
*D19
  1

  0
LINE
  5
3D60
100
AcDbEntity
  8
0
  6
BYBLOCK
 62
     1
100
AcDbLine
 10
637.075802
 20
-271.554239
 30
0.0
 11
647.509962
 21
-271.554239
 31
0.0
  0
LINE
  5
3D61
100
AcDbEntity
  8
0
  6
BYBLOCK
 62
     1
100
AcDbLine
 10
582.825802
 20
-278.554239
 30
0.0
 11
647.509962
 21
-278.554239
 31
0.0
  0
LINE
  5
3D62
100
AcDbEntity
  8
0
  6
BYBLOCK
 62
     1
100
AcDbLine
 10
645.509962
 20
-273.554239
 30
0.0
 11
645.509962
 21
-276.554239
 31
0.0
  0
INSERT
  5
3D63
100
AcDbEntity
  8
0
  6
BYBLOCK
 62
     1
100
AcDbBlockReference
  2
_OPEN30
 10
645.509962
 20
-271.554239
 30
0.0
 41
2.0
 42
2.0
 43
2.0
 50
90.0
  0
INSERT
  5
3D64
100
AcDbEntity
  8
0
  6
BYBLOCK
 62
     1
100
AcDbBlockReference
  2
_OPEN30
 10
645.509962
 20
-278.554239
 30
0.0
 41
2.0
 42
2.0
 43
2.0
 50
270.0
  0
MTEXT
  5
3D65
100
AcDbEntity
  8
0
  6
BYBLOCK
 62
     3
100
AcDbMText
 10
643.009962
 20
-275.054239
 30
0.0
 40
3.0
 41
0.0
 71
     5
 72
     1
  1
\A1;7
 11
0.0
 21
1.0
 31
0.0
  0
POINT
  5
3D66
100
AcDbEntity
  8
DEFPOINTS
  6
BYBLOCK
 62
     0
100
AcDbPoint
 10
636.075802
 20
-271.554239
 30
0.0
  0
POINT
  5
3D67
100
AcDbEntity
  8
DEFPOINTS
  6
BYBLOCK
 62
     0
100
AcDbPoint
 10
581.825802
 20
-278.554239
 30
0.0
  0
POINT
  5
3D68
100
AcDbEntity
  8
DEFPOINTS
  6
BYBLOCK
 62
     0
100
AcDbPoint
 10
645.509962
 20
-278.554239
 30
0.0
  0
ENDBLK
  5
3D69
100
AcDbEntity
  8
0
100
AcDbBlockEnd
  0
ENDSEC
  0
SECTION
  2
ENTITIES
  0
LINE
  5
362B
100
AcDbEntity
  8
外形
  6
CONTINUOUS
100
AcDbLine
 10
829.825802
 20
-240.554239
 30
0.0
 11
787.377252
 21
-240.554239
 31
0.0
  0
DIMENSION
  5
362C
100
AcDbEntity
  8
寸法
  6
CONTINUOUS
100
AcDbDimension
  2
*D12
 10
599.957053
 20
-321.390848
 30
0.0
 11
578.93699
 21
-316.834219
 31
0.0
 12
-421.342542
 22
0.0
 32
0.0
 70
    34
  3
STANDARD
100
AcDb2LineAngularDimension
 13
578.896154
 23
-323.296519
 33
0.0
 14
836.69079
 24
-323.296519
 34
0.0
 15
581.825802
 25
-323.296519
 35
0.0
 16
573.722728
 26
-323.863142
 36
0.0
1001
ACAD
1000
DSTYLE
1002
{
1070
    40
1040
1.0
1002
}
  0
LINE
  5
362F
100
AcDbEntity
  8
外形
  6
CONTINUOUS
100
AcDbLine
 10
635.825802
 20
-250.986474
 30
0.0
 11
753.377252
 21
-250.986474
 31
0.0
  0
LINE
  5
3630
100
AcDbEntity
  8
外形
  6
CONTINUOUS
100
AcDbLine
 10
635.825802
 20
-262.122003
 30
0.0
 11
753.377252
 21
-262.122003
 31
0.0
  0
LINE
  5
3631
100
AcDbEntity
  8
外形
  6
CENTER
 62
     1
100
AcDbLine
 10
836.69079
 20
-256.554239
 30
0.0
 11
579.896154
 21
-256.554239
 31
0.0
  0
DIMENSION
  5
3632
100
AcDbEntity
  8
寸法
  6
CONTINUOUS
100
AcDbDimension
  2
*D7
 10
831.825802
 20
-293.327484
 30
0.0
 11
706.825802
 21
-290.827484
 31
0.0
 12
-421.342542
 22
0.0
 32
0.0
 70
    32
  3
STANDARD
100
AcDbAlignedDimension
 13
581.825802
 23
-278.554239
 33
0.0
 14
831.825802
 24
-269.554239
 34
0.0
100
AcDbRotatedDimension
1001
ACAD
1000
DSTYLE
1002
{
1070
    40
1040
1.0
1002
}
  0
LINE
  5
3633
100
AcDbEntity
  8
外形
  6
CONTINUOUS
100
AcDbLine
 10
635.825802
 20
-317.728755
 30
0.0
 11
829.825802
 21
-317.728755
 31
0.0
  0
LINE
  5
3634
100
AcDbEntity
  8
外形
  6
CONTINUOUS
100
AcDbLine
 10
635.825802
 20
-328.864284
 30
0.0
 11
829.825802
 21
-328.864284
 31
0.0
  0
LINE
  5
3635
100
AcDbEntity
  8
外形
  6
CENTER
 62
     1
100
AcDbLine
 10
578.896154
 20
-323.296519
 30
0.0
 11
836.69079
 21
-323.296519
 31
0.0
  0
LINE
  5
363B
100
AcDbEntity
  8
外形
  6
CONTINUOUS
100
AcDbLine
 10
635.825802
 20
-307.546519
 30
0.0
 11
635.825802
 21
-318.494176
 31
0.0
  0
LINE
  5
363C
100
AcDbEntity
  8
外形
  6
CONTINUOUS
100
AcDbLine
 10
636.075802
 20
-307.796519
 30
0.0
 11
636.075802
 21
-317.728755
 31
0.0
  0
LINE
  5
363D
100
AcDbEntity
  8
外形
  6
CONTINUOUS
100
AcDbLine
 10
594.596663
 20
-321.954248
 30
0.0
 11
595.094219
 21
-326.688172
 31
0.0
  0
LINE
  5
363E
100
AcDbEntity
  8
外形
  6
CONTINUOUS
100
AcDbLine
 10
581.825802
 20
-323.296519
 30
0.0
 11
582.323357
 21
-328.030444
 31
0.0
  0
LINE
  5
3643
100
AcDbEntity
  8
外形
  6
CONTINUOUS
100
AcDbLine
 10
582.323357
 20
-328.030444
 30
0.0
 11
595.026679
 21
-326.695271
 31
0.0
  0
LINE
  5
3644
100
AcDbEntity
  8
外形
  6
CONTINUOUS
100
AcDbLine
 10
582.723298
 20
-331.185925
 30
0.0
 11
595.359079
 21
-329.85785
 31
0.0
  0
LINE
  5
3645
100
AcDbEntity
  8
外形
  6
CONTINUOUS
100
AcDbLine
 10
583.733412
 20
-340.796519
 30
0.0
 11
582.225743
 21
-326.452
 31
0.0
  0
LINE
  5
3647
100
AcDbEntity
  8
外形
  6
CONTINUOUS
100
AcDbLine
 10
595.359079
 20
-329.85785
 30
0.0
 11
595.026679
 21
-326.695271
 31
0.0
  0
LINE
  5
3648
100
AcDbEntity
  8
外形
  6
CONTINUOUS
100
AcDbLine
 10
635.825802
 20
-339.046519
 30
0.0
 11
636.075802
 21
-338.796519
 31
0.0
  0
LINE
  5
364B
100
AcDbEntity
  8
外形
  6
CONTINUOUS
100
AcDbLine
 10
581.825802
 20
-323.296519
 30
0.0
 11
604.31095
 21
-320.933235
 31
0.0
  0
LINE
  5
364C
100
AcDbEntity
  8
外形
  6
CONTINUOUS
100
AcDbLine
 10
582.967455
 20
-321.934764
 30
0.0
 11
595.738317
 21
-320.592492
 31
0.0
  0
LINE
  5
364E
100
AcDbEntity
  8
外形
  6
CONTINUOUS
100
AcDbLine
 10
595.738317
 20
-320.592492
 30
0.0
 11
594.596663
 21
-321.954248
 31
0.0
  0
SPLINE
  5
3652
100
AcDbEntity
  8
外形
  6
CONTINUOUS
100
AcDbSpline
210
0.0
220
0.0
230
1.0
 70
     8
 71
     3
 72
     9
 73
     5
 74
     0
 42
0.0000001
 43
0.0000001
 40
0.0
 40
0.0
 40
0.0
 40
0.0
 40
5.250552059219561
 40
13.01038677595908
 40
13.01038677595908
 40
13.01038677595908
 40
13.01038677595908
 10
621.8258020036228
 20
-307.5465194293729
 30
0.0
 10
621.3614122223825
 20
-309.3058578603157
 30
0.0
 10
620.2106969070037
 20
-313.6653372442375
 30
0.0
 10
616.722730706399
 20
-315.9607221419872
 30
0.0
 10
612.325802003623
 20
-318.4941762512985
 30
0.0
  0
LINE
  5
3653
100
AcDbEntity
  8
外形
  6
CONTINUOUS
100
AcDbLine
 10
635.825802
 20
-307.546519
 30
0.0
 11
636.075802
 21
-307.796519
 31
0.0
  0
LEADER
  5
3654
100
AcDbEntity
  8
寸法
  6
CONTINUOUS
 62
     1
100
AcDbLeader
  3
STANDARD
 73
     0
 74
     0
 75
     1
 40
3.0
 41
29.6
 76
     3
 10
511.524454
 20
-238.137234
 30
0.0
 10
521.733534
 20
-222.884936
 30
0.0
 10
523.733534
 20
-222.884936
 30
0.0
 77
   256
340
368D
1001
ACAD
1000
DSTYLE
1002
{
1070
    40
1040
1.0
1002
}
  0
LINE
  5
3659
100
AcDbEntity
  8
外形
  6
CONTINUOUS
100
AcDbLine
 10
497.105277
 20
-264.67026
 30
0.0
 11
494.802903
 21
-277.727673
 31
0.0
  0
LINE
  5
365A
100
AcDbEntity
  8
外形
  6
CONTINUOUS
100
AcDbLine
 10
493.932807
 20
-264.349343
 30
0.0
 11
491.711996
 21
-276.944188
 31
0.0
  0
LINE
  5
365B
100
AcDbEntity
  8
外形
  6
CONTINUOUS
100
AcDbLine
 10
505.889784
 20
-242.262595
 30
0.0
 11
499.490588
 21
-278.554239
 31
0.0
  0
LINE
  5
365C
100
AcDbEntity
  8
外形
  6
CENTER
 62
     1
100
AcDbLine
 10
499.490588
 20
-237.419272
 30
0.0
 11
499.490588
 21
-278.554239
 31
0.0
  0
LINE
  5
365D
100
AcDbEntity
  8
外形
  6
CONTINUOUS
100
AcDbLine
 10
494.843684
 20
-277.496389
 30
0.0
 11
491.711996
 21
-276.944188
 31
0.0
  0
LINE
  5
3661
100
AcDbEntity
  8
外形
  6
CONTINUOUS
100
AcDbLine
 10
499.490588
 20
-278.554239
 30
0.0
 11
494.802903
 21
-277.727673
 31
0.0
  0
LINE
  5
3664
100
AcDbEntity
  8
外形
  6
CENTER
 62
     1
100
AcDbLine
 10
518.945312
 20
-256.554239
 30
0.0
 11
480.770463
 21
-256.554239
 31
0.0
  0
LINE
  5
3666
100
AcDbEntity
  8
外形
  6
CONTINUOUS
100
AcDbLine
 10
501.792962
 20
-265.496825
 30
0.0
 11
497.105277
 21
-264.67026
 31
0.0
  0
LINE
  5
3667
100
AcDbEntity
  8
外形
  6
CONTINUOUS
100
AcDbLine
 10
497.064495
 20
-264.901544
 30
0.0
 11
493.932807
 21
-264.349343
 31
0.0
  0
DIMENSION
  5
366C
100
AcDbEntity
  8
寸法
  6
CONTINUOUS
100
AcDbDimension
  2
*D4
 10
570.025441
 20
-278.554239
 30
0.0
 11
567.525441
 21
-267.554239
 31
0.0
 12
-421.342542
 22
0.0
 32
0.0
 70
    32
  3
STANDARD
100
AcDbAlignedDimension
 13
579.896154
 23
-256.554239
 33
0.0
 14
581.825802
 24
-278.554239
 34
0.0
 50
90.0
100
AcDbRotatedDimension
1001
ACAD
1000
DSTYLE
1002
{
1070
    40
1040
1.0
1002
}
  0
LINE
  5
366E
100
AcDbEntity
  8
外形
  6
CONTINUOUS
100
AcDbLine
 10
636.075802
 20
-240.554239
 30
0.0
 11
636.075802
 21
-250.986474
 31
0.0
  0
LINE
  5
366F
100
AcDbEntity
  8
外形
  6
CONTINUOUS
100
AcDbLine
 10
621.825802
 20
-251.762595
 30
0.0
 11
621.825802
 21
-262.804239
 31
0.0
  0
LINE
  5
3673
100
AcDbEntity
  8
外形
  6
CONTINUOUS
100
AcDbLine
 10
595.738317
 20
-264.460822
 30
0.0
 11
594.655169
 21
-276.841254
 31
0.0
  0
LINE
  5
3674
100
AcDbEntity
  8
外形
  6
CONTINUOUS
100
AcDbLine
 10
584.377415
 20
-248.554239
 30
0.0
 11
581.828846
 21
-277.684514
 31
0.0
  0
CIRCLE
  5
3677
100
AcDbEntity
  8
外形
  6
CONTINUOUS
100
AcDbCircle
 10
588.742034
 20
-271.547555
 30
0.0
 40
3.1
  0
CIRCLE
  5
3678
100
AcDbEntity
  8
外形
  6
CONTINUOUS
100
AcDbCircle
 10
588.742034
 20
-271.547555
 30
0.0
 40
2.58
  0
LINE
  5
3679
100
AcDbEntity
  8
外形
  6
CONTINUOUS
100
AcDbLine
 10
582.695527
 20
-278.551194
 30
0.0
 11
604.31095
 21
-276.66009
 31
0.0
  0
LINE
  5
367A
100
AcDbEntity
  8
外形
  6
CONTINUOUS
 62
     1
100
AcDbLine
 10
582.625802
 20
-278.554239
 30
0.0
 11
581.825802
 21
-278.554239
 31
0.0
  0
ARC
  5
367B
100
AcDbEntity
  8
外形
  6
CONTINUOUS
100
AcDbCircle
 10
582.625802
 20
-277.754239
 30
0.0
 40
0.8
100
AcDbArc
 50
175.0
 51
275.0
  0
LINE
  5
367C
100
AcDbEntity
  8
外形
  6
CONTINUOUS
 62
     1
100
AcDbLine
 10
581.825802
 20
-277.754239
 30
0.0
 11
581.825802
 21
-278.554239
 31
0.0
  0
LINE
  5
367D
100
AcDbEntity
  8
外形
  6
CONTINUOUS
100
AcDbLine
 10
606.825802
 20
-272.304239
 30
0.0
 11
604.31095
 21
-276.66009
 31
0.0
  0
ARC
  5
367E
100
AcDbEntity
  8
外形
  6
CONTINUOUS
100
AcDbCircle
 10
593.858213
 20
-276.77153
 30
0.0
 40
0.8
100
AcDbArc
 50
275.0
 51
355.0
  0
LINE
  5
3681
100
AcDbEntity
  8
外形
  6
CONTINUOUS
100
AcDbLine
 10
635.825802
 20
-272.304239
 30
0.0
 11
636.075802
 21
-272.054239
 31
0.0
  0
LINE
  5
3684
100
AcDbEntity
  8
外形
  6
CONTINUOUS
100
AcDbLine
 10
597.800809
 20
-240.804239
 30
0.0
 11
584.377415
 21
-248.554239
 31
0.0
  0
LINE
  5
3685
100
AcDbEntity
  8
外形
  6
CONTINUOUS
100
AcDbLine
 10
583.55613
 20
-265.526625
 30
0.0
 11
594.788542
 21
-264.543917
 31
0.0
  0
ARC
  5
3686
100
AcDbEntity
  8
外形
  6
CONTINUOUS
100
AcDbCircle
 10
583.625855
 20
-266.323581
 30
0.0
 40
0.8
100
AcDbArc
 50
95.0
 51
175.0
  0
ARC
  5
3687
100
AcDbEntity
  8
外形
  6
CONTINUOUS
100
AcDbCircle
 10
593.19602
 20
-264.683244
 30
0.0
 40
2.552008
100
AcDbArc
 50
5.0
 51
185.0
  0
ARC
  5
3688
100
AcDbEntity
  8
外形
  6
CONTINUOUS
100
AcDbCircle
 10
594.858266
 20
-265.340872
 30
0.0
 40
0.8
100
AcDbArc
 50
355.0
 51
95.0
  0
LINE
  5
368C
100
AcDbEntity
  8
外形
  6
CONTINUOUS
100
AcDbLine
 10
635.825802
 20
-240.804239
 30
0.0
 11
636.075802
 21
-240.554239
 31
0.0
  0
MTEXT
  5
368D
102
{ACAD_REACTORS
330
3654
102
}
100
AcDbEntity
  8
寸法
  6
CONTINUOUS
 62
     3
100
AcDbMText
 10
524.733534
 20
-220.384936
 30
0.0
 40
3.0
 41
0.0
 71
     4
 72
     1
  1
%%C44最小加工半径
  0
TEXT
  5
368E
100
AcDbEntity
  8
外形
  6
CONTINUOUS
 62
     2
100
AcDbText
 10
692.190236
 20
-358.470486
 30
0.0
 40
6.0
  1
BCLN432R
100
AcDbText
  0
LINE
  5
3690
100
AcDbEntity
  8
外形
  6
CONTINUOUS
100
AcDbLine
 10
831.825802
 20
-310.296519
 30
0.0
 11
831.825802
 21
-336.296519
 31
0.0
  0
LINE
  5
3692
100
AcDbEntity
  8
外形
  6
CONTINUOUS
100
AcDbLine
 10
829.825802
 20
-338.296519
 30
0.0
 11
829.825802
 21
-328.864284
 31
0.0
  0
LINE
  5
3693
100
AcDbEntity
  8
外形
  6
CONTINUOUS
100
AcDbLine
 10
831.825802
 20
-336.296519
 30
0.0
 11
829.825802
 21
-338.296519
 31
0.0
  0
LINE
  5
3694
100
AcDbEntity
  8
外形
  6
CONTINUOUS
100
AcDbLine
 10
829.825802
 20
-328.864284
 30
0.0
 11
829.825802
 21
-338.296519
 31
0.0
  0
LINE
  5
3695
100
AcDbEntity
  8
外形
  6
CONTINUOUS
100
AcDbLine
 10
829.825802
 20
-317.728755
 30
0.0
 11
829.825802
 21
-308.296519
 31
0.0
  0
LINE
  5
3696
100
AcDbEntity
  8
外形
  6
CONTINUOUS
100
AcDbLine
 10
829.825802
 20
-308.296519
 30
0.0
 11
829.825802
 21
-317.728755
 31
0.0
  0
LINE
  5
3697
100
AcDbEntity
  8
外形
  6
CONTINUOUS
100
AcDbLine
 10
829.825802
 20
-308.296519
 30
0.0
 11
831.825802
 21
-310.296519
 31
0.0
  0
LINE
  5
36A0
100
AcDbEntity
  8
外形
  6
CENTER
 62
     1
100
AcDbLine
 10
770.377252
 20
-237.761236
 30
0.0
 11
770.377252
 21
-274.522783
 31
0.0
  0
DIMENSION
  5
36A1
100
AcDbEntity
  8
寸法
  6
CONTINUOUS
100
AcDbDimension
  2
*D2
 10
785.377252
 20
-280.134702
 30
0.0
 11
770.377252
 21
-277.634702
 31
0.0
 12
-421.342542
 22
0.0
 32
0.0
 70
    32
  3
STANDARD
100
AcDbAlignedDimension
 13
755.377252
 23
-262.122003
 33
0.0
 14
785.377252
 24
-262.122003
 34
0.0
100
AcDbRotatedDimension
1001
ACAD
1000
DSTYLE
1002
{
1070
    40
1040
1.0
1002
}
  0
LINE
  5
36A7
100
AcDbEntity
  8
外形
  6
CONTINUOUS
100
AcDbLine
 10
831.825802
 20
-242.554239
 30
0.0
 11
831.825802
 21
-269.554239
 31
0.0
  0
LINE
  5
36A8
100
AcDbEntity
  8
外形
  6
CONTINUOUS
100
AcDbLine
 10
829.825802
 20
-262.122003
 30
0.0
 11
829.825802
 21
-271.554239
 31
0.0
  0
LINE
  5
36A9
100
AcDbEntity
  8
外形
  6
CONTINUOUS
100
AcDbLine
 10
831.825802
 20
-269.554239
 30
0.0
 11
829.825802
 21
-271.554239
 31
0.0
  0
LINE
  5
36AA
100
AcDbEntity
  8
外形
  6
CONTINUOUS
100
AcDbLine
 10
829.825802
 20
-240.554239
 30
0.0
 11
831.825802
 21
-242.554239
 31
0.0
  0
LINE
  5
36AB
100
AcDbEntity
  8
外形
  6
CONTINUOUS
100
AcDbLine
 10
829.825802
 20
-240.554239
 30
0.0
 11
829.825802
 21
-250.986474
 31
0.0
  0
ARC
  5
3793
100
AcDbEntity
  8
外形
  6
CONTINUOUS
100
AcDbCircle
 10
770.377252
 20
-256.554239
 30
0.0
 40
16.0
100
AcDbArc
 50
200.364135
 51
249.635865
  0
LINE
  5
3794
100
AcDbEntity
  8
外形
  6
CONTINUOUS
100
AcDbLine
 10
755.377252
 20
-250.986474
 30
0.0
 11
755.377252
 21
-262.122003
 31
0.0
  0
LINE
  5
3796
100
AcDbEntity
  8
外形
  6
CONTINUOUS
100
AcDbLine
 10
829.825802
 20
-271.554239
 30
0.0
 11
787.377252
 21
-271.554239
 31
0.0
  0
LINE
  5
37A2
100
AcDbEntity
  8
外形
  6
CONTINUOUS
100
AcDbLine
 10
785.377252
 20
-250.986474
 30
0.0
 11
785.377252
 21
-262.122003
 31
0.0
  0
ARC
  5
37A4
100
AcDbEntity
  8
外形
  6
CONTINUOUS
100
AcDbCircle
 10
814.825802
 20
-256.554239
 30
0.0
 40
16.0
100
AcDbArc
 50
339.635865
 51
20.364135
  0
LINE
  5
37AC
100
AcDbEntity
  8
外形
  6
CONTINUOUS
100
AcDbLine
 10
635.825802
 20
-240.804239
 30
0.0
 11
597.800809
 21
-240.804239
 31
0.0
  0
LINE
  5
37AD
100
AcDbEntity
  8
外形
  6
CONTINUOUS
100
AcDbLine
 10
635.825802
 20
-251.751895
 30
0.0
 11
621.825802
 21
-251.751895
 31
0.0
  0
LINE
  5
37B4
100
AcDbEntity
  8
外形
  6
CONTINUOUS
100
AcDbLine
 10
635.825802
 20
-338.296519
 30
0.0
 11
635.825802
 21
-328.098863
 31
0.0
  0
LINE
  5
37B5
100
AcDbEntity
  8
外形
  6
CONTINUOUS
100
AcDbLine
 10
635.825802
 20
-261.356582
 30
0.0
 11
621.825802
 21
-261.356582
 31
0.0
  0
LINE
  5
37B6
100
AcDbEntity
  8
外形
  6
CONTINUOUS
100
AcDbLine
 10
612.325802
 20
-272.304239
 30
0.0
 11
606.825802
 21
-272.304239
 31
0.0
  0
LINE
  5
37C0
100
AcDbEntity
  8
外形
  6
CONTINUOUS
100
AcDbLine
 10
635.825802
 20
-251.751895
 30
0.0
 11
635.825802
 21
-240.804239
 31
0.0
  0
LINE
  5
37C1
100
AcDbEntity
  8
外形
  6
CONTINUOUS
100
AcDbLine
 10
636.075802
 20
-262.122003
 30
0.0
 11
636.075802
 21
-272.054239
 31
0.0
  0
ARC
  5
37D8
100
AcDbEntity
  8
外形
  6
CONTINUOUS
100
AcDbCircle
 10
770.377252
 20
-256.554239
 30
0.0
 40
16.0
100
AcDbArc
 50
20.364135
 51
159.635865
  0
ARC
  5
37DB
100
AcDbEntity
  8
外形
  6
CONTINUOUS
100
AcDbCircle
 10
770.377252
 20
-256.554239
 30
0.0
 40
16.0
100
AcDbArc
 50
290.364135
 51
339.635865
  0
LINE
  5
37DC
100
AcDbEntity
  8
外形
  6
CONTINUOUS
100
AcDbLine
 10
636.075802
 20
-338.296519
 30
0.0
 11
829.825802
 21
-338.296519
 31
0.0
  0
LINE
  5
37DD
100
AcDbEntity
  8
外形
  6
CONTINUOUS
100
AcDbLine
 10
636.075802
 20
-308.296519
 30
0.0
 11
829.825802
 21
-308.296519
 31
0.0
  0
ARC
  5
37E3
100
AcDbEntity
  8
外形
  6
CONTINUOUS
100
AcDbCircle
 10
814.825802
 20
-323.296519
 30
0.0
 40
16.0
100
AcDbArc
 50
339.635865
 51
20.364135
  0
LINE
  5
37FE
100
AcDbEntity
  8
外形
  6
CONTINUOUS
100
AcDbLine
 10
635.825802
 20
-307.546519
 30
0.0
 11
621.825802
 21
-307.546519
 31
0.0
  0
LINE
  5
3800
100
AcDbEntity
  8
外形
  6
CONTINUOUS
100
AcDbLine
 10
635.825802
 20
-318.494176
 30
0.0
 11
612.325802
 21
-318.494176
 31
0.0
  0
LINE
  5
3801
100
AcDbEntity
  8
外形
  6
CONTINUOUS
100
AcDbLine
 10
635.825802
 20
-339.046519
 30
0.0
 11
606.825802
 21
-339.046519
 31
0.0
  0
LINE
  5
3802
100
AcDbEntity
  8
外形
  6
CONTINUOUS
100
AcDbLine
 10
635.825802
 20
-328.098863
 30
0.0
 11
606.825802
 21
-328.098863
 31
0.0
  0
LINE
  5
3803
100
AcDbEntity
  8
外形
  6
CONTINUOUS
100
AcDbLine
 10
583.733412
 20
-340.796519
 30
0.0
 11
604.31095
 21
-340.796519
 31
0.0
  0
LINE
  5
3806
100
AcDbEntity
  8
外形
  6
CONTINUOUS
100
AcDbLine
 10
606.825802
 20
-319.183235
 30
0.0
 11
606.825802
 21
-339.046519
 31
0.0
  0
SPLINE
  5
382C
100
AcDbEntity
  8
外形
  6
CONTINUOUS
100
AcDbSpline
210
0.0
220
0.0
230
1.0
 70
     8
 71
     3
 72
     9
 73
     5
 74
     0
 42
0.0000001
 43
0.0000001
 40
0.0
 40
0.0
 40
0.0
 40
0.0
 40
14.54192675629772
 40
16.64165801156745
 40
16.64165801156745
 40
16.64165801156745
 40
16.64165801156745
 10
621.8258020036228
 20
-307.5465194293799
 30
0.0
 10
617.3236969960539
 20
-309.3480475935235
 30
0.0
 10
612.1715260957512
 20
-311.4097011906235
 30
0.0
 10
595.4914113046648
 20
-318.1932320523352
 30
0.0
 10
583.3275511462338
 20
-321.5052441258187
 30
0.0
  0
LINE
  5
3870
100
AcDbEntity
  8
外形
  6
CONTINUOUS
100
AcDbLine
 10
604.31095
 20
-320.933235
 30
0.0
 11
604.31095
 21
-340.796519
 31
0.0
  0
LINE
  5
3872
100
AcDbEntity
  8
外形
  6
CONTINUOUS
100
AcDbLine
 10
606.825802
 20
-339.046519
 30
0.0
 11
604.31095
 21
-340.796519
 31
0.0
  0
LINE
  5
3873
100
AcDbEntity
  8
外形
  6
CONTINUOUS
100
AcDbLine
 10
606.825802
 20
-319.183235
 30
0.0
 11
604.31095
 21
-320.933235
 31
0.0
  0
LINE
  5
3874
100
AcDbEntity
  8
外形
  6
CONTINUOUS
100
AcDbLine
 10
635.825802
 20
-272.304239
 30
0.0
 11
635.825802
 21
-261.356582
 31
0.0
  0
DIMENSION
  5
387F
100
AcDbEntity
  8
寸法
  6
CONTINUOUS
100
AcDbDimension
  2
*D15
 10
777.731922
 20
-270.763701
 30
0.0
 11
757.31309
 21
-231.313852
 31
0.0
 12
-421.342542
 22
0.0
 32
0.0
 70
   163
  3
STANDARD
100
AcDbDiametricDimension
 15
763.022582
 25
-242.344776
 35
0.0
 40
0.0
1001
ACAD
1000
DSTYLE
1002
{
1070
    40
1040
1.0
1002
}
  0
LINE
  5
388A
100
AcDbEntity
  8
外形
  6
CONTINUOUS
100
AcDbLine
 10
635.825802
 20
-318.494176
 30
0.0
 11
635.825802
 21
-307.546519
 31
0.0
  0
LINE
  5
388B
100
AcDbEntity
  8
外形
  6
CONTINUOUS
100
AcDbLine
 10
635.825802
 20
-328.098863
 30
0.0
 11
635.825802
 21
-339.046519
 31
0.0
  0
LINE
  5
388C
100
AcDbEntity
  8
外形
  6
CONTINUOUS
100
AcDbLine
 10
636.075802
 20
-328.864284
 30
0.0
 11
636.075802
 21
-338.796519
 31
0.0
  0
CIRCLE
  5
388D
100
AcDbEntity
  8
外形
  6
CENTER
 62
     1
100
AcDbCircle
 10
499.490588
 20
-256.554239
 30
0.0
 40
22.0
  0
ARC
  5
388E
100
AcDbEntity
  8
外形
  6
CONTINUOUS
100
AcDbCircle
 10
499.490588
 20
-256.554239
 30
0.0
 40
16.0
100
AcDbArc
 50
274.611372
 51
339.635865
  0
ARC
  5
388F
100
AcDbEntity
  8
外形
  6
CONTINUOUS
100
AcDbCircle
 10
499.490588
 20
-258.054239
 30
0.0
 40
17.5
100
AcDbArc
 50
90.0
 51
175.0829
  0
LINE
  5
38C7
100
AcDbEntity
  8
外形
  6
CONTINUOUS
100
AcDbLine
 10
504.780397
 20
-248.554239
 30
0.0
 11
484.793649
 21
-248.554239
 31
0.0
  0
DIMENSION
  5
38D6
100
AcDbEntity
  8
寸法
  6
CONTINUOUS
100
AcDbDimension
  2
*D16
 10
581.828846
 20
-277.684514
 30
0.0
 11
555.431263
 21
-249.82937
 31
0.0
 12
-421.342542
 22
0.0
 32
0.0
 70
    34
  3
STANDARD
100
AcDb2LineAngularDimension
 13
582.625802
 23
-278.554239
 33
0.0
 14
581.825802
 24
-278.554239
 34
0.0
 15
584.377415
 25
-248.554239
 35
0.0
 16
565.389206
 26
-245.971734
 36
0.0
1001
ACAD
1000
DSTYLE
1002
{
1070
    40
1040
1.0
1002
}
  0
DIMENSION
  5
390C
100
AcDbEntity
  8
寸法
  6
CONTINUOUS
100
AcDbDimension
  2
*D17
 10
499.490588
 20
-278.554239
 30
0.0
 11
488.433094
 21
-297.681701
 31
0.0
 12
-421.342542
 22
0.0
 32
0.0
 70
    34
  3
STANDARD
100
AcDb2LineAngularDimension
 13
505.889784
 23
-242.262595
 33
0.0
 14
499.490588
 24
-278.554239
 34
0.0
 15
499.490588
 25
-237.419272
 35
0.0
 16
498.105652
 26
-302.332665
 36
0.0
1001
ACAD
1000
DSTYLE
1002
{
1070
    40
1040
1.0
1002
}
  0
LINE
  5
391C
100
AcDbEntity
  8
外形
  6
CONTINUOUS
100
AcDbLine
 10
595.274862
 20
-242.262595
 30
0.0
 11
612.325802
 21
-242.262595
 31
0.0
  0
ARC
  5
392B
100
AcDbEntity
  8
外形
  6
CONTINUOUS
100
AcDbCircle
 10
612.325802
 20
-251.762595
 30
0.0
 40
9.5
100
AcDbArc
 50
0.0
 51
90.0
  0
ARC
  5
392C
100
AcDbEntity
  8
外形
  6
CONTINUOUS
100
AcDbCircle
 10
612.325802
 20
-262.804239
 30
0.0
 40
9.5
100
AcDbArc
 50
270.0
 51
0.0
  0
LINE
  5
392D
100
AcDbEntity
  8
外形
  6
CONTINUOUS
100
AcDbLine
 10
612.325802
 20
-272.304239
 30
0.0
 11
635.825802
 21
-272.304239
 31
0.0
  0
HATCH
  5
3AAB
100
AcDbEntity
  8
外形
  6
CONTINUOUS
100
AcDbHatch
 10
0.0
 20
0.0
 30
0.0
210
0.0
220
0.0
230
1.0
  2
ANSI31
 70
     0
 71
     0
 91
        8
 92
        7
 72
     1
 73
     1
 93
        3
 10
770.3772521527008
 20
-240.5542385248681
 42
0.0
 10
770.3772521527005
 20
-250.9864741620382
 42
0.0
 10
785.3772521527007
 20
-250.9864741620382
 42
0.3135528725660069
 97
        0
 92
        7
 72
     1
 73
     1
 93
        3
 10
770.3772521527008
 20
-240.5542385248681
 42
0.3135528725660055
 10
755.3772521527007
 20
-250.9864741620382
 42
0.0
 10
770.3772521527008
 20
-250.9864741620382
 42
0.0
 97
        0
 92
        7
 72
     0
 73
     1
 93
        4
 10
770.3772521527009
 20
-250.9864741620382
 10
755.3772521527007
 20
-250.9864741620381
 10
755.3772521527007
 20
-256.5542385248682
 10
770.3772521527008
 20
-256.5542385248682
 97
        0
 92
        7
 72
     0
 73
     1
 93
        4
 10
770.3772521527009
 20
-256.5542385248682
 10
755.3772521527007
 20
-256.5542385248682
 10
755.3772521527005
 20
-262.122002887698
 10
770.3772521527008
 20
-262.1220028876981
 97
        0
 92
        7
 72
     0
 73
     1
 93
        4
 10
785.3772521527007
 20
-256.5542385248682
 10
770.3772521527008
 20
-256.5542385248682
 10
770.3772521527008
 20
-262.1220028876981
 10
785.3772521527007
 20
-262.122002887698
 97
        0
 92
        7
 72
     0
 73
     1
 93
        4
 10
785.3772521527007
 20
-250.9864741620382
 10
770.3772521527009
 20
-250.9864741620382
 10
770.3772521527009
 20
-256.5542385248682
 10
785.3772521527007
 20
-256.5542385248682
 97
        0
 92
        7
 72
     1
 73
     1
 93
        4
 10
785.3772521527007
 20
-262.122002887698
 42
0.0
 10
770.3772521527009
 20
-262.1220028876981
 42
0.0
 10
770.3772521527008
 20
-271.5542385248681
 42
0.0
 10
775.9450165155308
 20
-271.5542385248681
 42
0.2183631446846967
 97
        0
 92
        7
 72
     1
 73
     1
 93
        4
 10
770.3772521527008
 20
-262.1220028876981
 42
0.0
 10
755.3772521527007
 20
-262.1220028876981
 42
0.2183631446846967
 10
764.8094877898707
 20
-271.5542385248681
 42
0.0
 10
770.3772521527008
 20
-271.5542385248681
 42
0.0
 97
        0
 75
     0
 76
     1
 52
0.0
 41
15.0
 77
     0
 78
     1
 53
45.0
 43
-380.804538
 44
146.919615
 45
-1.325825214724776
 46
1.325825214724776
 79
     0
 47
0.133853
 98
        8
 10
775.880444
 20
-247.243635
 10
761.945309
 20
-247.377488
 10
761.811318
 20
-254.873267
 10
763.419218
 20
-259.95969
 10
778.158306
 20
-259.825837
 10
779.096245
 20
-253.267028
 10
780.16818
 20
-267.187765
 10
762.749261
 20
-266.786204
  0
LINE
  5
3AAE
100
AcDbEntity
  8
外形
  6
CONTINUOUS
100
AcDbLine
 10
787.377252
 20
-250.986474
 30
0.0
 11
829.825802
 21
-250.986474
 31
0.0
  0
LINE
  5
3AAF
100
AcDbEntity
  8
外形
  6
CONTINUOUS
100
AcDbLine
 10
753.377252
 20
-240.554239
 30
0.0
 11
636.075802
 21
-240.554239
 31
0.0
  0
LINE
  5
3AB0
100
AcDbEntity
  8
外形
  6
CONTINUOUS
100
AcDbLine
 10
787.377252
 20
-262.122003
 30
0.0
 11
829.825802
 21
-262.122003
 31
0.0
  0
LINE
  5
3AB1
100
AcDbEntity
  8
外形
  6
CONTINUOUS
100
AcDbLine
 10
775.945017
 20
-271.554239
 30
0.0
 11
764.809488
 21
-271.554239
 31
0.0
  0
LINE
  5
3AB2
100
AcDbEntity
  8
外形
  6
CONTINUOUS
100
AcDbLine
 10
753.377252
 20
-271.554239
 30
0.0
 11
636.075802
 21
-271.554239
 31
0.0
  0
DIMENSION
  5
3B7A
100
AcDbEntity
  8
寸法
  6
CONTINUOUS
100
AcDbDimension
  2
*D18
 10
606.825802
 20
-351.784883
 30
0.0
 11
594.325802
 21
-349.284883
 31
0.0
 12
-421.342542
 22
0.0
 32
0.0
 70
    32
  3
STANDARD
100
AcDbAlignedDimension
 13
581.825802
 23
-323.296519
 33
0.0
 14
606.825802
 24
-339.046519
 34
0.0
100
AcDbRotatedDimension
1001
ACAD
1000
DSTYLE
1002
{
1070
    40
1040
1.0
1002
}
  0
LINE
  5
3C54
100
AcDbEntity
  8
外形
  6
CONTINUOUS
100
AcDbLine
 10
514.490588
 20
-250.986474
 30
0.0
 11
514.490588
 21
-262.122003
 31
0.0
  0
ARC
  5
3C55
100
AcDbEntity
  8
外形
  6
CONTINUOUS
100
AcDbCircle
 10
499.490588
 20
-256.554239
 30
0.0
 40
16.0
100
AcDbArc
 50
20.364135
 51
90.0
  0
ARC
  5
3C56
100
AcDbEntity
  8
外形
  6
CONTINUOUS
100
AcDbCircle
 10
497.980776
 20
-258.089831
 30
0.0
 40
19.869181
100
AcDbArc
 50
216.723355
 51
251.608836
  0
LINE
  5
3C57
100
AcDbEntity
  8
外形
  6
CONTINUOUS
100
AcDbLine
 10
482.054992
 20
-256.554239
 30
0.0
 11
482.054992
 21
-269.970646
 31
0.0
  0
LINE
  5
3C73
100
AcDbEntity
  8
外形
  6
CONTINUOUS
100
AcDbLine
 10
606.825802
 20
-319.183235
 30
0.0
 11
612.325802
 21
-318.494176
 31
0.0
  0
LINE
  5
3D4C
100
AcDbEntity
  8
外形
  6
CONTINUOUS
100
AcDbLine
 10
583.327551
 20
-321.505244
 30
0.0
 11
581.825802
 21
-323.296519
 31
0.0
  0
DIMENSION
  5
3D5E
100
AcDbEntity
  8
寸法
  6
CONTINUOUS
100
AcDbDimension
  2
*D19
 10
645.509962
 20
-278.554239
 30
0.0
 11
643.009962
 21
-275.054239
 31
0.0
 70
    32
  3
STANDARD
100
AcDbAlignedDimension
 13
636.075802
 23
-271.554239
 33
0.0
 14
581.825802
 24
-278.554239
 34
0.0
 50
90.0
100
AcDbRotatedDimension
1001
ACAD
1000
DSTYLE
1002
{
1070
    40
1040
1.0
1002
}
  0
ENDSEC
  0
SECTION
  2
OBJECTS
  0
DICTIONARY
  5
1E
100
AcDbDictionary
  3
ACAD_GROUP
350
1C
  3
ACAD_MLINESTYLE
350
1D
  3
ACDBVARIABLEDICTIONARY
350
147A
  3
DRAWINGVARIABLESDICT
350
C58
  0
DICTIONARY
  5
38
100
AcDbDictionary
280
     1
  3
ACAD_XREC_ROUNDTRIP
360
39
  0
DICTIONARY
  5
22
100
AcDbDictionary
280
     1
  3
ACAD_XREC_ROUNDTRIP
360
23
  0
DICTIONARY
  5
3
100
AcDbDictionary
280
     1
  3
ACAD_LAYOUTSELFREF
360
4
  0
DICTIONARY
  5
A
100
AcDbDictionary
280
     1
  3
ACAD_LAYOUTSELFREF
360
B
  0
DICTIONARY
  5
1C
102
{ACAD_REACTORS
330
1E
102
}
100
AcDbDictionary
  0
DICTIONARY
  5
1D
102
{ACAD_REACTORS
330
1E
102
}
100
AcDbDictionary
  3
STANDARD
350
20
  0
DICTIONARY
  5
147A
102
{ACAD_REACTORS
330
1E
102
}
100
AcDbDictionary
  3
SORTENTS
350
147B
  0
DICTIONARY
  5
C58
102
{ACAD_REACTORS
330
1E
102
}
100
AcDbDictionary
1001
DRAWINGVARIABLESXDATA
1000
POLARMODE
1000
0
  0
XRECORD
  5
39
102
{ACAD_REACTORS
330
38
102
}
100
AcDbXrecord
102
PLOTBIT
280
     0
  0
XRECORD
  5
23
102
{ACAD_REACTORS
330
22
102
}
100
AcDbXrecord
102
ACADR14ROUNDTRIP
1000
DSTYLE
1002
{
1070
   341
340
0
1070
   343
340
0
1070
   344
340
0
1002
}
  0
XRECORD
  5
4
102
{ACAD_REACTORS
330
3
102
}
100
AcDbXrecord
340
2
  0
XRECORD
  5
B
102
{ACAD_REACTORS
330
A
102
}
100
AcDbXrecord
340
9
  0
MLINESTYLE
  5
20
102
{ACAD_REACTORS
330
1D
102
}
100
AcDbMlineStyle
  2
STANDARD
 70
     0
  3

 62
     0
 51
90.0
 52
90.0
 71
     2
 49
0.5
 62
   256
  6
BYLAYER
 49
-0.5
 62
   256
  6
BYLAYER
  0
DICTIONARYVAR
  5
147B
102
{ACAD_REACTORS
330
147A
102
}
100
DictionaryVariables
280
     0
  1
96
  0
ENDSEC
  0
EOF
