  0
SECTION
  2
HEADER
  9
$ACADVER
  1
AC1014
  9
$ACADMAINTVER
 70
     0
  9
$DWGCODEPAGE
  3
ANSI_932
  9
$INSBASE
 10
-587.250952
 20
747.890188
 30
0.0
  9
$EXTMIN
 10
-1163.617655
 20
571.318603
 30
0.0
  9
$EXTMAX
 10
-840.57306
 20
747.943294
 30
0.0
  9
$LIMMIN
 10
-587.250952
 20
327.890188
  9
$LIMMAX
 10
600.749048
 20
957.890188
  9
$ORTHOMODE
 70
     1
  9
$REGENMODE
 70
     1
  9
$FILLMODE
 70
     1
  9
$QTEXTMODE
 70
     0
  9
$MIRRTEXT
 70
     1
  9
$DRAGMODE
 70
     2
  9
$LTSCALE
 40
5.0
  9
$OSMODE
 70
    39
  9
$ATTMODE
 70
     1
  9
$TEXTSIZE
 40
5.0
  9
$TRACEWID
 40
0.05
  9
$TEXTSTYLE
  7
STANDARD
  9
$CLAYER
  8
外形
  9
$CELTYPE
  6
CONTINUOUS
  9
$CECOLOR
 62
     7
  9
$CELTSCALE
 40
1.0
  9
$DELOBJ
 70
     1
  9
$DISPSILH
 70
     0
  9
$DIMSCALE
 40
1.0
  9
$DIMASZ
 40
2.0
  9
$DIMEXO
 40
1.0
  9
$DIMDLI
 40
8.0
  9
$DIMRND
 40
0.0
  9
$DIMDLE
 40
0.0
  9
$DIMEXE
 40
2.0
  9
$DIMTP
 40
0.0
  9
$DIMTM
 40
0.0
  9
$DIMTXT
 40
3.0
  9
$DIMCEN
 40
-1.0
  9
$DIMTSZ
 40
0.0
  9
$DIMTOL
 70
     0
  9
$DIMLIM
 70
     0
  9
$DIMTIH
 70
     0
  9
$DIMTOH
 70
     0
  9
$DIMSE1
 70
     0
  9
$DIMSE2
 70
     0
  9
$DIMTAD
 70
     3
  9
$DIMZIN
 70
     8
  9
$DIMBLK
  1

  9
$DIMASO
 70
     1
  9
$DIMSHO
 70
     1
  9
$DIMPOST
  1

  9
$DIMAPOST
  1

  9
$DIMALT
 70
     0
  9
$DIMALTD
 70
     2
  9
$DIMALTF
 40
25.4
  9
$DIMLFAC
 40
1.0
  9
$DIMTOFL
 70
     1
  9
$DIMTVP
 40
0.0
  9
$DIMTIX
 70
     0
  9
$DIMSOXD
 70
     0
  9
$DIMSAH
 70
     1
  9
$DIMBLK1
  1
_OPEN30
  9
$DIMBLK2
  1
_OPEN30
  9
$DIMSTYLE
  2
STANDARD
  9
$DIMCLRD
 70
     1
  9
$DIMCLRE
 70
     1
  9
$DIMCLRT
 70
     3
  9
$DIMTFAC
 40
1.0
  9
$DIMGAP
 40
1.0
  9
$DIMJUST
 70
     0
  9
$DIMSD1
 70
     0
  9
$DIMSD2
 70
     0
  9
$DIMTOLJ
 70
     1
  9
$DIMTZIN
 70
     8
  9
$DIMALTZ
 70
     0
  9
$DIMALTTZ
 70
     0
  9
$DIMFIT
 70
     3
  9
$DIMUPT
 70
     0
  9
$DIMUNIT
 70
     2
  9
$DIMDEC
 70
     3
  9
$DIMTDEC
 70
     2
  9
$DIMALTU
 70
     2
  9
$DIMALTTD
 70
     2
  9
$DIMTXSTY
  7
STANDARD
  9
$DIMAUNIT
 70
     0
  9
$LUNITS
 70
     2
  9
$LUPREC
 70
     2
  9
$SKETCHINC
 40
0.1
  9
$FILLETRAD
 40
3.0
  9
$AUNITS
 70
     0
  9
$AUPREC
 70
     2
  9
$MENU
  1
acad
  9
$ELEVATION
 40
0.0
  9
$PELEVATION
 40
0.0
  9
$THICKNESS
 40
0.0
  9
$LIMCHECK
 70
     0
  9
$BLIPMODE
 70
     0
  9
$CHAMFERA
 40
2.0
  9
$CHAMFERB
 40
2.0
  9
$CHAMFERC
 40
0.0
  9
$CHAMFERD
 40
0.0
  9
$SKPOLY
 70
     0
  9
$TDCREATE
 40
2450751.535399305
  9
$TDUPDATE
 40
2452031.612893518
  9
$TDINDWG
 40
2.6129766204
  9
$TDUSRTIMER
 40
2.6129766204
  9
$USRTIMER
 70
     1
  9
$ANGBASE
 50
0.0
  9
$ANGDIR
 70
     0
  9
$PDMODE
 70
    32
  9
$PDSIZE
 40
0.0
  9
$PLINEWID
 40
0.0
  9
$COORDS
 70
     2
  9
$SPLFRAME
 70
     0
  9
$SPLINETYPE
 70
     5
  9
$SPLINESEGS
 70
     8
  9
$ATTDIA
 70
     0
  9
$ATTREQ
 70
     1
  9
$HANDLING
 70
     1
  9
$HANDSEED
  5
3835
  9
$SURFTAB1
 70
     6
  9
$SURFTAB2
 70
     6
  9
$SURFTYPE
 70
     6
  9
$SURFU
 70
     6
  9
$SURFV
 70
     6
  9
$UCSNAME
  2

  9
$UCSORG
 10
40.53800450572526
 20
146.9196145921314
 30
0.0
  9
$UCSXDIR
 10
1.0
 20
0.0
 30
0.0
  9
$UCSYDIR
 10
0.0
 20
1.0
 30
0.0
  9
$PUCSNAME
  2

  9
$PUCSORG
 10
0.0
 20
0.0
 30
0.0
  9
$PUCSXDIR
 10
1.0
 20
0.0
 30
0.0
  9
$PUCSYDIR
 10
0.0
 20
1.0
 30
0.0
  9
$USERI1
 70
     0
  9
$USERI2
 70
     0
  9
$USERI3
 70
     0
  9
$USERI4
 70
     0
  9
$USERI5
 70
     0
  9
$USERR1
 40
0.0
  9
$USERR2
 40
0.0
  9
$USERR3
 40
0.0
  9
$USERR4
 40
0.0
  9
$USERR5
 40
0.0
  9
$WORLDVIEW
 70
     1
  9
$SHADEDGE
 70
     3
  9
$SHADEDIF
 70
    70
  9
$TILEMODE
 70
     1
  9
$MAXACTVP
 70
    16
  9
$PINSBASE
 10
0.0
 20
0.0
 30
0.0
  9
$PLIMCHECK
 70
     0
  9
$PEXTMIN
 10
1.000000E+20
 20
1.000000E+20
 30
1.000000E+20
  9
$PEXTMAX
 10
-1.000000E+20
 20
-1.000000E+20
 30
-1.000000E+20
  9
$PLIMMIN
 10
0.0
 20
0.0
  9
$PLIMMAX
 10
12.0
 20
9.0
  9
$UNITMODE
 70
     0
  9
$VISRETAIN
 70
     0
  9
$PLINEGEN
 70
     0
  9
$PSLTSCALE
 70
     1
  9
$TREEDEPTH
 70
  3020
  9
$PICKSTYLE
 70
     1
  9
$CMLSTYLE
  2
STANDARD
  9
$CMLJUST
 70
     0
  9
$CMLSCALE
 40
1.0
  9
$PROXYGRAPHICS
 70
     1
  9
$MEASUREMENT
 70
     0
  0
ENDSEC
  0
SECTION
  2
CLASSES
  0
CLASS
  1
LWPOLYLINE
  2
AcDbPolyline
  3
"AutoCAD"
 90
        0
280
     0
281
     1
  0
CLASS
  1
ACDBDICTIONARYWDFLT
  2
AcDbDictionaryWithDefault
  3
AutoCAD 2000
 90
        0
280
     1
281
     0
  0
CLASS
  1
ACDBPLACEHOLDER
  2
AcDbPlaceHolder
  3
AutoCAD 2000
 90
        0
280
     1
281
     0
  0
CLASS
  1
LAYOUT
  2
AcDbLayout
  3
AutoCAD 2000
 90
        0
280
     1
281
     0
  0
CLASS
  1
LONG_TRANSACTION
  2
AcDbLongTransaction
  3
AutoCAD 2000
 90
        0
280
     1
281
     0
  0
CLASS
  1
LWPOLYLINE
  2
AcDbPolyline
  3
"AutoCAD"
 90
        0
280
     0
281
     1
  0
CLASS
  1
HATCH
  2
AcDbHatch
  3
"ACAD_SEDONA"
 90
        0
280
     0
281
     1
  0
CLASS
  1
XRECORD
  2
AcDbXrecord
  3
"<Built In>"
 90
        0
280
     0
281
     0
  0
CLASS
  1
DICTIONARYVAR
  2
AcDbDictionaryVar
  3
"AutoCAD"
 90
        0
280
     0
281
     0
  0
ENDSEC
  0
SECTION
  2
TABLES
  0
TABLE
  2
VPORT
  5
16
100
AcDbSymbolTable
 70
     1
  0
VPORT
  5
3830
100
AcDbSymbolTableRecord
100
AcDbViewportTableRecord
  2
*ACTIVE
 70
     0
 10
0.0
 20
0.0
 11
1.0
 21
1.0
 12
-991.021204
 22
654.366383
 13
0.0
 23
0.0
 14
1.0
 24
1.0
 15
10.0
 25
10.0
 16
0.0
 26
0.0
 36
1.0
 17
0.0
 27
0.0
 37
0.0
 40
265.502308
 41
1.710425
 42
50.0
 43
0.0
 44
0.0
 50
0.0
 51
0.0
 71
     0
 72
   100
 73
     1
 74
     1
 75
     0
 76
     0
 77
     0
 78
     2
  0
ENDTAB
  0
TABLE
  2
LTYPE
  5
11
100
AcDbSymbolTable
 70
     3
  0
LTYPE
  5
12
100
AcDbSymbolTableRecord
100
AcDbLinetypeTableRecord
  2
BYBLOCK
 70
     0
  3

 72
    65
 73
     0
 40
0.0
  0
LTYPE
  5
13
100
AcDbSymbolTableRecord
100
AcDbLinetypeTableRecord
  2
BYLAYER
 70
     0
  3

 72
    65
 73
     0
 40
0.0
  0
LTYPE
  5
7
100
AcDbSymbolTableRecord
100
AcDbLinetypeTableRecord
  2
CONTINUOUS
 70
     0
  3
Solid line
 72
    65
 73
     0
 40
0.0
  0
LTYPE
  5
AA
100
AcDbSymbolTableRecord
100
AcDbLinetypeTableRecord
  2
CENTER
 70
     0
  3
Center ____ _ ____ _ ____ _ ____ _ ____ _ ____
 72
    65
 73
     4
 40
2.0
 49
1.25
 74
     0
 49
-0.25
 74
     0
 49
0.25
 74
     0
 49
-0.25
 74
     0
  0
LTYPE
  5
2837
100
AcDbSymbolTableRecord
100
AcDbLinetypeTableRecord
  2
PHANTOM
 70
     0
  3
Phantom ______  __  __  ______  __  __  ______
 72
    65
 73
     6
 40
2.5
 49
1.25
 74
     0
 49
-0.25
 74
     0
 49
0.25
 74
     0
 49
-0.25
 74
     0
 49
0.25
 74
     0
 49
-0.25
 74
     0
  0
ENDTAB
  0
TABLE
  2
LAYER
  5
E
100
AcDbSymbolTable
 70
     5
  0
LAYER
  5
6
100
AcDbSymbolTableRecord
100
AcDbLayerTableRecord
  2
0
 70
     0
 62
     7
  6
CONTINUOUS
  0
LAYER
  5
2C
100
AcDbSymbolTableRecord
100
AcDbLayerTableRecord
  2
外形
 70
     0
 62
     4
  6
CONTINUOUS
  0
LAYER
  5
37
102
{ACAD_XDICTIONARY
360
38
102
}
100
AcDbSymbolTableRecord
100
AcDbLayerTableRecord
  2
DEFPOINTS
 70
     0
 62
     7
  6
CONTINUOUS
  0
LAYER
  5
1F
100
AcDbSymbolTableRecord
100
AcDbLayerTableRecord
  2
寸法
 70
     0
 62
     1
  6
CONTINUOUS
  0
LAYER
  5
673
100
AcDbSymbolTableRecord
100
AcDbLayerTableRecord
  2
参考
 70
     0
 62
     2
  6
CONTINUOUS
  0
ENDTAB
  0
TABLE
  2
STYLE
  5
F
100
AcDbSymbolTable
 70
     1
  0
STYLE
  5
10
100
AcDbSymbolTableRecord
100
AcDbTextStyleTableRecord
  2
STANDARD
 70
     0
 40
0.0
 41
1.0
 50
0.0
 71
     0
 42
5.0
  3
MONOTXT
  4
BIGFONT
  0
ENDTAB
  0
TABLE
  2
VIEW
  5
14
100
AcDbSymbolTable
 70
     0
  0
ENDTAB
  0
TABLE
  2
UCS
  5
15
100
AcDbSymbolTable
 70
     0
  0
ENDTAB
  0
TABLE
  2
APPID
  5
18
100
AcDbSymbolTable
 70
     2
  0
APPID
  5
19
100
AcDbSymbolTableRecord
100
AcDbRegAppTableRecord
  2
ACAD
 70
     0
  0
APPID
  5
C59
100
AcDbSymbolTableRecord
100
AcDbRegAppTableRecord
  2
DRAWINGVARIABLESXDATA
 70
     0
  0
ENDTAB
  0
TABLE
  2
DIMSTYLE
  5
1A
100
AcDbSymbolTable
 70
     1
  0
DIMSTYLE
105
21
102
{ACAD_XDICTIONARY
360
22
102
}
102
{ACAD_REACTORS
330
34A2
330
34A1
330
34E7
330
355A
330
355C
330
355F
330
355E
330
380D
330
382F
102
}
100
AcDbSymbolTableRecord
100
AcDbDimStyleTableRecord
  2
STANDARD
 70
     0
  3

  4

  5

  6
_OPEN30
  7
_OPEN30
 40
0.0
 41
2.0
 42
1.0
 43
8.0
 44
2.0
 45
0.0
 46
0.0
 47
0.0
 48
0.0
140
3.0
141
-1.0
142
0.0
143
25.4
144
1.0
145
0.0
146
1.0
147
1.0
 71
     0
 72
     0
 73
     0
 74
     0
 75
     0
 76
     0
 77
     1
 78
     8
170
     0
171
     2
172
     1
173
     1
174
     0
175
     0
176
     1
177
     1
178
     3
270
     2
271
     2
272
     2
273
     2
274
     2
340
10
275
     0
280
     0
281
     0
282
     0
283
     1
284
     8
285
     0
286
     0
287
     3
288
     0
  0
ENDTAB
  0
TABLE
  2
BLOCK_RECORD
  5
1
100
AcDbSymbolTable
 70
    48
  0
BLOCK_RECORD
  5
2
102
{ACAD_XDICTIONARY
360
3
102
}
100
AcDbSymbolTableRecord
100
AcDbBlockTableRecord
  2
*MODEL_SPACE
  0
BLOCK_RECORD
  5
9
102
{ACAD_XDICTIONARY
360
A
102
}
100
AcDbSymbolTableRecord
100
AcDbBlockTableRecord
  2
*PAPER_SPACE
  0
BLOCK_RECORD
  5
24
100
AcDbSymbolTableRecord
100
AcDbBlockTableRecord
  2
_DOTSMALL
  0
BLOCK_RECORD
  5
470
100
AcDbSymbolTableRecord
100
AcDbBlockTableRecord
  2
_OPEN30
  0
BLOCK_RECORD
  5
34A5
100
AcDbSymbolTableRecord
100
AcDbBlockTableRecord
  2
*D36
  0
BLOCK_RECORD
  5
34BB
100
AcDbSymbolTableRecord
100
AcDbBlockTableRecord
  2
*D37
  0
BLOCK_RECORD
  5
3516
100
AcDbSymbolTableRecord
100
AcDbBlockTableRecord
  2
*D39
  0
BLOCK_RECORD
  5
3562
100
AcDbSymbolTableRecord
100
AcDbBlockTableRecord
  2
*D40
  0
BLOCK_RECORD
  5
3588
100
AcDbSymbolTableRecord
100
AcDbBlockTableRecord
  2
*D41
  0
BLOCK_RECORD
  5
35A4
100
AcDbSymbolTableRecord
100
AcDbBlockTableRecord
  2
*D42
  0
BLOCK_RECORD
  5
35B2
100
AcDbSymbolTableRecord
100
AcDbBlockTableRecord
  2
*D43
  0
BLOCK_RECORD
  5
37FB
100
AcDbSymbolTableRecord
100
AcDbBlockTableRecord
  2
*D45
  0
BLOCK_RECORD
  5
3820
100
AcDbSymbolTableRecord
100
AcDbBlockTableRecord
  2
*D47
  0
ENDTAB
  0
ENDSEC
  0
SECTION
  2
BLOCKS
  0
BLOCK
  5
5
100
AcDbEntity
  8
0
100
AcDbBlockBegin
  2
*MODEL_SPACE
 70
     0
 10
0.0
 20
0.0
 30
0.0
  3
*MODEL_SPACE
  1

  0
ENDBLK
  5
8
100
AcDbEntity
  8
0
100
AcDbBlockEnd
  0
BLOCK
  5
C
100
AcDbEntity
 67
     1
  8
0
100
AcDbBlockBegin
  2
*PAPER_SPACE
 70
     0
 10
0.0
 20
0.0
 30
0.0
  3
*PAPER_SPACE
  1

  0
ENDBLK
  5
D
100
AcDbEntity
 67
     1
  8
0
100
AcDbBlockEnd
  0
BLOCK
  5
29
100
AcDbEntity
  8
0
100
AcDbBlockBegin
  2
_DOTSMALL
 70
     0
 10
0.0
 20
0.0
 30
0.0
  3
_DOTSMALL
  1

  0
POLYLINE
  5
25
100
AcDbEntity
  8
0
  6
BYBLOCK
 62
     0
100
AcDb2dPolyline
 66
     1
 10
0.0
 20
0.0
 30
0.0
 70
     1
 40
0.5
 41
0.5
  0
VERTEX
  5
26
100
AcDbEntity
  8
0
  6
BYBLOCK
 62
     0
100
AcDbVertex
100
AcDb2dVertex
 10
-0.0625
 20
0.0
 30
0.0
 42
1.0
  0
VERTEX
  5
27
100
AcDbEntity
  8
0
  6
BYBLOCK
 62
     0
100
AcDbVertex
100
AcDb2dVertex
 10
0.0625
 20
0.0
 30
0.0
 42
1.0
  0
SEQEND
  5
28
100
AcDbEntity
  8
0
  6
BYBLOCK
 62
     0
  0
ENDBLK
  5
2A
100
AcDbEntity
  8
0
100
AcDbBlockEnd
  0
BLOCK
  5
471
100
AcDbEntity
  8
0
100
AcDbBlockBegin
  2
_OPEN30
 70
     0
 10
0.0
 20
0.0
 30
0.0
  3
_OPEN30
  1

  0
LINE
  5
472
100
AcDbEntity
  8
0
  6
BYBLOCK
 62
     0
100
AcDbLine
 10
-1.0
 20
0.267949
 30
0.0
 11
0.0
 21
0.0
 31
0.0
  0
LINE
  5
473
100
AcDbEntity
  8
0
  6
BYBLOCK
 62
     0
100
AcDbLine
 10
0.0
 20
0.0
 30
0.0
 11
-1.0
 21
-0.267949
 31
0.0
  0
LINE
  5
474
100
AcDbEntity
  8
0
  6
BYBLOCK
 62
     0
100
AcDbLine
 10
0.0
 20
0.0
 30
0.0
 11
-1.0
 21
0.0
 31
0.0
  0
ENDBLK
  5
475
100
AcDbEntity
  8
0
100
AcDbBlockEnd
  0
BLOCK
  5
34A6
100
AcDbEntity
  8
0
100
AcDbBlockBegin
  2
*D36
 70
     1
 10
0.0
 20
0.0
 30
0.0
  3
*D36
  1

  0
LINE
  5
34A7
100
AcDbEntity
  8
0
  6
BYBLOCK
 62
     1
100
AcDbLine
 10
-552.8783
 20
719.935387
 30
0.0
 11
-559.443295
 21
709.890446
 31
0.0
  0
LINE
  5
34A8
100
AcDbEntity
  8
0
  6
BYBLOCK
 62
     1
100
AcDbLine
 10
-575.308702
 20
685.615173
 30
0.0
 11
-576.402868
 21
683.941017
 31
0.0
  0
MTEXT
  5
34A9
100
AcDbEntity
  8
0
  6
BYBLOCK
 62
     3
100
AcDbMText
 10
-557.706411
 20
717.117702
 30
0.0
 40
3.0
 41
0.0
 71
     5
 72
     1
  1
\A1;\U+220525
 11
0.547083
 21
0.837078
 31
0.0
  0
LINE
  5
34AA
100
AcDbEntity
  8
0
  6
BYBLOCK
 62
     1
100
AcDbLine
 10
-574.214536
 20
687.28933
 30
0.0
 11
-560.537461
 21
708.21629
 31
0.0
  0
INSERT
  5
34AB
100
AcDbEntity
  8
0
  6
BYBLOCK
 62
     1
100
AcDbBlockReference
  2
_OPEN30
 10
-574.214536
 20
687.28933
 30
0.0
 41
2.0
 42
2.0
 43
2.0
 50
56.832878
  0
INSERT
  5
34AC
100
AcDbEntity
  8
0
  6
BYBLOCK
 62
     1
100
AcDbBlockReference
  2
_OPEN30
 10
-560.537461
 20
708.21629
 30
0.0
 41
2.0
 42
2.0
 43
2.0
 50
236.832878
  0
POINT
  5
34AD
100
AcDbEntity
  8
DEFPOINTS
  6
BYBLOCK
 62
     0
100
AcDbPoint
 10
-560.537461
 20
708.21629
 30
0.0
  0
POINT
  5
34AE
100
AcDbEntity
  8
DEFPOINTS
  6
BYBLOCK
 62
     0
100
AcDbPoint
 10
-574.214536
 20
687.28933
 30
0.0
  0
ENDBLK
  5
34AF
100
AcDbEntity
  8
0
100
AcDbBlockEnd
  0
BLOCK
  5
34BC
100
AcDbEntity
  8
0
100
AcDbBlockBegin
  2
*D37
 70
     1
 10
0.0
 20
0.0
 30
0.0
  3
*D37
  1

  0
LINE
  5
34BD
100
AcDbEntity
  8
0
  6
BYBLOCK
 62
     1
100
AcDbLine
 10
-578.875999
 20
691.85383
 30
0.0
 11
-578.875999
 21
660.717156
 31
0.0
  0
LINE
  5
34BE
100
AcDbEntity
  8
0
  6
BYBLOCK
 62
     1
100
AcDbLine
 10
-555.875999
 20
691.85383
 30
0.0
 11
-555.875999
 21
660.717156
 31
0.0
  0
LINE
  5
34BF
100
AcDbEntity
  8
0
  6
BYBLOCK
 62
     1
100
AcDbLine
 10
-576.875999
 20
662.717156
 30
0.0
 11
-557.875999
 21
662.717156
 31
0.0
  0
INSERT
  5
34C0
100
AcDbEntity
  8
0
  6
BYBLOCK
 62
     1
100
AcDbBlockReference
  2
_OPEN30
 10
-578.875999
 20
662.717156
 30
0.0
 41
2.0
 42
2.0
 43
2.0
 50
180.0
  0
INSERT
  5
34C1
100
AcDbEntity
  8
0
  6
BYBLOCK
 62
     1
100
AcDbBlockReference
  2
_OPEN30
 10
-555.875999
 20
662.717156
 30
0.0
 41
2.0
 42
2.0
 43
2.0
  0
MTEXT
  5
34C2
100
AcDbEntity
  8
0
  6
BYBLOCK
 62
     3
100
AcDbMText
 10
-567.375999
 20
665.217156
 30
0.0
 40
3.0
 41
0.0
 71
     5
 72
     1
  1
\A1;23
  0
POINT
  5
34C3
100
AcDbEntity
  8
DEFPOINTS
  6
BYBLOCK
 62
     0
100
AcDbPoint
 10
-578.875999
 20
692.85383
 30
0.0
  0
POINT
  5
34C4
100
AcDbEntity
  8
DEFPOINTS
  6
BYBLOCK
 62
     0
100
AcDbPoint
 10
-555.875999
 20
692.85383
 30
0.0
  0
POINT
  5
34C5
100
AcDbEntity
  8
DEFPOINTS
  6
BYBLOCK
 62
     0
100
AcDbPoint
 10
-555.875999
 20
662.717156
 30
0.0
  0
ENDBLK
  5
34C6
100
AcDbEntity
  8
0
100
AcDbBlockEnd
  0
BLOCK
  5
352F
100
AcDbEntity
  8
0
100
AcDbBlockBegin
  2
*D39
 70
     1
 10
0.0
 20
0.0
 30
0.0
  3
*D39
  1

  0
LINE
  5
3530
100
AcDbEntity
  8
0
  6
BYBLOCK
 62
     1
100
AcDbLine
 10
-1056.144468
 20
614.617271
 30
0.0
 11
-1056.144468
 21
580.65423
 31
0.0
  0
LINE
  5
3531
100
AcDbEntity
  8
0
  6
BYBLOCK
 62
     1
100
AcDbLine
 10
-1036.14105
 20
603.117271
 30
0.0
 11
-1036.14105
 21
580.65423
 31
0.0
  0
LINE
  5
3532
100
AcDbEntity
  8
0
  6
BYBLOCK
 62
     1
100
AcDbLine
 10
-1054.144468
 20
582.65423
 30
0.0
 11
-1038.14105
 21
582.65423
 31
0.0
  0
INSERT
  5
3533
100
AcDbEntity
  8
0
  6
BYBLOCK
 62
     1
100
AcDbBlockReference
  2
_OPEN30
 10
-1056.144468
 20
582.65423
 30
0.0
 41
2.0
 42
2.0
 43
2.0
 50
180.0
  0
INSERT
  5
3534
100
AcDbEntity
  8
0
  6
BYBLOCK
 62
     1
100
AcDbBlockReference
  2
_OPEN30
 10
-1036.14105
 20
582.65423
 30
0.0
 41
2.0
 42
2.0
 43
2.0
  0
MTEXT
  5
3535
100
AcDbEntity
  8
0
  6
BYBLOCK
 62
     3
100
AcDbMText
 10
-1046.142759
 20
585.15423
 30
0.0
 40
3.0
 41
0.0
 71
     5
 72
     1
  1
\A1;20
  0
POINT
  5
3536
100
AcDbEntity
  8
DEFPOINTS
  6
BYBLOCK
 62
     0
100
AcDbPoint
 10
-1056.144468
 20
615.617271
 30
0.0
  0
POINT
  5
3537
100
AcDbEntity
  8
DEFPOINTS
  6
BYBLOCK
 62
     0
100
AcDbPoint
 10
-1036.14105
 20
604.117271
 30
0.0
  0
POINT
  5
3538
100
AcDbEntity
  8
DEFPOINTS
  6
BYBLOCK
 62
     0
100
AcDbPoint
 10
-1036.14105
 20
582.65423
 30
0.0
  0
ENDBLK
  5
3539
100
AcDbEntity
  8
0
100
AcDbBlockEnd
  0
BLOCK
  5
3784
100
AcDbEntity
  8
0
100
AcDbBlockBegin
  2
*D40
 70
     1
 10
0.0
 20
0.0
 30
0.0
  3
*D40
  1

  0
LINE
  5
3785
100
AcDbEntity
  8
0
  6
BYBLOCK
 62
     1
100
AcDbLine
 10
-1056.149982
 20
691.0113
 30
0.0
 11
-1056.149982
 21
656.55387
 31
0.0
  0
LINE
  5
3786
100
AcDbEntity
  8
0
  6
BYBLOCK
 62
     1
100
AcDbLine
 10
-856.148884
 20
696.5113
 30
0.0
 11
-856.148884
 21
656.55387
 31
0.0
  0
LINE
  5
3787
100
AcDbEntity
  8
0
  6
BYBLOCK
 62
     1
100
AcDbLine
 10
-1054.149982
 20
658.55387
 30
0.0
 11
-858.148884
 21
658.55387
 31
0.0
  0
INSERT
  5
3788
100
AcDbEntity
  8
0
  6
BYBLOCK
 62
     1
100
AcDbBlockReference
  2
_OPEN30
 10
-1056.149982
 20
658.55387
 30
0.0
 41
2.0
 42
2.0
 43
2.0
 50
180.0
  0
INSERT
  5
3789
100
AcDbEntity
  8
0
  6
BYBLOCK
 62
     1
100
AcDbBlockReference
  2
_OPEN30
 10
-856.148884
 20
658.55387
 30
0.0
 41
2.0
 42
2.0
 43
2.0
  0
MTEXT
  5
378A
100
AcDbEntity
  8
0
  6
BYBLOCK
 62
     3
100
AcDbMText
 10
-956.149433
 20
661.05387
 30
0.0
 40
3.0
 41
0.0
 71
     5
 72
     1
  1
\A1;200
  0
POINT
  5
378B
100
AcDbEntity
  8
DEFPOINTS
  6
BYBLOCK
 62
     0
100
AcDbPoint
 10
-1056.149982
 20
692.0113
 30
0.0
  0
POINT
  5
378C
100
AcDbEntity
  8
DEFPOINTS
  6
BYBLOCK
 62
     0
100
AcDbPoint
 10
-856.148884
 20
697.5113
 30
0.0
  0
POINT
  5
378D
100
AcDbEntity
  8
DEFPOINTS
  6
BYBLOCK
 62
     0
100
AcDbPoint
 10
-856.148884
 20
658.55387
 30
0.0
  0
ENDBLK
  5
378E
100
AcDbEntity
  8
0
100
AcDbBlockEnd
  0
BLOCK
  5
35E7
100
AcDbEntity
  8
0
100
AcDbBlockBegin
  2
*D41
 70
     1
 10
0.0
 20
0.0
 30
0.0
  3
*D41
  1

  0
LINE
  5
35E8
100
AcDbEntity
  8
0
  6
BYBLOCK
 62
     1
100
AcDbLine
 10
-1054.348884
 20
691.2113
 30
0.0
 11
-1000.269445
 21
691.2113
 31
0.0
  0
LINE
  5
35E9
100
AcDbEntity
  8
0
  6
BYBLOCK
 62
     1
100
AcDbLine
 10
-1004.336836
 20
696.7113
 30
0.0
 11
-1000.269445
 21
696.7113
 31
0.0
  0
LINE
  5
35EA
100
AcDbEntity
  8
0
  6
BYBLOCK
 62
     1
100
AcDbLine
 10
-1002.269445
 20
689.2113
 30
0.0
 11
-1002.269445
 21
687.2113
 31
0.0
  0
LINE
  5
35EB
100
AcDbEntity
  8
0
  6
BYBLOCK
 62
     1
100
AcDbLine
 10
-1002.269445
 20
698.7113
 30
0.0
 11
-1002.269445
 21
700.7113
 31
0.0
  0
MTEXT
  5
35EC
100
AcDbEntity
  8
0
  6
BYBLOCK
 62
     3
100
AcDbMText
 10
-1005.083364
 20
691.313815
 30
0.0
 40
3.0
 41
0.0
 71
     5
 72
     1
  1
\A1;5.5
 11
0.0
 21
1.0
 31
0.0
  0
LINE
  5
35ED
100
AcDbEntity
  8
0
  6
BYBLOCK
 62
     1
100
AcDbLine
 10
-1002.269445
 20
691.2113
 30
0.0
 11
-1002.269445
 21
696.7113
 31
0.0
  0
LINE
  5
35EE
100
AcDbEntity
  8
0
  6
BYBLOCK
 62
     1
100
AcDbLine
 10
-1002.269445
 20
691.2113
 30
0.0
 11
-1002.269445
 21
696.7113
 31
0.0
  0
INSERT
  5
35EF
100
AcDbEntity
  8
0
  6
BYBLOCK
 62
     1
100
AcDbBlockReference
  2
_OPEN30
 10
-1002.269445
 20
691.2113
 30
0.0
 41
2.0
 42
2.0
 43
2.0
 50
90.0
  0
INSERT
  5
35F0
100
AcDbEntity
  8
0
  6
BYBLOCK
 62
     1
100
AcDbBlockReference
  2
_OPEN30
 10
-1002.269445
 20
696.7113
 30
0.0
 41
2.0
 42
2.0
 43
2.0
 50
270.0
  0
POINT
  5
35F1
100
AcDbEntity
  8
DEFPOINTS
  6
BYBLOCK
 62
     0
100
AcDbPoint
 10
-1055.348884
 20
691.2113
 30
0.0
  0
POINT
  5
35F2
100
AcDbEntity
  8
DEFPOINTS
  6
BYBLOCK
 62
     0
100
AcDbPoint
 10
-1005.336836
 20
696.7113
 30
0.0
  0
POINT
  5
35F3
100
AcDbEntity
  8
DEFPOINTS
  6
BYBLOCK
 62
     0
100
AcDbPoint
 10
-1002.269445
 20
696.7113
 30
0.0
  0
ENDBLK
  5
35F4
100
AcDbEntity
  8
0
100
AcDbBlockEnd
  0
BLOCK
  5
35A5
100
AcDbEntity
  8
0
100
AcDbBlockBegin
  2
*D42
 70
     1
 10
0.0
 20
0.0
 30
0.0
  3
*D42
  1

  0
LINE
  5
35A6
100
AcDbEntity
  8
0
  6
BYBLOCK
 62
     1
100
AcDbLine
 10
-1084.133235
 20
1053.401043
 30
0.0
 11
-1083.005764
 21
1074.914456
 31
0.0
  0
LINE
  5
35A7
100
AcDbEntity
  8
0
  6
BYBLOCK
 62
     1
100
AcDbLine
 10
-1104.645821
 20
1038.028518
 30
0.0
 11
-1121.875433
 21
1038.028518
 31
0.0
  0
ARC
  5
35A8
100
AcDbEntity
  8
0
  6
BYBLOCK
 62
     1
100
AcDbCircle
 10
-1084.938875
 20
1038.028518
 30
0.0
 40
34.936558
100
AcDbArc
 50
90.280438
 51
176.719562
  0
INSERT
  5
35A9
100
AcDbEntity
  8
0
  6
BYBLOCK
 62
     1
100
AcDbBlockReference
  2
_OPEN30
 10
-1083.110436
 20
1072.917197
 30
0.0
 41
2.0
 42
2.0
 43
2.0
 50
358.640219
  0
INSERT
  5
35AA
100
AcDbEntity
  8
0
  6
BYBLOCK
 62
     1
100
AcDbBlockReference
  2
_OPEN30
 10
-1119.875433
 20
1038.028518
 30
0.0
 41
2.0
 42
2.0
 43
2.0
 50
268.359781
  0
MTEXT
  5
35AB
100
AcDbEntity
  8
0
  6
BYBLOCK
 62
     3
100
AcDbMText
 10
-1110.708501
 20
1065.184038
 30
0.0
 40
3.0
 41
0.0
 71
     5
 72
     1
  1
\A1;93°
 11
0.725374
 21
0.688355
 31
0.0
  0
POINT
  5
35AC
100
AcDbEntity
  8
DEFPOINTS
  6
BYBLOCK
 62
     0
100
AcDbPoint
 10
-1101.340595
 20
1068.875668
 30
0.0
  0
POINT
  5
35AD
100
AcDbEntity
  8
DEFPOINTS
  6
BYBLOCK
 62
     0
100
AcDbPoint
 10
-1084.09585
 20
1038.028518
 30
0.0
  0
POINT
  5
35AE
100
AcDbEntity
  8
DEFPOINTS
  6
BYBLOCK
 62
     0
100
AcDbPoint
 10
-1084.185571
 20
1052.402414
 30
0.0
  0
POINT
  5
35AF
100
AcDbEntity
  8
DEFPOINTS
  6
BYBLOCK
 62
     0
100
AcDbPoint
 10
-1084.894754
 20
1038.870386
 30
0.0
  0
POINT
  5
35B0
100
AcDbEntity
  8
DEFPOINTS
  6
BYBLOCK
 62
     0
100
AcDbPoint
 10
-1103.645821
 20
1038.028518
 30
0.0
  0
ENDBLK
  5
35B1
100
AcDbEntity
  8
0
100
AcDbBlockEnd
  0
BLOCK
  5
35CA
100
AcDbEntity
  8
0
100
AcDbBlockBegin
  2
*D43
 70
     1
 10
0.0
 20
0.0
 30
0.0
  3
*D43
  1

  0
LINE
  5
35CB
100
AcDbEntity
  8
0
  6
BYBLOCK
 62
     1
100
AcDbLine
 10
-1056.348884
 20
691.2113
 30
0.0
 11
-1076.898855
 21
691.2113
 31
0.0
  0
LINE
  5
35CC
100
AcDbEntity
  8
0
  6
BYBLOCK
 62
     1
100
AcDbLine
 10
-1071.204514
 20
708.2113
 30
0.0
 11
-1076.898855
 21
708.2113
 31
0.0
  0
LINE
  5
35CD
100
AcDbEntity
  8
0
  6
BYBLOCK
 62
     1
100
AcDbLine
 10
-1074.898855
 20
693.2113
 30
0.0
 11
-1074.898855
 21
706.2113
 31
0.0
  0
INSERT
  5
35CE
100
AcDbEntity
  8
0
  6
BYBLOCK
 62
     1
100
AcDbBlockReference
  2
_OPEN30
 10
-1074.898855
 20
691.2113
 30
0.0
 41
2.0
 42
2.0
 43
2.0
 50
270.0
  0
INSERT
  5
35CF
100
AcDbEntity
  8
0
  6
BYBLOCK
 62
     1
100
AcDbBlockReference
  2
_OPEN30
 10
-1074.898855
 20
708.2113
 30
0.0
 41
2.0
 42
2.0
 43
2.0
 50
90.0
  0
MTEXT
  5
35D0
100
AcDbEntity
  8
0
  6
BYBLOCK
 62
     3
100
AcDbMText
 10
-1077.398855
 20
699.7113
 30
0.0
 40
3.0
 41
0.0
 71
     5
 72
     1
  1
\A1;17
 11
0.0
 21
1.0
 31
0.0
  0
POINT
  5
35D1
100
AcDbEntity
  8
DEFPOINTS
  6
BYBLOCK
 62
     0
100
AcDbPoint
 10
-1055.348884
 20
691.2113
 30
0.0
  0
POINT
  5
35D2
100
AcDbEntity
  8
DEFPOINTS
  6
BYBLOCK
 62
     0
100
AcDbPoint
 10
-1070.204514
 20
708.2113
 30
0.0
  0
POINT
  5
35D3
100
AcDbEntity
  8
DEFPOINTS
  6
BYBLOCK
 62
     0
100
AcDbPoint
 10
-1074.898855
 20
708.2113
 30
0.0
  0
ENDBLK
  5
35D4
100
AcDbEntity
  8
0
100
AcDbBlockEnd
  0
BLOCK
  5
37FC
100
AcDbEntity
  8
0
100
AcDbBlockBegin
  2
*D45
 70
     1
 10
0.0
 20
0.0
 30
0.0
  3
*D45
  1

  0
LINE
  5
37FD
100
AcDbEntity
  8
0
  6
BYBLOCK
 62
     1
100
AcDbLine
 10
-1070.84605
 20
615.617271
 30
0.0
 11
-1096.059943
 21
615.617271
 31
0.0
  0
LINE
  5
37FE
100
AcDbEntity
  8
0
  6
BYBLOCK
 62
     1
100
AcDbLine
 10
-1057.145079
 20
615.530116
 30
0.0
 11
-1095.90807
 21
612.138793
 31
0.0
  0
ARC
  5
37FF
100
AcDbEntity
  8
0
  6
BYBLOCK
 62
     1
100
AcDbCircle
 10
-1056.148884
 20
615.617271
 30
0.0
 40
37.911059
100
AcDbArc
 50
173.951908
 51
180.0
  0
LINE
  5
3800
100
AcDbEntity
  8
0
  6
BYBLOCK
 62
     1
100
AcDbLine
 10
-1093.848923
 20
619.611701
 30
0.0
 11
-1092.9428
 21
628.163832
 31
0.0
  0
ARC
  5
3801
100
AcDbEntity
  8
0
  6
BYBLOCK
 62
     1
100
AcDbCircle
 10
-1056.148884
 20
615.617271
 30
0.0
 40
37.911059
100
AcDbArc
 50
173.954015
 51
176.977007
  0
ARC
  5
3802
100
AcDbEntity
  8
0
  6
BYBLOCK
 62
     1
100
AcDbCircle
 10
-1056.148884
 20
615.617271
 30
0.0
 40
37.911059
100
AcDbArc
 50
188.022993
 51
191.045985
  0
ARC
  5
3803
100
AcDbEntity
  8
0
  6
BYBLOCK
 62
     1
100
AcDbCircle
 10
-1056.148884
 20
615.617271
 30
0.0
 40
37.911059
100
AcDbArc
 50
180.0
 51
185.0
  0
INSERT
  5
3804
100
AcDbEntity
  8
0
  6
BYBLOCK
 62
     1
100
AcDbBlockReference
  2
_OPEN30
 10
-1094.059943
 20
615.617271
 30
0.0
 41
2.0
 42
2.0
 43
2.0
 50
268.488504
  0
INSERT
  5
3805
100
AcDbEntity
  8
0
  6
BYBLOCK
 62
     1
100
AcDbBlockReference
  2
_OPEN30
 10
-1093.91568
 20
612.313105
 30
0.0
 41
2.0
 42
2.0
 43
2.0
 50
96.511496
  0
MTEXT
  5
3806
100
AcDbEntity
  8
0
  6
BYBLOCK
 62
     3
100
AcDbMText
 10
-1090.909777
 20
623.624359
 30
0.0
 40
3.0
 41
0.0
 71
     5
 72
     1
  1
\A1;5°
 11
-0.105363
 21
-0.994434
 31
0.0
  0
POINT
  5
3807
100
AcDbEntity
  8
DEFPOINTS
  6
BYBLOCK
 62
     0
100
AcDbPoint
 10
-1093.995804
 20
613.412939
 30
0.0
  0
POINT
  5
3808
100
AcDbEntity
  8
DEFPOINTS
  6
BYBLOCK
 62
     0
100
AcDbPoint
 10
-840.57306
 20
615.617271
 30
0.0
  0
POINT
  5
3809
100
AcDbEntity
  8
DEFPOINTS
  6
BYBLOCK
 62
     0
100
AcDbPoint
 10
-1056.148884
 20
615.617271
 30
0.0
  0
POINT
  5
380A
100
AcDbEntity
  8
DEFPOINTS
  6
BYBLOCK
 62
     0
100
AcDbPoint
 10
-1046.371304
 20
616.472699
 30
0.0
  0
POINT
  5
380B
100
AcDbEntity
  8
DEFPOINTS
  6
BYBLOCK
 62
     0
100
AcDbPoint
 10
-1069.84605
 20
615.617271
 30
0.0
  0
ENDBLK
  5
380C
100
AcDbEntity
  8
0
100
AcDbBlockEnd
  0
BLOCK
  5
3821
100
AcDbEntity
  8
0
100
AcDbBlockBegin
  2
*D47
 70
     1
 10
0.0
 20
0.0
 30
0.0
  3
*D47
  1

  0
LINE
  5
3822
100
AcDbEntity
  8
0
  6
BYBLOCK
 62
     1
100
AcDbLine
 10
-1144.620212
 20
690.233153
 30
0.0
 11
-1150.475002
 21
662.68853
 31
0.0
  0
ARC
  5
3823
100
AcDbEntity
  8
0
  6
BYBLOCK
 62
     1
100
AcDbCircle
 10
-1144.4123
 20
691.2113
 30
0.0
 40
27.159986
100
AcDbArc
 50
253.779914
 51
258.0
  0
LINE
  5
3824
100
AcDbEntity
  8
0
  6
BYBLOCK
 62
     1
100
AcDbLine
 10
-1151.998837
 20
665.132395
 30
0.0
 11
-1163.137109
 21
668.372597
 31
0.0
  0
ARC
  5
3825
100
AcDbEntity
  8
0
  6
BYBLOCK
 62
     1
100
AcDbCircle
 10
-1144.4123
 20
691.2113
 30
0.0
 40
27.159986
100
AcDbArc
 50
262.220086
 51
265.779914
  0
INSERT
  5
3826
100
AcDbEntity
  8
0
  6
BYBLOCK
 62
     1
100
AcDbBlockReference
  2
_OPEN30
 10
-1150.059179
 20
664.644825
 30
0.0
 41
2.0
 42
2.0
 43
2.0
 50
170.110043
  0
INSERT
  5
3827
100
AcDbEntity
  8
0
  6
BYBLOCK
 62
     1
100
AcDbBlockReference
  2
_OPEN30
 10
-1144.4123
 20
664.051314
 30
0.0
 41
2.0
 42
2.0
 43
2.0
 50
357.889957
  0
MTEXT
  5
3828
100
AcDbEntity
  8
0
  6
BYBLOCK
 62
     3
100
AcDbMText
 10
-1156.869654
 20
669.152986
 30
0.0
 40
3.0
 41
0.0
 71
     5
 72
     1
  1
\A1;12°
 11
0.960196
 21
-0.279328
 31
0.0
  0
POINT
  5
3829
100
AcDbEntity
  8
DEFPOINTS
  6
BYBLOCK
 62
     0
100
AcDbPoint
 10
-1146.306885
 20
664.117475
 30
0.0
  0
POINT
  5
382A
100
AcDbEntity
  8
DEFPOINTS
  6
BYBLOCK
 62
     0
100
AcDbPoint
 10
-1138.526337
 20
718.902579
 30
0.0
  0
POINT
  5
382B
100
AcDbEntity
  8
DEFPOINTS
  6
BYBLOCK
 62
     0
100
AcDbPoint
 10
-1144.4123
 20
726.772828
 30
0.0
  0
POINT
  5
382C
100
AcDbEntity
  8
DEFPOINTS
  6
BYBLOCK
 62
     0
100
AcDbPoint
 10
-1144.4123
 20
663.880035
 30
0.0
  0
POINT
  5
382D
100
AcDbEntity
  8
DEFPOINTS
  6
BYBLOCK
 62
     0
100
AcDbPoint
 10
-1144.4123
 20
691.2113
 30
0.0
  0
ENDBLK
  5
382E
100
AcDbEntity
  8
0
100
AcDbBlockEnd
  0
ENDSEC
  0
SECTION
  2
ENTITIES
  0
LINE
  5
1FF7
100
AcDbEntity
  8
外形
  6
CONTINUOUS
100
AcDbLine
 10
-856.148884
 20
718.9113
 30
0.0
 11
-856.148884
 21
697.5113
 31
0.0
  0
LINE
  5
1FF8
100
AcDbEntity
  8
外形
  6
CONTINUOUS
100
AcDbLine
 10
-1017.397788
 20
720.4613
 30
0.0
 11
-1017.397788
 21
712.344859
 31
0.0
  0
LINE
  5
1FFA
100
AcDbEntity
  8
外形
  6
CONTINUOUS
100
AcDbLine
 10
-1017.147788
 20
720.7113
 30
0.0
 11
-1017.397788
 21
720.4613
 31
0.0
  0
LINE
  5
1FFC
100
AcDbEntity
  8
外形
  6
CONTINUOUS
100
AcDbLine
 10
-1017.397788
 20
720.4613
 30
0.0
 11
-1041.153257
 21
720.4613
 31
0.0
  0
LINE
  5
1FFD
100
AcDbEntity
  8
外形
  6
CONTINUOUS
100
AcDbLine
 10
-1017.147788
 20
720.7113
 30
0.0
 11
-1017.147788
 21
713.11028
 31
0.0
  0
LINE
  5
2000
100
AcDbEntity
  8
外形
  6
CONTINUOUS
100
AcDbLine
 10
-857.948884
 20
720.7113
 30
0.0
 11
-856.148884
 21
718.9113
 31
0.0
  0
LINE
  5
2001
100
AcDbEntity
  8
外形
  6
CONTINUOUS
100
AcDbLine
 10
-856.148884
 20
697.5113
 30
0.0
 11
-856.948884
 21
696.7113
 31
0.0
  0
LINE
  5
2002
100
AcDbEntity
  8
外形
  6
CONTINUOUS
100
AcDbLine
 10
-857.948884
 20
720.7113
 30
0.0
 11
-857.948884
 21
713.11028
 31
0.0
  0
LINE
  5
2029
100
AcDbEntity
  8
外形
  6
CONTINUOUS
100
AcDbLine
 10
-966.742544
 20
713.11028
 30
0.0
 11
-1017.147788
 21
713.11028
 31
0.0
  0
LINE
  5
202A
100
AcDbEntity
  8
外形
  6
CONTINUOUS
100
AcDbLine
 10
-966.742544
 20
703.312321
 30
0.0
 11
-1017.147788
 21
703.312321
 31
0.0
  0
ARC
  5
202E
100
AcDbEntity
  8
外形
  6
CONTINUOUS
100
AcDbCircle
 10
-869.343958
 20
708.2113
 30
0.0
 40
12.403536
100
AcDbArc
 50
336.736124
 51
23.263876
  0
LINE
  5
202F
100
AcDbEntity
  8
外形
  6
CONTINUOUS
100
AcDbLine
 10
-857.948884
 20
703.312321
 30
0.0
 11
-857.948884
 21
696.7113
 31
0.0
  0
LINE
  5
2034
100
AcDbEntity
  8
外形
  6
CONTINUOUS
100
AcDbLine
 10
-1017.397788
 20
712.344859
 30
0.0
 11
-1031.148884
 21
712.344859
 31
0.0
  0
LINE
  5
2035
100
AcDbEntity
  8
外形
  6
CONTINUOUS
100
AcDbLine
 10
-1017.397788
 20
704.077742
 30
0.0
 11
-1031.148884
 21
704.077742
 31
0.0
  0
LINE
  5
2036
100
AcDbEntity
  8
外形
  6
CONTINUOUS
100
AcDbLine
 10
-1017.147788
 20
713.11028
 30
0.0
 11
-1017.397788
 21
712.344859
 31
0.0
  0
LINE
  5
2037
100
AcDbEntity
  8
外形
  6
CONTINUOUS
100
AcDbLine
 10
-1017.147788
 20
703.312321
 30
0.0
 11
-1017.397788
 21
704.077742
 31
0.0
  0
LINE
  5
2038
100
AcDbEntity
  8
外形
  6
CONTINUOUS
100
AcDbLine
 10
-1017.147788
 20
703.312321
 30
0.0
 11
-1017.147788
 21
696.7113
 31
0.0
  0
LINE
  5
2039
100
AcDbEntity
  8
外形
  6
CONTINUOUS
100
AcDbLine
 10
-1017.397788
 20
704.077742
 30
0.0
 11
-1017.397788
 21
696.7113
 31
0.0
  0
LINE
  5
2052
100
AcDbEntity
  8
外形
  6
CENTER
 62
     1
100
AcDbLine
 10
-1032.275687
 20
708.2113
 30
0.0
 11
-1070.204514
 21
708.2113
 31
0.0
  0
LINE
  5
2071
100
AcDbEntity
  8
外形
  6
CONTINUOUS
100
AcDbLine
 10
-1043.298332
 20
705.08346
 30
0.0
 11
-1046.041702
 21
703.369212
 31
0.0
  0
ARC
  5
207D
100
AcDbEntity
  8
外形
  6
CONTINUOUS
100
AcDbCircle
 10
-1038.71451
 20
711.850925
 30
0.0
 40
7.581732
100
AcDbArc
 50
3.735342
 51
37.5298
  0
ARC
  5
2083
100
AcDbEntity
  8
外形
  6
CONTINUOUS
100
AcDbCircle
 10
-1038.951083
 20
704.79055
 30
0.0
 40
8.070711
100
AcDbArc
 50
270.398581
 51
322.299678
  0
LINE
  5
218D
100
AcDbEntity
  8
外形
  6
CENTER
 62
     1
100
AcDbLine
 10
-1126.812819
 20
708.2113
 30
0.0
 11
-1163.617655
 21
708.2113
 31
0.0
  0
LINE
  5
218E
100
AcDbEntity
  8
外形
  6
CENTER
 62
     1
100
AcDbLine
 10
-1144.4123
 20
726.772828
 30
0.0
 11
-1144.4123
 21
659.942316
 31
0.0
  0
LINE
  5
2444
100
AcDbEntity
  8
外形
  6
CONTINUOUS
100
AcDbLine
 10
-1041.153257
 20
720.4613
 30
0.0
 11
-1054.770598
 21
712.599325
 31
0.0
  0
LINE
  5
2445
100
AcDbEntity
  8
外形
  6
CENTER
 62
     1
100
AcDbLine
 10
-840.57306
 20
708.2113
 30
0.0
 11
-1065.700581
 21
708.2113
 31
0.0
  0
LINE
  5
2446
100
AcDbEntity
  8
外形
  6
CONTINUOUS
100
AcDbLine
 10
-1055.643054
 20
701.684071
 30
0.0
 11
-1056.147788
 21
692.053169
 31
0.0
  0
LINE
  5
2447
100
AcDbEntity
  8
外形
  6
CONTINUOUS
100
AcDbLine
 10
-1046.746272
 20
696.443466
 30
0.0
 11
-1054.924949
 21
691.332862
 31
0.0
  0
ARC
  5
244C
100
AcDbEntity
  8
外形
  6
CONTINUOUS
100
AcDbCircle
 10
-1055.348884
 20
692.0113
 30
0.0
 40
0.8
100
AcDbArc
 50
177.0
 51
302.0
  0
ARC
  5
244E
100
AcDbEntity
  8
外形
  6
CONTINUOUS
100
AcDbCircle
 10
-1055.348884
 20
692.0113
 30
0.0
 40
0.8
100
AcDbArc
 50
177.0
 51
302.0
  0
ARC
  5
2453
100
AcDbEntity
  8
外形
  6
CONTINUOUS
100
AcDbCircle
 10
-1047.170207
 20
697.121905
 30
0.0
 40
0.8
100
AcDbArc
 50
302.0
 51
357.0
  0
ARC
  5
2455
100
AcDbEntity
  8
外形
  6
CONTINUOUS
100
AcDbCircle
 10
-1054.84415
 20
701.642203
 30
0.0
 40
0.8
100
AcDbArc
 50
122.0
 51
177.0
  0
ARC
  5
2457
100
AcDbEntity
  8
外形
  6
CONTINUOUS
100
AcDbCircle
 10
-1046.665473
 20
706.752807
 30
0.0
 40
0.8
100
AcDbArc
 50
357.0
 51
122.0
  0
ARC
  5
2487
100
AcDbEntity
  8
外形
  6
CONTINUOUS
100
AcDbCircle
 10
-1046.705504
 20
694.147629
 30
0.0
 40
3.0
100
AcDbArc
 50
58.710828
 51
83.583484
  0
LINE
  5
2492
100
AcDbEntity
  8
外形
  6
CONTINUOUS
100
AcDbLine
 10
-1037.932567
 20
719.16722
 30
0.0
 11
-1043.057618
 21
719.361817
 31
0.0
  0
ARC
  5
2494
100
AcDbEntity
  8
外形
  6
CONTINUOUS
100
AcDbCircle
 10
-1038.473884
 20
711.697868
 30
0.0
 40
7.488941
100
AcDbArc
 50
39.580344
 51
85.854916
  0
ARC
  5
2496
100
AcDbEntity
  8
外形
  6
CONTINUOUS
100
AcDbCircle
 10
-1038.930661
 20
704.339199
 30
0.0
 40
7.786168
100
AcDbArc
 50
324.836515
 51
358.075664
  0
TEXT
  5
249B
100
AcDbEntity
  8
外形
  6
CONTINUOUS
 62
     2
100
AcDbText
 10
-978.564494
 20
571.318603
 30
0.0
 40
6.0
  1
BDUN325R
100
AcDbText
  0
LINE
  5
251C
100
AcDbEntity
  8
外形
  6
CONTINUOUS
100
AcDbLine
 10
-1031.148884
 20
712.344859
 30
0.0
 11
-1031.148884
 21
704.077742
 31
0.0
  0
ARC
  5
2539
100
AcDbEntity
  8
外形
  6
CONTINUOUS
100
AcDbCircle
 10
-949.281554
 20
708.2113
 30
0.0
 40
12.5
100
AcDbArc
 50
293.073918
 51
336.926082
  0
LINE
  5
253A
100
AcDbEntity
  8
外形
  6
CONTINUOUS
100
AcDbLine
 10
-856.948884
 20
696.7113
 30
0.0
 11
-928.907277
 21
696.7113
 31
0.0
  0
LINE
  5
253B
100
AcDbEntity
  8
外形
  6
CONTINUOUS
100
AcDbLine
 10
-966.742544
 20
696.7113
 30
0.0
 11
-1045.147431
 21
696.7113
 31
0.0
  0
LINE
  5
253C
100
AcDbEntity
  8
外形
  6
CONTINUOUS
100
AcDbLine
 10
-944.382575
 20
696.7113
 30
0.0
 11
-954.180534
 21
696.7113
 31
0.0
  0
LINE
  5
253F
100
AcDbEntity
  8
外形
  6
CONTINUOUS
100
AcDbLine
 10
-937.781554
 20
713.11028
 30
0.0
 11
-937.781554
 21
703.312321
 31
0.0
  0
LINE
  5
2540
100
AcDbEntity
  8
外形
  6
CONTINUOUS
100
AcDbLine
 10
-960.781554
 20
713.11028
 30
0.0
 11
-960.781554
 21
703.312321
 31
0.0
  0
ARC
  5
2541
100
AcDbEntity
  8
外形
  6
CONTINUOUS
100
AcDbCircle
 10
-949.281554
 20
708.2113
 30
0.0
 40
12.5
100
AcDbArc
 50
23.073918
 51
156.926082
  0
ARC
  5
2542
100
AcDbEntity
  8
外形
  6
CONTINUOUS
100
AcDbCircle
 10
-949.281554
 20
708.2113
 30
0.0
 40
12.5
100
AcDbArc
 50
203.073918
 51
246.926082
  0
HATCH
  5
2569
100
AcDbEntity
  8
外形
  6
CONTINUOUS
 62
     7
100
AcDbHatch
 10
0.0
 20
0.0
 30
0.0
210
0.0
220
0.0
230
1.0
  2
ANSI31
 70
     0
 71
     0
 91
        4
 92
        7
 72
     1
 73
     1
 93
        4
 10
-937.7815540440304
 20
713.110279809557
 42
0.3006141300917508
 10
-949.2815540440302
 20
720.7113003239908
 42
0.0
 10
-949.2815540440302
 20
708.2113003239907
 42
0.0
 10
-937.7815540440305
 20
708.2113003239907
 42
0.0
 97
        0
 92
        7
 72
     1
 73
     1
 93
        5
 10
-949.2815540440302
 20
708.2113003239907
 42
0.0
 10
-960.7815540440304
 20
708.2113003239908
 42
0.0
 10
-960.7815540440304
 20
703.3123208384243
 42
0.1937109635247154
 10
-954.1805335295967
 20
696.7113003239907
 42
0.0
 10
-949.2815540440302
 20
696.7113003239907
 42
0.0
 97
        0
 92
        7
 72
     1
 73
     1
 93
        4
 10
-949.2815540440302
 20
720.7113003239907
 42
0.3006141300917551
 10
-960.7815540440304
 20
713.1102798095571
 42
0.0
 10
-960.7815540440304
 20
708.2113003239907
 42
0.0
 10
-949.2815540440302
 20
708.2113003239905
 42
0.0
 97
        0
 92
        7
 72
     1
 73
     1
 93
        5
 10
-937.7815540440305
 20
703.3123208384239
 42
0.0
 10
-937.7815540440304
 20
708.2113003239907
 42
0.0
 10
-949.2815540440302
 20
708.2113003239907
 42
0.0
 10
-949.2815540440302
 20
696.7113003239907
 42
0.0
 10
-944.3825745584641
 20
696.7113003239907
 42
0.1937109635247007
 97
        0
 75
     0
 76
     1
 52
0.0
 41
30.0
 77
     0
 78
     1
 53
45.0
 43
8.10777
 44
146.919615
 45
-2.651650429449552
 46
2.651650429449553
 79
     0
 47
0.080552
 98
        4
 10
-945.29299
 20
712.664125
 10
-955.127089
 20
702.917349
 10
-953.192511
 20
712.82523
 10
-947.46939
 20
701.950726
  0
LINE
  5
256A
100
AcDbEntity
  8
外形
  6
CONTINUOUS
100
AcDbLine
 10
-857.948884
 20
720.7113
 30
0.0
 11
-928.907277
 21
720.7113
 31
0.0
  0
LINE
  5
256B
100
AcDbEntity
  8
外形
  6
CONTINUOUS
100
AcDbLine
 10
-966.742544
 20
720.7113
 30
0.0
 11
-1017.147788
 21
720.7113
 31
0.0
  0
LINE
  5
2573
100
AcDbEntity
  8
外形
  6
CONTINUOUS
100
AcDbLine
 10
-1054.770598
 20
712.599325
 30
0.0
 11
-1055.310676
 21
702.294028
 31
0.0
  0
LINE
  5
257A
100
AcDbEntity
  8
外形
  6
CONTINUOUS
100
AcDbLine
 10
-1045.86657
 20
706.710938
 30
0.0
 11
-1046.371304
 21
697.080036
 31
0.0
  0
LINE
  5
257B
100
AcDbEntity
  8
外形
  6
CONTINUOUS
100
AcDbLine
 10
-1047.089409
 20
707.431246
 30
0.0
 11
-1055.268086
 21
702.320641
 31
0.0
  0
CIRCLE
  5
2582
100
AcDbEntity
  8
外形
  6
CONTINUOUS
100
AcDbCircle
 10
-1051.007179
 20
699.382054
 30
0.0
 40
2.05
  0
ARC
  5
2586
100
AcDbEntity
  8
外形
  6
CONTINUOUS
100
AcDbCircle
 10
-1044.35817
 20
706.779556
 30
0.0
 40
2.0
100
AcDbArc
 50
302.0
 51
122.0
  0
LINE
  5
2588
100
AcDbEntity
  8
外形
  6
CONTINUOUS
100
AcDbLine
 10
-1045.418009
 20
708.475652
 30
0.0
 11
-1046.769752
 21
707.630989
 31
0.0
  0
LINE
  5
25B6
100
AcDbEntity
  8
外形
  6
CONTINUOUS
100
AcDbLine
 10
-949.281554
 20
604.117271
 30
0.0
 11
-1046.569483
 21
604.117271
 31
0.0
  0
LINE
  5
25B7
100
AcDbEntity
  8
外形
  6
CONTINUOUS
100
AcDbLine
 10
-949.281554
 20
610.718292
 30
0.0
 11
-1017.147788
 21
610.718292
 31
0.0
  0
LINE
  5
25B8
100
AcDbEntity
  8
外形
  6
CONTINUOUS
100
AcDbLine
 10
-949.281554
 20
620.516251
 30
0.0
 11
-1017.147788
 21
620.516251
 31
0.0
  0
LINE
  5
25BA
100
AcDbEntity
  8
外形
  6
CENTER
 62
     1
100
AcDbLine
 10
-840.57306
 20
615.617271
 30
0.0
 11
-1069.84605
 21
615.617271
 31
0.0
  0
LINE
  5
25BB
100
AcDbEntity
  8
外形
  6
CONTINUOUS
100
AcDbLine
 10
-1017.147788
 20
610.718292
 30
0.0
 11
-1017.147788
 21
604.117271
 31
0.0
  0
LINE
  5
25BC
100
AcDbEntity
  8
外形
  6
CONTINUOUS
100
AcDbLine
 10
-1017.397788
 20
611.483713
 30
0.0
 11
-1017.397788
 21
604.117271
 31
0.0
  0
ARC
  5
25C2
100
AcDbEntity
  8
外形
  6
CONTINUOUS
100
AcDbCircle
 10
-1045.610496
 20
627.611087
 30
0.0
 40
14.470041
100
AcDbArc
 50
331.273979
 51
358.0443
  0
ARC
  5
25C6
100
AcDbEntity
  8
外形
  6
CONTINUOUS
100
AcDbCircle
 10
-1039.243828
 20
624.956688
 30
0.0
 40
7.646311
100
AcDbArc
 50
275.496787
 51
325.778672
  0
ARC
  5
25D0
100
AcDbEntity
  8
外形
  6
CONTINUOUS
100
AcDbCircle
 10
-1041.898302
 20
633.643816
 30
0.0
 40
13.157433
100
AcDbArc
 50
284.916703
 51
311.094972
  0
LINE
  5
25D1
100
AcDbEntity
  8
外形
  6
CENTER
 62
     1
100
AcDbLine
 10
-1032.275687
 20
615.617271
 30
0.0
 11
-1070.204514
 21
615.617271
 31
0.0
  0
LINE
  5
25D5
100
AcDbEntity
  8
外形
  6
CONTINUOUS
100
AcDbLine
 10
-1055.017459
 20
619.485681
 30
0.0
 11
-1055.28957
 21
618.302383
 31
0.0
  0
LINE
  5
25DB
100
AcDbEntity
  8
外形
  6
CONTINUOUS
100
AcDbLine
 10
-1017.397788
 20
627.117271
 30
0.0
 11
-1017.397788
 21
619.75083
 31
0.0
  0
LINE
  5
25DC
100
AcDbEntity
  8
外形
  6
CONTINUOUS
100
AcDbLine
 10
-1017.147788
 20
627.117271
 30
0.0
 11
-1017.147788
 21
620.516251
 31
0.0
  0
LINE
  5
25DD
100
AcDbEntity
  8
外形
  6
CONTINUOUS
100
AcDbLine
 10
-1017.397788
 20
611.483713
 30
0.0
 11
-1045.934824
 21
611.483713
 31
0.0
  0
LINE
  5
25DE
100
AcDbEntity
  8
外形
  6
CONTINUOUS
100
AcDbLine
 10
-1017.397788
 20
619.75083
 30
0.0
 11
-1033.643372
 21
619.75083
 31
0.0
  0
LINE
  5
25DF
100
AcDbEntity
  8
外形
  6
CONTINUOUS
100
AcDbLine
 10
-1017.147788
 20
620.516251
 30
0.0
 11
-1017.397788
 21
619.75083
 31
0.0
  0
LINE
  5
25E0
100
AcDbEntity
  8
外形
  6
CONTINUOUS
100
AcDbLine
 10
-1017.147788
 20
610.718292
 30
0.0
 11
-1017.397788
 21
611.483713
 31
0.0
  0
ARC
  5
25E2
100
AcDbEntity
  8
外形
  6
CONTINUOUS
100
AcDbCircle
 10
-1037.350583
 20
628.61589
 30
0.0
 40
6.380197
100
AcDbArc
 50
309.99612
 51
346.415099
  0
LINE
  5
25E8
100
AcDbEntity
  8
外形
  6
CONTINUOUS
100
AcDbLine
 10
-856.148884
 20
626.317271
 30
0.0
 11
-856.148884
 21
604.917271
 31
0.0
  0
LINE
  5
25E9
100
AcDbEntity
  8
外形
  6
CONTINUOUS
100
AcDbLine
 10
-857.948884
 20
610.718292
 30
0.0
 11
-857.948884
 21
604.117271
 31
0.0
  0
LINE
  5
25EA
100
AcDbEntity
  8
外形
  6
CONTINUOUS
100
AcDbLine
 10
-856.948884
 20
604.117271
 30
0.0
 11
-949.281554
 21
604.117271
 31
0.0
  0
LINE
  5
25EC
100
AcDbEntity
  8
外形
  6
CONTINUOUS
100
AcDbLine
 10
-856.148884
 20
604.917271
 30
0.0
 11
-856.948884
 21
604.117271
 31
0.0
  0
LINE
  5
25ED
100
AcDbEntity
  8
外形
  6
CONTINUOUS
100
AcDbLine
 10
-857.948884
 20
610.718292
 30
0.0
 11
-949.281554
 21
610.718292
 31
0.0
  0
LINE
  5
25EE
100
AcDbEntity
  8
外形
  6
CONTINUOUS
100
AcDbLine
 10
-857.948884
 20
620.516251
 30
0.0
 11
-949.281554
 21
620.516251
 31
0.0
  0
LINE
  5
25F3
100
AcDbEntity
  8
外形
  6
CONTINUOUS
100
AcDbLine
 10
-856.948884
 20
627.117271
 30
0.0
 11
-856.148884
 21
626.317271
 31
0.0
  0
LINE
  5
25F4
100
AcDbEntity
  8
外形
  6
CONTINUOUS
100
AcDbLine
 10
-857.948884
 20
627.117271
 30
0.0
 11
-857.948884
 21
620.516251
 31
0.0
  0
ARC
  5
25F5
100
AcDbEntity
  8
外形
  6
CONTINUOUS
100
AcDbCircle
 10
-870.485773
 20
615.617271
 30
0.0
 40
13.460074
100
AcDbArc
 50
338.656173
 51
21.343827
  0
LINE
  5
25F6
100
AcDbEntity
  8
外形
  6
CONTINUOUS
100
AcDbLine
 10
-856.948884
 20
627.117271
 30
0.0
 11
-949.281554
 21
627.117271
 31
0.0
  0
LINE
  5
25F7
100
AcDbEntity
  8
外形
  6
CONTINUOUS
100
AcDbLine
 10
-949.281554
 20
627.117271
 30
0.0
 11
-1031.148884
 21
627.117271
 31
0.0
  0
LINE
  5
25F9
100
AcDbEntity
  8
外形
  6
CONTINUOUS
100
AcDbLine
 10
-857.948884
 20
703.312321
 30
0.0
 11
-929.140944
 21
703.312321
 31
0.0
  0
LINE
  5
25FA
100
AcDbEntity
  8
外形
  6
CONTINUOUS
100
AcDbLine
 10
-857.948884
 20
713.11028
 30
0.0
 11
-929.140944
 21
713.11028
 31
0.0
  0
LINE
  5
2602
100
AcDbEntity
  8
外形
  6
CONTINUOUS
100
AcDbLine
 10
-1156.9123
 20
708.2113
 30
0.0
 11
-1156.9123
 21
697.137006
 31
0.0
  0
ARC
  5
2604
100
AcDbEntity
  8
外形
  6
CONTINUOUS
100
AcDbCircle
 10
-1144.4123
 20
708.2113
 30
0.0
 40
16.7
100
AcDbArc
 50
221.539132
 51
242.621572
  0
LINE
  5
260B
100
AcDbEntity
  8
外形
  6
CONTINUOUS
100
AcDbLine
 10
-1138.526337
 20
718.902579
 30
0.0
 11
-1144.4123
 21
691.2113
 31
0.0
  0
LINE
  5
260C
100
AcDbEntity
  8
外形
  6
CONTINUOUS
100
AcDbLine
 10
-1144.4123
 20
691.2113
 30
0.0
 11
-1152.178792
 21
692.862119
 31
0.0
  0
LINE
  5
260D
100
AcDbEntity
  8
外形
  6
CONTINUOUS
100
AcDbLine
 10
-1146.728507
 20
703.208736
 30
0.0
 11
-1149.068283
 21
692.20096
 31
0.0
  0
LINE
  5
260E
100
AcDbEntity
  8
外形
  6
CONTINUOUS
100
AcDbLine
 10
-1149.839017
 20
703.869895
 30
0.0
 11
-1152.178792
 21
692.862119
 31
0.0
  0
LINE
  5
260F
100
AcDbEntity
  8
外形
  6
CONTINUOUS
100
AcDbLine
 10
-1132.9123
 20
713.11028
 30
0.0
 11
-1132.9123
 21
703.312321
 31
0.0
  0
ARC
  5
2610
100
AcDbEntity
  8
外形
  6
CONTINUOUS
100
AcDbCircle
 10
-1144.4123
 20
708.2113
 30
0.0
 40
12.5
100
AcDbArc
 50
23.073918
 51
180.0
  0
ARC
  5
2611
100
AcDbEntity
  8
外形
  6
CONTINUOUS
100
AcDbCircle
 10
-1144.511003
 20
708.039548
 30
0.0
 40
12.402486
100
AcDbArc
 50
20.740853
 51
179.20653
  0
LINE
  5
2615
100
AcDbEntity
  8
外形
  6
CONTINUOUS
100
AcDbLine
 10
-1139.51332
 20
696.7113
 30
0.0
 11
-1142.579389
 21
696.7113
 31
0.0
  0
ARC
  5
2616
100
AcDbEntity
  8
外形
  6
CONTINUOUS
100
AcDbCircle
 10
-1144.4123
 20
708.2113
 30
0.0
 40
12.25
100
AcDbArc
 50
290.153074
 51
339.846926
  0
ARC
  5
2617
100
AcDbEntity
  8
外形
  6
CONTINUOUS
100
AcDbCircle
 10
-1144.4123
 20
708.2113
 30
0.0
 40
12.5
100
AcDbArc
 50
293.073918
 51
336.926082
  0
LINE
  5
2618
100
AcDbEntity
  8
外形
  6
CONTINUOUS
100
AcDbLine
 10
-1142.072525
 20
702.219077
 30
0.0
 11
-1149.839017
 21
703.869895
 31
0.0
  0
LINE
  5
2619
100
AcDbEntity
  8
外形
  6
CONTINUOUS
100
AcDbLine
 10
-1139.877691
 20
712.544959
 30
0.0
 11
-1155.657961
 21
713.668874
 31
0.0
  0
LINE
  5
2621
100
AcDbEntity
  8
外形
  6
CONTINUOUS
100
AcDbLine
 10
-1140.668275
 20
707.549768
 30
0.0
 11
-1142.579389
 21
696.7113
 31
0.0
  0
LINE
  5
2622
100
AcDbEntity
  8
外形
  6
CONTINUOUS
100
AcDbLine
 10
-1142.579389
 20
696.7113
 30
0.0
 11
-1144.4123
 21
691.2113
 31
0.0
  0
LINE
  5
2624
100
AcDbEntity
  8
外形
  6
CONTINUOUS
100
AcDbLine
 10
-1140.668275
 20
707.549768
 30
0.0
 11
-1142.458116
 21
702.294028
 31
0.0
  0
LINE
  5
2628
100
AcDbEntity
  8
外形
  6
CONTINUOUS
100
AcDbLine
 10
-1056.148884
 20
615.617271
 30
0.0
 11
-1046.371304
 21
616.472699
 31
0.0
  0
LINE
  5
2629
100
AcDbEntity
  8
外形
  6
CONTINUOUS
100
AcDbLine
 10
-1056.148884
 20
615.617271
 30
0.0
 11
-1055.734023
 21
610.875385
 31
0.0
  0
LINE
  5
262A
100
AcDbEntity
  8
外形
  6
CONTINUOUS
100
AcDbLine
 10
-1046.371304
 20
616.472699
 30
0.0
 11
-1045.679287
 21
608.562913
 31
0.0
  0
LINE
  5
262B
100
AcDbEntity
  8
外形
  6
CONTINUOUS
100
AcDbLine
 10
-1055.734023
 20
610.875385
 30
0.0
 11
-1045.956443
 21
611.730812
 31
0.0
  0
LINE
  5
262C
100
AcDbEntity
  8
外形
  6
CONTINUOUS
100
AcDbLine
 10
-1055.187909
 20
607.731016
 30
0.0
 11
-1045.679287
 21
608.562913
 31
0.0
  0
LINE
  5
262D
100
AcDbEntity
  8
外形
  6
CONTINUOUS
100
AcDbLine
 10
-1055.533454
 20
618.281046
 30
0.0
 11
-1044.522481
 21
619.244382
 31
0.0
  0
LINE
  5
262E
100
AcDbEntity
  8
外形
  6
CONTINUOUS
100
AcDbLine
 10
-1046.371304
 20
616.472699
 30
0.0
 11
-1045.86657
 21
619.126789
 31
0.0
  0
LINE
  5
262F
100
AcDbEntity
  8
外形
  6
CONTINUOUS
100
AcDbLine
 10
-1056.148884
 20
615.617271
 30
0.0
 11
-1055.533454
 21
618.281046
 31
0.0
  0
LINE
  5
2631
100
AcDbEntity
  8
外形
  6
CONTINUOUS
100
AcDbLine
 10
-1046.09185
 20
617.942176
 30
0.0
 11
-1043.356773
 21
618.181464
 31
0.0
  0
ARC
  5
2635
100
AcDbEntity
  8
外形
  6
CONTINUOUS
100
AcDbCircle
 10
-1044.266791
 20
622.215552
 30
0.0
 40
4.135457
100
AcDbArc
 50
282.71212
 51
293.768808
  0
ARC
  5
2636
100
AcDbEntity
  8
外形
  6
CONTINUOUS
100
AcDbCircle
 10
-1044.124402
 20
607.877832
 30
0.0
 40
11.373518
100
AcDbArc
 50
82.884644
 51
92.005788
  0
ARC
  5
2637
100
AcDbEntity
  8
外形
  6
CONTINUOUS
100
AcDbCircle
 10
-1042.727816
 20
618.786272
 30
0.0
 40
0.377686
100
AcDbArc
 50
289.779497
 51
88.145521
  0
LINE
  5
263B
100
AcDbEntity
  8
外形
  6
CONTINUOUS
100
AcDbLine
 10
-1046.335491
 20
616.661018
 30
0.0
 11
-1038.511388
 21
617.345538
 31
0.0
  0
LINE
  5
2650
100
AcDbEntity
  8
外形
  6
CONTINUOUS
100
AcDbLine
 10
-1055.017459
 20
619.485681
 30
0.0
 11
-1038.511388
 21
620.929775
 31
0.0
  0
LINE
  5
2656
100
AcDbEntity
  8
外形
  6
CONTINUOUS
100
AcDbLine
 10
-1055.465064
 20
610.898916
 30
0.0
 11
-1055.187909
 21
607.731016
 31
0.0
  0
ELLIPSE
  5
265D
100
AcDbEntity
  8
外形
  6
CONTINUOUS
100
AcDbEllipse
 10
-1051.003748
 20
617.387531
 30
0.0
 11
-2.042218123126263
 21
-0.1721590132774301
 31
0.0
210
0.0
220
0.0
230
1.0
 40
0.223331
 41
0.0
 42
6.283185307179586
  0
LINE
  5
265E
100
AcDbEntity
  8
外形
  6
CONTINUOUS
100
AcDbLine
 10
-1046.569483
 20
608.485031
 30
0.0
 11
-1046.569483
 21
603.117271
 31
0.0
  0
LINE
  5
265F
100
AcDbEntity
  8
外形
  6
CONTINUOUS
100
AcDbLine
 10
-1054.958641
 20
607.751075
 30
0.0
 11
-1054.784258
 21
603.117271
 31
0.0
  0
LINE
  5
2660
100
AcDbEntity
  8
外形
  6
CONTINUOUS
100
AcDbLine
 10
-1036.224074
 20
603.117271
 30
0.0
 11
-1054.784258
 21
603.117271
 31
0.0
  0
TEXT
  5
33E0
100
AcDbEntity
  8
寸法
  6
CONTINUOUS
 62
     3
100
AcDbText
 10
-1109.68307
 20
743.943294
 30
0.0
 40
4.0
  1
%%C34　最小加工径
100
AcDbText
  0
LINE
  5
33E1
100
AcDbEntity
  8
寸法
  6
CONTINUOUS
 62
     1
100
AcDbLine
 10
-1112.378688
 20
742.349789
 30
0.0
 11
-1068.784341
 21
742.349789
 31
0.0
  0
LINE
  5
33E2
100
AcDbEntity
  8
寸法
  6
BYBLOCK
 62
     1
100
AcDbLine
 10
-1112.378688
 20
742.349789
 30
0.0
 11
-1131.411203
 21
722.066678
 31
0.0
  0
LINE
  5
33E3
100
AcDbEntity
  8
寸法
  6
BYBLOCK
 62
     1
100
AcDbLine
 10
-1157.413396
 20
694.355923
 30
0.0
 11
-1158.610866
 21
693.079769
 31
0.0
  0
INSERT
  5
33E4
100
AcDbEntity
  8
寸法
  6
BYBLOCK
 62
     1
100
AcDbBlockReference
  2
_OPEN30
 10
-1156.04486
 20
695.814383
 30
0.0
 41
2.0
 42
2.0
 43
2.0
 50
46.821915
  0
ARC
  5
33E5
100
AcDbEntity
  8
寸法
  6
PHANTOM
 62
     1
100
AcDbCircle
 10
-1144.4123
 20
708.2113
 30
0.0
 40
17.0
100
AcDbArc
 50
273.637536
 51
267.678749
  0
INSERT
  5
33E6
100
AcDbEntity
  8
寸法
  6
BYBLOCK
 62
     1
100
AcDbBlockReference
  2
_OPEN30
 10
-1132.77974
 20
720.608217
 30
0.0
 41
2.0
 42
2.0
 43
2.0
 50
226.821915
  0
LINE
  5
3457
100
AcDbEntity
  8
寸法
  6
BYBLOCK
 62
     1
100
AcDbLine
 10
-1156.04486
 20
695.814383
 30
0.0
 11
-1132.77974
 21
720.608217
 31
0.0
  0
POINT
  5
346B
100
AcDbEntity
  8
DEFPOINTS
  6
BYBLOCK
 62
     0
100
AcDbPoint
 10
-1144.4123
 20
688.436679
 30
0.0
  0
POINT
  5
346C
100
AcDbEntity
  8
DEFPOINTS
  6
BYBLOCK
 62
     0
100
AcDbPoint
 10
-1147.805878
 20
689.478854
 30
0.0
  0
DIMENSION
  5
34A1
100
AcDbEntity
  8
寸法
  6
CONTINUOUS
 62
     7
100
AcDbDimension
  2
*D37
 10
-937.781554
 20
673.175646
 30
0.0
 11
-949.281554
 21
675.675646
 31
0.0
 12
-381.905555
 22
10.45849
 32
0.0
 70
    32
  3
STANDARD
100
AcDbAlignedDimension
 13
-960.781554
 23
703.312321
 33
0.0
 14
-937.781554
 24
703.312321
 34
0.0
100
AcDbRotatedDimension
1001
ACAD
1000
DSTYLE
1002
{
1070
    77
1070
     3
1070
    40
1040
1.0
1070
   287
1070
     4
1002
}
  0
DIMENSION
  5
34A2
100
AcDbEntity
  8
寸法
  6
CONTINUOUS
 62
     7
100
AcDbDimension
  2
*D36
 10
-956.120091
 20
697.747821
 30
0.0
 11
-937.51927
 21
726.208486
 31
0.0
 12
-381.905555
 22
10.45849
 32
0.0
 70
   163
  3
STANDARD
100
AcDbDiametricDimension
 15
-942.443017
 25
718.67478
 35
0.0
 40
0.0
1001
ACAD
1000
DSTYLE
1002
{
1070
   288
1070
     1
1070
    77
1070
     3
1070
    76
1070
     1
1070
    75
1070
     1
1070
    40
1040
1.0
1070
   287
1070
     4
1002
}
  0
LINE
  5
34A3
100
AcDbEntity
  8
外形
  6
CENTER
 62
     1
100
AcDbLine
 10
-949.281554
 20
729.4613
 30
0.0
 11
-949.281554
 21
686.9613
 31
0.0
  0
DIMENSION
  5
34E7
100
AcDbEntity
  8
寸法
  6
CONTINUOUS
 62
     7
100
AcDbDimension
  2
*D39
 10
-1036.14105
 20
582.65423
 30
0.0
 11
-1046.142759
 21
585.15423
 31
0.0
 70
    32
  3
STANDARD
100
AcDbAlignedDimension
 13
-1056.144468
 23
615.617271
 33
0.0
 14
-1036.14105
 24
604.117271
 34
0.0
100
AcDbRotatedDimension
1001
ACAD
1000
DSTYLE
1002
{
1070
    77
1070
     3
1070
    40
1040
1.0
1070
   287
1070
     4
1002
}
  0
LINE
  5
34E8
100
AcDbEntity
  8
外形
  6
CONTINUOUS
100
AcDbLine
 10
-1036.14105
 20
604.117271
 30
0.0
 11
-1036.224074
 21
603.117271
 31
0.0
  0
DIMENSION
  5
355A
100
AcDbEntity
  8
寸法
  6
CONTINUOUS
 62
     7
100
AcDbDimension
  2
*D40
 10
-856.148884
 20
658.55387
 30
0.0
 11
-956.149433
 21
661.05387
 31
0.0
 70
    32
  3
STANDARD
100
AcDbAlignedDimension
 13
-1056.149982
 23
692.0113
 33
0.0
 14
-856.148884
 24
697.5113
 34
0.0
100
AcDbRotatedDimension
1001
ACAD
1000
DSTYLE
1002
{
1070
    77
1070
     3
1070
    40
1040
1.0
1070
   287
1070
     4
1002
}
  0
DIMENSION
  5
355C
100
AcDbEntity
  8
寸法
  6
CONTINUOUS
 62
     7
100
AcDbDimension
  2
*D41
 10
-1002.269445
 20
696.7113
 30
0.0
 11
-1002.583364
 21
691.313815
 31
0.0
 70
   160
  3
STANDARD
100
AcDbAlignedDimension
 13
-1055.348884
 23
691.2113
 33
0.0
 14
-1005.336836
 24
696.7113
 34
0.0
 50
90.0
100
AcDbRotatedDimension
1001
ACAD
1000
DSTYLE
1002
{
1070
    77
1070
     3
1070
    40
1040
1.0
1070
   287
1070
     4
1002
}
  0
DIMENSION
  5
355E
100
AcDbEntity
  8
寸法
  6
CONTINUOUS
 62
     7
100
AcDbDimension
  2
*D43
 10
-1074.898855
 20
708.2113
 30
0.0
 11
-1077.398855
 21
699.7113
 31
0.0
 70
    32
  3
STANDARD
100
AcDbAlignedDimension
 13
-1055.348884
 23
691.2113
 33
0.0
 14
-1070.204514
 24
708.2113
 34
0.0
 50
90.0
100
AcDbRotatedDimension
1001
ACAD
1000
DSTYLE
1002
{
1070
    77
1070
     3
1070
    40
1040
1.0
1070
   287
1070
     4
1002
}
  0
DIMENSION
  5
355F
100
AcDbEntity
  8
寸法
  6
CONTINUOUS
 62
     7
100
AcDbDimension
  2
*D42
 10
-1074.898855
 20
691.2113
 30
0.0
 11
-1081.961535
 21
718.36682
 31
0.0
 12
28.746966
 22
-346.817217
 32
0.0
 70
    34
  3
STANDARD
100
AcDb2LineAngularDimension
 13
-1055.438605
 23
705.585196
 33
0.0
 14
-1056.147788
 24
692.053169
 34
0.0
 15
-1055.348884
 25
691.2113
 35
0.0
 16
-1072.593629
 26
722.058451
 36
0.0
1001
ACAD
1000
DSTYLE
1002
{
1070
    77
1070
     3
1070
    40
1040
1.0
1070
   287
1070
     4
1002
}
  0
LINE
  5
36CE
100
AcDbEntity
  8
寸法
  6
CONTINUOUS
 62
     1
100
AcDbLine
 10
-1070.085959
 20
614.398296
 30
0.0
 11
-1057.149205
 21
615.530116
 31
0.0
  0
LINE
  5
37D7
100
AcDbEntity
  8
外形
  6
CONTINUOUS
100
AcDbLine
 10
-1055.734023
 20
610.875385
 30
0.0
 11
-1045.956443
 21
611.730812
 31
0.0
  0
LINE
  5
37D8
100
AcDbEntity
  8
外形
  6
CONTINUOUS
100
AcDbLine
 10
-1146.728507
 20
703.208736
 30
0.0
 11
-1149.068283
 21
692.20096
 31
0.0
  0
DIMENSION
  5
380D
100
AcDbEntity
  8
参考
  6
CONTINUOUS
 62
     7
100
AcDbDimension
  2
*D45
 10
-1069.84605
 20
615.617271
 30
0.0
 11
-1090.909777
 21
623.624359
 31
0.0
 70
    34
  3
STANDARD
100
AcDb2LineAngularDimension
 13
-1056.148884
 23
615.617271
 33
0.0
 14
-1046.371304
 24
616.472699
 34
0.0
 15
-840.57306
 25
615.617271
 35
0.0
 16
-1093.995804
 26
613.412939
 36
0.0
1001
ACAD
1000
DSTYLE
1002
{
1070
    77
1070
     3
1070
    40
1040
1.0
1070
   271
1070
     3
1002
}
  0
DIMENSION
  5
382F
100
AcDbEntity
  8
外形
  6
CONTINUOUS
 62
     7
100
AcDbDimension
  2
*D47
 10
-1144.4123
 20
691.2113
 30
0.0
 11
-1156.869654
 21
669.152986
 31
0.0
 70
    34
  3
STANDARD
100
AcDb2LineAngularDimension
 13
-1144.4123
 23
726.772828
 33
0.0
 14
-1144.4123
 24
663.880035
 34
0.0
 15
-1138.526337
 25
718.902579
 35
0.0
 16
-1146.306885
 26
664.117475
 36
0.0
1001
ACAD
1000
DSTYLE
1002
{
1070
    77
1070
     3
1070
    40
1040
1.0
1070
   271
1070
     3
1002
}
  0
ENDSEC
  0
SECTION
  2
OBJECTS
  0
DICTIONARY
  5
1E
100
AcDbDictionary
  3
ACAD_GROUP
350
1C
  3
ACAD_MLINESTYLE
350
1D
  3
ACDBVARIABLEDICTIONARY
350
147A
  3
DRAWINGVARIABLESDICT
350
C58
  0
DICTIONARY
  5
38
100
AcDbDictionary
280
     1
  3
ACAD_XREC_ROUNDTRIP
360
39
  0
DICTIONARY
  5
22
100
AcDbDictionary
280
     1
  3
ACAD_XREC_ROUNDTRIP
360
23
  0
DICTIONARY
  5
3
100
AcDbDictionary
280
     1
  3
ACAD_LAYOUTSELFREF
360
4
  0
DICTIONARY
  5
A
100
AcDbDictionary
280
     1
  3
ACAD_LAYOUTSELFREF
360
B
  0
DICTIONARY
  5
1C
102
{ACAD_REACTORS
330
1E
102
}
100
AcDbDictionary
  0
DICTIONARY
  5
1D
102
{ACAD_REACTORS
330
1E
102
}
100
AcDbDictionary
  3
STANDARD
350
20
  0
DICTIONARY
  5
147A
102
{ACAD_REACTORS
330
1E
102
}
100
AcDbDictionary
  3
SORTENTS
350
147B
  0
DICTIONARY
  5
C58
102
{ACAD_REACTORS
330
1E
102
}
100
AcDbDictionary
1001
DRAWINGVARIABLESXDATA
1000
POLARMODE
1000
0
  0
XRECORD
  5
39
102
{ACAD_REACTORS
330
38
102
}
100
AcDbXrecord
102
PLOTBIT
280
     0
  0
XRECORD
  5
23
102
{ACAD_REACTORS
330
22
102
}
100
AcDbXrecord
102
ACADR14ROUNDTRIP
1000
DSTYLE
1002
{
1070
   341
340
0
1070
   343
340
0
1070
   344
340
0
1002
}
  0
XRECORD
  5
4
102
{ACAD_REACTORS
330
3
102
}
100
AcDbXrecord
340
2
  0
XRECORD
  5
B
102
{ACAD_REACTORS
330
A
102
}
100
AcDbXrecord
340
9
  0
MLINESTYLE
  5
20
102
{ACAD_REACTORS
330
1D
102
}
100
AcDbMlineStyle
  2
STANDARD
 70
     0
  3

 62
     0
 51
90.0
 52
90.0
 71
     2
 49
0.5
 62
   256
  6
BYLAYER
 49
-0.5
 62
   256
  6
BYLAYER
  0
DICTIONARYVAR
  5
147B
102
{ACAD_REACTORS
330
147A
102
}
100
DictionaryVariables
280
     0
  1
96
  0
ENDSEC
  0
EOF
