  0
SECTION
  2
HEADER
  9
$ACADVER
  1
AC1014
  9
$ACADMAINTVER
 70
     0
  9
$DWGCODEPAGE
  3
ANSI_932
  9
$INSBASE
 10
-587.250952
 20
747.890188
 30
0.0
  9
$EXTMIN
 10
-33.765866
 20
150.213866
 30
0.0
  9
$EXTMAX
 10
191.164597
 20
249.421033
 30
0.0
  9
$LIMMIN
 10
-587.250952
 20
327.890188
  9
$LIMMAX
 10
600.749048
 20
957.890188
  9
$ORTHOMODE
 70
     1
  9
$REGENMODE
 70
     1
  9
$FILLMODE
 70
     1
  9
$QTEXTMODE
 70
     0
  9
$MIRRTEXT
 70
     1
  9
$DRAGMODE
 70
     2
  9
$LTSCALE
 40
5.0
  9
$OSMODE
 70
    37
  9
$ATTMODE
 70
     1
  9
$TEXTSIZE
 40
5.0
  9
$TRACEWID
 40
0.05
  9
$TEXTSTYLE
  7
STANDARD
  9
$CLAYER
  8
外形
  9
$CELTYPE
  6
CONTINUOUS
  9
$CECOLOR
 62
   256
  9
$CELTSCALE
 40
1.0
  9
$DELOBJ
 70
     1
  9
$DISPSILH
 70
     0
  9
$DIMSCALE
 40
1.0
  9
$DIMASZ
 40
2.0
  9
$DIMEXO
 40
1.0
  9
$DIMDLI
 40
8.0
  9
$DIMRND
 40
0.0
  9
$DIMDLE
 40
0.0
  9
$DIMEXE
 40
2.0
  9
$DIMTP
 40
0.0
  9
$DIMTM
 40
0.0
  9
$DIMTXT
 40
3.0
  9
$DIMCEN
 40
-1.0
  9
$DIMTSZ
 40
0.0
  9
$DIMTOL
 70
     0
  9
$DIMLIM
 70
     0
  9
$DIMTIH
 70
     0
  9
$DIMTOH
 70
     0
  9
$DIMSE1
 70
     0
  9
$DIMSE2
 70
     0
  9
$DIMTAD
 70
     1
  9
$DIMZIN
 70
     8
  9
$DIMBLK
  1

  9
$DIMASO
 70
     1
  9
$DIMSHO
 70
     1
  9
$DIMPOST
  1

  9
$DIMAPOST
  1

  9
$DIMALT
 70
     0
  9
$DIMALTD
 70
     2
  9
$DIMALTF
 40
25.4
  9
$DIMLFAC
 40
1.0
  9
$DIMTOFL
 70
     1
  9
$DIMTVP
 40
0.0
  9
$DIMTIX
 70
     0
  9
$DIMSOXD
 70
     0
  9
$DIMSAH
 70
     1
  9
$DIMBLK1
  1
_OPEN30
  9
$DIMBLK2
  1
_OPEN30
  9
$DIMSTYLE
  2
STANDARD
  9
$DIMCLRD
 70
     1
  9
$DIMCLRE
 70
     1
  9
$DIMCLRT
 70
     3
  9
$DIMTFAC
 40
0.5
  9
$DIMGAP
 40
1.0
  9
$DIMJUST
 70
     0
  9
$DIMSD1
 70
     0
  9
$DIMSD2
 70
     0
  9
$DIMTOLJ
 70
     1
  9
$DIMTZIN
 70
    13
  9
$DIMALTZ
 70
     0
  9
$DIMALTTZ
 70
     0
  9
$DIMFIT
 70
     0
  9
$DIMUPT
 70
     0
  9
$DIMUNIT
 70
     2
  9
$DIMDEC
 70
     2
  9
$DIMTDEC
 70
     3
  9
$DIMALTU
 70
     2
  9
$DIMALTTD
 70
     2
  9
$DIMTXSTY
  7
STANDARD
  9
$DIMAUNIT
 70
     0
  9
$LUNITS
 70
     2
  9
$LUPREC
 70
     0
  9
$SKETCHINC
 40
0.1
  9
$FILLETRAD
 40
0.0
  9
$AUNITS
 70
     0
  9
$AUPREC
 70
     0
  9
$MENU
  1
acad
  9
$ELEVATION
 40
0.0
  9
$PELEVATION
 40
0.0
  9
$THICKNESS
 40
0.0
  9
$LIMCHECK
 70
     0
  9
$BLIPMODE
 70
     0
  9
$CHAMFERA
 40
0.0
  9
$CHAMFERB
 40
0.0
  9
$CHAMFERC
 40
0.0
  9
$CHAMFERD
 40
0.0
  9
$SKPOLY
 70
     0
  9
$TDCREATE
 40
2450751.535399305
  9
$TDUPDATE
 40
2451995.687465278
  9
$TDINDWG
 40
1.8510949074
  9
$TDUSRTIMER
 40
1.8510949074
  9
$USRTIMER
 70
     1
  9
$ANGBASE
 50
0.0
  9
$ANGDIR
 70
     0
  9
$PDMODE
 70
    32
  9
$PDSIZE
 40
0.0
  9
$PLINEWID
 40
0.0
  9
$COORDS
 70
     2
  9
$SPLFRAME
 70
     0
  9
$SPLINETYPE
 70
     5
  9
$SPLINESEGS
 70
     8
  9
$ATTDIA
 70
     0
  9
$ATTREQ
 70
     1
  9
$HANDLING
 70
     1
  9
$HANDSEED
  5
1FBD
  9
$SURFTAB1
 70
     6
  9
$SURFTAB2
 70
     6
  9
$SURFTYPE
 70
     6
  9
$SURFU
 70
     6
  9
$SURFV
 70
     6
  9
$UCSNAME
  2

  9
$UCSORG
 10
40.53800450572526
 20
146.9196145921314
 30
0.0
  9
$UCSXDIR
 10
1.0
 20
0.0
 30
0.0
  9
$UCSYDIR
 10
0.0
 20
1.0
 30
0.0
  9
$PUCSNAME
  2

  9
$PUCSORG
 10
0.0
 20
0.0
 30
0.0
  9
$PUCSXDIR
 10
1.0
 20
0.0
 30
0.0
  9
$PUCSYDIR
 10
0.0
 20
1.0
 30
0.0
  9
$USERI1
 70
     0
  9
$USERI2
 70
     0
  9
$USERI3
 70
     0
  9
$USERI4
 70
     0
  9
$USERI5
 70
     0
  9
$USERR1
 40
0.0
  9
$USERR2
 40
0.0
  9
$USERR3
 40
0.0
  9
$USERR4
 40
0.0
  9
$USERR5
 40
0.0
  9
$WORLDVIEW
 70
     1
  9
$SHADEDGE
 70
     3
  9
$SHADEDIF
 70
    70
  9
$TILEMODE
 70
     1
  9
$MAXACTVP
 70
    16
  9
$PINSBASE
 10
0.0
 20
0.0
 30
0.0
  9
$PLIMCHECK
 70
     0
  9
$PEXTMIN
 10
1.000000E+20
 20
1.000000E+20
 30
1.000000E+20
  9
$PEXTMAX
 10
-1.000000E+20
 20
-1.000000E+20
 30
-1.000000E+20
  9
$PLIMMIN
 10
0.0
 20
0.0
  9
$PLIMMAX
 10
12.0
 20
9.0
  9
$UNITMODE
 70
     0
  9
$VISRETAIN
 70
     0
  9
$PLINEGEN
 70
     0
  9
$PSLTSCALE
 70
     1
  9
$TREEDEPTH
 70
  3020
  9
$PICKSTYLE
 70
     1
  9
$CMLSTYLE
  2
STANDARD
  9
$CMLJUST
 70
     0
  9
$CMLSCALE
 40
1.0
  9
$PROXYGRAPHICS
 70
     1
  9
$MEASUREMENT
 70
     0
  0
ENDSEC
  0
SECTION
  2
CLASSES
  0
CLASS
  1
LWPOLYLINE
  2
AcDbPolyline
  3
"AutoCAD"
 90
        0
280
     0
281
     1
  0
CLASS
  1
ACDBDICTIONARYWDFLT
  2
AcDbDictionaryWithDefault
  3
AutoCAD 2000
 90
        0
280
     1
281
     0
  0
CLASS
  1
ACDBPLACEHOLDER
  2
AcDbPlaceHolder
  3
AutoCAD 2000
 90
        0
280
     1
281
     0
  0
CLASS
  1
LAYOUT
  2
AcDbLayout
  3
AutoCAD 2000
 90
        0
280
     1
281
     0
  0
CLASS
  1
LONG_TRANSACTION
  2
AcDbLongTransaction
  3
AutoCAD 2000
 90
        0
280
     1
281
     0
  0
CLASS
  1
LWPOLYLINE
  2
AcDbPolyline
  3
"AutoCAD"
 90
        0
280
     0
281
     1
  0
CLASS
  1
HATCH
  2
AcDbHatch
  3
"ACAD_SEDONA"
 90
        0
280
     0
281
     1
  0
CLASS
  1
XRECORD
  2
AcDbXrecord
  3
"<Built In>"
 90
        0
280
     0
281
     0
  0
CLASS
  1
DICTIONARYVAR
  2
AcDbDictionaryVar
  3
"AutoCAD"
 90
        0
280
     0
281
     0
  0
ENDSEC
  0
SECTION
  2
TABLES
  0
TABLE
  2
VPORT
  5
16
100
AcDbSymbolTable
 70
     1
  0
VPORT
  5
1FB8
100
AcDbSymbolTableRecord
100
AcDbViewportTableRecord
  2
*ACTIVE
 70
     0
 10
0.0
 20
0.0
 11
1.0
 21
1.0
 12
80.766276
 22
199.663454
 13
0.0
 23
0.0
 14
1.0
 24
1.0
 15
10.0
 25
10.0
 16
0.0
 26
0.0
 36
1.0
 17
0.0
 27
0.0
 37
0.0
 40
161.288874
 41
1.710425
 42
50.0
 43
0.0
 44
0.0
 50
0.0
 51
0.0
 71
     0
 72
   100
 73
     1
 74
     1
 75
     0
 76
     0
 77
     0
 78
     2
  0
ENDTAB
  0
TABLE
  2
LTYPE
  5
11
100
AcDbSymbolTable
 70
     2
  0
LTYPE
  5
12
100
AcDbSymbolTableRecord
100
AcDbLinetypeTableRecord
  2
BYBLOCK
 70
     0
  3

 72
    65
 73
     0
 40
0.0
  0
LTYPE
  5
13
100
AcDbSymbolTableRecord
100
AcDbLinetypeTableRecord
  2
BYLAYER
 70
     0
  3

 72
    65
 73
     0
 40
0.0
  0
LTYPE
  5
7
100
AcDbSymbolTableRecord
100
AcDbLinetypeTableRecord
  2
CONTINUOUS
 70
     0
  3
Solid line
 72
    65
 73
     0
 40
0.0
  0
LTYPE
  5
AA
100
AcDbSymbolTableRecord
100
AcDbLinetypeTableRecord
  2
CENTER
 70
     0
  3
Center ____ _ ____ _ ____ _ ____ _ ____ _ ____
 72
    65
 73
     4
 40
2.0
 49
1.25
 74
     0
 49
-0.25
 74
     0
 49
0.25
 74
     0
 49
-0.25
 74
     0
  0
ENDTAB
  0
TABLE
  2
LAYER
  5
E
100
AcDbSymbolTable
 70
     5
  0
LAYER
  5
6
100
AcDbSymbolTableRecord
100
AcDbLayerTableRecord
  2
0
 70
     0
 62
     7
  6
CONTINUOUS
  0
LAYER
  5
2C
100
AcDbSymbolTableRecord
100
AcDbLayerTableRecord
  2
外形
 70
     0
 62
     3
  6
CONTINUOUS
  0
LAYER
  5
37
102
{ACAD_XDICTIONARY
360
38
102
}
100
AcDbSymbolTableRecord
100
AcDbLayerTableRecord
  2
DEFPOINTS
 70
     0
 62
     7
  6
CONTINUOUS
  0
LAYER
  5
1F
100
AcDbSymbolTableRecord
100
AcDbLayerTableRecord
  2
寸法
 70
     0
 62
     1
  6
CONTINUOUS
  0
LAYER
  5
673
100
AcDbSymbolTableRecord
100
AcDbLayerTableRecord
  2
参考
 70
     0
 62
     2
  6
CONTINUOUS
  0
ENDTAB
  0
TABLE
  2
STYLE
  5
F
100
AcDbSymbolTable
 70
     1
  0
STYLE
  5
10
100
AcDbSymbolTableRecord
100
AcDbTextStyleTableRecord
  2
STANDARD
 70
     0
 40
0.0
 41
1.0
 50
0.0
 71
     0
 42
5.0
  3
MONOTXT
  4
BIGFONT
  0
ENDTAB
  0
TABLE
  2
VIEW
  5
14
100
AcDbSymbolTable
 70
     0
  0
ENDTAB
  0
TABLE
  2
UCS
  5
15
100
AcDbSymbolTable
 70
     0
  0
ENDTAB
  0
TABLE
  2
APPID
  5
18
100
AcDbSymbolTable
 70
     2
  0
APPID
  5
19
100
AcDbSymbolTableRecord
100
AcDbRegAppTableRecord
  2
ACAD
 70
     0
  0
APPID
  5
C59
100
AcDbSymbolTableRecord
100
AcDbRegAppTableRecord
  2
DRAWINGVARIABLESXDATA
 70
     0
  0
ENDTAB
  0
TABLE
  2
DIMSTYLE
  5
1A
100
AcDbSymbolTable
 70
     2
  0
DIMSTYLE
105
21
102
{ACAD_XDICTIONARY
360
22
102
}
102
{ACAD_REACTORS
330
1D75
330
1D99
330
1DA9
330
1DC7
330
1DE0
330
1DED
102
}
100
AcDbSymbolTableRecord
100
AcDbDimStyleTableRecord
  2
STANDARD
 70
     0
  3

  4

  5

  6
_OPEN30
  7
_OPEN30
 40
0.0
 41
2.0
 42
1.0
 43
8.0
 44
2.0
 45
0.0
 46
0.0
 47
0.0
 48
0.0
140
3.0
141
-1.0
142
0.0
143
25.4
144
1.0
145
0.0
146
1.0
147
1.0
 71
     0
 72
     0
 73
     0
 74
     0
 75
     0
 76
     0
 77
     1
 78
     8
170
     0
171
     2
172
     1
173
     1
174
     0
175
     0
176
     1
177
     1
178
     3
270
     2
271
     2
272
     2
273
     2
274
     2
340
10
275
     0
280
     0
281
     0
282
     0
283
     1
284
     8
285
     0
286
     0
287
     3
288
     0
  0
DIMSTYLE
105
674
100
AcDbSymbolTableRecord
100
AcDbDimStyleTableRecord
  2
参考寸法
 70
     0
  3

  4

  5

  6
_DOTSMALL
  7
_DOTSMALL
 40
1.0
 41
2.0
 42
1.0
 43
8.0
 44
2.0
 45
0.0
 46
0.0
 47
0.0
 48
0.0
140
3.0
141
-1.0
142
0.0
143
25.4
144
1.0
145
0.0
146
1.0
147
1.0
 71
     0
 72
     0
 73
     0
 74
     0
 75
     0
 76
     0
 77
     1
 78
     8
170
     0
171
     2
172
     1
173
     1
174
     0
175
     0
176
     2
177
     2
178
     2
270
     2
271
     3
272
     2
273
     2
274
     2
340
10
275
     0
280
     0
281
     0
282
     0
283
     1
284
     8
285
     0
286
     0
287
     3
288
     0
  0
ENDTAB
  0
TABLE
  2
BLOCK_RECORD
  5
1
100
AcDbSymbolTable
 70
     8
  0
BLOCK_RECORD
  5
2
102
{ACAD_XDICTIONARY
360
3
102
}
100
AcDbSymbolTableRecord
100
AcDbBlockTableRecord
  2
*MODEL_SPACE
  0
BLOCK_RECORD
  5
9
102
{ACAD_XDICTIONARY
360
A
102
}
100
AcDbSymbolTableRecord
100
AcDbBlockTableRecord
  2
*PAPER_SPACE
  0
BLOCK_RECORD
  5
24
100
AcDbSymbolTableRecord
100
AcDbBlockTableRecord
  2
_DOTSMALL
  0
BLOCK_RECORD
  5
470
100
AcDbSymbolTableRecord
100
AcDbBlockTableRecord
  2
_OPEN30
  0
BLOCK_RECORD
  5
1D63
100
AcDbSymbolTableRecord
100
AcDbBlockTableRecord
  2
*D2
  0
BLOCK_RECORD
  5
1D87
100
AcDbSymbolTableRecord
100
AcDbBlockTableRecord
  2
*D3
  0
BLOCK_RECORD
  5
1DAB
100
AcDbSymbolTableRecord
100
AcDbBlockTableRecord
  2
*D4
  0
BLOCK_RECORD
  5
1DBE
100
AcDbSymbolTableRecord
100
AcDbBlockTableRecord
  2
*D5
  0
BLOCK_RECORD
  5
1DD4
100
AcDbSymbolTableRecord
100
AcDbBlockTableRecord
  2
*D6
  0
BLOCK_RECORD
  5
1DE1
100
AcDbSymbolTableRecord
100
AcDbBlockTableRecord
  2
*D7
  0
ENDTAB
  0
ENDSEC
  0
SECTION
  2
BLOCKS
  0
BLOCK
  5
5
100
AcDbEntity
  8
0
100
AcDbBlockBegin
  2
*MODEL_SPACE
 70
     0
 10
0.0
 20
0.0
 30
0.0
  3
*MODEL_SPACE
  1

  0
ENDBLK
  5
8
100
AcDbEntity
  8
0
100
AcDbBlockEnd
  0
BLOCK
  5
C
100
AcDbEntity
 67
     1
  8
0
100
AcDbBlockBegin
  2
*PAPER_SPACE
 70
     0
 10
0.0
 20
0.0
 30
0.0
  3
*PAPER_SPACE
  1

  0
ENDBLK
  5
D
100
AcDbEntity
 67
     1
  8
0
100
AcDbBlockEnd
  0
BLOCK
  5
29
100
AcDbEntity
  8
0
100
AcDbBlockBegin
  2
_DOTSMALL
 70
     0
 10
0.0
 20
0.0
 30
0.0
  3
_DOTSMALL
  1

  0
POLYLINE
  5
25
100
AcDbEntity
  8
0
  6
BYBLOCK
 62
     0
100
AcDb2dPolyline
 66
     1
 10
0.0
 20
0.0
 30
0.0
 70
     1
 40
0.5
 41
0.5
  0
VERTEX
  5
26
100
AcDbEntity
  8
0
  6
BYBLOCK
 62
     0
100
AcDbVertex
100
AcDb2dVertex
 10
-0.0625
 20
0.0
 30
0.0
 42
1.0
  0
VERTEX
  5
27
100
AcDbEntity
  8
0
  6
BYBLOCK
 62
     0
100
AcDbVertex
100
AcDb2dVertex
 10
0.0625
 20
0.0
 30
0.0
 42
1.0
  0
SEQEND
  5
28
100
AcDbEntity
  8
0
  6
BYBLOCK
 62
     0
  0
ENDBLK
  5
2A
100
AcDbEntity
  8
0
100
AcDbBlockEnd
  0
BLOCK
  5
471
100
AcDbEntity
  8
0
100
AcDbBlockBegin
  2
_OPEN30
 70
     0
 10
0.0
 20
0.0
 30
0.0
  3
_OPEN30
  1

  0
LINE
  5
472
100
AcDbEntity
  8
0
  6
BYBLOCK
 62
     0
100
AcDbLine
 10
-1.0
 20
0.267949
 30
0.0
 11
0.0
 21
0.0
 31
0.0
  0
LINE
  5
473
100
AcDbEntity
  8
0
  6
BYBLOCK
 62
     0
100
AcDbLine
 10
0.0
 20
0.0
 30
0.0
 11
-1.0
 21
-0.267949
 31
0.0
  0
LINE
  5
474
100
AcDbEntity
  8
0
  6
BYBLOCK
 62
     0
100
AcDbLine
 10
0.0
 20
0.0
 30
0.0
 11
-1.0
 21
0.0
 31
0.0
  0
ENDBLK
  5
475
100
AcDbEntity
  8
0
100
AcDbBlockEnd
  0
BLOCK
  5
1DEE
100
AcDbEntity
  8
0
100
AcDbBlockBegin
  2
*D2
 70
     1
 10
0.0
 20
0.0
 30
0.0
  3
*D2
  1

  0
LINE
  5
1DEF
100
AcDbEntity
  8
0
  6
BYBLOCK
 62
     1
100
AcDbLine
 10
0.388324
 20
319.012122
 30
0.0
 11
-1.656875
 21
301.945026
 31
0.0
  0
LINE
  5
1DF0
100
AcDbEntity
  8
0
  6
BYBLOCK
 62
     1
100
AcDbLine
 10
0.507306
 20
313.780911
 30
0.0
 11
0.507306
 21
301.815818
 31
0.0
  0
ARC
  5
1DF1
100
AcDbEntity
  8
0
  6
BYBLOCK
 62
     1
100
AcDbCircle
 10
0.507306
 20
320.005018
 30
0.0
 40
16.1892
100
AcDbArc
 50
248.973864
 51
263.166667
  0
LINE
  5
1DF2
100
AcDbEntity
  8
0
  6
BYBLOCK
 62
     1
100
AcDbLine
 10
-5.301278
 20
304.893746
 30
0.0
 11
-22.196123
 21
311.387913
 31
0.0
  0
ARC
  5
1DF3
100
AcDbEntity
  8
0
  6
BYBLOCK
 62
     1
100
AcDbCircle
 10
0.507306
 20
320.005018
 30
0.0
 40
16.1892
100
AcDbArc
 50
249.001105
 51
256.083886
  0
ARC
  5
1DF4
100
AcDbEntity
  8
0
  6
BYBLOCK
 62
     1
100
AcDbCircle
 10
0.507306
 20
320.005018
 30
0.0
 40
16.1892
100
AcDbArc
 50
277.082781
 51
284.165561
  0
ARC
  5
1DF5
100
AcDbEntity
  8
0
  6
BYBLOCK
 62
     1
100
AcDbCircle
 10
0.507306
 20
320.005018
 30
0.0
 40
16.1892
100
AcDbArc
 50
263.166667
 51
270.0
  0
INSERT
  5
1DF6
100
AcDbEntity
  8
0
  6
BYBLOCK
 62
     1
100
AcDbBlockReference
  2
_OPEN30
 10
-1.418912
 20
303.930819
 30
0.0
 41
2.0
 42
2.0
 43
2.0
 50
349.625276
  0
INSERT
  5
1DF7
100
AcDbEntity
  8
0
  6
BYBLOCK
 62
     1
100
AcDbBlockReference
  2
_OPEN30
 10
0.507306
 20
303.815818
 30
0.0
 41
2.0
 42
2.0
 43
2.0
 50
183.54139
  0
MTEXT
  5
1DF8
100
AcDbEntity
  8
0
  6
BYBLOCK
 62
     3
100
AcDbMText
 10
-12.851717
 20
310.474371
 30
0.0
 40
3.0
 41
0.0
 71
     5
 72
     1
  1
\A1;-6°50'
 11
0.933417
 21
-0.358794
 31
0.0
  0
POINT
  5
1DF9
100
AcDbEntity
  8
DEFPOINTS
  6
BYBLOCK
 62
     0
100
AcDbPoint
 10
-0.136122
 20
303.828609
 30
0.0
  0
POINT
  5
1DFA
100
AcDbEntity
  8
DEFPOINTS
  6
BYBLOCK
 62
     0
100
AcDbPoint
 10
1.237049
 20
326.094694
 30
0.0
  0
POINT
  5
1DFB
100
AcDbEntity
  8
DEFPOINTS
  6
BYBLOCK
 62
     0
100
AcDbPoint
 10
0.507306
 20
338.508486
 30
0.0
  0
POINT
  5
1DFC
100
AcDbEntity
  8
DEFPOINTS
  6
BYBLOCK
 62
     0
100
AcDbPoint
 10
0.507306
 20
314.780911
 30
0.0
  0
POINT
  5
1DFD
100
AcDbEntity
  8
DEFPOINTS
  6
BYBLOCK
 62
     0
100
AcDbPoint
 10
0.558561
 20
320.432742
 30
0.0
  0
ENDBLK
  5
1DFE
100
AcDbEntity
  8
0
100
AcDbBlockEnd
  0
BLOCK
  5
1D9A
100
AcDbEntity
  8
0
100
AcDbBlockBegin
  2
*D3
 70
     1
 10
0.0
 20
0.0
 30
0.0
  3
*D3
  1

  0
LINE
  5
1D9B
100
AcDbEntity
  8
0
  6
BYBLOCK
 62
     1
100
AcDbLine
 10
35.669744
 20
326.412738
 30
0.0
 11
36.294868
 21
344.313958
 31
0.0
  0
LINE
  5
1D9C
100
AcDbEntity
  8
0
  6
BYBLOCK
 62
     1
100
AcDbLine
 10
35.491096
 20
329.73248
 30
0.0
 11
35.491096
 21
344.327988
 31
0.0
  0
ARC
  5
1D9D
100
AcDbEntity
  8
0
  6
BYBLOCK
 62
     1
100
AcDbCircle
 10
35.491096
 20
321.296932
 30
0.0
 40
21.031056
100
AcDbArc
 50
77.098524
 51
82.549262
  0
ARC
  5
1D9E
100
AcDbEntity
  8
0
  6
BYBLOCK
 62
     1
100
AcDbCircle
 10
35.491096
 20
321.296932
 30
0.0
 40
21.031056
100
AcDbArc
 50
95.450738
 51
100.901476
  0
ARC
  5
1D9F
100
AcDbEntity
  8
0
  6
BYBLOCK
 62
     1
100
AcDbCircle
 10
35.491096
 20
321.296932
 30
0.0
 40
21.031056
100
AcDbArc
 50
88.0
 51
90.0
  0
INSERT
  5
1DA0
100
AcDbEntity
  8
0
  6
BYBLOCK
 62
     1
100
AcDbBlockReference
  2
_OPEN30
 10
36.225069
 20
342.315176
 30
0.0
 41
2.0
 42
2.0
 43
2.0
 50
175.274631
  0
INSERT
  5
1DA1
100
AcDbEntity
  8
0
  6
BYBLOCK
 62
     1
100
AcDbBlockReference
  2
_OPEN30
 10
35.491096
 20
342.327988
 30
0.0
 41
2.0
 42
2.0
 43
2.0
 50
2.725369
  0
MTEXT
  5
1DA2
100
AcDbEntity
  8
0
  6
BYBLOCK
 62
     3
100
AcDbMText
 10
46.227231
 20
342.236034
 30
0.0
 40
3.0
 41
0.0
 71
     5
 72
     1
  1
\A1;2°
 11
0.88985
 21
-0.456254
 31
0.0
  0
POINT
  5
1DA3
100
AcDbEntity
  8
DEFPOINTS
  6
BYBLOCK
 62
     0
100
AcDbPoint
 10
35.735798
 20
342.326564
 30
0.0
  0
POINT
  5
1DA4
100
AcDbEntity
  8
DEFPOINTS
  6
BYBLOCK
 62
     0
100
AcDbPoint
 10
35.634844
 20
325.413347
 30
0.0
  0
POINT
  5
1DA5
100
AcDbEntity
  8
DEFPOINTS
  6
BYBLOCK
 62
     0
100
AcDbPoint
 10
35.491096
 20
323.123039
 30
0.0
  0
POINT
  5
1DA6
100
AcDbEntity
  8
DEFPOINTS
  6
BYBLOCK
 62
     0
100
AcDbPoint
 10
35.491096
 20
328.73248
 30
0.0
  0
POINT
  5
1DA7
100
AcDbEntity
  8
DEFPOINTS
  6
BYBLOCK
 62
     0
100
AcDbPoint
 10
35.491583
 20
321.310887
 30
0.0
  0
ENDBLK
  5
1DA8
100
AcDbEntity
  8
0
100
AcDbBlockEnd
  0
BLOCK
  5
1DB5
100
AcDbEntity
  8
0
100
AcDbBlockBegin
  2
*D4
 70
     1
 10
0.0
 20
0.0
 30
0.0
  3
*D4
  1

  0
LINE
  5
1DB6
100
AcDbEntity
  8
0
  6
BYBLOCK
 62
     1
100
AcDbLine
 10
35.291096
 20
320.482968
 30
0.0
 11
19.980111
 21
320.482968
 31
0.0
  0
LINE
  5
1DB7
100
AcDbEntity
  8
0
  6
BYBLOCK
 62
     1
100
AcDbLine
 10
21.980111
 20
322.482968
 30
0.0
 11
21.980111
 21
341.681329
 31
0.0
  0
INSERT
  5
1DB8
100
AcDbEntity
  8
0
  6
BYBLOCK
 62
     1
100
AcDbBlockReference
  2
_OPEN30
 10
21.980111
 20
320.482968
 30
0.0
 41
2.0
 42
2.0
 43
2.0
 50
270.0
  0
MTEXT
  5
1DB9
100
AcDbEntity
  8
0
  6
BYBLOCK
 62
     3
100
AcDbMText
 10
19.480111
 20
336.681329
 30
0.0
 40
3.0
 41
0.0
 71
     5
 72
     1
  1
\A1;\U+220515
 11
0.0
 21
1.0
 31
0.0
  0
POINT
  5
1DBA
100
AcDbEntity
  8
DEFPOINTS
  6
BYBLOCK
 62
     0
100
AcDbPoint
 10
36.291096
 20
320.482968
 30
0.0
  0
POINT
  5
1DBB
100
AcDbEntity
  8
DEFPOINTS
  6
BYBLOCK
 62
     0
100
AcDbPoint
 10
36.291096
 20
347.231803
 30
0.0
  0
POINT
  5
1DBC
100
AcDbEntity
  8
DEFPOINTS
  6
BYBLOCK
 62
     0
100
AcDbPoint
 10
21.980111
 20
347.231803
 30
0.0
  0
ENDBLK
  5
1DBD
100
AcDbEntity
  8
0
100
AcDbBlockEnd
  0
BLOCK
  5
1DC8
100
AcDbEntity
  8
0
100
AcDbBlockBegin
  2
*D5
 70
     1
 10
0.0
 20
0.0
 30
0.0
  3
*D5
  1

  0
LINE
  5
1DC9
100
AcDbEntity
  8
0
  6
BYBLOCK
 62
     1
100
AcDbLine
 10
138.436628
 20
320.199782
 30
0.0
 11
137.251748
 21
318.588552
 31
0.0
  0
LINE
  5
1DCA
100
AcDbEntity
  8
0
  6
BYBLOCK
 62
     1
100
AcDbLine
 10
147.915668
 20
333.089615
 30
0.0
 11
155.024948
 21
342.75699
 31
0.0
  0
LINE
  5
1DCB
100
AcDbEntity
  8
0
  6
BYBLOCK
 62
     1
100
AcDbLine
 10
139.621508
 20
321.811011
 30
0.0
 11
146.730788
 21
331.478386
 31
0.0
  0
INSERT
  5
1DCC
100
AcDbEntity
  8
0
  6
BYBLOCK
 62
     1
100
AcDbBlockReference
  2
_OPEN30
 10
139.621508
 20
321.811011
 30
0.0
 41
2.0
 42
2.0
 43
2.0
 50
53.669651
  0
INSERT
  5
1DCD
100
AcDbEntity
  8
0
  6
BYBLOCK
 62
     1
100
AcDbBlockReference
  2
_OPEN30
 10
146.730788
 20
331.478386
 30
0.0
 41
2.0
 42
2.0
 43
2.0
 50
233.669651
  0
MTEXT
  5
1DCE
100
AcDbEntity
  8
0
  6
BYBLOCK
 62
     3
100
AcDbMText
 10
150.048712
 20
340.210017
 30
0.0
 40
3.0
 41
0.0
 71
     5
 72
     1
  1
\A1;\U+220512
 11
0.59244
 21
0.805615
 31
0.0
  0
POINT
  5
1DCF
100
AcDbEntity
  8
DEFPOINTS
  6
BYBLOCK
 62
     0
100
AcDbPoint
 10
146.730788
 20
331.478386
 30
0.0
  0
POINT
  5
1DD0
100
AcDbEntity
  8
DEFPOINTS
  6
BYBLOCK
 62
     0
100
AcDbPoint
 10
139.621508
 20
321.811011
 30
0.0
  0
ENDBLK
  5
1DD1
100
AcDbEntity
  8
0
100
AcDbBlockEnd
  0
BLOCK
  5
1DD5
100
AcDbEntity
  8
0
100
AcDbBlockBegin
  2
*D6
 70
     1
 10
0.0
 20
0.0
 30
0.0
  3
*D6
  1

  0
LINE
  5
1DD6
100
AcDbEntity
  8
0
  6
BYBLOCK
 62
     1
100
AcDbLine
 10
137.676148
 20
323.246783
 30
0.0
 11
137.676148
 21
304.941711
 31
0.0
  0
LINE
  5
1DD7
100
AcDbEntity
  8
0
  6
BYBLOCK
 62
     1
100
AcDbLine
 10
148.676148
 20
323.246783
 30
0.0
 11
148.676148
 21
304.941711
 31
0.0
  0
LINE
  5
1DD8
100
AcDbEntity
  8
0
  6
BYBLOCK
 62
     1
100
AcDbLine
 10
139.676148
 20
306.941711
 30
0.0
 11
146.676148
 21
306.941711
 31
0.0
  0
INSERT
  5
1DD9
100
AcDbEntity
  8
0
  6
BYBLOCK
 62
     1
100
AcDbBlockReference
  2
_OPEN30
 10
137.676148
 20
306.941711
 30
0.0
 41
2.0
 42
2.0
 43
2.0
 50
180.0
  0
INSERT
  5
1DDA
100
AcDbEntity
  8
0
  6
BYBLOCK
 62
     1
100
AcDbBlockReference
  2
_OPEN30
 10
148.676148
 20
306.941711
 30
0.0
 41
2.0
 42
2.0
 43
2.0
  0
MTEXT
  5
1DDB
100
AcDbEntity
  8
0
  6
BYBLOCK
 62
     3
100
AcDbMText
 10
143.176148
 20
309.441711
 30
0.0
 40
3.0
 41
0.0
 71
     5
 72
     1
  1
\A1;11
  0
POINT
  5
1DDC
100
AcDbEntity
  8
DEFPOINTS
  6
BYBLOCK
 62
     0
100
AcDbPoint
 10
137.676148
 20
324.246783
 30
0.0
  0
POINT
  5
1DDD
100
AcDbEntity
  8
DEFPOINTS
  6
BYBLOCK
 62
     0
100
AcDbPoint
 10
148.676148
 20
324.246783
 30
0.0
  0
POINT
  5
1DDE
100
AcDbEntity
  8
DEFPOINTS
  6
BYBLOCK
 62
     0
100
AcDbPoint
 10
148.676148
 20
306.941711
 30
0.0
  0
ENDBLK
  5
1DDF
100
AcDbEntity
  8
0
100
AcDbBlockEnd
  0
BLOCK
  5
1DE2
100
AcDbEntity
  8
0
100
AcDbBlockBegin
  2
*D7
 70
     1
 10
0.0
 20
0.0
 30
0.0
  3
*D7
  1

  0
LINE
  5
1DE3
100
AcDbEntity
  8
0
  6
BYBLOCK
 62
     1
100
AcDbLine
 10
35.491096
 20
320.282968
 30
0.0
 11
35.491096
 21
295.008147
 31
0.0
  0
LINE
  5
1DE4
100
AcDbEntity
  8
0
  6
BYBLOCK
 62
     1
100
AcDbLine
 10
195.491096
 20
320.844698
 30
0.0
 11
195.491096
 21
295.008147
 31
0.0
  0
LINE
  5
1DE5
100
AcDbEntity
  8
0
  6
BYBLOCK
 62
     1
100
AcDbLine
 10
37.491096
 20
297.008147
 30
0.0
 11
193.491096
 21
297.008147
 31
0.0
  0
INSERT
  5
1DE6
100
AcDbEntity
  8
0
  6
BYBLOCK
 62
     1
100
AcDbBlockReference
  2
_OPEN30
 10
35.491096
 20
297.008147
 30
0.0
 41
2.0
 42
2.0
 43
2.0
 50
180.0
  0
INSERT
  5
1DE7
100
AcDbEntity
  8
0
  6
BYBLOCK
 62
     1
100
AcDbBlockReference
  2
_OPEN30
 10
195.491096
 20
297.008147
 30
0.0
 41
2.0
 42
2.0
 43
2.0
  0
MTEXT
  5
1DE8
100
AcDbEntity
  8
0
  6
BYBLOCK
 62
     3
100
AcDbMText
 10
115.491096
 20
299.508147
 30
0.0
 40
3.0
 41
0.0
 71
     5
 72
     1
  1
\A1;160
  0
POINT
  5
1DE9
100
AcDbEntity
  8
DEFPOINTS
  6
BYBLOCK
 62
     0
100
AcDbPoint
 10
35.491096
 20
321.282968
 30
0.0
  0
POINT
  5
1DEA
100
AcDbEntity
  8
DEFPOINTS
  6
BYBLOCK
 62
     0
100
AcDbPoint
 10
195.491096
 20
321.844698
 30
0.0
  0
POINT
  5
1DEB
100
AcDbEntity
  8
DEFPOINTS
  6
BYBLOCK
 62
     0
100
AcDbPoint
 10
195.491096
 20
297.008147
 30
0.0
  0
ENDBLK
  5
1DEC
100
AcDbEntity
  8
0
100
AcDbBlockEnd
  0
ENDSEC
  0
SECTION
  2
ENTITIES
  0
TEXT
  5
1453
100
AcDbEntity
  8
外形
  6
CONTINUOUS
 62
     2
100
AcDbText
 10
81.945496
 20
150.213866
 30
0.0
 40
6.0
  1
BNB512R
100
AcDbText
  0
LINE
  5
1C05
100
AcDbEntity
  8
外形
  6
CENTER
 62
     1
100
AcDbLine
 10
21.56115
 20
228.833928
 30
0.0
 11
191.164597
 21
228.833928
 31
0.0
  0
LINE
  5
1C07
100
AcDbEntity
  8
外形
  6
CONTINUOUS
100
AcDbLine
 10
27.359023
 20
234.783928
 30
0.0
 11
47.359023
 21
234.783928
 31
0.0
  0
LINE
  5
1C09
100
AcDbEntity
  8
外形
  6
CONTINUOUS
100
AcDbLine
 10
47.359023
 20
222.833928
 30
0.0
 11
47.359023
 21
226.564016
 31
0.0
  0
LINE
  5
1C0A
100
AcDbEntity
  8
外形
  6
CONTINUOUS
100
AcDbLine
 10
47.359023
 20
234.833928
 30
0.0
 11
121.333267
 21
234.833928
 31
0.0
  0
LINE
  5
1C0B
100
AcDbEntity
  8
外形
  6
CONTINUOUS
100
AcDbLine
 10
47.359023
 20
222.833928
 30
0.0
 11
121.333267
 21
222.833928
 31
0.0
  0
LINE
  5
1C0D
100
AcDbEntity
  8
外形
  6
CONTINUOUS
100
AcDbLine
 10
27.359023
 20
234.783928
 30
0.0
 11
24.359023
 21
231.783928
 31
0.0
  0
LINE
  5
1C0E
100
AcDbEntity
  8
外形
  6
CONTINUOUS
100
AcDbLine
 10
24.359023
 20
228.833928
 30
0.0
 11
24.849183
 21
228.527642
 31
0.0
  0
LINE
  5
1C10
100
AcDbEntity
  8
外形
  6
CONTINUOUS
100
AcDbLine
 10
25.09693
 20
222.765839
 30
0.0
 11
26.388118
 21
223.452376
 31
0.0
  0
LINE
  5
1C12
100
AcDbEntity
  8
外形
  6
CONTINUOUS
100
AcDbLine
 10
24.065101
 20
227.602577
 30
0.0
 11
23.92184
 21
223.500117
 31
0.0
  0
ARC
  5
1C15
100
AcDbEntity
  8
外形
  6
CONTINUOUS
100
AcDbCircle
 10
24.721353
 20
223.472197
 30
0.0
 40
0.8
100
AcDbArc
 50
178.0
 51
298.0
  0
ARC
  5
1C16
100
AcDbEntity
  8
外形
  6
CONTINUOUS
100
AcDbCircle
 10
28.345818
 20
225.399359
 30
0.0
 40
0.8
100
AcDbArc
 50
298.0
 51
0.554754
  0
LINE
  5
1C17
100
AcDbEntity
  8
外形
  6
CONTINUOUS
100
AcDbLine
 10
24.359023
 20
228.194639
 30
0.0
 11
24.359023
 21
231.783928
 31
0.0
  0
LINE
  5
1C18
100
AcDbEntity
  8
外形
  6
CONTINUOUS
100
AcDbLine
 10
25.319023
 20
222.883928
 30
0.0
 11
47.359023
 21
222.883928
 31
0.0
  0
LINE
  5
1C19
100
AcDbEntity
  8
外形
  6
CENTER
 62
     1
100
AcDbLine
 10
29.059023
 20
226.968887
 30
0.0
 11
29.059023
 21
235.601957
 31
0.0
  0
LINE
  5
1C1A
100
AcDbEntity
  8
外形
  6
CENTER
 62
     1
100
AcDbLine
 10
25.157738
 20
230.333928
 30
0.0
 11
33.193455
 21
230.333928
 31
0.0
  0
LINE
  5
1C1F
100
AcDbEntity
  8
外形
  6
CENTER
 62
     1
100
AcDbLine
 10
31.448388
 20
234.515317
 30
0.0
 11
25.013049
 21
223.253473
 31
0.0
  0
LINE
  5
1C21
100
AcDbEntity
  8
外形
  6
CONTINUOUS
100
AcDbLine
 10
32.631223
 20
232.55415
 30
0.0
 11
29.158251
 21
234.538706
 31
0.0
  0
LINE
  5
1C22
100
AcDbEntity
  8
外形
  6
CONTINUOUS
100
AcDbLine
 10
26.782318
 20
232.698722
 30
0.0
 11
29.158251
 21
234.538706
 31
0.0
  0
ARC
  5
1C23
100
AcDbEntity
  8
外形
  6
CONTINUOUS
100
AcDbCircle
 10
28.863748
 20
233.678232
 30
0.0
 40
0.5
100
AcDbArc
 50
127.755119
 51
273.341727
  0
ARC
  5
1C24
100
AcDbEntity
  8
外形
  6
CONTINUOUS
100
AcDbCircle
 10
29.059023
 20
230.333928
 30
0.0
 40
2.85
100
AcDbArc
 50
27.168511
 51
93.341727
  0
ARC
  5
1C25
100
AcDbEntity
  8
外形
  6
CONTINUOUS
100
AcDbCircle
 10
30.678114
 20
233.122932
 30
0.0
 40
0.75
100
AcDbArc
 50
9.568595
 51
110.941642
  0
LINE
  5
1C27
100
AcDbEntity
  8
外形
  6
CONTINUOUS
100
AcDbLine
 10
32.25225
 20
229.573047
 30
0.0
 11
32.631223
 21
232.55415
 31
0.0
  0
ARC
  5
1C28
100
AcDbEntity
  8
外形
  6
CONTINUOUS
100
AcDbCircle
 10
32.039409
 20
231.863568
 30
0.0
 40
0.5
100
AcDbArc
 50
207.168511
 51
352.755119
  0
CIRCLE
  5
1C2A
100
AcDbEntity
  8
外形
  6
CONTINUOUS
100
AcDbCircle
 10
29.059023
 20
230.333928
 30
0.0
 40
2.75
  0
LINE
  5
1C2B
100
AcDbEntity
  8
外形
  6
CONTINUOUS
100
AcDbLine
 10
32.25225
 20
229.573047
 30
0.0
 11
30.941408
 21
227.279073
 31
0.0
  0
LINE
  5
1C2C
100
AcDbEntity
  8
外形
  6
CONTINUOUS
100
AcDbLine
 10
30.056405
 20
230.91579
 30
0.0
 11
30.061621
 21
229.761101
 31
0.0
  0
LINE
  5
1C2D
100
AcDbEntity
  8
外形
  6
CONTINUOUS
100
AcDbLine
 10
29.064239
 20
229.179239
 30
0.0
 11
30.061621
 21
229.761101
 31
0.0
  0
LINE
  5
1C2F
100
AcDbEntity
  8
外形
  6
CONTINUOUS
100
AcDbLine
 10
29.053807
 20
231.488617
 30
0.0
 11
30.056405
 21
230.91579
 31
0.0
  0
LINE
  5
1C30
100
AcDbEntity
  8
外形
  6
CONTINUOUS
100
AcDbLine
 10
29.064239
 20
229.179239
 30
0.0
 11
28.061641
 21
229.752067
 31
0.0
  0
LINE
  5
1C31
100
AcDbEntity
  8
外形
  6
CONTINUOUS
100
AcDbLine
 10
28.056425
 20
230.906755
 30
0.0
 11
28.061641
 21
229.752067
 31
0.0
  0
LINE
  5
1C32
100
AcDbEntity
  8
外形
  6
CONTINUOUS
100
AcDbLine
 10
28.056425
 20
230.906755
 30
0.0
 11
29.053807
 21
231.488617
 31
0.0
  0
ARC
  5
1C33
100
AcDbEntity
  8
外形
  6
CONTINUOUS
100
AcDbCircle
 10
29.059023
 20
230.333928
 30
0.0
 40
2.85
100
AcDbArc
 50
187.971864
 51
292.538374
  0
ARC
  5
1C34
100
AcDbEntity
  8
外形
  6
CONTINUOUS
100
AcDbCircle
 10
26.600192
 20
229.759768
 30
0.0
 40
5.0
100
AcDbArc
 50
307.755119
 51
330.255119
  0
ARC
  5
1C35
100
AcDbEntity
  8
外形
  6
CONTINUOUS
100
AcDbCircle
 10
30.343085
 20
227.239791
 30
0.0
 40
0.5
100
AcDbArc
 50
330.255119
 51
112.538374
  0
LINE
  5
1C36
100
AcDbEntity
  8
外形
  6
CONTINUOUS
100
AcDbLine
 10
30.026654
 20
226.118428
 30
0.0
 11
24.935949
 21
229.027402
 31
0.0
  0
ARC
  5
1C37
100
AcDbEntity
  8
外形
  6
CONTINUOUS
100
AcDbCircle
 10
25.741396
 20
229.869327
 30
0.0
 40
0.5
100
AcDbArc
 50
7.971864
 51
150.255119
  0
LINE
  5
1C38
100
AcDbEntity
  8
外形
  6
CONTINUOUS
100
AcDbLine
 10
26.782318
 20
232.698722
 30
0.0
 11
25.471476
 21
230.404749
 31
0.0
  0
ARC
  5
1C39
100
AcDbEntity
  8
外形
  6
CONTINUOUS
100
AcDbCircle
 10
29.812692
 20
227.924054
 30
0.0
 40
5.0
100
AcDbArc
 50
150.255119
 51
172.755119
  0
LINE
  5
1C3A
100
AcDbEntity
  8
外形
  6
CONTINUOUS
100
AcDbLine
 10
29.661632
 20
225.806594
 30
0.0
 11
26.522513
 21
223.375579
 31
0.0
  0
LINE
  5
1C3B
100
AcDbEntity
  8
外形
  6
CONTINUOUS
100
AcDbLine
 10
26.522513
 20
223.375579
 30
0.0
 11
24.351905
 21
224.615927
 31
0.0
  0
LINE
  5
1C3F
100
AcDbEntity
  8
外形
  6
CONTINUOUS
100
AcDbLine
 10
24.852611
 20
228.554606
 30
0.0
 11
24.351905
 21
224.615927
 31
0.0
  0
ARC
  5
1C43
100
AcDbEntity
  8
外形
  6
CONTINUOUS
100
AcDbCircle
 10
24.864614
 20
227.574657
 30
0.0
 40
0.8
100
AcDbArc
 50
92.505822
 51
178.0
  0
LINE
  5
1C45
100
AcDbEntity
  8
外形
  6
CONTINUOUS
100
AcDbLine
 10
29.457169
 20
225.648253
 30
0.0
 11
29.944843
 21
225.34352
 31
0.0
  0
LINE
  5
1C4B
100
AcDbEntity
  8
外形
  6
CONTINUOUS
100
AcDbLine
 10
27.133331
 20
223.848613
 30
0.0
 11
29.944843
 21
225.34352
 31
0.0
  0
LINE
  5
1C4C
100
AcDbEntity
  8
外形
  6
CENTER
 62
     1
100
AcDbLine
 10
21.56115
 20
179.047388
 30
0.0
 11
191.164597
 21
179.047388
 31
0.0
  0
LINE
  5
1C51
100
AcDbEntity
  8
外形
  6
CONTINUOUS
100
AcDbLine
 10
47.359023
 20
173.547388
 30
0.0
 11
47.359023
 21
184.547388
 31
0.0
  0
LINE
  5
1C52
100
AcDbEntity
  8
外形
  6
CONTINUOUS
100
AcDbLine
 10
24.359023
 20
173.547388
 30
0.0
 11
24.359023
 21
177.457388
 31
0.0
  0
LINE
  5
1C53
100
AcDbEntity
  8
外形
  6
CENTER
 62
     1
100
AcDbLine
 10
0.801351
 20
228.833928
 30
0.0
 11
-22.926224
 21
228.833928
 31
0.0
  0
LINE
  5
1C54
100
AcDbEntity
  8
外形
  6
CENTER
 62
     1
100
AcDbLine
 10
-11.062437
 20
240.697716
 30
0.0
 11
-11.062437
 21
216.970141
 31
0.0
  0
ARC
  5
1C55
100
AcDbEntity
  8
外形
  6
CONTINUOUS
100
AcDbCircle
 10
-11.062437
 20
228.833928
 30
0.0
 40
5.95
100
AcDbArc
 50
22.426491
 51
49.597642
  0
LINE
  5
1C57
100
AcDbEntity
  8
外形
  6
CONTINUOUS
100
AcDbLine
 10
-5.562437
 20
231.10384
 30
0.0
 11
-5.562437
 21
226.564016
 31
0.0
  0
LINE
  5
1C58
100
AcDbEntity
  8
外形
  6
CONTINUOUS
100
AcDbLine
 10
-16.562437
 20
231.10384
 30
0.0
 11
-16.562437
 21
226.564016
 31
0.0
  0
ARC
  5
1C59
100
AcDbEntity
  8
外形
  6
CONTINUOUS
100
AcDbCircle
 10
-11.062437
 20
228.833928
 30
0.0
 40
5.95
100
AcDbArc
 50
202.426491
 51
255.439631
  0
LINE
  5
1C5A
100
AcDbEntity
  8
外形
  6
CENTER
 62
     1
100
AcDbLine
 10
29.059023
 20
170.839021
 30
0.0
 11
29.059023
 21
186.392043
 31
0.0
  0
LINE
  5
1CCF
100
AcDbEntity
  8
外形
  6
CONTINUOUS
100
AcDbLine
 10
-11.181577
 20
228.309455
 30
0.0
 11
-11.843514
 21
222.785622
 31
0.0
  0
LINE
  5
1CD0
100
AcDbEntity
  8
外形
  6
CONTINUOUS
100
AcDbLine
 10
-10.383949
 20
228.283924
 30
0.0
 11
-11.062437
 21
222.621972
 31
0.0
  0
LINE
  5
1CD1
100
AcDbEntity
  8
外形
  6
CONTINUOUS
100
AcDbLine
 10
-11.908009
 20
228.929113
 30
0.0
 11
-12.624591
 21
222.949272
 31
0.0
  0
LINE
  5
1CD3
100
AcDbEntity
  8
外形
  6
CONTINUOUS
100
AcDbLine
 10
-12.624591
 20
222.949272
 30
0.0
 11
-11.062437
 21
222.621972
 31
0.0
  0
LINE
  5
1CD5
100
AcDbEntity
  8
外形
  6
CONTINUOUS
100
AcDbLine
 10
-11.979205
 20
228.334986
 30
0.0
 11
-10.383949
 21
228.283924
 31
0.0
  0
LINE
  5
1CD6
100
AcDbEntity
  8
外形
  6
CONTINUOUS
100
AcDbLine
 10
-11.908009
 20
228.929113
 30
0.0
 11
-10.517954
 21
228.762539
 31
0.0
  0
LINE
  5
1CD9
100
AcDbEntity
  8
外形
  6
CONTINUOUS
100
AcDbLine
 10
-9.813622
 20
234.640159
 30
0.0
 11
-10.574577
 21
228.290026
 31
0.0
  0
LINE
  5
1CDB
100
AcDbEntity
  8
外形
  6
CONTINUOUS
100
AcDbLine
 10
27.328694
 20
234.753599
 30
0.0
 11
31.368795
 21
234.753599
 31
0.0
  0
LINE
  5
1CE0
100
AcDbEntity
  8
外形
  6
CONTINUOUS
100
AcDbLine
 10
-10.838548
 20
224.490317
 30
0.0
 11
-10.540679
 21
224.454623
 31
0.0
  0
LINE
  5
1CE1
100
AcDbEntity
  8
外形
  6
CONTINUOUS
100
AcDbLine
 10
-10.8902
 20
224.05928
 30
0.0
 11
-10.592331
 21
224.023585
 31
0.0
  0
LINE
  5
1CE2
100
AcDbEntity
  8
外形
  6
CONTINUOUS
100
AcDbLine
 10
-10.919716
 20
223.812972
 30
0.0
 11
-10.621847
 21
223.777278
 31
0.0
  0
LINE
  5
1CE3
100
AcDbEntity
  8
外形
  6
CONTINUOUS
100
AcDbLine
 10
-10.680878
 20
223.284663
 30
0.0
 11
-9.985851
 21
223.201376
 31
0.0
  0
LINE
  5
1CE4
100
AcDbEntity
  8
外形
  6
CONTINUOUS
100
AcDbLine
 10
-10.5333
 20
224.5162
 30
0.0
 11
-9.838272
 21
224.432912
 31
0.0
  0
LINE
  5
1CE5
100
AcDbEntity
  8
外形
  6
CONTINUOUS
100
AcDbLine
 10
-9.352671
 20
234.368491
 30
0.0
 11
-10.592331
 21
224.023585
 31
0.0
  0
LINE
  5
1CE6
100
AcDbEntity
  8
外形
  6
CONTINUOUS
100
AcDbLine
 10
-7.168299
 20
234.106732
 30
0.0
 11
-7.339631
 21
232.676976
 31
0.0
  0
LINE
  5
1CE7
100
AcDbEntity
  8
外形
  6
CONTINUOUS
100
AcDbLine
 10
-10.621847
 20
223.777278
 30
0.0
 11
-10.680878
 21
223.284663
 31
0.0
  0
ARC
  5
1CE8
100
AcDbEntity
  8
外形
  6
CONTINUOUS
100
AcDbCircle
 10
-11.062437
 20
228.833928
 30
0.0
 40
5.95
100
AcDbArc
 50
270.796536
 51
337.573509
  0
LINE
  5
1CEF
100
AcDbEntity
  8
外形
  6
CONTINUOUS
100
AcDbLine
 10
-9.838272
 20
224.432912
 30
0.0
 11
-9.985851
 21
223.201376
 31
0.0
  0
LINE
  5
1CF0
100
AcDbEntity
  8
外形
  6
CONTINUOUS
100
AcDbLine
 10
-9.838272
 20
224.432912
 30
0.0
 11
-7.824043
 21
228.634578
 31
0.0
  0
LINE
  5
1CF1
100
AcDbEntity
  8
外形
  6
CONTINUOUS
100
AcDbLine
 10
-9.985851
 20
223.201376
 30
0.0
 11
-8.170158
 21
225.746268
 31
0.0
  0
LINE
  5
1CF2
100
AcDbEntity
  8
外形
  6
CONTINUOUS
100
AcDbLine
 10
-7.168299
 20
234.106732
 30
0.0
 11
-9.352671
 21
234.368491
 31
0.0
  0
LINE
  5
1CF4
100
AcDbEntity
  8
外形
  6
CONTINUOUS
100
AcDbLine
 10
-7.826619
 20
232.815413
 30
0.0
 11
-8.160827
 21
230.026462
 31
0.0
  0
LINE
  5
1CF5
100
AcDbEntity
  8
外形
  6
CONTINUOUS
100
AcDbLine
 10
-8.160827
 20
230.026462
 30
0.0
 11
-7.664379
 21
229.966971
 31
0.0
  0
LINE
  5
1CF6
100
AcDbEntity
  8
外形
  6
CONTINUOUS
100
AcDbLine
 10
-7.664379
 20
229.966971
 30
0.0
 11
-8.170158
 21
225.746268
 31
0.0
  0
ARC
  5
1CF7
100
AcDbEntity
  8
外形
  6
CONTINUOUS
100
AcDbCircle
 10
-11.062437
 20
228.833928
 30
0.0
 40
5.95
100
AcDbArc
 50
66.65989
 51
157.573509
  0
LINE
  5
1CF8
100
AcDbEntity
  8
外形
  6
CONTINUOUS
100
AcDbLine
 10
-9.949415
 20
233.506974
 30
0.0
 11
-9.462896
 21
233.448673
 31
0.0
  0
LINE
  5
1CF9
100
AcDbEntity
  8
外形
  6
CONTINUOUS
100
AcDbLine
 10
-10.068397
 20
232.514077
 30
0.0
 11
-9.581878
 21
232.455776
 31
0.0
  0
LINE
  5
1CFA
100
AcDbEntity
  8
外形
  6
CENTER
 62
     1
100
AcDbLine
 10
-4.279122
 20
229.531796
 30
0.0
 11
-11.981468
 21
230.45479
 31
0.0
  0
ARC
  5
1CFB
100
AcDbEntity
  8
外形
  6
CONTINUOUS
100
AcDbCircle
 10
-7.359323
 20
231.672181
 30
0.0
 40
1.0
100
AcDbArc
 50
353.166667
 51
83.166667
  0
LINE
  5
1CFC
100
AcDbEntity
  8
外形
  6
CONTINUOUS
100
AcDbLine
 10
-6.366427
 20
231.553199
 30
0.0
 11
-6.786382
 21
228.048688
 31
0.0
  0
ARC
  5
1CFD
100
AcDbEntity
  8
外形
  6
CONTINUOUS
100
AcDbCircle
 10
-7.779279
 20
228.167669
 30
0.0
 40
1.0
100
AcDbArc
 50
263.166667
 51
353.166667
  0
LINE
  5
1CFE
100
AcDbEntity
  8
外形
  6
CONTINUOUS
100
AcDbLine
 10
-7.89826
 20
227.174773
 30
0.0
 11
-7.99755
 21
227.186671
 31
0.0
  0
LINE
  5
1D01
100
AcDbEntity
  8
外形
  6
CONTINUOUS
100
AcDbLine
 10
-7.240341
 20
232.665077
 30
0.0
 11
-7.339631
 21
232.676976
 31
0.0
  0
LINE
  5
1D02
100
AcDbEntity
  8
外形
  6
CONTINUOUS
100
AcDbLine
 10
-9.571596
 20
232.541579
 30
0.0
 11
-7.883672
 21
232.33931
 31
0.0
  0
LINE
  5
1D03
100
AcDbEntity
  8
外形
  6
CONTINUOUS
100
AcDbLine
 10
-7.826619
 20
232.815413
 30
0.0
 11
-7.330171
 21
232.755922
 31
0.0
  0
LINE
  5
1D04
100
AcDbEntity
  8
外形
  6
CONTINUOUS
100
AcDbLine
 10
-7.836079
 20
232.736466
 30
0.0
 11
-7.339631
 21
232.676976
 31
0.0
  0
LINE
  5
1D05
100
AcDbEntity
  8
外形
  6
CONTINUOUS
100
AcDbLine
 10
-16.229641
 20
231.783928
 30
0.0
 11
-10.104637
 21
231.783928
 31
0.0
  0
LINE
  5
1D06
100
AcDbEntity
  8
外形
  6
CONTINUOUS
100
AcDbLine
 10
24.06046
 20
177.457388
 30
0.0
 11
23.921353
 21
179.047388
 31
0.0
  0
LINE
  5
1D07
100
AcDbEntity
  8
外形
  6
CONTINUOUS
100
AcDbLine
 10
23.921353
 20
179.047388
 30
0.0
 11
25.220148
 21
179.047388
 31
0.0
  0
LINE
  5
1D08
100
AcDbEntity
  8
外形
  6
CONTINUOUS
100
AcDbLine
 10
25.319023
 20
178.252388
 30
0.0
 11
23.990906
 21
178.252388
 31
0.0
  0
LINE
  5
1D09
100
AcDbEntity
  8
外形
  6
CONTINUOUS
100
AcDbLine
 10
24.06046
 20
177.457388
 30
0.0
 11
25.319023
 21
177.457388
 31
0.0
  0
LINE
  5
1D0D
100
AcDbEntity
  8
外形
  6
CONTINUOUS
100
AcDbLine
 10
25.319023
 20
179.081553
 30
0.0
 11
25.319023
 21
177.457388
 31
0.0
  0
LINE
  5
1D0E
100
AcDbEntity
  8
外形
  6
CONTINUOUS
100
AcDbLine
 10
29.145818
 20
179.081553
 30
0.0
 11
29.145818
 21
179.271553
 31
0.0
  0
LINE
  5
1D0F
100
AcDbEntity
  8
外形
  6
CONTINUOUS
100
AcDbLine
 10
25.319023
 20
179.081553
 30
0.0
 11
31.359023
 21
179.081553
 31
0.0
  0
LINE
  5
1D10
100
AcDbEntity
  8
外形
  6
CONTINUOUS
100
AcDbLine
 10
25.220148
 20
179.047388
 30
0.0
 11
25.220148
 21
179.347388
 31
0.0
  0
LINE
  5
1D11
100
AcDbEntity
  8
外形
  6
CONTINUOUS
100
AcDbLine
 10
25.65427
 20
179.081553
 30
0.0
 11
25.65427
 21
179.347388
 31
0.0
  0
LINE
  5
1D12
100
AcDbEntity
  8
外形
  6
CONTINUOUS
100
AcDbLine
 10
25.902339
 20
179.081553
 30
0.0
 11
25.902339
 21
179.347388
 31
0.0
  0
LINE
  5
1D13
100
AcDbEntity
  8
外形
  6
CONTINUOUS
100
AcDbLine
 10
24.359023
 20
180.047388
 30
0.0
 11
26.522513
 21
180.047388
 31
0.0
  0
LINE
  5
1D14
100
AcDbEntity
  8
外形
  6
CONTINUOUS
100
AcDbLine
 10
24.935949
 20
181.547388
 30
0.0
 11
30.843085
 21
181.547388
 31
0.0
  0
LINE
  5
1D15
100
AcDbEntity
  8
外形
  6
CONTINUOUS
100
AcDbLine
 10
24.359023
 20
179.347388
 30
0.0
 11
25.220148
 21
179.347388
 31
0.0
  0
LINE
  5
1D16
100
AcDbEntity
  8
外形
  6
CONTINUOUS
100
AcDbLine
 10
25.65427
 20
179.347388
 30
0.0
 11
32.631223
 21
179.347388
 31
0.0
  0
LINE
  5
1D17
100
AcDbEntity
  8
外形
  6
CONTINUOUS
100
AcDbLine
 10
24.359023
 20
180.047388
 30
0.0
 11
24.359023
 21
179.347388
 31
0.0
  0
LINE
  5
1D18
100
AcDbEntity
  8
外形
  6
CONTINUOUS
100
AcDbLine
 10
26.522513
 20
179.347388
 30
0.0
 11
26.522513
 21
180.047388
 31
0.0
  0
LINE
  5
1D1D
100
AcDbEntity
  8
外形
  6
CONTINUOUS
100
AcDbLine
 10
30.026654
 20
181.547388
 30
0.0
 11
26.522513
 21
180.047388
 31
0.0
  0
LINE
  5
1D1E
100
AcDbEntity
  8
外形
  6
CONTINUOUS
100
AcDbLine
 10
24.359023
 20
180.047388
 30
0.0
 11
24.935949
 21
181.547388
 31
0.0
  0
LINE
  5
1D1F
100
AcDbEntity
  8
外形
  6
CONTINUOUS
100
AcDbLine
 10
32.631223
 20
179.347388
 30
0.0
 11
32.631223
 21
181.547388
 31
0.0
  0
LINE
  5
1D20
100
AcDbEntity
  8
外形
  6
CONTINUOUS
100
AcDbLine
 10
32.25225
 20
179.347388
 30
0.0
 11
32.25225
 21
181.047388
 31
0.0
  0
LINE
  5
1D21
100
AcDbEntity
  8
外形
  6
CONTINUOUS
100
AcDbLine
 10
30.843085
 20
181.047388
 30
0.0
 11
30.843085
 21
181.547388
 31
0.0
  0
LINE
  5
1D22
100
AcDbEntity
  8
外形
  6
CONTINUOUS
100
AcDbLine
 10
32.535417
 20
181.047388
 30
0.0
 11
32.535417
 21
181.547388
 31
0.0
  0
LINE
  5
1D23
100
AcDbEntity
  8
外形
  6
CONTINUOUS
100
AcDbLine
 10
30.843085
 20
181.047388
 30
0.0
 11
32.535417
 21
181.047388
 31
0.0
  0
LINE
  5
1D24
100
AcDbEntity
  8
外形
  6
CONTINUOUS
100
AcDbLine
 10
31.823815
 20
181.547388
 30
0.0
 11
32.631223
 21
181.547388
 31
0.0
  0
ARC
  5
1D25
100
AcDbEntity
  8
外形
  6
CONTINUOUS
100
AcDbCircle
 10
27.294231
 20
181.647388
 30
0.0
 40
1.0
100
AcDbArc
 50
90.0
 51
180.0
  0
LINE
  5
1D26
100
AcDbEntity
  8
外形
  6
CONTINUOUS
100
AcDbLine
 10
26.294231
 20
181.547388
 30
0.0
 11
26.294231
 21
181.647388
 31
0.0
  0
LINE
  5
1D27
100
AcDbEntity
  8
外形
  6
CONTINUOUS
100
AcDbLine
 10
27.294231
 20
182.647388
 30
0.0
 11
30.823815
 21
182.647388
 31
0.0
  0
ARC
  5
1D28
100
AcDbEntity
  8
外形
  6
CONTINUOUS
100
AcDbCircle
 10
30.823815
 20
181.647388
 30
0.0
 40
1.0
100
AcDbArc
 50
0.0
 51
90.0
  0
LINE
  5
1D29
100
AcDbEntity
  8
外形
  6
CONTINUOUS
100
AcDbLine
 10
31.823815
 20
181.647388
 30
0.0
 11
31.823815
 21
181.547388
 31
0.0
  0
LINE
  5
1D2A
100
AcDbEntity
  8
外形
  6
CONTINUOUS
100
AcDbLine
 10
31.823815
 20
181.647388
 30
0.0
 11
31.823815
 21
181.047388
 31
0.0
  0
LINE
  5
1D2B
100
AcDbEntity
  8
外形
  6
CONTINUOUS
100
AcDbLine
 10
31.1462
 20
179.347388
 30
0.0
 11
31.1462
 21
179.081553
 31
0.0
  0
LINE
  5
1D2C
100
AcDbEntity
  8
外形
  6
CONTINUOUS
100
AcDbLine
 10
30.147135
 20
179.081553
 30
0.0
 11
30.147135
 21
179.347388
 31
0.0
  0
ARC
  5
1D30
100
AcDbEntity
  8
外形
  6
CONTINUOUS
100
AcDbCircle
 10
31.021788
 20
184.408921
 30
0.0
 40
5.338031
100
AcDbArc
 50
273.622128
 51
1.486406
  0
LINE
  5
1D33
100
AcDbEntity
  8
外形
  6
CONTINUOUS
100
AcDbLine
 10
25.376064
 20
222.914258
 30
0.0
 11
31.365981
 21
222.914258
 31
0.0
  0
ELLIPSE
  5
1D34
100
AcDbEntity
  8
外形
  6
CONTINUOUS
100
AcDbEllipse
 10
31.363909
 20
228.833928
 30
0.0
 11
-0.0048861143222538
 21
-5.91967059894381
 31
0.0
210
0.0
220
0.0
230
1.0
 40
0.843816
 41
0.0
 42
1.177961366798766
  0
LINE
  5
1D35
100
AcDbEntity
  8
外形
  6
CONTINUOUS
100
AcDbLine
 10
35.97774
 20
231.10384
 30
0.0
 11
121.333267
 21
231.10384
 31
0.0
  0
LINE
  5
1D36
100
AcDbEntity
  8
外形
  6
CONTINUOUS
100
AcDbLine
 10
35.976661
 20
226.564016
 30
0.0
 11
121.333267
 21
226.564016
 31
0.0
  0
LINE
  5
1D37
100
AcDbEntity
  8
外形
  6
CONTINUOUS
100
AcDbLine
 10
35.97774
 20
231.10384
 30
0.0
 11
35.976661
 21
226.564016
 31
0.0
  0
ELLIPSE
  5
1D38
100
AcDbEntity
  8
外形
  6
CONTINUOUS
100
AcDbEllipse
 10
31.363909
 20
228.833928
 30
0.0
 11
-0.0048861143222538
 21
-5.91967059894381
 31
0.0
210
0.0
220
0.0
230
1.0
 40
0.843816
 41
1.965024263048133
 42
3.143549011158454
  0
LINE
  5
1D39
100
AcDbEntity
  8
外形
  6
CONTINUOUS
100
AcDbLine
 10
47.359023
 20
231.10384
 30
0.0
 11
47.359023
 21
234.833928
 31
0.0
  0
LINE
  5
1D3D
100
AcDbEntity
  8
外形
  6
CONTINUOUS
100
AcDbLine
 10
36.358023
 20
184.547388
 30
0.0
 11
183.221353
 21
184.547388
 31
0.0
  0
LINE
  5
1D3E
100
AcDbEntity
  8
外形
  6
CONTINUOUS
100
AcDbLine
 10
24.359023
 20
173.547388
 30
0.0
 11
27.059023
 21
173.547388
 31
0.0
  0
LINE
  5
1D3F
100
AcDbEntity
  8
寸法
  6
CONTINUOUS
100
AcDbLine
 10
23.921353
 20
225.312268
 30
0.0
 11
23.921353
 21
230.92171
 31
0.0
  0
LINE
  5
1D40
100
AcDbEntity
  8
外形
  6
CONTINUOUS
100
AcDbLine
 10
183.921353
 20
224.033928
 30
0.0
 11
183.921353
 21
233.633928
 31
0.0
  0
LINE
  5
1D45
100
AcDbEntity
  8
外形
  6
CONTINUOUS
100
AcDbLine
 10
182.721353
 20
222.833928
 30
0.0
 11
183.921353
 21
224.033928
 31
0.0
  0
LINE
  5
1D46
100
AcDbEntity
  8
外形
  6
CONTINUOUS
100
AcDbLine
 10
182.721353
 20
234.833928
 30
0.0
 11
183.921353
 21
233.633928
 31
0.0
  0
LINE
  5
1D48
100
AcDbEntity
  8
外形
  6
CONTINUOUS
100
AcDbLine
 10
182.721353
 20
234.833928
 30
0.0
 11
182.721353
 21
231.10384
 31
0.0
  0
ELLIPSE
  5
1D49
100
AcDbEntity
  8
外形
  6
CONTINUOUS
100
AcDbEllipse
 10
182.721353
 20
228.833928
 30
0.0
 11
0.0
 21
2.269911892563243
 31
0.0
210
0.0
220
0.0
230
1.0
 40
0.220273
 41
3.141592653589793
 42
6.283185307179586
  0
LINE
  5
1D4A
100
AcDbEntity
  8
外形
  6
CONTINUOUS
100
AcDbLine
 10
182.721353
 20
226.564016
 30
0.0
 11
182.721353
 21
222.833928
 31
0.0
  0
LINE
  5
1D4B
100
AcDbEntity
  8
外形
  6
CONTINUOUS
100
AcDbLine
 10
183.921353
 20
174.247388
 30
0.0
 11
183.921353
 21
183.847388
 31
0.0
  0
LINE
  5
1D4C
100
AcDbEntity
  8
外形
  6
CONTINUOUS
100
AcDbLine
 10
183.221353
 20
184.547388
 30
0.0
 11
183.921353
 21
183.847388
 31
0.0
  0
LINE
  5
1D4D
100
AcDbEntity
  8
外形
  6
CONTINUOUS
100
AcDbLine
 10
182.721353
 20
184.547388
 30
0.0
 11
182.721353
 21
173.547388
 31
0.0
  0
LINE
  5
1D4E
100
AcDbEntity
  8
外形
  6
CONTINUOUS
100
AcDbLine
 10
183.221353
 20
173.547388
 30
0.0
 11
183.921353
 21
174.247388
 31
0.0
  0
LINE
  5
1D51
100
AcDbEntity
  8
外形
  6
CENTER
 62
     1
100
AcDbLine
 10
131.606406
 20
221.166873
 30
0.0
 11
131.606406
 21
237.927081
 31
0.0
  0
ARC
  5
1D52
100
AcDbEntity
  8
外形
  6
CONTINUOUS
100
AcDbCircle
 10
131.606406
 20
228.833928
 30
0.0
 40
6.0
100
AcDbArc
 50
203.556464
 51
336.443536
  0
LINE
  5
1D55
100
AcDbEntity
  8
外形
  6
CONTINUOUS
100
AcDbLine
 10
140.969265
 20
234.833928
 30
0.0
 11
182.721353
 21
234.833928
 31
0.0
  0
LINE
  5
1D56
100
AcDbEntity
  8
外形
  6
CONTINUOUS
100
AcDbLine
 10
140.969265
 20
231.10384
 30
0.0
 11
182.721353
 21
231.10384
 31
0.0
  0
LINE
  5
1D57
100
AcDbEntity
  8
外形
  6
CONTINUOUS
100
AcDbLine
 10
140.969265
 20
226.564016
 30
0.0
 11
182.721353
 21
226.564016
 31
0.0
  0
LINE
  5
1D58
100
AcDbEntity
  8
外形
  6
CONTINUOUS
100
AcDbLine
 10
140.969265
 20
222.833928
 30
0.0
 11
182.721353
 21
222.833928
 31
0.0
  0
ARC
  5
1D62
100
AcDbEntity
  8
外形
  6
CONTINUOUS
100
AcDbCircle
 10
131.606406
 20
228.833928
 30
0.0
 40
6.0
100
AcDbArc
 50
23.556464
 51
156.443536
  0
DIMENSION
  5
1D75
100
AcDbEntity
  8
寸法
  6
CONTINUOUS
100
AcDbDimension
  2
*D2
 10
-11.011181
 20
222.621972
 30
0.0
 11
-24.421459
 21
212.663601
 31
0.0
 12
-11.569743
 22
-97.81077
 32
0.0
 70
    34
  1
-6°50'
  3
STANDARD
100
AcDb2LineAngularDimension
 13
-11.062437
 23
240.697716
 33
0.0
 14
-11.062437
 24
216.970141
 34
0.0
 15
-10.332694
 25
228.283924
 35
0.0
 16
-11.705865
 26
206.017839
 36
0.0
1001
ACAD
1000
DSTYLE
1002
{
1070
   284
1070
    13
1070
   146
1040
0.5
1070
   272
1070
     3
1070
    40
1040
1.0
1070
   287
1070
     0
1002
}
  0
DIMENSION
  5
1D99
100
AcDbEntity
  8
寸法
  6
CONTINUOUS
100
AcDbDimension
  2
*D3
 10
23.92184
 20
223.500117
 30
0.0
 11
33.516854
 21
242.20064
 31
0.0
 12
-11.569743
 22
-97.81077
 32
0.0
 70
   162
  3
STANDARD
100
AcDb2LineAngularDimension
 13
23.921353
 23
225.312268
 33
0.0
 14
23.921353
 24
230.92171
 34
0.0
 15
24.065101
 25
227.602577
 35
0.0
 16
24.166055
 26
244.515794
 36
0.0
1001
ACAD
1000
DSTYLE
1002
{
1070
   284
1070
    13
1070
   146
1040
0.5
1070
   272
1070
     3
1070
    40
1040
1.0
1070
   287
1070
     0
1002
}
  0
DIMENSION
  5
1DA9
100
AcDbEntity
  8
寸法
  6
CONTINUOUS
100
AcDbDimension
  2
*D4
 10
10.410368
 20
249.421033
 30
0.0
 11
10.410368
 21
238.870559
 31
0.0
 12
-11.569743
 22
-97.81077
 32
0.0
 70
   160
  1
%%c15
  3
STANDARD
100
AcDbAlignedDimension
 13
24.721353
 23
222.672197
 33
0.0
 14
24.721353
 24
249.421033
 34
0.0
 50
90.0
100
AcDbRotatedDimension
1001
ACAD
1000
DSTYLE
1002
{
1070
   284
1070
    13
1070
   146
1040
0.5
1070
   272
1070
     3
1070
    76
1070
     1
1070
   282
1070
     1
1070
    40
1040
1.0
1070
   287
1070
     0
1002
}
  0
MTEXT
  5
1DAA
100
AcDbEntity
  8
寸法
  6
BYBLOCK
 62
     3
100
AcDbMText
 10
12.930195
 20
239.539274
 30
0.0
 40
3.0
 41
0.0
 71
     5
 72
     1
  1
最小加工径
 11
0.0
 21
1.0
 31
0.0
  0
DIMENSION
  5
1DC7
100
AcDbEntity
  8
寸法
  6
CONTINUOUS
100
AcDbDimension
  2
*D5
 10
128.051766
 20
224.000241
 30
0.0
 11
140.493005
 21
240.918147
 31
0.0
 12
-11.569743
 22
-97.81077
 32
0.0
 70
   163
  3
STANDARD
100
AcDbDiametricDimension
 15
135.161046
 25
233.667616
 35
0.0
 40
0.0
1001
ACAD
1000
DSTYLE
1002
{
1070
   284
1070
    13
1070
   146
1040
0.5
1070
   272
1070
     3
1070
    40
1040
1.0
1070
   287
1070
     0
1002
}
  0
LINE
  5
1DD2
100
AcDbEntity
  8
外形
  6
CONTINUOUS
100
AcDbLine
 10
126.106406
 20
226.436012
 30
0.0
 11
126.106406
 21
231.231844
 31
0.0
  0
LINE
  5
1DD3
100
AcDbEntity
  8
外形
  6
CONTINUOUS
100
AcDbLine
 10
137.106406
 20
226.436012
 30
0.0
 11
137.106406
 21
231.231844
 31
0.0
  0
DIMENSION
  5
1DE0
100
AcDbEntity
  8
寸法
  6
CONTINUOUS
100
AcDbDimension
  2
*D6
 10
137.106406
 20
209.130941
 30
0.0
 11
131.606406
 21
211.630941
 31
0.0
 12
-11.569743
 22
-97.81077
 32
0.0
 70
    32
  3
STANDARD
100
AcDbAlignedDimension
 13
126.106406
 23
226.436012
 33
0.0
 14
137.106406
 24
226.436012
 34
0.0
100
AcDbRotatedDimension
1001
ACAD
1000
DSTYLE
1002
{
1070
   284
1070
    13
1070
   146
1040
0.5
1070
   272
1070
     3
1070
    40
1040
1.0
1070
   287
1070
     0
1002
}
  0
DIMENSION
  5
1DED
100
AcDbEntity
  8
寸法
  6
CONTINUOUS
100
AcDbDimension
  2
*D7
 10
183.921353
 20
199.197376
 30
0.0
 11
103.921353
 21
201.697376
 31
0.0
 12
-11.569743
 22
-97.81077
 32
0.0
 70
    32
  3
STANDARD
100
AcDbAlignedDimension
 13
23.921353
 23
223.472197
 33
0.0
 14
183.921353
 24
224.033928
 34
0.0
100
AcDbRotatedDimension
1001
ACAD
1000
DSTYLE
1002
{
1070
   284
1070
    13
1070
   146
1040
0.5
1070
   272
1070
     3
1070
    40
1040
1.0
1070
   287
1070
     0
1002
}
  0
ELLIPSE
  5
1F1A
100
AcDbEntity
  8
外形
  6
CONTINUOUS
100
AcDbEllipse
 10
29.059023
 20
173.547388
 30
0.0
 11
-2.0
 21
0.0
 31
0.0
210
0.0
220
0.0
230
1.0
 40
0.188262
 41
3.141592653589793
 42
6.283185307179586
  0
LINE
  5
1F1B
100
AcDbEntity
  8
外形
  6
CONTINUOUS
100
AcDbLine
 10
31.059023
 20
173.547388
 30
0.0
 11
183.221353
 21
173.547388
 31
0.0
  0
LINE
  5
1FAD
100
AcDbEntity
  8
外形
  6
CONTINUOUS
100
AcDbLine
 10
25.220148
 20
179.047388
 30
0.0
 11
29.145818
 21
179.047388
 31
0.0
  0
LINE
  5
1FB7
100
AcDbEntity
  8
外形
  6
CONTINUOUS
100
AcDbLine
 10
23.921353
 20
179.047388
 30
0.0
 11
25.319023
 21
179.047388
 31
0.0
  0
ENDSEC
  0
SECTION
  2
OBJECTS
  0
DICTIONARY
  5
1E
100
AcDbDictionary
  3
ACAD_GROUP
350
1C
  3
ACAD_MLINESTYLE
350
1D
  3
ACDBVARIABLEDICTIONARY
350
147A
  3
DRAWINGVARIABLESDICT
350
C58
  0
DICTIONARY
  5
38
100
AcDbDictionary
280
     1
  3
ACAD_XREC_ROUNDTRIP
360
39
  0
DICTIONARY
  5
22
100
AcDbDictionary
280
     1
  3
ACAD_XREC_ROUNDTRIP
360
23
  0
DICTIONARY
  5
3
100
AcDbDictionary
280
     1
  3
ACAD_LAYOUTSELFREF
360
4
  0
DICTIONARY
  5
A
100
AcDbDictionary
280
     1
  3
ACAD_LAYOUTSELFREF
360
B
  0
DICTIONARY
  5
1C
102
{ACAD_REACTORS
330
1E
102
}
100
AcDbDictionary
  0
DICTIONARY
  5
1D
102
{ACAD_REACTORS
330
1E
102
}
100
AcDbDictionary
  3
STANDARD
350
20
  0
DICTIONARY
  5
147A
102
{ACAD_REACTORS
330
1E
102
}
100
AcDbDictionary
  3
SORTENTS
350
147B
  0
DICTIONARY
  5
C58
102
{ACAD_REACTORS
330
1E
102
}
100
AcDbDictionary
1001
DRAWINGVARIABLESXDATA
1000
POLARMODE
1000
0
  0
XRECORD
  5
39
102
{ACAD_REACTORS
330
38
102
}
100
AcDbXrecord
102
PLOTBIT
280
     0
  0
XRECORD
  5
23
102
{ACAD_REACTORS
330
22
102
}
100
AcDbXrecord
102
ACADR14ROUNDTRIP
1000
DSTYLE
1002
{
1070
   341
340
0
1070
   343
340
0
1070
   344
340
0
1002
}
  0
XRECORD
  5
4
102
{ACAD_REACTORS
330
3
102
}
100
AcDbXrecord
340
2
  0
XRECORD
  5
B
102
{ACAD_REACTORS
330
A
102
}
100
AcDbXrecord
340
9
  0
MLINESTYLE
  5
20
102
{ACAD_REACTORS
330
1D
102
}
100
AcDbMlineStyle
  2
STANDARD
 70
     0
  3

 62
     0
 51
90.0
 52
90.0
 71
     2
 49
0.5
 62
   256
  6
BYLAYER
 49
-0.5
 62
   256
  6
BYLAYER
  0
DICTIONARYVAR
  5
147B
102
{ACAD_REACTORS
330
147A
102
}
100
DictionaryVariables
280
     0
  1
96
  0
ENDSEC
  0
EOF
