  0
SECTION
  2
HEADER
  9
$ACADVER
  1
AC1014
  9
$ACADMAINTVER
 70
     0
  9
$DWGCODEPAGE
  3
ANSI_932
  9
$INSBASE
 10
-587.250952
 20
747.890188
 30
0.0
  9
$EXTMIN
 10
37.133542
 20
150.213866
 30
0.0
  9
$EXTMAX
 10
150.768889
 20
228.932011
 30
0.0
  9
$LIMMIN
 10
-587.250952
 20
327.890188
  9
$LIMMAX
 10
600.749048
 20
957.890188
  9
$ORTHOMODE
 70
     1
  9
$REGENMODE
 70
     1
  9
$FILLMODE
 70
     1
  9
$QTEXTMODE
 70
     0
  9
$MIRRTEXT
 70
     1
  9
$DRAGMODE
 70
     2
  9
$LTSCALE
 40
5.0
  9
$OSMODE
 70
    37
  9
$ATTMODE
 70
     1
  9
$TEXTSIZE
 40
5.0
  9
$TRACEWID
 40
0.05
  9
$TEXTSTYLE
  7
STANDARD
  9
$CLAYER
  8
寸法
  9
$CELTYPE
  6
CONTINUOUS
  9
$CECOLOR
 62
   256
  9
$CELTSCALE
 40
1.0
  9
$DELOBJ
 70
     1
  9
$DISPSILH
 70
     0
  9
$DIMSCALE
 40
1.0
  9
$DIMASZ
 40
2.0
  9
$DIMEXO
 40
1.0
  9
$DIMDLI
 40
8.0
  9
$DIMRND
 40
0.0
  9
$DIMDLE
 40
0.0
  9
$DIMEXE
 40
2.0
  9
$DIMTP
 40
0.0
  9
$DIMTM
 40
0.0
  9
$DIMTXT
 40
3.0
  9
$DIMCEN
 40
-1.0
  9
$DIMTSZ
 40
0.0
  9
$DIMTOL
 70
     0
  9
$DIMLIM
 70
     0
  9
$DIMTIH
 70
     0
  9
$DIMTOH
 70
     0
  9
$DIMSE1
 70
     0
  9
$DIMSE2
 70
     0
  9
$DIMTAD
 70
     1
  9
$DIMZIN
 70
     8
  9
$DIMBLK
  1

  9
$DIMASO
 70
     1
  9
$DIMSHO
 70
     1
  9
$DIMPOST
  1

  9
$DIMAPOST
  1

  9
$DIMALT
 70
     0
  9
$DIMALTD
 70
     2
  9
$DIMALTF
 40
25.4
  9
$DIMLFAC
 40
1.0
  9
$DIMTOFL
 70
     1
  9
$DIMTVP
 40
0.0
  9
$DIMTIX
 70
     0
  9
$DIMSOXD
 70
     0
  9
$DIMSAH
 70
     1
  9
$DIMBLK1
  1
_OPEN30
  9
$DIMBLK2
  1
_OPEN30
  9
$DIMSTYLE
  2
STANDARD
  9
$DIMCLRD
 70
     1
  9
$DIMCLRE
 70
     1
  9
$DIMCLRT
 70
     3
  9
$DIMTFAC
 40
0.5
  9
$DIMGAP
 40
1.0
  9
$DIMJUST
 70
     0
  9
$DIMSD1
 70
     0
  9
$DIMSD2
 70
     0
  9
$DIMTOLJ
 70
     1
  9
$DIMTZIN
 70
    13
  9
$DIMALTZ
 70
     0
  9
$DIMALTTZ
 70
     0
  9
$DIMFIT
 70
     0
  9
$DIMUPT
 70
     0
  9
$DIMUNIT
 70
     2
  9
$DIMDEC
 70
     2
  9
$DIMTDEC
 70
     3
  9
$DIMALTU
 70
     2
  9
$DIMALTTD
 70
     2
  9
$DIMTXSTY
  7
STANDARD
  9
$DIMAUNIT
 70
     0
  9
$LUNITS
 70
     2
  9
$LUPREC
 70
     0
  9
$SKETCHINC
 40
0.1
  9
$FILLETRAD
 40
1.08
  9
$AUNITS
 70
     0
  9
$AUPREC
 70
     0
  9
$MENU
  1
acad
  9
$ELEVATION
 40
0.0
  9
$PELEVATION
 40
0.0
  9
$THICKNESS
 40
0.0
  9
$LIMCHECK
 70
     0
  9
$BLIPMODE
 70
     0
  9
$CHAMFERA
 40
0.0
  9
$CHAMFERB
 40
0.0
  9
$CHAMFERC
 40
0.0
  9
$CHAMFERD
 40
0.0
  9
$SKPOLY
 70
     0
  9
$TDCREATE
 40
2450751.535399305
  9
$TDUPDATE
 40
2452044.366423611
  9
$TDINDWG
 40
1.5505723380
  9
$TDUSRTIMER
 40
1.5505723380
  9
$USRTIMER
 70
     1
  9
$ANGBASE
 50
0.0
  9
$ANGDIR
 70
     0
  9
$PDMODE
 70
    32
  9
$PDSIZE
 40
0.0
  9
$PLINEWID
 40
0.0
  9
$COORDS
 70
     2
  9
$SPLFRAME
 70
     0
  9
$SPLINETYPE
 70
     5
  9
$SPLINESEGS
 70
     8
  9
$ATTDIA
 70
     0
  9
$ATTREQ
 70
     1
  9
$HANDLING
 70
     1
  9
$HANDSEED
  5
162E
  9
$SURFTAB1
 70
     6
  9
$SURFTAB2
 70
     6
  9
$SURFTYPE
 70
     6
  9
$SURFU
 70
     6
  9
$SURFV
 70
     6
  9
$UCSNAME
  2

  9
$UCSORG
 10
40.53800450572526
 20
146.9196145921314
 30
0.0
  9
$UCSXDIR
 10
1.0
 20
0.0
 30
0.0
  9
$UCSYDIR
 10
0.0
 20
1.0
 30
0.0
  9
$PUCSNAME
  2

  9
$PUCSORG
 10
0.0
 20
0.0
 30
0.0
  9
$PUCSXDIR
 10
1.0
 20
0.0
 30
0.0
  9
$PUCSYDIR
 10
0.0
 20
1.0
 30
0.0
  9
$USERI1
 70
     0
  9
$USERI2
 70
     0
  9
$USERI3
 70
     0
  9
$USERI4
 70
     0
  9
$USERI5
 70
     0
  9
$USERR1
 40
0.0
  9
$USERR2
 40
0.0
  9
$USERR3
 40
0.0
  9
$USERR4
 40
0.0
  9
$USERR5
 40
0.0
  9
$WORLDVIEW
 70
     1
  9
$SHADEDGE
 70
     3
  9
$SHADEDIF
 70
    70
  9
$TILEMODE
 70
     1
  9
$MAXACTVP
 70
    16
  9
$PINSBASE
 10
0.0
 20
0.0
 30
0.0
  9
$PLIMCHECK
 70
     0
  9
$PEXTMIN
 10
1.000000E+20
 20
1.000000E+20
 30
1.000000E+20
  9
$PEXTMAX
 10
-1.000000E+20
 20
-1.000000E+20
 30
-1.000000E+20
  9
$PLIMMIN
 10
0.0
 20
0.0
  9
$PLIMMAX
 10
12.0
 20
9.0
  9
$UNITMODE
 70
     0
  9
$VISRETAIN
 70
     0
  9
$PLINEGEN
 70
     0
  9
$PSLTSCALE
 70
     1
  9
$TREEDEPTH
 70
  3020
  9
$PICKSTYLE
 70
     1
  9
$CMLSTYLE
  2
STANDARD
  9
$CMLJUST
 70
     0
  9
$CMLSCALE
 40
1.0
  9
$PROXYGRAPHICS
 70
     1
  9
$MEASUREMENT
 70
     0
  0
ENDSEC
  0
SECTION
  2
CLASSES
  0
CLASS
  1
LWPOLYLINE
  2
AcDbPolyline
  3
"AutoCAD"
 90
        0
280
     0
281
     1
  0
CLASS
  1
ACDBDICTIONARYWDFLT
  2
AcDbDictionaryWithDefault
  3
AutoCAD 2000
 90
        0
280
     1
281
     0
  0
CLASS
  1
ACDBPLACEHOLDER
  2
AcDbPlaceHolder
  3
AutoCAD 2000
 90
        0
280
     1
281
     0
  0
CLASS
  1
LAYOUT
  2
AcDbLayout
  3
AutoCAD 2000
 90
        0
280
     1
281
     0
  0
CLASS
  1
LONG_TRANSACTION
  2
AcDbLongTransaction
  3
AutoCAD 2000
 90
        0
280
     1
281
     0
  0
CLASS
  1
LWPOLYLINE
  2
AcDbPolyline
  3
"AutoCAD"
 90
        0
280
     0
281
     1
  0
CLASS
  1
HATCH
  2
AcDbHatch
  3
"ACAD_SEDONA"
 90
        0
280
     0
281
     1
  0
CLASS
  1
XRECORD
  2
AcDbXrecord
  3
"<Built In>"
 90
        0
280
     0
281
     0
  0
CLASS
  1
DICTIONARYVAR
  2
AcDbDictionaryVar
  3
"AutoCAD"
 90
        0
280
     0
281
     0
  0
ENDSEC
  0
SECTION
  2
TABLES
  0
TABLE
  2
VPORT
  5
16
100
AcDbSymbolTable
 70
     2
  0
VPORT
  5
162D
100
AcDbSymbolTableRecord
100
AcDbViewportTableRecord
  2
*ACTIVE
 70
     0
 10
0.0
 20
0.0
 11
1.0
 21
1.0
 12
96.851685
 22
191.691825
 13
0.0
 23
0.0
 14
1.0
 24
1.0
 15
10.0
 25
10.0
 16
0.0
 26
0.0
 36
1.0
 17
0.0
 27
0.0
 37
0.0
 40
91.173548
 41
1.710425
 42
50.0
 43
0.0
 44
0.0
 50
0.0
 51
0.0
 71
     0
 72
   100
 73
     1
 74
     1
 75
     0
 76
     0
 77
     0
 78
     2
  0
ENDTAB
  0
TABLE
  2
LTYPE
  5
11
100
AcDbSymbolTable
 70
     2
  0
LTYPE
  5
12
100
AcDbSymbolTableRecord
100
AcDbLinetypeTableRecord
  2
BYBLOCK
 70
     0
  3

 72
    65
 73
     0
 40
0.0
  0
LTYPE
  5
13
100
AcDbSymbolTableRecord
100
AcDbLinetypeTableRecord
  2
BYLAYER
 70
     0
  3

 72
    65
 73
     0
 40
0.0
  0
LTYPE
  5
7
100
AcDbSymbolTableRecord
100
AcDbLinetypeTableRecord
  2
CONTINUOUS
 70
     0
  3
Solid line
 72
    65
 73
     0
 40
0.0
  0
LTYPE
  5
AA
100
AcDbSymbolTableRecord
100
AcDbLinetypeTableRecord
  2
CENTER
 70
     0
  3
Center ____ _ ____ _ ____ _ ____ _ ____ _ ____
 72
    65
 73
     4
 40
2.0
 49
1.25
 74
     0
 49
-0.25
 74
     0
 49
0.25
 74
     0
 49
-0.25
 74
     0
  0
ENDTAB
  0
TABLE
  2
LAYER
  5
E
100
AcDbSymbolTable
 70
     5
  0
LAYER
  5
6
100
AcDbSymbolTableRecord
100
AcDbLayerTableRecord
  2
0
 70
     0
 62
     7
  6
CONTINUOUS
  0
LAYER
  5
2C
100
AcDbSymbolTableRecord
100
AcDbLayerTableRecord
  2
外形
 70
     0
 62
     3
  6
CONTINUOUS
  0
LAYER
  5
37
102
{ACAD_XDICTIONARY
360
38
102
}
100
AcDbSymbolTableRecord
100
AcDbLayerTableRecord
  2
DEFPOINTS
 70
     0
 62
     7
  6
CONTINUOUS
  0
LAYER
  5
1F
100
AcDbSymbolTableRecord
100
AcDbLayerTableRecord
  2
寸法
 70
     0
 62
     1
  6
CONTINUOUS
  0
LAYER
  5
673
100
AcDbSymbolTableRecord
100
AcDbLayerTableRecord
  2
参考
 70
     0
 62
     2
  6
CONTINUOUS
  0
ENDTAB
  0
TABLE
  2
STYLE
  5
F
100
AcDbSymbolTable
 70
     1
  0
STYLE
  5
10
100
AcDbSymbolTableRecord
100
AcDbTextStyleTableRecord
  2
STANDARD
 70
     0
 40
0.0
 41
1.0
 50
0.0
 71
     0
 42
5.0
  3
MONOTXT
  4
BIGFONT
  0
ENDTAB
  0
TABLE
  2
VIEW
  5
14
100
AcDbSymbolTable
 70
     0
  0
ENDTAB
  0
TABLE
  2
UCS
  5
15
100
AcDbSymbolTable
 70
     0
  0
ENDTAB
  0
TABLE
  2
APPID
  5
18
100
AcDbSymbolTable
 70
     2
  0
APPID
  5
19
100
AcDbSymbolTableRecord
100
AcDbRegAppTableRecord
  2
ACAD
 70
     0
  0
APPID
  5
C59
100
AcDbSymbolTableRecord
100
AcDbRegAppTableRecord
  2
DRAWINGVARIABLESXDATA
 70
     0
  0
ENDTAB
  0
TABLE
  2
DIMSTYLE
  5
1A
100
AcDbSymbolTable
 70
     2
  0
DIMSTYLE
105
21
102
{ACAD_XDICTIONARY
360
22
102
}
102
{ACAD_REACTORS
330
13E4
330
13FD
330
1410
330
1442
330
162C
102
}
100
AcDbSymbolTableRecord
100
AcDbDimStyleTableRecord
  2
STANDARD
 70
     0
  3

  4

  5

  6
_OPEN30
  7
_OPEN30
 40
0.0
 41
2.0
 42
1.0
 43
8.0
 44
2.0
 45
0.0
 46
0.0
 47
0.0
 48
0.0
140
3.0
141
-1.0
142
0.0
143
25.4
144
1.0
145
0.0
146
1.0
147
1.0
 71
     0
 72
     0
 73
     0
 74
     0
 75
     0
 76
     0
 77
     1
 78
     8
170
     0
171
     2
172
     1
173
     1
174
     0
175
     0
176
     1
177
     1
178
     3
270
     2
271
     2
272
     2
273
     2
274
     2
340
10
275
     0
280
     0
281
     0
282
     0
283
     1
284
     8
285
     0
286
     0
287
     3
288
     0
  0
DIMSTYLE
105
674
102
{ACAD_REACTORS
330
F7F
102
}
100
AcDbSymbolTableRecord
100
AcDbDimStyleTableRecord
  2
参考寸法
 70
     0
  3

  4

  5

  6
_DOTSMALL
  7
_DOTSMALL
 40
1.0
 41
2.0
 42
1.0
 43
8.0
 44
2.0
 45
0.0
 46
0.0
 47
0.0
 48
0.0
140
3.0
141
-1.0
142
0.0
143
25.4
144
1.0
145
0.0
146
1.0
147
1.0
 71
     0
 72
     0
 73
     0
 74
     0
 75
     0
 76
     0
 77
     1
 78
     8
170
     0
171
     2
172
     1
173
     1
174
     0
175
     0
176
     2
177
     2
178
     2
270
     2
271
     3
272
     2
273
     2
274
     2
340
10
275
     0
280
     0
281
     0
282
     0
283
     1
284
     8
285
     0
286
     0
287
     3
288
     0
  0
ENDTAB
  0
TABLE
  2
BLOCK_RECORD
  5
1
100
AcDbSymbolTable
 70
    21
  0
BLOCK_RECORD
  5
2
102
{ACAD_XDICTIONARY
360
3
102
}
100
AcDbSymbolTableRecord
100
AcDbBlockTableRecord
  2
*MODEL_SPACE
  0
BLOCK_RECORD
  5
9
102
{ACAD_XDICTIONARY
360
A
102
}
100
AcDbSymbolTableRecord
100
AcDbBlockTableRecord
  2
*PAPER_SPACE
  0
BLOCK_RECORD
  5
24
100
AcDbSymbolTableRecord
100
AcDbBlockTableRecord
  2
_DOTSMALL
  0
BLOCK_RECORD
  5
470
100
AcDbSymbolTableRecord
100
AcDbBlockTableRecord
  2
_OPEN30
  0
BLOCK_RECORD
  5
F73
100
AcDbSymbolTableRecord
100
AcDbBlockTableRecord
  2
*D7
  0
BLOCK_RECORD
  5
13D6
100
AcDbSymbolTableRecord
100
AcDbBlockTableRecord
  2
*D16
  0
BLOCK_RECORD
  5
13F2
100
AcDbSymbolTableRecord
100
AcDbBlockTableRecord
  2
*D17
  0
BLOCK_RECORD
  5
13FE
100
AcDbSymbolTableRecord
100
AcDbBlockTableRecord
  2
*D18
  0
BLOCK_RECORD
  5
1430
100
AcDbSymbolTableRecord
100
AcDbBlockTableRecord
  2
*D19
  0
BLOCK_RECORD
  5
161E
100
AcDbSymbolTableRecord
100
AcDbBlockTableRecord
  2
*D20
  0
ENDTAB
  0
ENDSEC
  0
SECTION
  2
BLOCKS
  0
BLOCK
  5
5
100
AcDbEntity
  8
0
100
AcDbBlockBegin
  2
*MODEL_SPACE
 70
     0
 10
0.0
 20
0.0
 30
0.0
  3
*MODEL_SPACE
  1

  0
ENDBLK
  5
8
100
AcDbEntity
  8
0
100
AcDbBlockEnd
  0
BLOCK
  5
C
100
AcDbEntity
 67
     1
  8
0
100
AcDbBlockBegin
  2
*PAPER_SPACE
 70
     0
 10
0.0
 20
0.0
 30
0.0
  3
*PAPER_SPACE
  1

  0
ENDBLK
  5
D
100
AcDbEntity
 67
     1
  8
0
100
AcDbBlockEnd
  0
BLOCK
  5
29
100
AcDbEntity
  8
0
100
AcDbBlockBegin
  2
_DOTSMALL
 70
     0
 10
0.0
 20
0.0
 30
0.0
  3
_DOTSMALL
  1

  0
POLYLINE
  5
25
100
AcDbEntity
  8
0
  6
BYBLOCK
 62
     0
100
AcDb2dPolyline
 66
     1
 10
0.0
 20
0.0
 30
0.0
 70
     1
 40
0.5
 41
0.5
  0
VERTEX
  5
26
100
AcDbEntity
  8
0
  6
BYBLOCK
 62
     0
100
AcDbVertex
100
AcDb2dVertex
 10
-0.0625
 20
0.0
 30
0.0
 42
1.0
  0
VERTEX
  5
27
100
AcDbEntity
  8
0
  6
BYBLOCK
 62
     0
100
AcDbVertex
100
AcDb2dVertex
 10
0.0625
 20
0.0
 30
0.0
 42
1.0
  0
SEQEND
  5
28
100
AcDbEntity
  8
0
  6
BYBLOCK
 62
     0
  0
ENDBLK
  5
2A
100
AcDbEntity
  8
0
100
AcDbBlockEnd
  0
BLOCK
  5
471
100
AcDbEntity
  8
0
100
AcDbBlockBegin
  2
_OPEN30
 70
     0
 10
0.0
 20
0.0
 30
0.0
  3
_OPEN30
  1

  0
LINE
  5
472
100
AcDbEntity
  8
0
  6
BYBLOCK
 62
     0
100
AcDbLine
 10
-1.0
 20
0.267949
 30
0.0
 11
0.0
 21
0.0
 31
0.0
  0
LINE
  5
473
100
AcDbEntity
  8
0
  6
BYBLOCK
 62
     0
100
AcDbLine
 10
0.0
 20
0.0
 30
0.0
 11
-1.0
 21
-0.267949
 31
0.0
  0
LINE
  5
474
100
AcDbEntity
  8
0
  6
BYBLOCK
 62
     0
100
AcDbLine
 10
0.0
 20
0.0
 30
0.0
 11
-1.0
 21
0.0
 31
0.0
  0
ENDBLK
  5
475
100
AcDbEntity
  8
0
100
AcDbBlockEnd
  0
BLOCK
  5
12AD
100
AcDbEntity
  8
0
100
AcDbBlockBegin
  2
*D7
 70
     1
 10
0.0
 20
0.0
 30
0.0
  3
*D7
  1

  0
LINE
  5
12AE
100
AcDbEntity
  8
0
  6
BYBLOCK
 62
     1
100
AcDbLine
 10
43.02743
 20
148.163575
 30
0.0
 11
43.02743
 21
123.601971
 31
0.0
  0
LINE
  5
12AF
100
AcDbEntity
  8
0
  6
BYBLOCK
 62
     1
100
AcDbLine
 10
123.02699
 20
149.663575
 30
0.0
 11
123.02699
 21
123.601971
 31
0.0
  0
LINE
  5
12B0
100
AcDbEntity
  8
0
  6
BYBLOCK
 62
     1
100
AcDbLine
 10
45.02743
 20
125.601971
 30
0.0
 11
121.02699
 21
125.601971
 31
0.0
  0
INSERT
  5
12B1
100
AcDbEntity
  8
0
  6
BYBLOCK
 62
     1
100
AcDbBlockReference
  2
_OPEN30
 10
43.02743
 20
125.601971
 30
0.0
 41
2.0
 42
2.0
 43
2.0
 50
180.0
  0
INSERT
  5
12B2
100
AcDbEntity
  8
0
  6
BYBLOCK
 62
     1
100
AcDbBlockReference
  2
_OPEN30
 10
123.02699
 20
125.601971
 30
0.0
 41
2.0
 42
2.0
 43
2.0
  0
MTEXT
  5
12B3
100
AcDbEntity
  8
0
  6
BYBLOCK
 62
     3
100
AcDbMText
 10
83.02721
 20
128.101971
 30
0.0
 40
3.0
 41
0.0
 71
     5
 72
     1
  1
\A1;80
  0
POINT
  5
12B4
100
AcDbEntity
  8
DEFPOINTS
  6
BYBLOCK
 62
     0
100
AcDbPoint
 10
43.02743
 20
149.163575
 30
0.0
  0
POINT
  5
12B5
100
AcDbEntity
  8
DEFPOINTS
  6
BYBLOCK
 62
     0
100
AcDbPoint
 10
123.02699
 20
150.663575
 30
0.0
  0
POINT
  5
12B6
100
AcDbEntity
  8
DEFPOINTS
  6
BYBLOCK
 62
     0
100
AcDbPoint
 10
123.02699
 20
125.601971
 30
0.0
  0
ENDBLK
  5
12B7
100
AcDbEntity
  8
0
100
AcDbBlockEnd
  0
BLOCK
  5
13E5
100
AcDbEntity
  8
0
100
AcDbBlockBegin
  2
*D16
 70
     1
 10
0.0
 20
0.0
 30
0.0
  3
*D16
  1

  0
LINE
  5
13E6
100
AcDbEntity
  8
0
  6
BYBLOCK
 62
     1
100
AcDbLine
 10
99.709639
 20
151.663575
 30
0.0
 11
99.709639
 21
134.062746
 31
0.0
  0
LINE
  5
13E7
100
AcDbEntity
  8
0
  6
BYBLOCK
 62
     1
100
AcDbLine
 10
105.209639
 20
151.663575
 30
0.0
 11
105.209639
 21
134.062746
 31
0.0
  0
LINE
  5
13E8
100
AcDbEntity
  8
0
  6
BYBLOCK
 62
     1
100
AcDbLine
 10
97.709639
 20
136.062746
 30
0.0
 11
95.709639
 21
136.062746
 31
0.0
  0
LINE
  5
13E9
100
AcDbEntity
  8
0
  6
BYBLOCK
 62
     1
100
AcDbLine
 10
107.209639
 20
136.062746
 30
0.0
 11
119.209639
 21
136.062746
 31
0.0
  0
LINE
  5
13EA
100
AcDbEntity
  8
0
  6
BYBLOCK
 62
     1
100
AcDbLine
 10
99.709639
 20
136.062746
 30
0.0
 11
105.209639
 21
136.062746
 31
0.0
  0
INSERT
  5
13EB
100
AcDbEntity
  8
0
  6
BYBLOCK
 62
     1
100
AcDbBlockReference
  2
_OPEN30
 10
99.709639
 20
136.062746
 30
0.0
 41
2.0
 42
2.0
 43
2.0
  0
INSERT
  5
13EC
100
AcDbEntity
  8
0
  6
BYBLOCK
 62
     1
100
AcDbBlockReference
  2
_OPEN30
 10
105.209639
 20
136.062746
 30
0.0
 41
2.0
 42
2.0
 43
2.0
 50
180.0
  0
MTEXT
  5
13ED
100
AcDbEntity
  8
0
  6
BYBLOCK
 62
     3
100
AcDbMText
 10
114.209639
 20
138.562746
 30
0.0
 40
3.0
 41
0.0
 71
     5
 72
     1
  1
\A1;5.5
  0
POINT
  5
13EE
100
AcDbEntity
  8
DEFPOINTS
  6
BYBLOCK
 62
     0
100
AcDbPoint
 10
99.709639
 20
152.663575
 30
0.0
  0
POINT
  5
13EF
100
AcDbEntity
  8
DEFPOINTS
  6
BYBLOCK
 62
     0
100
AcDbPoint
 10
105.209639
 20
152.663575
 30
0.0
  0
POINT
  5
13F0
100
AcDbEntity
  8
DEFPOINTS
  6
BYBLOCK
 62
     0
100
AcDbPoint
 10
105.209639
 20
136.062746
 30
0.0
  0
ENDBLK
  5
13F1
100
AcDbEntity
  8
0
100
AcDbBlockEnd
  0
BLOCK
  5
13F3
100
AcDbEntity
  8
0
100
AcDbBlockBegin
  2
*D17
 70
     1
 10
0.0
 20
0.0
 30
0.0
  3
*D17
  1

  0
LINE
  5
13F4
100
AcDbEntity
  8
0
  6
BYBLOCK
 62
     1
100
AcDbLine
 10
100.003313
 20
148.176691
 30
0.0
 11
99.120783
 21
146.381937
 31
0.0
  0
LINE
  5
13F5
100
AcDbEntity
  8
0
  6
BYBLOCK
 62
     1
100
AcDbLine
 10
104.415964
 20
157.150459
 30
0.0
 11
108.38735
 21
165.22685
 31
0.0
  0
LINE
  5
13F6
100
AcDbEntity
  8
0
  6
BYBLOCK
 62
     1
100
AcDbLine
 10
100.885843
 20
149.971444
 30
0.0
 11
103.533434
 21
155.355705
 31
0.0
  0
INSERT
  5
13F7
100
AcDbEntity
  8
0
  6
BYBLOCK
 62
     1
100
AcDbBlockReference
  2
_OPEN30
 10
100.885843
 20
149.971444
 30
0.0
 41
2.0
 42
2.0
 43
2.0
 50
63.815374
  0
INSERT
  5
13F8
100
AcDbEntity
  8
0
  6
BYBLOCK
 62
     1
100
AcDbBlockReference
  2
_OPEN30
 10
103.533434
 20
155.355705
 30
0.0
 41
2.0
 42
2.0
 43
2.0
 50
243.815374
  0
MTEXT
  5
13F9
100
AcDbEntity
  8
0
  6
BYBLOCK
 62
     3
100
AcDbMText
 10
104.59948
 20
163.189194
 30
0.0
 40
3.0
 41
0.0
 71
     5
 72
     1
  1
\A1;\U+22056
 11
0.441265
 21
0.897377
 31
0.0
  0
POINT
  5
13FA
100
AcDbEntity
  8
DEFPOINTS
  6
BYBLOCK
 62
     0
100
AcDbPoint
 10
103.533434
 20
155.355705
 30
0.0
  0
POINT
  5
13FB
100
AcDbEntity
  8
DEFPOINTS
  6
BYBLOCK
 62
     0
100
AcDbPoint
 10
100.885843
 20
149.971444
 30
0.0
  0
ENDBLK
  5
13FC
100
AcDbEntity
  8
0
100
AcDbBlockEnd
  0
BLOCK
  5
13FF
100
AcDbEntity
  8
0
100
AcDbBlockBegin
  2
*D18
 70
     1
 10
0.0
 20
0.0
 30
0.0
  3
*D18
  1

  0
LINE
  5
1400
100
AcDbEntity
  8
0
  6
BYBLOCK
 62
     1
100
AcDbLine
 10
34.098639
 20
148.179748
 30
0.0
 11
31.003726
 21
135.766728
 31
0.0
  0
LINE
  5
1401
100
AcDbEntity
  8
0
  6
BYBLOCK
 62
     1
100
AcDbLine
 10
34.340561
 20
148.011699
 30
0.0
 11
34.340561
 21
135.357016
 31
0.0
  0
ARC
  5
1402
100
AcDbEntity
  8
0
  6
BYBLOCK
 62
     1
100
AcDbCircle
 10
34.340561
 20
149.150044
 30
0.0
 40
11.793028
100
AcDbArc
 50
236.471835
 51
256.0
  0
LINE
  5
1403
100
AcDbEntity
  8
0
  6
BYBLOCK
 62
     1
100
AcDbLine
 10
27.82672
 20
139.319206
 30
0.0
 11
18.156792
 21
145.726429
 31
0.0
  0
ARC
  5
1404
100
AcDbEntity
  8
0
  6
BYBLOCK
 62
     1
100
AcDbCircle
 10
34.340561
 20
149.150044
 30
0.0
 40
11.793028
100
AcDbArc
 50
236.542854
 51
246.271427
  0
ARC
  5
1405
100
AcDbEntity
  8
0
  6
BYBLOCK
 62
     1
100
AcDbCircle
 10
34.340561
 20
149.150044
 30
0.0
 40
11.793028
100
AcDbArc
 50
279.728573
 51
289.457146
  0
ARC
  5
1406
100
AcDbEntity
  8
0
  6
BYBLOCK
 62
     1
100
AcDbCircle
 10
34.340561
 20
149.150044
 30
0.0
 40
11.793028
100
AcDbArc
 50
256.0
 51
270.0
  0
INSERT
  5
1407
100
AcDbEntity
  8
0
  6
BYBLOCK
 62
     1
100
AcDbBlockReference
  2
_OPEN30
 10
31.487569
 20
137.707319
 30
0.0
 41
2.0
 42
2.0
 43
2.0
 50
341.135714
  0
INSERT
  5
1408
100
AcDbEntity
  8
0
  6
BYBLOCK
 62
     1
100
AcDbBlockReference
  2
_OPEN30
 10
34.340561
 20
137.357016
 30
0.0
 41
2.0
 42
2.0
 43
2.0
 50
184.864286
  0
MTEXT
  5
1409
100
AcDbEntity
  8
0
  6
BYBLOCK
 62
     3
100
AcDbMText
 10
24.372623
 20
144.606854
 30
0.0
 40
3.0
 41
0.0
 71
     5
 72
     1
  1
\A1;14°
 11
0.833614
 21
-0.552347
 31
0.0
  0
POINT
  5
140A
100
AcDbEntity
  8
DEFPOINTS
  6
BYBLOCK
 62
     0
100
AcDbPoint
 10
33.381096
 20
137.396111
 30
0.0
  0
POINT
  5
140B
100
AcDbEntity
  8
DEFPOINTS
  6
BYBLOCK
 62
     0
100
AcDbPoint
 10
34.340561
 20
156.31545
 30
0.0
  0
POINT
  5
140C
100
AcDbEntity
  8
DEFPOINTS
  6
BYBLOCK
 62
     0
100
AcDbPoint
 10
35.891078
 20
155.368828
 30
0.0
  0
POINT
  5
140D
100
AcDbEntity
  8
DEFPOINTS
  6
BYBLOCK
 62
     0
100
AcDbPoint
 10
34.343332
 20
149.161155
 30
0.0
  0
POINT
  5
140E
100
AcDbEntity
  8
DEFPOINTS
  6
BYBLOCK
 62
     0
100
AcDbPoint
 10
34.340561
 20
149.011699
 30
0.0
  0
ENDBLK
  5
140F
100
AcDbEntity
  8
0
100
AcDbBlockEnd
  0
BLOCK
  5
1431
100
AcDbEntity
  8
0
100
AcDbBlockBegin
  2
*D19
 70
     1
 10
0.0
 20
0.0
 30
0.0
  3
*D19
  1

  0
LINE
  5
1432
100
AcDbEntity
  8
0
  6
BYBLOCK
 62
     1
100
AcDbLine
 10
43.410172
 20
153.755012
 30
0.0
 11
44.424791
 21
165.352153
 31
0.0
  0
LINE
  5
1433
100
AcDbEntity
  8
0
  6
BYBLOCK
 62
     1
100
AcDbLine
 10
43.02743
 20
150.380245
 30
0.0
 11
43.02743
 21
165.413163
 31
0.0
  0
ARC
  5
1434
100
AcDbEntity
  8
0
  6
BYBLOCK
 62
     1
100
AcDbCircle
 10
43.02743
 20
149.380245
 30
0.0
 40
14.032918
100
AcDbArc
 50
68.612377
 51
85.0
  0
LINE
  5
1435
100
AcDbEntity
  8
0
  6
BYBLOCK
 62
     1
100
AcDbLine
 10
48.144893
 20
162.446781
 30
0.0
 11
56.152651
 21
159.31057
 31
0.0
  0
ARC
  5
1436
100
AcDbEntity
  8
0
  6
BYBLOCK
 62
     1
100
AcDbCircle
 10
43.02743
 20
149.380245
 30
0.0
 40
14.032918
100
AcDbArc
 50
68.654324
 51
76.827162
  0
ARC
  5
1437
100
AcDbEntity
  8
0
  6
BYBLOCK
 62
     1
100
AcDbCircle
 10
43.02743
 20
149.380245
 30
0.0
 40
14.032918
100
AcDbArc
 50
98.172838
 51
106.345676
  0
ARC
  5
1438
100
AcDbEntity
  8
0
  6
BYBLOCK
 62
     1
100
AcDbCircle
 10
43.02743
 20
149.380245
 30
0.0
 40
14.032918
100
AcDbArc
 50
85.0
 51
90.0
  0
INSERT
  5
1439
100
AcDbEntity
  8
0
  6
BYBLOCK
 62
     1
100
AcDbBlockReference
  2
_OPEN30
 10
44.250479
 20
163.359764
 30
0.0
 41
2.0
 42
2.0
 43
2.0
 50
170.913581
  0
INSERT
  5
143A
100
AcDbEntity
  8
0
  6
BYBLOCK
 62
     1
100
AcDbBlockReference
  2
_OPEN30
 10
43.02743
 20
163.413163
 30
0.0
 41
2.0
 42
2.0
 43
2.0
 50
4.086419
  0
MTEXT
  5
143B
100
AcDbEntity
  8
0
  6
BYBLOCK
 62
     3
100
AcDbMText
 10
53.060461
 20
163.206512
 30
0.0
 40
3.0
 41
0.0
 71
     5
 72
     1
  1
\A1;5°
 11
0.931135
 21
-0.364676
 31
0.0
  0
POINT
  5
143C
100
AcDbEntity
  8
DEFPOINTS
  6
BYBLOCK
 62
     0
100
AcDbPoint
 10
43.435573
 20
163.407226
 30
0.0
  0
POINT
  5
143D
100
AcDbEntity
  8
DEFPOINTS
  6
BYBLOCK
 62
     0
100
AcDbPoint
 10
43.02743
 20
149.163575
 30
0.0
  0
POINT
  5
143E
100
AcDbEntity
  8
DEFPOINTS
  6
BYBLOCK
 62
     0
100
AcDbPoint
 10
43.02743
 20
149.380245
 30
0.0
  0
POINT
  5
143F
100
AcDbEntity
  8
DEFPOINTS
  6
BYBLOCK
 62
     0
100
AcDbPoint
 10
43.323016
 20
152.758817
 30
0.0
  0
POINT
  5
1440
100
AcDbEntity
  8
DEFPOINTS
  6
BYBLOCK
 62
     0
100
AcDbPoint
 10
43.02743
 20
149.380245
 30
0.0
  0
ENDBLK
  5
1441
100
AcDbEntity
  8
0
100
AcDbBlockEnd
  0
BLOCK
  5
161F
100
AcDbEntity
  8
0
100
AcDbBlockBegin
  2
*D20
 70
     1
 10
0.0
 20
0.0
 30
0.0
  3
*D20
  1

  0
LINE
  5
1620
100
AcDbEntity
  8
0
  6
BYBLOCK
 62
     1
100
AcDbLine
 10
63.896119
 20
210.317588
 30
0.0
 11
60.903271
 21
210.317588
 31
0.0
  0
LINE
  5
1621
100
AcDbEntity
  8
0
  6
BYBLOCK
 62
     1
100
AcDbLine
 10
65.546612
 20
206.817588
 30
0.0
 11
60.903271
 21
206.817588
 31
0.0
  0
LINE
  5
1622
100
AcDbEntity
  8
0
  6
BYBLOCK
 62
     1
100
AcDbLine
 10
62.903271
 20
212.317588
 30
0.0
 11
62.903271
 21
214.317588
 31
0.0
  0
LINE
  5
1623
100
AcDbEntity
  8
0
  6
BYBLOCK
 62
     1
100
AcDbLine
 10
62.903271
 20
204.817588
 30
0.0
 11
62.903271
 21
192.817588
 31
0.0
  0
LINE
  5
1624
100
AcDbEntity
  8
0
  6
BYBLOCK
 62
     1
100
AcDbLine
 10
62.903271
 20
210.317588
 30
0.0
 11
62.903271
 21
206.817588
 31
0.0
  0
INSERT
  5
1625
100
AcDbEntity
  8
0
  6
BYBLOCK
 62
     1
100
AcDbBlockReference
  2
_OPEN30
 10
62.903271
 20
210.317588
 30
0.0
 41
2.0
 42
2.0
 43
2.0
 50
270.0
  0
INSERT
  5
1626
100
AcDbEntity
  8
0
  6
BYBLOCK
 62
     1
100
AcDbBlockReference
  2
_OPEN30
 10
62.903271
 20
206.817588
 30
0.0
 41
2.0
 42
2.0
 43
2.0
 50
90.0
  0
MTEXT
  5
1627
100
AcDbEntity
  8
0
  6
BYBLOCK
 62
     3
100
AcDbMText
 10
60.403271
 20
197.817588
 30
0.0
 40
3.0
 41
0.0
 71
     5
 72
     1
  1
\A1;3.5
 11
0.0
 21
1.0
 31
0.0
  0
POINT
  5
1628
100
AcDbEntity
  8
DEFPOINTS
  6
BYBLOCK
 62
     0
100
AcDbPoint
 10
64.896119
 20
210.317588
 30
0.0
  0
POINT
  5
1629
100
AcDbEntity
  8
DEFPOINTS
  6
BYBLOCK
 62
     0
100
AcDbPoint
 10
66.546612
 20
206.817588
 30
0.0
  0
POINT
  5
162A
100
AcDbEntity
  8
DEFPOINTS
  6
BYBLOCK
 62
     0
100
AcDbPoint
 10
62.903271
 20
206.817588
 30
0.0
  0
ENDBLK
  5
162B
100
AcDbEntity
  8
0
100
AcDbBlockEnd
  0
ENDSEC
  0
SECTION
  2
ENTITIES
  0
LINE
  5
E72
100
AcDbEntity
  8
外形
  6
CONTINUOUS
100
AcDbLine
 10
70.195771
 20
207.317588
 30
0.0
 11
121.001266
 21
207.317588
 31
0.0
  0
LINE
  5
E73
100
AcDbEntity
  8
外形
  6
CENTER
 62
     1
100
AcDbLine
 10
49.500735
 20
210.317588
 30
0.0
 11
57.088694
 21
210.317588
 31
0.0
  0
ARC
  5
E87
100
AcDbEntity
  8
外形
  6
CONTINUOUS
100
AcDbCircle
 10
72.15826
 20
210.045905
 30
0.0
 40
1.0
100
AcDbArc
 50
257.787333
 51
102.212667
  0
LINE
  5
EF9
102
{ACAD_REACTORS
330
14F5
102
}
100
AcDbEntity
  8
外形
  6
CONTINUOUS
100
AcDbLine
 10
66.546612
 20
206.817588
 30
0.0
 11
69.925185
 21
207.113175
 31
0.0
  0
LINE
  5
EFA
100
AcDbEntity
  8
外形
  6
CONTINUOUS
100
AcDbLine
 10
72.782666
 20
210.187327
 30
0.0
 11
69.699681
 21
213.270312
 31
0.0
  0
LINE
  5
EFC
100
AcDbEntity
  8
外形
  6
CONTINUOUS
100
AcDbLine
 10
69.416838
 20
213.270312
 30
0.0
 11
66.683347
 21
210.536821
 31
0.0
  0
LINE
  5
EFE
102
{ACAD_REACTORS
330
14F5
102
}
100
AcDbEntity
  8
外形
  6
CONTINUOUS
100
AcDbLine
 10
66.329942
 20
207.034258
 30
0.0
 11
66.625529
 21
210.412831
 31
0.0
  0
ARC
  5
F01
102
{ACAD_REACTORS
330
14F5
102
}
100
AcDbEntity
  8
外形
  6
CONTINUOUS
100
AcDbCircle
 10
66.529181
 20
207.016827
 30
0.0
 40
0.2
100
AcDbArc
 50
175.0
 51
275.0
  0
ARC
  5
F02
100
AcDbEntity
  8
外形
  6
CONTINUOUS
100
AcDbCircle
 10
69.55826
 20
213.128891
 30
0.0
 40
0.2
100
AcDbArc
 50
45.0
 51
135.0
  0
LINE
  5
F06
100
AcDbEntity
  8
外形
  6
CONTINUOUS
100
AcDbLine
 10
72.782666
 20
209.904484
 30
0.0
 11
70.049175
 21
207.170993
 31
0.0
  0
ARC
  5
F0B
100
AcDbEntity
  8
外形
  6
CONTINUOUS
100
AcDbCircle
 10
72.641245
 20
210.045905
 30
0.0
 40
0.2
100
AcDbArc
 50
315.0
 51
45.0
  0
LINE
  5
F4B
100
AcDbEntity
  8
外形
  6
CONTINUOUS
100
AcDbLine
 10
69.624542
 20
213.317588
 30
0.0
 11
121.001266
 21
213.317588
 31
0.0
  0
LINE
  5
F4C
102
{ACAD_REACTORS
330
14F5
102
}
100
AcDbEntity
  8
寸法
  6
CONTINUOUS
 62
     1
100
AcDbLine
 10
56.955346
 20
206.807353
 30
0.0
 11
66.546612
 21
206.817588
 31
0.0
  0
LINE
  5
F4D
102
{ACAD_REACTORS
330
14F5
102
}
100
AcDbEntity
  8
寸法
  6
CONTINUOUS
 62
     1
100
AcDbLine
 10
66.329942
 20
206.817588
 30
0.0
 11
66.329942
 21
207.034258
 31
0.0
  0
LINE
  5
F4F
100
AcDbEntity
  8
外形
  6
CONTINUOUS
100
AcDbLine
 10
146.329503
 20
208.317588
 30
0.0
 11
146.329503
 21
212.317588
 31
0.0
  0
LINE
  5
F51
100
AcDbEntity
  8
外形
  6
CONTINUOUS
100
AcDbLine
 10
145.329503
 20
207.317588
 30
0.0
 11
146.329503
 21
208.317588
 31
0.0
  0
LINE
  5
F62
100
AcDbEntity
  8
外形
  6
CONTINUOUS
100
AcDbLine
 10
145.329503
 20
207.317588
 30
0.0
 11
145.329503
 21
213.317588
 31
0.0
  0
LINE
  5
F63
100
AcDbEntity
  8
外形
  6
CONTINUOUS
100
AcDbLine
 10
145.329503
 20
213.317588
 30
0.0
 11
146.329503
 21
212.317588
 31
0.0
  0
DIMENSION
  5
F7F
100
AcDbEntity
  8
寸法
  6
CONTINUOUS
100
AcDbDimension
  2
*D7
 10
146.329503
 20
183.255985
 30
0.0
 11
106.329723
 21
185.755985
 31
0.0
 12
23.302513
 22
57.654014
 32
0.0
 70
    32
  3
STANDARD
100
AcDbAlignedDimension
 13
66.329942
 23
206.817588
 33
0.0
 14
146.329503
 24
208.317588
 34
0.0
100
AcDbRotatedDimension
1001
ACAD
1000
DSTYLE
1002
{
1070
    40
1040
1.0
1002
}
  0
LINE
  5
FAA
100
AcDbEntity
  8
外形
  6
CONTINUOUS
100
AcDbLine
 10
53.302011
 20
213.315065
 30
0.0
 11
51.825146
 21
207.391682
 31
0.0
  0
LINE
  5
FAC
102
{ACAD_REACTORS
330
152E
102
}
100
AcDbEntity
  8
外形
  6
CENTER
 62
     1
100
AcDbLine
 10
53.31731
 20
213.969464
 30
0.0
 11
53.31731
 21
206.665713
 31
0.0
  0
ARC
  5
FAD
100
AcDbEntity
  8
外形
  6
CONTINUOUS
100
AcDbCircle
 10
53.31731
 20
210.317588
 30
0.0
 40
3.0
100
AcDbArc
 50
180.0
 51
241.71965
  0
ARC
  5
FB1
100
AcDbEntity
  8
外形
  6
CONTINUOUS
100
AcDbCircle
 10
53.31731
 20
210.317588
 30
0.0
 40
3.0
100
AcDbArc
 50
33.55731
 51
59.54075
  0
LINE
  5
FB3
100
AcDbEntity
  8
外形
  6
CONTINUOUS
100
AcDbLine
 10
55.81731
 20
208.659276
 30
0.0
 11
55.81731
 21
211.975901
 31
0.0
  0
LINE
  5
FB7
102
{ACAD_REACTORS
330
152E
102
}
100
AcDbEntity
  8
外形
  6
CONTINUOUS
100
AcDbLine
 10
54.867827
 20
213.022842
 30
0.0
 11
53.320081
 21
206.815169
 31
0.0
  0
LINE
  5
FBC
102
{ACAD_REACTORS
330
152E
102
}
100
AcDbEntity
  8
外形
  6
CONTINUOUS
100
AcDbLine
 10
51.825146
 20
207.391682
 30
0.0
 11
53.327013
 21
206.815169
 31
0.0
  0
LINE
  5
FDE
100
AcDbEntity
  8
外形
  6
CONTINUOUS
100
AcDbLine
 10
53.277827
 20
213.218069
 30
0.0
 11
54.867827
 21
213.022842
 31
0.0
  0
ARC
  5
FDF
100
AcDbEntity
  8
外形
  6
CONTINUOUS
100
AcDbCircle
 10
53.31731
 20
210.317588
 30
0.0
 40
3.0
100
AcDbArc
 50
272.45925
 51
326.44269
  0
ARC
  5
FE0
100
AcDbEntity
  8
外形
  6
CONTINUOUS
100
AcDbCircle
 10
53.31731
 20
210.317588
 30
0.0
 40
3.0
100
AcDbArc
 50
90.28035
 51
180.0
  0
LINE
  5
1043
100
AcDbEntity
  8
外形
  6
CONTINUOUS
100
AcDbLine
 10
145.329503
 20
211.975901
 30
0.0
 11
129.897645
 21
211.975901
 31
0.0
  0
LINE
  5
1044
100
AcDbEntity
  8
外形
  6
CONTINUOUS
100
AcDbLine
 10
145.329503
 20
208.659276
 30
0.0
 11
129.897645
 21
208.659276
 31
0.0
  0
LINE
  5
106E
100
AcDbEntity
  8
外形
  6
CONTINUOUS
100
AcDbLine
 10
145.323355
 20
175.605895
 30
0.0
 11
74.239539
 21
175.605895
 31
0.0
  0
LINE
  5
106F
100
AcDbEntity
  8
外形
  6
CONTINUOUS
100
AcDbLine
 10
145.329503
 20
170.105895
 30
0.0
 11
66.79826
 21
170.105895
 31
0.0
  0
LINE
  5
1070
100
AcDbEntity
  8
外形
  6
CONTINUOUS
100
AcDbLine
 10
146.329503
 20
174.599746
 30
0.0
 11
146.329503
 21
171.105895
 31
0.0
  0
LINE
  5
1071
100
AcDbEntity
  8
外形
  6
CONTINUOUS
100
AcDbLine
 10
145.329503
 20
170.105895
 30
0.0
 11
145.329503
 21
175.599746
 31
0.0
  0
LINE
  5
1072
100
AcDbEntity
  8
外形
  6
CONTINUOUS
100
AcDbLine
 10
145.323355
 20
175.605895
 30
0.0
 11
146.323355
 21
174.605895
 31
0.0
  0
LINE
  5
1073
100
AcDbEntity
  8
外形
  6
CONTINUOUS
100
AcDbLine
 10
146.329503
 20
171.105895
 30
0.0
 11
145.329503
 21
170.105895
 31
0.0
  0
LINE
  5
1074
100
AcDbEntity
  8
外形
  6
CENTER
 62
     1
100
AcDbLine
 10
72.532952
 20
173.105895
 30
0.0
 11
150.768889
 21
173.105895
 31
0.0
  0
LINE
  5
1075
100
AcDbEntity
  8
外形
  6
CONTINUOUS
100
AcDbLine
 10
66.79826
 20
171.641893
 30
0.0
 11
66.79826
 21
170.105895
 31
0.0
  0
ARC
  5
10AD
100
AcDbEntity
  8
外形
  6
CONTINUOUS
100
AcDbCircle
 10
69.783829
 20
178.368138
 30
0.0
 40
5.242455
100
AcDbArc
 50
274.506834
 51
328.203845
  0
LINE
  5
10AF
100
AcDbEntity
  8
外形
  6
CONTINUOUS
100
AcDbLine
 10
70.195771
 20
173.141893
 30
0.0
 11
70.195771
 21
171.641893
 31
0.0
  0
LINE
  5
10B1
102
{ACAD_REACTORS
330
14F5
102
}
100
AcDbEntity
  8
外形
  6
CONTINUOUS
100
AcDbLine
 10
69.189524
 20
207.048813
 30
0.0
 11
66.561167
 21
209.67717
 31
0.0
  0
ARC
  5
1152
100
AcDbEntity
  8
外形
  6
CONTINUOUS
100
AcDbCircle
 10
69.907754
 20
207.312414
 30
0.0
 40
0.2
100
AcDbArc
 50
275.0
 51
315.0
  0
ARC
  5
1153
100
AcDbEntity
  8
外形
  6
CONTINUOUS
100
AcDbCircle
 10
66.824768
 20
210.395399
 30
0.0
 40
0.2
100
AcDbArc
 50
135.0
 51
175.0
  0
LINE
  5
1205
100
AcDbEntity
  8
外形
  6
CONTINUOUS
100
AcDbLine
 10
69.55826
 20
174.646709
 30
0.0
 11
66.556759
 21
173.920943
 31
0.0
  0
LINE
  5
1207
102
{ACAD_REACTORS
330
15B5
102
}
100
AcDbEntity
  8
外形
  6
CONTINUOUS
100
AcDbLine
 10
66.556759
 20
173.920943
 30
0.0
 11
69.55826
 21
173.172679
 31
0.0
  0
ELLIPSE
  5
120D
100
AcDbEntity
  8
外形
  6
CONTINUOUS
100
AcDbEllipse
 10
69.55826
 20
173.920943
 30
0.0
 11
-1.350000000000001
 21
0.0
 31
0.0
210
0.0
220
0.0
230
1.0
 40
0.241922
 41
0.0
 42
6.283185307179586
  0
LINE
  5
1210
102
{ACAD_REACTORS
330
152E
102
}
100
AcDbEntity
  8
外形
  6
CONTINUOUS
100
AcDbLine
 10
53.54851
 20
209.79813
 30
0.0
 11
52.85039
 21
206.998127
 31
0.0
  0
LINE
  5
1211
100
AcDbEntity
  8
外形
  6
CONTINUOUS
100
AcDbLine
 10
53.063362
 20
209.919091
 30
0.0
 11
52.380095
 21
207.178657
 31
0.0
  0
LINE
  5
1213
102
{ACAD_REACTORS
330
152E
102
}
100
AcDbEntity
  8
外形
  6
CONTINUOUS
100
AcDbLine
 10
53.063362
 20
209.919091
 30
0.0
 11
54.033658
 21
209.67717
 31
0.0
  0
ARC
  5
1222
100
AcDbEntity
  8
外形
  6
CONTINUOUS
100
AcDbCircle
 10
70.785442
 20
180.520062
 30
0.0
 40
6.006648
100
AcDbArc
 50
259.308952
 51
305.102828
  0
LINE
  5
1223
100
AcDbEntity
  8
外形
  6
CONTINUOUS
100
AcDbLine
 10
70.195771
 20
171.641893
 30
0.0
 11
66.556759
 21
171.641893
 31
0.0
  0
LINE
  5
1227
102
{ACAD_REACTORS
330
15C1
102
}
100
AcDbEntity
  8
外形
  6
CONTINUOUS
100
AcDbLine
 10
69.189524
 20
173.270459
 30
0.0
 11
69.189524
 21
172.166518
 31
0.0
  0
CIRCLE
  5
122D
100
AcDbEntity
  8
外形
  6
CONTINUOUS
100
AcDbCircle
 10
69.55826
 20
210.045905
 30
0.0
 40
1.35
  0
LINE
  5
1243
100
AcDbEntity
  8
外形
  6
CONTINUOUS
100
AcDbLine
 10
70.067139
 20
210.225228
 30
0.0
 11
70.374217
 21
210.045905
 31
0.0
  0
LINE
  5
1244
100
AcDbEntity
  8
外形
  6
CONTINUOUS
100
AcDbLine
 10
70.374217
 20
210.045905
 30
0.0
 11
70.067139
 21
209.866583
 31
0.0
  0
LINE
  5
1245
100
AcDbEntity
  8
外形
  6
CONTINUOUS
100
AcDbLine
 10
69.657401
 20
210.57627
 30
0.0
 11
69.966238
 21
210.752545
 31
0.0
  0
LINE
  5
1246
100
AcDbEntity
  8
外形
  6
CONTINUOUS
100
AcDbLine
 10
69.966238
 20
210.752545
 30
0.0
 11
69.967998
 21
210.396947
 31
0.0
  0
LINE
  5
1247
100
AcDbEntity
  8
外形
  6
CONTINUOUS
100
AcDbLine
 10
69.148521
 20
210.396947
 30
0.0
 11
69.150281
 21
210.752545
 31
0.0
  0
LINE
  5
1248
100
AcDbEntity
  8
外形
  6
CONTINUOUS
100
AcDbLine
 10
69.150281
 20
210.752545
 30
0.0
 11
69.459118
 21
210.57627
 31
0.0
  0
LINE
  5
1249
100
AcDbEntity
  8
外形
  6
CONTINUOUS
100
AcDbLine
 10
69.04938
 20
209.866583
 30
0.0
 11
68.742302
 21
210.045905
 31
0.0
  0
LINE
  5
124A
100
AcDbEntity
  8
外形
  6
CONTINUOUS
100
AcDbLine
 10
68.742302
 20
210.045905
 30
0.0
 11
69.04938
 21
210.225228
 31
0.0
  0
LINE
  5
124B
100
AcDbEntity
  8
外形
  6
CONTINUOUS
100
AcDbLine
 10
69.459118
 20
209.515541
 30
0.0
 11
69.150281
 21
209.339266
 31
0.0
  0
LINE
  5
124C
100
AcDbEntity
  8
外形
  6
CONTINUOUS
100
AcDbLine
 10
69.150281
 20
209.339266
 30
0.0
 11
69.148521
 21
209.694864
 31
0.0
  0
LINE
  5
124D
100
AcDbEntity
  8
外形
  6
CONTINUOUS
100
AcDbLine
 10
69.967998
 20
209.694864
 30
0.0
 11
69.966238
 21
209.339266
 31
0.0
  0
LINE
  5
124E
100
AcDbEntity
  8
外形
  6
CONTINUOUS
100
AcDbLine
 10
69.966238
 20
209.339266
 30
0.0
 11
69.657401
 21
209.515541
 31
0.0
  0
ARC
  5
124F
100
AcDbEntity
  8
外形
  6
CONTINUOUS
100
AcDbCircle
 10
70.167995
 20
210.397936
 30
0.0
 40
0.2
100
AcDbArc
 50
180.283476
 51
239.716524
  0
ARC
  5
1250
100
AcDbEntity
  8
外形
  6
CONTINUOUS
100
AcDbCircle
 10
70.167995
 20
209.693874
 30
0.0
 40
0.2
100
AcDbArc
 50
120.283476
 51
179.716524
  0
ARC
  5
1251
100
AcDbEntity
  8
外形
  6
CONTINUOUS
100
AcDbCircle
 10
69.55826
 20
209.341843
 30
0.0
 40
0.2
100
AcDbArc
 50
60.283476
 51
119.716524
  0
ARC
  5
1252
100
AcDbEntity
  8
外形
  6
CONTINUOUS
100
AcDbCircle
 10
68.948524
 20
209.693874
 30
0.0
 40
0.2
100
AcDbArc
 50
0.283476
 51
59.716524
  0
ARC
  5
1253
100
AcDbEntity
  8
外形
  6
CONTINUOUS
100
AcDbCircle
 10
68.948524
 20
210.397936
 30
0.0
 40
0.2
100
AcDbArc
 50
300.283476
 51
359.716524
  0
ARC
  5
1254
100
AcDbEntity
  8
外形
  6
CONTINUOUS
100
AcDbCircle
 10
69.55826
 20
210.749967
 30
0.0
 40
0.2
100
AcDbArc
 50
240.283476
 51
299.716524
  0
LINE
  5
125A
100
AcDbEntity
  8
外形
  6
CONTINUOUS
100
AcDbLine
 10
68.742302
 20
174.181132
 30
0.0
 11
69.150281
 21
173.609619
 31
0.0
  0
LINE
  5
125B
100
AcDbEntity
  8
外形
  6
CONTINUOUS
100
AcDbLine
 10
69.55826
 20
174.247538
 30
0.0
 11
69.150281
 21
173.609619
 31
0.0
  0
LINE
  5
125C
100
AcDbEntity
  8
外形
  6
CONTINUOUS
100
AcDbLine
 10
69.55826
 20
174.247538
 30
0.0
 11
69.966238
 21
173.609619
 31
0.0
  0
LINE
  5
125D
100
AcDbEntity
  8
外形
  6
CONTINUOUS
100
AcDbLine
 10
70.374217
 20
174.181132
 30
0.0
 11
69.966238
 21
173.609619
 31
0.0
  0
LINE
  5
125E
100
AcDbEntity
  8
外形
  6
CONTINUOUS
100
AcDbLine
 10
70.90826
 20
173.920943
 30
0.0
 11
69.966238
 21
173.609619
 31
0.0
  0
LINE
  5
125F
100
AcDbEntity
  8
外形
  6
CONTINUOUS
100
AcDbLine
 10
68.20826
 20
173.920943
 30
0.0
 11
69.150281
 21
173.609619
 31
0.0
  0
LINE
  5
1275
100
AcDbEntity
  8
外形
  6
CONTINUOUS
100
AcDbLine
 10
72.986955
 20
212.498918
 30
0.0
 11
73.944587
 21
208.658918
 31
0.0
  0
ARC
  5
1285
100
AcDbEntity
  8
外形
  6
CONTINUOUS
100
AcDbCircle
 10
72.896681
 20
208.397588
 30
0.0
 40
1.08
100
AcDbArc
 50
270.0
 51
14.00298
  0
ARC
  5
1286
100
AcDbEntity
  8
外形
  6
CONTINUOUS
100
AcDbCircle
 10
71.939049
 20
212.237588
 30
0.0
 40
1.08
100
AcDbArc
 50
14.00298
 51
90.0
  0
ARC
  5
128B
100
AcDbEntity
  8
外形
  6
CONTINUOUS
100
AcDbCircle
 10
125.512151
 20
210.317588
 30
0.0
 40
3.0
100
AcDbArc
 50
213.55731
 51
270.28035
  0
ARC
  5
128C
100
AcDbEntity
  8
外形
  6
CONTINUOUS
100
AcDbCircle
 10
125.512151
 20
210.317588
 30
0.0
 40
3.0
100
AcDbArc
 50
270.28035
 51
360.0
  0
ARC
  5
128E
100
AcDbEntity
  8
外形
  6
CONTINUOUS
100
AcDbCircle
 10
125.512151
 20
210.317588
 30
0.0
 40
3.0
100
AcDbArc
 50
360.0
 51
146.44269
  0
LINE
  5
1293
100
AcDbEntity
  8
外形
  6
CONTINUOUS
100
AcDbLine
 10
123.012151
 20
208.659276
 30
0.0
 11
123.012151
 21
211.975901
 31
0.0
  0
LINE
  5
1297
100
AcDbEntity
  8
外形
  6
CENTER
 62
     1
100
AcDbLine
 10
125.512151
 20
214.324811
 30
0.0
 11
125.512151
 21
206.310365
 31
0.0
  0
LINE
  5
129B
100
AcDbEntity
  8
外形
  6
CONTINUOUS
100
AcDbLine
 10
129.897645
 20
213.317588
 30
0.0
 11
145.329503
 21
213.317588
 31
0.0
  0
LINE
  5
129C
100
AcDbEntity
  8
外形
  6
CONTINUOUS
100
AcDbLine
 10
121.001266
 20
211.975901
 30
0.0
 11
73.231942
 21
211.975901
 31
0.0
  0
LINE
  5
129D
100
AcDbEntity
  8
外形
  6
CONTINUOUS
100
AcDbLine
 10
121.001266
 20
208.659276
 30
0.0
 11
73.829942
 21
208.659276
 31
0.0
  0
LINE
  5
129E
100
AcDbEntity
  8
外形
  6
CONTINUOUS
100
AcDbLine
 10
129.897645
 20
207.317588
 30
0.0
 11
145.329503
 21
207.317588
 31
0.0
  0
LINE
  5
12A1
100
AcDbEntity
  8
外形
  6
CENTER
 62
     1
100
AcDbLine
 10
64.896119
 20
210.317588
 30
0.0
 11
148.329503
 21
210.317588
 31
0.0
  0
DIMENSION
  5
13E4
100
AcDbEntity
  8
寸法
  6
CONTINUOUS
100
AcDbDimension
  2
*D16
 10
128.512151
 20
193.71676
 30
0.0
 11
137.512151
 21
196.21676
 31
0.0
 12
23.302513
 22
57.654014
 32
0.0
 70
    32
  3
STANDARD
100
AcDbAlignedDimension
 13
123.012151
 23
210.317588
 33
0.0
 14
128.512151
 24
210.317588
 34
0.0
100
AcDbRotatedDimension
1001
ACAD
1000
DSTYLE
1002
{
1070
   284
1070
    13
1070
   146
1040
0.5
1070
   272
1070
     3
1070
    40
1040
1.0
1070
   287
1070
     0
1002
}
  0
DIMENSION
  5
13FD
100
AcDbEntity
  8
寸法
  6
CONTINUOUS
100
AcDbDimension
  2
*D17
 10
124.188356
 20
207.625458
 30
0.0
 11
127.901993
 21
220.843207
 31
0.0
 12
23.302513
 22
57.654014
 32
0.0
 70
    35
  3
STANDARD
100
AcDbDiametricDimension
 15
126.835947
 25
213.009719
 35
0.0
 40
0.0
1001
ACAD
1000
DSTYLE
1002
{
1070
   284
1070
    13
1070
   146
1040
0.5
1070
   272
1070
     3
1070
    40
1040
1.0
1070
   287
1070
     0
1002
}
  0
DIMENSION
  5
1410
100
AcDbEntity
  8
寸法
  6
CONTINUOUS
100
AcDbDimension
  2
*D18
 10
53.31731
 20
206.665713
 30
0.0
 11
43.349372
 21
202.260867
 31
0.0
 12
18.976749
 22
57.654014
 32
0.0
 70
    34
  3
STANDARD
100
AcDb2LineAngularDimension
 13
54.867827
 23
213.022842
 33
0.0
 14
53.320081
 24
206.815169
 34
0.0
 15
53.31731
 25
213.969464
 35
0.0
 16
52.357845
 26
195.050125
 36
0.0
1001
ACAD
1000
DSTYLE
1002
{
1070
   284
1070
    13
1070
   146
1040
0.5
1070
   272
1070
     3
1070
    40
1040
1.0
1070
   287
1070
     0
1002
}
  0
DIMENSION
  5
1442
100
AcDbEntity
  8
寸法
  6
CONTINUOUS
100
AcDbDimension
  2
*D19
 10
66.329942
 20
207.034258
 30
0.0
 11
76.362974
 21
220.860526
 31
0.0
 12
23.302513
 22
57.654014
 32
0.0
 70
    34
  3
STANDARD
100
AcDb2LineAngularDimension
 13
66.329942
 23
207.034258
 33
0.0
 14
66.625529
 24
210.412831
 34
0.0
 15
66.329942
 25
206.817588
 35
0.0
 16
66.738086
 26
221.06124
 36
0.0
1001
ACAD
1000
DSTYLE
1002
{
1070
   284
1070
    13
1070
   146
1040
0.5
1070
   272
1070
     3
1070
    40
1040
1.0
1070
   287
1070
     0
1002
}
  0
LEADER
  5
1451
100
AcDbEntity
  8
寸法
  6
CONTINUOUS
 62
     1
100
AcDbLeader
  3
STANDARD
 73
     0
 74
     0
 75
     1
 40
3.0
 41
29.0
 76
     3
 10
58.407078
 20
206.814186
 30
0.0
 10
58.41639
 20
225.483046
 30
0.0
 10
60.41639
 20
225.483046
 30
0.0
 77
   256
340
1452
213
-0.1129475379637483
223
0.5510341987360619
233
0.0
1001
ACAD
1000
DSTYLE
1002
{
1070
   284
1070
    13
1070
   146
1040
0.5
1070
   272
1070
     3
1070
    40
1040
1.0
1070
   287
1070
     0
1002
}
  0
MTEXT
  5
1452
102
{ACAD_REACTORS
330
1451
102
}
100
AcDbEntity
  8
寸法
  6
CONTINUOUS
 62
     3
100
AcDbMText
 10
66.395187
 20
227.432011
 30
0.0
 40
3.0
 41
0.0
 71
     4
 72
     1
  1
%%c7.0最小加工径
  0
TEXT
  5
1453
100
AcDbEntity
  8
外形
  6
CONTINUOUS
 62
     2
100
AcDbText
 10
81.945496
 20
150.213866
 30
0.0
 40
6.0
  1
BNZ606R
100
AcDbText
  0
LINE
  5
1471
100
AcDbEntity
  8
外形
  6
CONTINUOUS
100
AcDbLine
 10
52.701167
 20
210.890376
 30
0.0
 11
54.203035
 21
210.313864
 31
0.0
  0
LINE
  5
1472
100
AcDbEntity
  8
外形
  6
CONTINUOUS
100
AcDbLine
 10
50.531691
 20
211.431288
 30
0.0
 11
52.701167
 21
210.890376
 31
0.0
  0
HATCH
  5
14F5
100
AcDbEntity
  8
外形
  6
CONTINUOUS
100
AcDbHatch
 10
0.0
 20
0.0
 30
0.0
210
0.0
220
0.0
230
1.0
  2
ANSI31
 70
     0
 71
     1
 91
        1
 92
        7
 72
     1
 73
     1
 93
        6
 10
66.32994233891406
 20
207.0342582940754
 42
0.0
 10
66.32994233891406
 20
206.9993959969769
 42
0.3645745766885255
 10
66.51217538040455
 20
206.817551458527
 42
0.0
 10
66.546612427082
 20
206.8175882059076
 42
0.0
 10
69.18952368038285
 20
207.0488129792765
 42
0.0
 10
66.561167112283
 20
209.6771695473762
 42
0.0
 97
        6
330
EFE
330
F4D
330
F01
330
F4C
330
EF9
330
10B1
 75
     0
 76
     1
 52
0.0
 41
3.0
 77
     0
 78
     1
 53
45.0
 43
40.538005
 44
146.919615
 45
-0.2651650429449553
 46
0.2651650429449553
 79
     0
 47
0.014389
 98
        1
 10
66.928125
 20
208.08098
  0
HATCH
  5
152E
100
AcDbEntity
  8
外形
  6
CONTINUOUS
100
AcDbHatch
 10
0.0
 20
0.0
 30
0.0
210
0.0
220
0.0
230
1.0
  2
ANSI31
 70
     0
 71
     1
 91
        2
 92
        7
 72
     0
 73
     1
 93
        5
 10
54.0336575017095
 20
209.6771695473762
 10
53.54850963857151
 20
209.7981304951761
 10
53.31731022187722
 20
208.8708402828539
 10
53.31731022187722
 20
206.8188936032782
 10
53.32068616413187
 20
206.8175977004623
 97
        5
330
1213
330
1210
330
FAC
330
FBC
330
FB7
 92
        7
 72
     0
 73
     1
 93
        3
 10
53.31731022187722
 20
208.870840282854
 10
52.8503904378559
 20
206.9981273156106
 10
53.31731022187722
 20
206.8188936032782
 97
        3
330
1210
330
FBC
330
FAC
 75
     0
 76
     1
 52
0.0
 41
3.0
 77
     0
 78
     1
 53
45.0
 43
36.212241
 44
146.919615
 45
-0.2651650429449553
 46
0.2651650429449553
 79
     0
 47
0.01469
 98
        2
 10
53.592368
 20
208.775639
 10
53.180709
 20
207.703248
  0
LINE
  5
158F
102
{ACAD_REACTORS
330
15B5
102
}
100
AcDbEntity
  8
外形
  6
CONTINUOUS
100
AcDbLine
 10
66.329942
 20
173.879323
 30
0.0
 11
66.329942
 21
173.489165
 31
0.0
  0
LINE
  5
1595
100
AcDbEntity
  8
外形
  6
CONTINUOUS
100
AcDbLine
 10
69.55826
 20
174.646709
 30
0.0
 11
72.55976
 21
173.920943
 31
0.0
  0
LINE
  5
1596
100
AcDbEntity
  8
外形
  6
CONTINUOUS
100
AcDbLine
 10
72.55976
 20
173.920943
 30
0.0
 11
69.55826
 21
173.172679
 31
0.0
  0
LINE
  5
1597
102
{ACAD_REACTORS
330
15B5
102
}
100
AcDbEntity
  8
外形
  6
CONTINUOUS
100
AcDbLine
 10
66.556759
 20
173.920943
 30
0.0
 11
66.329942
 21
173.879323
 31
0.0
  0
LINE
  5
15A3
102
{ACAD_REACTORS
330
15B5
330
15C1
102
}
100
AcDbEntity
  8
外形
  6
CONTINUOUS
100
AcDbLine
 10
69.189524
 20
173.264603
 30
0.0
 11
66.357515
 21
173.264603
 31
0.0
  0
LINE
  5
15A6
102
{ACAD_REACTORS
330
15C1
102
}
100
AcDbEntity
  8
外形
  6
CONTINUOUS
100
AcDbLine
 10
69.189524
 20
172.7237
 30
0.0
 11
66.42393
 21
172.7237
 31
0.0
  0
LINE
  5
15A7
100
AcDbEntity
  8
外形
  6
CONTINUOUS
100
AcDbLine
 10
69.189524
 20
172.166518
 30
0.0
 11
66.492343
 21
172.166518
 31
0.0
  0
LINE
  5
15A8
102
{ACAD_REACTORS
330
15B5
330
15C1
102
}
100
AcDbEntity
  8
外形
  6
CONTINUOUS
100
AcDbLine
 10
66.556759
 20
171.641893
 30
0.0
 11
66.329942
 21
173.489165
 31
0.0
  0
HATCH
  5
15B5
100
AcDbEntity
  8
外形
  6
CONTINUOUS
100
AcDbHatch
 10
0.0
 20
0.0
 30
0.0
210
0.0
220
0.0
230
1.0
  2
ANSI31
 70
     0
 71
     1
 91
        1
 92
        7
 72
     0
 73
     1
 93
        5
 10
69.18952368038279
 20
173.2646033108766
 10
66.55675883175854
 20
173.9209430772121
 10
66.32994233891406
 20
173.8793229766919
 10
66.32994233891406
 20
173.4891646445069
 10
66.35751500365961
 20
173.2646033108766
 97
        5
330
1597
330
158F
330
15A8
330
15A3
330
1207
 75
     0
 76
     1
 52
0.0
 41
3.0
 77
     0
 78
     1
 53
45.0
 43
40.538005
 44
146.919615
 45
-0.2651650429449553
 46
0.2651650429449553
 79
     0
 47
0.00913
 98
        1
 10
66.657775
 20
173.48381
  0
HATCH
  5
15C1
100
AcDbEntity
  8
外形
  6
CONTINUOUS
100
AcDbHatch
 10
0.0
 20
0.0
 30
0.0
210
0.0
220
0.0
230
1.0
  2
ANSI37
 70
     0
 71
     1
 91
        1
 92
        7
 72
     0
 73
     1
 93
        4
 10
69.18952368038286
 20
172.7236997243188
 10
69.18952368038286
 20
173.2646033108766
 10
66.35751500365961
 20
173.2646033108766
 10
66.42392961302592
 20
172.7236997243188
 97
        4
330
15A3
330
15A8
330
15A6
330
1227
 75
     0
 76
     1
 52
0.0
 41
3.0
 77
     0
 78
     2
 53
45.0
 43
40.538005
 44
146.919615
 45
-0.2651650429449553
 46
0.2651650429449553
 79
     0
 53
135.0
 43
40.538005
 44
146.919615
 45
-0.2651650429449553
 46
-0.2651650429449553
 79
     0
 47
0.00913
 98
        1
 10
67.279124
 20
172.926868
  0
ELLIPSE
  5
15F8
100
AcDbEntity
  8
外形
  6
CONTINUOUS
100
AcDbEllipse
 10
72.15826
 20
173.780943
 30
0.0
 11
-1.0
 21
0.0
 31
0.0
210
0.0
220
0.0
230
1.0
 40
0.14
 41
4.318035974858236
 42
4.340731892937126
  0
ELLIPSE
  5
15F9
100
AcDbEntity
  8
外形
  6
CONTINUOUS
100
AcDbEllipse
 10
72.15826
 20
173.780943
 30
0.0
 11
-1.0
 21
0.0
 31
0.0
210
0.0
220
0.0
230
1.0
 40
0.14
 41
7.202258575006711
 42
7.74749072675791
  0
DIMENSION
  5
162C
100
AcDbEntity
  8
寸法
  6
CONTINUOUS
100
AcDbDimension
  2
*D20
 10
62.903271
 20
206.817588
 30
0.0
 11
60.403271
 21
197.817588
 31
0.0
 70
    32
  3
STANDARD
100
AcDbAlignedDimension
 13
64.896119
 23
210.317588
 33
0.0
 14
66.546612
 24
206.817588
 34
0.0
 50
90.0
100
AcDbRotatedDimension
1001
ACAD
1000
DSTYLE
1002
{
1070
   284
1070
    13
1070
   146
1040
0.5
1070
   272
1070
     3
1070
    40
1040
1.0
1070
   287
1070
     0
1002
}
  0
ENDSEC
  0
SECTION
  2
OBJECTS
  0
DICTIONARY
  5
1E
100
AcDbDictionary
  3
ACAD_GROUP
350
1C
  3
ACAD_MLINESTYLE
350
1D
  3
ACDBVARIABLEDICTIONARY
350
147A
  3
DRAWINGVARIABLESDICT
350
C58
  0
DICTIONARY
  5
38
100
AcDbDictionary
280
     1
  3
ACAD_XREC_ROUNDTRIP
360
39
  0
DICTIONARY
  5
22
100
AcDbDictionary
280
     1
  3
ACAD_XREC_ROUNDTRIP
360
23
  0
DICTIONARY
  5
3
100
AcDbDictionary
280
     1
  3
ACAD_LAYOUTSELFREF
360
4
  0
DICTIONARY
  5
A
100
AcDbDictionary
280
     1
  3
ACAD_LAYOUTSELFREF
360
B
  0
DICTIONARY
  5
1C
102
{ACAD_REACTORS
330
1E
102
}
100
AcDbDictionary
  0
DICTIONARY
  5
1D
102
{ACAD_REACTORS
330
1E
102
}
100
AcDbDictionary
  3
STANDARD
350
20
  0
DICTIONARY
  5
147A
102
{ACAD_REACTORS
330
1E
102
}
100
AcDbDictionary
  3
SORTENTS
350
147B
  0
DICTIONARY
  5
C58
102
{ACAD_REACTORS
330
1E
102
}
100
AcDbDictionary
1001
DRAWINGVARIABLESXDATA
1000
POLARMODE
1000
0
  0
XRECORD
  5
39
102
{ACAD_REACTORS
330
38
102
}
100
AcDbXrecord
102
PLOTBIT
280
     0
  0
XRECORD
  5
23
102
{ACAD_REACTORS
330
22
102
}
100
AcDbXrecord
102
ACADR14ROUNDTRIP
1000
DSTYLE
1002
{
1070
   341
340
0
1070
   343
340
0
1070
   344
340
0
1002
}
  0
XRECORD
  5
4
102
{ACAD_REACTORS
330
3
102
}
100
AcDbXrecord
340
2
  0
XRECORD
  5
B
102
{ACAD_REACTORS
330
A
102
}
100
AcDbXrecord
340
9
  0
MLINESTYLE
  5
20
102
{ACAD_REACTORS
330
1D
102
}
100
AcDbMlineStyle
  2
STANDARD
 70
     0
  3

 62
     0
 51
90.0
 52
90.0
 71
     2
 49
0.5
 62
   256
  6
BYLAYER
 49
-0.5
 62
   256
  6
BYLAYER
  0
DICTIONARYVAR
  5
147B
102
{ACAD_REACTORS
330
147A
102
}
100
DictionaryVariables
280
     0
  1
96
  0
ENDSEC
  0
EOF
