  0
SECTION
  2
HEADER
  9
$ACADVER
  1
AC1014
  9
$ACADMAINTVER
 70
     0
  9
$DWGCODEPAGE
  3
ANSI_932
  9
$INSBASE
 10
-587.250952
 20
747.890188
 30
0.0
  9
$EXTMIN
 10
-3.013952
 20
161.961626
 30
0.0
  9
$EXTMAX
 10
172.907058
 20
247.72117
 30
0.0
  9
$LIMMIN
 10
-587.250952
 20
327.890188
  9
$LIMMAX
 10
600.749048
 20
957.890188
  9
$ORTHOMODE
 70
     0
  9
$REGENMODE
 70
     1
  9
$FILLMODE
 70
     1
  9
$QTEXTMODE
 70
     0
  9
$MIRRTEXT
 70
     1
  9
$DRAGMODE
 70
     2
  9
$LTSCALE
 40
5.0
  9
$OSMODE
 70
    37
  9
$ATTMODE
 70
     1
  9
$TEXTSIZE
 40
5.0
  9
$TRACEWID
 40
0.05
  9
$TEXTSTYLE
  7
STANDARD
  9
$CLAYER
  8
寸法
  9
$CELTYPE
  6
CONTINUOUS
  9
$CECOLOR
 62
   256
  9
$CELTSCALE
 40
1.0
  9
$DELOBJ
 70
     1
  9
$DISPSILH
 70
     0
  9
$DIMSCALE
 40
1.0
  9
$DIMASZ
 40
2.0
  9
$DIMEXO
 40
1.0
  9
$DIMDLI
 40
8.0
  9
$DIMRND
 40
0.0
  9
$DIMDLE
 40
0.0
  9
$DIMEXE
 40
2.0
  9
$DIMTP
 40
0.0
  9
$DIMTM
 40
0.0
  9
$DIMTXT
 40
3.0
  9
$DIMCEN
 40
-1.0
  9
$DIMTSZ
 40
0.0
  9
$DIMTOL
 70
     0
  9
$DIMLIM
 70
     0
  9
$DIMTIH
 70
     0
  9
$DIMTOH
 70
     0
  9
$DIMSE1
 70
     0
  9
$DIMSE2
 70
     0
  9
$DIMTAD
 70
     1
  9
$DIMZIN
 70
     8
  9
$DIMBLK
  1

  9
$DIMASO
 70
     1
  9
$DIMSHO
 70
     1
  9
$DIMPOST
  1

  9
$DIMAPOST
  1

  9
$DIMALT
 70
     0
  9
$DIMALTD
 70
     2
  9
$DIMALTF
 40
25.4
  9
$DIMLFAC
 40
1.0
  9
$DIMTOFL
 70
     1
  9
$DIMTVP
 40
0.0
  9
$DIMTIX
 70
     0
  9
$DIMSOXD
 70
     0
  9
$DIMSAH
 70
     1
  9
$DIMBLK1
  1
_OPEN30
  9
$DIMBLK2
  1
_OPEN30
  9
$DIMSTYLE
  2
STANDARD
  9
$DIMCLRD
 70
     1
  9
$DIMCLRE
 70
     1
  9
$DIMCLRT
 70
     3
  9
$DIMTFAC
 40
0.5
  9
$DIMGAP
 40
1.0
  9
$DIMJUST
 70
     0
  9
$DIMSD1
 70
     0
  9
$DIMSD2
 70
     0
  9
$DIMTOLJ
 70
     1
  9
$DIMTZIN
 70
    13
  9
$DIMALTZ
 70
     0
  9
$DIMALTTZ
 70
     0
  9
$DIMFIT
 70
     0
  9
$DIMUPT
 70
     0
  9
$DIMUNIT
 70
     2
  9
$DIMDEC
 70
     1
  9
$DIMTDEC
 70
     3
  9
$DIMALTU
 70
     2
  9
$DIMALTTD
 70
     2
  9
$DIMTXSTY
  7
STANDARD
  9
$DIMAUNIT
 70
     0
  9
$LUNITS
 70
     2
  9
$LUPREC
 70
     0
  9
$SKETCHINC
 40
0.1
  9
$FILLETRAD
 40
0.0
  9
$AUNITS
 70
     0
  9
$AUPREC
 70
     0
  9
$MENU
  1
acad
  9
$ELEVATION
 40
0.0
  9
$PELEVATION
 40
0.0
  9
$THICKNESS
 40
0.0
  9
$LIMCHECK
 70
     0
  9
$BLIPMODE
 70
     0
  9
$CHAMFERA
 40
1.5
  9
$CHAMFERB
 40
1.5
  9
$CHAMFERC
 40
0.0
  9
$CHAMFERD
 40
0.0
  9
$SKPOLY
 70
     0
  9
$TDCREATE
 40
2450751.535399305
  9
$TDUPDATE
 40
2452044.368668981
  9
$TDINDWG
 40
1.6458887731
  9
$TDUSRTIMER
 40
1.6458887731
  9
$USRTIMER
 70
     1
  9
$ANGBASE
 50
0.0
  9
$ANGDIR
 70
     0
  9
$PDMODE
 70
    32
  9
$PDSIZE
 40
0.0
  9
$PLINEWID
 40
0.0
  9
$COORDS
 70
     2
  9
$SPLFRAME
 70
     0
  9
$SPLINETYPE
 70
     5
  9
$SPLINESEGS
 70
     8
  9
$ATTDIA
 70
     0
  9
$ATTREQ
 70
     1
  9
$HANDLING
 70
     1
  9
$HANDSEED
  5
1E8F
  9
$SURFTAB1
 70
     6
  9
$SURFTAB2
 70
     6
  9
$SURFTYPE
 70
     6
  9
$SURFU
 70
     6
  9
$SURFV
 70
     6
  9
$UCSNAME
  2

  9
$UCSORG
 10
40.53800450572526
 20
146.9196145921314
 30
0.0
  9
$UCSXDIR
 10
1.0
 20
0.0
 30
0.0
  9
$UCSYDIR
 10
0.0
 20
1.0
 30
0.0
  9
$PUCSNAME
  2

  9
$PUCSORG
 10
0.0
 20
0.0
 30
0.0
  9
$PUCSXDIR
 10
1.0
 20
0.0
 30
0.0
  9
$PUCSYDIR
 10
0.0
 20
1.0
 30
0.0
  9
$USERI1
 70
     0
  9
$USERI2
 70
     0
  9
$USERI3
 70
     0
  9
$USERI4
 70
     0
  9
$USERI5
 70
     0
  9
$USERR1
 40
0.0
  9
$USERR2
 40
0.0
  9
$USERR3
 40
0.0
  9
$USERR4
 40
0.0
  9
$USERR5
 40
0.0
  9
$WORLDVIEW
 70
     1
  9
$SHADEDGE
 70
     3
  9
$SHADEDIF
 70
    70
  9
$TILEMODE
 70
     1
  9
$MAXACTVP
 70
    16
  9
$PINSBASE
 10
0.0
 20
0.0
 30
0.0
  9
$PLIMCHECK
 70
     0
  9
$PEXTMIN
 10
1.000000E+20
 20
1.000000E+20
 30
1.000000E+20
  9
$PEXTMAX
 10
-1.000000E+20
 20
-1.000000E+20
 30
-1.000000E+20
  9
$PLIMMIN
 10
0.0
 20
0.0
  9
$PLIMMAX
 10
12.0
 20
9.0
  9
$UNITMODE
 70
     0
  9
$VISRETAIN
 70
     0
  9
$PLINEGEN
 70
     0
  9
$PSLTSCALE
 70
     1
  9
$TREEDEPTH
 70
  3020
  9
$PICKSTYLE
 70
     1
  9
$CMLSTYLE
  2
STANDARD
  9
$CMLJUST
 70
     0
  9
$CMLSCALE
 40
1.0
  9
$PROXYGRAPHICS
 70
     1
  9
$MEASUREMENT
 70
     0
  0
ENDSEC
  0
SECTION
  2
CLASSES
  0
CLASS
  1
LWPOLYLINE
  2
AcDbPolyline
  3
"AutoCAD"
 90
        0
280
     0
281
     1
  0
CLASS
  1
ACDBDICTIONARYWDFLT
  2
AcDbDictionaryWithDefault
  3
AutoCAD 2000
 90
        0
280
     1
281
     0
  0
CLASS
  1
ACDBPLACEHOLDER
  2
AcDbPlaceHolder
  3
AutoCAD 2000
 90
        0
280
     1
281
     0
  0
CLASS
  1
LAYOUT
  2
AcDbLayout
  3
AutoCAD 2000
 90
        0
280
     1
281
     0
  0
CLASS
  1
LONG_TRANSACTION
  2
AcDbLongTransaction
  3
AutoCAD 2000
 90
        0
280
     1
281
     0
  0
CLASS
  1
LWPOLYLINE
  2
AcDbPolyline
  3
"AutoCAD"
 90
        0
280
     0
281
     1
  0
CLASS
  1
HATCH
  2
AcDbHatch
  3
"ACAD_SEDONA"
 90
        0
280
     0
281
     1
  0
CLASS
  1
XRECORD
  2
AcDbXrecord
  3
"<Built In>"
 90
        0
280
     0
281
     0
  0
CLASS
  1
DICTIONARYVAR
  2
AcDbDictionaryVar
  3
"AutoCAD"
 90
        0
280
     0
281
     0
  0
ENDSEC
  0
SECTION
  2
TABLES
  0
TABLE
  2
VPORT
  5
16
100
AcDbSymbolTable
 70
     2
  0
VPORT
  5
1E8E
100
AcDbSymbolTableRecord
100
AcDbViewportTableRecord
  2
*ACTIVE
 70
     0
 10
0.0
 20
0.0
 11
1.0
 21
1.0
 12
83.452831
 22
210.681275
 13
0.0
 23
0.0
 14
1.0
 24
1.0
 15
10.0
 25
10.0
 16
0.0
 26
0.0
 36
1.0
 17
0.0
 27
0.0
 37
0.0
 40
118.253474
 41
1.710425
 42
50.0
 43
0.0
 44
0.0
 50
0.0
 51
0.0
 71
     0
 72
   100
 73
     1
 74
     1
 75
     0
 76
     0
 77
     0
 78
     2
  0
ENDTAB
  0
TABLE
  2
LTYPE
  5
11
100
AcDbSymbolTable
 70
     2
  0
LTYPE
  5
12
100
AcDbSymbolTableRecord
100
AcDbLinetypeTableRecord
  2
BYBLOCK
 70
     0
  3

 72
    65
 73
     0
 40
0.0
  0
LTYPE
  5
13
100
AcDbSymbolTableRecord
100
AcDbLinetypeTableRecord
  2
BYLAYER
 70
     0
  3

 72
    65
 73
     0
 40
0.0
  0
LTYPE
  5
7
100
AcDbSymbolTableRecord
100
AcDbLinetypeTableRecord
  2
CONTINUOUS
 70
     0
  3
Solid line
 72
    65
 73
     0
 40
0.0
  0
LTYPE
  5
AA
100
AcDbSymbolTableRecord
100
AcDbLinetypeTableRecord
  2
CENTER
 70
     0
  3
Center ____ _ ____ _ ____ _ ____ _ ____ _ ____
 72
    65
 73
     4
 40
2.0
 49
1.25
 74
     0
 49
-0.25
 74
     0
 49
0.25
 74
     0
 49
-0.25
 74
     0
  0
ENDTAB
  0
TABLE
  2
LAYER
  5
E
100
AcDbSymbolTable
 70
     5
  0
LAYER
  5
6
100
AcDbSymbolTableRecord
100
AcDbLayerTableRecord
  2
0
 70
     0
 62
     7
  6
CONTINUOUS
  0
LAYER
  5
2C
100
AcDbSymbolTableRecord
100
AcDbLayerTableRecord
  2
外形
 70
     0
 62
     3
  6
CONTINUOUS
  0
LAYER
  5
37
102
{ACAD_XDICTIONARY
360
38
102
}
100
AcDbSymbolTableRecord
100
AcDbLayerTableRecord
  2
DEFPOINTS
 70
     0
 62
     7
  6
CONTINUOUS
  0
LAYER
  5
1F
100
AcDbSymbolTableRecord
100
AcDbLayerTableRecord
  2
寸法
 70
     0
 62
     1
  6
CONTINUOUS
  0
LAYER
  5
673
100
AcDbSymbolTableRecord
100
AcDbLayerTableRecord
  2
参考
 70
     0
 62
     2
  6
CONTINUOUS
  0
ENDTAB
  0
TABLE
  2
STYLE
  5
F
100
AcDbSymbolTable
 70
     1
  0
STYLE
  5
10
100
AcDbSymbolTableRecord
100
AcDbTextStyleTableRecord
  2
STANDARD
 70
     0
 40
0.0
 41
1.0
 50
0.0
 71
     0
 42
5.0
  3
MONOTXT
  4
BIGFONT
  0
ENDTAB
  0
TABLE
  2
VIEW
  5
14
100
AcDbSymbolTable
 70
     0
  0
ENDTAB
  0
TABLE
  2
UCS
  5
15
100
AcDbSymbolTable
 70
     0
  0
ENDTAB
  0
TABLE
  2
APPID
  5
18
100
AcDbSymbolTable
 70
     2
  0
APPID
  5
19
100
AcDbSymbolTableRecord
100
AcDbRegAppTableRecord
  2
ACAD
 70
     0
  0
APPID
  5
C59
100
AcDbSymbolTableRecord
100
AcDbRegAppTableRecord
  2
DRAWINGVARIABLESXDATA
 70
     0
  0
ENDTAB
  0
TABLE
  2
DIMSTYLE
  5
1A
100
AcDbSymbolTable
 70
     2
  0
DIMSTYLE
105
21
102
{ACAD_XDICTIONARY
360
22
102
}
102
{ACAD_REACTORS
330
1D01
330
1D0D
330
1D20
330
1D68
330
1D7B
330
1E73
102
}
100
AcDbSymbolTableRecord
100
AcDbDimStyleTableRecord
  2
STANDARD
 70
     0
  3

  4

  5

  6
_OPEN30
  7
_OPEN30
 40
0.0
 41
2.0
 42
1.0
 43
8.0
 44
2.0
 45
0.0
 46
0.0
 47
0.0
 48
0.0
140
3.0
141
-1.0
142
0.0
143
25.4
144
1.0
145
0.0
146
1.0
147
1.0
 71
     0
 72
     0
 73
     0
 74
     0
 75
     0
 76
     0
 77
     1
 78
     8
170
     0
171
     2
172
     1
173
     1
174
     0
175
     0
176
     1
177
     1
178
     3
270
     2
271
     2
272
     2
273
     2
274
     2
340
10
275
     0
280
     0
281
     0
282
     0
283
     1
284
     8
285
     0
286
     0
287
     3
288
     0
  0
DIMSTYLE
105
674
100
AcDbSymbolTableRecord
100
AcDbDimStyleTableRecord
  2
参考寸法
 70
     0
  3

  4

  5

  6
_DOTSMALL
  7
_DOTSMALL
 40
1.0
 41
2.0
 42
1.0
 43
8.0
 44
2.0
 45
0.0
 46
0.0
 47
0.0
 48
0.0
140
3.0
141
-1.0
142
0.0
143
25.4
144
1.0
145
0.0
146
1.0
147
1.0
 71
     0
 72
     0
 73
     0
 74
     0
 75
     0
 76
     0
 77
     1
 78
     8
170
     0
171
     2
172
     1
173
     1
174
     0
175
     0
176
     2
177
     2
178
     2
270
     2
271
     3
272
     2
273
     2
274
     2
340
10
275
     0
280
     0
281
     0
282
     0
283
     1
284
     8
285
     0
286
     0
287
     3
288
     0
  0
ENDTAB
  0
TABLE
  2
BLOCK_RECORD
  5
1
100
AcDbSymbolTable
 70
    15
  0
BLOCK_RECORD
  5
2
102
{ACAD_XDICTIONARY
360
3
102
}
100
AcDbSymbolTableRecord
100
AcDbBlockTableRecord
  2
*MODEL_SPACE
  0
BLOCK_RECORD
  5
9
102
{ACAD_XDICTIONARY
360
A
102
}
100
AcDbSymbolTableRecord
100
AcDbBlockTableRecord
  2
*PAPER_SPACE
  0
BLOCK_RECORD
  5
24
100
AcDbSymbolTableRecord
100
AcDbBlockTableRecord
  2
_DOTSMALL
  0
BLOCK_RECORD
  5
470
100
AcDbSymbolTableRecord
100
AcDbBlockTableRecord
  2
_OPEN30
  0
BLOCK_RECORD
  5
1CF3
100
AcDbSymbolTableRecord
100
AcDbBlockTableRecord
  2
*D3
  0
BLOCK_RECORD
  5
1D02
100
AcDbSymbolTableRecord
100
AcDbBlockTableRecord
  2
*D4
  0
BLOCK_RECORD
  5
1D0E
100
AcDbSymbolTableRecord
100
AcDbBlockTableRecord
  2
*D5
  0
BLOCK_RECORD
  5
1D5C
100
AcDbSymbolTableRecord
100
AcDbBlockTableRecord
  2
*D7
  0
BLOCK_RECORD
  5
1D69
100
AcDbSymbolTableRecord
100
AcDbBlockTableRecord
  2
*D8
  0
BLOCK_RECORD
  5
1E65
100
AcDbSymbolTableRecord
100
AcDbBlockTableRecord
  2
*D14
  0
ENDTAB
  0
ENDSEC
  0
SECTION
  2
BLOCKS
  0
BLOCK
  5
5
100
AcDbEntity
  8
0
100
AcDbBlockBegin
  2
*MODEL_SPACE
 70
     0
 10
0.0
 20
0.0
 30
0.0
  3
*MODEL_SPACE
  1

  0
ENDBLK
  5
8
100
AcDbEntity
  8
0
100
AcDbBlockEnd
  0
BLOCK
  5
C
100
AcDbEntity
 67
     1
  8
0
100
AcDbBlockBegin
  2
*PAPER_SPACE
 70
     0
 10
0.0
 20
0.0
 30
0.0
  3
*PAPER_SPACE
  1

  0
ENDBLK
  5
D
100
AcDbEntity
 67
     1
  8
0
100
AcDbBlockEnd
  0
BLOCK
  5
29
100
AcDbEntity
  8
0
100
AcDbBlockBegin
  2
_DOTSMALL
 70
     0
 10
0.0
 20
0.0
 30
0.0
  3
_DOTSMALL
  1

  0
POLYLINE
  5
25
100
AcDbEntity
  8
0
  6
BYBLOCK
 62
     0
100
AcDb2dPolyline
 66
     1
 10
0.0
 20
0.0
 30
0.0
 70
     1
 40
0.5
 41
0.5
  0
VERTEX
  5
26
100
AcDbEntity
  8
0
  6
BYBLOCK
 62
     0
100
AcDbVertex
100
AcDb2dVertex
 10
-0.0625
 20
0.0
 30
0.0
 42
1.0
  0
VERTEX
  5
27
100
AcDbEntity
  8
0
  6
BYBLOCK
 62
     0
100
AcDbVertex
100
AcDb2dVertex
 10
0.0625
 20
0.0
 30
0.0
 42
1.0
  0
SEQEND
  5
28
100
AcDbEntity
  8
0
  6
BYBLOCK
 62
     0
  0
ENDBLK
  5
2A
100
AcDbEntity
  8
0
100
AcDbBlockEnd
  0
BLOCK
  5
471
100
AcDbEntity
  8
0
100
AcDbBlockBegin
  2
_OPEN30
 70
     0
 10
0.0
 20
0.0
 30
0.0
  3
_OPEN30
  1

  0
LINE
  5
472
100
AcDbEntity
  8
0
  6
BYBLOCK
 62
     0
100
AcDbLine
 10
-1.0
 20
0.267949
 30
0.0
 11
0.0
 21
0.0
 31
0.0
  0
LINE
  5
473
100
AcDbEntity
  8
0
  6
BYBLOCK
 62
     0
100
AcDbLine
 10
0.0
 20
0.0
 30
0.0
 11
-1.0
 21
-0.267949
 31
0.0
  0
LINE
  5
474
100
AcDbEntity
  8
0
  6
BYBLOCK
 62
     0
100
AcDbLine
 10
0.0
 20
0.0
 30
0.0
 11
-1.0
 21
0.0
 31
0.0
  0
ENDBLK
  5
475
100
AcDbEntity
  8
0
100
AcDbBlockEnd
  0
BLOCK
  5
1CF4
100
AcDbEntity
  8
0
100
AcDbBlockBegin
  2
*D3
 70
     1
 10
0.0
 20
0.0
 30
0.0
  3
*D3
  1

  0
LINE
  5
1CF5
100
AcDbEntity
  8
0
  6
BYBLOCK
 62
     1
100
AcDbLine
 10
127.020701
 20
327.96131
 30
0.0
 11
127.020701
 21
313.623355
 31
0.0
  0
LINE
  5
1CF6
100
AcDbEntity
  8
0
  6
BYBLOCK
 62
     1
100
AcDbLine
 10
136.520701
 20
330.140759
 30
0.0
 11
136.520701
 21
313.623355
 31
0.0
  0
LINE
  5
1CF7
100
AcDbEntity
  8
0
  6
BYBLOCK
 62
     1
100
AcDbLine
 10
125.020701
 20
315.623355
 30
0.0
 11
123.020701
 21
315.623355
 31
0.0
  0
LINE
  5
1CF8
100
AcDbEntity
  8
0
  6
BYBLOCK
 62
     1
100
AcDbLine
 10
138.520701
 20
315.623355
 30
0.0
 11
150.520701
 21
315.623355
 31
0.0
  0
LINE
  5
1CF9
100
AcDbEntity
  8
0
  6
BYBLOCK
 62
     1
100
AcDbLine
 10
127.020701
 20
315.623355
 30
0.0
 11
136.520701
 21
315.623355
 31
0.0
  0
INSERT
  5
1CFA
100
AcDbEntity
  8
0
  6
BYBLOCK
 62
     1
100
AcDbBlockReference
  2
_OPEN30
 10
127.020701
 20
315.623355
 30
0.0
 41
2.0
 42
2.0
 43
2.0
  0
INSERT
  5
1CFB
100
AcDbEntity
  8
0
  6
BYBLOCK
 62
     1
100
AcDbBlockReference
  2
_OPEN30
 10
136.520701
 20
315.623355
 30
0.0
 41
2.0
 42
2.0
 43
2.0
 50
180.0
  0
MTEXT
  5
1CFC
100
AcDbEntity
  8
0
  6
BYBLOCK
 62
     3
100
AcDbMText
 10
145.520701
 20
318.123355
 30
0.0
 40
3.0
 41
0.0
 71
     5
 72
     1
  1
\A1;9.5
  0
POINT
  5
1CFD
100
AcDbEntity
  8
DEFPOINTS
  6
BYBLOCK
 62
     0
100
AcDbPoint
 10
127.020701
 20
328.96131
 30
0.0
  0
POINT
  5
1CFE
100
AcDbEntity
  8
DEFPOINTS
  6
BYBLOCK
 62
     0
100
AcDbPoint
 10
136.520701
 20
331.140759
 30
0.0
  0
POINT
  5
1CFF
100
AcDbEntity
  8
DEFPOINTS
  6
BYBLOCK
 62
     0
100
AcDbPoint
 10
136.520701
 20
315.623355
 30
0.0
  0
ENDBLK
  5
1D00
100
AcDbEntity
  8
0
100
AcDbBlockEnd
  0
BLOCK
  5
1D03
100
AcDbEntity
  8
0
100
AcDbBlockBegin
  2
*D4
 70
     1
 10
0.0
 20
0.0
 30
0.0
  3
*D4
  1

  0
LINE
  5
1D04
100
AcDbEntity
  8
0
  6
BYBLOCK
 62
     1
100
AcDbLine
 10
127.474154
 20
325.42889
 30
0.0
 11
126.317997
 21
323.796927
 31
0.0
  0
LINE
  5
1D05
100
AcDbEntity
  8
0
  6
BYBLOCK
 62
     1
100
AcDbLine
 10
135.567249
 20
336.852629
 30
0.0
 11
142.504188
 21
346.644405
 31
0.0
  0
LINE
  5
1D06
100
AcDbEntity
  8
0
  6
BYBLOCK
 62
     1
100
AcDbLine
 10
128.63031
 20
327.060852
 30
0.0
 11
134.411092
 21
335.220666
 31
0.0
  0
INSERT
  5
1D07
100
AcDbEntity
  8
0
  6
BYBLOCK
 62
     1
100
AcDbBlockReference
  2
_OPEN30
 10
128.63031
 20
327.060852
 30
0.0
 41
2.0
 42
2.0
 43
2.0
 50
54.684512
  0
INSERT
  5
1D08
100
AcDbEntity
  8
0
  6
BYBLOCK
 62
     1
100
AcDbBlockReference
  2
_OPEN30
 10
134.411092
 20
335.220666
 30
0.0
 41
2.0
 42
2.0
 43
2.0
 50
234.684512
  0
MTEXT
  5
1D09
100
AcDbEntity
  8
0
  6
BYBLOCK
 62
     3
100
AcDbMText
 10
137.573843
 20
344.009694
 30
0.0
 40
3.0
 41
0.0
 71
     5
 72
     1
  1
\A1;\U+220510
 11
0.578078
 21
0.815981
 31
0.0
  0
POINT
  5
1D0A
100
AcDbEntity
  8
DEFPOINTS
  6
BYBLOCK
 62
     0
100
AcDbPoint
 10
134.411092
 20
335.220666
 30
0.0
  0
POINT
  5
1D0B
100
AcDbEntity
  8
DEFPOINTS
  6
BYBLOCK
 62
     0
100
AcDbPoint
 10
128.63031
 20
327.060852
 30
0.0
  0
ENDBLK
  5
1D0C
100
AcDbEntity
  8
0
100
AcDbBlockEnd
  0
BLOCK
  5
1D0F
100
AcDbEntity
  8
0
100
AcDbBlockBegin
  2
*D5
 70
     1
 10
0.0
 20
0.0
 30
0.0
  3
*D5
  1

  0
LINE
  5
1D10
100
AcDbEntity
  8
0
  6
BYBLOCK
 62
     1
100
AcDbLine
 10
59.283724
 20
330.203879
 30
0.0
 11
60.73121
 21
346.748716
 31
0.0
  0
LINE
  5
1D11
100
AcDbEntity
  8
0
  6
BYBLOCK
 62
     1
100
AcDbLine
 10
58.900981
 20
326.829112
 30
0.0
 11
58.900981
 21
346.828625
 31
0.0
  0
ARC
  5
1D12
100
AcDbEntity
  8
0
  6
BYBLOCK
 62
     1
100
AcDbCircle
 10
58.900981
 20
325.829112
 30
0.0
 40
18.999513
100
AcDbArc
 50
72.915032
 51
85.0
  0
LINE
  5
1D13
100
AcDbEntity
  8
0
  6
BYBLOCK
 62
     1
100
AcDbLine
 10
64.48284
 20
343.990179
 30
0.0
 11
72.703323
 21
341.463589
 31
0.0
  0
ARC
  5
1D14
100
AcDbEntity
  8
0
  6
BYBLOCK
 62
     1
100
AcDbCircle
 10
58.900981
 20
325.829112
 30
0.0
 40
18.999513
100
AcDbArc
 50
72.931845
 51
78.965923
  0
ARC
  5
1D15
100
AcDbEntity
  8
0
  6
BYBLOCK
 62
     1
100
AcDbCircle
 10
58.900981
 20
325.829112
 30
0.0
 40
18.999513
100
AcDbArc
 50
96.034077
 51
102.068155
  0
ARC
  5
1D16
100
AcDbEntity
  8
0
  6
BYBLOCK
 62
     1
100
AcDbCircle
 10
58.900981
 20
325.829112
 30
0.0
 40
18.999513
100
AcDbArc
 50
85.0
 51
90.0
  0
INSERT
  5
1D17
100
AcDbEntity
  8
0
  6
BYBLOCK
 62
     1
100
AcDbBlockReference
  2
_OPEN30
 10
60.556898
 20
344.756326
 30
0.0
 41
2.0
 42
2.0
 43
2.0
 50
171.982961
  0
INSERT
  5
1D18
100
AcDbEntity
  8
0
  6
BYBLOCK
 62
     1
100
AcDbBlockReference
  2
_OPEN30
 10
58.900981
 20
344.828625
 30
0.0
 41
2.0
 42
2.0
 43
2.0
 50
3.017039
  0
MTEXT
  5
1D19
100
AcDbEntity
  8
0
  6
BYBLOCK
 62
     3
100
AcDbMText
 10
69.327555
 20
345.11656
 30
0.0
 40
3.0
 41
0.0
 71
     5
 72
     1
  1
\A1;5°
 11
0.95587
 21
-0.29379
 31
0.0
  0
POINT
  5
1D1A
100
AcDbEntity
  8
DEFPOINTS
  6
BYBLOCK
 62
     0
100
AcDbPoint
 10
59.453577
 20
344.820588
 30
0.0
  0
POINT
  5
1D1B
100
AcDbEntity
  8
DEFPOINTS
  6
BYBLOCK
 62
     0
100
AcDbPoint
 10
58.900981
 20
325.829112
 30
0.0
  0
POINT
  5
1D1C
100
AcDbEntity
  8
DEFPOINTS
  6
BYBLOCK
 62
     0
100
AcDbPoint
 10
58.900981
 20
325.612442
 30
0.0
  0
POINT
  5
1D1D
100
AcDbEntity
  8
DEFPOINTS
  6
BYBLOCK
 62
     0
100
AcDbPoint
 10
58.900981
 20
325.829112
 30
0.0
  0
POINT
  5
1D1E
100
AcDbEntity
  8
DEFPOINTS
  6
BYBLOCK
 62
     0
100
AcDbPoint
 10
59.196568
 20
329.207684
 30
0.0
  0
ENDBLK
  5
1D1F
100
AcDbEntity
  8
0
100
AcDbBlockEnd
  0
BLOCK
  5
1D5D
100
AcDbEntity
  8
0
100
AcDbBlockBegin
  2
*D7
 70
     1
 10
0.0
 20
0.0
 30
0.0
  3
*D7
  1

  0
LINE
  5
1D5E
100
AcDbEntity
  8
0
  6
BYBLOCK
 62
     1
100
AcDbLine
 10
58.900981
 20
324.612442
 30
0.0
 11
58.900981
 21
303.718128
 31
0.0
  0
LINE
  5
1D5F
100
AcDbEntity
  8
0
  6
BYBLOCK
 62
     1
100
AcDbLine
 10
183.900981
 20
326.140759
 30
0.0
 11
183.900981
 21
303.718128
 31
0.0
  0
LINE
  5
1D60
100
AcDbEntity
  8
0
  6
BYBLOCK
 62
     1
100
AcDbLine
 10
60.900981
 20
305.718128
 30
0.0
 11
181.900981
 21
305.718128
 31
0.0
  0
INSERT
  5
1D61
100
AcDbEntity
  8
0
  6
BYBLOCK
 62
     1
100
AcDbBlockReference
  2
_OPEN30
 10
58.900981
 20
305.718128
 30
0.0
 41
2.0
 42
2.0
 43
2.0
 50
180.0
  0
INSERT
  5
1D62
100
AcDbEntity
  8
0
  6
BYBLOCK
 62
     1
100
AcDbBlockReference
  2
_OPEN30
 10
183.900981
 20
305.718128
 30
0.0
 41
2.0
 42
2.0
 43
2.0
  0
MTEXT
  5
1D63
100
AcDbEntity
  8
0
  6
BYBLOCK
 62
     3
100
AcDbMText
 10
121.400981
 20
308.218128
 30
0.0
 40
3.0
 41
0.0
 71
     5
 72
     1
  1
\A1;125
  0
POINT
  5
1D64
100
AcDbEntity
  8
DEFPOINTS
  6
BYBLOCK
 62
     0
100
AcDbPoint
 10
58.900981
 20
325.612442
 30
0.0
  0
POINT
  5
1D65
100
AcDbEntity
  8
DEFPOINTS
  6
BYBLOCK
 62
     0
100
AcDbPoint
 10
183.900981
 20
327.140759
 30
0.0
  0
POINT
  5
1D66
100
AcDbEntity
  8
DEFPOINTS
  6
BYBLOCK
 62
     0
100
AcDbPoint
 10
183.900981
 20
305.718128
 30
0.0
  0
ENDBLK
  5
1D67
100
AcDbEntity
  8
0
100
AcDbBlockEnd
  0
BLOCK
  5
1D6A
100
AcDbEntity
  8
0
100
AcDbBlockBegin
  2
*D8
 70
     1
 10
0.0
 20
0.0
 30
0.0
  3
*D8
  1

  0
LINE
  5
1D6B
100
AcDbEntity
  8
0
  6
BYBLOCK
 62
     1
100
AcDbLine
 10
32.651595
 20
324.627634
 30
0.0
 11
30.538451
 21
312.643395
 31
0.0
  0
LINE
  5
1D6C
100
AcDbEntity
  8
0
  6
BYBLOCK
 62
     1
100
AcDbLine
 10
32.825244
 20
323.680142
 30
0.0
 11
32.825244
 21
312.443326
 31
0.0
  0
ARC
  5
1D6D
100
AcDbEntity
  8
0
  6
BYBLOCK
 62
     1
100
AcDbCircle
 10
32.825244
 20
325.612442
 30
0.0
 40
11.169115
100
AcDbArc
 50
239.369369
 51
260.0
  0
LINE
  5
1D6E
100
AcDbEntity
  8
0
  6
BYBLOCK
 62
     1
100
AcDbLine
 10
27.134562
 20
316.001756
 30
0.0
 11
17.153113
 21
321.911973
 31
0.0
  0
ARC
  5
1D6F
100
AcDbEntity
  8
0
  6
BYBLOCK
 62
     1
100
AcDbCircle
 10
32.825244
 20
325.612442
 30
0.0
 40
11.169115
100
AcDbArc
 50
239.453125
 51
249.726562
  0
ARC
  5
1D70
100
AcDbEntity
  8
0
  6
BYBLOCK
 62
     1
100
AcDbCircle
 10
32.825244
 20
325.612442
 30
0.0
 40
11.169115
100
AcDbArc
 50
280.273438
 51
290.546875
  0
ARC
  5
1D71
100
AcDbEntity
  8
0
  6
BYBLOCK
 62
     1
100
AcDbCircle
 10
32.825244
 20
325.612442
 30
0.0
 40
11.169115
100
AcDbArc
 50
260.0
 51
270.0
  0
INSERT
  5
1D72
100
AcDbEntity
  8
0
  6
BYBLOCK
 62
     1
100
AcDbBlockReference
  2
_OPEN30
 10
30.885747
 20
314.61301
 30
0.0
 41
2.0
 42
2.0
 43
2.0
 50
344.863281
  0
INSERT
  5
1D73
100
AcDbEntity
  8
0
  6
BYBLOCK
 62
     1
100
AcDbBlockReference
  2
_OPEN30
 10
32.825244
 20
314.443326
 30
0.0
 41
2.0
 42
2.0
 43
2.0
 50
185.136719
  0
MTEXT
  5
1D74
100
AcDbEntity
  8
0
  6
BYBLOCK
 62
     3
100
AcDbMText
 10
23.417592
 20
321.108039
 30
0.0
 40
3.0
 41
0.0
 71
     5
 72
     1
  1
\A1;10°
 11
0.86047
 21
-0.509502
 31
0.0
  0
POINT
  5
1D75
100
AcDbEntity
  8
DEFPOINTS
  6
BYBLOCK
 62
     0
100
AcDbPoint
 10
32.175817
 20
314.462223
 30
0.0
  0
POINT
  5
1D76
100
AcDbEntity
  8
DEFPOINTS
  6
BYBLOCK
 62
     0
100
AcDbPoint
 10
32.825244
 20
337.601376
 30
0.0
  0
POINT
  5
1D77
100
AcDbEntity
  8
DEFPOINTS
  6
BYBLOCK
 62
     0
100
AcDbPoint
 10
34.622729
 20
335.80649
 30
0.0
  0
POINT
  5
1D78
100
AcDbEntity
  8
DEFPOINTS
  6
BYBLOCK
 62
     0
100
AcDbPoint
 10
32.825244
 20
325.612442
 30
0.0
  0
POINT
  5
1D79
100
AcDbEntity
  8
DEFPOINTS
  6
BYBLOCK
 62
     0
100
AcDbPoint
 10
32.825244
 20
324.680142
 30
0.0
  0
ENDBLK
  5
1D7A
100
AcDbEntity
  8
0
100
AcDbBlockEnd
  0
BLOCK
  5
1E81
100
AcDbEntity
  8
0
100
AcDbBlockBegin
  2
*D14
 70
     1
 10
0.0
 20
0.0
 30
0.0
  3
*D14
  1

  0
LINE
  5
1E82
100
AcDbEntity
  8
0
  6
BYBLOCK
 62
     1
100
AcDbLine
 10
36.300093
 20
223.198969
 30
0.0
 11
29.685186
 21
223.198969
 31
0.0
  0
LINE
  5
1E83
100
AcDbEntity
  8
0
  6
BYBLOCK
 62
     1
100
AcDbLine
 10
37.733916
 20
217.670652
 30
0.0
 11
29.685186
 21
217.670652
 31
0.0
  0
LINE
  5
1E84
100
AcDbEntity
  8
0
  6
BYBLOCK
 62
     1
100
AcDbLine
 10
31.685186
 20
225.198969
 30
0.0
 11
31.685186
 21
227.198969
 31
0.0
  0
LINE
  5
1E85
100
AcDbEntity
  8
0
  6
BYBLOCK
 62
     1
100
AcDbLine
 10
31.685186
 20
215.670652
 30
0.0
 11
31.685186
 21
203.670652
 31
0.0
  0
LINE
  5
1E86
100
AcDbEntity
  8
0
  6
BYBLOCK
 62
     1
100
AcDbLine
 10
31.685186
 20
223.198969
 30
0.0
 11
31.685186
 21
217.670652
 31
0.0
  0
INSERT
  5
1E87
100
AcDbEntity
  8
0
  6
BYBLOCK
 62
     1
100
AcDbBlockReference
  2
_OPEN30
 10
31.685186
 20
223.198969
 30
0.0
 41
2.0
 42
2.0
 43
2.0
 50
270.0
  0
INSERT
  5
1E88
100
AcDbEntity
  8
0
  6
BYBLOCK
 62
     1
100
AcDbBlockReference
  2
_OPEN30
 10
31.685186
 20
217.670652
 30
0.0
 41
2.0
 42
2.0
 43
2.0
 50
90.0
  0
MTEXT
  5
1E89
100
AcDbEntity
  8
0
  6
BYBLOCK
 62
     3
100
AcDbMText
 10
29.185186
 20
208.670652
 30
0.0
 40
3.0
 41
0.0
 71
     5
 72
     1
  1
\A1;5.5
 11
0.0
 21
1.0
 31
0.0
  0
POINT
  5
1E8A
100
AcDbEntity
  8
DEFPOINTS
  6
BYBLOCK
 62
     0
100
AcDbPoint
 10
37.300093
 20
223.198969
 30
0.0
  0
POINT
  5
1E8B
100
AcDbEntity
  8
DEFPOINTS
  6
BYBLOCK
 62
     0
100
AcDbPoint
 10
38.733916
 20
217.670652
 30
0.0
  0
POINT
  5
1E8C
100
AcDbEntity
  8
DEFPOINTS
  6
BYBLOCK
 62
     0
100
AcDbPoint
 10
31.685186
 20
217.670652
 30
0.0
  0
ENDBLK
  5
1E8D
100
AcDbEntity
  8
0
100
AcDbBlockEnd
  0
ENDSEC
  0
SECTION
  2
ENTITIES
  0
TEXT
  5
1453
100
AcDbEntity
  8
外形
  6
CONTINUOUS
 62
     2
100
AcDbText
 10
80.745785
 20
161.961626
 30
0.0
 40
6.0
  1
BNZ610R
100
AcDbText
  0
LINE
  5
1A71
100
AcDbEntity
  8
外形
  6
CENTER
 62
     1
100
AcDbLine
 10
37.835878
 20
184.90717
 30
0.0
 11
172.907058
 21
184.90717
 31
0.0
  0
LINE
  5
1A7E
100
AcDbEntity
  8
外形
  6
CONTINUOUS
100
AcDbLine
 10
41.962233
 20
183.443168
 30
0.0
 11
42.509501
 21
183.590667
 31
0.0
  0
LINE
  5
1A82
100
AcDbEntity
  8
外形
  6
CONTINUOUS
100
AcDbLine
 10
41.962233
 20
184.428268
 30
0.0
 11
38.791957
 21
184.428268
 31
0.0
  0
LINE
  5
1A83
100
AcDbEntity
  8
外形
  6
CONTINUOUS
100
AcDbLine
 10
38.85044
 20
183.951959
 30
0.0
 11
41.962233
 21
183.951959
 31
0.0
  0
LINE
  5
1A84
100
AcDbEntity
  8
外形
  6
CONTINUOUS
100
AcDbLine
 10
41.962233
 20
184.90717
 30
0.0
 11
41.962233
 21
183.443168
 31
0.0
  0
LINE
  5
1A85
100
AcDbEntity
  8
外形
  6
CONTINUOUS
100
AcDbLine
 10
39.202233
 20
183.443168
 30
0.0
 11
39.202233
 21
179.90717
 31
0.0
  0
LINE
  5
1A87
100
AcDbEntity
  8
外形
  6
CONTINUOUS
100
AcDbLine
 10
41.962233
 20
183.443168
 30
0.0
 11
38.912912
 21
183.443168
 31
0.0
  0
LINE
  5
1A8C
100
AcDbEntity
  8
外形
  6
CONTINUOUS
100
AcDbLine
 10
41.962233
 20
184.90717
 30
0.0
 11
38.733155
 21
184.90717
 31
0.0
  0
LINE
  5
1A8D
100
AcDbEntity
  8
外形
  6
CONTINUOUS
100
AcDbLine
 10
38.912912
 20
183.443168
 30
0.0
 11
38.733916
 21
184.900972
 31
0.0
  0
LINE
  5
1A96
100
AcDbEntity
  8
外形
  6
CENTER
 62
     1
100
AcDbLine
 10
37.300093
 20
223.198969
 30
0.0
 11
168.373657
 21
223.198969
 31
0.0
  0
LINE
  5
1AA5
100
AcDbEntity
  8
外形
  6
CONTINUOUS
100
AcDbLine
 10
12.677535
 20
220.659816
 30
0.0
 11
12.176435
 21
217.817935
 31
0.0
  0
LINE
  5
1AA6
100
AcDbEntity
  8
外形
  6
CONTINUOUS
100
AcDbLine
 10
11.126235
 20
218.139014
 30
0.0
 11
12.658178
 21
217.670652
 31
0.0
  0
LINE
  5
1AA7
100
AcDbEntity
  8
外形
  6
CONTINUOUS
100
AcDbLine
 10
12.185131
 20
220.74664
 30
0.0
 11
13.169939
 21
220.572992
 31
0.0
  0
LINE
  5
1AA8
100
AcDbEntity
  8
外形
  6
CONTINUOUS
100
AcDbLine
 10
12.185131
 20
220.74664
 30
0.0
 11
11.694692
 21
217.965219
 31
0.0
  0
HATCH
  5
1AAA
100
AcDbEntity
  8
外形
  6
CONTINUOUS
100
AcDbHatch
 10
0.0
 20
0.0
 30
0.0
210
0.0
220
0.0
230
1.0
  2
ANSI31
 70
     0
 71
     0
 91
        2
 92
        7
 72
     0
 73
     1
 93
        5
 10
13.16993887745627
 20
220.572992200578
 10
12.67753500095017
 20
220.6598162894115
 10
12.51158326976393
 20
219.7186572534011
 10
12.65471983444216
 20
217.6717090128061
 10
12.65817795068187
 20
217.6706517605714
 97
        0
 92
       22
 72
     0
 73
     1
 93
        3
 10
12.51158326976394
 20
219.718657253401
 10
12.17643473179902
 20
217.8179354431689
 10
12.65471983444212
 20
217.6717090128061
 97
        0
 75
     0
 76
     1
 52
4.0
 41
3.0
 77
     0
 78
     1
 53
49.0
 43
-0.23032
 44
156.725152
 45
-0.2830160925835393
 46
0.2460221358714405
 79
     0
 47
0.01469
 98
        2
 10
12.792612
 20
219.642875
 10
12.456762
 20
218.54438
  0
LINE
  5
1AAB
100
AcDbEntity
  8
外形
  6
CONTINUOUS
100
AcDbLine
 10
12.168949
 20
224.052542
 30
0.0
 11
11.126235
 21
218.139014
 31
0.0
  0
LINE
  5
1AAC
100
AcDbEntity
  8
外形
  6
CONTINUOUS
100
AcDbLine
 10
14.455664
 20
227.8647
 30
0.0
 11
12.658178
 21
217.670652
 31
0.0
  0
LINE
  5
1AAD
100
AcDbEntity
  8
外形
  6
CONTINUOUS
100
AcDbLine
 10
11.756066
 20
221.690294
 30
0.0
 11
13.29449
 21
221.21995
 31
0.0
  0
LINE
  5
1AAE
100
AcDbEntity
  8
外形
  6
CONTINUOUS
100
AcDbLine
 10
12.168949
 20
224.052542
 30
0.0
 11
13.768694
 21
223.968703
 31
0.0
  0
LINE
  5
1ABC
100
AcDbEntity
  8
外形
  6
CENTER
 62
     1
100
AcDbLine
 10
40.05333
 20
220.898969
 30
0.0
 11
46.277742
 21
220.898969
 31
0.0
  0
ARC
  5
1ABD
100
AcDbEntity
  8
外形
  6
CONTINUOUS
100
AcDbCircle
 10
44.562233
 20
220.898969
 30
0.0
 40
1.0
100
AcDbArc
 50
257.787333
 51
102.212667
  0
LINE
  5
1ABE
100
AcDbEntity
  8
外形
  6
CONTINUOUS
100
AcDbLine
 10
45.18664
 20
221.04039
 30
0.0
 11
42.103654
 21
224.123376
 31
0.0
  0
LINE
  5
1ABF
100
AcDbEntity
  8
外形
  6
CONTINUOUS
100
AcDbLine
 10
45.18664
 20
220.757548
 30
0.0
 11
42.453149
 21
218.024056
 31
0.0
  0
LINE
  5
1AC3
100
AcDbEntity
  8
外形
  6
CONTINUOUS
100
AcDbLine
 10
46.2641
 20
228.198969
 30
0.0
 11
42.146081
 21
224.080949
 31
0.0
  0
LINE
  5
1AC6
100
AcDbEntity
  8
外形
  6
CENTER
 62
     1
100
AcDbLine
 10
41.962233
 20
224.170652
 30
0.0
 11
41.962233
 21
218.170652
 31
0.0
  0
LINE
  5
1AC7
100
AcDbEntity
  8
外形
  6
CENTER
 62
     1
100
AcDbLine
 10
44.562233
 20
224.170652
 30
0.0
 11
44.562233
 21
218.170652
 31
0.0
  0
LINE
  5
1AC9
100
AcDbEntity
  8
外形
  6
CONTINUOUS
100
AcDbLine
 10
41.820812
 20
224.123376
 30
0.0
 11
39.08732
 21
221.389884
 31
0.0
  0
LINE
  5
1ACA
100
AcDbEntity
  8
外形
  6
CONTINUOUS
100
AcDbLine
 10
38.733916
 20
217.887322
 30
0.0
 11
39.029503
 21
221.265894
 31
0.0
  0
ARC
  5
1ACB
100
AcDbEntity
  8
外形
  6
CONTINUOUS
100
AcDbCircle
 10
41.962233
 20
223.981955
 30
0.0
 40
0.2
100
AcDbArc
 50
45.0
 51
135.0
  0
LINE
  5
1ACD
100
AcDbEntity
  8
外形
  6
CONTINUOUS
100
AcDbLine
 10
41.593497
 20
217.901877
 30
0.0
 11
38.965141
 21
220.530233
 31
0.0
  0
ARC
  5
1ACE
100
AcDbEntity
  8
外形
  6
CONTINUOUS
100
AcDbCircle
 10
42.311727
 20
218.165477
 30
0.0
 40
0.2
100
AcDbArc
 50
275.0
 51
315.0
  0
ARC
  5
1ACF
100
AcDbEntity
  8
外形
  6
CONTINUOUS
100
AcDbCircle
 10
39.228742
 20
221.248463
 30
0.0
 40
0.2
100
AcDbArc
 50
135.0
 51
175.0
  0
CIRCLE
  5
1AD0
100
AcDbEntity
  8
外形
  6
CONTINUOUS
100
AcDbCircle
 10
41.962233
 20
220.898969
 30
0.0
 40
1.35
  0
LINE
  5
1AD1
100
AcDbEntity
  8
外形
  6
CONTINUOUS
100
AcDbLine
 10
42.471113
 20
221.078292
 30
0.0
 11
42.778191
 21
220.898969
 31
0.0
  0
LINE
  5
1AD2
100
AcDbEntity
  8
外形
  6
CONTINUOUS
100
AcDbLine
 10
42.778191
 20
220.898969
 30
0.0
 11
42.471113
 21
220.719646
 31
0.0
  0
LINE
  5
1AD3
100
AcDbEntity
  8
外形
  6
CONTINUOUS
100
AcDbLine
 10
42.061375
 20
221.429333
 30
0.0
 11
42.370212
 21
221.605609
 31
0.0
  0
LINE
  5
1AD4
100
AcDbEntity
  8
外形
  6
CONTINUOUS
100
AcDbLine
 10
42.370212
 20
221.605609
 30
0.0
 11
42.371971
 21
221.25001
 31
0.0
  0
LINE
  5
1AD5
100
AcDbEntity
  8
外形
  6
CONTINUOUS
100
AcDbLine
 10
41.552495
 20
221.25001
 30
0.0
 11
41.554254
 21
221.605609
 31
0.0
  0
LINE
  5
1AD6
100
AcDbEntity
  8
外形
  6
CONTINUOUS
100
AcDbLine
 10
41.554254
 20
221.605609
 30
0.0
 11
41.863091
 21
221.429333
 31
0.0
  0
LINE
  5
1AD7
100
AcDbEntity
  8
外形
  6
CONTINUOUS
100
AcDbLine
 10
41.453353
 20
220.719646
 30
0.0
 11
41.146276
 21
220.898969
 31
0.0
  0
LINE
  5
1AD8
100
AcDbEntity
  8
外形
  6
CONTINUOUS
100
AcDbLine
 10
41.146276
 20
220.898969
 30
0.0
 11
41.453353
 21
221.078292
 31
0.0
  0
LINE
  5
1AD9
100
AcDbEntity
  8
外形
  6
CONTINUOUS
100
AcDbLine
 10
41.863091
 20
220.368605
 30
0.0
 11
41.554254
 21
220.192329
 31
0.0
  0
LINE
  5
1ADA
100
AcDbEntity
  8
外形
  6
CONTINUOUS
100
AcDbLine
 10
41.554254
 20
220.192329
 30
0.0
 11
41.552495
 21
220.547927
 31
0.0
  0
LINE
  5
1ADB
100
AcDbEntity
  8
外形
  6
CONTINUOUS
100
AcDbLine
 10
42.371971
 20
220.547927
 30
0.0
 11
42.370212
 21
220.192329
 31
0.0
  0
LINE
  5
1ADC
100
AcDbEntity
  8
外形
  6
CONTINUOUS
100
AcDbLine
 10
42.370212
 20
220.192329
 30
0.0
 11
42.061375
 21
220.368605
 31
0.0
  0
ARC
  5
1ADD
100
AcDbEntity
  8
外形
  6
CONTINUOUS
100
AcDbCircle
 10
42.571969
 20
221.251
 30
0.0
 40
0.2
100
AcDbArc
 50
180.283476
 51
239.716524
  0
ARC
  5
1ADE
100
AcDbEntity
  8
外形
  6
CONTINUOUS
100
AcDbCircle
 10
42.571969
 20
220.546938
 30
0.0
 40
0.2
100
AcDbArc
 50
120.283476
 51
179.716524
  0
ARC
  5
1ADF
100
AcDbEntity
  8
外形
  6
CONTINUOUS
100
AcDbCircle
 10
41.962233
 20
220.194907
 30
0.0
 40
0.2
100
AcDbArc
 50
60.283476
 51
119.716524
  0
ARC
  5
1AE0
100
AcDbEntity
  8
外形
  6
CONTINUOUS
100
AcDbCircle
 10
41.352497
 20
220.546938
 30
0.0
 40
0.2
100
AcDbArc
 50
0.283476
 51
59.716524
  0
ARC
  5
1AE1
100
AcDbEntity
  8
外形
  6
CONTINUOUS
100
AcDbCircle
 10
41.352497
 20
221.251
 30
0.0
 40
0.2
100
AcDbArc
 50
300.283476
 51
359.716524
  0
ARC
  5
1AE2
100
AcDbEntity
  8
外形
  6
CONTINUOUS
100
AcDbCircle
 10
41.962233
 20
221.603031
 30
0.0
 40
0.2
100
AcDbArc
 50
240.283476
 51
299.716524
  0
LINE
  5
1AE4
100
AcDbEntity
  8
外形
  6
CONTINUOUS
100
AcDbLine
 10
38.950586
 20
217.670652
 30
0.0
 11
42.329158
 21
217.966239
 31
0.0
  0
ARC
  5
1AE5
100
AcDbEntity
  8
外形
  6
CONTINUOUS
100
AcDbCircle
 10
38.933155
 20
217.869891
 30
0.0
 40
0.2
100
AcDbArc
 50
175.0
 51
275.0
  0
HATCH
  5
1AE7
100
AcDbEntity
  8
外形
  6
CONTINUOUS
100
AcDbHatch
 10
0.0
 20
0.0
 30
0.0
210
0.0
220
0.0
230
1.0
  2
ANSI31
 70
     0
 71
     0
 91
        1
 92
        7
 72
     1
 73
     1
 93
        6
 10
38.73391587633715
 20
217.8873218487394
 42
0.0
 10
38.73391587633715
 20
217.8524595516408
 42
0.3639702342663129
 10
38.9157236674057
 20
217.6706517605716
 42
0.0
 10
38.95058596450502
 20
217.6706517605716
 42
0.0
 10
41.59349721780596
 20
217.9018765339405
 42
0.0
 10
38.96514064970608
 20
220.5302331020402
 42
0.0
 97
        0
 75
     0
 76
     1
 52
0.0
 41
3.0
 77
     0
 78
     1
 53
45.0
 43
12.941978
 44
157.772678
 45
-0.2651650429449553
 46
0.2651650429449553
 79
     0
 47
0.014389
 98
        1
 10
39.332099
 20
218.934043
  0
ARC
  5
1AE9
100
AcDbEntity
  8
外形
  6
CONTINUOUS
100
AcDbCircle
 10
45.045219
 20
220.898969
 30
0.0
 40
0.2
100
AcDbArc
 50
315.0
 51
45.0
  0
LINE
  5
1AF8
100
AcDbEntity
  8
外形
  6
CENTER
 62
     1
100
AcDbLine
 10
111.353636
 20
215.32741
 30
0.0
 11
111.353636
 21
232.270446
 31
0.0
  0
LINE
  5
1BB0
100
AcDbEntity
  8
外形
  6
CONTINUOUS
100
AcDbLine
 10
46.2641
 20
228.198969
 30
0.0
 11
105.421751
 21
228.198969
 31
0.0
  0
LINE
  5
1BB1
100
AcDbEntity
  8
外形
  6
CONTINUOUS
100
AcDbLine
 10
42.628061
 20
218.198969
 30
0.0
 11
105.421751
 21
218.198969
 31
0.0
  0
LINE
  5
1BB4
100
AcDbEntity
  8
外形
  6
CONTINUOUS
100
AcDbLine
 10
47.733916
 20
221.019519
 30
0.0
 11
47.733916
 21
225.378418
 31
0.0
  0
ARC
  5
1BB7
100
AcDbEntity
  8
外形
  6
CONTINUOUS
100
AcDbCircle
 10
12.658178
 20
223.198969
 30
0.0
 40
5.0
100
AcDbArc
 50
25.841933
 51
252.761286
  0
LINE
  5
1BB9
100
AcDbEntity
  8
外形
  6
CONTINUOUS
100
AcDbLine
 10
17.158178
 20
225.378418
 30
0.0
 11
17.158178
 21
221.019519
 31
0.0
  0
LINE
  5
1BBB
100
AcDbEntity
  8
外形
  6
CONTINUOUS
100
AcDbLine
 10
47.733916
 20
225.378418
 30
0.0
 11
105.421751
 21
225.378418
 31
0.0
  0
LINE
  5
1BBC
100
AcDbEntity
  8
外形
  6
CONTINUOUS
100
AcDbLine
 10
47.733916
 20
221.019519
 30
0.0
 11
105.421751
 21
221.019519
 31
0.0
  0
SPLINE
  5
1C02
100
AcDbEntity
  8
外形
  6
CONTINUOUS
100
AcDbSpline
210
0.0
220
0.0
230
1.0
 70
     8
 71
     3
 72
    13
 73
     9
 74
     7
 42
0.0000001
 43
0.0000001
 44
0.0000000001
 40
0.0
 40
0.0
 40
0.0
 40
0.0
 40
0.8214945804088984
 40
1.51728177386635
 40
1.99287217837866
 40
2.394322903851758
 40
2.974500882315166
 40
6.016043159001824
 40
6.016043159001824
 40
6.016043159001824
 40
6.016043159001824
 10
47.73391587633715
 20
221.0195194854447
 30
0.0
 10
47.72466255657596
 20
220.7458177821507
 30
0.0
 10
47.70757188579589
 20
220.2402969719253
 30
0.0
 10
47.66863267430291
 20
219.5772728844689
 30
0.0
 10
47.57107584511675
 20
219.0580270298045
 30
0.0
 10
47.28718600478395
 20
218.6330582943051
 30
0.0
 10
45.94792141620059
 20
218.2270335407512
 30
0.0
 10
44.7456792108441
 20
218.231906848688
 30
0.0
 10
43.7360290344648
 20
218.2359994817665
 30
0.0
 11
47.73391587633715
 21
221.0195194854447
 31
0.0
 11
47.70247527526163
 21
220.1986267797607
 31
0.0
 11
47.64677064893826
 21
219.5050730232388
 31
0.0
 11
47.53223114612914
 21
219.0434812824544
 31
0.0
 11
47.29933651704789
 21
218.7164907982993
 31
0.0
 11
46.76736644323021
 21
218.48494312015
 31
0.0
 11
43.7360290344648
 21
218.2359994817665
 31
0.0
  0
LINE
  5
1C03
100
AcDbEntity
  8
外形
  6
CONTINUOUS
100
AcDbLine
 10
43.736029
 20
218.235999
 30
0.0
 11
42.665092
 21
218.235999
 31
0.0
  0
SPLINE
  5
1C04
100
AcDbEntity
  8
外形
  6
CONTINUOUS
100
AcDbSpline
210
0.0
220
0.0
230
1.0
 70
     8
 71
     3
 72
    13
 73
     9
 74
     0
 42
0.0000001
 43
0.0000001
 40
0.0
 40
0.0
 40
0.0
 40
0.0
 40
0.8214945804088984
 40
1.51728177386635
 40
1.99287217837866
 40
2.394322903851758
 40
2.974500882315166
 40
3.63239529012354
 40
3.63239529012354
 40
3.63239529012354
 40
3.63239529012354
 10
47.73391587633715
 20
225.3784184289839
 30
0.0
 10
47.72466255657597
 20
225.6521201322779
 30
0.0
 10
47.70757188579593
 20
226.1576409425033
 30
0.0
 10
47.66863267430291
 20
226.8206650299597
 30
0.0
 10
47.57107584511675
 20
227.3399108846241
 30
0.0
 10
47.28718600478394
 20
227.7648796201234
 30
0.0
 10
46.7414087419484
 20
227.9303428755004
 30
0.0
 10
46.32966502252168
 20
228.0120084911968
 30
0.0
 10
46.11095766878761
 20
228.0458263051844
 30
0.0
  0
ARC
  5
1C06
100
AcDbEntity
  8
外形
  6
CONTINUOUS
100
AcDbCircle
 10
111.353636
 20
223.198969
 30
0.0
 40
5.0
100
AcDbArc
 50
205.841933
 51
154.158067
  0
LINE
  5
1C08
100
AcDbEntity
  8
外形
  6
CONTINUOUS
100
AcDbLine
 10
106.853636
 20
225.378418
 30
0.0
 11
106.853636
 21
221.019519
 31
0.0
  0
LINE
  5
1C0B
100
AcDbEntity
  8
外形
  6
CONTINUOUS
100
AcDbLine
 10
118.427987
 20
228.198969
 30
0.0
 11
162.733916
 21
228.198969
 31
0.0
  0
LINE
  5
1C0C
100
AcDbEntity
  8
外形
  6
CONTINUOUS
100
AcDbLine
 10
118.427987
 20
225.378418
 30
0.0
 11
162.733916
 21
225.378418
 31
0.0
  0
LINE
  5
1C0D
100
AcDbEntity
  8
外形
  6
CONTINUOUS
100
AcDbLine
 10
118.427987
 20
221.019519
 30
0.0
 11
162.733916
 21
221.019519
 31
0.0
  0
LINE
  5
1C0E
100
AcDbEntity
  8
外形
  6
CONTINUOUS
100
AcDbLine
 10
118.427987
 20
218.198969
 30
0.0
 11
162.733916
 21
218.198969
 31
0.0
  0
LINE
  5
1C0F
100
AcDbEntity
  8
外形
  6
CONTINUOUS
100
AcDbLine
 10
38.733916
 20
185.418931
 30
0.0
 11
38.733916
 21
184.900972
 31
0.0
  0
LINE
  5
1C10
100
AcDbEntity
  8
外形
  6
CONTINUOUS
100
AcDbLine
 10
163.733916
 20
219.198969
 30
0.0
 11
163.733916
 21
227.198969
 31
0.0
  0
LINE
  5
1C11
100
AcDbEntity
  8
外形
  6
CONTINUOUS
100
AcDbLine
 10
162.733916
 20
218.198969
 30
0.0
 11
162.733916
 21
221.019519
 31
0.0
  0
LINE
  5
1C12
100
AcDbEntity
  8
外形
  6
CONTINUOUS
100
AcDbLine
 10
162.733916
 20
218.198969
 30
0.0
 11
163.733916
 21
219.198969
 31
0.0
  0
LINE
  5
1C13
100
AcDbEntity
  8
外形
  6
CONTINUOUS
100
AcDbLine
 10
163.733916
 20
227.198969
 30
0.0
 11
162.733916
 21
228.198969
 31
0.0
  0
ELLIPSE
  5
1C16
100
AcDbEntity
  8
外形
  6
CONTINUOUS
100
AcDbEllipse
 10
162.733916
 20
223.198969
 30
0.0
 11
0.0
 21
2.179449471770396
 31
0.0
210
0.0
220
0.0
230
1.0
 40
0.229416
 41
3.141592653589793
 42
6.283185307179586
  0
LINE
  5
1C17
100
AcDbEntity
  8
外形
  6
CONTINUOUS
100
AcDbLine
 10
162.733916
 20
225.378418
 30
0.0
 11
162.733916
 21
228.198969
 31
0.0
  0
ELLIPSE
  5
1C52
100
AcDbEntity
  8
外形
  6
CONTINUOUS
100
AcDbEllipse
 10
41.962233
 20
185.459245
 30
0.0
 11
1.349999969999998
 21
0.0
 31
0.0
210
0.0
220
0.0
230
1.0
 40
0.173648
 41
0.0
 42
6.283185307179586
  0
LINE
  5
1C5F
100
AcDbEntity
  8
外形
  6
CONTINUOUS
100
AcDbLine
 10
41.962233
 20
185.69367
 30
0.0
 11
42.370212
 21
185.235781
 31
0.0
  0
LINE
  5
1C60
100
AcDbEntity
  8
外形
  6
CONTINUOUS
100
AcDbLine
 10
42.370212
 20
185.235781
 30
0.0
 11
42.778191
 21
185.646005
 31
0.0
  0
LINE
  5
1C61
100
AcDbEntity
  8
外形
  6
CONTINUOUS
100
AcDbLine
 10
42.370212
 20
185.235781
 30
0.0
 11
43.312233
 21
185.459245
 31
0.0
  0
LINE
  5
1C62
100
AcDbEntity
  8
外形
  6
CONTINUOUS
100
AcDbLine
 10
41.554254
 20
185.235781
 30
0.0
 11
40.612233
 21
185.459245
 31
0.0
  0
LINE
  5
1C63
100
AcDbEntity
  8
外形
  6
CONTINUOUS
100
AcDbLine
 10
41.554254
 20
185.235781
 30
0.0
 11
41.146276
 21
185.646005
 31
0.0
  0
LINE
  5
1C64
100
AcDbEntity
  8
外形
  6
CONTINUOUS
100
AcDbLine
 10
41.962233
 20
185.69367
 30
0.0
 11
41.554254
 21
185.235781
 31
0.0
  0
LINE
  5
1C69
100
AcDbEntity
  8
外形
  6
CONTINUOUS
100
AcDbLine
 10
38.733916
 20
185.418931
 30
0.0
 11
41.962233
 21
186.017687
 31
0.0
  0
LINE
  5
1C6B
100
AcDbEntity
  8
外形
  6
CONTINUOUS
100
AcDbLine
 10
41.962233
 20
186.017687
 30
0.0
 11
44.963734
 21
185.418931
 31
0.0
  0
LINE
  5
1C6C
100
AcDbEntity
  8
外形
  6
CONTINUOUS
100
AcDbLine
 10
44.963734
 20
185.418931
 30
0.0
 11
41.962233
 21
184.90717
 31
0.0
  0
LINE
  5
1C6D
100
AcDbEntity
  8
外形
  6
CONTINUOUS
100
AcDbLine
 10
41.962233
 20
184.90717
 30
0.0
 11
38.733916
 21
185.418931
 31
0.0
  0
HATCH
  5
1C86
100
AcDbEntity
  8
外形
  6
CONTINUOUS
100
AcDbHatch
 10
0.0
 20
0.0
 30
0.0
210
0.0
220
0.0
230
1.0
  2
ANSI37
 70
     0
 71
     0
 91
        1
 92
        7
 72
     0
 73
     1
 93
        5
 10
38.73391587633715
 20
184.9071702074491
 10
38.73391587633715
 20
184.9009718680487
 10
38.79195659311792
 20
184.4282681636581
 10
41.96223307297997
 20
184.4282681636581
 10
41.96223307297997
 20
184.9071702074491
 97
        0
 75
     0
 76
     1
 52
0.0
 41
3.0
 77
     0
 78
     2
 53
45.0
 43
20.370939
 44
38.977824
 45
-0.2651650429449553
 46
0.2651650429449553
 79
     0
 53
135.0
 43
20.370939
 44
38.977824
 45
-0.2651650429449553
 46
-0.2651650429449553
 79
     0
 47
0.014761
 98
        1
 10
39.719801
 20
184.678713
  0
HATCH
  5
1C9D
100
AcDbEntity
  8
外形
  6
CONTINUOUS
100
AcDbHatch
 10
0.0
 20
0.0
 30
0.0
210
0.0
220
0.0
230
1.0
  2
ANSI31
 70
     0
 71
     0
 91
        1
 92
        7
 72
     0
 73
     1
 93
        3
 10
38.73391587633715
 20
185.4189311342235
 10
38.73391587633715
 20
184.9071702074491
 10
41.96223307297998
 20
184.9071702074491
 97
        0
 75
     0
 76
     1
 52
0.0
 41
3.0
 77
     0
 78
     1
 53
45.0
 43
20.370939
 44
38.977824
 45
-0.2651650429449553
 46
0.2651650429449553
 79
     0
 47
0.014761
 98
        1
 10
39.143607
 20
185.224872
  0
LINE
  5
1CA3
100
AcDbEntity
  8
外形
  6
CONTINUOUS
100
AcDbLine
 10
39.202233
 20
179.90717
 30
0.0
 11
162.733916
 21
179.90717
 31
0.0
  0
LINE
  5
1CA5
100
AcDbEntity
  8
外形
  6
CONTINUOUS
100
AcDbLine
 10
47.733916
 20
189.40717
 30
0.0
 11
163.233916
 21
189.40717
 31
0.0
  0
LINE
  5
1CA6
100
AcDbEntity
  8
外形
  6
CONTINUOUS
100
AcDbLine
 10
42.509501
 20
185.00048
 30
0.0
 11
43.736029
 21
185.00048
 31
0.0
  0
LINE
  5
1CA7
100
AcDbEntity
  8
外形
  6
CONTINUOUS
100
AcDbLine
 10
42.509501
 20
185.00048
 30
0.0
 11
42.509501
 21
183.590667
 31
0.0
  0
SPLINE
  5
1CD3
100
AcDbEntity
  8
外形
  6
CONTINUOUS
100
AcDbSpline
210
0.0
220
0.0
230
1.0
 70
     8
 71
     3
 72
    14
 73
    10
 74
     8
 42
0.0000001
 43
0.0000001
 44
0.0000000001
 40
0.0
 40
0.0
 40
0.0
 40
0.0
 40
2.782945542609067
 40
3.61116655090129
 40
4.228166480117575
 40
4.799294354739111
 40
5.370169996780853
 40
5.960807872634283
 40
7.091580283438307
 40
7.091580283438307
 40
7.091580283438307
 40
7.091580283438307
 10
43.73602903446481
 20
185.0004803209336
 30
0.0
 10
44.69947524926373
 20
185.0297192278018
 30
0.0
 10
45.94964874033844
 20
185.0676598058155
 30
0.0
 10
47.10727845166672
 20
185.9526635356291
 30
0.0
 10
47.43549987906708
 20
186.5520659481625
 30
0.0
 10
47.59191177071103
 20
187.119924792517
 30
0.0
 10
47.66344259127945
 20
187.6939946903238
 30
0.0
 10
47.71551870328787
 20
188.4564036287769
 30
0.0
 10
47.72662215853308
 20
189.0302306035331
 30
0.0
 10
47.73391587633715
 20
189.4071702074491
 30
0.0
 11
43.73602903446481
 21
185.0004803209336
 31
0.0
 11
46.47107896764666
 21
185.5145695701206
 31
0.0
 11
47.1124196628105
 21
186.0386231468695
 31
0.0
 11
47.41930160953382
 21
186.5738916621291
 31
0.0
 11
47.57832793398596
 21
187.12243307105
 31
0.0
 11
47.65741737094744
 21
187.6878036217844
 31
0.0
 11
47.6999511839017
 21
188.2769080056997
 31
0.0
 11
47.73391587633715
 21
189.4071702074491
 31
0.0
  0
LINE
  5
1CDC
100
AcDbEntity
  8
外形
  6
CONTINUOUS
100
AcDbLine
 10
42.146081
 20
185.981012
 30
0.0
 11
43.736029
 21
186.275899
 31
0.0
  0
SPLINE
  5
1CDD
100
AcDbEntity
  8
外形
  6
CONTINUOUS
100
AcDbSpline
210
0.0
220
0.0
230
1.0
 70
     8
 71
     3
 72
    13
 73
     9
 74
     7
 42
0.0000001
 43
0.0000001
 44
0.0000000001
 40
0.0
 40
0.0
 40
0.0
 40
0.0
 40
0.4670354709271162
 40
0.9037502308961048
 40
1.368096755439445
 40
1.912396356306329
 40
2.702087623965676
 40
5.581246179266585
 40
5.581246179266585
 40
5.581246179266585
 40
5.581246179266585
 10
47.73391587633715
 20
189.4071702074486
 30
0.0
 10
47.73117946011801
 20
189.2503660884772
 30
0.0
 10
47.72588428032157
 20
188.9469378318514
 30
0.0
 10
47.57187459659746
 20
188.5137599874736
 30
0.0
 10
47.43199371580207
 20
188.0521931504673
 30
0.0
 10
47.08608529392024
 20
187.5447192836182
 30
0.0
 10
45.87983820595931
 20
186.7762393582783
 30
0.0
 10
44.67866168862155
 20
186.4958986663644
 30
0.0
 10
43.73602903446481
 20
186.2758991186937
 30
0.0
 11
47.73391587633715
 21
189.4071702074486
 31
0.0
 11
47.6999511839017
 21
188.94137139812
 31
0.0
 11
47.57832793398596
 21
188.5219341958422
 31
0.0
 11
47.41930160953382
 21
188.085667851751
 31
0.0
 11
47.1124196628105
 21
187.6361286139984
 31
0.0
 11
46.47107896764666
 21
187.1753744377349
 31
0.0
 11
43.73602903446481
 21
186.2758991186937
 31
0.0
  0
LINE
  5
1CE0
100
AcDbEntity
  8
外形
  6
CONTINUOUS
100
AcDbLine
 10
163.733916
 20
180.90717
 30
0.0
 11
163.733916
 21
188.90717
 31
0.0
  0
LINE
  5
1CE1
100
AcDbEntity
  8
外形
  6
CONTINUOUS
100
AcDbLine
 10
162.733916
 20
179.90717
 30
0.0
 11
163.733916
 21
180.90717
 31
0.0
  0
LINE
  5
1CE3
100
AcDbEntity
  8
外形
  6
CONTINUOUS
100
AcDbLine
 10
162.733916
 20
179.90717
 30
0.0
 11
162.733916
 21
189.40717
 31
0.0
  0
LINE
  5
1CE4
100
AcDbEntity
  8
外形
  6
CONTINUOUS
100
AcDbLine
 10
163.733916
 20
188.90717
 30
0.0
 11
163.233916
 21
189.40717
 31
0.0
  0
ARC
  5
1CE5
100
AcDbEntity
  8
外形
  6
CONTINUOUS
100
AcDbCircle
 10
12.658178
 20
223.198969
 30
0.0
 40
5.0
100
AcDbArc
 50
271.069317
 51
334.158067
  0
DIMENSION
  5
1D01
100
AcDbEntity
  8
寸法
  6
CONTINUOUS
100
AcDbDimension
  2
*D3
 10
116.353636
 20
207.681565
 30
0.0
 11
125.353636
 21
210.181565
 31
0.0
 12
-20.167066
 22
-107.94179
 32
0.0
 70
    32
  3
STANDARD
100
AcDbAlignedDimension
 13
106.853636
 23
221.019519
 33
0.0
 14
116.353636
 24
223.198969
 34
0.0
100
AcDbRotatedDimension
1001
ACAD
1000
DSTYLE
1002
{
1070
   284
1070
    13
1070
   146
1040
0.5
1070
   272
1070
     3
1070
    40
1040
1.0
1070
   287
1070
     0
1002
}
  0
DIMENSION
  5
1D0D
100
AcDbEntity
  8
寸法
  6
CONTINUOUS
100
AcDbDimension
  2
*D4
 10
108.463245
 20
219.119062
 30
0.0
 11
117.406777
 21
236.067904
 31
0.0
 12
-20.167066
 22
-107.94179
 32
0.0
 70
    35
  3
STANDARD
100
AcDbDiametricDimension
 15
114.244027
 25
227.278876
 35
0.0
 40
0.0
1001
ACAD
1000
DSTYLE
1002
{
1070
   284
1070
    13
1070
   146
1040
0.5
1070
   272
1070
     3
1070
    40
1040
1.0
1070
   287
1070
     0
1002
}
  0
DIMENSION
  5
1D20
100
AcDbEntity
  8
寸法
  6
CONTINUOUS
100
AcDbDimension
  2
*D5
 10
39.029503
 20
221.265894
 30
0.0
 11
49.16049
 21
237.174769
 31
0.0
 12
-20.167066
 22
-107.94179
 32
0.0
 70
    34
  3
STANDARD
100
AcDb2LineAngularDimension
 13
38.733916
 23
217.670652
 33
0.0
 14
38.733916
 24
217.887322
 34
0.0
 15
38.733916
 25
217.887322
 35
0.0
 16
39.286511
 26
236.878797
 36
0.0
1001
ACAD
1000
DSTYLE
1002
{
1070
   284
1070
    13
1070
   146
1040
0.5
1070
   272
1070
     3
1070
    40
1040
1.0
1070
   287
1070
     0
1002
}
  0
MTEXT
  5
1D4C
100
AcDbEntity
  8
寸法
  6
CONTINUOUS
 62
     3
100
AcDbMText
 10
27.858238
 20
246.22117
 30
0.0
 40
3.0
 41
0.0
 71
     4
 72
     1
  1
%%c11.0最小加工径
  0
LINE
  5
1D5A
100
AcDbEntity
  8
寸法
  6
CONTINUOUS
100
AcDbLine
 10
38.733916
 20
217.670652
 30
0.0
 11
23.490765
 21
217.670652
 31
0.0
  0
LEADER
  5
1D5B
100
AcDbEntity
  8
寸法
  6
CONTINUOUS
 62
     1
100
AcDbLeader
  3
STANDARD
 76
     3
 10
25.451263
 20
217.670652
 30
0.0
 10
25.451263
 20
244.063842
 30
0.0
 10
57.64866
 20
244.063842
 30
0.0
 77
   256
1001
ACAD
1000
DSTYLE
1002
{
1070
   284
1070
    13
1070
   146
1040
0.5
1070
   272
1070
     3
1070
    40
1040
1.0
1070
   287
1070
     0
1002
}
  0
DIMENSION
  5
1D68
100
AcDbEntity
  8
寸法
  6
CONTINUOUS
100
AcDbDimension
  2
*D7
 10
163.733916
 20
197.776338
 30
0.0
 11
101.233916
 21
200.276338
 31
0.0
 12
-20.167066
 22
-107.94179
 32
0.0
 70
    32
  3
STANDARD
100
AcDbAlignedDimension
 13
38.733916
 23
217.670652
 33
0.0
 14
163.733916
 24
219.198969
 34
0.0
100
AcDbRotatedDimension
1001
ACAD
1000
DSTYLE
1002
{
1070
   284
1070
    13
1070
   146
1040
0.5
1070
   272
1070
     3
1070
    40
1040
1.0
1070
   287
1070
     0
1002
}
  0
DIMENSION
  5
1D7B
100
AcDbEntity
  8
寸法
  6
CONTINUOUS
100
AcDbDimension
  2
*D8
 10
12.658178
 20
216.738352
 30
0.0
 11
3.250526
 21
213.166249
 31
0.0
 12
-20.167066
 22
-107.94179
 32
0.0
 70
    34
  3
STANDARD
100
AcDb2LineAngularDimension
 13
14.455664
 23
227.8647
 33
0.0
 14
12.658178
 24
217.670652
 34
0.0
 15
12.658178
 25
229.659586
 35
0.0
 16
12.008752
 26
206.520433
 36
0.0
1001
ACAD
1000
DSTYLE
1002
{
1070
   284
1070
    13
1070
   146
1040
0.5
1070
   272
1070
     3
1070
    40
1040
1.0
1070
   287
1070
     0
1002
}
  0
LINE
  5
1E5A
100
AcDbEntity
  8
寸法
  6
CONTINUOUS
100
AcDbLine
 10
18.459357
 20
223.198969
 30
0.0
 11
6.856999
 21
223.198969
 31
0.0
  0
LINE
  5
1E5B
100
AcDbEntity
  8
寸法
  6
CONTINUOUS
100
AcDbLine
 10
12.658178
 20
229.000148
 30
0.0
 11
12.658178
 21
217.39779
 31
0.0
  0
LINE
  5
1E5F
100
AcDbEntity
  8
外形
  6
CONTINUOUS
100
AcDbLine
 10
7.722171
 20
222.401579
 30
0.0
 11
11.756066
 21
221.690294
 31
0.0
  0
DIMENSION
  5
1E73
100
AcDbEntity
  8
寸法
  6
CONTINUOUS
100
AcDbDimension
  2
*D14
 10
31.685186
 20
217.670652
 30
0.0
 11
29.185186
 21
208.670652
 31
0.0
 70
    32
  3
STANDARD
100
AcDbAlignedDimension
 13
37.300093
 23
223.198969
 33
0.0
 14
38.733916
 24
217.670652
 34
0.0
 50
90.0
100
AcDbRotatedDimension
1001
ACAD
1000
DSTYLE
1002
{
1070
   284
1070
    13
1070
   146
1040
0.5
1070
   272
1070
     3
1070
    40
1040
1.0
1070
   287
1070
     0
1070
   271
1070
     1
1002
}
  0
ENDSEC
  0
SECTION
  2
OBJECTS
  0
DICTIONARY
  5
1E
100
AcDbDictionary
  3
ACAD_GROUP
350
1C
  3
ACAD_MLINESTYLE
350
1D
  3
ACDBVARIABLEDICTIONARY
350
147A
  3
DRAWINGVARIABLESDICT
350
C58
  0
DICTIONARY
  5
38
100
AcDbDictionary
280
     1
  3
ACAD_XREC_ROUNDTRIP
360
39
  0
DICTIONARY
  5
22
100
AcDbDictionary
280
     1
  3
ACAD_XREC_ROUNDTRIP
360
23
  0
DICTIONARY
  5
3
100
AcDbDictionary
280
     1
  3
ACAD_LAYOUTSELFREF
360
4
  0
DICTIONARY
  5
A
100
AcDbDictionary
280
     1
  3
ACAD_LAYOUTSELFREF
360
B
  0
DICTIONARY
  5
1C
102
{ACAD_REACTORS
330
1E
102
}
100
AcDbDictionary
  0
DICTIONARY
  5
1D
102
{ACAD_REACTORS
330
1E
102
}
100
AcDbDictionary
  3
STANDARD
350
20
  0
DICTIONARY
  5
147A
102
{ACAD_REACTORS
330
1E
102
}
100
AcDbDictionary
  3
SORTENTS
350
147B
  0
DICTIONARY
  5
C58
102
{ACAD_REACTORS
330
1E
102
}
100
AcDbDictionary
1001
DRAWINGVARIABLESXDATA
1000
POLARMODE
1000
0
  0
XRECORD
  5
39
102
{ACAD_REACTORS
330
38
102
}
100
AcDbXrecord
102
PLOTBIT
280
     0
  0
XRECORD
  5
23
102
{ACAD_REACTORS
330
22
102
}
100
AcDbXrecord
102
ACADR14ROUNDTRIP
1000
DSTYLE
1002
{
1070
   341
340
0
1070
   343
340
0
1070
   344
340
0
1002
}
  0
XRECORD
  5
4
102
{ACAD_REACTORS
330
3
102
}
100
AcDbXrecord
340
2
  0
XRECORD
  5
B
102
{ACAD_REACTORS
330
A
102
}
100
AcDbXrecord
340
9
  0
MLINESTYLE
  5
20
102
{ACAD_REACTORS
330
1D
102
}
100
AcDbMlineStyle
  2
STANDARD
 70
     0
  3

 62
     0
 51
90.0
 52
90.0
 71
     2
 49
0.5
 62
   256
  6
BYLAYER
 49
-0.5
 62
   256
  6
BYLAYER
  0
DICTIONARYVAR
  5
147B
102
{ACAD_REACTORS
330
147A
102
}
100
DictionaryVariables
280
     0
  1
96
  0
ENDSEC
  0
EOF
