  0
SECTION
  2
HEADER
  9
$ACADVER
  1
AC1014
  9
$ACADMAINTVER
 70
     0
  9
$DWGCODEPAGE
  3
ANSI_932
  9
$INSBASE
 10
-587.250952
 20
747.890188
 30
0.0
  9
$EXTMIN
 10
-0.941381
 20
150.213866
 30
0.0
  9
$EXTMAX
 10
195.838684
 20
267.945059
 30
0.0
  9
$LIMMIN
 10
-587.250952
 20
327.890188
  9
$LIMMAX
 10
600.749048
 20
957.890188
  9
$ORTHOMODE
 70
     1
  9
$REGENMODE
 70
     1
  9
$FILLMODE
 70
     1
  9
$QTEXTMODE
 70
     0
  9
$MIRRTEXT
 70
     1
  9
$DRAGMODE
 70
     2
  9
$LTSCALE
 40
5.0
  9
$OSMODE
 70
    37
  9
$ATTMODE
 70
     1
  9
$TEXTSIZE
 40
5.0
  9
$TRACEWID
 40
0.05
  9
$TEXTSTYLE
  7
STANDARD
  9
$CLAYER
  8
外形
  9
$CELTYPE
  6
CONTINUOUS
  9
$CECOLOR
 62
   256
  9
$CELTSCALE
 40
1.0
  9
$DELOBJ
 70
     1
  9
$DISPSILH
 70
     0
  9
$DIMSCALE
 40
1.0
  9
$DIMASZ
 40
2.0
  9
$DIMEXO
 40
1.0
  9
$DIMDLI
 40
8.0
  9
$DIMRND
 40
0.0
  9
$DIMDLE
 40
0.0
  9
$DIMEXE
 40
2.0
  9
$DIMTP
 40
0.0
  9
$DIMTM
 40
0.0
  9
$DIMTXT
 40
3.0
  9
$DIMCEN
 40
-1.0
  9
$DIMTSZ
 40
0.0
  9
$DIMTOL
 70
     0
  9
$DIMLIM
 70
     0
  9
$DIMTIH
 70
     0
  9
$DIMTOH
 70
     0
  9
$DIMSE1
 70
     0
  9
$DIMSE2
 70
     0
  9
$DIMTAD
 70
     1
  9
$DIMZIN
 70
     8
  9
$DIMBLK
  1

  9
$DIMASO
 70
     1
  9
$DIMSHO
 70
     1
  9
$DIMPOST
  1

  9
$DIMAPOST
  1

  9
$DIMALT
 70
     0
  9
$DIMALTD
 70
     2
  9
$DIMALTF
 40
25.4
  9
$DIMLFAC
 40
1.0
  9
$DIMTOFL
 70
     1
  9
$DIMTVP
 40
0.0
  9
$DIMTIX
 70
     0
  9
$DIMSOXD
 70
     0
  9
$DIMSAH
 70
     1
  9
$DIMBLK1
  1
_OPEN30
  9
$DIMBLK2
  1
_OPEN30
  9
$DIMSTYLE
  2
STANDARD
  9
$DIMCLRD
 70
     1
  9
$DIMCLRE
 70
     1
  9
$DIMCLRT
 70
     3
  9
$DIMTFAC
 40
0.5
  9
$DIMGAP
 40
1.0
  9
$DIMJUST
 70
     0
  9
$DIMSD1
 70
     0
  9
$DIMSD2
 70
     0
  9
$DIMTOLJ
 70
     1
  9
$DIMTZIN
 70
    13
  9
$DIMALTZ
 70
     0
  9
$DIMALTTZ
 70
     0
  9
$DIMFIT
 70
     0
  9
$DIMUPT
 70
     0
  9
$DIMUNIT
 70
     2
  9
$DIMDEC
 70
     2
  9
$DIMTDEC
 70
     3
  9
$DIMALTU
 70
     2
  9
$DIMALTTD
 70
     2
  9
$DIMTXSTY
  7
STANDARD
  9
$DIMAUNIT
 70
     0
  9
$LUNITS
 70
     2
  9
$LUPREC
 70
     0
  9
$SKETCHINC
 40
0.1
  9
$FILLETRAD
 40
0.0
  9
$AUNITS
 70
     0
  9
$AUPREC
 70
     0
  9
$MENU
  1
acad
  9
$ELEVATION
 40
0.0
  9
$PELEVATION
 40
0.0
  9
$THICKNESS
 40
0.0
  9
$LIMCHECK
 70
     0
  9
$BLIPMODE
 70
     0
  9
$CHAMFERA
 40
1.5
  9
$CHAMFERB
 40
1.5
  9
$CHAMFERC
 40
0.0
  9
$CHAMFERD
 40
0.0
  9
$SKPOLY
 70
     0
  9
$TDCREATE
 40
2450751.535399305
  9
$TDUPDATE
 40
2452048.365046296
  9
$TDINDWG
 40
1.7088086806
  9
$TDUSRTIMER
 40
1.7088086806
  9
$USRTIMER
 70
     1
  9
$ANGBASE
 50
0.0
  9
$ANGDIR
 70
     0
  9
$PDMODE
 70
    32
  9
$PDSIZE
 40
0.0
  9
$PLINEWID
 40
0.0
  9
$COORDS
 70
     2
  9
$SPLFRAME
 70
     0
  9
$SPLINETYPE
 70
     5
  9
$SPLINESEGS
 70
     8
  9
$ATTDIA
 70
     0
  9
$ATTREQ
 70
     1
  9
$HANDLING
 70
     1
  9
$HANDSEED
  5
2478
  9
$SURFTAB1
 70
     6
  9
$SURFTAB2
 70
     6
  9
$SURFTYPE
 70
     6
  9
$SURFU
 70
     6
  9
$SURFV
 70
     6
  9
$UCSNAME
  2

  9
$UCSORG
 10
40.53800450572526
 20
146.9196145921314
 30
0.0
  9
$UCSXDIR
 10
1.0
 20
0.0
 30
0.0
  9
$UCSYDIR
 10
0.0
 20
1.0
 30
0.0
  9
$PUCSNAME
  2

  9
$PUCSORG
 10
0.0
 20
0.0
 30
0.0
  9
$PUCSXDIR
 10
1.0
 20
0.0
 30
0.0
  9
$PUCSYDIR
 10
0.0
 20
1.0
 30
0.0
  9
$USERI1
 70
     0
  9
$USERI2
 70
     0
  9
$USERI3
 70
     0
  9
$USERI4
 70
     0
  9
$USERI5
 70
     0
  9
$USERR1
 40
0.0
  9
$USERR2
 40
0.0
  9
$USERR3
 40
0.0
  9
$USERR4
 40
0.0
  9
$USERR5
 40
0.0
  9
$WORLDVIEW
 70
     1
  9
$SHADEDGE
 70
     3
  9
$SHADEDIF
 70
    70
  9
$TILEMODE
 70
     1
  9
$MAXACTVP
 70
    16
  9
$PINSBASE
 10
0.0
 20
0.0
 30
0.0
  9
$PLIMCHECK
 70
     0
  9
$PEXTMIN
 10
1.000000E+20
 20
1.000000E+20
 30
1.000000E+20
  9
$PEXTMAX
 10
-1.000000E+20
 20
-1.000000E+20
 30
-1.000000E+20
  9
$PLIMMIN
 10
0.0
 20
0.0
  9
$PLIMMAX
 10
12.0
 20
9.0
  9
$UNITMODE
 70
     0
  9
$VISRETAIN
 70
     0
  9
$PLINEGEN
 70
     0
  9
$PSLTSCALE
 70
     1
  9
$TREEDEPTH
 70
  3020
  9
$PICKSTYLE
 70
     1
  9
$CMLSTYLE
  2
STANDARD
  9
$CMLJUST
 70
     0
  9
$CMLSCALE
 40
1.0
  9
$PROXYGRAPHICS
 70
     1
  9
$MEASUREMENT
 70
     0
  0
ENDSEC
  0
SECTION
  2
CLASSES
  0
CLASS
  1
LWPOLYLINE
  2
AcDbPolyline
  3
"AutoCAD"
 90
        0
280
     0
281
     1
  0
CLASS
  1
ACDBDICTIONARYWDFLT
  2
AcDbDictionaryWithDefault
  3
AutoCAD 2000
 90
        0
280
     1
281
     0
  0
CLASS
  1
ACDBPLACEHOLDER
  2
AcDbPlaceHolder
  3
AutoCAD 2000
 90
        0
280
     1
281
     0
  0
CLASS
  1
LAYOUT
  2
AcDbLayout
  3
AutoCAD 2000
 90
        0
280
     1
281
     0
  0
CLASS
  1
LONG_TRANSACTION
  2
AcDbLongTransaction
  3
AutoCAD 2000
 90
        0
280
     1
281
     0
  0
CLASS
  1
LWPOLYLINE
  2
AcDbPolyline
  3
"AutoCAD"
 90
        0
280
     0
281
     1
  0
CLASS
  1
HATCH
  2
AcDbHatch
  3
"ACAD_SEDONA"
 90
        0
280
     0
281
     1
  0
CLASS
  1
XRECORD
  2
AcDbXrecord
  3
"<Built In>"
 90
        0
280
     0
281
     0
  0
CLASS
  1
DICTIONARYVAR
  2
AcDbDictionaryVar
  3
"AutoCAD"
 90
        0
280
     0
281
     0
  0
ENDSEC
  0
SECTION
  2
TABLES
  0
TABLE
  2
VPORT
  5
16
100
AcDbSymbolTable
 70
     2
  0
VPORT
  5
2477
100
AcDbSymbolTableRecord
100
AcDbViewportTableRecord
  2
*ACTIVE
 70
     0
 10
0.0
 20
0.0
 11
1.0
 21
1.0
 12
98.991847
 22
211.376243
 13
0.0
 23
0.0
 14
1.0
 24
1.0
 15
10.0
 25
10.0
 16
0.0
 26
0.0
 36
1.0
 17
0.0
 27
0.0
 37
0.0
 40
181.642188
 41
1.710425
 42
50.0
 43
0.0
 44
0.0
 50
0.0
 51
0.0
 71
     0
 72
   100
 73
     1
 74
     1
 75
     0
 76
     0
 77
     0
 78
     2
  0
ENDTAB
  0
TABLE
  2
LTYPE
  5
11
100
AcDbSymbolTable
 70
     2
  0
LTYPE
  5
12
100
AcDbSymbolTableRecord
100
AcDbLinetypeTableRecord
  2
BYBLOCK
 70
     0
  3

 72
    65
 73
     0
 40
0.0
  0
LTYPE
  5
13
100
AcDbSymbolTableRecord
100
AcDbLinetypeTableRecord
  2
BYLAYER
 70
     0
  3

 72
    65
 73
     0
 40
0.0
  0
LTYPE
  5
7
100
AcDbSymbolTableRecord
100
AcDbLinetypeTableRecord
  2
CONTINUOUS
 70
     0
  3
Solid line
 72
    65
 73
     0
 40
0.0
  0
LTYPE
  5
AA
100
AcDbSymbolTableRecord
100
AcDbLinetypeTableRecord
  2
CENTER
 70
     0
  3
Center ____ _ ____ _ ____ _ ____ _ ____ _ ____
 72
    65
 73
     4
 40
2.0
 49
1.25
 74
     0
 49
-0.25
 74
     0
 49
0.25
 74
     0
 49
-0.25
 74
     0
  0
ENDTAB
  0
TABLE
  2
LAYER
  5
E
100
AcDbSymbolTable
 70
     5
  0
LAYER
  5
6
100
AcDbSymbolTableRecord
100
AcDbLayerTableRecord
  2
0
 70
     0
 62
     7
  6
CONTINUOUS
  0
LAYER
  5
2C
100
AcDbSymbolTableRecord
100
AcDbLayerTableRecord
  2
外形
 70
     0
 62
     3
  6
CONTINUOUS
  0
LAYER
  5
37
102
{ACAD_XDICTIONARY
360
38
102
}
100
AcDbSymbolTableRecord
100
AcDbLayerTableRecord
  2
DEFPOINTS
 70
     0
 62
     7
  6
CONTINUOUS
  0
LAYER
  5
1F
100
AcDbSymbolTableRecord
100
AcDbLayerTableRecord
  2
寸法
 70
     0
 62
     1
  6
CONTINUOUS
  0
LAYER
  5
673
100
AcDbSymbolTableRecord
100
AcDbLayerTableRecord
  2
参考
 70
     0
 62
     2
  6
CONTINUOUS
  0
ENDTAB
  0
TABLE
  2
STYLE
  5
F
100
AcDbSymbolTable
 70
     1
  0
STYLE
  5
10
100
AcDbSymbolTableRecord
100
AcDbTextStyleTableRecord
  2
STANDARD
 70
     0
 40
0.0
 41
1.0
 50
0.0
 71
     0
 42
5.0
  3
MONOTXT
  4
BIGFONT
  0
ENDTAB
  0
TABLE
  2
VIEW
  5
14
100
AcDbSymbolTable
 70
     0
  0
ENDTAB
  0
TABLE
  2
UCS
  5
15
100
AcDbSymbolTable
 70
     0
  0
ENDTAB
  0
TABLE
  2
APPID
  5
18
100
AcDbSymbolTable
 70
     2
  0
APPID
  5
19
100
AcDbSymbolTableRecord
100
AcDbRegAppTableRecord
  2
ACAD
 70
     0
  0
APPID
  5
C59
100
AcDbSymbolTableRecord
100
AcDbRegAppTableRecord
  2
DRAWINGVARIABLESXDATA
 70
     0
  0
ENDTAB
  0
TABLE
  2
DIMSTYLE
  5
1A
100
AcDbSymbolTable
 70
     2
  0
DIMSTYLE
105
21
102
{ACAD_XDICTIONARY
360
22
102
}
102
{ACAD_REACTORS
330
237A
330
2398
330
23A5
330
23AF
330
23CC
330
2476
102
}
100
AcDbSymbolTableRecord
100
AcDbDimStyleTableRecord
  2
STANDARD
 70
     0
  3

  4

  5

  6
_OPEN30
  7
_OPEN30
 40
0.0
 41
2.0
 42
1.0
 43
8.0
 44
2.0
 45
0.0
 46
0.0
 47
0.0
 48
0.0
140
3.0
141
-1.0
142
0.0
143
25.4
144
1.0
145
0.0
146
1.0
147
1.0
 71
     0
 72
     0
 73
     0
 74
     0
 75
     0
 76
     0
 77
     1
 78
     8
170
     0
171
     2
172
     1
173
     1
174
     0
175
     0
176
     1
177
     1
178
     3
270
     2
271
     2
272
     2
273
     2
274
     2
340
10
275
     0
280
     0
281
     0
282
     0
283
     1
284
     8
285
     0
286
     0
287
     3
288
     0
  0
DIMSTYLE
105
674
100
AcDbSymbolTableRecord
100
AcDbDimStyleTableRecord
  2
参考寸法
 70
     0
  3

  4

  5

  6
_DOTSMALL
  7
_DOTSMALL
 40
1.0
 41
2.0
 42
1.0
 43
8.0
 44
2.0
 45
0.0
 46
0.0
 47
0.0
 48
0.0
140
3.0
141
-1.0
142
0.0
143
25.4
144
1.0
145
0.0
146
1.0
147
1.0
 71
     0
 72
     0
 73
     0
 74
     0
 75
     0
 76
     0
 77
     1
 78
     8
170
     0
171
     2
172
     1
173
     1
174
     0
175
     0
176
     2
177
     2
178
     2
270
     2
271
     3
272
     2
273
     2
274
     2
340
10
275
     0
280
     0
281
     0
282
     0
283
     1
284
     8
285
     0
286
     0
287
     3
288
     0
  0
ENDTAB
  0
TABLE
  2
BLOCK_RECORD
  5
1
100
AcDbSymbolTable
 70
    14
  0
BLOCK_RECORD
  5
2
102
{ACAD_XDICTIONARY
360
3
102
}
100
AcDbSymbolTableRecord
100
AcDbBlockTableRecord
  2
*MODEL_SPACE
  0
BLOCK_RECORD
  5
9
102
{ACAD_XDICTIONARY
360
A
102
}
100
AcDbSymbolTableRecord
100
AcDbBlockTableRecord
  2
*PAPER_SPACE
  0
BLOCK_RECORD
  5
24
100
AcDbSymbolTableRecord
100
AcDbBlockTableRecord
  2
_DOTSMALL
  0
BLOCK_RECORD
  5
470
100
AcDbSymbolTableRecord
100
AcDbBlockTableRecord
  2
_OPEN30
  0
BLOCK_RECORD
  5
2368
100
AcDbSymbolTableRecord
100
AcDbBlockTableRecord
  2
*D2
  0
BLOCK_RECORD
  5
238C
100
AcDbSymbolTableRecord
100
AcDbBlockTableRecord
  2
*D4
  0
BLOCK_RECORD
  5
2399
100
AcDbSymbolTableRecord
100
AcDbBlockTableRecord
  2
*D5
  0
BLOCK_RECORD
  5
23A6
100
AcDbSymbolTableRecord
100
AcDbBlockTableRecord
  2
*D6
  0
BLOCK_RECORD
  5
23BA
100
AcDbSymbolTableRecord
100
AcDbBlockTableRecord
  2
*D7
  0
BLOCK_RECORD
  5
2468
100
AcDbSymbolTableRecord
100
AcDbBlockTableRecord
  2
*D13
  0
ENDTAB
  0
ENDSEC
  0
SECTION
  2
BLOCKS
  0
BLOCK
  5
5
100
AcDbEntity
  8
0
100
AcDbBlockBegin
  2
*MODEL_SPACE
 70
     0
 10
0.0
 20
0.0
 30
0.0
  3
*MODEL_SPACE
  1

  0
ENDBLK
  5
8
100
AcDbEntity
  8
0
100
AcDbBlockEnd
  0
BLOCK
  5
C
100
AcDbEntity
 67
     1
  8
0
100
AcDbBlockBegin
  2
*PAPER_SPACE
 70
     0
 10
0.0
 20
0.0
 30
0.0
  3
*PAPER_SPACE
  1

  0
ENDBLK
  5
D
100
AcDbEntity
 67
     1
  8
0
100
AcDbBlockEnd
  0
BLOCK
  5
29
100
AcDbEntity
  8
0
100
AcDbBlockBegin
  2
_DOTSMALL
 70
     0
 10
0.0
 20
0.0
 30
0.0
  3
_DOTSMALL
  1

  0
POLYLINE
  5
25
100
AcDbEntity
  8
0
  6
BYBLOCK
 62
     0
100
AcDb2dPolyline
 66
     1
 10
0.0
 20
0.0
 30
0.0
 70
     1
 40
0.5
 41
0.5
  0
VERTEX
  5
26
100
AcDbEntity
  8
0
  6
BYBLOCK
 62
     0
100
AcDbVertex
100
AcDb2dVertex
 10
-0.0625
 20
0.0
 30
0.0
 42
1.0
  0
VERTEX
  5
27
100
AcDbEntity
  8
0
  6
BYBLOCK
 62
     0
100
AcDbVertex
100
AcDb2dVertex
 10
0.0625
 20
0.0
 30
0.0
 42
1.0
  0
SEQEND
  5
28
100
AcDbEntity
  8
0
  6
BYBLOCK
 62
     0
  0
ENDBLK
  5
2A
100
AcDbEntity
  8
0
100
AcDbBlockEnd
  0
BLOCK
  5
471
100
AcDbEntity
  8
0
100
AcDbBlockBegin
  2
_OPEN30
 70
     0
 10
0.0
 20
0.0
 30
0.0
  3
_OPEN30
  1

  0
LINE
  5
472
100
AcDbEntity
  8
0
  6
BYBLOCK
 62
     0
100
AcDbLine
 10
-1.0
 20
0.267949
 30
0.0
 11
0.0
 21
0.0
 31
0.0
  0
LINE
  5
473
100
AcDbEntity
  8
0
  6
BYBLOCK
 62
     0
100
AcDbLine
 10
0.0
 20
0.0
 30
0.0
 11
-1.0
 21
-0.267949
 31
0.0
  0
LINE
  5
474
100
AcDbEntity
  8
0
  6
BYBLOCK
 62
     0
100
AcDbLine
 10
0.0
 20
0.0
 30
0.0
 11
-1.0
 21
0.0
 31
0.0
  0
ENDBLK
  5
475
100
AcDbEntity
  8
0
100
AcDbBlockEnd
  0
BLOCK
  5
2369
100
AcDbEntity
  8
0
100
AcDbBlockBegin
  2
*D2
 70
     1
 10
0.0
 20
0.0
 30
0.0
  3
*D2
  1

  0
LINE
  5
236A
100
AcDbEntity
  8
0
  6
BYBLOCK
 62
     1
100
AcDbLine
 10
39.116658
 20
222.262089
 30
0.0
 11
41.634142
 21
251.037057
 31
0.0
  0
LINE
  5
236B
100
AcDbEntity
  8
0
  6
BYBLOCK
 62
     1
100
AcDbLine
 10
38.733916
 20
218.887322
 30
0.0
 11
38.733916
 21
251.163684
 31
0.0
  0
ARC
  5
236C
100
AcDbEntity
  8
0
  6
BYBLOCK
 62
     1
100
AcDbCircle
 10
38.733916
 20
217.887322
 30
0.0
 40
31.276362
100
AcDbArc
 50
77.667319
 51
85.0
  0
LINE
  5
236D
100
AcDbEntity
  8
0
  6
BYBLOCK
 62
     1
100
AcDbLine
 10
45.414161
 20
248.441947
 30
0.0
 11
53.815706
 21
246.605094
 31
0.0
  0
ARC
  5
236E
100
AcDbEntity
  8
0
  6
BYBLOCK
 62
     1
100
AcDbCircle
 10
38.733916
 20
217.887322
 30
0.0
 40
31.276362
100
AcDbArc
 50
77.671073
 51
81.335536
  0
ARC
  5
236F
100
AcDbEntity
  8
0
  6
BYBLOCK
 62
     1
100
AcDbCircle
 10
38.733916
 20
217.887322
 30
0.0
 40
31.276362
100
AcDbArc
 50
93.664464
 51
97.328927
  0
ARC
  5
2370
100
AcDbEntity
  8
0
  6
BYBLOCK
 62
     1
100
AcDbCircle
 10
38.733916
 20
217.887322
 30
0.0
 40
31.276362
100
AcDbArc
 50
85.0
 51
90.0
  0
INSERT
  5
2371
100
AcDbEntity
  8
0
  6
BYBLOCK
 62
     1
100
AcDbBlockReference
  2
_OPEN30
 10
41.45983
 20
249.044668
 30
0.0
 41
2.0
 42
2.0
 43
2.0
 50
173.167768
  0
INSERT
  5
2372
100
AcDbEntity
  8
0
  6
BYBLOCK
 62
     1
100
AcDbBlockReference
  2
_OPEN30
 10
38.733916
 20
249.163684
 30
0.0
 41
2.0
 42
2.0
 43
2.0
 50
1.832232
  0
MTEXT
  5
2373
100
AcDbEntity
  8
0
  6
BYBLOCK
 62
     3
100
AcDbMText
 10
50.148903
 20
249.96583
 30
0.0
 40
3.0
 41
0.0
 71
     5
 72
     1
  1
\A1;5°
 11
0.976924
 21
-0.213588
 31
0.0
  0
POINT
  5
2374
100
AcDbEntity
  8
DEFPOINTS
  6
BYBLOCK
 62
     0
100
AcDbPoint
 10
39.64358
 20
249.150452
 30
0.0
  0
POINT
  5
2375
100
AcDbEntity
  8
DEFPOINTS
  6
BYBLOCK
 62
     0
100
AcDbPoint
 10
38.733916
 20
217.887322
 30
0.0
  0
POINT
  5
2376
100
AcDbEntity
  8
DEFPOINTS
  6
BYBLOCK
 62
     0
100
AcDbPoint
 10
38.733916
 20
217.670652
 30
0.0
  0
POINT
  5
2377
100
AcDbEntity
  8
DEFPOINTS
  6
BYBLOCK
 62
     0
100
AcDbPoint
 10
38.733916
 20
217.887322
 30
0.0
  0
POINT
  5
2378
100
AcDbEntity
  8
DEFPOINTS
  6
BYBLOCK
 62
     0
100
AcDbPoint
 10
39.029503
 20
221.265894
 30
0.0
  0
ENDBLK
  5
2379
100
AcDbEntity
  8
0
100
AcDbBlockEnd
  0
BLOCK
  5
238D
100
AcDbEntity
  8
0
100
AcDbBlockBegin
  2
*D4
 70
     1
 10
0.0
 20
0.0
 30
0.0
  3
*D4
  1

  0
LINE
  5
238E
100
AcDbEntity
  8
0
  6
BYBLOCK
 62
     1
100
AcDbLine
 10
38.733916
 20
216.670652
 30
0.0
 11
38.733916
 21
191.591045
 31
0.0
  0
LINE
  5
238F
100
AcDbEntity
  8
0
  6
BYBLOCK
 62
     1
100
AcDbLine
 10
183.733916
 20
218.170652
 30
0.0
 11
183.733916
 21
191.591045
 31
0.0
  0
LINE
  5
2390
100
AcDbEntity
  8
0
  6
BYBLOCK
 62
     1
100
AcDbLine
 10
40.733916
 20
193.591045
 30
0.0
 11
181.733916
 21
193.591045
 31
0.0
  0
INSERT
  5
2391
100
AcDbEntity
  8
0
  6
BYBLOCK
 62
     1
100
AcDbBlockReference
  2
_OPEN30
 10
38.733916
 20
193.591045
 30
0.0
 41
2.0
 42
2.0
 43
2.0
 50
180.0
  0
INSERT
  5
2392
100
AcDbEntity
  8
0
  6
BYBLOCK
 62
     1
100
AcDbBlockReference
  2
_OPEN30
 10
183.733916
 20
193.591045
 30
0.0
 41
2.0
 42
2.0
 43
2.0
  0
MTEXT
  5
2393
100
AcDbEntity
  8
0
  6
BYBLOCK
 62
     3
100
AcDbMText
 10
111.233916
 20
196.091045
 30
0.0
 40
3.0
 41
0.0
 71
     5
 72
     1
  1
\A1;145
  0
POINT
  5
2394
100
AcDbEntity
  8
DEFPOINTS
  6
BYBLOCK
 62
     0
100
AcDbPoint
 10
38.733916
 20
217.670652
 30
0.0
  0
POINT
  5
2395
100
AcDbEntity
  8
DEFPOINTS
  6
BYBLOCK
 62
     0
100
AcDbPoint
 10
183.733916
 20
219.170652
 30
0.0
  0
POINT
  5
2396
100
AcDbEntity
  8
DEFPOINTS
  6
BYBLOCK
 62
     0
100
AcDbPoint
 10
183.733916
 20
193.591045
 30
0.0
  0
ENDBLK
  5
2397
100
AcDbEntity
  8
0
100
AcDbBlockEnd
  0
BLOCK
  5
239A
100
AcDbEntity
  8
0
100
AcDbBlockBegin
  2
*D5
 70
     1
 10
0.0
 20
0.0
 30
0.0
  3
*D5
  1

  0
LINE
  5
239B
100
AcDbEntity
  8
0
  6
BYBLOCK
 62
     1
100
AcDbLine
 10
105.203374
 20
225.170652
 30
0.0
 11
105.203374
 21
202.002759
 31
0.0
  0
LINE
  5
239C
100
AcDbEntity
  8
0
  6
BYBLOCK
 62
     1
100
AcDbLine
 10
120.203374
 20
225.170652
 30
0.0
 11
120.203374
 21
202.002759
 31
0.0
  0
LINE
  5
239D
100
AcDbEntity
  8
0
  6
BYBLOCK
 62
     1
100
AcDbLine
 10
107.203374
 20
204.002759
 30
0.0
 11
118.203374
 21
204.002759
 31
0.0
  0
INSERT
  5
239E
100
AcDbEntity
  8
0
  6
BYBLOCK
 62
     1
100
AcDbBlockReference
  2
_OPEN30
 10
105.203374
 20
204.002759
 30
0.0
 41
2.0
 42
2.0
 43
2.0
 50
180.0
  0
INSERT
  5
239F
100
AcDbEntity
  8
0
  6
BYBLOCK
 62
     1
100
AcDbBlockReference
  2
_OPEN30
 10
120.203374
 20
204.002759
 30
0.0
 41
2.0
 42
2.0
 43
2.0
  0
MTEXT
  5
23A0
100
AcDbEntity
  8
0
  6
BYBLOCK
 62
     3
100
AcDbMText
 10
112.703374
 20
206.502759
 30
0.0
 40
3.0
 41
0.0
 71
     5
 72
     1
  1
\A1;15
  0
POINT
  5
23A1
100
AcDbEntity
  8
DEFPOINTS
  6
BYBLOCK
 62
     0
100
AcDbPoint
 10
105.203374
 20
226.170652
 30
0.0
  0
POINT
  5
23A2
100
AcDbEntity
  8
DEFPOINTS
  6
BYBLOCK
 62
     0
100
AcDbPoint
 10
120.203374
 20
226.170652
 30
0.0
  0
POINT
  5
23A3
100
AcDbEntity
  8
DEFPOINTS
  6
BYBLOCK
 62
     0
100
AcDbPoint
 10
120.203374
 20
204.002759
 30
0.0
  0
ENDBLK
  5
23A4
100
AcDbEntity
  8
0
100
AcDbBlockEnd
  0
BLOCK
  5
23B0
100
AcDbEntity
  8
0
100
AcDbBlockBegin
  2
*D6
 70
     1
 10
0.0
 20
0.0
 30
0.0
  3
*D6
  1

  0
LINE
  5
23B1
100
AcDbEntity
  8
0
  6
BYBLOCK
 62
     1
100
AcDbLine
 10
106.359287
 20
218.056057
 30
0.0
 11
105.19047
 21
216.433138
 31
0.0
  0
LINE
  5
23B2
100
AcDbEntity
  8
0
  6
BYBLOCK
 62
     1
100
AcDbLine
 10
118.047462
 20
234.285246
 30
0.0
 11
125.426504
 21
244.531147
 31
0.0
  0
LINE
  5
23B3
100
AcDbEntity
  8
0
  6
BYBLOCK
 62
     1
100
AcDbLine
 10
107.528105
 20
219.678976
 30
0.0
 11
116.878644
 21
232.662327
 31
0.0
  0
INSERT
  5
23B4
100
AcDbEntity
  8
0
  6
BYBLOCK
 62
     1
100
AcDbBlockReference
  2
_OPEN30
 10
107.528105
 20
219.678976
 30
0.0
 41
2.0
 42
2.0
 43
2.0
 50
54.23877
  0
INSERT
  5
23B5
100
AcDbEntity
  8
0
  6
BYBLOCK
 62
     1
100
AcDbBlockReference
  2
_OPEN30
 10
116.878644
 20
232.662327
 30
0.0
 41
2.0
 42
2.0
 43
2.0
 50
234.23877
  0
MTEXT
  5
23B6
100
AcDbEntity
  8
0
  6
BYBLOCK
 62
     3
100
AcDbMText
 10
120.475812
 20
241.934871
 30
0.0
 40
3.0
 41
0.0
 71
     5
 72
     1
  1
\A1;\U+220516
 11
0.584409
 21
0.811459
 31
0.0
  0
POINT
  5
23B7
100
AcDbEntity
  8
DEFPOINTS
  6
BYBLOCK
 62
     0
100
AcDbPoint
 10
116.878644
 20
232.662327
 30
0.0
  0
POINT
  5
23B8
100
AcDbEntity
  8
DEFPOINTS
  6
BYBLOCK
 62
     0
100
AcDbPoint
 10
107.528105
 20
219.678976
 30
0.0
  0
ENDBLK
  5
23B9
100
AcDbEntity
  8
0
100
AcDbBlockEnd
  0
BLOCK
  5
23BB
100
AcDbEntity
  8
0
100
AcDbBlockBegin
  2
*D7
 70
     1
 10
0.0
 20
0.0
 30
0.0
  3
*D7
  1

  0
LINE
  5
23BC
100
AcDbEntity
  8
0
  6
BYBLOCK
 62
     1
100
AcDbLine
 10
12.470811
 20
216.735176
 30
0.0
 11
10.796403
 21
200.804243
 31
0.0
  0
LINE
  5
23BD
100
AcDbEntity
  8
0
  6
BYBLOCK
 62
     1
100
AcDbLine
 10
12.658178
 20
213.578147
 30
0.0
 11
12.658178
 21
200.706672
 31
0.0
  0
ARC
  5
23BE
100
AcDbEntity
  8
0
  6
BYBLOCK
 62
     1
100
AcDbCircle
 10
12.658178
 20
218.517852
 30
0.0
 40
15.811181
100
AcDbArc
 50
249.466061
 51
264.0
  0
LINE
  5
23BF
100
AcDbEntity
  8
0
  6
BYBLOCK
 62
     1
100
AcDbLine
 10
7.112214
 20
203.711242
 30
0.0
 11
-0.941381
 21
206.727796
 31
0.0
  0
ARC
  5
23C0
100
AcDbEntity
  8
0
  6
BYBLOCK
 62
     1
100
AcDbCircle
 10
12.658178
 20
218.517852
 30
0.0
 40
15.811181
100
AcDbArc
 50
249.495315
 51
256.747658
  0
ARC
  5
23C1
100
AcDbEntity
  8
0
  6
BYBLOCK
 62
     1
100
AcDbCircle
 10
12.658178
 20
218.517852
 30
0.0
 40
15.811181
100
AcDbArc
 50
277.252342
 51
284.504685
  0
ARC
  5
23C2
100
AcDbEntity
  8
0
  6
BYBLOCK
 62
     1
100
AcDbCircle
 10
12.658178
 20
218.517852
 30
0.0
 40
15.811181
100
AcDbArc
 50
264.0
 51
270.0
  0
INSERT
  5
23C3
100
AcDbEntity
  8
0
  6
BYBLOCK
 62
     1
100
AcDbBlockReference
  2
_OPEN30
 10
11.00546
 20
202.793287
 30
0.0
 41
2.0
 42
2.0
 43
2.0
 50
350.373829
  0
INSERT
  5
23C4
100
AcDbEntity
  8
0
  6
BYBLOCK
 62
     1
100
AcDbBlockReference
  2
_OPEN30
 10
12.658178
 20
202.706672
 30
0.0
 41
2.0
 42
2.0
 43
2.0
 50
183.626171
  0
MTEXT
  5
23C5
100
AcDbEntity
  8
0
  6
BYBLOCK
 62
     3
100
AcDbMText
 10
3.962322
 20
207.560681
 30
0.0
 40
3.0
 41
0.0
 71
     5
 72
     1
  1
\A1;6°
 11
0.936465
 21
-0.350762
 31
0.0
  0
POINT
  5
23C6
100
AcDbEntity
  8
DEFPOINTS
  6
BYBLOCK
 62
     0
100
AcDbPoint
 10
12.106376
 20
202.716304
 30
0.0
  0
POINT
  5
23C7
100
AcDbEntity
  8
DEFPOINTS
  6
BYBLOCK
 62
     0
100
AcDbPoint
 10
14.284651
 20
233.99271
 30
0.0
  0
POINT
  5
23C8
100
AcDbEntity
  8
DEFPOINTS
  6
BYBLOCK
 62
     0
100
AcDbPoint
 10
12.658178
 20
235.613729
 30
0.0
  0
POINT
  5
23C9
100
AcDbEntity
  8
DEFPOINTS
  6
BYBLOCK
 62
     0
100
AcDbPoint
 10
12.658178
 20
214.578147
 30
0.0
  0
POINT
  5
23CA
100
AcDbEntity
  8
DEFPOINTS
  6
BYBLOCK
 62
     0
100
AcDbPoint
 10
12.57534
 20
217.729697
 30
0.0
  0
ENDBLK
  5
23CB
100
AcDbEntity
  8
0
100
AcDbBlockEnd
  0
BLOCK
  5
2469
100
AcDbEntity
  8
0
100
AcDbBlockBegin
  2
*D13
 70
     1
 10
0.0
 20
0.0
 30
0.0
  3
*D13
  1

  0
LINE
  5
246A
100
AcDbEntity
  8
0
  6
BYBLOCK
 62
     1
100
AcDbLine
 10
36.300093
 20
234.767012
 30
0.0
 11
31.48911
 21
234.767012
 31
0.0
  0
LINE
  5
246B
100
AcDbEntity
  8
0
  6
BYBLOCK
 62
     1
100
AcDbLine
 10
37.733916
 20
226.267012
 30
0.0
 11
31.48911
 21
226.267012
 31
0.0
  0
LINE
  5
246C
100
AcDbEntity
  8
0
  6
BYBLOCK
 62
     1
100
AcDbLine
 10
33.48911
 20
236.767012
 30
0.0
 11
33.48911
 21
238.767012
 31
0.0
  0
LINE
  5
246D
100
AcDbEntity
  8
0
  6
BYBLOCK
 62
     1
100
AcDbLine
 10
33.48911
 20
224.267012
 30
0.0
 11
33.48911
 21
212.267012
 31
0.0
  0
LINE
  5
246E
100
AcDbEntity
  8
0
  6
BYBLOCK
 62
     1
100
AcDbLine
 10
33.48911
 20
234.767012
 30
0.0
 11
33.48911
 21
226.267012
 31
0.0
  0
INSERT
  5
246F
100
AcDbEntity
  8
0
  6
BYBLOCK
 62
     1
100
AcDbBlockReference
  2
_OPEN30
 10
33.48911
 20
234.767012
 30
0.0
 41
2.0
 42
2.0
 43
2.0
 50
270.0
  0
INSERT
  5
2470
100
AcDbEntity
  8
0
  6
BYBLOCK
 62
     1
100
AcDbBlockReference
  2
_OPEN30
 10
33.48911
 20
226.267012
 30
0.0
 41
2.0
 42
2.0
 43
2.0
 50
90.0
  0
MTEXT
  5
2471
100
AcDbEntity
  8
0
  6
BYBLOCK
 62
     3
100
AcDbMText
 10
30.98911
 20
217.267012
 30
0.0
 40
3.0
 41
0.0
 71
     5
 72
     1
  1
\A1;8.5
 11
0.0
 21
1.0
 31
0.0
  0
POINT
  5
2472
100
AcDbEntity
  8
DEFPOINTS
  6
BYBLOCK
 62
     0
100
AcDbPoint
 10
37.300093
 20
234.767012
 30
0.0
  0
POINT
  5
2473
100
AcDbEntity
  8
DEFPOINTS
  6
BYBLOCK
 62
     0
100
AcDbPoint
 10
38.733916
 20
226.267012
 30
0.0
  0
POINT
  5
2474
100
AcDbEntity
  8
DEFPOINTS
  6
BYBLOCK
 62
     0
100
AcDbPoint
 10
33.48911
 20
226.267012
 30
0.0
  0
ENDBLK
  5
2475
100
AcDbEntity
  8
0
100
AcDbBlockEnd
  0
ENDSEC
  0
SECTION
  2
ENTITIES
  0
TEXT
  5
1453
100
AcDbEntity
  8
外形
  6
CONTINUOUS
 62
     2
100
AcDbText
 10
81.945496
 20
150.213866
 30
0.0
 40
6.0
  1
BNZ616R
100
AcDbText
  0
LINE
  5
1A71
100
AcDbEntity
  8
外形
  6
CENTER
 62
     1
100
AcDbLine
 10
37.835878
 20
177.47508
 30
0.0
 11
195.838684
 21
177.47508
 31
0.0
  0
LINE
  5
1A7E
100
AcDbEntity
  8
外形
  6
CONTINUOUS
100
AcDbLine
 10
41.962233
 20
176.011078
 30
0.0
 11
42.509501
 21
176.158578
 31
0.0
  0
LINE
  5
1A82
100
AcDbEntity
  8
外形
  6
CONTINUOUS
100
AcDbLine
 10
41.962233
 20
176.996178
 30
0.0
 11
38.791957
 21
176.996178
 31
0.0
  0
LINE
  5
1A83
100
AcDbEntity
  8
外形
  6
CONTINUOUS
100
AcDbLine
 10
38.85044
 20
176.519869
 30
0.0
 11
41.962233
 21
176.519869
 31
0.0
  0
LINE
  5
1A84
100
AcDbEntity
  8
外形
  6
CONTINUOUS
100
AcDbLine
 10
41.962233
 20
177.47508
 30
0.0
 11
41.962233
 21
176.011078
 31
0.0
  0
LINE
  5
1A85
100
AcDbEntity
  8
外形
  6
CONTINUOUS
100
AcDbLine
 10
39.202233
 20
176.011078
 30
0.0
 11
39.202233
 21
169.47508
 31
0.0
  0
LINE
  5
1A87
100
AcDbEntity
  8
外形
  6
CONTINUOUS
100
AcDbLine
 10
41.962233
 20
176.011078
 30
0.0
 11
38.912912
 21
176.011078
 31
0.0
  0
LINE
  5
1A8C
100
AcDbEntity
  8
外形
  6
CONTINUOUS
100
AcDbLine
 10
41.962233
 20
177.47508
 30
0.0
 11
38.733155
 21
177.47508
 31
0.0
  0
LINE
  5
1A8D
100
AcDbEntity
  8
外形
  6
CONTINUOUS
100
AcDbLine
 10
38.912912
 20
176.011078
 30
0.0
 11
38.733916
 21
177.468882
 31
0.0
  0
LINE
  5
1A96
100
AcDbEntity
  8
外形
  6
CENTER
 62
     1
100
AcDbLine
 10
37.300093
 20
234.767012
 30
0.0
 11
193.503492
 21
234.767012
 31
0.0
  0
LINE
  5
1A9D
100
AcDbEntity
  8
外形
  6
CENTER
 62
     1
100
AcDbLine
 10
12.658178
 20
244.210089
 30
0.0
 11
12.658178
 21
223.174507
 31
0.0
  0
LINE
  5
1AA5
100
AcDbEntity
  8
外形
  6
CONTINUOUS
100
AcDbLine
 10
12.386136
 20
229.309291
 30
0.0
 11
12.084496
 21
226.439378
 31
0.0
  0
LINE
  5
1AA6
100
AcDbEntity
  8
外形
  6
CONTINUOUS
100
AcDbLine
 10
11.014457
 20
226.686416
 30
0.0
 11
12.57534
 21
226.326058
 31
0.0
  0
LINE
  5
1AA7
100
AcDbEntity
  8
外形
  6
CONTINUOUS
100
AcDbLine
 10
11.888875
 20
229.361555
 30
0.0
 11
12.883397
 21
229.257027
 31
0.0
  0
LINE
  5
1AA8
100
AcDbEntity
  8
外形
  6
CONTINUOUS
100
AcDbLine
 10
11.888875
 20
229.361555
 30
0.0
 11
11.593652
 21
226.552698
 31
0.0
  0
HATCH
  5
1AAA
100
AcDbEntity
  8
外形
  6
CONTINUOUS
100
AcDbHatch
 10
0.0
 20
0.0
 30
0.0
210
0.0
220
0.0
230
1.0
  2
ANSI31
 70
     0
 71
     0
 91
        2
 92
        7
 72
     0
 73
     1
 93
        5
 10
12.88339680414981
 20
229.2570268345059
 10
12.38613585646567
 20
229.3092910661397
 10
12.2862403109404
 20
228.3588484386592
 10
12.57181609334173
 20
226.3268711631148
 10
12.57533953597185
 20
226.3260577122882
 97
        0
 92
       22
 72
     0
 73
     1
 93
        3
 10
12.28624031094042
 20
228.3588484386592
 10
12.08449582901981
 20
226.4393779110379
 10
12.57181609334169
 20
226.3268711631149
 97
        0
 75
     0
 76
     1
 52
8.0
 41
3.0
 77
     0
 78
     1
 53
53.0
 43
3.969581
 44
164.629962
 45
-0.2994883162677346
 46
0.2256806336820185
 79
     0
 47
0.01469
 98
        2
 10
12.571871
 20
228.302854
 10
12.313466
 20
227.183607
  0
LINE
  5
1AAB
100
AcDbEntity
  8
外形
  6
CONTINUOUS
100
AcDbLine
 10
11.642124
 20
232.658275
 30
0.0
 11
11.014457
 21
226.686416
 31
0.0
  0
LINE
  5
1AAC
100
AcDbEntity
  8
外形
  6
CONTINUOUS
100
AcDbLine
 10
14.284651
 20
242.58907
 30
0.0
 11
12.57534
 21
226.326058
 31
0.0
  0
LINE
  5
1AAD
100
AcDbEntity
  8
外形
  6
CONTINUOUS
100
AcDbLine
 10
11.395029
 20
230.27298
 30
0.0
 11
12.962515
 21
229.911097
 31
0.0
  0
LINE
  5
1AAE
100
AcDbEntity
  8
外形
  6
CONTINUOUS
100
AcDbLine
 10
11.642124
 20
232.658275
 30
0.0
 11
13.243821
 21
232.686233
 31
0.0
  0
LINE
  5
1ABC
100
AcDbEntity
  8
外形
  6
CENTER
 62
     1
100
AcDbLine
 10
40.05333
 20
229.495329
 30
0.0
 11
46.277742
 21
229.495329
 31
0.0
  0
ARC
  5
1ABD
100
AcDbEntity
  8
外形
  6
CONTINUOUS
100
AcDbCircle
 10
44.562233
 20
229.495329
 30
0.0
 40
1.0
100
AcDbArc
 50
257.787333
 51
102.212667
  0
LINE
  5
1ABE
100
AcDbEntity
  8
外形
  6
CONTINUOUS
100
AcDbLine
 10
45.18664
 20
229.636751
 30
0.0
 11
42.103654
 21
232.719736
 31
0.0
  0
LINE
  5
1ABF
100
AcDbEntity
  8
外形
  6
CONTINUOUS
100
AcDbLine
 10
45.18664
 20
229.353908
 30
0.0
 11
42.453149
 21
226.620416
 31
0.0
  0
LINE
  5
1AC6
100
AcDbEntity
  8
外形
  6
CENTER
 62
     1
100
AcDbLine
 10
41.962233
 20
232.767012
 30
0.0
 11
41.962233
 21
226.767012
 31
0.0
  0
LINE
  5
1AC7
100
AcDbEntity
  8
外形
  6
CENTER
 62
     1
100
AcDbLine
 10
44.562233
 20
232.767012
 30
0.0
 11
44.562233
 21
226.767012
 31
0.0
  0
LINE
  5
1AC9
100
AcDbEntity
  8
外形
  6
CONTINUOUS
100
AcDbLine
 10
41.820812
 20
232.719736
 30
0.0
 11
39.08732
 21
229.986245
 31
0.0
  0
LINE
  5
1ACA
100
AcDbEntity
  8
外形
  6
CONTINUOUS
100
AcDbLine
 10
38.733916
 20
226.483682
 30
0.0
 11
39.029503
 21
229.862254
 31
0.0
  0
ARC
  5
1ACB
100
AcDbEntity
  8
外形
  6
CONTINUOUS
100
AcDbCircle
 10
41.962233
 20
232.578315
 30
0.0
 40
0.2
100
AcDbArc
 50
45.0
 51
135.0
  0
LINE
  5
1ACD
100
AcDbEntity
  8
外形
  6
CONTINUOUS
100
AcDbLine
 10
41.593497
 20
226.498237
 30
0.0
 11
38.965141
 21
229.126593
 31
0.0
  0
ARC
  5
1ACE
100
AcDbEntity
  8
外形
  6
CONTINUOUS
100
AcDbCircle
 10
42.311727
 20
226.761838
 30
0.0
 40
0.2
100
AcDbArc
 50
275.0
 51
315.0
  0
ARC
  5
1ACF
100
AcDbEntity
  8
外形
  6
CONTINUOUS
100
AcDbCircle
 10
39.228742
 20
229.844823
 30
0.0
 40
0.2
100
AcDbArc
 50
135.0
 51
175.0
  0
CIRCLE
  5
1AD0
100
AcDbEntity
  8
外形
  6
CONTINUOUS
100
AcDbCircle
 10
41.962233
 20
229.495329
 30
0.0
 40
1.35
  0
LINE
  5
1AD1
100
AcDbEntity
  8
外形
  6
CONTINUOUS
100
AcDbLine
 10
42.471113
 20
229.674652
 30
0.0
 11
42.778191
 21
229.495329
 31
0.0
  0
LINE
  5
1AD2
100
AcDbEntity
  8
外形
  6
CONTINUOUS
100
AcDbLine
 10
42.778191
 20
229.495329
 30
0.0
 11
42.471113
 21
229.316006
 31
0.0
  0
LINE
  5
1AD3
100
AcDbEntity
  8
外形
  6
CONTINUOUS
100
AcDbLine
 10
42.061375
 20
230.025694
 30
0.0
 11
42.370212
 21
230.201969
 31
0.0
  0
LINE
  5
1AD4
100
AcDbEntity
  8
外形
  6
CONTINUOUS
100
AcDbLine
 10
42.370212
 20
230.201969
 30
0.0
 11
42.371971
 21
229.846371
 31
0.0
  0
LINE
  5
1AD5
100
AcDbEntity
  8
外形
  6
CONTINUOUS
100
AcDbLine
 10
41.552495
 20
229.846371
 30
0.0
 11
41.554254
 21
230.201969
 31
0.0
  0
LINE
  5
1AD6
100
AcDbEntity
  8
外形
  6
CONTINUOUS
100
AcDbLine
 10
41.554254
 20
230.201969
 30
0.0
 11
41.863091
 21
230.025694
 31
0.0
  0
LINE
  5
1AD7
100
AcDbEntity
  8
外形
  6
CONTINUOUS
100
AcDbLine
 10
41.453353
 20
229.316006
 30
0.0
 11
41.146276
 21
229.495329
 31
0.0
  0
LINE
  5
1AD8
100
AcDbEntity
  8
外形
  6
CONTINUOUS
100
AcDbLine
 10
41.146276
 20
229.495329
 30
0.0
 11
41.453353
 21
229.674652
 31
0.0
  0
LINE
  5
1AD9
100
AcDbEntity
  8
外形
  6
CONTINUOUS
100
AcDbLine
 10
41.863091
 20
228.964965
 30
0.0
 11
41.554254
 21
228.788689
 31
0.0
  0
LINE
  5
1ADA
100
AcDbEntity
  8
外形
  6
CONTINUOUS
100
AcDbLine
 10
41.554254
 20
228.788689
 30
0.0
 11
41.552495
 21
229.144288
 31
0.0
  0
LINE
  5
1ADB
100
AcDbEntity
  8
外形
  6
CONTINUOUS
100
AcDbLine
 10
42.371971
 20
229.144288
 30
0.0
 11
42.370212
 21
228.788689
 31
0.0
  0
LINE
  5
1ADC
100
AcDbEntity
  8
外形
  6
CONTINUOUS
100
AcDbLine
 10
42.370212
 20
228.788689
 30
0.0
 11
42.061375
 21
228.964965
 31
0.0
  0
ARC
  5
1ADD
100
AcDbEntity
  8
外形
  6
CONTINUOUS
100
AcDbCircle
 10
42.571969
 20
229.84736
 30
0.0
 40
0.2
100
AcDbArc
 50
180.283476
 51
239.716524
  0
ARC
  5
1ADE
100
AcDbEntity
  8
外形
  6
CONTINUOUS
100
AcDbCircle
 10
42.571969
 20
229.143298
 30
0.0
 40
0.2
100
AcDbArc
 50
120.283476
 51
179.716524
  0
ARC
  5
1ADF
100
AcDbEntity
  8
外形
  6
CONTINUOUS
100
AcDbCircle
 10
41.962233
 20
228.791267
 30
0.0
 40
0.2
100
AcDbArc
 50
60.283476
 51
119.716524
  0
ARC
  5
1AE0
100
AcDbEntity
  8
外形
  6
CONTINUOUS
100
AcDbCircle
 10
41.352497
 20
229.143298
 30
0.0
 40
0.2
100
AcDbArc
 50
0.283476
 51
59.716524
  0
ARC
  5
1AE1
100
AcDbEntity
  8
外形
  6
CONTINUOUS
100
AcDbCircle
 10
41.352497
 20
229.84736
 30
0.0
 40
0.2
100
AcDbArc
 50
300.283476
 51
359.716524
  0
ARC
  5
1AE2
100
AcDbEntity
  8
外形
  6
CONTINUOUS
100
AcDbCircle
 10
41.962233
 20
230.199391
 30
0.0
 40
0.2
100
AcDbArc
 50
240.283476
 51
299.716524
  0
LINE
  5
1AE4
100
AcDbEntity
  8
外形
  6
CONTINUOUS
100
AcDbLine
 10
38.950586
 20
226.267012
 30
0.0
 11
42.329158
 21
226.562599
 31
0.0
  0
ARC
  5
1AE5
100
AcDbEntity
  8
外形
  6
CONTINUOUS
100
AcDbCircle
 10
38.933155
 20
226.466251
 30
0.0
 40
0.2
100
AcDbArc
 50
175.0
 51
275.0
  0
HATCH
  5
1AE7
100
AcDbEntity
  8
外形
  6
CONTINUOUS
100
AcDbHatch
 10
0.0
 20
0.0
 30
0.0
210
0.0
220
0.0
230
1.0
  2
ANSI31
 70
     0
 71
     0
 91
        1
 92
        7
 72
     1
 73
     1
 93
        6
 10
38.73391587633716
 20
226.4836821076041
 42
0.0
 10
38.73391587633716
 20
226.4488198105055
 42
0.3639702342663125
 10
38.91572366740571
 20
226.2670120194363
 42
0.0
 10
38.95058596450519
 20
226.2670120194363
 42
0.0
 10
41.59349721780595
 20
226.4982367928052
 42
0.0
 10
38.96514064970608
 20
229.126593360905
 42
0.0
 97
        0
 75
     0
 76
     1
 52
0.0
 41
3.0
 77
     0
 78
     1
 53
45.0
 43
12.941978
 44
166.369038
 45
-0.2651650429449553
 46
0.2651650429449553
 79
     0
 47
0.014389
 98
        1
 10
39.332099
 20
227.530404
  0
ARC
  5
1AE9
100
AcDbEntity
  8
外形
  6
CONTINUOUS
100
AcDbCircle
 10
45.045219
 20
229.495329
 30
0.0
 40
0.2
100
AcDbArc
 50
315.0
 51
45.0
  0
LINE
  5
1AF8
100
AcDbEntity
  8
外形
  6
CENTER
 62
     1
100
AcDbLine
 10
112.203374
 20
223.92377
 30
0.0
 11
112.203374
 21
247.43649
 31
0.0
  0
LINE
  5
1C0F
100
AcDbEntity
  8
外形
  6
CONTINUOUS
100
AcDbLine
 10
38.733916
 20
177.808184
 30
0.0
 11
38.733916
 21
177.468882
 31
0.0
  0
LINE
  5
1CA6
100
AcDbEntity
  8
外形
  6
CONTINUOUS
100
AcDbLine
 10
42.509501
 20
177.568391
 30
0.0
 11
43.788842
 21
177.568391
 31
0.0
  0
LINE
  5
1CA7
100
AcDbEntity
  8
外形
  6
CONTINUOUS
100
AcDbLine
 10
42.509501
 20
177.568391
 30
0.0
 11
42.509501
 21
176.158578
 31
0.0
  0
LINE
  5
1D5A
100
AcDbEntity
  8
寸法
  6
CONTINUOUS
100
AcDbLine
 10
38.733916
 20
226.267012
 30
0.0
 11
23.490765
 21
226.267012
 31
0.0
  0
LINE
  5
1F8D
100
AcDbEntity
  8
外形
  6
CONTINUOUS
100
AcDbLine
 10
39.704515
 20
230.603439
 30
0.0
 11
46.727157
 21
242.767012
 31
0.0
  0
LINE
  5
1F9D
100
AcDbEntity
  8
外形
  6
CENTER
 62
     1
100
AcDbLine
 10
2.688071
 20
234.767012
 30
0.0
 11
22.089375
 21
234.767012
 31
0.0
  0
LINE
  5
22B5
100
AcDbEntity
  8
外形
  6
CONTINUOUS
100
AcDbLine
 10
46.727157
 20
242.767012
 30
0.0
 11
100.699288
 21
242.767012
 31
0.0
  0
LINE
  5
22B6
100
AcDbEntity
  8
外形
  6
CONTINUOUS
100
AcDbLine
 10
42.599744
 20
226.767012
 30
0.0
 11
100.699288
 21
226.767012
 31
0.0
  0
ARC
  5
22B9
100
AcDbEntity
  8
外形
  6
CONTINUOUS
100
AcDbCircle
 10
12.658178
 20
234.767012
 30
0.0
 40
8.0
100
AcDbArc
 50
28.955024
 51
258.33234
  0
LINE
  5
22C5
100
AcDbEntity
  8
外形
  6
CONTINUOUS
100
AcDbLine
 10
19.658178
 20
238.639995
 30
0.0
 11
19.658178
 21
230.894029
 31
0.0
  0
LINE
  5
22C7
100
AcDbEntity
  8
外形
  6
CONTINUOUS
100
AcDbLine
 10
51.733916
 20
230.894029
 30
0.0
 11
100.699288
 21
230.894029
 31
0.0
  0
SPLINE
  5
22E4
100
AcDbEntity
  8
外形
  6
CONTINUOUS
100
AcDbSpline
210
0.0
220
0.0
230
1.0
 70
     8
 71
     3
 72
    15
 73
    11
 74
     9
 42
0.0000001
 43
0.0000001
 44
0.0000000001
 40
0.0
 40
0.0
 40
0.0
 40
0.0
 40
0.8000805181857492
 40
1.772010569626149
 40
2.542896185805783
 40
3.2218377959206
 40
3.895522564301151
 40
4.649785858881377
 40
5.58857613618097
 40
6.90806793660772
 40
6.90806793660772
 40
6.90806793660772
 40
6.90806793660772
 10
51.73391587633715
 20
230.89402867323
 30
0.0
 10
51.69488014106083
 20
230.6303290660742
 30
0.0
 10
51.6084241732795
 20
230.0462897344507
 30
0.0
 10
51.45320731484368
 20
229.2103029674029
 30
0.0
 10
51.14719247637686
 20
228.4559644010441
 30
0.0
 10
50.72635953586455
 20
227.8767526072237
 30
0.0
 10
50.16601960780068
 20
227.4390568320446
 30
0.0
 10
49.43653898062005
 20
227.122558961849
 30
0.0
 10
48.45192829418262
 20
226.9027084564476
 30
0.0
 10
47.70030283112244
 20
226.8491087062022
 30
0.0
 10
47.26113553431676
 20
226.8177909042096
 30
0.0
 11
51.73391587633715
 21
230.89402867323
 31
0.0
 11
51.61238355639039
 21
230.1032324094624
 31
0.0
 11
51.40552999081979
 21
229.1535695075316
 31
0.0
 11
51.10613749141357
 21
228.4431972357389
 31
0.0
 11
50.70221960975974
 21
227.897475644792
 31
0.0
 11
50.17401637948423
 21
227.4793219473619
 31
0.0
 11
49.4871591223185
 21
227.1676486796121
 31
0.0
 11
48.57401637948423
 21
226.9497094312852
 31
0.0
 11
47.26113553431676
 21
226.8177909042096
 31
0.0
  0
LINE
  5
22FF
100
AcDbEntity
  8
外形
  6
CONTINUOUS
100
AcDbLine
 10
41.962233
 20
178.143562
 30
0.0
 11
38.733916
 21
177.808184
 31
0.0
  0
LINE
  5
2300
100
AcDbEntity
  8
外形
  6
CONTINUOUS
100
AcDbLine
 10
38.733916
 20
177.808184
 30
0.0
 11
41.962233
 21
177.47508
 31
0.0
  0
LINE
  5
2302
100
AcDbEntity
  8
外形
  6
CONTINUOUS
100
AcDbLine
 10
41.962233
 20
177.47508
 30
0.0
 11
45.245219
 21
177.808184
 31
0.0
  0
LINE
  5
2303
100
AcDbEntity
  8
外形
  6
CONTINUOUS
100
AcDbLine
 10
45.245219
 20
177.808184
 30
0.0
 11
41.962233
 21
178.143562
 31
0.0
  0
ELLIPSE
  5
2309
100
AcDbEntity
  8
外形
  6
CONTINUOUS
100
AcDbEllipse
 10
41.962233
 20
177.808184
 30
0.0
 11
1.349999969999899
 21
0.0
 31
0.0
210
0.0
220
0.0
230
1.0
 40
0.104528
 41
0.0
 42
6.283185307179586
  0
LINE
  5
230F
100
AcDbEntity
  8
外形
  6
CONTINUOUS
100
AcDbLine
 10
42.370212
 20
177.673669
 30
0.0
 11
42.778191
 21
177.920605
 31
0.0
  0
LINE
  5
2310
100
AcDbEntity
  8
外形
  6
CONTINUOUS
100
AcDbLine
 10
41.962233
 20
177.949298
 30
0.0
 11
42.370212
 21
177.673669
 31
0.0
  0
LINE
  5
2311
100
AcDbEntity
  8
外形
  6
CONTINUOUS
100
AcDbLine
 10
41.554254
 20
177.673669
 30
0.0
 11
41.146276
 21
177.920605
 31
0.0
  0
LINE
  5
2312
100
AcDbEntity
  8
外形
  6
CONTINUOUS
100
AcDbLine
 10
41.962233
 20
177.949298
 30
0.0
 11
41.554254
 21
177.673669
 31
0.0
  0
LINE
  5
2313
100
AcDbEntity
  8
外形
  6
CONTINUOUS
100
AcDbLine
 10
41.554254
 20
177.673669
 30
0.0
 11
40.612233
 21
177.808184
 31
0.0
  0
LINE
  5
2314
100
AcDbEntity
  8
外形
  6
CONTINUOUS
100
AcDbLine
 10
42.370212
 20
177.673669
 30
0.0
 11
43.312233
 21
177.808184
 31
0.0
  0
LINE
  5
2318
100
AcDbEntity
  8
外形
  6
CONTINUOUS
100
AcDbLine
 10
46.727157
 20
179.183693
 30
0.0
 11
39.704515
 21
177.909016
 31
0.0
  0
HATCH
  5
2327
100
AcDbEntity
  8
外形
  6
CONTINUOUS
100
AcDbHatch
 10
0.0
 20
0.0
 30
0.0
210
0.0
220
0.0
230
1.0
  2
ANSI31
 70
     0
 71
     0
 91
        2
 92
        7
 72
     0
 73
     1
 93
        4
 10
39.70451450265034
 20
177.4750804341258
 10
39.70451450265034
 20
177.7080360948286
 10
38.73391587633715
 20
177.808184291881
 10
38.73391587633715
 20
177.4750804341258
 97
        0
 92
        7
 72
     0
 73
     1
 93
        3
 10
41.96223307297959
 20
177.4750804341258
 10
39.70451450265034
 20
177.7080360948287
 10
39.70451450265034
 20
177.4750804341258
 97
        0
 75
     0
 76
     1
 52
0.0
 41
3.0
 77
     0
 78
     1
 53
45.0
 43
40.538005
 44
146.919615
 45
-0.2651650429449553
 46
0.2651650429449553
 79
     0
 47
0.01522
 98
        2
 10
39.264058
 20
177.585974
 10
40.071441
 20
177.555534
  0
HATCH
  5
2338
100
AcDbEntity
  8
外形
  6
CONTINUOUS
100
AcDbHatch
 10
0.0
 20
0.0
 30
0.0
210
0.0
220
0.0
230
1.0
  2
ANSI37
 70
     0
 71
     0
 91
        2
 92
        7
 72
     0
 73
     1
 93
        4
 10
41.96223307297998
 20
176.9961783903348
 10
41.96223307297998
 20
177.4750804341258
 10
39.70451450265034
 20
177.4750804341258
 10
39.70451450265034
 20
176.9961783903348
 97
        0
 92
        7
 72
     0
 73
     1
 93
        5
 10
39.70451450265034
 20
176.9961783903348
 10
39.70451450265034
 20
177.4750804341258
 10
38.73391587633715
 20
177.4750804341258
 10
38.73391587633715
 20
177.4688820947254
 10
38.79195659311791
 20
176.9961783903348
 97
        0
 75
     0
 76
     1
 52
0.0
 41
3.0
 77
     0
 78
     2
 53
45.0
 43
40.538005
 44
146.919615
 45
-0.2651650429449553
 46
0.2651650429449553
 79
     0
 53
135.0
 43
40.538005
 44
146.919615
 45
-0.2651650429449553
 46
-0.2651650429449553
 79
     0
 47
0.01522
 98
        2
 10
40.071441
 20
177.159812
 10
39.385927
 20
177.159812
  0
LINE
  5
2339
100
AcDbEntity
  8
外形
  6
CONTINUOUS
100
AcDbLine
 10
39.202233
 20
169.47508
 30
0.0
 11
182.733916
 21
169.47508
 31
0.0
  0
LINE
  5
2342
100
AcDbEntity
  8
外形
  6
CONTINUOUS
100
AcDbLine
 10
51.733916
 20
184.47508
 30
0.0
 11
183.733916
 21
184.47508
 31
0.0
  0
SPLINE
  5
2343
100
AcDbEntity
  8
外形
  6
CONTINUOUS
100
AcDbSpline
210
0.0
220
0.0
230
1.0
 70
     8
 71
     3
 72
    15
 73
    11
 74
     9
 42
0.0000001
 43
0.0000001
 44
0.0000000001
 40
0.0
 40
0.0
 40
0.0
 40
0.0
 40
1.030362213981648
 40
1.948842667704461
 40
2.868795131513416
 40
3.812288830628762
 40
4.803988176193476
 40
5.879944453335009
 40
7.106160405954855
 40
11.95451841424935
 40
11.95451841424935
 40
11.95451841424935
 40
11.95451841424935
 10
51.73391587633715
 20
184.4750804341258
 30
0.0
 10
51.70175677911015
 20
184.1327425669165
 30
0.0
 10
51.64093057645988
 20
183.4852395496908
 30
0.0
 10
51.41944680272738
 20
182.5523251437226
 30
0.0
 10
51.11960965012059
 20
181.6732594944877
 30
0.0
 10
50.71123632483753
 20
180.8116463909133
 30
0.0
 10
50.17639171955848
 20
179.9572883685496
 30
0.0
 10
49.47124055363126
 20
179.1194748283666
 30
0.0
 10
47.709403167802
 20
177.4326142935824
 30
0.0
 10
45.52906027866756
 20
177.5081235890311
 30
0.0
 10
43.78884228554071
 20
177.5683905476104
 30
0.0
 11
51.73391587633715
 21
184.4750804341258
 31
0.0
 11
51.61238355639039
 21
183.451910757479
 31
0.0
 11
51.40552999081979
 21
182.5570264374233
 31
0.0
 11
51.10613749141357
 21
181.6871547992102
 31
0.0
 11
50.70221960975974
 21
180.8344938436419
 31
0.0
 11
50.17401637948423
 21
179.9951673639453
 31
0.0
 11
49.4871591223185
 21
179.1669711199312
 31
0.0
 11
48.57401637948423
 21
178.3485727489232
 31
0.0
 11
43.78884228554071
 21
177.5683905476104
 31
0.0
  0
SPLINE
  5
234E
100
AcDbEntity
  8
外形
  6
CONTINUOUS
100
AcDbSpline
210
0.0
220
0.0
230
1.0
 70
     8
 71
     3
 72
    14
 73
    10
 74
     8
 42
0.0000001
 43
0.0000001
 44
0.0000000001
 40
0.0
 40
0.0
 40
0.0
 40
0.0
 40
2.01234108250617
 40
4.636871971660867
 40
5.490403533444442
 40
6.287352425123333
 40
7.037787994866118
 40
7.743549863218524
 40
7.792182385330704
 40
7.792182385330704
 40
7.792182385330704
 40
7.792182385330704
 10
46.72715670349415
 20
179.1836932322566
 30
0.0
 10
47.34006568418496
 20
179.4375219639061
 30
0.0
 10
48.75234141539699
 20
180.0223986240407
 30
0.0
 10
50.47571006904572
 20
180.9516612666715
 30
0.0
 10
51.10657365404509
 20
182.2522146295276
 30
0.0
 10
51.41308628564954
 20
182.9890976418483
 30
0.0
 10
51.62665738463759
 20
183.7125688077343
 30
0.0
 10
51.69727784517937
 20
184.2099328075407
 30
0.0
 10
51.73169702185977
 20
184.4590226935807
 30
0.0
 10
51.73391587633715
 20
184.4750804341258
 30
0.0
 11
46.72715670349415
 21
179.1836932322566
 31
0.0
 11
48.57401637948423
 21
179.9828340017984
 31
0.0
 11
50.70221960984873
 21
181.5187094519549
 31
0.0
 11
51.10613749141346
 21
182.2706180048474
 31
0.0
 11
51.40552999081979
 21
183.0091920818684
 31
0.0
 11
51.61238355639039
 21
183.7305554762446
 31
0.0
 11
51.72725522380408
 21
184.4269061887781
 31
0.0
 11
51.73391587633715
 21
184.4750804341258
 31
0.0
  0
LINE
  5
234F
100
AcDbEntity
  8
外形
  6
CONTINUOUS
100
AcDbLine
 10
47.261136
 20
226.817791
 30
0.0
 11
42.650523
 21
226.817791
 31
0.0
  0
SPLINE
  5
2350
100
AcDbEntity
  8
外形
  6
CONTINUOUS
100
AcDbSpline
210
0.0
220
0.0
230
-1.0
 70
     8
 71
     3
 72
    15
 73
    11
 74
     9
 42
0.0000001
 43
0.0000001
 44
0.0000000001
 40
0.0
 40
0.0
 40
0.0
 40
0.0
 40
0.8000805181857492
 40
1.772010569626149
 40
2.542896185805783
 40
3.2218377959206
 40
3.895522564301151
 40
4.649785858881377
 40
5.58857613618097
 40
6.90806793660772
 40
6.90806793660772
 40
6.90806793660772
 40
6.90806793660772
 10
51.73391587633715
 20
238.6399953656426
 30
0.0
 10
51.69488014106083
 20
238.9036949727984
 30
0.0
 10
51.6084241732795
 20
239.487734304422
 30
0.0
 10
51.45320731484368
 20
240.3237210714697
 30
0.0
 10
51.14719247637686
 20
241.0780596378285
 30
0.0
 10
50.72635953586455
 20
241.6572714316489
 30
0.0
 10
50.16601960780068
 20
242.0949672068281
 30
0.0
 10
49.43653898062005
 20
242.4114650770235
 30
0.0
 10
48.45192829418262
 20
242.6313155824248
 30
0.0
 10
47.70030283112244
 20
242.6849153326702
 30
0.0
 10
47.26113553431676
 20
242.7162331346629
 30
0.0
 11
51.73391587633715
 21
238.6399953656426
 31
0.0
 11
51.61238355639039
 21
239.4307916294101
 31
0.0
 11
51.40552999081979
 21
240.380454531341
 31
0.0
 11
51.10613749141357
 21
241.0908268031337
 31
0.0
 11
50.70221960975974
 21
241.6365483940805
 31
0.0
 11
50.17401637948423
 21
242.0547020915106
 31
0.0
 11
49.4871591223185
 21
242.3663753592604
 31
0.0
 11
48.57401637948423
 21
242.5843146075874
 31
0.0
 11
47.26113553431676
 21
242.7162331346629
 31
0.0
  0
LINE
  5
2351
100
AcDbEntity
  8
外形
  6
CONTINUOUS
100
AcDbLine
 10
51.733916
 20
230.894029
 30
0.0
 11
51.733916
 21
238.639995
 31
0.0
  0
LINE
  5
2352
100
AcDbEntity
  8
外形
  6
CONTINUOUS
100
AcDbLine
 10
46.69784
 20
242.716233
 30
0.0
 11
47.261136
 21
242.716233
 31
0.0
  0
LINE
  5
2353
100
AcDbEntity
  8
外形
  6
CONTINUOUS
100
AcDbLine
 10
51.733916
 20
238.639995
 30
0.0
 11
100.699288
 21
238.639995
 31
0.0
  0
ARC
  5
2354
100
AcDbEntity
  8
外形
  6
CONTINUOUS
100
AcDbCircle
 10
112.203374
 20
234.767012
 30
0.0
 40
8.0
100
AcDbArc
 50
208.955024
 51
151.044976
  0
LINE
  5
2356
100
AcDbEntity
  8
外形
  6
CONTINUOUS
100
AcDbLine
 10
105.203374
 20
238.639995
 30
0.0
 11
105.203374
 21
230.894029
 31
0.0
  0
LINE
  5
2359
100
AcDbEntity
  8
外形
  6
CONTINUOUS
100
AcDbLine
 10
123.206401
 20
242.767012
 30
0.0
 11
182.733916
 21
242.767012
 31
0.0
  0
LINE
  5
235A
100
AcDbEntity
  8
外形
  6
CONTINUOUS
100
AcDbLine
 10
123.206401
 20
238.639995
 30
0.0
 11
182.733916
 21
238.639995
 31
0.0
  0
LINE
  5
235B
100
AcDbEntity
  8
外形
  6
CONTINUOUS
100
AcDbLine
 10
123.206401
 20
230.894029
 30
0.0
 11
182.733916
 21
230.894029
 31
0.0
  0
LINE
  5
235C
100
AcDbEntity
  8
外形
  6
CONTINUOUS
100
AcDbLine
 10
123.206401
 20
226.767012
 30
0.0
 11
182.733916
 21
226.767012
 31
0.0
  0
LINE
  5
235E
100
AcDbEntity
  8
外形
  6
CONTINUOUS
100
AcDbLine
 10
183.733916
 20
227.767012
 30
0.0
 11
183.733916
 21
241.767012
 31
0.0
  0
LINE
  5
235F
100
AcDbEntity
  8
外形
  6
CONTINUOUS
100
AcDbLine
 10
182.733916
 20
226.767012
 30
0.0
 11
182.733916
 21
230.894029
 31
0.0
  0
LINE
  5
2360
100
AcDbEntity
  8
外形
  6
CONTINUOUS
100
AcDbLine
 10
182.733916
 20
226.767012
 30
0.0
 11
183.733916
 21
227.767012
 31
0.0
  0
LINE
  5
2361
100
AcDbEntity
  8
外形
  6
CONTINUOUS
100
AcDbLine
 10
183.733916
 20
241.767012
 30
0.0
 11
182.733916
 21
242.767012
 31
0.0
  0
ELLIPSE
  5
2362
100
AcDbEntity
  8
外形
  6
CONTINUOUS
100
AcDbEllipse
 10
182.733916
 20
234.767012
 30
0.0
 11
0.0
 21
3.872983346206353
 31
0.0
210
0.0
220
0.0
230
1.0
 40
0.258199
 41
3.141592653589793
 42
6.283185307179586
  0
LINE
  5
2363
100
AcDbEntity
  8
外形
  6
CONTINUOUS
100
AcDbLine
 10
182.733916
 20
238.639995
 30
0.0
 11
182.733916
 21
242.767012
 31
0.0
  0
LINE
  5
2364
100
AcDbEntity
  8
外形
  6
CONTINUOUS
100
AcDbLine
 10
182.733916
 20
169.47508
 30
0.0
 11
182.733916
 21
184.47508
 31
0.0
  0
LINE
  5
2366
100
AcDbEntity
  8
外形
  6
CONTINUOUS
100
AcDbLine
 10
183.733916
 20
170.47508
 30
0.0
 11
183.733916
 21
184.47508
 31
0.0
  0
LINE
  5
2367
100
AcDbEntity
  8
外形
  6
CONTINUOUS
100
AcDbLine
 10
183.733916
 20
170.47508
 30
0.0
 11
182.733916
 21
169.47508
 31
0.0
  0
DIMENSION
  5
237A
100
AcDbEntity
  8
寸法
  6
CONTINUOUS
100
AcDbDimension
  2
*D2
 10
39.029503
 20
229.862254
 30
0.0
 11
50.148903
 21
258.562191
 31
0.0
 12
0.0
 22
8.59636
 32
0.0
 70
    34
  3
STANDARD
100
AcDb2LineAngularDimension
 13
38.733916
 23
226.267012
 33
0.0
 14
38.733916
 24
226.483682
 34
0.0
 15
38.733916
 25
226.483682
 35
0.0
 16
39.64358
 26
257.746813
 36
0.0
1001
ACAD
1000
DSTYLE
1002
{
1070
   284
1070
    13
1070
   146
1040
0.5
1070
   272
1070
     3
1070
    40
1040
1.0
1070
   287
1070
     0
1002
}
  0
MTEXT
  5
238A
100
AcDbEntity
  8
寸法
  6
CONTINUOUS
 62
     3
100
AcDbMText
 10
27.788968
 20
266.445059
 30
0.0
 40
3.0
 41
0.0
 71
     4
 72
     1
  1
%%c17.0最小加工径
  0
LEADER
  5
238B
100
AcDbEntity
  8
寸法
  6
CONTINUOUS
 62
     1
100
AcDbLeader
  3
STANDARD
 76
     3
 10
26.885932
 20
226.267012
 30
0.0
 10
26.885932
 20
263.589843
 30
0.0
 10
61.457358
 20
263.589843
 30
0.0
 77
   256
1001
ACAD
1000
DSTYLE
1002
{
1070
   284
1070
    13
1070
   146
1040
0.5
1070
   272
1070
     3
1070
    40
1040
1.0
1070
   287
1070
     0
1002
}
  0
DIMENSION
  5
2398
100
AcDbEntity
  8
寸法
  6
CONTINUOUS
100
AcDbDimension
  2
*D4
 10
183.733916
 20
202.187406
 30
0.0
 11
111.233916
 21
204.687406
 31
0.0
 12
0.0
 22
8.59636
 32
0.0
 70
    32
  3
STANDARD
100
AcDbAlignedDimension
 13
38.733916
 23
226.267012
 33
0.0
 14
183.733916
 24
227.767012
 34
0.0
100
AcDbRotatedDimension
1001
ACAD
1000
DSTYLE
1002
{
1070
   284
1070
    13
1070
   146
1040
0.5
1070
   272
1070
     3
1070
    40
1040
1.0
1070
   287
1070
     0
1002
}
  0
DIMENSION
  5
23A5
100
AcDbEntity
  8
寸法
  6
CONTINUOUS
100
AcDbDimension
  2
*D5
 10
120.203374
 20
212.599119
 30
0.0
 11
112.703374
 21
215.099119
 31
0.0
 12
0.0
 22
8.59636
 32
0.0
 70
    32
  3
STANDARD
100
AcDbAlignedDimension
 13
105.203374
 23
234.767012
 33
0.0
 14
120.203374
 24
234.767012
 34
0.0
100
AcDbRotatedDimension
1001
ACAD
1000
DSTYLE
1002
{
1070
   284
1070
    13
1070
   146
1040
0.5
1070
   272
1070
     3
1070
    40
1040
1.0
1070
   287
1070
     0
1002
}
  0
DIMENSION
  5
23AF
100
AcDbEntity
  8
寸法
  6
CONTINUOUS
100
AcDbDimension
  2
*D6
 10
107.528105
 20
228.275336
 30
0.0
 11
122.50446
 21
249.07021
 31
0.0
 12
0.0
 22
8.59636
 32
0.0
 70
   163
  3
STANDARD
100
AcDbDiametricDimension
 15
116.878644
 25
241.258688
 35
0.0
 40
0.0
1001
ACAD
1000
DSTYLE
1002
{
1070
   284
1070
    13
1070
   146
1040
0.5
1070
   272
1070
     3
1070
    40
1040
1.0
1070
   287
1070
     0
1002
}
  0
DIMENSION
  5
23CC
100
AcDbEntity
  8
寸法
  6
CONTINUOUS
100
AcDbDimension
  2
*D7
 10
12.57534
 20
226.326058
 30
0.0
 11
3.962322
 21
216.157041
 31
0.0
 12
0.0
 22
8.59636
 32
0.0
 70
    34
  3
STANDARD
100
AcDb2LineAngularDimension
 13
12.658178
 23
244.210089
 33
0.0
 14
12.658178
 24
223.174507
 34
0.0
 15
14.284651
 25
242.58907
 35
0.0
 16
12.106376
 26
211.312664
 36
0.0
1001
ACAD
1000
DSTYLE
1002
{
1070
   284
1070
    13
1070
   146
1040
0.5
1070
   272
1070
     3
1070
    40
1040
1.0
1070
   287
1070
     0
1002
}
  0
ARC
  5
244E
100
AcDbEntity
  8
外形
  6
CONTINUOUS
100
AcDbCircle
 10
12.658178
 20
234.767012
 30
0.0
 40
8.0
100
AcDbArc
 50
269.738705
 51
331.044976
  0
DIMENSION
  5
2476
100
AcDbEntity
  8
寸法
  6
CONTINUOUS
100
AcDbDimension
  2
*D13
 10
33.48911
 20
226.267012
 30
0.0
 11
30.98911
 21
217.267012
 31
0.0
 70
    32
  3
STANDARD
100
AcDbAlignedDimension
 13
37.300093
 23
234.767012
 33
0.0
 14
38.733916
 24
226.267012
 34
0.0
 50
90.0
100
AcDbRotatedDimension
1001
ACAD
1000
DSTYLE
1002
{
1070
   284
1070
    13
1070
   146
1040
0.5
1070
   272
1070
     3
1070
    40
1040
1.0
1070
   287
1070
     0
1002
}
  0
ENDSEC
  0
SECTION
  2
OBJECTS
  0
DICTIONARY
  5
1E
100
AcDbDictionary
  3
ACAD_GROUP
350
1C
  3
ACAD_MLINESTYLE
350
1D
  3
ACDBVARIABLEDICTIONARY
350
147A
  3
DRAWINGVARIABLESDICT
350
C58
  0
DICTIONARY
  5
38
100
AcDbDictionary
280
     1
  3
ACAD_XREC_ROUNDTRIP
360
39
  0
DICTIONARY
  5
22
100
AcDbDictionary
280
     1
  3
ACAD_XREC_ROUNDTRIP
360
23
  0
DICTIONARY
  5
3
100
AcDbDictionary
280
     1
  3
ACAD_LAYOUTSELFREF
360
4
  0
DICTIONARY
  5
A
100
AcDbDictionary
280
     1
  3
ACAD_LAYOUTSELFREF
360
B
  0
DICTIONARY
  5
1C
102
{ACAD_REACTORS
330
1E
102
}
100
AcDbDictionary
  0
DICTIONARY
  5
1D
102
{ACAD_REACTORS
330
1E
102
}
100
AcDbDictionary
  3
STANDARD
350
20
  0
DICTIONARY
  5
147A
102
{ACAD_REACTORS
330
1E
102
}
100
AcDbDictionary
  3
SORTENTS
350
147B
  0
DICTIONARY
  5
C58
102
{ACAD_REACTORS
330
1E
102
}
100
AcDbDictionary
1001
DRAWINGVARIABLESXDATA
1000
POLARMODE
1000
0
  0
XRECORD
  5
39
102
{ACAD_REACTORS
330
38
102
}
100
AcDbXrecord
102
PLOTBIT
280
     0
  0
XRECORD
  5
23
102
{ACAD_REACTORS
330
22
102
}
100
AcDbXrecord
102
ACADR14ROUNDTRIP
1000
DSTYLE
1002
{
1070
   341
340
0
1070
   343
340
0
1070
   344
340
0
1002
}
  0
XRECORD
  5
4
102
{ACAD_REACTORS
330
3
102
}
100
AcDbXrecord
340
2
  0
XRECORD
  5
B
102
{ACAD_REACTORS
330
A
102
}
100
AcDbXrecord
340
9
  0
MLINESTYLE
  5
20
102
{ACAD_REACTORS
330
1D
102
}
100
AcDbMlineStyle
  2
STANDARD
 70
     0
  3

 62
     0
 51
90.0
 52
90.0
 71
     2
 49
0.5
 62
   256
  6
BYLAYER
 49
-0.5
 62
   256
  6
BYLAYER
  0
DICTIONARYVAR
  5
147B
102
{ACAD_REACTORS
330
147A
102
}
100
DictionaryVariables
280
     0
  1
96
  0
ENDSEC
  0
EOF
