  0
SECTION
  2
HEADER
  9
$ACADVER
  1
AC1014
  9
$ACADMAINTVER
 70
     0
  9
$DWGCODEPAGE
  3
ANSI_932
  9
$INSBASE
 10
-587.250952
 20
747.890188
 30
0.0
  9
$EXTMIN
 10
-14.844113
 20
150.213866
 30
0.0
  9
$EXTMAX
 10
208.303215
 20
272.398745
 30
0.0
  9
$LIMMIN
 10
-587.250952
 20
327.890188
  9
$LIMMAX
 10
600.749048
 20
957.890188
  9
$ORTHOMODE
 70
     1
  9
$REGENMODE
 70
     1
  9
$FILLMODE
 70
     1
  9
$QTEXTMODE
 70
     0
  9
$MIRRTEXT
 70
     1
  9
$DRAGMODE
 70
     2
  9
$LTSCALE
 40
5.0
  9
$OSMODE
 70
    37
  9
$ATTMODE
 70
     1
  9
$TEXTSIZE
 40
5.0
  9
$TRACEWID
 40
0.05
  9
$TEXTSTYLE
  7
STANDARD
  9
$CLAYER
  8
外形
  9
$CELTYPE
  6
CONTINUOUS
  9
$CECOLOR
 62
   256
  9
$CELTSCALE
 40
1.0
  9
$DELOBJ
 70
     1
  9
$DISPSILH
 70
     0
  9
$DIMSCALE
 40
1.0
  9
$DIMASZ
 40
2.0
  9
$DIMEXO
 40
1.0
  9
$DIMDLI
 40
8.0
  9
$DIMRND
 40
0.0
  9
$DIMDLE
 40
0.0
  9
$DIMEXE
 40
2.0
  9
$DIMTP
 40
0.0
  9
$DIMTM
 40
0.0
  9
$DIMTXT
 40
3.0
  9
$DIMCEN
 40
-1.0
  9
$DIMTSZ
 40
0.0
  9
$DIMTOL
 70
     0
  9
$DIMLIM
 70
     0
  9
$DIMTIH
 70
     0
  9
$DIMTOH
 70
     0
  9
$DIMSE1
 70
     0
  9
$DIMSE2
 70
     0
  9
$DIMTAD
 70
     1
  9
$DIMZIN
 70
     8
  9
$DIMBLK
  1

  9
$DIMASO
 70
     1
  9
$DIMSHO
 70
     1
  9
$DIMPOST
  1

  9
$DIMAPOST
  1

  9
$DIMALT
 70
     0
  9
$DIMALTD
 70
     2
  9
$DIMALTF
 40
25.4
  9
$DIMLFAC
 40
1.0
  9
$DIMTOFL
 70
     1
  9
$DIMTVP
 40
0.0
  9
$DIMTIX
 70
     0
  9
$DIMSOXD
 70
     0
  9
$DIMSAH
 70
     1
  9
$DIMBLK1
  1
_OPEN30
  9
$DIMBLK2
  1
_OPEN30
  9
$DIMSTYLE
  2
STANDARD
  9
$DIMCLRD
 70
     1
  9
$DIMCLRE
 70
     1
  9
$DIMCLRT
 70
     3
  9
$DIMTFAC
 40
0.5
  9
$DIMGAP
 40
1.0
  9
$DIMJUST
 70
     0
  9
$DIMSD1
 70
     0
  9
$DIMSD2
 70
     0
  9
$DIMTOLJ
 70
     1
  9
$DIMTZIN
 70
    13
  9
$DIMALTZ
 70
     0
  9
$DIMALTTZ
 70
     0
  9
$DIMFIT
 70
     0
  9
$DIMUPT
 70
     0
  9
$DIMUNIT
 70
     2
  9
$DIMDEC
 70
     2
  9
$DIMTDEC
 70
     3
  9
$DIMALTU
 70
     2
  9
$DIMALTTD
 70
     2
  9
$DIMTXSTY
  7
STANDARD
  9
$DIMAUNIT
 70
     0
  9
$LUNITS
 70
     2
  9
$LUPREC
 70
     0
  9
$SKETCHINC
 40
0.1
  9
$FILLETRAD
 40
0.0
  9
$AUNITS
 70
     0
  9
$AUPREC
 70
     0
  9
$MENU
  1
acad
  9
$ELEVATION
 40
0.0
  9
$PELEVATION
 40
0.0
  9
$THICKNESS
 40
0.0
  9
$LIMCHECK
 70
     0
  9
$BLIPMODE
 70
     0
  9
$CHAMFERA
 40
1.5
  9
$CHAMFERB
 40
1.5
  9
$CHAMFERC
 40
0.0
  9
$CHAMFERD
 40
0.0
  9
$SKPOLY
 70
     0
  9
$TDCREATE
 40
2450751.535399305
  9
$TDUPDATE
 40
2452048.366180555
  9
$TDINDWG
 40
1.7349568287
  9
$TDUSRTIMER
 40
1.7349568287
  9
$USRTIMER
 70
     1
  9
$ANGBASE
 50
0.0
  9
$ANGDIR
 70
     0
  9
$PDMODE
 70
    32
  9
$PDSIZE
 40
0.0
  9
$PLINEWID
 40
0.0
  9
$COORDS
 70
     2
  9
$SPLFRAME
 70
     0
  9
$SPLINETYPE
 70
     5
  9
$SPLINESEGS
 70
     8
  9
$ATTDIA
 70
     0
  9
$ATTREQ
 70
     1
  9
$HANDLING
 70
     1
  9
$HANDSEED
  5
27E7
  9
$SURFTAB1
 70
     6
  9
$SURFTAB2
 70
     6
  9
$SURFTYPE
 70
     6
  9
$SURFU
 70
     6
  9
$SURFV
 70
     6
  9
$UCSNAME
  2

  9
$UCSORG
 10
40.53800450572526
 20
146.9196145921314
 30
0.0
  9
$UCSXDIR
 10
1.0
 20
0.0
 30
0.0
  9
$UCSYDIR
 10
0.0
 20
1.0
 30
0.0
  9
$PUCSNAME
  2

  9
$PUCSORG
 10
0.0
 20
0.0
 30
0.0
  9
$PUCSXDIR
 10
1.0
 20
0.0
 30
0.0
  9
$PUCSYDIR
 10
0.0
 20
1.0
 30
0.0
  9
$USERI1
 70
     0
  9
$USERI2
 70
     0
  9
$USERI3
 70
     0
  9
$USERI4
 70
     0
  9
$USERI5
 70
     0
  9
$USERR1
 40
0.0
  9
$USERR2
 40
0.0
  9
$USERR3
 40
0.0
  9
$USERR4
 40
0.0
  9
$USERR5
 40
0.0
  9
$WORLDVIEW
 70
     1
  9
$SHADEDGE
 70
     3
  9
$SHADEDIF
 70
    70
  9
$TILEMODE
 70
     1
  9
$MAXACTVP
 70
    16
  9
$PINSBASE
 10
0.0
 20
0.0
 30
0.0
  9
$PLIMCHECK
 70
     0
  9
$PEXTMIN
 10
1.000000E+20
 20
1.000000E+20
 30
1.000000E+20
  9
$PEXTMAX
 10
-1.000000E+20
 20
-1.000000E+20
 30
-1.000000E+20
  9
$PLIMMIN
 10
0.0
 20
0.0
  9
$PLIMMAX
 10
12.0
 20
9.0
  9
$UNITMODE
 70
     0
  9
$VISRETAIN
 70
     0
  9
$PLINEGEN
 70
     0
  9
$PSLTSCALE
 70
     1
  9
$TREEDEPTH
 70
  3020
  9
$PICKSTYLE
 70
     1
  9
$CMLSTYLE
  2
STANDARD
  9
$CMLJUST
 70
     0
  9
$CMLSCALE
 40
1.0
  9
$PROXYGRAPHICS
 70
     1
  9
$MEASUREMENT
 70
     0
  0
ENDSEC
  0
SECTION
  2
CLASSES
  0
CLASS
  1
LWPOLYLINE
  2
AcDbPolyline
  3
"AutoCAD"
 90
        0
280
     0
281
     1
  0
CLASS
  1
ACDBDICTIONARYWDFLT
  2
AcDbDictionaryWithDefault
  3
AutoCAD 2000
 90
        0
280
     1
281
     0
  0
CLASS
  1
ACDBPLACEHOLDER
  2
AcDbPlaceHolder
  3
AutoCAD 2000
 90
        0
280
     1
281
     0
  0
CLASS
  1
LAYOUT
  2
AcDbLayout
  3
AutoCAD 2000
 90
        0
280
     1
281
     0
  0
CLASS
  1
LONG_TRANSACTION
  2
AcDbLongTransaction
  3
AutoCAD 2000
 90
        0
280
     1
281
     0
  0
CLASS
  1
LWPOLYLINE
  2
AcDbPolyline
  3
"AutoCAD"
 90
        0
280
     0
281
     1
  0
CLASS
  1
HATCH
  2
AcDbHatch
  3
"ACAD_SEDONA"
 90
        0
280
     0
281
     1
  0
CLASS
  1
XRECORD
  2
AcDbXrecord
  3
"<Built In>"
 90
        0
280
     0
281
     0
  0
CLASS
  1
DICTIONARYVAR
  2
AcDbDictionaryVar
  3
"AutoCAD"
 90
        0
280
     0
281
     0
  0
ENDSEC
  0
SECTION
  2
TABLES
  0
TABLE
  2
VPORT
  5
16
100
AcDbSymbolTable
 70
     3
  0
VPORT
  5
27E6
100
AcDbSymbolTableRecord
100
AcDbViewportTableRecord
  2
*ACTIVE
 70
     0
 10
0.0
 20
0.0
 11
1.0
 21
1.0
 12
111.604019
 22
203.824396
 13
0.0
 23
0.0
 14
1.0
 24
1.0
 15
10.0
 25
10.0
 16
0.0
 26
0.0
 36
1.0
 17
0.0
 27
0.0
 37
0.0
 40
198.851278
 41
1.710425
 42
50.0
 43
0.0
 44
0.0
 50
0.0
 51
0.0
 71
     0
 72
   100
 73
     1
 74
     1
 75
     0
 76
     0
 77
     0
 78
     2
  0
ENDTAB
  0
TABLE
  2
LTYPE
  5
11
100
AcDbSymbolTable
 70
     2
  0
LTYPE
  5
12
100
AcDbSymbolTableRecord
100
AcDbLinetypeTableRecord
  2
BYBLOCK
 70
     0
  3

 72
    65
 73
     0
 40
0.0
  0
LTYPE
  5
13
100
AcDbSymbolTableRecord
100
AcDbLinetypeTableRecord
  2
BYLAYER
 70
     0
  3

 72
    65
 73
     0
 40
0.0
  0
LTYPE
  5
7
100
AcDbSymbolTableRecord
100
AcDbLinetypeTableRecord
  2
CONTINUOUS
 70
     0
  3
Solid line
 72
    65
 73
     0
 40
0.0
  0
LTYPE
  5
AA
100
AcDbSymbolTableRecord
100
AcDbLinetypeTableRecord
  2
CENTER
 70
     0
  3
Center ____ _ ____ _ ____ _ ____ _ ____ _ ____
 72
    65
 73
     4
 40
2.0
 49
1.25
 74
     0
 49
-0.25
 74
     0
 49
0.25
 74
     0
 49
-0.25
 74
     0
  0
ENDTAB
  0
TABLE
  2
LAYER
  5
E
100
AcDbSymbolTable
 70
     5
  0
LAYER
  5
6
100
AcDbSymbolTableRecord
100
AcDbLayerTableRecord
  2
0
 70
     0
 62
     7
  6
CONTINUOUS
  0
LAYER
  5
2C
100
AcDbSymbolTableRecord
100
AcDbLayerTableRecord
  2
外形
 70
     0
 62
     3
  6
CONTINUOUS
  0
LAYER
  5
37
102
{ACAD_XDICTIONARY
360
38
102
}
100
AcDbSymbolTableRecord
100
AcDbLayerTableRecord
  2
DEFPOINTS
 70
     0
 62
     7
  6
CONTINUOUS
  0
LAYER
  5
1F
100
AcDbSymbolTableRecord
100
AcDbLayerTableRecord
  2
寸法
 70
     0
 62
     1
  6
CONTINUOUS
  0
LAYER
  5
673
100
AcDbSymbolTableRecord
100
AcDbLayerTableRecord
  2
参考
 70
     0
 62
     2
  6
CONTINUOUS
  0
ENDTAB
  0
TABLE
  2
STYLE
  5
F
100
AcDbSymbolTable
 70
     1
  0
STYLE
  5
10
100
AcDbSymbolTableRecord
100
AcDbTextStyleTableRecord
  2
STANDARD
 70
     0
 40
0.0
 41
1.0
 50
0.0
 71
     0
 42
5.0
  3
MONOTXT
  4
BIGFONT
  0
ENDTAB
  0
TABLE
  2
VIEW
  5
14
100
AcDbSymbolTable
 70
     0
  0
ENDTAB
  0
TABLE
  2
UCS
  5
15
100
AcDbSymbolTable
 70
     0
  0
ENDTAB
  0
TABLE
  2
APPID
  5
18
100
AcDbSymbolTable
 70
     2
  0
APPID
  5
19
100
AcDbSymbolTableRecord
100
AcDbRegAppTableRecord
  2
ACAD
 70
     0
  0
APPID
  5
C59
100
AcDbSymbolTableRecord
100
AcDbRegAppTableRecord
  2
DRAWINGVARIABLESXDATA
 70
     0
  0
ENDTAB
  0
TABLE
  2
DIMSTYLE
  5
1A
100
AcDbSymbolTable
 70
     2
  0
DIMSTYLE
105
21
102
{ACAD_XDICTIONARY
360
22
102
}
102
{ACAD_REACTORS
330
26DB
330
26E5
330
26F2
330
2714
330
272A
330
27E4
102
}
100
AcDbSymbolTableRecord
100
AcDbDimStyleTableRecord
  2
STANDARD
 70
     0
  3

  4

  5

  6
_OPEN30
  7
_OPEN30
 40
0.0
 41
2.0
 42
1.0
 43
8.0
 44
2.0
 45
0.0
 46
0.0
 47
0.0
 48
0.0
140
3.0
141
-1.0
142
0.0
143
25.4
144
1.0
145
0.0
146
1.0
147
1.0
 71
     0
 72
     0
 73
     0
 74
     0
 75
     0
 76
     0
 77
     1
 78
     8
170
     0
171
     2
172
     1
173
     1
174
     0
175
     0
176
     1
177
     1
178
     3
270
     2
271
     2
272
     2
273
     2
274
     2
340
10
275
     0
280
     0
281
     0
282
     0
283
     1
284
     8
285
     0
286
     0
287
     3
288
     0
  0
DIMSTYLE
105
674
100
AcDbSymbolTableRecord
100
AcDbDimStyleTableRecord
  2
参考寸法
 70
     0
  3

  4

  5

  6
_DOTSMALL
  7
_DOTSMALL
 40
1.0
 41
2.0
 42
1.0
 43
8.0
 44
2.0
 45
0.0
 46
0.0
 47
0.0
 48
0.0
140
3.0
141
-1.0
142
0.0
143
25.4
144
1.0
145
0.0
146
1.0
147
1.0
 71
     0
 72
     0
 73
     0
 74
     0
 75
     0
 76
     0
 77
     1
 78
     8
170
     0
171
     2
172
     1
173
     1
174
     0
175
     0
176
     2
177
     2
178
     2
270
     2
271
     3
272
     2
273
     2
274
     2
340
10
275
     0
280
     0
281
     0
282
     0
283
     1
284
     8
285
     0
286
     0
287
     3
288
     0
  0
ENDTAB
  0
TABLE
  2
BLOCK_RECORD
  5
1
100
AcDbSymbolTable
 70
    15
  0
BLOCK_RECORD
  5
2
102
{ACAD_XDICTIONARY
360
3
102
}
100
AcDbSymbolTableRecord
100
AcDbBlockTableRecord
  2
*MODEL_SPACE
  0
BLOCK_RECORD
  5
9
102
{ACAD_XDICTIONARY
360
A
102
}
100
AcDbSymbolTableRecord
100
AcDbBlockTableRecord
  2
*PAPER_SPACE
  0
BLOCK_RECORD
  5
24
100
AcDbSymbolTableRecord
100
AcDbBlockTableRecord
  2
_DOTSMALL
  0
BLOCK_RECORD
  5
470
100
AcDbSymbolTableRecord
100
AcDbBlockTableRecord
  2
_OPEN30
  0
BLOCK_RECORD
  5
26CF
100
AcDbSymbolTableRecord
100
AcDbBlockTableRecord
  2
*D2
  0
BLOCK_RECORD
  5
26DC
100
AcDbSymbolTableRecord
100
AcDbBlockTableRecord
  2
*D3
  0
BLOCK_RECORD
  5
26E6
100
AcDbSymbolTableRecord
100
AcDbBlockTableRecord
  2
*D4
  0
BLOCK_RECORD
  5
2702
100
AcDbSymbolTableRecord
100
AcDbBlockTableRecord
  2
*D6
  0
BLOCK_RECORD
  5
2718
100
AcDbSymbolTableRecord
100
AcDbBlockTableRecord
  2
*D7
  0
BLOCK_RECORD
  5
27D6
100
AcDbSymbolTableRecord
100
AcDbBlockTableRecord
  2
*D14
  0
ENDTAB
  0
ENDSEC
  0
SECTION
  2
BLOCKS
  0
BLOCK
  5
5
100
AcDbEntity
  8
0
100
AcDbBlockBegin
  2
*MODEL_SPACE
 70
     0
 10
0.0
 20
0.0
 30
0.0
  3
*MODEL_SPACE
  1

  0
ENDBLK
  5
8
100
AcDbEntity
  8
0
100
AcDbBlockEnd
  0
BLOCK
  5
C
100
AcDbEntity
 67
     1
  8
0
100
AcDbBlockBegin
  2
*PAPER_SPACE
 70
     0
 10
0.0
 20
0.0
 30
0.0
  3
*PAPER_SPACE
  1

  0
ENDBLK
  5
D
100
AcDbEntity
 67
     1
  8
0
100
AcDbBlockEnd
  0
BLOCK
  5
29
100
AcDbEntity
  8
0
100
AcDbBlockBegin
  2
_DOTSMALL
 70
     0
 10
0.0
 20
0.0
 30
0.0
  3
_DOTSMALL
  1

  0
POLYLINE
  5
25
100
AcDbEntity
  8
0
  6
BYBLOCK
 62
     0
100
AcDb2dPolyline
 66
     1
 10
0.0
 20
0.0
 30
0.0
 70
     1
 40
0.5
 41
0.5
  0
VERTEX
  5
26
100
AcDbEntity
  8
0
  6
BYBLOCK
 62
     0
100
AcDbVertex
100
AcDb2dVertex
 10
-0.0625
 20
0.0
 30
0.0
 42
1.0
  0
VERTEX
  5
27
100
AcDbEntity
  8
0
  6
BYBLOCK
 62
     0
100
AcDbVertex
100
AcDb2dVertex
 10
0.0625
 20
0.0
 30
0.0
 42
1.0
  0
SEQEND
  5
28
100
AcDbEntity
  8
0
  6
BYBLOCK
 62
     0
  0
ENDBLK
  5
2A
100
AcDbEntity
  8
0
100
AcDbBlockEnd
  0
BLOCK
  5
471
100
AcDbEntity
  8
0
100
AcDbBlockBegin
  2
_OPEN30
 70
     0
 10
0.0
 20
0.0
 30
0.0
  3
_OPEN30
  1

  0
LINE
  5
472
100
AcDbEntity
  8
0
  6
BYBLOCK
 62
     0
100
AcDbLine
 10
-1.0
 20
0.267949
 30
0.0
 11
0.0
 21
0.0
 31
0.0
  0
LINE
  5
473
100
AcDbEntity
  8
0
  6
BYBLOCK
 62
     0
100
AcDbLine
 10
0.0
 20
0.0
 30
0.0
 11
-1.0
 21
-0.267949
 31
0.0
  0
LINE
  5
474
100
AcDbEntity
  8
0
  6
BYBLOCK
 62
     0
100
AcDbLine
 10
0.0
 20
0.0
 30
0.0
 11
-1.0
 21
0.0
 31
0.0
  0
ENDBLK
  5
475
100
AcDbEntity
  8
0
100
AcDbBlockEnd
  0
BLOCK
  5
26D0
100
AcDbEntity
  8
0
100
AcDbBlockBegin
  2
*D2
 70
     1
 10
0.0
 20
0.0
 30
0.0
  3
*D2
  1

  0
LINE
  5
26D1
100
AcDbEntity
  8
0
  6
BYBLOCK
 62
     1
100
AcDbLine
 10
103.203374
 20
231.408113
 30
0.0
 11
103.203374
 21
211.509646
 31
0.0
  0
LINE
  5
26D2
100
AcDbEntity
  8
0
  6
BYBLOCK
 62
     1
100
AcDbLine
 10
122.203374
 20
235.767012
 30
0.0
 11
122.203374
 21
211.509646
 31
0.0
  0
LINE
  5
26D3
100
AcDbEntity
  8
0
  6
BYBLOCK
 62
     1
100
AcDbLine
 10
105.203374
 20
213.509646
 30
0.0
 11
120.203374
 21
213.509646
 31
0.0
  0
INSERT
  5
26D4
100
AcDbEntity
  8
0
  6
BYBLOCK
 62
     1
100
AcDbBlockReference
  2
_OPEN30
 10
103.203374
 20
213.509646
 30
0.0
 41
2.0
 42
2.0
 43
2.0
 50
180.0
  0
INSERT
  5
26D5
100
AcDbEntity
  8
0
  6
BYBLOCK
 62
     1
100
AcDbBlockReference
  2
_OPEN30
 10
122.203374
 20
213.509646
 30
0.0
 41
2.0
 42
2.0
 43
2.0
  0
MTEXT
  5
26D6
100
AcDbEntity
  8
0
  6
BYBLOCK
 62
     3
100
AcDbMText
 10
112.703374
 20
216.009646
 30
0.0
 40
3.0
 41
0.0
 71
     5
 72
     1
  1
\A1;19
  0
POINT
  5
26D7
100
AcDbEntity
  8
DEFPOINTS
  6
BYBLOCK
 62
     0
100
AcDbPoint
 10
103.203374
 20
232.408113
 30
0.0
  0
POINT
  5
26D8
100
AcDbEntity
  8
DEFPOINTS
  6
BYBLOCK
 62
     0
100
AcDbPoint
 10
122.203374
 20
236.767012
 30
0.0
  0
POINT
  5
26D9
100
AcDbEntity
  8
DEFPOINTS
  6
BYBLOCK
 62
     0
100
AcDbPoint
 10
122.203374
 20
213.509646
 30
0.0
  0
ENDBLK
  5
26DA
100
AcDbEntity
  8
0
100
AcDbBlockEnd
  0
BLOCK
  5
26DD
100
AcDbEntity
  8
0
100
AcDbBlockBegin
  2
*D3
 70
     1
 10
0.0
 20
0.0
 30
0.0
  3
*D3
  1

  0
LINE
  5
26DE
100
AcDbEntity
  8
0
  6
BYBLOCK
 62
     1
100
AcDbLine
 10
107.438262
 20
230.340994
 30
0.0
 11
116.968486
 21
243.19303
 31
0.0
  0
INSERT
  5
26DF
100
AcDbEntity
  8
0
  6
BYBLOCK
 62
     1
100
AcDbBlockReference
  2
_OPEN30
 10
106.246985
 20
228.734489
 30
0.0
 41
2.0
 42
2.0
 43
2.0
 50
233.441803
  0
INSERT
  5
26E0
100
AcDbEntity
  8
0
  6
BYBLOCK
 62
     1
100
AcDbBlockReference
  2
_OPEN30
 10
118.159764
 20
244.799535
 30
0.0
 41
2.0
 42
2.0
 43
2.0
 50
53.441803
  0
MTEXT
  5
26E1
100
AcDbEntity
  8
0
  6
BYBLOCK
 62
     3
100
AcDbMText
 10
110.195244
 20
238.256109
 30
0.0
 40
3.0
 41
0.0
 71
     5
 72
     1
  1
\A1;\U+220520
 11
0.595639
 21
0.803252
 31
0.0
  0
POINT
  5
26E2
100
AcDbEntity
  8
DEFPOINTS
  6
BYBLOCK
 62
     0
100
AcDbPoint
 10
118.159764
 20
244.799535
 30
0.0
  0
POINT
  5
26E3
100
AcDbEntity
  8
DEFPOINTS
  6
BYBLOCK
 62
     0
100
AcDbPoint
 10
106.246985
 20
228.734489
 30
0.0
  0
ENDBLK
  5
26E4
100
AcDbEntity
  8
0
100
AcDbBlockEnd
  0
BLOCK
  5
26E7
100
AcDbEntity
  8
0
100
AcDbBlockBegin
  2
*D4
 70
     1
 10
0.0
 20
0.0
 30
0.0
  3
*D4
  1

  0
LINE
  5
26E8
100
AcDbEntity
  8
0
  6
BYBLOCK
 62
     1
100
AcDbLine
 10
38.733916
 20
225.267012
 30
0.0
 11
38.733916
 21
199.55117
 31
0.0
  0
LINE
  5
26E9
100
AcDbEntity
  8
0
  6
BYBLOCK
 62
     1
100
AcDbLine
 10
198.733916
 20
227.267012
 30
0.0
 11
198.733916
 21
199.55117
 31
0.0
  0
LINE
  5
26EA
100
AcDbEntity
  8
0
  6
BYBLOCK
 62
     1
100
AcDbLine
 10
40.733916
 20
201.55117
 30
0.0
 11
196.733916
 21
201.55117
 31
0.0
  0
INSERT
  5
26EB
100
AcDbEntity
  8
0
  6
BYBLOCK
 62
     1
100
AcDbBlockReference
  2
_OPEN30
 10
38.733916
 20
201.55117
 30
0.0
 41
2.0
 42
2.0
 43
2.0
 50
180.0
  0
INSERT
  5
26EC
100
AcDbEntity
  8
0
  6
BYBLOCK
 62
     1
100
AcDbBlockReference
  2
_OPEN30
 10
198.733916
 20
201.55117
 30
0.0
 41
2.0
 42
2.0
 43
2.0
  0
MTEXT
  5
26ED
100
AcDbEntity
  8
0
  6
BYBLOCK
 62
     3
100
AcDbMText
 10
118.733916
 20
204.05117
 30
0.0
 40
3.0
 41
0.0
 71
     5
 72
     1
  1
\A1;160
  0
POINT
  5
26EE
100
AcDbEntity
  8
DEFPOINTS
  6
BYBLOCK
 62
     0
100
AcDbPoint
 10
38.733916
 20
226.267012
 30
0.0
  0
POINT
  5
26EF
100
AcDbEntity
  8
DEFPOINTS
  6
BYBLOCK
 62
     0
100
AcDbPoint
 10
198.733916
 20
228.267012
 30
0.0
  0
POINT
  5
26F0
100
AcDbEntity
  8
DEFPOINTS
  6
BYBLOCK
 62
     0
100
AcDbPoint
 10
198.733916
 20
201.55117
 30
0.0
  0
ENDBLK
  5
26F1
100
AcDbEntity
  8
0
100
AcDbBlockEnd
  0
BLOCK
  5
2703
100
AcDbEntity
  8
0
100
AcDbBlockBegin
  2
*D6
 70
     1
 10
0.0
 20
0.0
 30
0.0
  3
*D6
  1

  0
LINE
  5
2704
100
AcDbEntity
  8
0
  6
BYBLOCK
 62
     1
100
AcDbLine
 10
39.116658
 20
230.858449
 30
0.0
 11
41.76688
 21
261.15062
 31
0.0
  0
LINE
  5
2705
100
AcDbEntity
  8
0
  6
BYBLOCK
 62
     1
100
AcDbLine
 10
38.733916
 20
227.483682
 30
0.0
 11
38.733916
 21
261.283042
 31
0.0
  0
ARC
  5
2706
100
AcDbEntity
  8
0
  6
BYBLOCK
 62
     1
100
AcDbCircle
 10
38.733916
 20
226.483682
 30
0.0
 40
32.79936
100
AcDbArc
 50
78.008236
 51
85.0
  0
LINE
  5
2707
100
AcDbEntity
  8
0
  6
BYBLOCK
 62
     1
100
AcDbLine
 10
45.548674
 20
258.567278
 30
0.0
 11
53.961001
 21
256.780446
 31
0.0
  0
ARC
  5
2708
100
AcDbEntity
  8
0
  6
BYBLOCK
 62
     1
100
AcDbCircle
 10
38.733916
 20
226.483682
 30
0.0
 40
32.79936
100
AcDbArc
 50
78.011491
 51
81.505745
  0
ARC
  5
2709
100
AcDbEntity
  8
0
  6
BYBLOCK
 62
     1
100
AcDbCircle
 10
38.733916
 20
226.483682
 30
0.0
 40
32.79936
100
AcDbArc
 50
93.494255
 51
96.988509
  0
ARC
  5
270A
100
AcDbEntity
  8
0
  6
BYBLOCK
 62
     1
100
AcDbCircle
 10
38.733916
 20
226.483682
 30
0.0
 40
32.79936
100
AcDbArc
 50
85.0
 51
90.0
  0
INSERT
  5
270B
100
AcDbEntity
  8
0
  6
BYBLOCK
 62
     1
100
AcDbBlockReference
  2
_OPEN30
 10
41.592568
 20
259.158231
 30
0.0
 41
2.0
 42
2.0
 43
2.0
 50
173.252873
  0
INSERT
  5
270C
100
AcDbEntity
  8
0
  6
BYBLOCK
 62
     1
100
AcDbBlockReference
  2
_OPEN30
 10
38.733916
 20
259.283042
 30
0.0
 41
2.0
 42
2.0
 43
2.0
 50
1.747127
  0
MTEXT
  5
270D
100
AcDbEntity
  8
0
  6
BYBLOCK
 62
     3
100
AcDbMText
 10
50.274265
 20
260.119306
 30
0.0
 40
3.0
 41
0.0
 71
     5
 72
     1
  1
\A1;5°
 11
0.978177
 21
-0.207771
 31
0.0
  0
POINT
  5
270E
100
AcDbEntity
  8
DEFPOINTS
  6
BYBLOCK
 62
     0
100
AcDbPoint
 10
39.687876
 20
259.269167
 30
0.0
  0
POINT
  5
270F
100
AcDbEntity
  8
DEFPOINTS
  6
BYBLOCK
 62
     0
100
AcDbPoint
 10
38.733916
 20
226.483682
 30
0.0
  0
POINT
  5
2710
100
AcDbEntity
  8
DEFPOINTS
  6
BYBLOCK
 62
     0
100
AcDbPoint
 10
38.733916
 20
226.267012
 30
0.0
  0
POINT
  5
2711
100
AcDbEntity
  8
DEFPOINTS
  6
BYBLOCK
 62
     0
100
AcDbPoint
 10
38.733916
 20
226.483682
 30
0.0
  0
POINT
  5
2712
100
AcDbEntity
  8
DEFPOINTS
  6
BYBLOCK
 62
     0
100
AcDbPoint
 10
39.029503
 20
229.862254
 30
0.0
  0
ENDBLK
  5
2713
100
AcDbEntity
  8
0
100
AcDbBlockEnd
  0
BLOCK
  5
2719
100
AcDbEntity
  8
0
100
AcDbBlockBegin
  2
*D7
 70
     1
 10
0.0
 20
0.0
 30
0.0
  3
*D7
  1

  0
LINE
  5
271A
100
AcDbEntity
  8
0
  6
BYBLOCK
 62
     1
100
AcDbLine
 10
-0.949794
 20
225.337313
 30
0.0
 11
-2.827014
 21
203.880588
 31
0.0
  0
LINE
  5
271B
100
AcDbEntity
  8
0
  6
BYBLOCK
 62
     1
100
AcDbLine
 10
-0.862638
 20
222.174507
 30
0.0
 11
-0.862638
 21
203.794821
 31
0.0
  0
ARC
  5
271C
100
AcDbEntity
  8
0
  6
BYBLOCK
 62
     1
100
AcDbCircle
 10
-0.862638
 20
226.333508
 30
0.0
 40
20.538687
100
AcDbArc
 50
253.823683
 51
265.0
  0
LINE
  5
271D
100
AcDbEntity
  8
0
  6
BYBLOCK
 62
     1
100
AcDbLine
 10
-6.584596
 20
206.60797
 30
0.0
 11
-14.844113
 21
209.003879
 31
0.0
  0
ARC
  5
271E
100
AcDbEntity
  8
0
  6
BYBLOCK
 62
     1
100
AcDbCircle
 10
-0.862638
 20
226.333508
 30
0.0
 40
20.538687
100
AcDbArc
 50
253.83698
 51
259.41849
  0
ARC
  5
271F
100
AcDbEntity
  8
0
  6
BYBLOCK
 62
     1
100
AcDbCircle
 10
-0.862638
 20
226.333508
 30
0.0
 40
20.538687
100
AcDbArc
 50
275.58151
 51
281.16302
  0
ARC
  5
2720
100
AcDbEntity
  8
0
  6
BYBLOCK
 62
     1
100
AcDbCircle
 10
-0.862638
 20
226.333508
 30
0.0
 40
20.538687
100
AcDbArc
 50
265.0
 51
270.0
  0
INSERT
  5
2721
100
AcDbEntity
  8
0
  6
BYBLOCK
 62
     1
100
AcDbBlockReference
  2
_OPEN30
 10
-2.652702
 20
205.872977
 30
0.0
 41
2.0
 42
2.0
 43
2.0
 50
352.209245
  0
INSERT
  5
2722
100
AcDbEntity
  8
0
  6
BYBLOCK
 62
     1
100
AcDbBlockReference
  2
_OPEN30
 10
-0.862638
 20
205.794821
 30
0.0
 41
2.0
 42
2.0
 43
2.0
 50
182.790755
  0
MTEXT
  5
2723
100
AcDbEntity
  8
0
  6
BYBLOCK
 62
     3
100
AcDbMText
 10
-10.017869
 20
210.206947
 30
0.0
 40
3.0
 41
0.0
 71
     5
 72
     1
  1
\A1;5°
 11
0.960409
 21
-0.278594
 31
0.0
  0
POINT
  5
2724
100
AcDbEntity
  8
DEFPOINTS
  6
BYBLOCK
 62
     0
100
AcDbPoint
 10
-1.46
 20
205.80351
 30
0.0
  0
POINT
  5
2725
100
AcDbEntity
  8
DEFPOINTS
  6
BYBLOCK
 62
     0
100
AcDbPoint
 10
0.91284
 20
246.627316
 30
0.0
  0
POINT
  5
2726
100
AcDbEntity
  8
DEFPOINTS
  6
BYBLOCK
 62
     0
100
AcDbPoint
 10
-0.862638
 20
249.682843
 30
0.0
  0
POINT
  5
2727
100
AcDbEntity
  8
DEFPOINTS
  6
BYBLOCK
 62
     0
100
AcDbPoint
 10
-0.862638
 20
223.174507
 30
0.0
  0
POINT
  5
2728
100
AcDbEntity
  8
DEFPOINTS
  6
BYBLOCK
 62
     0
100
AcDbPoint
 10
-0.862638
 20
226.333508
 30
0.0
  0
ENDBLK
  5
2729
100
AcDbEntity
  8
0
100
AcDbBlockEnd
  0
BLOCK
  5
27D7
100
AcDbEntity
  8
0
100
AcDbBlockBegin
  2
*D14
 70
     1
 10
0.0
 20
0.0
 30
0.0
  3
*D14
  1

  0
LINE
  5
27D8
100
AcDbEntity
  8
0
  6
BYBLOCK
 62
     1
100
AcDbLine
 10
36.300093
 20
236.767012
 30
0.0
 11
27.415287
 21
236.767012
 31
0.0
  0
LINE
  5
27D9
100
AcDbEntity
  8
0
  6
BYBLOCK
 62
     1
100
AcDbLine
 10
37.733916
 20
226.267012
 30
0.0
 11
27.415287
 21
226.267012
 31
0.0
  0
LINE
  5
27DA
100
AcDbEntity
  8
0
  6
BYBLOCK
 62
     1
100
AcDbLine
 10
29.415287
 20
238.767012
 30
0.0
 11
29.415287
 21
240.767012
 31
0.0
  0
LINE
  5
27DB
100
AcDbEntity
  8
0
  6
BYBLOCK
 62
     1
100
AcDbLine
 10
29.415287
 20
224.267012
 30
0.0
 11
29.415287
 21
209.267012
 31
0.0
  0
LINE
  5
27DC
100
AcDbEntity
  8
0
  6
BYBLOCK
 62
     1
100
AcDbLine
 10
29.415287
 20
236.767012
 30
0.0
 11
29.415287
 21
226.267012
 31
0.0
  0
INSERT
  5
27DD
100
AcDbEntity
  8
0
  6
BYBLOCK
 62
     1
100
AcDbBlockReference
  2
_OPEN30
 10
29.415287
 20
236.767012
 30
0.0
 41
2.0
 42
2.0
 43
2.0
 50
270.0
  0
INSERT
  5
27DE
100
AcDbEntity
  8
0
  6
BYBLOCK
 62
     1
100
AcDbBlockReference
  2
_OPEN30
 10
29.415287
 20
226.267012
 30
0.0
 41
2.0
 42
2.0
 43
2.0
 50
90.0
  0
MTEXT
  5
27DF
100
AcDbEntity
  8
0
  6
BYBLOCK
 62
     3
100
AcDbMText
 10
26.915287
 20
215.767012
 30
0.0
 40
3.0
 41
0.0
 71
     5
 72
     1
  1
\A1;10.5
 11
0.0
 21
1.0
 31
0.0
  0
POINT
  5
27E0
100
AcDbEntity
  8
DEFPOINTS
  6
BYBLOCK
 62
     0
100
AcDbPoint
 10
37.300093
 20
236.767012
 30
0.0
  0
POINT
  5
27E1
100
AcDbEntity
  8
DEFPOINTS
  6
BYBLOCK
 62
     0
100
AcDbPoint
 10
38.733916
 20
226.267012
 30
0.0
  0
POINT
  5
27E2
100
AcDbEntity
  8
DEFPOINTS
  6
BYBLOCK
 62
     0
100
AcDbPoint
 10
29.415287
 20
226.267012
 30
0.0
  0
ENDBLK
  5
27E3
100
AcDbEntity
  8
0
100
AcDbBlockEnd
  0
ENDSEC
  0
SECTION
  2
ENTITIES
  0
TEXT
  5
1453
100
AcDbEntity
  8
外形
  6
CONTINUOUS
 62
     2
100
AcDbText
 10
94.790271
 20
150.213866
 30
0.0
 40
6.0
  1
BNZ620R
100
AcDbText
  0
LINE
  5
1A71
100
AcDbEntity
  8
外形
  6
CENTER
 62
     1
100
AcDbLine
 10
37.835878
 20
177.47508
 30
0.0
 11
207.26926
 21
177.47508
 31
0.0
  0
LINE
  5
1A7E
100
AcDbEntity
  8
外形
  6
CONTINUOUS
100
AcDbLine
 10
41.962233
 20
176.011078
 30
0.0
 11
42.834985
 21
176.246302
 31
0.0
  0
LINE
  5
1A82
100
AcDbEntity
  8
外形
  6
CONTINUOUS
100
AcDbLine
 10
41.962233
 20
176.996178
 30
0.0
 11
38.791957
 21
176.996178
 31
0.0
  0
LINE
  5
1A83
100
AcDbEntity
  8
外形
  6
CONTINUOUS
100
AcDbLine
 10
38.85044
 20
176.519869
 30
0.0
 11
41.962233
 21
176.519869
 31
0.0
  0
LINE
  5
1A84
100
AcDbEntity
  8
外形
  6
CONTINUOUS
100
AcDbLine
 10
41.962233
 20
177.47508
 30
0.0
 11
41.962233
 21
176.011078
 31
0.0
  0
LINE
  5
1A85
100
AcDbEntity
  8
外形
  6
CONTINUOUS
100
AcDbLine
 10
39.202233
 20
176.011078
 30
0.0
 11
39.202233
 21
167.47508
 31
0.0
  0
LINE
  5
1A87
100
AcDbEntity
  8
外形
  6
CONTINUOUS
100
AcDbLine
 10
41.962233
 20
176.011078
 30
0.0
 11
38.912912
 21
176.011078
 31
0.0
  0
LINE
  5
1A8C
100
AcDbEntity
  8
外形
  6
CONTINUOUS
100
AcDbLine
 10
41.962233
 20
177.47508
 30
0.0
 11
38.733155
 21
177.47508
 31
0.0
  0
LINE
  5
1A8D
100
AcDbEntity
  8
外形
  6
CONTINUOUS
100
AcDbLine
 10
38.912912
 20
176.011078
 30
0.0
 11
38.733916
 21
177.468882
 31
0.0
  0
LINE
  5
1A96
100
AcDbEntity
  8
外形
  6
CENTER
 62
     1
100
AcDbLine
 10
37.300093
 20
236.767012
 30
0.0
 11
208.303215
 21
236.767012
 31
0.0
  0
LINE
  5
1A9D
100
AcDbEntity
  8
外形
  6
CENTER
 62
     1
100
AcDbLine
 10
-0.862638
 20
249.682843
 30
0.0
 11
-0.862638
 21
223.174507
 31
0.0
  0
LINE
  5
1AA5
100
AcDbEntity
  8
外形
  6
CONTINUOUS
100
AcDbLine
 10
-1.103877
 20
229.312985
 30
0.0
 11
-1.355385
 21
226.438245
 31
0.0
  0
LINE
  5
1AA6
100
AcDbEntity
  8
外形
  6
CONTINUOUS
100
AcDbLine
 10
-2.429572
 20
226.66657
 30
0.0
 11
-0.862638
 21
226.333508
 31
0.0
  0
LINE
  5
1AA7
100
AcDbEntity
  8
外形
  6
CONTINUOUS
100
AcDbLine
 10
-1.601975
 20
229.356563
 30
0.0
 11
-0.60578
 21
229.269407
 31
0.0
  0
LINE
  5
1AA8
100
AcDbEntity
  8
外形
  6
CONTINUOUS
100
AcDbLine
 10
-1.601975
 20
229.356563
 30
0.0
 11
-1.848131
 21
226.542981
 31
0.0
  0
HATCH
  5
1AAA
100
AcDbEntity
  8
外形
  6
CONTINUOUS
100
AcDbHatch
 10
0.0
 20
0.0
 30
0.0
210
0.0
220
0.0
230
1.0
  2
ANSI31
 70
     0
 71
     0
 91
        2
 92
        7
 72
     0
 73
     1
 93
        5
 10
-0.6057799721561424
 20
229.2694072467223
 10
-1.10387732120202
 20
229.3129851180962
 10
-1.18717014112174
 20
228.3609438299696
 10
-0.8661749600111647
 20
226.3342600190295
 10
-0.8626378573439836
 20
226.3335081846483
 97
        0
 92
       22
 72
     0
 73
     1
 93
        3
 10
-1.187170141121718
 20
228.3609438299696
 10
-1.355384516588131
 20
226.4382447203119
 10
-0.8661749600112074
 20
226.3342600190296
 97
        0
 75
     0
 76
     1
 52
9.0
 41
3.0
 77
     0
 78
     1
 53
54.0
 43
-8.390341
 44
164.496618
 45
-0.303381372890605
 46
0.2204194696096779
 79
     0
 47
0.01469
 98
        2
 10
-0.900606
 20
228.309943
 10
-1.139438
 20
227.186357
  0
LINE
  5
1AAB
100
AcDbEntity
  8
外形
  6
CONTINUOUS
100
AcDbLine
 10
-1.906223
 20
232.648475
 30
0.0
 11
-2.429572
 21
226.66657
 31
0.0
  0
LINE
  5
1AAC
100
AcDbEntity
  8
外形
  6
CONTINUOUS
100
AcDbLine
 10
0.91284
 20
246.627316
 30
0.0
 11
-0.862638
 21
226.333508
 31
0.0
  0
LINE
  5
1AAD
100
AcDbEntity
  8
外形
  6
CONTINUOUS
100
AcDbLine
 10
-2.111652
 20
230.25923
 30
0.0
 11
-0.538089
 21
229.924759
 31
0.0
  0
LINE
  5
1AAE
100
AcDbEntity
  8
外形
  6
CONTINUOUS
100
AcDbLine
 10
-1.906223
 20
232.648475
 30
0.0
 11
-0.305259
 21
232.704382
 31
0.0
  0
LINE
  5
1ABC
100
AcDbEntity
  8
外形
  6
CENTER
 62
     1
100
AcDbLine
 10
40.05333
 20
229.495329
 30
0.0
 11
46.277742
 21
229.495329
 31
0.0
  0
ARC
  5
1ABD
100
AcDbEntity
  8
外形
  6
CONTINUOUS
100
AcDbCircle
 10
44.562233
 20
229.495329
 30
0.0
 40
1.0
100
AcDbArc
 50
257.787333
 51
102.212667
  0
LINE
  5
1ABE
100
AcDbEntity
  8
外形
  6
CONTINUOUS
100
AcDbLine
 10
45.18664
 20
229.636751
 30
0.0
 11
42.103654
 21
232.719736
 31
0.0
  0
LINE
  5
1ABF
100
AcDbEntity
  8
外形
  6
CONTINUOUS
100
AcDbLine
 10
45.18664
 20
229.353908
 30
0.0
 11
42.453149
 21
226.620416
 31
0.0
  0
LINE
  5
1AC6
100
AcDbEntity
  8
外形
  6
CENTER
 62
     1
100
AcDbLine
 10
41.962233
 20
232.767012
 30
0.0
 11
41.962233
 21
226.767012
 31
0.0
  0
LINE
  5
1AC7
100
AcDbEntity
  8
外形
  6
CENTER
 62
     1
100
AcDbLine
 10
44.562233
 20
232.767012
 30
0.0
 11
44.562233
 21
226.767012
 31
0.0
  0
LINE
  5
1AC9
100
AcDbEntity
  8
外形
  6
CONTINUOUS
100
AcDbLine
 10
41.820812
 20
232.719736
 30
0.0
 11
39.08732
 21
229.986245
 31
0.0
  0
LINE
  5
1ACA
100
AcDbEntity
  8
外形
  6
CONTINUOUS
100
AcDbLine
 10
38.733916
 20
226.483682
 30
0.0
 11
39.029503
 21
229.862254
 31
0.0
  0
ARC
  5
1ACB
100
AcDbEntity
  8
外形
  6
CONTINUOUS
100
AcDbCircle
 10
41.962233
 20
232.578315
 30
0.0
 40
0.2
100
AcDbArc
 50
45.0
 51
135.0
  0
LINE
  5
1ACD
100
AcDbEntity
  8
外形
  6
CONTINUOUS
100
AcDbLine
 10
41.593497
 20
226.498237
 30
0.0
 11
38.965141
 21
229.126593
 31
0.0
  0
ARC
  5
1ACE
100
AcDbEntity
  8
外形
  6
CONTINUOUS
100
AcDbCircle
 10
42.311727
 20
226.761838
 30
0.0
 40
0.2
100
AcDbArc
 50
275.0
 51
315.0
  0
ARC
  5
1ACF
100
AcDbEntity
  8
外形
  6
CONTINUOUS
100
AcDbCircle
 10
39.228742
 20
229.844823
 30
0.0
 40
0.2
100
AcDbArc
 50
135.0
 51
175.0
  0
CIRCLE
  5
1AD0
100
AcDbEntity
  8
外形
  6
CONTINUOUS
100
AcDbCircle
 10
41.962233
 20
229.495329
 30
0.0
 40
1.35
  0
LINE
  5
1AD1
100
AcDbEntity
  8
外形
  6
CONTINUOUS
100
AcDbLine
 10
42.471113
 20
229.674652
 30
0.0
 11
42.778191
 21
229.495329
 31
0.0
  0
LINE
  5
1AD2
100
AcDbEntity
  8
外形
  6
CONTINUOUS
100
AcDbLine
 10
42.778191
 20
229.495329
 30
0.0
 11
42.471113
 21
229.316006
 31
0.0
  0
LINE
  5
1AD3
100
AcDbEntity
  8
外形
  6
CONTINUOUS
100
AcDbLine
 10
42.061375
 20
230.025694
 30
0.0
 11
42.370212
 21
230.201969
 31
0.0
  0
LINE
  5
1AD4
100
AcDbEntity
  8
外形
  6
CONTINUOUS
100
AcDbLine
 10
42.370212
 20
230.201969
 30
0.0
 11
42.371971
 21
229.846371
 31
0.0
  0
LINE
  5
1AD5
100
AcDbEntity
  8
外形
  6
CONTINUOUS
100
AcDbLine
 10
41.552495
 20
229.846371
 30
0.0
 11
41.554254
 21
230.201969
 31
0.0
  0
LINE
  5
1AD6
100
AcDbEntity
  8
外形
  6
CONTINUOUS
100
AcDbLine
 10
41.554254
 20
230.201969
 30
0.0
 11
41.863091
 21
230.025694
 31
0.0
  0
LINE
  5
1AD7
100
AcDbEntity
  8
外形
  6
CONTINUOUS
100
AcDbLine
 10
41.453353
 20
229.316006
 30
0.0
 11
41.146276
 21
229.495329
 31
0.0
  0
LINE
  5
1AD8
100
AcDbEntity
  8
外形
  6
CONTINUOUS
100
AcDbLine
 10
41.146276
 20
229.495329
 30
0.0
 11
41.453353
 21
229.674652
 31
0.0
  0
LINE
  5
1AD9
100
AcDbEntity
  8
外形
  6
CONTINUOUS
100
AcDbLine
 10
41.863091
 20
228.964965
 30
0.0
 11
41.554254
 21
228.788689
 31
0.0
  0
LINE
  5
1ADA
100
AcDbEntity
  8
外形
  6
CONTINUOUS
100
AcDbLine
 10
41.554254
 20
228.788689
 30
0.0
 11
41.552495
 21
229.144288
 31
0.0
  0
LINE
  5
1ADB
100
AcDbEntity
  8
外形
  6
CONTINUOUS
100
AcDbLine
 10
42.371971
 20
229.144288
 30
0.0
 11
42.370212
 21
228.788689
 31
0.0
  0
LINE
  5
1ADC
100
AcDbEntity
  8
外形
  6
CONTINUOUS
100
AcDbLine
 10
42.370212
 20
228.788689
 30
0.0
 11
42.061375
 21
228.964965
 31
0.0
  0
ARC
  5
1ADD
100
AcDbEntity
  8
外形
  6
CONTINUOUS
100
AcDbCircle
 10
42.571969
 20
229.84736
 30
0.0
 40
0.2
100
AcDbArc
 50
180.283476
 51
239.716524
  0
ARC
  5
1ADE
100
AcDbEntity
  8
外形
  6
CONTINUOUS
100
AcDbCircle
 10
42.571969
 20
229.143298
 30
0.0
 40
0.2
100
AcDbArc
 50
120.283476
 51
179.716524
  0
ARC
  5
1ADF
100
AcDbEntity
  8
外形
  6
CONTINUOUS
100
AcDbCircle
 10
41.962233
 20
228.791267
 30
0.0
 40
0.2
100
AcDbArc
 50
60.283476
 51
119.716524
  0
ARC
  5
1AE0
100
AcDbEntity
  8
外形
  6
CONTINUOUS
100
AcDbCircle
 10
41.352497
 20
229.143298
 30
0.0
 40
0.2
100
AcDbArc
 50
0.283476
 51
59.716524
  0
ARC
  5
1AE1
100
AcDbEntity
  8
外形
  6
CONTINUOUS
100
AcDbCircle
 10
41.352497
 20
229.84736
 30
0.0
 40
0.2
100
AcDbArc
 50
300.283476
 51
359.716524
  0
ARC
  5
1AE2
100
AcDbEntity
  8
外形
  6
CONTINUOUS
100
AcDbCircle
 10
41.962233
 20
230.199391
 30
0.0
 40
0.2
100
AcDbArc
 50
240.283476
 51
299.716524
  0
LINE
  5
1AE4
100
AcDbEntity
  8
外形
  6
CONTINUOUS
100
AcDbLine
 10
38.950586
 20
226.267012
 30
0.0
 11
42.329158
 21
226.562599
 31
0.0
  0
ARC
  5
1AE5
100
AcDbEntity
  8
外形
  6
CONTINUOUS
100
AcDbCircle
 10
38.933155
 20
226.466251
 30
0.0
 40
0.2
100
AcDbArc
 50
175.0
 51
275.0
  0
HATCH
  5
1AE7
100
AcDbEntity
  8
外形
  6
CONTINUOUS
100
AcDbHatch
 10
0.0
 20
0.0
 30
0.0
210
0.0
220
0.0
230
1.0
  2
ANSI31
 70
     0
 71
     0
 91
        1
 92
        7
 72
     1
 73
     1
 93
        6
 10
38.73391587633716
 20
226.4836821076041
 42
0.0
 10
38.73391587633716
 20
226.4488198105055
 42
0.3639702342663125
 10
38.91572366740571
 20
226.2670120194363
 42
0.0
 10
38.95058596450519
 20
226.2670120194363
 42
0.0
 10
41.59349721780595
 20
226.4982367928052
 42
0.0
 10
38.96514064970608
 20
229.126593360905
 42
0.0
 97
        0
 75
     0
 76
     1
 52
0.0
 41
3.0
 77
     0
 78
     1
 53
45.0
 43
12.941978
 44
166.369038
 45
-0.2651650429449553
 46
0.2651650429449553
 79
     0
 47
0.014389
 98
        1
 10
39.332099
 20
227.530404
  0
ARC
  5
1AE9
100
AcDbEntity
  8
外形
  6
CONTINUOUS
100
AcDbCircle
 10
45.045219
 20
229.495329
 30
0.0
 40
0.2
100
AcDbArc
 50
315.0
 51
45.0
  0
LINE
  5
1AF8
100
AcDbEntity
  8
外形
  6
CENTER
 62
     1
100
AcDbLine
 10
112.203374
 20
222.60479
 30
0.0
 11
112.203374
 21
250.072262
 31
0.0
  0
LINE
  5
1C0F
100
AcDbEntity
  8
外形
  6
CONTINUOUS
100
AcDbLine
 10
38.733916
 20
177.808184
 30
0.0
 11
38.733916
 21
177.468882
 31
0.0
  0
LINE
  5
1D5A
100
AcDbEntity
  8
寸法
  6
CONTINUOUS
100
AcDbLine
 10
38.733916
 20
226.267012
 30
0.0
 11
16.699857
 21
226.267012
 31
0.0
  0
LINE
  5
1F8D
100
AcDbEntity
  8
外形
  6
CONTINUOUS
100
AcDbLine
 10
39.704515
 20
230.603439
 30
0.0
 11
49.036558
 21
246.767012
 31
0.0
  0
LINE
  5
1F9D
100
AcDbEntity
  8
外形
  6
CENTER
 62
     1
100
AcDbLine
 10
-12.427197
 20
236.767012
 30
0.0
 11
11.165744
 21
236.767012
 31
0.0
  0
LINE
  5
22FF
100
AcDbEntity
  8
外形
  6
CONTINUOUS
100
AcDbLine
 10
41.962233
 20
178.143562
 30
0.0
 11
38.733916
 21
177.808184
 31
0.0
  0
LINE
  5
2300
100
AcDbEntity
  8
外形
  6
CONTINUOUS
100
AcDbLine
 10
38.733916
 20
177.808184
 30
0.0
 11
41.962233
 21
177.47508
 31
0.0
  0
LINE
  5
2302
100
AcDbEntity
  8
外形
  6
CONTINUOUS
100
AcDbLine
 10
41.962233
 20
177.47508
 30
0.0
 11
45.245219
 21
177.808184
 31
0.0
  0
LINE
  5
2303
100
AcDbEntity
  8
外形
  6
CONTINUOUS
100
AcDbLine
 10
45.245219
 20
177.808184
 30
0.0
 11
41.962233
 21
178.143562
 31
0.0
  0
ELLIPSE
  5
2309
100
AcDbEntity
  8
外形
  6
CONTINUOUS
100
AcDbEllipse
 10
41.962233
 20
177.808184
 30
0.0
 11
1.349999969999899
 21
0.0
 31
0.0
210
0.0
220
0.0
230
1.0
 40
0.104528
 41
0.0
 42
6.283185307179586
  0
LINE
  5
230F
100
AcDbEntity
  8
外形
  6
CONTINUOUS
100
AcDbLine
 10
42.370212
 20
177.673669
 30
0.0
 11
42.778191
 21
177.920605
 31
0.0
  0
LINE
  5
2310
100
AcDbEntity
  8
外形
  6
CONTINUOUS
100
AcDbLine
 10
41.962233
 20
177.949298
 30
0.0
 11
42.370212
 21
177.673669
 31
0.0
  0
LINE
  5
2311
100
AcDbEntity
  8
外形
  6
CONTINUOUS
100
AcDbLine
 10
41.554254
 20
177.673669
 30
0.0
 11
41.146276
 21
177.920605
 31
0.0
  0
LINE
  5
2312
100
AcDbEntity
  8
外形
  6
CONTINUOUS
100
AcDbLine
 10
41.962233
 20
177.949298
 30
0.0
 11
41.554254
 21
177.673669
 31
0.0
  0
LINE
  5
2313
100
AcDbEntity
  8
外形
  6
CONTINUOUS
100
AcDbLine
 10
41.554254
 20
177.673669
 30
0.0
 11
40.612233
 21
177.808184
 31
0.0
  0
LINE
  5
2314
100
AcDbEntity
  8
外形
  6
CONTINUOUS
100
AcDbLine
 10
42.370212
 20
177.673669
 30
0.0
 11
43.312233
 21
177.808184
 31
0.0
  0
HATCH
  5
2327
100
AcDbEntity
  8
外形
  6
CONTINUOUS
100
AcDbHatch
 10
0.0
 20
0.0
 30
0.0
210
0.0
220
0.0
230
1.0
  2
ANSI31
 70
     0
 71
     0
 91
        2
 92
        7
 72
     0
 73
     1
 93
        4
 10
39.70451450265034
 20
177.4750804341258
 10
39.70451450265034
 20
177.7080360948286
 10
38.73391587633715
 20
177.808184291881
 10
38.73391587633715
 20
177.4750804341258
 97
        0
 92
        7
 72
     0
 73
     1
 93
        3
 10
41.96223307297959
 20
177.4750804341258
 10
39.70451450265034
 20
177.7080360948287
 10
39.70451450265034
 20
177.4750804341258
 97
        0
 75
     0
 76
     1
 52
0.0
 41
3.0
 77
     0
 78
     1
 53
45.0
 43
40.538005
 44
146.919615
 45
-0.2651650429449553
 46
0.2651650429449553
 79
     0
 47
0.01522
 98
        2
 10
39.264058
 20
177.585974
 10
40.071441
 20
177.555534
  0
HATCH
  5
2338
100
AcDbEntity
  8
外形
  6
CONTINUOUS
100
AcDbHatch
 10
0.0
 20
0.0
 30
0.0
210
0.0
220
0.0
230
1.0
  2
ANSI37
 70
     0
 71
     0
 91
        2
 92
        7
 72
     0
 73
     1
 93
        4
 10
41.96223307297998
 20
176.9961783903348
 10
41.96223307297998
 20
177.4750804341258
 10
39.70451450265034
 20
177.4750804341258
 10
39.70451450265034
 20
176.9961783903348
 97
        0
 92
        7
 72
     0
 73
     1
 93
        5
 10
39.70451450265034
 20
176.9961783903348
 10
39.70451450265034
 20
177.4750804341258
 10
38.73391587633715
 20
177.4750804341258
 10
38.73391587633715
 20
177.4688820947254
 10
38.79195659311791
 20
176.9961783903348
 97
        0
 75
     0
 76
     1
 52
0.0
 41
3.0
 77
     0
 78
     2
 53
45.0
 43
40.538005
 44
146.919615
 45
-0.2651650429449553
 46
0.2651650429449553
 79
     0
 53
135.0
 43
40.538005
 44
146.919615
 45
-0.2651650429449553
 46
-0.2651650429449553
 79
     0
 47
0.01522
 98
        2
 10
40.071441
 20
177.159812
 10
39.385927
 20
177.159812
  0
LINE
  5
2651
100
AcDbEntity
  8
外形
  6
CONTINUOUS
100
AcDbLine
 10
49.036558
 20
246.767012
 30
0.0
 11
98.835307
 21
246.767012
 31
0.0
  0
LINE
  5
2652
100
AcDbEntity
  8
外形
  6
CONTINUOUS
100
AcDbLine
 10
42.599744
 20
226.767012
 30
0.0
 11
98.835307
 21
226.767012
 31
0.0
  0
ARC
  5
2656
100
AcDbEntity
  8
外形
  6
CONTINUOUS
100
AcDbCircle
 10
-0.862638
 20
236.767012
 30
0.0
 40
10.0
100
AcDbArc
 50
25.841933
 51
261.097087
  0
LINE
  5
2658
100
AcDbEntity
  8
外形
  6
CONTINUOUS
100
AcDbLine
 10
8.137362
 20
241.125911
 30
0.0
 11
8.137362
 21
232.408113
 31
0.0
  0
LINE
  5
2659
100
AcDbEntity
  8
外形
  6
CONTINUOUS
100
AcDbLine
 10
52.733916
 20
241.125911
 30
0.0
 11
98.835307
 21
241.125911
 31
0.0
  0
LINE
  5
265A
100
AcDbEntity
  8
外形
  6
CONTINUOUS
100
AcDbLine
 10
52.733916
 20
232.408113
 30
0.0
 11
98.835307
 21
232.408113
 31
0.0
  0
SPLINE
  5
2685
100
AcDbEntity
  8
外形
  6
CONTINUOUS
100
AcDbSpline
210
0.0
220
0.0
230
1.0
 70
     8
 71
     3
 72
    11
 73
     7
 74
     5
 42
0.0000001
 43
0.0000001
 44
0.0000000001
 40
0.0
 40
0.0
 40
0.0
 40
0.0
 40
5.732124438803798
 40
9.099720131214771
 40
10.7082054503949
 40
13.41616738551011
 40
13.41616738551011
 40
13.41616738551011
 40
13.41616738551011
 10
42.76842040446228
 20
226.7990581967216
 30
0.0
 10
44.61921596667201
 20
226.8315460360287
 30
0.0
 10
47.5573450697655
 20
226.883120325547
 30
0.0
 10
51.52267965260783
 20
227.5795976751003
 30
0.0
 10
52.5930478216742
 20
230.0786845366409
 30
0.0
 10
52.67961019459014
 20
231.5101010659486
 30
0.0
 10
52.73391587633716
 20
232.4081130758956
 30
0.0
 11
42.76842040446228
 21
226.7990581967216
 31
0.0
 11
48.49205561296183
 21
227.1109084523831
 31
0.0
 11
51.64760955662939
 21
228.2869952077498
 31
0.0
 11
52.36842040446016
 21
229.7249300962853
 31
0.0
 11
52.73391587633716
 21
232.4081130758956
 31
0.0
  0
LINE
  5
269E
100
AcDbEntity
  8
外形
  6
CONTINUOUS
100
AcDbLine
 10
42.76842
 20
178.34893
 30
0.0
 11
39.704515
 21
177.909016
 31
0.0
  0
LINE
  5
26A8
100
AcDbEntity
  8
外形
  6
CONTINUOUS
100
AcDbLine
 10
52.733916
 20
186.47508
 30
0.0
 11
198.233916
 21
186.47508
 31
0.0
  0
SPLINE
  5
26A9
100
AcDbEntity
  8
外形
  6
CONTINUOUS
100
AcDbSpline
210
0.0
220
0.0
230
1.0
 70
     8
 71
     3
 72
    16
 73
    12
 74
     0
 42
0.0000001
 43
0.0000001
 40
0.0
 40
0.0
 40
0.0
 40
0.0
 40
1.560450242121582
 40
2.571586199855272
 40
3.586628216017565
 40
4.623451229634885
 40
5.701499391349454
 40
6.846766377215704
 40
8.081565898969117
 40
9.536252404902304
 40
15.24601681910592
 40
15.24601681910592
 40
15.24601681910592
 40
15.24601681910592
 10
52.73391587633716
 20
186.4750804341258
 30
0.0
 10
52.70167850511204
 20
185.9548831432938
 30
0.0
 10
52.64855205690857
 20
185.0976099421395
 30
0.0
 10
52.38149575744623
 20
183.9290153647296
 30
0.0
 10
52.0722921941452
 20
182.9550214385946
 30
0.0
 10
51.65814196300207
 20
181.994941116151
 30
0.0
 10
51.12422200973789
 20
181.0473738159526
 30
0.0
 10
50.45756365772201
 20
180.0998336925438
 30
0.0
 10
49.56065744650922
 20
179.194511987155
 30
0.0
 10
47.45994133758769
 20
177.248370968523
 30
0.0
 10
44.8891130223297
 20
177.4169065174181
 30
0.0
 10
42.8349847307868
 20
177.5636330452279
 30
0.0
  0
LINE
  5
26AA
100
AcDbEntity
  8
外形
  6
CONTINUOUS
100
AcDbLine
 10
42.834985
 20
177.563633
 30
0.0
 11
42.834985
 21
176.246302
 31
0.0
  0
SPLINE
  5
26B5
100
AcDbEntity
  8
外形
  6
CONTINUOUS
100
AcDbSpline
210
0.0
220
0.0
230
1.0
 70
     8
 71
     3
 72
    15
 73
    11
 74
     9
 42
0.0000001
 43
0.0000001
 44
0.0000000001
 40
0.0
 40
0.0
 40
0.0
 40
0.0
 40
4.242635633556316
 40
6.001827097860461
 40
7.418550295209786
 40
8.635370583827622
 40
9.726476991373814
 40
10.72942604112094
 40
11.66658187926578
 40
13.90988705140268
 40
13.90988705140268
 40
13.90988705140268
 40
13.90988705140268
 10
42.76842040446228
 20
178.3489302191564
 30
0.0
 10
44.17808059655169
 20
178.5525867745232
 30
0.0
 10
46.17225060557637
 20
178.8406886852766
 30
0.0
 10
48.43208429992626
 20
179.9116857743089
 30
0.0
 10
49.57026418649653
 20
180.8446939080413
 30
0.0
 10
50.44166197679917
 20
181.7313667310008
 30
0.0
 10
51.11869799143544
 20
182.6064306120105
 30
0.0
 10
51.64972835678575
 20
183.467302983718
 30
0.0
 10
52.27251399144431
 20
184.7194811118479
 30
0.0
 10
52.54307703852571
 20
185.7489530697572
 30
0.0
 10
52.73391587633716
 20
186.4750804331431
 30
0.0
 11
42.76842040446228
 21
178.3489302191564
 31
0.0
 11
46.91450289278574
 21
179.2489063961407
 31
0.0
 11
48.49205561296183
 21
180.0274190955526
 31
0.0
 11
49.60289185439685
 21
180.9067071385864
 31
0.0
 11
50.45216948937955
 21
181.7781307517105
 31
0.0
 11
51.12006694870517
 21
182.6409321056818
 31
0.0
 11
51.6476095566306
 21
183.4939301087345
 31
0.0
 11
52.06044922146187
 21
184.3352531597149
 31
0.0
 11
52.73391587633716
 21
186.4750804331431
 31
0.0
  0
LINE
  5
26B6
100
AcDbEntity
  8
外形
  6
CONTINUOUS
100
AcDbLine
 10
39.202233
 20
167.47508
 30
0.0
 11
197.233916
 21
167.47508
 31
0.0
  0
SPLINE
  5
26B7
100
AcDbEntity
  8
外形
  6
CONTINUOUS
100
AcDbSpline
210
0.0
220
0.0
230
1.0
 70
     8
 71
     3
 72
    10
 73
     6
 74
     0
 42
0.0000001
 43
0.0000001
 40
6.035499426184815
 40
6.035499426184815
 40
6.035499426184815
 40
6.035499426184815
 40
9.099720131214771
 40
10.7082054503949
 40
13.41616738551011
 40
13.41616738551011
 40
13.41616738551011
 40
13.41616738551011
 10
48.81411902268617
 20
246.3817367897585
 30
0.0
 10
49.9004085216743
 20
246.2338016498758
 30
0.0
 10
51.56493903767839
 20
245.855759496559
 30
0.0
 10
52.5930478216742
 20
243.4553395022316
 30
0.0
 10
52.67961019459014
 20
242.0239229729239
 30
0.0
 10
52.73391587633716
 20
241.1259109629769
 30
0.0
  0
LINE
  5
26B8
100
AcDbEntity
  8
外形
  6
CONTINUOUS
100
AcDbLine
 10
52.733916
 20
241.125911
 30
0.0
 11
52.733916
 21
232.408113
 31
0.0
  0
ARC
  5
26B9
100
AcDbEntity
  8
外形
  6
CONTINUOUS
100
AcDbCircle
 10
-0.862638
 20
236.767012
 30
0.0
 40
10.0
100
AcDbArc
 50
270.21734
 51
334.158067
  0
ARC
  5
26BA
100
AcDbEntity
  8
外形
  6
CONTINUOUS
100
AcDbCircle
 10
112.203374
 20
236.767012
 30
0.0
 40
10.0
100
AcDbArc
 50
205.841933
 51
154.158067
  0
LINE
  5
26BC
100
AcDbEntity
  8
外形
  6
CONTINUOUS
100
AcDbLine
 10
103.203374
 20
241.125911
 30
0.0
 11
103.203374
 21
232.408113
 31
0.0
  0
LINE
  5
26BF
100
AcDbEntity
  8
外形
  6
CONTINUOUS
100
AcDbLine
 10
125.876538
 20
246.767012
 30
0.0
 11
197.233916
 21
246.767012
 31
0.0
  0
LINE
  5
26C0
100
AcDbEntity
  8
外形
  6
CONTINUOUS
100
AcDbLine
 10
125.876538
 20
241.125911
 30
0.0
 11
197.233916
 21
241.125911
 31
0.0
  0
LINE
  5
26C1
100
AcDbEntity
  8
外形
  6
CONTINUOUS
100
AcDbLine
 10
125.876538
 20
232.408113
 30
0.0
 11
197.233916
 21
232.408113
 31
0.0
  0
LINE
  5
26C2
100
AcDbEntity
  8
外形
  6
CONTINUOUS
100
AcDbLine
 10
125.876538
 20
226.767012
 30
0.0
 11
197.233916
 21
226.767012
 31
0.0
  0
LINE
  5
26C4
100
AcDbEntity
  8
外形
  6
CONTINUOUS
100
AcDbLine
 10
198.733916
 20
228.267012
 30
0.0
 11
198.733916
 21
245.267012
 31
0.0
  0
LINE
  5
26C5
100
AcDbEntity
  8
外形
  6
CONTINUOUS
100
AcDbLine
 10
197.233916
 20
226.767012
 30
0.0
 11
197.233916
 21
232.408113
 31
0.0
  0
LINE
  5
26C6
100
AcDbEntity
  8
外形
  6
CONTINUOUS
100
AcDbLine
 10
198.733916
 20
245.267012
 30
0.0
 11
197.233916
 21
246.767012
 31
0.0
  0
LINE
  5
26C7
100
AcDbEntity
  8
外形
  6
CONTINUOUS
100
AcDbLine
 10
197.233916
 20
226.767012
 30
0.0
 11
198.733916
 21
228.267012
 31
0.0
  0
ELLIPSE
  5
26C9
100
AcDbEntity
  8
外形
  6
CONTINUOUS
100
AcDbEllipse
 10
197.233916
 20
236.767012
 30
0.0
 11
0.0
 21
4.358898943542584
 31
0.0
210
0.0
220
0.0
230
1.0
 40
0.229416
 41
3.141592653589793
 42
6.283185307179586
  0
LINE
  5
26CA
100
AcDbEntity
  8
外形
  6
CONTINUOUS
100
AcDbLine
 10
197.233916
 20
241.125911
 30
0.0
 11
197.233916
 21
246.767012
 31
0.0
  0
LINE
  5
26CB
100
AcDbEntity
  8
外形
  6
CONTINUOUS
100
AcDbLine
 10
198.733916
 20
168.97508
 30
0.0
 11
198.733916
 21
185.97508
 31
0.0
  0
LINE
  5
26CC
100
AcDbEntity
  8
外形
  6
CONTINUOUS
100
AcDbLine
 10
197.233916
 20
167.47508
 30
0.0
 11
197.233916
 21
186.47508
 31
0.0
  0
LINE
  5
26CD
100
AcDbEntity
  8
外形
  6
CONTINUOUS
100
AcDbLine
 10
198.733916
 20
185.97508
 30
0.0
 11
198.233916
 21
186.47508
 31
0.0
  0
LINE
  5
26CE
100
AcDbEntity
  8
外形
  6
CONTINUOUS
100
AcDbLine
 10
197.233916
 20
167.47508
 30
0.0
 11
198.733916
 21
168.97508
 31
0.0
  0
DIMENSION
  5
26DB
100
AcDbEntity
  8
寸法
  6
CONTINUOUS
100
AcDbDimension
  2
*D2
 10
122.203374
 20
213.509646
 30
0.0
 11
112.703374
 21
216.009646
 31
0.0
 70
    32
  3
STANDARD
100
AcDbAlignedDimension
 13
103.203374
 23
232.408113
 33
0.0
 14
122.203374
 24
236.767012
 34
0.0
100
AcDbRotatedDimension
1001
ACAD
1000
DSTYLE
1002
{
1070
   284
1070
    13
1070
   146
1040
0.5
1070
   272
1070
     3
1070
    40
1040
1.0
1070
   287
1070
     0
1002
}
  0
DIMENSION
  5
26E5
100
AcDbEntity
  8
寸法
  6
CONTINUOUS
100
AcDbDimension
  2
*D3
 10
106.246985
 20
228.734489
 30
0.0
 11
110.195244
 21
238.256109
 31
0.0
 70
    35
  3
STANDARD
100
AcDbDiametricDimension
 15
118.159764
 25
244.799535
 35
0.0
 40
0.0
1001
ACAD
1000
DSTYLE
1002
{
1070
   284
1070
    13
1070
   146
1040
0.5
1070
   272
1070
     3
1070
    40
1040
1.0
1070
   287
1070
     0
1002
}
  0
DIMENSION
  5
26F2
100
AcDbEntity
  8
寸法
  6
CONTINUOUS
100
AcDbDimension
  2
*D4
 10
198.733916
 20
201.55117
 30
0.0
 11
118.733916
 21
204.05117
 31
0.0
 70
    32
  3
STANDARD
100
AcDbAlignedDimension
 13
38.733916
 23
226.267012
 33
0.0
 14
198.733916
 24
228.267012
 34
0.0
100
AcDbRotatedDimension
1001
ACAD
1000
DSTYLE
1002
{
1070
   284
1070
    13
1070
   146
1040
0.5
1070
   272
1070
     3
1070
    40
1040
1.0
1070
   287
1070
     0
1002
}
  0
DIMENSION
  5
2714
100
AcDbEntity
  8
寸法
  6
CONTINUOUS
100
AcDbDimension
  2
*D6
 10
39.029503
 20
229.862254
 30
0.0
 11
50.274265
 21
260.119306
 31
0.0
 70
    34
  3
STANDARD
100
AcDb2LineAngularDimension
 13
38.733916
 23
226.267012
 33
0.0
 14
38.733916
 24
226.483682
 34
0.0
 15
38.733916
 25
226.483682
 35
0.0
 16
39.687876
 26
259.269167
 36
0.0
1001
ACAD
1000
DSTYLE
1002
{
1070
   284
1070
    13
1070
   146
1040
0.5
1070
   272
1070
     3
1070
    40
1040
1.0
1070
   287
1070
     0
1002
}
  0
MTEXT
  5
2715
100
AcDbEntity
  8
寸法
  6
CONTINUOUS
 62
     3
100
AcDbMText
 10
21.044122
 20
270.898745
 30
0.0
 40
3.0
 41
0.0
 71
     4
 72
     1
  1
%%c21.0最小加工径
  0
LEADER
  5
2717
100
AcDbEntity
  8
寸法
  6
CONTINUOUS
 62
     1
100
AcDbLeader
  3
STANDARD
 76
     3
 10
19.321196
 20
226.267012
 30
0.0
 10
19.321196
 20
268.474563
 30
0.0
 10
54.970144
 20
268.474563
 30
0.0
 77
   256
1001
ACAD
1000
DSTYLE
1002
{
1070
   284
1070
    13
1070
   146
1040
0.5
1070
   272
1070
     3
1070
    40
1040
1.0
1070
   287
1070
     0
1002
}
  0
DIMENSION
  5
272A
100
AcDbEntity
  8
寸法
  6
CONTINUOUS
100
AcDbDimension
  2
*D7
 10
-0.862638
 20
226.333508
 30
0.0
 11
-10.017869
 21
210.206947
 31
0.0
 70
    34
  3
STANDARD
100
AcDb2LineAngularDimension
 13
-0.862638
 23
249.682843
 33
0.0
 14
-0.862638
 24
223.174507
 34
0.0
 15
0.91284
 25
246.627316
 35
0.0
 16
-1.46
 26
205.80351
 36
0.0
1001
ACAD
1000
DSTYLE
1002
{
1070
   284
1070
    13
1070
   146
1040
0.5
1070
   272
1070
     3
1070
    40
1040
1.0
1070
   287
1070
     0
1002
}
  0
DIMENSION
  5
27E4
100
AcDbEntity
  8
寸法
  6
CONTINUOUS
100
AcDbDimension
  2
*D14
 10
29.415287
 20
226.267012
 30
0.0
 11
26.915287
 21
215.767012
 31
0.0
 70
    32
  3
STANDARD
100
AcDbAlignedDimension
 13
37.300093
 23
236.767012
 33
0.0
 14
38.733916
 24
226.267012
 34
0.0
 50
90.0
100
AcDbRotatedDimension
1001
ACAD
1000
DSTYLE
1002
{
1070
   284
1070
    13
1070
   146
1040
0.5
1070
   272
1070
     3
1070
    40
1040
1.0
1070
   287
1070
     0
1002
}
  0
ENDSEC
  0
SECTION
  2
OBJECTS
  0
DICTIONARY
  5
1E
100
AcDbDictionary
  3
ACAD_GROUP
350
1C
  3
ACAD_MLINESTYLE
350
1D
  3
ACDBVARIABLEDICTIONARY
350
147A
  3
DRAWINGVARIABLESDICT
350
C58
  0
DICTIONARY
  5
38
100
AcDbDictionary
280
     1
  3
ACAD_XREC_ROUNDTRIP
360
39
  0
DICTIONARY
  5
22
100
AcDbDictionary
280
     1
  3
ACAD_XREC_ROUNDTRIP
360
23
  0
DICTIONARY
  5
3
100
AcDbDictionary
280
     1
  3
ACAD_LAYOUTSELFREF
360
4
  0
DICTIONARY
  5
A
100
AcDbDictionary
280
     1
  3
ACAD_LAYOUTSELFREF
360
B
  0
DICTIONARY
  5
1C
102
{ACAD_REACTORS
330
1E
102
}
100
AcDbDictionary
  0
DICTIONARY
  5
1D
102
{ACAD_REACTORS
330
1E
102
}
100
AcDbDictionary
  3
STANDARD
350
20
  0
DICTIONARY
  5
147A
102
{ACAD_REACTORS
330
1E
102
}
100
AcDbDictionary
  3
SORTENTS
350
147B
  0
DICTIONARY
  5
C58
102
{ACAD_REACTORS
330
1E
102
}
100
AcDbDictionary
1001
DRAWINGVARIABLESXDATA
1000
POLARMODE
1000
0
  0
XRECORD
  5
39
102
{ACAD_REACTORS
330
38
102
}
100
AcDbXrecord
102
PLOTBIT
280
     0
  0
XRECORD
  5
23
102
{ACAD_REACTORS
330
22
102
}
100
AcDbXrecord
102
ACADR14ROUNDTRIP
1000
DSTYLE
1002
{
1070
   341
340
0
1070
   343
340
0
1070
   344
340
0
1002
}
  0
XRECORD
  5
4
102
{ACAD_REACTORS
330
3
102
}
100
AcDbXrecord
340
2
  0
XRECORD
  5
B
102
{ACAD_REACTORS
330
A
102
}
100
AcDbXrecord
340
9
  0
MLINESTYLE
  5
20
102
{ACAD_REACTORS
330
1D
102
}
100
AcDbMlineStyle
  2
STANDARD
 70
     0
  3

 62
     0
 51
90.0
 52
90.0
 71
     2
 49
0.5
 62
   256
  6
BYLAYER
 49
-0.5
 62
   256
  6
BYLAYER
  0
DICTIONARYVAR
  5
147B
102
{ACAD_REACTORS
330
147A
102
}
100
DictionaryVariables
280
     0
  1
96
  0
ENDSEC
  0
EOF
