  0
SECTION
  2
HEADER
  9
$ACADVER
  1
AC1014
  9
$ACADMAINTVER
 70
     0
  9
$DWGCODEPAGE
  3
ANSI_932
  9
$INSBASE
 10
-587.250952
 20
747.890188
 30
0.0
  9
$EXTMIN
 10
525.078027
 20
-94.182516
 30
0.0
  9
$EXTMAX
 10
877.56074
 20
71.698543
 30
0.0
  9
$LIMMIN
 10
526.873425
 20
-162.816955
  9
$LIMMAX
 10
953.657035
 20
105.230103
  9
$ORTHOMODE
 70
     1
  9
$REGENMODE
 70
     1
  9
$FILLMODE
 70
     1
  9
$QTEXTMODE
 70
     0
  9
$MIRRTEXT
 70
     1
  9
$DRAGMODE
 70
     2
  9
$LTSCALE
 40
5.0
  9
$OSMODE
 70
    47
  9
$ATTMODE
 70
     1
  9
$TEXTSIZE
 40
5.0
  9
$TRACEWID
 40
0.05
  9
$TEXTSTYLE
  7
STANDARD
  9
$CLAYER
  8
外形
  9
$CELTYPE
  6
CONTINUOUS
  9
$CECOLOR
 62
   256
  9
$CELTSCALE
 40
1.0
  9
$DELOBJ
 70
     1
  9
$DISPSILH
 70
     0
  9
$DIMSCALE
 40
0.0
  9
$DIMASZ
 40
2.0
  9
$DIMEXO
 40
1.0
  9
$DIMDLI
 40
8.0
  9
$DIMRND
 40
0.0
  9
$DIMDLE
 40
0.0
  9
$DIMEXE
 40
2.0
  9
$DIMTP
 40
0.0
  9
$DIMTM
 40
0.0
  9
$DIMTXT
 40
3.0
  9
$DIMCEN
 40
-1.0
  9
$DIMTSZ
 40
0.0
  9
$DIMTOL
 70
     0
  9
$DIMLIM
 70
     0
  9
$DIMTIH
 70
     0
  9
$DIMTOH
 70
     0
  9
$DIMSE1
 70
     0
  9
$DIMSE2
 70
     0
  9
$DIMTAD
 70
     1
  9
$DIMZIN
 70
     8
  9
$DIMBLK
  1

  9
$DIMASO
 70
     1
  9
$DIMSHO
 70
     1
  9
$DIMPOST
  1

  9
$DIMAPOST
  1

  9
$DIMALT
 70
     0
  9
$DIMALTD
 70
     2
  9
$DIMALTF
 40
25.4
  9
$DIMLFAC
 40
1.0
  9
$DIMTOFL
 70
     1
  9
$DIMTVP
 40
0.0
  9
$DIMTIX
 70
     0
  9
$DIMSOXD
 70
     0
  9
$DIMSAH
 70
     1
  9
$DIMBLK1
  1
_OPEN30
  9
$DIMBLK2
  1
_OPEN30
  9
$DIMSTYLE
  2
STANDARD
  9
$DIMCLRD
 70
     1
  9
$DIMCLRE
 70
     1
  9
$DIMCLRT
 70
     3
  9
$DIMTFAC
 40
1.0
  9
$DIMGAP
 40
1.0
  9
$DIMJUST
 70
     0
  9
$DIMSD1
 70
     0
  9
$DIMSD2
 70
     0
  9
$DIMTOLJ
 70
     1
  9
$DIMTZIN
 70
     8
  9
$DIMALTZ
 70
     0
  9
$DIMALTTZ
 70
     0
  9
$DIMFIT
 70
     3
  9
$DIMUPT
 70
     0
  9
$DIMUNIT
 70
     2
  9
$DIMDEC
 70
     2
  9
$DIMTDEC
 70
     2
  9
$DIMALTU
 70
     2
  9
$DIMALTTD
 70
     2
  9
$DIMTXSTY
  7
STANDARD
  9
$DIMAUNIT
 70
     0
  9
$LUNITS
 70
     2
  9
$LUPREC
 70
     3
  9
$SKETCHINC
 40
0.1
  9
$FILLETRAD
 40
15.5
  9
$AUNITS
 70
     0
  9
$AUPREC
 70
     3
  9
$MENU
  1
acad
  9
$ELEVATION
 40
0.0
  9
$PELEVATION
 40
0.0
  9
$THICKNESS
 40
0.0
  9
$LIMCHECK
 70
     0
  9
$BLIPMODE
 70
     0
  9
$CHAMFERA
 40
0.0
  9
$CHAMFERB
 40
0.0
  9
$CHAMFERC
 40
0.0
  9
$CHAMFERD
 40
0.0
  9
$SKPOLY
 70
     0
  9
$TDCREATE
 40
2450751.535399305
  9
$TDUPDATE
 40
2452030.730949074
  9
$TDINDWG
 40
2.0339754630
  9
$TDUSRTIMER
 40
2.0339754630
  9
$USRTIMER
 70
     1
  9
$ANGBASE
 50
0.0
  9
$ANGDIR
 70
     0
  9
$PDMODE
 70
    32
  9
$PDSIZE
 40
0.0
  9
$PLINEWID
 40
0.0
  9
$COORDS
 70
     2
  9
$SPLFRAME
 70
     0
  9
$SPLINETYPE
 70
     5
  9
$SPLINESEGS
 70
     8
  9
$ATTDIA
 70
     0
  9
$ATTREQ
 70
     1
  9
$HANDLING
 70
     1
  9
$HANDSEED
  5
2F03
  9
$SURFTAB1
 70
     6
  9
$SURFTAB2
 70
     6
  9
$SURFTYPE
 70
     6
  9
$SURFU
 70
     6
  9
$SURFV
 70
     6
  9
$UCSNAME
  2

  9
$UCSORG
 10
40.53800450572526
 20
146.9196145921314
 30
0.0
  9
$UCSXDIR
 10
1.0
 20
0.0
 30
0.0
  9
$UCSYDIR
 10
0.0
 20
1.0
 30
0.0
  9
$PUCSNAME
  2

  9
$PUCSORG
 10
0.0
 20
0.0
 30
0.0
  9
$PUCSXDIR
 10
1.0
 20
0.0
 30
0.0
  9
$PUCSYDIR
 10
0.0
 20
1.0
 30
0.0
  9
$USERI1
 70
     0
  9
$USERI2
 70
     0
  9
$USERI3
 70
     0
  9
$USERI4
 70
     0
  9
$USERI5
 70
     0
  9
$USERR1
 40
0.0
  9
$USERR2
 40
0.0
  9
$USERR3
 40
0.0
  9
$USERR4
 40
0.0
  9
$USERR5
 40
0.0
  9
$WORLDVIEW
 70
     1
  9
$SHADEDGE
 70
     3
  9
$SHADEDIF
 70
    70
  9
$TILEMODE
 70
     1
  9
$MAXACTVP
 70
    16
  9
$PINSBASE
 10
0.0
 20
0.0
 30
0.0
  9
$PLIMCHECK
 70
     0
  9
$PEXTMIN
 10
1.000000E+20
 20
1.000000E+20
 30
1.000000E+20
  9
$PEXTMAX
 10
-1.000000E+20
 20
-1.000000E+20
 30
-1.000000E+20
  9
$PLIMMIN
 10
0.0
 20
0.0
  9
$PLIMMAX
 10
12.0
 20
9.0
  9
$UNITMODE
 70
     0
  9
$VISRETAIN
 70
     0
  9
$PLINEGEN
 70
     0
  9
$PSLTSCALE
 70
     1
  9
$TREEDEPTH
 70
  3020
  9
$PICKSTYLE
 70
     1
  9
$CMLSTYLE
  2
STANDARD
  9
$CMLJUST
 70
     0
  9
$CMLSCALE
 40
1.0
  9
$PROXYGRAPHICS
 70
     1
  9
$MEASUREMENT
 70
     0
  0
ENDSEC
  0
SECTION
  2
CLASSES
  0
CLASS
  1
LWPOLYLINE
  2
AcDbPolyline
  3
"AutoCAD"
 90
        0
280
     0
281
     1
  0
CLASS
  1
ACDBDICTIONARYWDFLT
  2
AcDbDictionaryWithDefault
  3
AutoCAD 2000
 90
        0
280
     1
281
     0
  0
CLASS
  1
ACDBPLACEHOLDER
  2
AcDbPlaceHolder
  3
AutoCAD 2000
 90
        0
280
     1
281
     0
  0
CLASS
  1
LAYOUT
  2
AcDbLayout
  3
AutoCAD 2000
 90
        0
280
     1
281
     0
  0
CLASS
  1
LONG_TRANSACTION
  2
AcDbLongTransaction
  3
AutoCAD 2000
 90
        0
280
     1
281
     0
  0
CLASS
  1
LWPOLYLINE
  2
AcDbPolyline
  3
"AutoCAD"
 90
        0
280
     0
281
     1
  0
CLASS
  1
HATCH
  2
AcDbHatch
  3
"ACAD_SEDONA"
 90
        0
280
     0
281
     1
  0
CLASS
  1
XRECORD
  2
AcDbXrecord
  3
"<Built In>"
 90
        0
280
     0
281
     0
  0
CLASS
  1
DICTIONARYVAR
  2
AcDbDictionaryVar
  3
"AutoCAD"
 90
        0
280
     0
281
     0
  0
ENDSEC
  0
SECTION
  2
TABLES
  0
TABLE
  2
VPORT
  5
16
100
AcDbSymbolTable
 70
     1
  0
VPORT
  5
2EFE
100
AcDbSymbolTableRecord
100
AcDbViewportTableRecord
  2
*ACTIVE
 70
     0
 10
0.0
 20
0.0
 11
1.0
 21
1.0
 12
702.094852
 22
-11.730657
 13
0.0
 23
0.0
 14
1.0
 24
1.0
 15
10.0
 25
10.0
 16
0.0
 26
0.0
 36
1.0
 17
0.0
 27
0.0
 37
0.0
 40
277.572791
 41
1.710425
 42
50.0
 43
0.0
 44
0.0
 50
0.0
 51
0.0
 71
     0
 72
   100
 73
     1
 74
     1
 75
     0
 76
     0
 77
     0
 78
     2
  0
ENDTAB
  0
TABLE
  2
LTYPE
  5
11
100
AcDbSymbolTable
 70
     2
  0
LTYPE
  5
12
100
AcDbSymbolTableRecord
100
AcDbLinetypeTableRecord
  2
BYBLOCK
 70
     0
  3

 72
    65
 73
     0
 40
0.0
  0
LTYPE
  5
13
100
AcDbSymbolTableRecord
100
AcDbLinetypeTableRecord
  2
BYLAYER
 70
     0
  3

 72
    65
 73
     0
 40
0.0
  0
LTYPE
  5
7
100
AcDbSymbolTableRecord
100
AcDbLinetypeTableRecord
  2
CONTINUOUS
 70
     0
  3
Solid line
 72
    65
 73
     0
 40
0.0
  0
LTYPE
  5
AA
100
AcDbSymbolTableRecord
100
AcDbLinetypeTableRecord
  2
CENTER
 70
     0
  3
Center ____ _ ____ _ ____ _ ____ _ ____ _ ____
 72
    65
 73
     4
 40
2.0
 49
1.25
 74
     0
 49
-0.25
 74
     0
 49
0.25
 74
     0
 49
-0.25
 74
     0
  0
ENDTAB
  0
TABLE
  2
LAYER
  5
E
100
AcDbSymbolTable
 70
     4
  0
LAYER
  5
6
100
AcDbSymbolTableRecord
100
AcDbLayerTableRecord
  2
0
 70
     0
 62
     7
  6
CONTINUOUS
  0
LAYER
  5
2C
100
AcDbSymbolTableRecord
100
AcDbLayerTableRecord
  2
外形
 70
     0
 62
     4
  6
CONTINUOUS
  0
LAYER
  5
37
102
{ACAD_XDICTIONARY
360
38
102
}
100
AcDbSymbolTableRecord
100
AcDbLayerTableRecord
  2
DEFPOINTS
 70
     0
 62
     7
  6
CONTINUOUS
  0
LAYER
  5
1F
100
AcDbSymbolTableRecord
100
AcDbLayerTableRecord
  2
寸法
 70
     0
 62
     1
  6
CONTINUOUS
  0
ENDTAB
  0
TABLE
  2
STYLE
  5
F
100
AcDbSymbolTable
 70
     1
  0
STYLE
  5
10
100
AcDbSymbolTableRecord
100
AcDbTextStyleTableRecord
  2
STANDARD
 70
     0
 40
0.0
 41
1.0
 50
0.0
 71
     0
 42
5.0
  3
MONOTXT
  4
BIGFONT
  0
ENDTAB
  0
TABLE
  2
VIEW
  5
14
100
AcDbSymbolTable
 70
     0
  0
ENDTAB
  0
TABLE
  2
UCS
  5
15
100
AcDbSymbolTable
 70
     0
  0
ENDTAB
  0
TABLE
  2
APPID
  5
18
100
AcDbSymbolTable
 70
     2
  0
APPID
  5
19
100
AcDbSymbolTableRecord
100
AcDbRegAppTableRecord
  2
ACAD
 70
     0
  0
APPID
  5
C59
100
AcDbSymbolTableRecord
100
AcDbRegAppTableRecord
  2
DRAWINGVARIABLESXDATA
 70
     0
  0
ENDTAB
  0
TABLE
  2
DIMSTYLE
  5
1A
100
AcDbSymbolTable
 70
     1
  0
DIMSTYLE
105
21
102
{ACAD_XDICTIONARY
360
22
102
}
102
{ACAD_REACTORS
330
272D
330
273B
330
278E
330
271D
330
2724
330
2918
330
29B0
330
2758
102
}
100
AcDbSymbolTableRecord
100
AcDbDimStyleTableRecord
  2
STANDARD
 70
     0
  3

  4

  5

  6
_OPEN30
  7
_OPEN30
 40
0.0
 41
2.0
 42
1.0
 43
8.0
 44
2.0
 45
0.0
 46
0.0
 47
0.0
 48
0.0
140
3.0
141
-1.0
142
0.0
143
25.4
144
1.0
145
0.0
146
1.0
147
1.0
 71
     0
 72
     0
 73
     0
 74
     0
 75
     0
 76
     0
 77
     1
 78
     8
170
     0
171
     2
172
     1
173
     1
174
     0
175
     0
176
     1
177
     1
178
     3
270
     2
271
     2
272
     2
273
     2
274
     2
340
10
275
     0
280
     0
281
     0
282
     0
283
     1
284
     8
285
     0
286
     0
287
     3
288
     0
  0
ENDTAB
  0
TABLE
  2
BLOCK_RECORD
  5
1
100
AcDbSymbolTable
 70
     9
  0
BLOCK_RECORD
  5
2
102
{ACAD_XDICTIONARY
360
3
102
}
100
AcDbSymbolTableRecord
100
AcDbBlockTableRecord
  2
*MODEL_SPACE
  0
BLOCK_RECORD
  5
9
102
{ACAD_XDICTIONARY
360
A
102
}
100
AcDbSymbolTableRecord
100
AcDbBlockTableRecord
  2
*PAPER_SPACE
  0
BLOCK_RECORD
  5
470
100
AcDbSymbolTableRecord
100
AcDbBlockTableRecord
  2
_OPEN30
  0
BLOCK_RECORD
  5
27A6
100
AcDbSymbolTableRecord
100
AcDbBlockTableRecord
  2
*D1
  0
BLOCK_RECORD
  5
27DA
100
AcDbSymbolTableRecord
100
AcDbBlockTableRecord
  2
*D2
  0
BLOCK_RECORD
  5
27F2
100
AcDbSymbolTableRecord
100
AcDbBlockTableRecord
  2
*D3
  0
BLOCK_RECORD
  5
280A
100
AcDbSymbolTableRecord
100
AcDbBlockTableRecord
  2
*D4
  0
BLOCK_RECORD
  5
2816
100
AcDbSymbolTableRecord
100
AcDbBlockTableRecord
  2
*D5
  0
BLOCK_RECORD
  5
2828
100
AcDbSymbolTableRecord
100
AcDbBlockTableRecord
  2
*D6
  0
BLOCK_RECORD
  5
290A
100
AcDbSymbolTableRecord
100
AcDbBlockTableRecord
  2
*D7
  0
BLOCK_RECORD
  5
299E
100
AcDbSymbolTableRecord
100
AcDbBlockTableRecord
  2
*D8
  0
ENDTAB
  0
ENDSEC
  0
SECTION
  2
BLOCKS
  0
BLOCK
  5
5
100
AcDbEntity
  8
0
100
AcDbBlockBegin
  2
*MODEL_SPACE
 70
     0
 10
0.0
 20
0.0
 30
0.0
  3
*MODEL_SPACE
  1

  0
ENDBLK
  5
8
100
AcDbEntity
  8
0
100
AcDbBlockEnd
  0
BLOCK
  5
C
100
AcDbEntity
 67
     1
  8
0
100
AcDbBlockBegin
  2
*PAPER_SPACE
 70
     0
 10
0.0
 20
0.0
 30
0.0
  3
*PAPER_SPACE
  1

  0
ENDBLK
  5
D
100
AcDbEntity
 67
     1
  8
0
100
AcDbBlockEnd
  0
BLOCK
  5
471
100
AcDbEntity
  8
0
100
AcDbBlockBegin
  2
_OPEN30
 70
     0
 10
0.0
 20
0.0
 30
0.0
  3
_OPEN30
  1

  0
LINE
  5
472
100
AcDbEntity
  8
0
  6
BYBLOCK
 62
     0
100
AcDbLine
 10
-1.0
 20
0.267949
 30
0.0
 11
0.0
 21
0.0
 31
0.0
  0
LINE
  5
473
100
AcDbEntity
  8
0
  6
BYBLOCK
 62
     0
100
AcDbLine
 10
0.0
 20
0.0
 30
0.0
 11
-1.0
 21
-0.267949
 31
0.0
  0
LINE
  5
474
100
AcDbEntity
  8
0
  6
BYBLOCK
 62
     0
100
AcDbLine
 10
0.0
 20
0.0
 30
0.0
 11
-1.0
 21
0.0
 31
0.0
  0
ENDBLK
  5
475
100
AcDbEntity
  8
0
100
AcDbBlockEnd
  0
BLOCK
  5
27A7
100
AcDbEntity
  8
0
100
AcDbBlockBegin
  2
*D1
 70
     1
 10
0.0
 20
0.0
 30
0.0
  3
*D1
  1

  0
LINE
  5
27A8
100
AcDbEntity
  8
0
  6
BYBLOCK
 62
     1
100
AcDbLine
 10
906.099735
 20
255.872746
 30
0.0
 11
906.099735
 21
236.911121
 31
0.0
  0
LINE
  5
27A9
100
AcDbEntity
  8
0
  6
BYBLOCK
 62
     1
100
AcDbLine
 10
1156.099735
 20
264.872746
 30
0.0
 11
1156.099735
 21
236.911121
 31
0.0
  0
LINE
  5
27AA
100
AcDbEntity
  8
0
  6
BYBLOCK
 62
     1
100
AcDbLine
 10
908.099735
 20
238.911121
 30
0.0
 11
1154.099735
 21
238.911121
 31
0.0
  0
INSERT
  5
27AB
100
AcDbEntity
  8
0
  6
BYBLOCK
 62
     1
100
AcDbBlockReference
  2
_OPEN30
 10
906.099735
 20
238.911121
 30
0.0
 41
2.0
 42
2.0
 43
2.0
 50
180.0
  0
INSERT
  5
27AC
100
AcDbEntity
  8
0
  6
BYBLOCK
 62
     1
100
AcDbBlockReference
  2
_OPEN30
 10
1156.099735
 20
238.911121
 30
0.0
 41
2.0
 42
2.0
 43
2.0
  0
MTEXT
  5
27AD
100
AcDbEntity
  8
0
  6
BYBLOCK
 62
     3
100
AcDbMText
 10
1031.099735
 20
241.411121
 30
0.0
 40
3.0
 41
0.0
 71
     5
 72
     1
  1
\A1;250
  0
POINT
  5
27AE
100
AcDbEntity
  8
DEFPOINTS
  6
BYBLOCK
 62
     0
100
AcDbPoint
 10
906.099735
 20
256.872746
 30
0.0
  0
POINT
  5
27AF
100
AcDbEntity
  8
DEFPOINTS
  6
BYBLOCK
 62
     0
100
AcDbPoint
 10
1156.099735
 20
265.872746
 30
0.0
  0
POINT
  5
27B0
100
AcDbEntity
  8
DEFPOINTS
  6
BYBLOCK
 62
     0
100
AcDbPoint
 10
1156.099735
 20
238.911121
 30
0.0
  0
ENDBLK
  5
27B1
100
AcDbEntity
  8
0
100
AcDbBlockEnd
  0
BLOCK
  5
2BD7
100
AcDbEntity
  8
0
100
AcDbBlockBegin
  2
*D2
 70
     1
 10
0.0
 20
0.0
 30
0.0
  3
*D2
  1

  0
LINE
  5
2BD8
100
AcDbEntity
  8
0
  6
BYBLOCK
 62
     1
100
AcDbLine
 10
620.897461
 20
-46.242486
 30
0.0
 11
620.897461
 21
-72.750044
 31
0.0
  0
LINE
  5
2BD9
100
AcDbEntity
  8
0
  6
BYBLOCK
 62
     1
100
AcDbLine
 10
640.897461
 20
-62.742486
 30
0.0
 11
640.897461
 21
-72.750044
 31
0.0
  0
LINE
  5
2BDA
100
AcDbEntity
  8
0
  6
BYBLOCK
 62
     1
100
AcDbLine
 10
622.897461
 20
-70.750044
 30
0.0
 11
638.897461
 21
-70.750044
 31
0.0
  0
INSERT
  5
2BDB
100
AcDbEntity
  8
0
  6
BYBLOCK
 62
     1
100
AcDbBlockReference
  2
_OPEN30
 10
620.897461
 20
-70.750044
 30
0.0
 41
2.0
 42
2.0
 43
2.0
 50
180.0
  0
INSERT
  5
2BDC
100
AcDbEntity
  8
0
  6
BYBLOCK
 62
     1
100
AcDbBlockReference
  2
_OPEN30
 10
640.897461
 20
-70.750044
 30
0.0
 41
2.0
 42
2.0
 43
2.0
  0
MTEXT
  5
2BDD
100
AcDbEntity
  8
0
  6
BYBLOCK
 62
     3
100
AcDbMText
 10
630.897461
 20
-68.250044
 30
0.0
 40
3.0
 41
0.0
 71
     5
 72
     1
  1
\A1;20
  0
POINT
  5
2BDE
100
AcDbEntity
  8
DEFPOINTS
  6
BYBLOCK
 62
     0
100
AcDbPoint
 10
620.897461
 20
-45.242486
 30
0.0
  0
POINT
  5
2BDF
100
AcDbEntity
  8
DEFPOINTS
  6
BYBLOCK
 62
     0
100
AcDbPoint
 10
640.897461
 20
-61.742486
 30
0.0
  0
POINT
  5
2BE0
100
AcDbEntity
  8
DEFPOINTS
  6
BYBLOCK
 62
     0
100
AcDbPoint
 10
640.897461
 20
-70.750044
 30
0.0
  0
ENDBLK
  5
2BE1
100
AcDbEntity
  8
0
100
AcDbBlockEnd
  0
BLOCK
  5
27F3
100
AcDbEntity
  8
0
100
AcDbBlockBegin
  2
*D3
 70
     1
 10
0.0
 20
0.0
 30
0.0
  3
*D3
  1

  0
LINE
  5
27F4
100
AcDbEntity
  8
0
  6
BYBLOCK
 62
     1
100
AcDbLine
 10
905.099735
 20
256.872746
 30
0.0
 11
890.49112
 21
256.872746
 31
0.0
  0
LINE
  5
27F5
100
AcDbEntity
  8
0
  6
BYBLOCK
 62
     1
100
AcDbLine
 10
897.760142
 20
278.872746
 30
0.0
 11
890.49112
 21
278.872746
 31
0.0
  0
LINE
  5
27F6
100
AcDbEntity
  8
0
  6
BYBLOCK
 62
     1
100
AcDbLine
 10
892.49112
 20
258.872746
 30
0.0
 11
892.49112
 21
276.872746
 31
0.0
  0
INSERT
  5
27F7
100
AcDbEntity
  8
0
  6
BYBLOCK
 62
     1
100
AcDbBlockReference
  2
_OPEN30
 10
892.49112
 20
256.872746
 30
0.0
 41
2.0
 42
2.0
 43
2.0
 50
270.0
  0
INSERT
  5
27F8
100
AcDbEntity
  8
0
  6
BYBLOCK
 62
     1
100
AcDbBlockReference
  2
_OPEN30
 10
892.49112
 20
278.872746
 30
0.0
 41
2.0
 42
2.0
 43
2.0
 50
90.0
  0
MTEXT
  5
27F9
100
AcDbEntity
  8
0
  6
BYBLOCK
 62
     3
100
AcDbMText
 10
889.99112
 20
267.872746
 30
0.0
 40
3.0
 41
0.0
 71
     5
 72
     1
  1
\A1;22
 11
0.0
 21
1.0
 31
0.0
  0
POINT
  5
27FA
100
AcDbEntity
  8
DEFPOINTS
  6
BYBLOCK
 62
     0
100
AcDbPoint
 10
906.099735
 20
256.872746
 30
0.0
  0
POINT
  5
27FB
100
AcDbEntity
  8
DEFPOINTS
  6
BYBLOCK
 62
     0
100
AcDbPoint
 10
898.760142
 20
278.872746
 30
0.0
  0
POINT
  5
27FC
100
AcDbEntity
  8
DEFPOINTS
  6
BYBLOCK
 62
     0
100
AcDbPoint
 10
892.49112
 20
278.872746
 30
0.0
  0
ENDBLK
  5
27FD
100
AcDbEntity
  8
0
100
AcDbBlockEnd
  0
BLOCK
  5
280B
100
AcDbEntity
  8
0
100
AcDbBlockBegin
  2
*D4
 70
     1
 10
0.0
 20
0.0
 30
0.0
  3
*D4
  1

  0
LINE
  5
280C
100
AcDbEntity
  8
0
  6
BYBLOCK
 62
     1
100
AcDbLine
 10
1079.105276
 20
272.304982
 30
0.0
 11
1079.105276
 21
250.826706
 31
0.0
  0
LINE
  5
280D
100
AcDbEntity
  8
0
  6
BYBLOCK
 62
     1
100
AcDbLine
 10
1049.105276
 20
272.304982
 30
0.0
 11
1049.105276
 21
250.826706
 31
0.0
  0
LINE
  5
280E
100
AcDbEntity
  8
0
  6
BYBLOCK
 62
     1
100
AcDbLine
 10
1077.105276
 20
252.826706
 30
0.0
 11
1051.105276
 21
252.826706
 31
0.0
  0
INSERT
  5
280F
100
AcDbEntity
  8
0
  6
BYBLOCK
 62
     1
100
AcDbBlockReference
  2
_OPEN30
 10
1079.105276
 20
252.826706
 30
0.0
 41
2.0
 42
2.0
 43
2.0
  0
INSERT
  5
2810
100
AcDbEntity
  8
0
  6
BYBLOCK
 62
     1
100
AcDbBlockReference
  2
_OPEN30
 10
1049.105276
 20
252.826706
 30
0.0
 41
2.0
 42
2.0
 43
2.0
 50
180.0
  0
MTEXT
  5
2811
100
AcDbEntity
  8
0
  6
BYBLOCK
 62
     3
100
AcDbMText
 10
1064.105276
 20
255.326706
 30
0.0
 40
3.0
 41
0.0
 71
     5
 72
     1
  1
\A1;30
  0
POINT
  5
2812
100
AcDbEntity
  8
DEFPOINTS
  6
BYBLOCK
 62
     0
100
AcDbPoint
 10
1079.105276
 20
273.304982
 30
0.0
  0
POINT
  5
2813
100
AcDbEntity
  8
DEFPOINTS
  6
BYBLOCK
 62
     0
100
AcDbPoint
 10
1049.105276
 20
273.304982
 30
0.0
  0
POINT
  5
2814
100
AcDbEntity
  8
DEFPOINTS
  6
BYBLOCK
 62
     0
100
AcDbPoint
 10
1049.105276
 20
252.826706
 30
0.0
  0
ENDBLK
  5
2815
100
AcDbEntity
  8
0
100
AcDbBlockEnd
  0
BLOCK
  5
2817
100
AcDbEntity
  8
0
100
AcDbBlockBegin
  2
*D5
 70
     1
 10
0.0
 20
0.0
 30
0.0
  3
*D5
  1

  0
LINE
  5
2818
100
AcDbEntity
  8
0
  6
BYBLOCK
 62
     1
100
AcDbLine
 10
836.550272
 20
255.887938
 30
0.0
 11
834.568028
 21
244.646078
 31
0.0
  0
LINE
  5
2819
100
AcDbEntity
  8
0
  6
BYBLOCK
 62
     1
100
AcDbLine
 10
836.72392
 20
255.872746
 30
0.0
 11
836.72392
 21
244.457461
 31
0.0
  0
ARC
  5
281A
100
AcDbEntity
  8
0
  6
BYBLOCK
 62
     1
100
AcDbCircle
 10
836.72392
 20
256.872746
 30
0.0
 40
10.415285
100
AcDbArc
 50
237.857975
 51
260.0
  0
LINE
  5
281B
100
AcDbEntity
  8
0
  6
BYBLOCK
 62
     1
100
AcDbLine
 10
831.182782
 20
248.053792
 30
0.0
 11
821.360692
 21
254.225221
 31
0.0
  0
ARC
  5
281C
100
AcDbEntity
  8
0
  6
BYBLOCK
 62
     1
100
AcDbCircle
 10
836.72392
 20
256.872746
 30
0.0
 40
10.415285
100
AcDbArc
 50
237.961553
 51
248.980776
  0
ARC
  5
281D
100
AcDbEntity
  8
0
  6
BYBLOCK
 62
     1
100
AcDbCircle
 10
836.72392
 20
256.872746
 30
0.0
 40
10.415285
100
AcDbArc
 50
281.019224
 51
292.038447
  0
ARC
  5
281E
100
AcDbEntity
  8
0
  6
BYBLOCK
 62
     1
100
AcDbCircle
 10
836.72392
 20
256.872746
 30
0.0
 40
10.415285
100
AcDbArc
 50
260.0
 51
270.0
  0
INSERT
  5
281F
100
AcDbEntity
  8
0
  6
BYBLOCK
 62
     1
100
AcDbBlockReference
  2
_OPEN30
 10
834.915325
 20
246.615693
 30
0.0
 41
2.0
 42
2.0
 43
2.0
 50
344.490388
  0
INSERT
  5
2820
100
AcDbEntity
  8
0
  6
BYBLOCK
 62
     1
100
AcDbBlockReference
  2
_OPEN30
 10
836.72392
 20
246.457461
 30
0.0
 41
2.0
 42
2.0
 43
2.0
 50
185.509612
  0
MTEXT
  5
2821
100
AcDbEntity
  8
0
  6
BYBLOCK
 62
     3
100
AcDbMText
 10
827.601787
 20
253.256337
 30
0.0
 40
3.0
 41
0.0
 71
     5
 72
     1
  1
\A1;10°
 11
0.846732
 21
-0.53202
 31
0.0
  0
POINT
  5
2822
100
AcDbEntity
  8
DEFPOINTS
  6
BYBLOCK
 62
     0
100
AcDbPoint
 10
836.118325
 20
246.475082
 30
0.0
  0
POINT
  5
2823
100
AcDbEntity
  8
DEFPOINTS
  6
BYBLOCK
 62
     0
100
AcDbPoint
 10
836.72392
 20
306.384381
 30
0.0
  0
POINT
  5
2824
100
AcDbEntity
  8
DEFPOINTS
  6
BYBLOCK
 62
     0
100
AcDbPoint
 10
841.693452
 20
285.056362
 30
0.0
  0
POINT
  5
2825
100
AcDbEntity
  8
DEFPOINTS
  6
BYBLOCK
 62
     0
100
AcDbPoint
 10
836.72392
 20
256.872746
 30
0.0
  0
POINT
  5
2826
100
AcDbEntity
  8
DEFPOINTS
  6
BYBLOCK
 62
     0
100
AcDbPoint
 10
836.72392
 20
256.872746
 30
0.0
  0
ENDBLK
  5
2827
100
AcDbEntity
  8
0
100
AcDbBlockEnd
  0
BLOCK
  5
2829
100
AcDbEntity
  8
0
100
AcDbBlockBegin
  2
*D6
 70
     1
 10
0.0
 20
0.0
 30
0.0
  3
*D6
  1

  0
LINE
  5
282A
100
AcDbEntity
  8
0
  6
BYBLOCK
 62
     1
100
AcDbLine
 10
1044.298059
 20
308.797646
 30
0.0
 11
1054.170285
 21
293.882608
 31
0.0
  0
LINE
  5
282B
100
AcDbEntity
  8
0
  6
BYBLOCK
 62
     1
100
AcDbLine
 10
1074.040267
 20
263.862884
 30
0.0
 11
1075.144155
 21
262.195122
 31
0.0
  0
MTEXT
  5
282C
100
AcDbEntity
  8
0
  6
BYBLOCK
 62
     3
100
AcDbMText
 10
1049.142482
 20
306.008099
 30
0.0
 40
3.0
 41
0.0
 71
     5
 72
     1
  1
\A1;\U+220532
 11
0.551944
 21
-0.833881
 31
0.0
  0
LINE
  5
282D
100
AcDbEntity
  8
0
  6
BYBLOCK
 62
     1
100
AcDbLine
 10
1072.936379
 20
265.530647
 30
0.0
 11
1055.274173
 21
292.214846
 31
0.0
  0
INSERT
  5
282E
100
AcDbEntity
  8
0
  6
BYBLOCK
 62
     1
100
AcDbBlockReference
  2
_OPEN30
 10
1072.936379
 20
265.530647
 30
0.0
 41
2.0
 42
2.0
 43
2.0
 50
123.500477
  0
INSERT
  5
282F
100
AcDbEntity
  8
0
  6
BYBLOCK
 62
     1
100
AcDbBlockReference
  2
_OPEN30
 10
1055.274173
 20
292.214846
 30
0.0
 41
2.0
 42
2.0
 43
2.0
 50
303.500477
  0
POINT
  5
2830
100
AcDbEntity
  8
DEFPOINTS
  6
BYBLOCK
 62
     0
100
AcDbPoint
 10
1055.274173
 20
292.214846
 30
0.0
  0
POINT
  5
2831
100
AcDbEntity
  8
DEFPOINTS
  6
BYBLOCK
 62
     0
100
AcDbPoint
 10
1072.936379
 20
265.530647
 30
0.0
  0
ENDBLK
  5
2832
100
AcDbEntity
  8
0
100
AcDbBlockEnd
  0
BLOCK
  5
2919
100
AcDbEntity
  8
0
100
AcDbBlockBegin
  2
*D7
 70
     1
 10
0.0
 20
0.0
 30
0.0
  3
*D7
  1

  0
LINE
  5
291A
100
AcDbEntity
  8
0
  6
BYBLOCK
 62
     1
100
AcDbLine
 10
907.936884
 20
41.351691
 30
0.0
 11
907.936884
 21
51.86527
 31
0.0
  0
LINE
  5
291B
100
AcDbEntity
  8
0
  6
BYBLOCK
 62
     1
100
AcDbLine
 10
906.651787
 20
10.351691
 30
0.0
 11
866.423304
 21
10.351691
 31
0.0
  0
ARC
  5
291C
100
AcDbEntity
  8
0
  6
BYBLOCK
 62
     1
100
AcDbCircle
 10
907.936884
 20
10.351691
 30
0.0
 40
39.51358
100
AcDbArc
 50
92.900365
 51
177.099635
  0
INSERT
  5
291D
100
AcDbEntity
  8
0
  6
BYBLOCK
 62
     1
100
AcDbBlockReference
  2
_OPEN30
 10
907.936884
 20
49.86527
 30
0.0
 41
2.0
 42
2.0
 43
2.0
 50
1.450182
  0
INSERT
  5
291E
100
AcDbEntity
  8
0
  6
BYBLOCK
 62
     1
100
AcDbBlockReference
  2
_OPEN30
 10
868.423304
 20
10.351691
 30
0.0
 41
2.0
 42
2.0
 43
2.0
 50
268.549818
  0
MTEXT
  5
291F
100
AcDbEntity
  8
0
  6
BYBLOCK
 62
     3
100
AcDbMText
 10
878.228797
 20
40.059778
 30
0.0
 40
3.0
 41
0.0
 71
     5
 72
     1
  1
\A1;90°
 11
0.707107
 21
0.707107
 31
0.0
  0
POINT
  5
2920
100
AcDbEntity
  8
DEFPOINTS
  6
BYBLOCK
 62
     0
100
AcDbPoint
 10
888.180094
 20
44.571455
 30
0.0
  0
POINT
  5
2921
100
AcDbEntity
  8
DEFPOINTS
  6
BYBLOCK
 62
     0
100
AcDbPoint
 10
907.936884
 20
26.099111
 30
0.0
  0
POINT
  5
2922
100
AcDbEntity
  8
DEFPOINTS
  6
BYBLOCK
 62
     0
100
AcDbPoint
 10
908.465749
 20
10.351691
 30
0.0
  0
POINT
  5
2923
100
AcDbEntity
  8
DEFPOINTS
  6
BYBLOCK
 62
     0
100
AcDbPoint
 10
907.651787
 20
10.351691
 30
0.0
  0
POINT
  5
2924
100
AcDbEntity
  8
DEFPOINTS
  6
BYBLOCK
 62
     0
100
AcDbPoint
 10
907.936884
 20
40.351691
 30
0.0
  0
ENDBLK
  5
2925
100
AcDbEntity
  8
0
100
AcDbBlockEnd
  0
BLOCK
  5
29CD
100
AcDbEntity
  8
0
100
AcDbBlockBegin
  2
*D8
 70
     1
 10
0.0
 20
0.0
 30
0.0
  3
*D8
  1

  0
LINE
  5
29CE
100
AcDbEntity
  8
0
  6
BYBLOCK
 62
     1
100
AcDbLine
 10
899.312194
 20
-45.242486
 30
0.0
 11
885.716481
 21
-45.242486
 31
0.0
  0
LINE
  5
29CF
100
AcDbEntity
  8
0
  6
BYBLOCK
 62
     1
100
AcDbLine
 10
906.776899
 20
-45.346995
 30
0.0
 11
885.837256
 21
-47.547434
 31
0.0
  0
ARC
  5
29D0
100
AcDbEntity
  8
0
  6
BYBLOCK
 62
     1
100
AcDbCircle
 10
907.771423
 20
-45.242486
 30
0.0
 40
20.054942
100
AcDbArc
 50
168.55321
 51
180.0
  0
LINE
  5
29D1
100
AcDbEntity
  8
0
  6
BYBLOCK
 62
     1
100
AcDbLine
 10
888.115385
 20
-41.262426
 30
0.0
 11
889.822122
 21
-32.833485
 31
0.0
  0
ARC
  5
29D2
100
AcDbEntity
  8
0
  6
BYBLOCK
 62
     1
100
AcDbCircle
 10
907.771423
 20
-45.242486
 30
0.0
 40
20.054942
100
AcDbArc
 50
168.567496
 51
174.283748
  0
ARC
  5
29D3
100
AcDbEntity
  8
0
  6
BYBLOCK
 62
     1
100
AcDbCircle
 10
907.771423
 20
-45.242486
 30
0.0
 40
20.054942
100
AcDbArc
 50
191.715153
 51
197.431404
  0
ARC
  5
29D4
100
AcDbEntity
  8
0
  6
BYBLOCK
 62
     1
100
AcDbCircle
 10
907.771423
 20
-45.242486
 30
0.0
 40
20.054942
100
AcDbArc
 50
180.0
 51
185.998901
  0
INSERT
  5
29D5
100
AcDbEntity
  8
0
  6
BYBLOCK
 62
     1
100
AcDbBlockReference
  2
_OPEN30
 10
887.716481
 20
-45.242486
 30
0.0
 41
2.0
 42
2.0
 43
2.0
 50
267.141874
  0
INSERT
  5
29D6
100
AcDbEntity
  8
0
  6
BYBLOCK
 62
     1
100
AcDbBlockReference
  2
_OPEN30
 10
887.826304
 20
-47.338415
 30
0.0
 41
2.0
 42
2.0
 43
2.0
 50
98.857027
  0
MTEXT
  5
29D7
100
AcDbEntity
  8
0
  6
BYBLOCK
 62
     3
100
AcDbMText
 10
891.419027
 20
-37.5441
 30
0.0
 40
3.0
 41
0.0
 71
     5
 72
     1
  1
\A1;6°
 11
-0.198458
 21
-0.980109
 31
0.0
  0
POINT
  5
29D8
100
AcDbEntity
  8
DEFPOINTS
  6
BYBLOCK
 62
     0
100
AcDbPoint
 10
887.765316
 20
-46.641192
 30
0.0
  0
POINT
  5
29D9
100
AcDbEntity
  8
DEFPOINTS
  6
BYBLOCK
 62
     0
100
AcDbPoint
 10
907.771436
 20
-45.242484
 30
0.0
  0
POINT
  5
29DA
100
AcDbEntity
  8
DEFPOINTS
  6
BYBLOCK
 62
     0
100
AcDbPoint
 10
1164.315066
 20
-45.242486
 30
0.0
  0
POINT
  5
29DB
100
AcDbEntity
  8
DEFPOINTS
  6
BYBLOCK
 62
     0
100
AcDbPoint
 10
900.312194
 20
-45.242486
 30
0.0
  0
POINT
  5
29DC
100
AcDbEntity
  8
DEFPOINTS
  6
BYBLOCK
 62
     0
100
AcDbPoint
 10
925.448815
 20
-43.38486
 30
0.0
  0
ENDBLK
  5
29DD
100
AcDbEntity
  8
0
100
AcDbBlockEnd
  0
ENDSEC
  0
SECTION
  2
ENTITIES
  0
LINE
  5
1EE6
100
AcDbEntity
  8
外形
  6
CONTINUOUS
100
AcDbLine
 10
634.605951
 20
48.101691
 30
0.0
 11
621.182557
 21
40.351691
 31
0.0
  0
LINE
  5
2719
102
{ACAD_REACTORS
330
278A
102
}
100
AcDbEntity
  8
外形
  6
CENTER
 62
     1
100
AcDbLine
 10
877.56074
 20
32.351691
 30
0.0
 11
613.557868
 21
32.351691
 31
0.0
  0
LINE
  5
271A
100
AcDbEntity
  8
外形
  6
CENTER
 62
     1
100
AcDbLine
 10
877.56074
 20
-45.242486
 30
0.0
 11
613.557868
 21
-45.242486
 31
0.0
  0
CIRCLE
  5
271C
100
AcDbEntity
  8
外形
  6
CENTER
 62
     1
100
AcDbCircle
 10
551.521645
 20
32.351691
 30
0.0
 40
22.0
  0
DIMENSION
  5
271D
100
AcDbEntity
  8
寸法
  6
CONTINUOUS
100
AcDbDimension
  2
*D5
 10
551.521645
 20
10.351691
 30
0.0
 11
542.399512
 21
6.735281
 31
0.0
 12
-285.202274
 22
-246.521055
 32
0.0
 70
    34
  3
STANDARD
100
AcDb2LineAngularDimension
 13
556.491177
 23
38.535306
 33
0.0
 14
551.521645
 24
10.351691
 34
0.0
 15
551.521645
 25
59.863325
 35
0.0
 16
550.916051
 26
-0.045973
 36
0.0
1001
ACAD
1000
DSTYLE
1002
{
1070
    40
1040
1.0
1002
}
  0
ARC
  5
271F
100
AcDbEntity
  8
外形
  6
CONTINUOUS
100
AcDbCircle
 10
551.521645
 20
30.851691
 30
0.0
 40
17.5
100
AcDbArc
 50
90.0
 51
180.0
  0
LINE
  5
2721
100
AcDbEntity
  8
外形
  6
CENTER
 62
     1
100
AcDbLine
 10
576.633799
 20
32.351691
 30
0.0
 11
525.078027
 21
32.351691
 31
0.0
  0
LINE
  5
2722
100
AcDbEntity
  8
外形
  6
CONTINUOUS
100
AcDbLine
 10
534.021645
 20
30.851691
 30
0.0
 11
534.021645
 21
20.743504
 31
0.0
  0
LEADER
  5
2723
100
AcDbEntity
  8
寸法
  6
CONTINUOUS
 62
     1
100
AcDbLeader
  3
STANDARD
 73
     0
 74
     0
 75
     1
 40
3.0
 41
26.0
 76
     3
 10
559.936307
 20
52.678852
 30
0.0
 10
569.854715
 20
67.698543
 30
0.0
 10
571.854715
 20
67.698543
 30
0.0
 77
   256
340
27A5
1001
ACAD
1000
DSTYLE
1002
{
1070
    40
1040
1.0
1002
}
  0
DIMENSION
  5
2724
100
AcDbEntity
  8
寸法
  6
CONTINUOUS
100
AcDbDimension
  2
*D6
 10
798.887322
 20
19.009591
 30
0.0
 11
773.008722
 21
58.107184
 31
0.0
 12
-274.049057
 22
-246.521055
 32
0.0
 70
   163
  3
STANDARD
100
AcDbDiametricDimension
 15
781.225116
 25
45.69379
 35
0.0
 40
0.0
1001
ACAD
1000
DSTYLE
1002
{
1070
    40
1040
1.0
1002
}
  0
LINE
  5
2725
100
AcDbEntity
  8
外形
  6
CONTINUOUS
100
AcDbLine
 10
772.906219
 20
17.351691
 30
0.0
 11
675.897461
 21
17.351691
 31
0.0
  0
LINE
  5
2726
100
AcDbEntity
  8
外形
  6
CONTINUOUS
100
AcDbLine
 10
675.397461
 20
26.783926
 30
0.0
 11
772.906219
 21
26.783926
 31
0.0
  0
LINE
  5
2727
100
AcDbEntity
  8
外形
  6
CONTINUOUS
100
AcDbLine
 10
675.397461
 20
37.919455
 30
0.0
 11
772.906219
 21
37.919455
 31
0.0
  0
LINE
  5
2728
100
AcDbEntity
  8
外形
  6
CONTINUOUS
100
AcDbLine
 10
675.897461
 20
48.351691
 30
0.0
 11
772.906219
 21
48.351691
 31
0.0
  0
LINE
  5
2729
100
AcDbEntity
  8
外形
  6
CONTINUOUS
100
AcDbLine
 10
868.897461
 20
-50.81025
 30
0.0
 11
675.397461
 21
-50.81025
 31
0.0
  0
LINE
  5
272A
100
AcDbEntity
  8
外形
  6
CONTINUOUS
100
AcDbLine
 10
868.897461
 20
-39.674721
 30
0.0
 11
675.397461
 21
-39.674721
 31
0.0
  0
LINE
  5
272B
100
AcDbEntity
  8
外形
  6
CONTINUOUS
100
AcDbLine
 10
868.897461
 20
-60.242486
 30
0.0
 11
675.897461
 21
-60.242486
 31
0.0
  0
LINE
  5
272C
100
AcDbEntity
  8
外形
  6
CONTINUOUS
100
AcDbLine
 10
868.897461
 20
-30.242486
 30
0.0
 11
675.897461
 21
-30.242486
 31
0.0
  0
DIMENSION
  5
272D
100
AcDbEntity
  8
寸法
  6
CONTINUOUS
100
AcDbDimension
  2
*D1
 10
870.897461
 20
-7.609935
 30
0.0
 11
745.897461
 21
-5.109935
 31
0.0
 12
-285.202274
 22
-246.521055
 32
0.0
 70
    32
  3
STANDARD
100
AcDbAlignedDimension
 13
620.897461
 23
10.351691
 33
0.0
 14
870.897461
 24
19.351691
 34
0.0
100
AcDbRotatedDimension
1001
ACAD
1000
DSTYLE
1002
{
1070
    40
1040
1.0
1002
}
  0
DIMENSION
  5
273B
100
AcDbEntity
  8
寸法
  6
CONTINUOUS
100
AcDbDimension
  2
*D3
 10
607.288846
 20
32.351691
 30
0.0
 11
604.788846
 21
21.351691
 31
0.0
 12
-285.202274
 22
-246.521055
 32
0.0
 70
    32
  3
STANDARD
100
AcDbAlignedDimension
 13
620.897461
 23
10.351691
 33
0.0
 14
613.557868
 24
32.351691
 34
0.0
 50
90.0
100
AcDbRotatedDimension
1001
ACAD
1000
DSTYLE
1002
{
1070
    40
1040
1.0
1002
}
  0
ARC
  5
2741
100
AcDbEntity
  8
外形
  6
CONTINUOUS
100
AcDbCircle
 10
551.521645
 20
32.351691
 30
0.0
 40
16.0
100
AcDbArc
 50
273.813735
 51
339.635865
  0
LINE
  5
2742
100
AcDbEntity
  8
外形
  6
CONTINUOUS
100
AcDbLine
 10
545.829276
 20
23.793299
 30
0.0
 11
543.706613
 21
11.755077
 31
0.0
  0
LINE
  5
2743
100
AcDbEntity
  8
外形
  6
CONTINUOUS
100
AcDbLine
 10
548.960965
 20
23.241098
 30
0.0
 11
546.833961
 21
11.178256
 31
0.0
  0
LINE
  5
2744
100
AcDbEntity
  8
外形
  6
CONTINUOUS
100
AcDbLine
 10
548.965306
 20
23.265718
 30
0.0
 11
553.652991
 21
22.439153
 31
0.0
  0
LINE
  5
2745
100
AcDbEntity
  8
外形
  6
CONTINUOUS
100
AcDbLine
 10
557.981879
 20
46.989497
 30
0.0
 11
551.521645
 21
10.351691
 31
0.0
  0
LINE
  5
2746
100
AcDbEntity
  8
外形
  6
CENTER
 62
     1
100
AcDbLine
 10
551.521645
 20
59.863325
 30
0.0
 11
551.521645
 21
4.947544
 31
0.0
  0
LINE
  5
2747
100
AcDbEntity
  8
外形
  6
CONTINUOUS
100
AcDbLine
 10
543.706613
 20
11.755077
 30
0.0
 11
546.838302
 21
11.202876
 31
0.0
  0
LINE
  5
2748
100
AcDbEntity
  8
外形
  6
CONTINUOUS
100
AcDbLine
 10
546.833961
 20
11.178256
 30
0.0
 11
551.521645
 21
10.351691
 31
0.0
  0
ARC
  5
274A
100
AcDbEntity
  8
外形
  6
CONTINUOUS
100
AcDbCircle
 10
551.521645
 20
32.351691
 30
0.0
 40
16.0
100
AcDbArc
 50
20.364135
 51
90.0
  0
LINE
  5
274B
100
AcDbEntity
  8
外形
  6
CONTINUOUS
100
AcDbLine
 10
556.811455
 20
40.351691
 30
0.0
 11
536.824707
 21
40.351691
 31
0.0
  0
LINE
  5
274C
100
AcDbEntity
  8
外形
  6
CONTINUOUS
100
AcDbLine
 10
545.829276
 20
23.793299
 30
0.0
 11
548.960965
 21
23.241098
 31
0.0
  0
LINE
  5
274D
100
AcDbEntity
  8
外形
  6
CONTINUOUS
100
AcDbLine
 10
566.521645
 20
37.919455
 30
0.0
 11
566.521645
 21
26.783926
 31
0.0
  0
LINE
  5
2751
100
AcDbEntity
  8
外形
  6
CONTINUOUS
100
AcDbLine
 10
675.397461
 20
-29.492486
 30
0.0
 11
660.897461
 21
-29.492486
 31
0.0
  0
LINE
  5
2752
100
AcDbEntity
  8
外形
  6
CONTINUOUS
100
AcDbLine
 10
675.397461
 20
-40.440142
 30
0.0
 11
656.15167
 21
-40.440142
 31
0.0
  0
LINE
  5
2753
100
AcDbEntity
  8
外形
  6
CONTINUOUS
100
AcDbLine
 10
675.397461
 20
-50.044829
 30
0.0
 11
640.897461
 21
-50.044829
 31
0.0
  0
LINE
  5
2754
100
AcDbEntity
  8
外形
  6
CONTINUOUS
100
AcDbLine
 10
675.397461
 20
-60.992486
 30
0.0
 11
640.897461
 21
-60.992486
 31
0.0
  0
LINE
  5
2756
100
AcDbEntity
  8
外形
  6
CONTINUOUS
100
AcDbLine
 10
640.897461
 20
-42.562525
 30
0.0
 11
640.897461
 21
-61.742486
 31
0.0
  0
DIMENSION
  5
2758
100
AcDbEntity
  8
寸法
  6
CONTINUOUS
100
AcDbDimension
  2
*D2
 10
640.897461
 20
-70.750044
 30
0.0
 11
630.897461
 21
-68.250044
 31
0.0
 70
    32
  3
STANDARD
100
AcDbAlignedDimension
 13
620.897461
 23
-45.242486
 33
0.0
 14
640.897461
 24
-61.742486
 34
0.0
100
AcDbRotatedDimension
1001
ACAD
1000
DSTYLE
1002
{
1070
    40
1040
1.0
1002
}
  0
LINE
  5
275D
100
AcDbEntity
  8
外形
  6
CONTINUOUS
100
AcDbLine
 10
639.897461
 20
-62.742486
 30
0.0
 11
622.76567
 21
-62.742486
 31
0.0
  0
SPLINE
  5
275E
100
AcDbEntity
  8
外形
  6
CONTINUOUS
100
AcDbSpline
210
-0.1378067541523828
220
0.9904591352044691
230
0.0
 70
    24
 71
     3
 72
     8
 73
     4
 74
     2
 42
0.0000001
 43
0.0000001
 44
0.0000000001
 40
0.0
 40
0.0
 40
0.0
 40
0.0
 40
15.40114967161113
 40
15.40114967161113
 40
15.40114967161113
 40
15.40114967161113
 10
656.1516700401093
 20
-40.44014243293247
 30
0.0
 10
651.0669335784764
 20
-41.14760324841906
 30
0.0
 10
645.9821971168436
 20
-41.85506406390565
 30
0.0
 10
640.8974606552107
 20
-42.56252487939224
 30
0.0
 11
656.1516700401093
 21
-40.44014243293247
 31
0.0
 11
640.8974606552107
 21
-42.56252487939224
 31
0.0
  0
ARC
  5
2765
100
AcDbEntity
  8
外形
  6
CONTINUOUS
100
AcDbCircle
 10
645.897461
 20
-29.492486
 30
0.0
 40
15.0
100
AcDbArc
 50
313.1267
 51
0.0
  0
LINE
  5
2766
100
AcDbEntity
  8
外形
  6
CONTINUOUS
100
AcDbLine
 10
675.397461
 20
-50.044829
 30
0.0
 11
675.397461
 21
-60.992486
 31
0.0
  0
LINE
  5
2767
100
AcDbEntity
  8
外形
  6
CONTINUOUS
100
AcDbLine
 10
675.897461
 20
-50.81025
 30
0.0
 11
675.897461
 21
-60.742486
 31
0.0
  0
LINE
  5
2768
100
AcDbEntity
  8
外形
  6
CONTINUOUS
100
AcDbLine
 10
675.397461
 20
-60.992486
 30
0.0
 11
675.897461
 21
-60.742486
 31
0.0
  0
LINE
  5
2769
100
AcDbEntity
  8
外形
  6
CONTINUOUS
100
AcDbLine
 10
675.397461
 20
-29.492486
 30
0.0
 11
675.897461
 21
-29.742486
 31
0.0
  0
LINE
  5
276A
100
AcDbEntity
  8
外形
  6
CONTINUOUS
100
AcDbLine
 10
675.397461
 20
-29.492486
 30
0.0
 11
675.397461
 21
-40.440142
 31
0.0
  0
LINE
  5
276B
100
AcDbEntity
  8
外形
  6
CONTINUOUS
100
AcDbLine
 10
675.897461
 20
-29.742486
 30
0.0
 11
675.897461
 21
-39.674721
 31
0.0
  0
LINE
  5
276C
100
AcDbEntity
  8
外形
  6
CONTINUOUS
100
AcDbLine
 10
675.397461
 20
37.154034
 30
0.0
 11
660.897461
 21
37.154034
 31
0.0
  0
LINE
  5
276D
100
AcDbEntity
  8
外形
  6
CONTINUOUS
100
AcDbLine
 10
675.397461
 20
48.101691
 30
0.0
 11
634.605951
 21
48.101691
 31
0.0
  0
LINE
  5
276E
100
AcDbEntity
  8
外形
  6
CONTINUOUS
100
AcDbLine
 10
675.397461
 20
27.549348
 30
0.0
 11
660.897461
 21
27.549348
 31
0.0
  0
LINE
  5
276F
100
AcDbEntity
  8
外形
  6
CONTINUOUS
100
AcDbLine
 10
651.397461
 20
16.601691
 30
0.0
 11
640.897461
 21
16.601691
 31
0.0
  0
LINE
  5
2782
100
AcDbEntity
  8
外形
  6
CONTINUOUS
100
AcDbLine
 10
675.897461
 20
26.783926
 30
0.0
 11
675.897461
 21
16.851691
 31
0.0
  0
LINE
  5
2783
100
AcDbEntity
  8
外形
  6
CONTINUOUS
100
AcDbLine
 10
675.397461
 20
27.549348
 30
0.0
 11
675.397461
 21
16.601691
 31
0.0
  0
LINE
  5
2785
100
AcDbEntity
  8
外形
  6
CONTINUOUS
100
AcDbLine
 10
675.397461
 20
16.601691
 30
0.0
 11
675.897461
 21
16.851691
 31
0.0
  0
LINE
  5
2786
100
AcDbEntity
  8
外形
  6
CONTINUOUS
100
AcDbLine
 10
675.897461
 20
48.351691
 30
0.0
 11
675.897461
 21
37.919455
 31
0.0
  0
LINE
  5
2787
100
AcDbEntity
  8
外形
  6
CONTINUOUS
100
AcDbLine
 10
675.397461
 20
48.101691
 30
0.0
 11
675.397461
 21
37.154034
 31
0.0
  0
LINE
  5
2788
100
AcDbEntity
  8
外形
  6
CONTINUOUS
100
AcDbLine
 10
675.397461
 20
48.101691
 30
0.0
 11
675.897461
 21
48.351691
 31
0.0
  0
TEXT
  5
2789
100
AcDbEntity
  8
外形
  6
CONTINUOUS
 62
     2
100
AcDbText
 10
713.857001
 20
-94.182516
 30
0.0
 40
6.0
  1
BTFN332R
100
AcDbText
  0
HATCH
  5
278A
100
AcDbEntity
  8
外形
  6
CONTINUOUS
100
AcDbHatch
 10
0.0
 20
0.0
 30
0.0
210
0.0
220
0.0
230
1.0
  2
ANSI31
 70
     0
 71
     1
 91
        4
 92
        7
 72
     1
 73
     1
 93
        4
 10
790.0562194039153
 20
48.3516907289748
 42
0.3135528725660083
 10
775.0562194039153
 20
37.91945509180466
 42
0.0
 10
775.0562194039153
 20
32.35169072897486
 42
0.0
 10
790.0562194039155
 20
32.35169072897486
 42
0.0
 97
        4
330
278B
330
2792
330
2719
330
2790
 92
        7
 72
     1
 73
     1
 93
        4
 10
790.0562194039153
 20
48.35169072897484
 42
0.0
 10
790.0562194039155
 20
32.35169072897484
 42
0.0
 10
805.0562194039153
 20
32.35169072897483
 42
0.0
 10
805.0562194039153
 20
37.91945509180466
 42
0.3135528725660088
 97
        4
330
2790
330
2719
330
279E
330
278B
 92
        7
 72
     1
 73
     1
 93
        5
 10
805.0562194039153
 20
26.78392636614532
 42
0.0
 10
805.0562194039153
 20
32.35169072897484
 42
0.0
 10
790.0562194039153
 20
32.35169072897484
 42
0.0
 10
790.0562194039153
 20
17.35169072897486
 42
0.0
 10
795.6239837667453
 20
17.35169072897486
 42
0.2183631446847036
 97
        5
330
279E
330
2719
330
2790
330
2791
330
278C
 92
        7
 72
     1
 73
     1
 93
        5
 10
784.4884550410852
 20
17.35169072897486
 42
0.0
 10
790.0562194039155
 20
17.35169072897486
 42
0.0
 10
790.0562194039153
 20
32.35169072897487
 42
0.0
 10
775.0562194039153
 20
32.35169072897487
 42
0.0
 10
775.0562194039153
 20
26.78392636614502
 42
0.2183631446846986
 97
        5
330
2719
330
2792
330
278F
330
2791
330
2790
 75
     0
 76
     1
 52
0.0
 41
15.0
 77
     0
 78
     1
 53
45.0
 43
114.456335
 44
389.646265
 45
-1.325825214724776
 46
1.325825214724776
 79
     0
 47
0.118346
 98
        4
 10
785.037991
 20
40.126168
 10
799.463582
 20
38.447307
 10
798.515835
 20
25.429247
 10
783.470349
 20
25.310903
  0
ARC
  5
278B
102
{ACAD_REACTORS
330
278A
102
}
100
AcDbEntity
  8
外形
  6
CONTINUOUS
100
AcDbCircle
 10
790.056219
 20
32.351691
 30
0.0
 40
16.0
100
AcDbArc
 50
20.364135
 51
159.635865
  0
ARC
  5
278C
102
{ACAD_REACTORS
330
278A
102
}
100
AcDbEntity
  8
外形
  6
CONTINUOUS
100
AcDbCircle
 10
790.056219
 20
32.351691
 30
0.0
 40
16.0
100
AcDbArc
 50
290.364135
 51
339.635865
  0
DIMENSION
  5
278E
100
AcDbEntity
  8
寸法
  6
CONTINUOUS
100
AcDbDimension
  2
*D4
 10
775.056219
 20
6.30565
 30
0.0
 11
778.903002
 21
8.80565
 31
0.0
 12
-274.049057
 22
-246.521055
 32
0.0
 70
    32
  3
STANDARD
100
AcDbAlignedDimension
 13
805.056219
 23
26.783926
 33
0.0
 14
775.056219
 24
26.783926
 34
0.0
100
AcDbRotatedDimension
1001
ACAD
1000
DSTYLE
1002
{
1070
    40
1040
1.0
1002
}
  0
ARC
  5
278F
102
{ACAD_REACTORS
330
278A
102
}
100
AcDbEntity
  8
外形
  6
CONTINUOUS
100
AcDbCircle
 10
790.056219
 20
32.351691
 30
0.0
 40
16.0
100
AcDbArc
 50
200.364135
 51
249.635865
  0
LINE
  5
2790
102
{ACAD_REACTORS
330
278A
102
}
100
AcDbEntity
  8
外形
  6
CENTER
 62
     1
100
AcDbLine
 10
790.056219
 20
48.612433
 30
0.0
 11
790.056219
 21
15.763991
 31
0.0
  0
LINE
  5
2791
102
{ACAD_REACTORS
330
278A
102
}
100
AcDbEntity
  8
外形
  6
CONTINUOUS
100
AcDbLine
 10
784.488455
 20
17.351691
 30
0.0
 11
795.623984
 21
17.351691
 31
0.0
  0
LINE
  5
2792
102
{ACAD_REACTORS
330
278A
102
}
100
AcDbEntity
  8
外形
  6
CONTINUOUS
100
AcDbLine
 10
775.056219
 20
37.919455
 30
0.0
 11
775.056219
 21
26.783926
 31
0.0
  0
LINE
  5
2793
100
AcDbEntity
  8
外形
  6
CONTINUOUS
100
AcDbLine
 10
868.897461
 20
-50.81025
 30
0.0
 11
868.897461
 21
-60.242486
 31
0.0
  0
LINE
  5
2794
100
AcDbEntity
  8
外形
  6
CONTINUOUS
100
AcDbLine
 10
868.897461
 20
-60.242486
 30
0.0
 11
868.897461
 21
-50.81025
 31
0.0
  0
LINE
  5
2795
100
AcDbEntity
  8
外形
  6
CONTINUOUS
100
AcDbLine
 10
870.897461
 20
-32.242486
 30
0.0
 11
870.897461
 21
-58.242486
 31
0.0
  0
LINE
  5
2796
100
AcDbEntity
  8
外形
  6
CONTINUOUS
100
AcDbLine
 10
868.897461
 20
-60.242486
 30
0.0
 11
870.897461
 21
-58.242486
 31
0.0
  0
LINE
  5
2797
100
AcDbEntity
  8
外形
  6
CONTINUOUS
100
AcDbLine
 10
868.897461
 20
-30.242486
 30
0.0
 11
870.897461
 21
-32.242486
 31
0.0
  0
ARC
  5
2798
100
AcDbEntity
  8
外形
  6
CONTINUOUS
100
AcDbCircle
 10
853.897461
 20
-45.242486
 30
0.0
 40
16.0
100
AcDbArc
 50
339.635865
 51
20.364135
  0
LINE
  5
2799
100
AcDbEntity
  8
外形
  6
CONTINUOUS
100
AcDbLine
 10
868.897461
 20
-30.242486
 30
0.0
 11
868.897461
 21
-39.674721
 31
0.0
  0
LINE
  5
279A
100
AcDbEntity
  8
外形
  6
CONTINUOUS
100
AcDbLine
 10
807.206219
 20
26.783926
 30
0.0
 11
868.897461
 21
26.783926
 31
0.0
  0
LINE
  5
279B
100
AcDbEntity
  8
外形
  6
CONTINUOUS
100
AcDbLine
 10
807.206219
 20
48.351691
 30
0.0
 11
868.897461
 21
48.351691
 31
0.0
  0
LINE
  5
279C
100
AcDbEntity
  8
外形
  6
CONTINUOUS
100
AcDbLine
 10
807.206219
 20
37.919455
 30
0.0
 11
868.897461
 21
37.919455
 31
0.0
  0
LINE
  5
279D
100
AcDbEntity
  8
外形
  6
CONTINUOUS
100
AcDbLine
 10
868.897461
 20
17.351691
 30
0.0
 11
807.206219
 21
17.351691
 31
0.0
  0
LINE
  5
279E
102
{ACAD_REACTORS
330
278A
102
}
100
AcDbEntity
  8
外形
  6
CONTINUOUS
100
AcDbLine
 10
805.056219
 20
37.919455
 30
0.0
 11
805.056219
 21
26.783926
 31
0.0
  0
LINE
  5
279F
100
AcDbEntity
  8
外形
  6
CONTINUOUS
100
AcDbLine
 10
868.897461
 20
26.783926
 30
0.0
 11
868.897461
 21
17.351691
 31
0.0
  0
LINE
  5
27A0
100
AcDbEntity
  8
外形
  6
CONTINUOUS
100
AcDbLine
 10
870.897461
 20
46.351691
 30
0.0
 11
870.897461
 21
19.351691
 31
0.0
  0
LINE
  5
27A1
100
AcDbEntity
  8
外形
  6
CONTINUOUS
100
AcDbLine
 10
870.897461
 20
19.351691
 30
0.0
 11
868.897461
 21
17.351691
 31
0.0
  0
LINE
  5
27A2
100
AcDbEntity
  8
外形
  6
CONTINUOUS
100
AcDbLine
 10
868.897461
 20
48.351691
 30
0.0
 11
868.897461
 21
37.919455
 31
0.0
  0
LINE
  5
27A3
100
AcDbEntity
  8
外形
  6
CONTINUOUS
100
AcDbLine
 10
868.897461
 20
48.351691
 30
0.0
 11
870.897461
 21
46.351691
 31
0.0
  0
ARC
  5
27A4
100
AcDbEntity
  8
外形
  6
CONTINUOUS
100
AcDbCircle
 10
853.897461
 20
32.351691
 30
0.0
 40
16.0
100
AcDbArc
 50
339.635865
 51
20.364135
  0
MTEXT
  5
27A5
102
{ACAD_REACTORS
330
2723
102
}
100
AcDbEntity
  8
寸法
  6
CONTINUOUS
 62
     3
100
AcDbMText
 10
572.854715
 20
70.198543
 30
0.0
 40
3.0
 41
0.0
 71
     4
 72
     1
  1
%%C44最小加工径
  0
LINE
  5
28CC
100
AcDbEntity
  8
外形
  6
CONTINUOUS
100
AcDbLine
 10
633.984961
 20
18.707641
 30
0.0
 11
622.097461
 21
25.570892
 31
0.0
  0
LINE
  5
28CD
100
AcDbEntity
  8
外形
  6
CONTINUOUS
100
AcDbLine
 10
623.983113
 20
11.515289
 30
0.0
 11
638.704422
 21
12.803237
 31
0.0
  0
LINE
  5
28CE
100
AcDbEntity
  8
外形
  6
CONTINUOUS
100
AcDbLine
 10
622.097461
 20
10.458749
 30
0.0
 11
635.184961
 21
18.01482
 31
0.0
  0
CIRCLE
  5
28CF
100
AcDbEntity
  8
外形
  6
CONTINUOUS
100
AcDbCircle
 10
625.659961
 20
18.01482
 30
0.0
 40
1.905
  0
CIRCLE
  5
28D0
100
AcDbEntity
  8
外形
  6
CONTINUOUS
100
AcDbCircle
 10
625.659961
 20
18.01482
 30
0.0
 40
2.35
  0
POINT
  5
28D2
100
AcDbEntity
  8
DEFPOINTS
  6
BYBLOCK
 62
     0
100
AcDbPoint
 10
620.897461
 20
24.878072
 30
0.0
  0
ARC
  5
28D3
100
AcDbEntity
  8
外形
  6
CONTINUOUS
100
AcDbCircle
 10
621.697461
 20
24.878072
 30
0.0
 40
0.8
100
AcDbArc
 50
60.0
 51
180.0
  0
LINE
  5
28D4
100
AcDbEntity
  8
外形
  6
CONTINUOUS
100
AcDbLine
 10
621.182557
 20
25.490342
 30
0.0
 11
621.182557
 21
40.351691
 31
0.0
  0
POINT
  5
28D5
100
AcDbEntity
  8
DEFPOINTS
  6
BYBLOCK
 62
     0
100
AcDbPoint
 10
620.911544
 20
10.337729
 30
0.0
  0
POINT
  5
28D6
100
AcDbEntity
  8
DEFPOINTS
  6
BYBLOCK
 62
     0
100
AcDbPoint
 10
620.911544
 20
10.337729
 30
0.0
  0
POINT
  5
28D7
100
AcDbEntity
  8
DEFPOINTS
  6
BYBLOCK
 62
     0
100
AcDbPoint
 10
620.897461
 20
11.151569
 30
0.0
  0
POINT
  5
28D8
100
AcDbEntity
  8
DEFPOINTS
  6
BYBLOCK
 62
     0
100
AcDbPoint
 10
621.711423
 20
10.351691
 30
0.0
  0
POINT
  5
28D9
100
AcDbEntity
  8
DEFPOINTS
  6
BYBLOCK
 62
     0
100
AcDbPoint
 10
620.911544
 20
10.337729
 30
0.0
  0
LINE
  5
28DA
100
AcDbEntity
  8
外形
  6
CONTINUOUS
100
AcDbLine
 10
623.982557
 20
11.54711
 30
0.0
 11
623.983113
 21
11.515289
 31
0.0
  0
ARC
  5
28DB
100
AcDbEntity
  8
外形
  6
CONTINUOUS
100
AcDbCircle
 10
621.697461
 20
11.151569
 30
0.0
 40
0.8
100
AcDbArc
 50
180.0
 51
300.0
  0
LINE
  5
28DC
100
AcDbEntity
  8
外形
  6
CONTINUOUS
 62
     1
100
AcDbLine
 10
621.711423
 20
10.351691
 30
0.0
 11
620.897461
 21
10.351691
 31
0.0
  0
LINE
  5
28DD
100
AcDbEntity
  8
外形
  6
CONTINUOUS
 62
     1
100
AcDbLine
 10
620.897461
 20
11.151569
 30
0.0
 11
620.897461
 21
10.351691
 31
0.0
  0
LINE
  5
28DE
100
AcDbEntity
  8
外形
  6
CONTINUOUS
100
AcDbLine
 10
620.897461
 20
24.878072
 30
0.0
 11
620.897461
 21
11.151569
 31
0.0
  0
ARC
  5
28DF
100
AcDbEntity
  8
外形
  6
CONTINUOUS
100
AcDbCircle
 10
634.184961
 20
19.746871
 30
0.0
 40
2.0
100
AcDbArc
 50
300.0
 51
120.0
  0
LINE
  5
28E0
100
AcDbEntity
  8
外形
  6
CONTINUOUS
100
AcDbLine
 10
631.184961
 20
20.324221
 30
0.0
 11
633.184961
 21
21.478922
 31
0.0
  0
ARC
  5
28E1
100
AcDbEntity
  8
外形
  6
CONTINUOUS
100
AcDbCircle
 10
633.57293
 20
18.021907
 30
0.0
 40
0.8
100
AcDbArc
 50
299.0
 51
59.0
  0
LINE
  5
28FA
100
AcDbEntity
  8
外形
  6
CONTINUOUS
100
AcDbLine
 10
640.897461
 20
16.601691
 30
0.0
 11
638.704422
 21
12.803237
 31
0.0
  0
DIMENSION
  5
2918
100
AcDbEntity
  8
寸法
  6
CONTINUOUS
100
AcDbDimension
  2
*D7
 10
621.182557
 20
40.351691
 30
0.0
 11
591.47447
 21
40.059778
 31
0.0
 12
-286.754326
 22
0.0
 32
0.0
 70
    34
  3
STANDARD
100
AcDb2LineAngularDimension
 13
621.711423
 23
10.351691
 33
0.0
 14
620.897461
 24
10.351691
 34
0.0
 15
621.182557
 25
26.099111
 35
0.0
 16
601.425768
 26
44.571455
 36
0.0
1001
ACAD
1000
DSTYLE
1002
{
1070
    40
1040
1.0
1002
}
  0
LINE
  5
2926
100
AcDbEntity
  8
外形
  6
CONTINUOUS
100
AcDbLine
 10
635.184961
 20
-41.701391
 30
0.0
 11
620.896988
 21
-45.242487
 31
0.0
  0
LINE
  5
2927
100
AcDbEntity
  8
外形
  6
CONTINUOUS
100
AcDbLine
 10
635.184961
 20
-41.701391
 30
0.0
 11
620.896988
 21
-41.701391
 31
0.0
  0
LINE
  5
292A
100
AcDbEntity
  8
外形
  6
CONTINUOUS
100
AcDbLine
 10
623.981806
 20
-44.918368
 30
0.0
 11
624.811755
 21
-52.814806
 31
0.0
  0
LINE
  5
292B
100
AcDbEntity
  8
外形
  6
CONTINUOUS
100
AcDbLine
 10
620.897461
 20
-45.242486
 30
0.0
 11
621.395016
 21
-49.97641
 31
0.0
  0
LINE
  5
292C
100
AcDbEntity
  8
外形
  6
CONTINUOUS
100
AcDbLine
 10
621.413912
 20
-49.974424
 30
0.0
 11
621.746313
 21
-53.137003
 31
0.0
  0
LINE
  5
292D
100
AcDbEntity
  8
外形
  6
CONTINUOUS
100
AcDbLine
 10
622.76567
 20
-62.742486
 30
0.0
 11
621.755986
 21
-53.135987
 31
0.0
  0
LINE
  5
292E
100
AcDbEntity
  8
外形
  6
CONTINUOUS
100
AcDbLine
 10
621.395016
 20
-49.97641
 30
0.0
 11
624.479355
 21
-49.652233
 31
0.0
  0
LINE
  5
292F
100
AcDbEntity
  8
外形
  6
CONTINUOUS
100
AcDbLine
 10
620.896988
 20
-41.701391
 30
0.0
 11
620.896988
 21
-45.242535
 31
0.0
  0
LINE
  5
2930
100
AcDbEntity
  8
外形
  6
CONTINUOUS
100
AcDbLine
 10
621.182557
 20
-41.701391
 30
0.0
 11
621.182557
 21
-40.142139
 31
0.0
  0
LINE
  5
2931
100
AcDbEntity
  8
外形
  6
CONTINUOUS
100
AcDbLine
 10
621.746313
 20
-53.137003
 30
0.0
 11
624.811756
 21
-52.814812
 31
0.0
  0
SPLINE
  5
293C
100
AcDbEntity
  8
外形
  6
CONTINUOUS
100
AcDbSpline
210
0.0
220
0.0
230
1.0
 70
     8
 71
     3
 72
    13
 73
     9
 74
     7
 42
0.0000001
 43
0.0000001
 44
0.0000000001
 40
0.0
 40
0.0
 40
0.0
 40
0.0
 40
9.143601343789484
 40
12.19301924138874
 40
35.14833761589016
 40
37.52927161228237
 40
39.2210322363984
 40
41.53927334087169
 40
41.53927334087169
 40
41.53927334087169
 40
41.53927334087169
 10
621.1825574291989
 20
-40.14213880926198
 30
0.0
 10
624.1415208137571
 20
-39.37861640452949
 30
0.0
 10
628.0873071758218
 20
-38.36045703579696
 30
0.0
 10
639.7775694410833
 20
-37.29570788509256
 30
0.0
 10
648.7038530448789
 20
-33.93136843527391
 30
0.0
 10
657.624814863068
 20
-32.19385238555268
 30
0.0
 10
659.4671525499194
 20
-31.05187216222288
 30
0.0
 10
660.3734922916033
 20
-30.06373960617681
 30
0.0
 10
660.8974606552102
 20
-29.49248561100705
 30
0.0
 11
621.1825574291989
 21
-40.14213880926198
 31
0.0
 11
630.1210739615803
 21
-38.21642654246483
 31
0.0
 11
633.1504250405082
 21
-37.86716796376271
 31
0.0
 11
655.4981975317128
 21
-32.62086389746184
 31
0.0
 11
657.7941177182733
 21
-31.99031081316218
 31
0.0
 11
659.2421224996201
 21
-31.11547587872803
 31
0.0
 11
660.8974606552102
 21
-29.49248561100705
 31
0.0
  0
LINE
  5
2959
100
AcDbEntity
  8
外形
  6
CONTINUOUS
100
AcDbLine
 10
638.704422
 20
-43.383816
 30
0.0
 11
638.704422
 21
-62.742486
 31
0.0
  0
LINE
  5
2989
100
AcDbEntity
  8
外形
  6
CONTINUOUS
100
AcDbLine
 10
621.01711
 20
-45.242484
 30
0.0
 11
638.694489
 21
-43.38486
 31
0.0
  0
LINE
  5
298A
100
AcDbEntity
  8
外形
  6
CONTINUOUS
100
AcDbLine
 10
638.694489
 20
-43.38486
 30
0.0
 11
640.897461
 21
-42.562525
 31
0.0
  0
DIMENSION
  5
29B0
100
AcDbEntity
  8
寸法
  6
CONTINUOUS
100
AcDbDimension
  2
*D8
 10
638.57484
 20
-43.384861
 30
0.0
 11
604.545052
 21
-37.544101
 31
0.0
 12
-286.873975
 22
-0.000001
 32
0.0
 70
    34
  3
STANDARD
100
AcDb2LineAngularDimension
 13
877.441091
 23
-45.242487
 33
0.0
 14
613.438219
 24
-45.242487
 34
0.0
 15
620.897461
 25
-45.242486
 35
0.0
 16
600.891341
 26
-46.641193
 36
0.0
1001
ACAD
1000
DSTYLE
1002
{
1070
    40
1040
1.0
1002
}
  0
ARC
  5
2A90
100
AcDbEntity
  8
外形
  6
CONTINUOUS
100
AcDbCircle
 10
551.521645
 20
32.351691
 30
0.0
 40
21.0
100
AcDbArc
 50
213.55731
 51
248.686447
  0
LINE
  5
2ADE
100
AcDbEntity
  8
外形
  6
CONTINUOUS
100
AcDbLine
 10
632.679576
 20
46.989497
 30
0.0
 11
651.397461
 21
46.989497
 31
0.0
  0
LINE
  5
2AE0
100
AcDbEntity
  8
外形
  6
CONTINUOUS
100
AcDbLine
 10
660.897461
 20
26.101691
 30
0.0
 11
660.897461
 21
37.489497
 31
0.0
  0
ARC
  5
2AE1
100
AcDbEntity
  8
外形
  6
CONTINUOUS
100
AcDbCircle
 10
651.397461
 20
37.489497
 30
0.0
 40
9.5
100
AcDbArc
 50
0.0
 51
90.0
  0
ARC
  5
2AE2
100
AcDbEntity
  8
外形
  6
CONTINUOUS
100
AcDbCircle
 10
651.397461
 20
26.101691
 30
0.0
 40
9.5
100
AcDbArc
 50
270.0
 51
0.0
  0
LINE
  5
2AE3
100
AcDbEntity
  8
外形
  6
CONTINUOUS
100
AcDbLine
 10
651.397461
 20
16.601691
 30
0.0
 11
675.397461
 21
16.601691
 31
0.0
  0
LINE
  5
2BD6
100
AcDbEntity
  8
外形
  6
CONTINUOUS
100
AcDbLine
 10
640.897461
 20
-61.742486
 30
0.0
 11
639.897461
 21
-62.742486
 31
0.0
  0
ENDSEC
  0
SECTION
  2
OBJECTS
  0
DICTIONARY
  5
1E
100
AcDbDictionary
  3
ACAD_GROUP
350
1C
  3
ACAD_MLINESTYLE
350
1D
  3
ACDBVARIABLEDICTIONARY
350
147A
  3
DRAWINGVARIABLESDICT
350
C58
  0
DICTIONARY
  5
38
100
AcDbDictionary
280
     1
  3
ACAD_XREC_ROUNDTRIP
360
39
  0
DICTIONARY
  5
22
100
AcDbDictionary
280
     1
  3
ACAD_XREC_ROUNDTRIP
360
23
  0
DICTIONARY
  5
3
100
AcDbDictionary
280
     1
  3
ACAD_LAYOUTSELFREF
360
4
  0
DICTIONARY
  5
A
100
AcDbDictionary
280
     1
  3
ACAD_LAYOUTSELFREF
360
B
  0
DICTIONARY
  5
1C
102
{ACAD_REACTORS
330
1E
102
}
100
AcDbDictionary
  0
DICTIONARY
  5
1D
102
{ACAD_REACTORS
330
1E
102
}
100
AcDbDictionary
  3
STANDARD
350
20
  0
DICTIONARY
  5
147A
102
{ACAD_REACTORS
330
1E
102
}
100
AcDbDictionary
  3
SORTENTS
350
147B
  0
DICTIONARY
  5
C58
102
{ACAD_REACTORS
330
1E
102
}
100
AcDbDictionary
1001
DRAWINGVARIABLESXDATA
1000
POLARMODE
1000
0
  0
XRECORD
  5
39
102
{ACAD_REACTORS
330
38
102
}
100
AcDbXrecord
102
PLOTBIT
280
     0
  0
XRECORD
  5
23
102
{ACAD_REACTORS
330
22
102
}
100
AcDbXrecord
102
ACADR14ROUNDTRIP
1000
DSTYLE
1002
{
1070
   341
340
0
1070
   343
340
0
1070
   344
340
0
1002
}
  0
XRECORD
  5
4
102
{ACAD_REACTORS
330
3
102
}
100
AcDbXrecord
340
2
  0
XRECORD
  5
B
102
{ACAD_REACTORS
330
A
102
}
100
AcDbXrecord
340
9
  0
MLINESTYLE
  5
20
102
{ACAD_REACTORS
330
1D
102
}
100
AcDbMlineStyle
  2
STANDARD
 70
     0
  3

 62
     0
 51
90.0
 52
90.0
 71
     2
 49
0.5
 62
   256
  6
BYLAYER
 49
-0.5
 62
   256
  6
BYLAYER
  0
DICTIONARYVAR
  5
147B
102
{ACAD_REACTORS
330
147A
102
}
100
DictionaryVariables
280
     0
  1
96
  0
ENDSEC
  0
EOF
