  0
SECTION
  2
HEADER
  9
$ACADVER
  1
AC1015
  9
$ACADMAINTVER
 70
     6
  9
$DWGCODEPAGE
  3
ANSI_932
  9
$INSBASE
 10
0.0
 20
0.0
 30
0.0
  9
$EXTMIN
 10
-37.58112015484424
 20
-57.92334693721762
 30
0.0
  9
$EXTMAX
 10
92.087697176348
 20
16.03752546941583
 30
0.0
  9
$LIMMIN
 10
0.0
 20
0.0
  9
$LIMMAX
 10
420.0
 20
297.0
  9
$ORTHOMODE
 70
     0
  9
$REGENMODE
 70
     1
  9
$FILLMODE
 70
     1
  9
$QTEXTMODE
 70
     0
  9
$MIRRTEXT
 70
     0
  9
$LTSCALE
 40
1.0
  9
$ATTMODE
 70
     1
  9
$TEXTSIZE
 40
3.8
  9
$TRACEWID
 40
1.0
  9
$TEXTSTYLE
  7
ACISOTS
  9
$CLAYER
  8
AM_0
  9
$CELTYPE
  6
ByLayer
  9
$CECOLOR
 62
   256
  9
$CELTSCALE
 40
1.0
  9
$DISPSILH
 70
     0
  9
$DIMSCALE
 40
1.0
  9
$DIMASZ
 40
2.5
  9
$DIMEXO
 40
1.0
  9
$DIMDLI
 40
10.0
  9
$DIMRND
 40
0.0
  9
$DIMDLE
 40
0.0
  9
$DIMEXE
 40
1.0
  9
$DIMTP
 40
0.1
  9
$DIMTM
 40
0.1000000001
  9
$DIMTXT
 40
3.8
  9
$DIMCEN
 40
0.0
  9
$DIMTSZ
 40
0.0
  9
$DIMTOL
 70
     0
  9
$DIMLIM
 70
     0
  9
$DIMTIH
 70
     0
  9
$DIMTOH
 70
     0
  9
$DIMSE1
 70
     0
  9
$DIMSE2
 70
     0
  9
$DIMTAD
 70
     3
  9
$DIMZIN
 70
     8
  9
$DIMBLK
  1
Open30
  9
$DIMASO
 70
     1
  9
$DIMSHO
 70
     1
  9
$DIMPOST
  1

  9
$DIMAPOST
  1
"
  9
$DIMALT
 70
     0
  9
$DIMALTD
 70
     2
  9
$DIMALTF
 40
0.0393701
  9
$DIMLFAC
 40
1.0
  9
$DIMTOFL
 70
     1
  9
$DIMTVP
 40
0.0
  9
$DIMTIX
 70
     0
  9
$DIMSOXD
 70
     0
  9
$DIMSAH
 70
     0
  9
$DIMBLK1
  1

  9
$DIMBLK2
  1

  9
$DIMSTYLE
  2
AM_JIS
  9
$DIMCLRD
 70
   256
  9
$DIMCLRE
 70
   256
  9
$DIMCLRT
 70
     2
  9
$DIMTFAC
 40
0.71
  9
$DIMGAP
 40
1.5
  9
$DIMJUST
 70
     0
  9
$DIMSD1
 70
     0
  9
$DIMSD2
 70
     0
  9
$DIMTOLJ
 70
     0
  9
$DIMTZIN
 70
     8
  9
$DIMALTZ
 70
     0
  9
$DIMALTTZ
 70
     0
  9
$DIMUPT
 70
     0
  9
$DIMDEC
 70
     2
  9
$DIMTDEC
 70
     2
  9
$DIMALTU
 70
     2
  9
$DIMALTTD
 70
     2
  9
$DIMTXSTY
  7
STANDARD
  9
$DIMAUNIT
 70
     1
  9
$DIMADEC
 70
     0
  9
$DIMALTRND
 40
0.0
  9
$DIMAZIN
 70
     2
  9
$DIMDSEP
 70
    46
  9
$DIMATFIT
 70
     3
  9
$DIMFRAC
 70
     0
  9
$DIMLDRBLK
  1
Open30
  9
$DIMLUNIT
 70
     2
  9
$DIMLWD
 70
    -1
  9
$DIMLWE
 70
    -1
  9
$DIMTMOVE
 70
     0
  9
$LUNITS
 70
     2
  9
$LUPREC
 70
     2
  9
$SKETCHINC
 40
1.0
  9
$FILLETRAD
 40
2.5
  9
$AUNITS
 70
     0
  9
$AUPREC
 70
     0
  9
$MENU
  1
.
  9
$ELEVATION
 40
0.0
  9
$PELEVATION
 40
0.0
  9
$THICKNESS
 40
0.0
  9
$LIMCHECK
 70
     0
  9
$CHAMFERA
 40
2.5
  9
$CHAMFERB
 40
2.5
  9
$CHAMFERC
 40
20.0
  9
$CHAMFERD
 40
0.0
  9
$SKPOLY
 70
     0
  9
$TDCREATE
 40
2455391.58041507
  9
$TDUCREATE
 40
2455391.20541507
  9
$TDUPDATE
 40
2455482.595881794
  9
$TDUUPDATE
 40
2455482.220881794
  9
$TDINDWG
 40
0.0441180208
  9
$TDUSRTIMER
 40
0.0441178472
  9
$USRTIMER
 70
     1
  9
$ANGBASE
 50
0.0
  9
$ANGDIR
 70
     0
  9
$PDMODE
 70
     0
  9
$PDSIZE
 40
0.0
  9
$PLINEWID
 40
0.0
  9
$SPLFRAME
 70
     0
  9
$SPLINETYPE
 70
     6
  9
$SPLINESEGS
 70
   232
  9
$HANDSEED
  5
D3D
  9
$SURFTAB1
 70
     6
  9
$SURFTAB2
 70
     6
  9
$SURFTYPE
 70
     6
  9
$SURFU
 70
     6
  9
$SURFV
 70
     6
  9
$UCSBASE
  2

  9
$UCSNAME
  2

  9
$UCSORG
 10
0.0
 20
0.0
 30
0.0
  9
$UCSXDIR
 10
1.0
 20
0.0
 30
0.0
  9
$UCSYDIR
 10
0.0
 20
1.0
 30
0.0
  9
$UCSORTHOREF
  2

  9
$UCSORTHOVIEW
 70
     0
  9
$UCSORGTOP
 10
0.0
 20
0.0
 30
0.0
  9
$UCSORGBOTTOM
 10
0.0
 20
0.0
 30
0.0
  9
$UCSORGLEFT
 10
0.0
 20
0.0
 30
0.0
  9
$UCSORGRIGHT
 10
0.0
 20
0.0
 30
0.0
  9
$UCSORGFRONT
 10
0.0
 20
0.0
 30
0.0
  9
$UCSORGBACK
 10
0.0
 20
0.0
 30
0.0
  9
$PUCSBASE
  2

  9
$PUCSNAME
  2

  9
$PUCSORG
 10
0.0
 20
0.0
 30
0.0
  9
$PUCSXDIR
 10
1.0
 20
0.0
 30
0.0
  9
$PUCSYDIR
 10
0.0
 20
1.0
 30
0.0
  9
$PUCSORTHOREF
  2

  9
$PUCSORTHOVIEW
 70
     0
  9
$PUCSORGTOP
 10
0.0
 20
0.0
 30
0.0
  9
$PUCSORGBOTTOM
 10
0.0
 20
0.0
 30
0.0
  9
$PUCSORGLEFT
 10
0.0
 20
0.0
 30
0.0
  9
$PUCSORGRIGHT
 10
0.0
 20
0.0
 30
0.0
  9
$PUCSORGFRONT
 10
0.0
 20
0.0
 30
0.0
  9
$PUCSORGBACK
 10
0.0
 20
0.0
 30
0.0
  9
$USERI1
 70
     0
  9
$USERI2
 70
     0
  9
$USERI3
 70
     0
  9
$USERI4
 70
     0
  9
$USERI5
 70
     0
  9
$USERR1
 40
0.0
  9
$USERR2
 40
0.0
  9
$USERR3
 40
0.0
  9
$USERR4
 40
0.0
  9
$USERR5
 40
0.0
  9
$WORLDVIEW
 70
     1
  9
$SHADEDGE
 70
     3
  9
$SHADEDIF
 70
    70
  9
$TILEMODE
 70
     1
  9
$MAXACTVP
 70
    64
  9
$PINSBASE
 10
0.0
 20
0.0
 30
0.0
  9
$PLIMCHECK
 70
     0
  9
$PEXTMIN
 10
1.000000000000000E+20
 20
1.000000000000000E+20
 30
1.000000000000000E+20
  9
$PEXTMAX
 10
-1.000000000000000E+20
 20
-1.000000000000000E+20
 30
-1.000000000000000E+20
  9
$PLIMMIN
 10
0.0
 20
0.0
  9
$PLIMMAX
 10
420.0
 20
297.0
  9
$UNITMODE
 70
     0
  9
$VISRETAIN
 70
     1
  9
$PLINEGEN
 70
     0
  9
$PSLTSCALE
 70
     1
  9
$TREEDEPTH
 70
  3020
  9
$CMLSTYLE
  2
Standard
  9
$CMLJUST
 70
     0
  9
$CMLSCALE
 40
20.0
  9
$PROXYGRAPHICS
 70
     1
  9
$MEASUREMENT
 70
     1
  9
$CELWEIGHT
370
    -1
  9
$ENDCAPS
280
     0
  9
$JOINSTYLE
280
     0
  9
$LWDISPLAY
290
     0
  9
$INSUNITS
 70
     4
  9
$HYPERLINKBASE
  1

  9
$STYLESHEET
  1

  9
$XEDIT
290
     1
  9
$CEPSNTYPE
380
     0
  9
$PSTYLEMODE
290
     1
  9
$FINGERPRINTGUID
  2
{BE204E68-E21F-4F1D-A445-8A4985CD64E1}
  9
$VERSIONGUID
  2
{D4EE1D6E-724E-41E2-A0B3-30F2121061BD}
  9
$EXTNAMES
290
     1
  9
$PSVPSCALE
 40
0.0
  9
$OLESTARTUP
290
     0
  0
ENDSEC
  0
SECTION
  2
CLASSES
  0
CLASS
  1
ACDBDICTIONARYWDFLT
  2
AcDbDictionaryWithDefault
  3
ObjectDBX Classes
 90
        0
280
     0
281
     0
  0
CLASS
  1
ACDBPLACEHOLDER
  2
AcDbPlaceHolder
  3
ObjectDBX Classes
 90
        0
280
     0
281
     0
  0
CLASS
  1
LAYOUT
  2
AcDbLayout
  3
ObjectDBX Classes
 90
        0
280
     0
281
     0
  0
CLASS
  1
ACME_DOCUMENT
  2
AcMeDbDoc
  3
AcMeServices
 90
        0
280
     1
281
     0
  0
CLASS
  1
AMGSETTINGSOBJ
  2
AmgSettingsObj
  3
"AcadM|Product Description: AutoCAD Mechanical 2000|Company: Autodesk"
 90
        0
280
     1
281
     0
  0
CLASS
  1
ACMESCOPE
  2
AcMeScope
  3
AcMeServices
 90
        0
280
     1
281
     0
  0
CLASS
  1
ACMECOMMANDHISTORY
  2
AcMeCommandHistory
  3
AcMeServices
 90
        0
280
     1
281
     0
  0
CLASS
  1
ACIMSYSVARMAN
  2
AcImSysVarManager
  3
AcMeServices
 90
        0
280
     1
281
     0
  0
CLASS
  1
ACIMREALSYSVAR
  2
AcImRealSysVar
  3
AcMeServices
 90
        0
280
     1
281
     0
  0
CLASS
  1
ACIMINTSYSVAR
  2
AcImIntSysVar
  3
AcMeServices
 90
        0
280
     1
281
     0
  0
CLASS
  1
ACMEDRAWINGMAN
  2
AcMeDrawingMan
  3
AcMeServices
 90
        0
280
     1
281
     0
  0
CLASS
  1
ACMEVIEW
  2
AcMeView
  3
AcMeServices
 90
        0
280
     1
281
     0
  0
CLASS
  1
ACDBENTITYCACHE
  2
AcMeEntityCache
  3
AcMeServices
 90
        0
280
     1
281
     0
  0
CLASS
  1
GSMANAGER
  2
AcMeGSManager
  3
AcMeServices
 90
        0
280
     1
281
     0
  0
CLASS
  1
AMDTINTERNALREACTOR
  2
AmdtInternalReactor
  3
AcMeServices
 90
        0
280
     1
281
     0
  0
CLASS
  1
ACMESTATEMGR
  2
AcMeStateMgr
  3
AcMeServices
 90
        0
280
     1
281
     0
  0
CLASS
  1
ACGREFMASTER
  2
AcGrefMaster
  3
AcAttribServices
 90
        0
280
     1
281
     0
  0
CLASS
  1
ACME_DATABASE
  2
AcMeDbDatabase
  3
AcMeServices
 90
        0
280
     1
281
     0
  0
CLASS
  1
ACRFINSADJUSTERMGR
  2
AcRfInsAdjusterMgr
  3
AcMeServices
 90
        0
280
     1
281
     0
  0
CLASS
  1
ACGREFACADMASTER
  2
AcGrefacadMaster
  3
AcGrefServices
 90
        0
280
     1
281
     0
  0
CLASS
  1
AMIMASTER
  2
AmiMaster
  3
AmiServices
 90
        0
280
     1
281
     0
  0
CLASS
  1
ACMDATADICTIONARY
  2
AcmDataDictionary
  3
"AcmSymBB|Product Description: AutoCAD Mechanical 2004 DX|Company: Autodesk"
 90
        0
280
     1
281
     0
  0
CLASS
  1
ACMDATAENTRYBLOCK
  2
AcmDataEntryBlock
  3
"AcmSymBB|Product Description: AutoCAD Mechanical 2004 DX|Company: Autodesk"
 90
        0
280
     1
281
     0
  0
CLASS
  1
ACIMSTRSYSVAR
  2
AcImStrSysVar
  3
AcMeServices
 90
        0
280
     1
281
     0
  0
CLASS
  1
ACMSTANDARDISO
  2
AcmStandardISO
  3
"Amdt_StdImp|Product Description: AutoCAD Mechanical 2004 DX|Company: Autodesk"
 90
        0
280
     1
281
     0
  0
CLASS
  1
AMGOBJPROPCFG
  2
AmgObjPropCfg
  3
"AmgLay|Product Description: AutoCAD Mechanical 2000|Company: Autodesk"
 90
        1
280
     1
281
     0
  0
CLASS
  1
AMDTEDGESTANDARDISO
  2
AmdtEdgeStdISO
  3
"Amdt_StdImp|Product Description: AutoCAD Mechanical 2004 DX|Company: Autodesk"
 90
        0
280
     1
281
     0
  0
CLASS
  1
ACMSURFSTANDARDISO
  2
AcmSurfTextStdISO
  3
"Amdt_StdImp|Product Description: AutoCAD Mechanical 2004 DX|Company: Autodesk"
 90
        0
280
     1
281
     0
  0
CLASS
  1
ACMFCFSTANDARDISO
  2
AcmFCFStdISO
  3
"Amdt_StdImp|Product Description: AutoCAD Mechanical 2004 DX|Company: Autodesk"
 90
        0
280
     1
281
     0
  0
CLASS
  1
ACMWELDSTANDARDISO
  2
AcmWeldingStdISO
  3
"Amdt_StdImp|Product Description: AutoCAD Mechanical 2004 DX|Company: Autodesk"
 90
        0
280
     1
281
     0
  0
CLASS
  1
ACMIDSTANDARDISO
  2
AcmIdStdISO
  3
"Amdt_StdImp|Product Description: AutoCAD Mechanical 2004 DX|Company: Autodesk"
 90
        0
280
     1
281
     0
  0
CLASS
  1
ACMDATUMSTANDARDISO
  2
AcmDatumStdISO
  3
"Amdt_StdImp|Product Description: AutoCAD Mechanical 2004 DX|Company: Autodesk"
 90
        0
280
     1
281
     0
  0
CLASS
  1
ACMBOMSTANDARDISO
  2
AcmBOMStdISO
  3
"Amdt_StdImp|Product Description: AutoCAD Mechanical 2004 DX|Company: Autodesk"
 90
        0
280
     1
281
     0
  0
CLASS
  1
ACMDETAILSTANDARDISO
  2
AmdtDetailSymStdISO
  3
"Amdt_StdImp|Product Description: AutoCAD Mechanical 2004 DX|Company: Autodesk"
 90
        0
280
     1
281
     0
  0
CLASS
  1
ACMSECTIONSTANDARDISO
  2
AmdtSectionSymStdISO
  3
"Amdt_StdImp|Product Description: AutoCAD Mechanical 2004 DX|Company: Autodesk"
 90
        0
280
     1
281
     0
  0
CLASS
  1
ACMCENTERLINESTANDARDISO
  2
AmdtCenterLineStdISO
  3
"Amdt_StdImp|Product Description: AutoCAD Mechanical 2004 DX|Company: Autodesk"
 90
        0
280
     1
281
     0
  0
CLASS
  1
ACMNOTESTANDARDISO
  2
AmdtNoteStdISO
  3
"Amdt_StdImp|Product Description: AutoCAD Mechanical 2004 DX|Company: Autodesk"
 90
        0
280
     1
281
     0
  0
CLASS
  1
ACAMGLAYSTD
  2
AcAmgLayStd
  3
"AcAmgLayStd|Product Description: AutoCAD Mechanical 2000|Company: Autodesk"
 90
        0
280
     1
281
     0
  0
CLASS
  1
ACAMGDIMSTD
  2
AcAmgDimStd
  3
"AcAmgDimStd|Product Description: AutoCAD Mechanical 2000|Company: Autodesk"
 90
        0
280
     1
281
     0
  0
CLASS
  1
ACAMGHOLECHARTSTDISO
  2
AcAmgHoleChartStdISO
  3
ACMSYMBB_MODULE_NAME
 90
        0
280
     1
281
     0
  0
CLASS
  1
ACAMGTITLESTD
  2
AcAmgTitleStd
  3
"TITLEAPP"
 90
        0
280
     1
281
     0
  0
CLASS
  1
LAYER_INDEX
  2
AcDbLayerIndex
  3
ObjectDBX Classes
 90
        0
280
     0
281
     0
  0
CLASS
  1
IDBUFFER
  2
AcDbIdBuffer
  3
ObjectDBX Classes
 90
        0
280
     0
281
     0
  0
CLASS
  1
DICTIONARYVAR
  2
AcDbDictionaryVar
  3
ObjectDBX Classes
 90
        0
280
     0
281
     0
  0
CLASS
  1
AM_DRAWING_MGR
  2
AcDmDwgMgr
  3
AcMechDwgViewMgmt
 90
        0
280
     1
281
     0
  0
CLASS
  1
AM_DWG_DOCUMENT
  2
AcDmDwgDocument
  3
AcMechDwgViewMgmt
 90
        0
280
     1
281
     0
  0
CLASS
  1
AM_DWG_SHEET
  2
AcDmSheet
  3
AcMechDwgViewMgmt
 90
        0
280
     1
281
     0
  0
CLASS
  1
AM_VIEWDIMPARMAP
  2
AcDmViewDimParMap
  3
AcMechDwgViewMgmt
 90
        0
280
     1
281
     0
  0
CLASS
  1
AM_DWGMGR_NAME
  2
AcDmDwgMgrName
  3
AcMechDwgViewMgmt
 90
        0
280
     1
281
     0
  0
CLASS
  1
AMDTMENUSTATEMGR
  2
AmdtMenuStateMgr
  3
McadcomServices
 90
        0
280
     1
281
     0
  0
CLASS
  1
AMDTMCOMMENUSTATE
  2
AmdtMcomMenuState
  3
McadcomServices
 90
        0
280
     1
281
     0
  0
CLASS
  1
MAPIAMMOUDLE
  2
MApiAmModule
  3
MApiAmServices
 90
        0
280
     1
281
     0
  0
CLASS
  1
AMDTADMENUSTATE
  2
AmdtAdMenuState
  3
DesignerServices
 90
        0
280
     1
281
     0
  0
CLASS
  1
ADAPPL
  2
AcAdAppl
  3
DesignerServices
 90
        0
280
     1
281
     0
  0
CLASS
  1
DEPMGR
  2
AcAdDepMgr
  3
DesignerServices
 90
        0
280
     1
281
     0
  0
CLASS
  1
PARAMMGR
  2
AcAdParamMgr
  3
DesignerServices
 90
        0
280
     1
281
     0
  0
CLASS
  1
PARAMSCOPE
  2
AcAdParamScope
  3
DesignerServices
 90
        0
280
     1
281
     0
  0
CLASS
  1
NAMEDAPPL
  2
AcAdNamedAppl
  3
DesignerServices
 90
        0
280
     1
281
     0
  0
CLASS
  1
AMDTDMMENUSTATE
  2
AmdtDmMenuState
  3
AcMechDwgViewMgmt
 90
        0
280
     1
281
     0
  0
CLASS
  1
AMDTAMMENUSTATE
  2
AmdtAmMenuState
  3
DesignerAssemblies
 90
        0
280
     1
281
     0
  0
CLASS
  1
ACAMPROJECT
  2
AcAmProject
  3
DesignerAssemblies
 90
        0
280
     1
281
     0
  0
CLASS
  1
ACAMGRCOMPDEF
  2
AcAmGrCompDef
  3
DesignerAssemblies
 90
        0
280
     1
281
     0
  0
CLASS
  1
ACCMCONTEXT
  2
AcCmContext
  3
DesignerAssemblies
 90
        0
280
     1
281
     0
  0
CLASS
  1
ACAMCOMPDEF
  2
AcAmCompDef
  3
DesignerAssemblies
 90
        0
280
     1
281
     0
  0
CLASS
  1
ACAMCOMPDEFMGR
  2
AcAmCompDefMgr
  3
DesignerAssemblies
 90
        0
280
     1
281
     0
  0
CLASS
  1
AMCONTEXTMGR
  2
AcAmContextMgr
  3
DesignerAssemblies
 90
        0
280
     1
281
     0
  0
CLASS
  1
ACAMCONTEXTMODELER
  2
AcAmContextModeler
  3
DesignerAssemblies
 90
        0
280
     1
281
     0
  0
CLASS
  1
ACMTHREADLINESTANDARDISO
  2
AmdtThreadLineStdISO
  3
"Amdt_StdImp|Product Description: AutoCAD Mechanical 2004 DX|Company: Autodesk"
 90
        0
280
     1
281
     0
  0
CLASS
  1
CATALOGSTATE
  2
AcAmCatalogState
  3
DesignerAssemblies
 90
        0
280
     1
281
     0
  0
CLASS
  1
ACAMGRCOMPDEFSET
  2
AcAmGrCompDefSet
  3
DesignerAssemblies
 90
        0
280
     1
281
     0
  0
CLASS
  1
AMDTBROWSERDBTAB
  2
AmdtBrowserDbTab
  3
McadcomServices
 90
        0
280
     1
281
     0
  0
CLASS
  1
CBROWSERAPPOBJECT
  2
CBrowserAppObject
  3
McadcomServices
 90
        0
280
     1
281
     0
  0
CLASS
  1
DM_PLACEHOLDER
  2
AcDmSelsetPlaceholder
  3
AcMechDwgViewMgmt
 90
        0
280
     1
281
     0
  0
CLASS
  1
TABLESTYLE
  2
AcDbTableStyle
  3
ObjectDBX Classes
 90
     2047
280
     0
281
     0
  0
CLASS
  1
VAACXREFPANELOBJECT
  2
VaAcXREFPanelObject
  3
VAAC_ADDIN
 90
        0
280
     1
281
     0
  0
CLASS
  1
VAACIMAGEINVENTORY
  2
VaAcImageInventory
  3
VAAC_ADDIN
 90
        0
280
     1
281
     0
  0
CLASS
  1
AMDTNOTETEMPLATEDB
  2
AmdtNoteTemplateDB
  3
AMDT_STDIMP_MODULE_NAME
 90
        0
280
     1
281
     0
  0
CLASS
  1
ACMBOM
  2
AcmBom
  3
"AcmSymBB|Product Description: AutoCAD Mechanical 2004 DX|Company: Autodesk"
 90
        0
280
     1
281
     0
  0
CLASS
  1
AMDTFORMULAUPDATEDISPATCHER
  2
AmdtFormulaUpdateDispatcher
  3
AcMeServices
 90
        0
280
     1
281
     0
  0
CLASS
  1
ACMPARTLIST
  2
AcmPartList
  3
"AcmSymBB|Product Description: AutoCAD Mechanical 2004 DX|Company: Autodesk"
 90
     1023
280
     1
281
     1
  0
CLASS
  1
ACAMGFILTERDAT
  2
AcAmgFilterDat
  3
"AcadM|Product Description: AutoCAD Mechanical 2000|Company: Autodesk"
 90
        0
280
     1
281
     0
  0
CLASS
  1
ACMSTANDARDJIS
  2
AcmStandardJIS
  3
"Amdt_StdImp|Product Description: AutoCAD Mechanical 2004 DX|Company: Autodesk"
 90
        0
280
     1
281
     0
  0
CLASS
  1
ACMSURFSTANDARDJIS
  2
AcmSurfTextStdJIS
  3
"Amdt_StdImp|Product Description: AutoCAD Mechanical 2004 DX|Company: Autodesk"
 90
        0
280
     1
281
     0
  0
CLASS
  1
ACMFCFSTANDARDJIS98
  2
AcmFCFStdJIS98
  3
"Amdt_StdImp|Product Description: AutoCAD Mechanical 2004 DX|Company: Autodesk"
 90
        0
280
     1
281
     0
  0
CLASS
  1
ACMWELDSTANDARDJIS
  2
AcmWeldingStdJIS
  3
"Amdt_StdImp|Product Description: AutoCAD Mechanical 2004 DX|Company: Autodesk"
 90
        0
280
     1
281
     0
  0
CLASS
  1
ACMIDSTANDARDJIS
  2
AcmIdStdJIS
  3
"Amdt_StdImp|Product Description: AutoCAD Mechanical 2004 DX|Company: Autodesk"
 90
        0
280
     1
281
     0
  0
CLASS
  1
ACMDATUMSTANDARDJIS
  2
AcmDatumStdJIS
  3
"Amdt_StdImp|Product Description: AutoCAD Mechanical 2004 DX|Company: Autodesk"
 90
        0
280
     1
281
     0
  0
CLASS
  1
ACMBOMSTANDARDJIS
  2
AcmBOMStdJIS
  3
"Amdt_StdImp|Product Description: AutoCAD Mechanical 2004 DX|Company: Autodesk"
 90
        0
280
     1
281
     0
  0
CLASS
  1
ACMDETAILSTANDARDJIS
  2
AmdtDetailSymStdJIS
  3
"Amdt_StdImp|Product Description: AutoCAD Mechanical 2004 DX|Company: Autodesk"
 90
        0
280
     1
281
     0
  0
CLASS
  1
ACMSECTIONSTANDARDJIS
  2
AmdtSectionSymStdJIS
  3
"Amdt_StdImp|Product Description: AutoCAD Mechanical 2004 DX|Company: Autodesk"
 90
        0
280
     1
281
     0
  0
CLASS
  1
ACMCENTERLINESTANDARDJIS
  2
AmdtCenterLineStdJIS
  3
"Amdt_StdImp|Product Description: AutoCAD Mechanical 2004 DX|Company: Autodesk"
 90
        0
280
     1
281
     0
  0
CLASS
  1
ACMTHREADLINESTANDARDJIS
  2
AmdtThreadLineStdJIS
  3
"Amdt_StdImp|Product Description: AutoCAD Mechanical 2004 DX|Company: Autodesk"
 90
        0
280
     1
281
     0
  0
CLASS
  1
ACMNOTESTANDARDJIS
  2
AmdtNoteStdJIS
  3
"Amdt_StdImp|Product Description: AutoCAD Mechanical 2004 DX|Company: Autodesk"
 90
        0
280
     1
281
     0
  0
CLASS
  1
ACAMGHOLECHARTSTDJIS
  2
AcAmgHoleChartStdJIS
  3
ACMSYMBB_MODULE_NAME
 90
        0
280
     1
281
     0
  0
CLASS
  1
AMDTNOTE
  2
AmdtNote
  3
"AcmSymBB|Product Description: AutoCAD Mechanical 2004 DX|Company: Autodesk"
 90
     1023
280
     1
281
     1
  0
CLASS
  1
DIMASSOC
  2
AcDbDimAssoc
  3
"AcDbDimAssoc|Product Desc:     AcDim ARX App For Dimension|Company:          Autodesk, Inc.|WEB Address:      www.autodesk.com"
 90
        0
280
     0
281
     0
  0
CLASS
  1
SORTENTSTABLE
  2
AcDbSortentsTable
  3
ObjectDBX Classes
 90
        0
280
     0
281
     0
  0
ENDSEC
  0
SECTION
  2
TABLES
  0
TABLE
  2
VPORT
  5
8
330
0
100
AcDbSymbolTable
 70
     3
  0
VPORT
  5
D37
330
8
100
AcDbSymbolTableRecord
100
AcDbViewportTableRecord
  2
*Active
 70
     0
 10
0.0
 20
0.0
 11
1.0
 21
1.0
 12
38.53988930088018
 22
-21.29170666554385
 13
0.0
 23
0.0
 14
2.5
 24
2.5
 15
10.0
 25
10.0
 16
0.0
 26
0.0
 36
1.0
 17
0.0
 27
0.0
 37
0.0
 40
94.98604420552405
 41
1.610603290676417
 42
50.0
 43
0.0
 44
0.0
 50
0.0
 51
0.0
 71
     0
 72
 20000
 73
     1
 74
     3
 75
     0
 76
     0
 77
     0
 78
     0
281
     0
 65
     1
110
0.0
120
0.0
130
0.0
111
1.0
121
0.0
131
0.0
112
0.0
122
1.0
132
0.0
 79
     0
146
0.0
  0
ENDTAB
  0
TABLE
  2
LTYPE
  5
5
330
0
100
AcDbSymbolTable
 70
    17
  0
LTYPE
  5
14
330
5
100
AcDbSymbolTableRecord
100
AcDbLinetypeTableRecord
  2
ByBlock
 70
     0
  3

 72
    65
 73
     0
 40
0.0
  0
LTYPE
  5
15
330
5
100
AcDbSymbolTableRecord
100
AcDbLinetypeTableRecord
  2
ByLayer
 70
     0
  3

 72
    65
 73
     0
 40
0.0
  0
LTYPE
  5
16
330
5
100
AcDbSymbolTableRecord
100
AcDbLinetypeTableRecord
  2
Continuous
 70
     0
  3
Solid line
 72
    65
 73
     0
 40
0.0
  0
LTYPE
  5
64
330
5
100
AcDbSymbolTableRecord
100
AcDbLinetypeTableRecord
  2
AM_ISO02W050
 70
     0
  3
__ __ __ __ __ __ __ __ __ __ __ __ __ __ __
 72
    65
 73
     2
 40
7.5
 49
6.0
 74
     0
 49
-1.5
 74
     0
  0
LTYPE
  5
65
330
5
100
AcDbSymbolTableRecord
100
AcDbLinetypeTableRecord
  2
AM_ISO08W050
 70
     0
  3
____ . ____ . ____ . ____ . ____ . ____ . ____
 72
    65
 73
     4
 40
18.0
 49
12.0
 74
     0
 49
-1.5
 74
     0
 49
3.0
 74
     0
 49
-1.5
 74
     0
  0
LTYPE
  5
66
330
5
100
AcDbSymbolTableRecord
100
AcDbLinetypeTableRecord
  2
AM_ISO09W050
 70
     0
  3
_____ . . _____ . . _____ . . ____ .. ____
 72
    65
 73
     6
 40
22.5
 49
12.0
 74
     0
 49
-1.5
 74
     0
 49
3.0
 74
     0
 49
-1.5
 74
     0
 49
3.0
 74
     0
 49
-1.5
 74
     0
  0
LTYPE
  5
67
330
5
100
AcDbSymbolTableRecord
100
AcDbLinetypeTableRecord
  2
Amconstr
 70
     0
  3
_______________________
 72
    65
 73
     2
 40
9999.0
 49
9999.0
 74
     0
 49
0.0
 74
     0
  0
LTYPE
  5
68
330
5
100
AcDbSymbolTableRecord
100
AcDbLinetypeTableRecord
  2
AM_ISO08W050x2
 70
     0
  3
__ . __ . __ . __ . __ . __
 72
    65
 73
     4
 40
9.0
 49
6.0
 74
     0
 49
-0.75
 74
     0
 49
1.5
 74
     0
 49
-0.75
 74
     0
  0
LTYPE
  5
69
330
5
100
AcDbSymbolTableRecord
100
AcDbLinetypeTableRecord
  2
AM_ISO02W050x2
 70
     0
  3
 _ _ _ _ _ _ _ _ _ _ _ _
 72
    65
 73
     2
 40
3.75
 49
3.0
 74
     0
 49
-0.75
 74
     0
  0
LTYPE
  5
6C
330
5
100
AcDbSymbolTableRecord
100
AcDbLinetypeTableRecord
  2
Amzigzag
 70
     0
  3
/\/-/\/-/\/-/\/-/\/-/\/
 72
    65
 73
     2
 40
11.0001
 49
0.0001
 74
     4
 75
   135
340
6B
 46
0.04
 50
0.0
 44
0.0
 45
0.0
 49
-11.0
 74
     0
  0
LTYPE
  5
7A
330
5
100
AcDbSymbolTableRecord
100
AcDbLinetypeTableRecord
  2
ACISOWELD
 70
     0
  3
_ _ _ _ _
 72
    65
 73
     2
 40
2.0
 49
2.0
 74
     0
 49
-1.0
 74
     0
  0
LTYPE
  5
7B
330
5
100
AcDbSymbolTableRecord
100
AcDbLinetypeTableRecord
  2
ACISOTGB
 70
     0
  3
__ . . __ . .
 72
    65
 73
     6
 40
9.0
 49
4.0
 74
     0
 49
-1.0
 74
     0
 49
1.0
 74
     0
 49
-1.0
 74
     0
 49
1.0
 74
     0
 49
-1.0
 74
     0
  0
LTYPE
  5
7C
330
5
100
AcDbSymbolTableRecord
100
AcDbLinetypeTableRecord
  2
ACISOTGL
 70
     0
  3
_ _ _ _ _
 72
    65
 73
     2
 40
3.0
 49
2.0
 74
     0
 49
-1.0
 74
     0
  0
LTYPE
  5
7E
330
5
100
AcDbSymbolTableRecord
100
AcDbLinetypeTableRecord
  2
CENTER
 70
     0
  3
__ . __
 72
    65
 73
     4
 40
7.0
 49
4.0
 74
     0
 49
-1.0
 74
     0
 49
1.0
 74
     0
 49
-1.0
 74
     0
  0
LTYPE
  5
D8
330
5
100
AcDbSymbolTableRecord
100
AcDbLinetypeTableRecord
  2
HIDDEN
 70
     0
  3
Hidden __ __ __ __ __ __ __ __ __ __ __ __ __ _
 72
    65
 73
     2
 40
9.524999999999999
 49
6.35
 74
     0
 49
-3.175
 74
     0
  0
LTYPE
  5
D9
330
5
100
AcDbSymbolTableRecord
100
AcDbLinetypeTableRecord
  2
PHANTOM2
 70
     0
  3
Phantom (.5x) ___ _ _ ___ _ _ ___ _ _ ___ _ _
 72
    65
 73
     6
 40
31.75
 49
15.875
 74
     0
 49
-3.175
 74
     0
 49
3.175
 74
     0
 49
-3.175
 74
     0
 49
3.175
 74
     0
 49
-3.175
 74
     0
  0
LTYPE
  5
20C
330
5
100
AcDbSymbolTableRecord
100
AcDbLinetypeTableRecord
  2
ACJISWELD
 70
     0
  3
_ _ _ _ _
 72
    65
 73
     2
 40
2.0
 49
2.0
 74
     0
 49
-1.0
 74
     0
  0
LTYPE
  5
20D
330
5
100
AcDbSymbolTableRecord
100
AcDbLinetypeTableRecord
  2
ACJISTGB
 70
     0
  3
__ . . __ . .
 72
    65
 73
     6
 40
9.0
 49
4.0
 74
     0
 49
-1.0
 74
     0
 49
1.0
 74
     0
 49
-1.0
 74
     0
 49
1.0
 74
     0
 49
-1.0
 74
     0
  0
LTYPE
  5
20E
330
5
100
AcDbSymbolTableRecord
100
AcDbLinetypeTableRecord
  2
ACJISTGL
 70
     0
  3
_ _ _ _ _
 72
    65
 73
     2
 40
3.0
 49
2.0
 74
     0
 49
-1.0
 74
     0
  0
ENDTAB
  0
TABLE
  2
LAYER
  5
2
102
{ACAD_XDICTIONARY
360
34B
102
}
330
0
100
AcDbSymbolTable
 70
     8
  0
LAYER
  5
10
330
2
100
AcDbSymbolTableRecord
100
AcDbLayerTableRecord
  2
0
 70
     0
 62
     7
  6
Continuous
370
    -3
390
F
  0
LAYER
  5
34A
330
2
100
AcDbSymbolTableRecord
100
AcDbLayerTableRecord
  2
AM_0
 70
     0
 62
     7
  6
Continuous
370
    30
390
F
  0
LAYER
  5
3AD
330
2
100
AcDbSymbolTableRecord
100
AcDbLayerTableRecord
  2
AM_5
 70
     0
 62
     3
  6
Continuous
370
    13
390
F
  0
LAYER
  5
3FC
330
2
100
AcDbSymbolTableRecord
100
AcDbLayerTableRecord
  2
Defpoints
 70
     0
 62
     7
  6
Continuous
290
     0
370
    -3
390
F
  0
LAYER
  5
3FD
330
2
100
AcDbSymbolTableRecord
100
AcDbLayerTableRecord
  2
1
 70
     0
 62
     7
  6
Continuous
370
    -3
390
F
  0
LAYER
  5
3FE
330
2
100
AcDbSymbolTableRecord
100
AcDbLayerTableRecord
  2
2
 70
     0
 62
     7
  6
Continuous
370
    -3
390
F
  0
LAYER
  5
3FF
330
2
100
AcDbSymbolTableRecord
100
AcDbLayerTableRecord
  2
AM_7
 70
     0
 62
     4
  6
AM_ISO08W050
370
    13
390
F
  0
ENDTAB
  0
TABLE
  2
STYLE
  5
3
330
0
100
AcDbSymbolTable
 70
     6
  0
STYLE
  5
11
330
3
100
AcDbSymbolTableRecord
100
AcDbTextStyleTableRecord
  2
STANDARD
 70
     0
 40
0.0
 41
1.0
 50
0.0
 71
     0
 42
3.8
  3
ISOCP.SHX
  4
EXTFONT.SHX
  0
STYLE
  5
6B
330
3
100
AcDbSymbolTableRecord
100
AcDbTextStyleTableRecord
  2

 70
     1
 40
0.0
 41
1.0
 50
0.0
 71
     0
 42
2.5
  3
ltypeshp.shx
  4

  0
STYLE
  5
6D
330
3
100
AcDbSymbolTableRecord
100
AcDbTextStyleTableRecord
  2
ACISOTS
 70
     0
 40
3.8
 41
1.0
 50
0.0
 71
     0
 42
3.8
  3
isocp.shx
  4
extfont.shx
  0
STYLE
  5
79
330
3
100
AcDbSymbolTableRecord
100
AcDbTextStyleTableRecord
  2
ACISOGDT
 70
     0
 40
0.0
 41
1.0
 50
0.0
 71
     0
 42
2.5
  3
amgdt.shx
  4
extfont.shx
  0
STYLE
  5
1FF
330
3
100
AcDbSymbolTableRecord
100
AcDbTextStyleTableRecord
  2
ACJISTS
 70
     0
 40
1.0
 41
1.0
 50
0.0
 71
     0
 42
1.0
  3
isocp.shx
  4
extfont.shx
  0
STYLE
  5
20B
330
3
100
AcDbSymbolTableRecord
100
AcDbTextStyleTableRecord
  2
ACJISGDT
 70
     0
 40
0.0
 41
1.0
 50
0.0
 71
     0
 42
1.0
  3
amgdt.shx
  4

  0
ENDTAB
  0
TABLE
  2
VIEW
  5
6
330
0
100
AcDbSymbolTable
 70
     0
  0
ENDTAB
  0
TABLE
  2
UCS
  5
7
330
0
100
AcDbSymbolTable
 70
     0
  0
ENDTAB
  0
TABLE
  2
APPID
  5
9
330
0
100
AcDbSymbolTable
 70
    16
  0
APPID
  5
12
330
9
100
AcDbSymbolTableRecord
100
AcDbRegAppTableRecord
  2
ACAD
 70
     0
  0
APPID
  5
46
330
9
100
AcDbSymbolTableRecord
100
AcDbRegAppTableRecord
  2
MCAD_NO_VIS
 70
     0
  0
APPID
  5
47
330
9
100
AcDbSymbolTableRecord
100
AcDbRegAppTableRecord
  2
ACAD_TEMP_GRAPHIC
 70
     0
  0
APPID
  5
58
330
9
100
AcDbSymbolTableRecord
100
AcDbRegAppTableRecord
  2
ACATTRIBSERVICES
 70
     0
  0
APPID
  5
EE
330
9
100
AcDbSymbolTableRecord
100
AcDbRegAppTableRecord
  2
AD_DRAW
 70
     0
  0
APPID
  5
10C
330
9
100
AcDbSymbolTableRecord
100
AcDbRegAppTableRecord
  2
DESIGNERASSEMBLIES
 70
     0
  0
APPID
  5
111
330
9
100
AcDbSymbolTableRecord
100
AcDbRegAppTableRecord
  2
ACADM_DIM_EDIT
 70
     0
  0
APPID
  5
112
330
9
100
AcDbSymbolTableRecord
100
AcDbRegAppTableRecord
  2
AMDT_DM_ADJ
 70
     0
  0
APPID
  5
243
330
9
100
AcDbSymbolTableRecord
100
AcDbRegAppTableRecord
  2
ACAD_DSTYLE_DIMTEXT_FILL
 70
     0
  0
APPID
  5
400
330
9
100
AcDbSymbolTableRecord
100
AcDbRegAppTableRecord
  2
GENIUS_GENDTOL_13
 70
     0
  0
APPID
  5
401
330
9
100
AcDbSymbolTableRecord
100
AcDbRegAppTableRecord
  2
GENIUS_GENODEF_13
 70
     0
  0
APPID
  5
402
330
9
100
AcDbSymbolTableRecord
100
AcDbRegAppTableRecord
  2
GENIUS_GENOBJ-N-CEN_13
 70
     0
  0
APPID
  5
874
330
9
100
AcDbSymbolTableRecord
100
AcDbRegAppTableRecord
  2
ACAD_DIMASSOC_DIMLFAC
 70
     0
  0
APPID
  5
875
330
9
100
AcDbSymbolTableRecord
100
AcDbRegAppTableRecord
  2
ACAD_DIMASSOC_CALC_DIMLFAC
 70
     0
  0
APPID
  5
876
330
9
100
AcDbSymbolTableRecord
100
AcDbRegAppTableRecord
  2
ACAD_DIMASSOC_OVERRIDDEN_DIMLFAC
 70
     0
  0
APPID
  5
8E4
330
9
100
AcDbSymbolTableRecord
100
AcDbRegAppTableRecord
  2
GENIUS_GENCEN_19
 70
     0
  0
ENDTAB
  0
TABLE
  2
DIMSTYLE
  5
A
330
0
100
AcDbSymbolTable
 70
    16
100
AcDbDimStyleTable
  0
DIMSTYLE
105
81
330
A
100
AcDbSymbolTableRecord
100
AcDbDimStyleTableRecord
  2
AM_ISO
 70
     0
  4
"
 41
2.5
 42
1.0
 43
10.0
 44
1.0
 47
0.1
 48
0.1
 73
     0
 74
     0
 77
     1
 78
     8
 79
     2
140
3.5
141
0.0
143
0.0393701
146
0.71
147
1.5
172
     1
176
   256
177
   256
178
     2
271
     2
272
     3
274
     4
283
     0
284
     8
340
11
371
    -1
372
    -1
  0
DIMSTYLE
105
82
330
A
100
AcDbSymbolTableRecord
100
AcDbDimStyleTableRecord
  2
AM_ISO$3
 70
     0
  4
"
 41
2.5
 42
1.0
 43
10.0
 44
1.0
 47
0.1
 48
0.1
 73
     0
 77
     1
 78
     8
 79
     2
140
3.5
141
0.0
143
0.0393701
146
0.71
147
1.5
176
   256
177
   256
178
     2
271
     2
272
     3
274
     4
283
     0
284
     8
288
     1
289
     0
340
11
371
    -1
372
    -1
  0
DIMSTYLE
105
83
330
A
100
AcDbSymbolTableRecord
100
AcDbDimStyleTableRecord
  2
AM_ISO$4
 70
     0
  4
"
 41
2.5
 42
1.0
 43
10.0
 44
1.0
 47
0.1
 48
0.1
 73
     0
 77
     1
 78
     8
 79
     2
140
3.5
141
0.0
143
0.0393701
146
0.71
147
1.5
176
   256
177
   256
178
     2
271
     2
272
     3
274
     4
283
     0
284
     8
288
     1
289
     0
340
11
371
    -1
372
    -1
  0
DIMSTYLE
105
84
330
A
100
AcDbSymbolTableRecord
100
AcDbDimStyleTableRecord
  2
AM_ISO$6
 70
     0
  4
"
 41
2.5
 42
1.0
 43
10.0
 44
1.0
 47
0.1
 48
0.1
 73
     0
 74
     0
 78
     8
 79
     2
140
3.5
141
0.0
143
0.0393701
146
0.71
147
1.5
172
     1
176
   256
177
   256
178
     2
271
     2
272
     3
274
     4
283
     0
284
     8
340
11
371
    -1
372
    -1
  0
DIMSTYLE
105
85
330
A
100
AcDbSymbolTableRecord
100
AcDbDimStyleTableRecord
  2
AM_ISO$7
 70
     0
  4
"
 41
2.5
 42
1.0
 43
10.0
 44
1.0
 47
0.1
 48
0.1
 73
     0
 74
     0
 77
     1
 78
     8
 79
     2
140
5.0
141
0.0
143
0.0393701
146
0.71
147
1.5
172
     1
176
   256
177
   256
178
     2
271
     2
272
     3
274
     4
283
     0
284
     8
340
11
371
    -1
372
    -1
  0
DIMSTYLE
105
86
330
A
100
AcDbSymbolTableRecord
100
AcDbDimStyleTableRecord
  2
AM_ISO$SF
 70
     0
  4
"
 41
2.5
 42
1.0
 43
10.0
 44
1.0
 47
0.1
 48
0.1
 73
     0
 74
     0
 75
     1
 76
     1
 77
     1
 78
     8
 79
     2
140
3.5
141
0.0
143
0.0393701
146
0.71
147
1.5
172
     1
176
   256
177
   256
178
     2
271
     2
272
     3
274
     4
283
     0
284
     8
340
11
371
    -1
372
    -1
  0
DIMSTYLE
105
8B
330
A
100
AcDbSymbolTableRecord
100
AcDbDimStyleTableRecord
  2
AM_ISO$SH
 70
     0
  4
"
 41
2.5
 42
1.0
 43
10.0
 44
1.0
 47
0.1
 48
0.1
 73
     0
 74
     0
 75
     1
 76
     1
 77
     1
 78
     8
 79
     2
140
3.5
141
0.0
143
0.0393701
144
2.0
146
0.71
147
1.5
172
     1
173
     1
176
   256
177
   256
178
     2
271
     2
272
     3
274
     4
283
     0
284
     8
340
11
343
87
371
    -1
372
    -1
  0
DIMSTYLE
105
216
330
A
100
AcDbSymbolTableRecord
100
AcDbDimStyleTableRecord
  2
AM_JIS
 70
     0
  4
"
 41
2.5
 42
1.0
 43
10.0
 44
1.0
 47
0.1
 48
0.1000000001
 73
     0
 74
     0
 77
     3
 78
     8
 79
     2
140
3.8
141
0.0
143
0.0393701
146
0.71
147
1.5
172
     1
176
   256
177
   256
178
     2
271
     2
272
     2
275
     1
283
     0
284
     8
340
11
341
217
342
217
371
    -1
372
    -1
  0
DIMSTYLE
105
21D
102
{ACAD_REACTORS
330
93D
330
9B8
102
}
330
A
100
AcDbSymbolTableRecord
100
AcDbDimStyleTableRecord
  2
AM_JIS$3
 70
     0
  4
"
 41
2.5
 42
1.0
 43
10.0
 44
1.0
 47
0.1
 48
0.1000000001
 73
     0
 77
     3
 78
     8
 79
     2
140
3.8
141
0.0
143
0.0393701
146
0.71
147
1.5
176
   256
177
   256
178
     2
271
     2
272
     2
275
     1
283
     0
284
     8
288
     1
289
     0
340
11
341
217
342
217
371
    -1
372
    -1
  0
DIMSTYLE
105
21E
330
A
100
AcDbSymbolTableRecord
100
AcDbDimStyleTableRecord
  2
AM_JIS$4
 70
     0
  4
"
 41
2.5
 42
1.0
 43
10.0
 44
1.0
 47
0.1
 48
0.1000000001
 73
     0
 77
     3
 78
     8
 79
     2
140
3.8
141
0.0
143
0.0393701
146
0.71
147
1.5
176
   256
177
   256
178
     2
271
     2
272
     2
275
     1
283
     0
284
     8
288
     1
289
     0
340
11
341
217
342
217
371
    -1
372
    -1
  0
DIMSTYLE
105
21F
330
A
100
AcDbSymbolTableRecord
100
AcDbDimStyleTableRecord
  2
AM_JIS$6
 70
     0
  4
"
 41
2.5
 42
1.0
 43
10.0
 44
1.0
 47
0.1
 48
0.1000000001
 73
     0
 74
     0
 78
     8
 79
     2
140
3.8
141
0.0
143
0.0393701
146
0.71
147
1.5
172
     1
176
   256
177
   256
178
     2
271
     2
272
     2
275
     1
283
     0
284
     8
340
11
341
217
342
217
371
    -1
372
    -1
  0
DIMSTYLE
105
220
330
A
100
AcDbSymbolTableRecord
100
AcDbDimStyleTableRecord
  2
AM_JIS$7
 70
     0
  4
"
 41
2.5
 42
1.0
 43
10.0
 44
1.0
 47
0.1
 48
0.1000000001
 73
     0
 74
     0
 77
     3
 78
     8
 79
     2
140
5.0
141
0.0
143
0.0393701
146
0.71
147
1.5
172
     1
176
   256
177
   256
178
     2
271
     2
272
     2
275
     1
283
     0
284
     8
340
11
341
217
342
217
371
    -1
372
    -1
  0
DIMSTYLE
105
221
330
A
100
AcDbSymbolTableRecord
100
AcDbDimStyleTableRecord
  2
AM_JIS$SF
 70
     0
  4
"
 41
2.5
 42
1.0
 43
10.0
 44
1.0
 47
0.1
 48
0.1
 73
     0
 74
     0
 75
     1
 76
     1
 77
     3
 78
     8
 79
     2
140
3.5
141
0.0
143
0.0393701
146
0.71
147
1.5
172
     1
176
   256
177
   256
178
     2
271
     2
272
     3
274
     4
283
     0
284
     8
340
11
341
217
342
217
343
217
344
217
371
    -1
372
    -1
  0
DIMSTYLE
105
222
330
A
100
AcDbSymbolTableRecord
100
AcDbDimStyleTableRecord
  2
AM_JIS$SH
 70
     0
  4
"
 41
2.5
 42
1.0
 43
10.0
 44
1.0
 47
0.1
 48
0.1
 73
     0
 74
     0
 75
     1
 76
     1
 77
     3
 78
     8
 79
     2
140
3.5
141
0.0
143
0.0393701
144
2.0
146
0.71
147
1.5
172
     1
173
     1
176
   256
177
   256
178
     2
271
     2
272
     3
274
     4
283
     0
284
     8
340
11
341
217
342
217
343
87
344
217
371
    -1
372
    -1
  0
DIMSTYLE
105
799
102
{ACAD_REACTORS
330
79D
330
892
330
989
102
}
330
A
100
AcDbSymbolTableRecord
100
AcDbDimStyleTableRecord
  2
AM_JIS$0
 70
     0
  4
"
 41
2.5
 42
1.0
 43
10.0
 44
1.0
 47
0.1
 48
0.1000000001
 73
     0
 74
     0
 77
     3
 78
     8
 79
     2
140
3.8
141
0.0
143
0.0393701
146
0.71
147
1.5
172
     1
176
   256
177
   256
178
     2
271
     2
272
     2
275
     1
283
     0
284
     8
340
11
341
217
342
217
371
    -1
372
    -1
  0
DIMSTYLE
105
814
102
{ACAD_REACTORS
330
9E3
330
B05
102
}
330
A
100
AcDbSymbolTableRecord
100
AcDbDimStyleTableRecord
  2
AM_JIS$2
 70
     0
  4
"
 41
2.5
 42
1.0
 43
10.0
 44
1.0
 47
0.1
 48
0.1000000001
 73
     0
 74
     0
 77
     3
 78
     8
 79
     2
140
3.8
141
0.0
143
0.0393701
146
0.71
147
1.5
172
     1
176
   256
177
   256
178
     2
271
     2
272
     2
275
     1
283
     0
284
     8
340
11
341
217
342
217
371
    -1
372
    -1
  0
ENDTAB
  0
TABLE
  2
BLOCK_RECORD
  5
1
330
0
100
AcDbSymbolTable
 70
    11
  0
BLOCK_RECORD
  5
1F
102
{ACAD_XDICTIONARY
360
8F
102
}
330
1
100
AcDbSymbolTableRecord
100
AcDbBlockTableRecord
  2
*Model_Space
340
22
  0
BLOCK_RECORD
  5
1B
330
1
100
AcDbSymbolTableRecord
100
AcDbBlockTableRecord
  2
*Paper_Space
340
1E
  0
BLOCK_RECORD
  5
23
330
1
100
AcDbSymbolTableRecord
100
AcDbBlockTableRecord
  2
*Paper_Space0
340
26
  0
BLOCK_RECORD
  5
87
330
1
100
AcDbSymbolTableRecord
100
AcDbBlockTableRecord
  2
GENAXEH
340
0
  0
BLOCK_RECORD
  5
103
330
1
100
AcDbSymbolTableRecord
100
AcDbBlockTableRecord
  2
*U2
340
0
  0
BLOCK_RECORD
  5
217
330
1
100
AcDbSymbolTableRecord
100
AcDbBlockTableRecord
  2
_Open30
340
0
102
{BLKREFS
331
CAF
331
CB0
331
CBA
331
CBB
331
CC4
331
CC5
331
CCE
331
CCF
331
D06
331
D07
331
CFA
331
CFB
331
D0E
331
D0F
102
}
  0
BLOCK_RECORD
  5
79E
330
1
100
AcDbSymbolTableRecord
100
AcDbBlockTableRecord
  2
*D4
340
0
  0
BLOCK_RECORD
  5
893
330
1
100
AcDbSymbolTableRecord
100
AcDbBlockTableRecord
  2
*D5
340
0
  0
BLOCK_RECORD
  5
93E
330
1
100
AcDbSymbolTableRecord
100
AcDbBlockTableRecord
  2
*D6
340
0
  0
BLOCK_RECORD
  5
98A
330
1
100
AcDbSymbolTableRecord
100
AcDbBlockTableRecord
  2
*D7
340
0
  0
BLOCK_RECORD
  5
9B9
330
1
100
AcDbSymbolTableRecord
100
AcDbBlockTableRecord
  2
*D8
340
0
  0
BLOCK_RECORD
  5
9E4
330
1
100
AcDbSymbolTableRecord
100
AcDbBlockTableRecord
  2
*D9
340
0
  0
BLOCK_RECORD
  5
B06
330
1
100
AcDbSymbolTableRecord
100
AcDbBlockTableRecord
  2
*D10
340
0
  0
ENDTAB
  0
ENDSEC
  0
SECTION
  2
BLOCKS
  0
BLOCK
  5
20
330
1F
100
AcDbEntity
  8
0
100
AcDbBlockBegin
  2
*Model_Space
 70
     0
 71
     0
 10
0.0
 20
0.0
 30
0.0
  3
*Model_Space
  1

  0
ENDBLK
  5
21
330
1F
100
AcDbEntity
  8
0
100
AcDbBlockEnd
  0
BLOCK
  5
1C
330
1B
100
AcDbEntity
 67
     1
  8
0
100
AcDbBlockBegin
  2
*Paper_Space
 70
     0
 71
     0
 10
0.0
 20
0.0
 30
0.0
  3
*Paper_Space
  1

  0
ENDBLK
  5
1D
330
1B
100
AcDbEntity
 67
     1
  8
0
100
AcDbBlockEnd
  0
BLOCK
  5
24
330
23
100
AcDbEntity
  8
0
100
AcDbBlockBegin
  2
*Paper_Space0
 70
     0
 71
     0
 10
0.0
 20
0.0
 30
0.0
  3
*Paper_Space0
  1

  0
ENDBLK
  5
25
330
23
100
AcDbEntity
  8
0
100
AcDbBlockEnd
  0
BLOCK
  5
89
330
87
100
AcDbEntity
  8
0
100
AcDbBlockBegin
  2
GENAXEH
 70
     0
 71
     0
 10
0.0
 20
0.0
 30
0.0
  3
GENAXEH
  1

  0
LINE
  5
88
330
87
100
AcDbEntity
  8
0
100
AcDbLine
 10
-1.0
 20
0.0
 30
0.0
 11
1.0
 21
0.0
 31
0.0
  0
ENDBLK
  5
8A
330
87
100
AcDbEntity
  8
0
100
AcDbBlockEnd
  0
BLOCK
  5
104
330
103
100
AcDbEntity
  8
0
100
AcDbBlockBegin
  2
*U2
 70
     1
 71
     0
 10
0.0
 20
0.0
 30
0.0
  3
*U2
  1

  0
ENDBLK
  5
105
330
103
100
AcDbEntity
  8
0
100
AcDbBlockEnd
  0
BLOCK
  5
21B
330
217
100
AcDbEntity
  8
0
100
AcDbBlockBegin
  2
_Open30
 70
     0
 71
     0
 10
0.0
 20
0.0
 30
0.0
  3
_Open30
  1

  0
LINE
  5
218
330
217
100
AcDbEntity
  8
0
  6
ByBlock
 62
     0
370
    -2
100
AcDbLine
 10
-1.0
 20
0.26794919
 30
0.0
 11
0.0
 21
0.0
 31
0.0
  0
LINE
  5
219
330
217
100
AcDbEntity
  8
0
  6
ByBlock
 62
     0
370
    -2
100
AcDbLine
 10
0.0
 20
0.0
 30
0.0
 11
-1.0
 21
-0.26794919
 31
0.0
  0
LINE
  5
21A
330
217
100
AcDbEntity
  8
0
  6
ByBlock
 62
     0
370
    -2
100
AcDbLine
 10
0.0
 20
0.0
 30
0.0
 11
-1.0
 21
0.0
 31
0.0
  0
ENDBLK
  5
21C
330
217
100
AcDbEntity
  8
0
100
AcDbBlockEnd
  0
BLOCK
  5
7B6
330
79E
100
AcDbEntity
  8
0
100
AcDbBlockBegin
  2
*D4
 70
     1
 71
     0
 10
0.0
 20
0.0
 30
0.0
  3
*D4
  1

  0
LINE
  5
CAC
330
79E
100
AcDbEntity
  8
AM_5
100
AcDbLine
 10
89.99999999999977
 20
1.449787880557324
 30
0.0
 11
89.99999999999977
 21
-20.30593036111713
 31
0.0
  0
LINE
  5
CAD
330
79E
100
AcDbEntity
  8
AM_5
100
AcDbLine
 10
-0.0000000000000001
 20
-0.512339716166025
 30
0.0
 11
-0.0000000000000013
 21
-20.30593036111713
 31
0.0
  0
LINE
  5
CAE
330
79E
100
AcDbEntity
  8
AM_5
100
AcDbLine
 10
87.49999999999977
 20
-19.30593036111713
 30
0.0
 11
2.499999999999999
 21
-19.30593036111713
 31
0.0
  0
INSERT
  5
CAF
330
79E
100
AcDbEntity
  8
AM_5
100
AcDbBlockReference
  2
_Open30
 10
89.99999999999977
 20
-19.30593036111713
 30
0.0
 41
2.5
 42
2.5
 43
2.5
  0
INSERT
  5
CB0
330
79E
100
AcDbEntity
  8
AM_5
100
AcDbBlockReference
  2
_Open30
 10
-0.0000000000000012
 20
-19.30593036111713
 30
0.0
 41
2.5
 42
2.5
 43
2.5
 50
180.0
  0
MTEXT
  5
CB1
330
79E
100
AcDbEntity
  8
AM_5
 62
     2
100
AcDbMText
 10
44.99999999999989
 20
-15.90593036111713
 30
0.0
 40
3.8
 41
0.0
 71
     5
 72
     1
  1
90
 73
     1
 44
1.0
  0
POINT
  5
CB2
330
79E
100
AcDbEntity
  8
Defpoints
 62
     0
100
AcDbPoint
 10
89.99999999999977
 20
2.449787880557324
 30
0.0
  0
POINT
  5
CB3
330
79E
100
AcDbEntity
  8
Defpoints
 62
     0
100
AcDbPoint
 10
0.0
 20
0.487660283833975
 30
0.0
  0
POINT
  5
CB4
330
79E
100
AcDbEntity
  8
Defpoints
 62
     0
100
AcDbPoint
 10
-0.0000000000000012
 20
-19.30593036111713
 30
0.0
  0
ENDBLK
  5
7B7
330
79E
100
AcDbEntity
  8
0
100
AcDbBlockEnd
  0
BLOCK
  5
8AF
330
893
100
AcDbEntity
  8
0
100
AcDbBlockBegin
  2
*D5
 70
     1
 71
     0
 10
0.0
 20
0.0
 30
0.0
  3
*D5
  1

  0
LINE
  5
CB5
330
893
100
AcDbEntity
  8
AM_5
100
AcDbLine
 10
-1.0
 20
0.0000000000000003
 30
0.0
 11
-9.461149445676711
 21
0.0000000000000027
 31
0.0
  0
LINE
  5
CB6
330
893
100
AcDbEntity
  8
AM_5
100
AcDbLine
 10
-3.80256698202993
 20
2.449787880557324
 30
0.0
 11
-9.461149445676711
 21
2.449787880557326
 31
0.0
  0
LINE
  5
CB7
330
893
100
AcDbEntity
  8
AM_5
100
AcDbLine
 10
-8.461149445676709
 20
4.949787880557325
 30
0.0
 11
-8.461149445676709
 21
7.449787880557325
 31
0.0
  0
LINE
  5
CB8
330
893
100
AcDbEntity
  8
AM_5
100
AcDbLine
 10
-8.461149445676711
 20
-2.499999999999998
 30
0.0
 11
-8.461149445676714
 21
-15.09389721669378
 31
0.0
  0
LINE
  5
CB9
330
893
100
AcDbEntity
  8
AM_5
100
AcDbLine
 10
-8.461149445676711
 20
2.449787880557325
 30
0.0
 11
-8.461149445676711
 21
0.0000000000000024
 31
0.0
  0
INSERT
  5
CBA
330
893
100
AcDbEntity
  8
AM_5
100
AcDbBlockReference
  2
_Open30
 10
-8.461149445676711
 20
2.449787880557325
 30
0.0
 41
2.5
 42
2.5
 43
2.5
 50
270.0
  0
INSERT
  5
CBB
330
893
100
AcDbEntity
  8
AM_5
100
AcDbBlockReference
  2
_Open30
 10
-8.461149445676711
 20
0.0000000000000024
 30
0.0
 41
2.5
 42
2.5
 43
2.5
 50
90.0
  0
MTEXT
  5
CBC
330
893
100
AcDbEntity
  8
AM_5
 62
     2
100
AcDbMText
 10
-11.86152346142474
 20
-10.80694860834683
 30
0.0
 40
3.8
 41
0.0
 71
     5
 72
     1
  1
2.5
 11
6.123031769111886E-17
 21
1.0
 31
0.0
 73
     1
 44
1.0
  0
POINT
  5
CBD
330
893
100
AcDbEntity
  8
Defpoints
 62
     0
100
AcDbPoint
 10
0.0
 20
0.0
 30
0.0
  0
POINT
  5
CBE
330
893
100
AcDbEntity
  8
Defpoints
 62
     0
100
AcDbPoint
 10
-2.80256698202993
 20
2.449787880557324
 30
0.0
  0
POINT
  5
CBF
330
893
100
AcDbEntity
  8
Defpoints
 62
     0
100
AcDbPoint
 10
-8.461149445676711
 20
2.449787880557325
 30
0.0
  0
ENDBLK
  5
8B0
330
893
100
AcDbEntity
  8
0
100
AcDbBlockEnd
  0
BLOCK
  5
95D
330
93E
100
AcDbEntity
  8
0
100
AcDbBlockBegin
  2
*D6
 70
     1
 71
     0
 10
0.0
 20
0.0
 30
0.0
  3
*D6
  1

  0
LINE
  5
CC0
330
93E
100
AcDbEntity
  8
AM_5
100
AcDbLine
 10
42.76857174281132
 20
-1.398461220234626
 30
0.0
 11
44.06445540364814
 21
-3.536377387341318
 31
0.0
  0
LINE
  5
CC1
330
93E
100
AcDbEntity
  8
AM_5
100
AcDbLine
 10
38.10339056379861
 20
6.298036981349744
 30
0.0
 11
36.80750690296092
 21
8.435953148457882
 31
0.0
  0
LINE
  5
CC2
330
93E
100
AcDbEntity
  8
AM_5
100
AcDbLine
 10
36.80750690296092
 20
8.435953148457882
 30
0.0
 11
29.98750690296092
 21
8.435953148457884
 31
0.0
  0
LINE
  5
CC3
330
93E
100
AcDbEntity
  8
AM_5
100
AcDbLine
 10
41.4726880819745
 20
0.7394549468720655
 30
0.0
 11
39.39927422463543
 21
4.160120814243051
 31
0.0
  0
INSERT
  5
CC4
330
93E
100
AcDbEntity
  8
AM_5
100
AcDbBlockReference
  2
_Open30
 10
41.4726880819745
 20
0.7394549468720655
 30
0.0
 41
2.5
 42
2.5
 43
2.5
 50
121.2218698103205
  0
INSERT
  5
CC5
330
93E
100
AcDbEntity
  8
AM_5
100
AcDbBlockReference
  2
_Open30
 10
39.39927422463543
 20
4.160120814243051
 30
0.0
 41
2.5
 42
2.5
 43
2.5
 50
301.2218698103205
  0
MTEXT
  5
CC6
330
93E
100
AcDbEntity
  8
AM_5
 62
     2
100
AcDbMText
 10
32.6475069029609
 20
11.83595314845788
 30
0.0
 40
3.8
 41
0.0
 71
     5
 72
     1
  1
\U+22054
 73
     1
 44
1.0
  0
POINT
  5
CC7
330
93E
100
AcDbEntity
  8
Defpoints
 62
     0
100
AcDbPoint
 10
39.39927422463543
 20
4.160120814243051
 30
0.0
  0
POINT
  5
CC8
330
93E
100
AcDbEntity
  8
Defpoints
 62
     0
100
AcDbPoint
 10
41.4726880819745
 20
0.7394549468720655
 30
0.0
  0
ENDBLK
  5
95E
330
93E
100
AcDbEntity
  8
0
100
AcDbBlockEnd
  0
BLOCK
  5
9A6
330
98A
100
AcDbEntity
  8
0
100
AcDbBlockBegin
  2
*D7
 70
     1
 71
     0
 10
0.0
 20
0.0
 30
0.0
  3
*D7
  1

  0
LINE
  5
CC9
330
98A
100
AcDbEntity
  8
AM_5
100
AcDbLine
 10
42.33598115330506
 20
1.449787880557551
 30
0.0
 11
42.33598115330506
 21
-8.266829503988447
 31
0.0
  0
LINE
  5
CCA
330
98A
100
AcDbEntity
  8
AM_5
100
AcDbLine
 10
38.53598115330487
 20
1.449787880557324
 30
0.0
 11
38.53598115330487
 21
-8.266829503988447
 31
0.0
  0
LINE
  5
CCB
330
98A
100
AcDbEntity
  8
AM_5
100
AcDbLine
 10
44.83598115330506
 20
-7.266829503988447
 30
0.0
 11
47.33598115330506
 21
-7.266829503988447
 31
0.0
  0
LINE
  5
CCC
330
98A
100
AcDbEntity
  8
AM_5
100
AcDbLine
 10
36.03598115330487
 20
-7.266829503988447
 30
0.0
 11
25.21598115330487
 21
-7.266829503988447
 31
0.0
  0
LINE
  5
CCD
330
98A
100
AcDbEntity
  8
AM_5
100
AcDbLine
 10
42.33598115330506
 20
-7.266829503988447
 30
0.0
 11
38.53598115330487
 21
-7.266829503988447
 31
0.0
  0
INSERT
  5
CCE
330
98A
100
AcDbEntity
  8
AM_5
100
AcDbBlockReference
  2
_Open30
 10
42.33598115330506
 20
-7.266829503988447
 30
0.0
 41
2.5
 42
2.5
 43
2.5
 50
180.0
  0
INSERT
  5
CCF
330
98A
100
AcDbEntity
  8
AM_5
100
AcDbBlockReference
  2
_Open30
 10
38.53598115330487
 20
-7.266829503988447
 30
0.0
 41
2.5
 42
2.5
 43
2.5
  0
MTEXT
  5
CD0
330
98A
100
AcDbEntity
  8
AM_5
 62
     2
100
AcDbMText
 10
29.37598115330487
 20
-3.866829503988447
 30
0.0
 40
3.8
 41
0.0
 71
     5
 72
     1
  1
3.8
 73
     1
 44
1.0
  0
POINT
  5
CD1
330
98A
100
AcDbEntity
  8
Defpoints
 62
     0
100
AcDbPoint
 10
42.33598115330506
 20
2.449787880557551
 30
0.0
  0
POINT
  5
CD2
330
98A
100
AcDbEntity
  8
Defpoints
 62
     0
100
AcDbPoint
 10
38.53598115330487
 20
2.449787880557324
 30
0.0
  0
POINT
  5
CD3
330
98A
100
AcDbEntity
  8
Defpoints
 62
     0
100
AcDbPoint
 10
38.53598115330487
 20
-7.266829503988447
 30
0.0
  0
ENDBLK
  5
9A7
330
98A
100
AcDbEntity
  8
0
100
AcDbBlockEnd
  0
BLOCK
  5
9DF
330
9B9
100
AcDbEntity
  8
0
100
AcDbBlockBegin
  2
*D8
 70
     1
 71
     0
 10
0.0
 20
0.0
 30
0.0
  3
*D8
  1

  0
LINE
  5
D02
330
9B9
100
AcDbEntity
  8
AM_5
100
AcDbLine
 10
-21.28645231022975
 20
-1.388894832450145
 30
0.0
 11
-19.68453821852072
 21
-3.308236188953477
 31
0.0
  0
LINE
  5
D03
330
9B9
100
AcDbEntity
  8
AM_5
100
AcDbLine
 10
-27.69410867706652
 20
6.288470593563986
 30
0.0
 11
-30.98371900114245
 21
10.22993360612992
 31
0.0
  0
LINE
  5
D04
330
9B9
100
AcDbEntity
  8
AM_5
100
AcDbLine
 10
-30.98371900114245
 20
10.22993360612992
 30
0.0
 11
-37.58112015484424
 21
10.22993360612991
 31
0.0
  0
LINE
  5
D05
330
9B9
100
AcDbEntity
  8
AM_5
100
AcDbLine
 10
-22.88836640193877
 20
0.5304465240531862
 30
0.0
 11
-26.09219458535749
 21
4.369129237060655
 31
0.0
  0
INSERT
  5
D06
330
9B9
100
AcDbEntity
  8
AM_5
100
AcDbBlockReference
  2
_Open30
 10
-22.88836640193877
 20
0.5304465240531862
 30
0.0
 41
2.5
 42
2.5
 43
2.5
 50
129.8489348175212
  0
INSERT
  5
D07
330
9B9
100
AcDbEntity
  8
AM_5
100
AcDbBlockReference
  2
_Open30
 10
-26.09219458535749
 20
4.369129237060655
 30
0.0
 41
2.5
 42
2.5
 43
2.5
 50
309.8489348175211
  0
MTEXT
  5
D08
330
9B9
100
AcDbEntity
  8
AM_5
 62
     2
100
AcDbMText
 10
-35.03241957799334
 20
13.62993360612992
 30
0.0
 40
3.8
 41
0.0
 71
     5
 72
     1
  1
\U+22055
 73
     1
 44
1.0
  0
POINT
  5
D09
330
9B9
100
AcDbEntity
  8
Defpoints
 62
     0
100
AcDbPoint
 10
-26.09219458535749
 20
4.369129237060655
 30
0.0
  0
POINT
  5
D0A
330
9B9
100
AcDbEntity
  8
Defpoints
 62
     0
100
AcDbPoint
 10
-22.88836640193877
 20
0.5304465240531862
 30
0.0
  0
ENDBLK
  5
9E0
330
9B9
100
AcDbEntity
  8
0
100
AcDbBlockEnd
  0
BLOCK
  5
A22
330
9E4
100
AcDbEntity
  8
0
100
AcDbBlockBegin
  2
*D9
 70
     1
 71
     0
 10
0.0
 20
0.0
 30
0.0
  3
*D9
  1

  0
LINE
  5
CF5
330
9E4
100
AcDbEntity
  8
AM_5
100
AcDbLine
 10
-24.74909982743269
 20
-0.9661374240813565
 30
0.0
 11
-28.55524049793961
 21
-15.17083080599271
 31
0.0
  0
LINE
  5
CF6
330
9E4
100
AcDbEntity
  8
AM_5
100
AcDbLine
 10
-24.49028049364824
 20
-2.270651842745792
 30
0.0
 11
-24.49028049364825
 21
-15.70599356111713
 31
0.0
  0
ARC
  5
CF7
330
9E4
100
AcDbEntity
  8
AM_5
100
AcDbCircle
 10
-24.49028049364824
 20
-0.0002116751444241
 30
0.0
 40
14.70578188597271
100
AcDbArc
 50
235.4957498270773
 51
245.2478663516717
  0
ARC
  5
CF8
330
9E4
100
AcDbEntity
  8
AM_5
100
AcDbCircle
 10
-24.49028049364824
 20
-0.0002116751444241
 30
0.0
 40
14.70578188597271
100
AcDbArc
 50
279.7521165245943
 51
289.5042330491887
  0
ARC
  5
CF9
330
9E4
100
AcDbEntity
  8
AM_5
100
AcDbCircle
 10
-24.49028049364824
 20
-0.0002116751444241
 30
0.0
 40
14.70578188597271
100
AcDbArc
 50
254.999982876266
 51
270.0
  0
INSERT
  5
CFA
330
9E4
100
AcDbEntity
  8
AM_5
100
AcDbBlockReference
  2
_Open30
 10
-28.29642116415516
 20
-14.20490505705578
 30
0.0
 41
2.5
 42
2.5
 43
2.5
 50
340.1239246139688
  0
INSERT
  5
CFB
330
9E4
100
AcDbEntity
  8
AM_5
100
AcDbBlockReference
  2
_Open30
 10
-24.49028049364825
 20
-14.70599356111713
 30
0.0
 41
2.5
 42
2.5
 43
2.5
 50
184.8760582622972
  0
MTEXT
  5
CFC
330
9E4
100
AcDbEntity
  8
AM_5
 62
     2
100
AcDbMText
 10
-19.36556167024774
 20
-10.07780866223778
 30
0.0
 40
3.8
 41
0.0
 71
     5
 72
     1
  1
15°
 11
0.8913666554629733
 21
0.453283008206521
 31
0.0
 73
     1
 44
1.0
  0
POINT
  5
CFD
330
9E4
100
AcDbEntity
  8
Defpoints
 62
     0
100
AcDbPoint
 10
-27.04391560483519
 20
-14.48257918176143
 30
0.0
  0
POINT
  5
CFE
330
9E4
100
AcDbEntity
  8
Defpoints
 62
     0
100
AcDbPoint
 10
-24.45533249364826
 20
0.1302158805572162
 30
0.0
  0
POINT
  5
CFF
330
9E4
100
AcDbEntity
  8
Defpoints
 62
     0
100
AcDbPoint
 10
-24.49028049364824
 20
6.652141438828037
 30
0.0
  0
POINT
  5
D00
330
9E4
100
AcDbEntity
  8
Defpoints
 62
     0
100
AcDbPoint
 10
-24.49028049364824
 20
-1.270651842745792
 30
0.0
  0
POINT
  5
D01
330
9E4
100
AcDbEntity
  8
Defpoints
 62
     0
100
AcDbPoint
 10
-24.06936649364797
 20
1.570658880557176
 30
0.0
  0
ENDBLK
  5
A23
330
9E4
100
AcDbEntity
  8
0
100
AcDbBlockEnd
  0
BLOCK
  5
B38
330
B06
100
AcDbEntity
  8
0
100
AcDbBlockBegin
  2
*D10
 70
     1
 71
     0
 10
0.0
 20
0.0
 30
0.0
  3
*D10
  1

  0
LINE
  5
D0B
330
B06
100
AcDbEntity
  8
AM_5
100
AcDbLine
 10
0.5493669362860176
 20
5.31671658383102
 30
0.0
 11
1.390845959341814
 21
14.93487241562983
 31
0.0
  0
LINE
  5
D0C
330
B06
100
AcDbEntity
  8
AM_5
100
AcDbLine
 10
-1.0
 20
0.0000000000000033
 30
0.0
 11
-14.90770629744101
 21
0.0000000000000506
 31
0.0
  0
ARC
  5
D0D
330
B06
100
AcDbEntity
  8
AM_5
100
AcDbCircle
 10
0.0842148265608504
 20
0.0000000000000009
 30
0.0
 40
13.99192112400186
100
AcDbArc
 50
95.25096686988807
 51
169.7490365367968
  0
INSERT
  5
D0E
330
B06
100
AcDbEntity
  8
AM_5
100
AcDbBlockReference
  2
_Open30
 10
1.303690275825773
 20
13.93867771235599
 30
0.0
 41
2.5
 42
2.5
 43
2.5
 50
0.125485138286588
  0
INSERT
  5
D0F
330
B06
100
AcDbEntity
  8
AM_5
100
AcDbBlockReference
  2
_Open30
 10
-13.90770629744101
 20
0.0000000000000471
 30
0.0
 41
2.5
 42
2.5
 43
2.5
 50
264.8745182683983
  0
MTEXT
  5
D10
330
B06
100
AcDbEntity
  8
AM_5
 62
     2
100
AcDbMText
 10
-11.66559715764305
 20
12.82266893900644
 30
0.0
 40
3.8
 41
0.0
 71
     5
 72
     1
  1
95°
 11
0.7372773167255453
 21
0.6755902295341312
 31
0.0
 73
     1
 44
1.0
  0
POINT
  5
D11
330
B06
100
AcDbEntity
  8
Defpoints
 62
     0
100
AcDbPoint
 10
-6.19534839894714
 20
12.50363716832575
 30
0.0
  0
POINT
  5
D12
330
B06
100
AcDbEntity
  8
Defpoints
 62
     0
100
AcDbPoint
 10
0.462211252769976
 20
4.32052188055718
 30
0.0
  0
POINT
  5
D13
330
B06
100
AcDbEntity
  8
Defpoints
 62
     0
100
AcDbPoint
 10
0.3578642751781445
 20
0.0
 30
0.0
  0
POINT
  5
D14
330
B06
100
AcDbEntity
  8
Defpoints
 62
     0
100
AcDbPoint
 10
0.0
 20
0.0
 30
0.0
  0
POINT
  5
D15
330
B06
100
AcDbEntity
  8
Defpoints
 62
     0
100
AcDbPoint
 10
0.3812202527701629
 20
3.394789880557255
 30
0.0
  0
ENDBLK
  5
B39
330
B06
100
AcDbEntity
  8
0
100
AcDbBlockEnd
  0
ENDSEC
  0
SECTION
  2
ENTITIES
  0
LINE
  5
571
330
1F
100
AcDbEntity
  8
0
100
AcDbLine
 10
89.49999999999955
 20
-36.01186797120181
 30
0.0
 11
7.999969252769915
 21
-36.01186797120181
 31
0.0
  0
LINE
  5
572
330
1F
100
AcDbEntity
  8
0
100
AcDbLine
 10
7.999969252769915
 20
-39.81186797120176
 30
0.0
 11
89.49999999999955
 21
-39.81186797120176
 31
0.0
  0
LINE
  5
573
330
1F
100
AcDbEntity
  8
0
100
AcDbLine
 10
7.999969252769915
 20
3.321567880557268
 30
0.0
 11
89.49999999999977
 21
3.321567880557268
 31
0.0
  0
LINE
  5
574
330
1F
100
AcDbEntity
  8
0
100
AcDbLine
 10
89.49999999999977
 20
1.578007880557379
 30
0.0
 11
7.999969252769915
 21
1.578007880557379
 31
0.0
  0
LINE
  5
575
330
1F
100
AcDbEntity
  8
0
100
AcDbLine
 10
89.49999999999977
 20
4.449787880557324
 30
0.0
 11
7.999969252769915
 21
4.449787880557324
 31
0.0
  0
LINE
  5
576
330
1F
100
AcDbEntity
  8
0
100
AcDbLine
 10
7.999969252769915
 20
0.4497878805573237
 30
0.0
 11
89.49999999999977
 21
0.4497878805573237
 31
0.0
  0
LINE
  5
577
330
1F
100
AcDbEntity
  8
AM_7
100
AcDbLine
 10
92.087697176348
 20
-37.81186797120176
 30
0.0
 11
-2.994206702075189
 21
-37.81186797120176
 31
0.0
1001
GENIUS_GENODEF_13
1002
{
1000
HIER
1070
     0
1002
}
1002
{
1000
MANEDIT
1070
     0
1002
}
1002
{
1000
NOSEL
1070
     0
1002
}
1002
{
1000
BEHIND
1070
     0
1002
}
1002
{
1000
REACTOR
1002
}
1001
GENIUS_GENOBJ-N-CEN_13
1002
{
1000
OWNER
1000
GEN
1002
}
  0
LINE
  5
578
102
{ACAD_REACTORS
330
8A0
330
997
102
}
330
1F
100
AcDbEntity
  8
AM_7
100
AcDbLine
 10
92.087697176348
 20
2.449787880557324
 30
0.0
 11
-2.80256698202993
 21
2.449787880557324
 31
0.0
1001
GENIUS_GENODEF_13
1002
{
1000
HIER
1070
     0
1002
}
1002
{
1000
MANEDIT
1070
     0
1002
}
1002
{
1000
NOSEL
1070
     0
1002
}
1002
{
1000
BEHIND
1070
     0
1002
}
1002
{
1000
REACTOR
1002
}
1001
GENIUS_GENOBJ-N-CEN_13
1002
{
1000
OWNER
1000
GEN
1002
}
  0
SPLINE
  5
579
330
1F
100
AcDbEntity
  8
0
100
AcDbSpline
210
0.0
220
0.0
230
1.0
 70
     8
 71
     3
 72
    11
 73
     7
 74
     5
 42
0.0000000001
 43
0.0000000001
 44
0.0000000001
 40
0.0
 40
0.0
 40
0.0
 40
0.0
 40
0.0489972611172239
 40
0.1310278364171401
 40
0.2455858061702653
 40
0.3845841308365301
 40
0.3845841308365301
 40
0.3845841308365301
 40
0.3845841308365301
 10
4.339402252770015
 20
-36.85081497120177
 30
0.0
 10
4.332496564831714
 20
-36.86604306484151
 30
0.0
 10
4.314029464244958
 20
-36.90676583417343
 30
0.0
 10
4.234796620342705
 20
-36.94297172081288
 30
0.0
 10
4.130815133154597
 20
-36.97969732696589
 30
0.0
 10
4.046300023772725
 20
-36.99005625651594
 30
0.0
 10
3.999969252769915
 20
-36.99573497120173
 30
0.0
 11
4.339402252770015
 21
-36.85081497120177
 31
0.0
 11
4.315356252770016
 21
-36.89350597120165
 31
0.0
 11
4.245728252769823
 21
-36.93687597120174
 31
0.0
 11
4.137173252770026
 21
-36.97347297120177
 31
0.0
 11
3.999969252769915
 21
-36.99573497120173
 31
0.0
  0
SPLINE
  5
57A
330
1F
100
AcDbEntity
  8
0
100
AcDbSpline
210
0.0
220
0.0
230
1.0
 70
     8
 71
     3
 72
    11
 73
     7
 74
     5
 42
0.0000000001
 43
0.0000000001
 44
0.0000000001
 40
0.0
 40
0.0
 40
0.0
 40
0.0
 40
0.1380552712976294
 40
0.2485160647266396
 40
0.323617693636973
 40
0.3673599784996741
 40
0.3673599784996741
 40
0.3673599784996741
 40
0.3673599784996741
 10
3.999969252769915
 20
-36.75062397120178
 30
0.0
 10
4.046152024017883
 20
-36.75474475206124
 30
0.0
 10
4.129286557461177
 20
-36.76216265239328
 30
0.0
 10
4.232032130235563
 20
-36.78279621739002
 30
0.0
 10
4.313538188195818
 20
-36.80100936880392
 30
0.0
 10
4.332443769886443
 20
-36.83741524314289
 30
0.0
 10
4.339402252770015
 20
-36.85081497120177
 30
0.0
 11
3.999969252769915
 21
-36.75062397120178
 31
0.0
 11
4.137211252770157
 21
-36.76558697120163
 31
0.0
 11
4.245754252769984
 21
-36.78608097120173
 31
0.0
 11
4.31536525276988
 21
-36.81426897120173
 31
0.0
 11
4.339402252770015
 21
-36.85081497120177
 31
0.0
  0
SPLINE
  5
57B
330
1F
100
AcDbEntity
  8
0
100
AcDbSpline
210
0.0
220
0.0
230
1.0
 70
     8
 71
     3
 72
    11
 73
     7
 74
     5
 42
0.0000000001
 43
0.0000000001
 44
0.0000000001
 40
0.0
 40
0.0
 40
0.0
 40
0.0
 40
0.4456814562194537
 40
1.004050955140329
 40
1.617859581170436
 40
2.246888965419487
 40
2.246888965419487
 40
2.246888965419487
 40
2.246888965419487
 10
6.260335252769892
 20
-36.01186797120181
 30
0.0
 10
6.212247370330081
 20
-36.15289174039506
 30
0.0
 10
6.103912855576131
 20
-36.47059634349221
 30
0.0
 10
5.806325333756474
 20
-36.92663297207294
 30
0.0
 10
5.368039801823554
 20
-37.35199048858016
 30
0.0
 10
4.987142357629833
 20
-37.5221083452558
 30
0.0
 10
4.794361252770159
 20
-37.60820897120175
 30
0.0
 11
6.260335252769892
 21
-36.01186797120181
 31
0.0
 11
6.101028252769993
 21
-36.42810497120172
 31
0.0
 11
5.800726252769891
 21
-36.89884397120181
 31
0.0
 11
5.35260125277
 21
-37.31830197120189
 31
0.0
 11
4.794361252770159
 21
-37.60820897120175
 31
0.0
  0
SPLINE
  5
57C
330
1F
100
AcDbEntity
  8
0
100
AcDbSpline
210
0.0
220
0.0
230
1.0
 70
     8
 71
     3
 72
    11
 73
     7
 74
     5
 42
0.0000000001
 43
0.0000000001
 44
0.0000000001
 40
0.0
 40
0.0
 40
0.0
 40
0.0
 40
0.5216294076266766
 40
1.034564604859467
 40
1.522739518242956
 40
1.956194702215731
 40
1.956194702215731
 40
1.956194702215731
 40
1.956194702215731
 10
3.999969252769915
 20
-36.65413097120177
 30
0.0
 10
4.174125743686401
 20
-36.64472021364956
 30
0.0
 10
4.519535988151901
 20
-36.62605555148502
 30
0.0
 10
5.010011282382413
 20
-36.48149934313843
 30
0.0
 10
5.445560710597727
 20
-36.27803794310355
 30
0.0
 10
5.694490284612551
 20
-36.09700855661613
 30
0.0
 10
5.811565252769924
 20
-36.01186797120181
 30
0.0
 11
3.999969252769915
 21
-36.65413097120177
 31
0.0
 11
4.519343252769886
 21
-36.60567597120189
 31
0.0
 11
5.013127252770119
 21
-36.46682397120185
 31
0.0
 11
5.453508252770007
 21
-36.25615997120167
 31
0.0
 11
5.811565252769924
 21
-36.01186797120181
 31
0.0
  0
SPLINE
  5
57D
330
1F
100
AcDbEntity
  8
0
100
AcDbSpline
210
0.0
220
0.0
230
1.0
 70
     8
 71
     3
 72
    11
 73
     7
 74
     5
 42
0.0000000001
 43
0.0000000001
 44
0.0000000001
 40
0.0
 40
0.0
 40
0.0
 40
0.0
 40
0.0014324643098986
 40
0.0027825535662077
 40
0.0040504060816128
 40
0.0052361889451276
 40
0.0052361889451276
 40
0.0052361889451276
 40
0.0052361889451276
 10
2.689655252770081
 20
-40.01148797120186
 30
0.0
 10
2.690130837192478
 20
-40.01153061332457
 30
0.0
 10
2.691054657158832
 20
-40.01161344539918
 30
0.0
 10
2.692400764903161
 20
-40.01171794613212
 30
0.0
 10
2.693665750659411
 20
-40.0118046281648
 30
0.0
 10
2.69448252527607
 20
-40.0118473329891
 30
0.0
 10
2.694877252769857
 20
-40.01186797120181
 30
0.0
 11
2.689655252770081
 21
-40.01148797120186
 31
0.0
 11
2.691082252769775
 21
-40.01161297120189
 31
0.0
 11
2.692428252769787
 21
-40.01171797120173
 31
0.0
 11
2.693693252770117
 21
-40.01180297120163
 31
0.0
 11
2.694877252769857
 21
-40.01186797120181
 31
0.0
  0
SPLINE
  5
57E
330
1F
100
AcDbEntity
  8
0
100
AcDbSpline
210
0.0
220
0.0
230
1.0
 70
     8
 71
     3
 72
    11
 73
     7
 74
     5
 42
0.0000000001
 43
0.0000000001
 44
0.0000000001
 40
0.0
 40
0.0
 40
0.0
 40
0.0
 40
0.2729813646566357
 40
0.8043143098924844
 40
1.335584549755575
 40
1.608460075585586
 40
1.608460075585586
 40
1.608460075585586
 40
1.608460075585586
 10
1.109294252770269
 20
-40.01148497120175
 30
0.0
 10
1.196810668914222
 20
-39.9868994484578
 30
0.0
 10
1.454669684102408
 20
-39.91446048258181
 30
0.0
 10
1.899540819549381
 20
-39.84038374631385
 30
0.0
 10
2.344364368912706
 20
-39.91450067141895
 30
0.0
 10
2.602171901940829
 20
-39.98691514182941
 30
0.0
 10
2.689655252770081
 20
-40.01148797120186
 30
0.0
 11
1.109294252770269
 21
-40.01148497120175
 31
0.0
 11
1.373001252769882
 21
-39.94093397120173
 31
0.0
 11
1.899559252769905
 21
-39.86986097120189
 31
0.0
 11
2.426049252770099
 21
-39.94096897120176
 31
0.0
 11
2.689655252770081
 21
-40.01148797120186
 31
0.0
  0
SPLINE
  5
57F
330
1F
100
AcDbEntity
  8
0
100
AcDbSpline
210
0.0
220
0.0
230
1.0
 70
     8
 71
     3
 72
    11
 73
     7
 74
     5
 42
0.0000000001
 43
0.0000000001
 44
0.0000000001
 40
0.0
 40
0.0
 40
0.0
 40
0.0
 40
0.7421994600912933
 40
1.429964522095829
 40
2.08607904295359
 40
2.821231094458341
 40
2.821231094458341
 40
2.821231094458341
 40
2.821231094458341
 10
4.794361252770159
 20
-37.60820897120175
 30
0.0
 10
4.886634983690828
 20
-37.84091722462584
 30
0.0
 10
5.064414904901958
 20
-38.28926644109441
 30
0.0
 10
4.931872190771378
 20
-39.02650635461385
 30
0.0
 10
4.342703160476416
 20
-39.50146947802517
 30
0.0
 10
3.867956635261176
 20
-39.49937088042362
 30
0.0
 10
3.61709825277012
 20
-39.49826197120183
 30
0.0
 11
4.794361252770159
 21
-37.60820897120175
 31
0.0
 11
4.998813252770106
 21
-38.32169297120163
 31
0.0
 11
4.852478252770197
 21
-38.99370997120172
 31
0.0
 11
4.347202252769876
 21
-39.41225797120183
 31
0.0
 11
3.61709825277012
 21
-39.49826197120183
 31
0.0
  0
SPLINE
  5
580
330
1F
100
AcDbEntity
  8
0
100
AcDbSpline
210
0.0
220
0.0
230
1.0
 70
     8
 71
     3
 72
    11
 73
     7
 74
     5
 42
0.0000000001
 43
0.0000000001
 44
0.0000000001
 40
0.0
 40
0.0
 40
0.0
 40
0.0
 40
0.2106240188039293
 40
0.4154518827113509
 40
0.6118420203507078
 40
0.7977560346828423
 40
0.7977560346828423
 40
0.7977560346828423
 40
0.7977560346828423
 10
3.999969252769915
 20
-37.66639397120161
 30
0.0
 10
4.07019082443861
 20
-37.66722443563231
 30
0.0
 10
4.208701542838049
 20
-37.66886251097248
 30
0.0
 10
4.41245499770019
 20
-37.65750954376759
 30
0.0
 10
4.607307817412779
 20
-37.63820961019029
 30
0.0
 10
4.733159663091795
 20
-37.61802481229527
 30
0.0
 10
4.794361252770159
 20
-37.60820897120175
 30
0.0
 11
3.999969252769915
 21
-37.66639397120161
 31
0.0
 11
4.210593252770195
 21
-37.66648297120173
 31
0.0
 11
4.415145252769889
 21
-37.65585597120162
 31
0.0
 11
4.610514252769917
 21
-37.63585497120175
 31
0.0
 11
4.794361252770159
 21
-37.60820897120175
 31
0.0
  0
ELLIPSE
  5
581
330
1F
100
AcDbEntity
  8
2
100
AcDbEllipse
 10
3.602458252769793
 20
-36.93008197120162
 30
0.0
 11
0.195824916387
 21
0.05434901702000004
 31
0.0
210
0.0
220
0.0
230
1.0
 40
0.3052251915345899
 41
-0.127359509114506
 42
1.60887423438513
  0
ELLIPSE
  5
582
330
1F
100
AcDbEntity
  8
2
100
AcDbEllipse
 10
3.602458252769793
 20
-36.93008197120162
 30
0.0
 11
0.195824862038
 21
0.05434921284400002
 31
0.0
210
0.0
220
0.0
230
1.0
 40
0.30522519153459
 41
-0.180385910050782
 42
-0.127359509114506
  0
ELLIPSE
  5
583
330
1F
100
AcDbEntity
  8
2
100
AcDbEllipse
 10
3.430873252770198
 20
-36.60261697120177
 30
0.0
 11
-0.293153800838
 21
0.08007753923799998
 31
0.0
210
0.0
220
0.0
230
1.0
 40
0.9834119791769498
 41
1.16132680832318
 42
2.1272782524575
  0
ELLIPSE
  5
584
330
1F
100
AcDbEntity
  8
2
100
AcDbEllipse
 10
0.0512222527700033
 20
-37.29604097120182
 30
0.0
 11
0.02080052314599994
 21
0.389157501027
 31
0.0
210
0.0
220
0.0
230
1.0
 40
0.19598781667535
 41
3.51054756735597
 42
4.47649795610572
  0
ELLIPSE
  5
585
330
1F
100
AcDbEntity
  8
2
100
AcDbEllipse
 10
0.3680542527699799
 20
-37.59849297120172
 30
0.0
 11
0.2911099625650002
 21
0.09482614049200006
 31
0.0
210
0.0
220
0.0
230
0.9999999999999999
 40
0.9069129391014699
 41
4.13109133523381
 42
5.097042427034531
  0
ELLIPSE
  5
586
330
1F
100
AcDbEntity
  8
2
100
AcDbEllipse
 10
0.1964692527699299
 20
-37.81447597120177
 30
0.0
 11
-0.196315478715
 21
0.050769359784
 31
0.0
210
0.0
220
0.0
230
0.9999999999999998
 40
0.17941649323878
 41
0.071447437903233
 42
1.73975097645309
  0
ELLIPSE
  5
587
330
1F
100
AcDbEntity
  8
2
100
AcDbEllipse
 10
0.1964692527699299
 20
-37.81447597120177
 30
0.0
 11
-0.196315478715
 21
0.050769359784
 31
0.0
210
0.0
220
0.0
230
0.9999999999999998
 40
0.17941649323878
 41
-0.049510324998064
 42
0.071447437903233
  0
ELLIPSE
  5
588
330
1F
100
AcDbEntity
  8
2
100
AcDbEllipse
 10
24.20439325276993
 20
-37.81186797120176
 30
0.0
 11
25.14606789719301
 21
0.5735051928390034
 31
0.0
210
0.0
220
0.0
230
0.9999999999999998
 40
0.08446392853035
 41
3.50932018917944
 42
3.75130802396547
  0
ELLIPSE
  5
589
330
1F
100
AcDbEntity
  8
2
100
AcDbEllipse
 10
0.3623202527701324
 20
-37.81186797120176
 30
0.0
 11
-0.2164832046370004
 21
2.199864878394001
 31
0.0
210
0.0
220
0.0
230
0.9999999999999999
 40
0.11244515358805
 41
2.19737144847554
 42
3.130524116051181
  0
ELLIPSE
  5
58A
330
1F
100
AcDbEntity
  8
2
100
AcDbEllipse
 10
1.899463252770147
 20
-37.36970897120182
 30
0.0
 11
1.3
 21
1.591988259969091E-16
 31
0.0
210
0.0
220
0.0
230
1.0
 40
0.25881923076923
 41
0.0
 42
0.3947905099153161
  0
ELLIPSE
  5
58B
330
1F
100
AcDbEntity
  8
2
100
AcDbEllipse
 10
1.899463252770147
 20
-37.36970897120182
 30
0.0
 11
1.3
 21
1.591988259969091E-16
 31
0.0
210
0.0
220
0.0
230
1.0
 40
0.25881923076923
 41
2.74680329737188
 42
3.14159399204651
  0
ELLIPSE
  5
58C
330
1F
100
AcDbEntity
  8
2
100
AcDbEllipse
 10
1.899463252770147
 20
-37.36970897120182
 30
0.0
 11
1.3
 21
1.591988259969091E-16
 31
0.0
210
0.0
220
0.0
230
1.0
 40
0.25881923076923
 41
6.080469656919191
 42
6.28318412038883
  0
ELLIPSE
  5
58D
330
1F
100
AcDbEntity
  8
2
100
AcDbEllipse
 10
1.899463252770147
 20
-37.36970897120182
 30
0.0
 11
-1.3
 21
-4.503330001591988E-7
 31
0.0
210
0.0
220
0.0
230
1.0
 40
0.2588192307692301
 41
0.0
 42
0.090224003090218
  0
ELLIPSE
  5
58E
330
1F
100
AcDbEntity
  8
2
100
AcDbEllipse
 10
1.899463252770147
 20
-37.32141197120177
 30
0.0
 11
1.35
 21
1.653218577660209E-16
 31
0.0
210
0.0
220
0.0
230
1.0
 40
0.25881925925926
 41
3.41285529411445
 42
6.011922808076731
  0
ELLIPSE
  5
58F
330
1F
100
AcDbEntity
  8
2
100
AcDbEllipse
 10
1.899463252770147
 20
-37.32141197120177
 30
0.0
 11
1.35
 21
1.653218577660209E-16
 31
0.0
210
0.0
220
0.0
230
1.0
 40
0.25881925925926
 41
0.090223993212447
 42
0.475880510018276
  0
ELLIPSE
  5
590
330
1F
100
AcDbEntity
  8
2
100
AcDbEllipse
 10
1.899463252770147
 20
-37.32141197120177
 30
0.0
 11
1.35
 21
1.653218577660209E-16
 31
0.0
210
0.0
220
0.0
230
1.0
 40
0.25881925925926
 41
2.66571011278809
 42
3.41285529411445
  0
ELLIPSE
  5
591
330
1F
100
AcDbEntity
  8
2
100
AcDbEllipse
 10
1.899463252770147
 20
-37.36970897120182
 30
0.0
 11
1.3
 21
1.591988259969091E-16
 31
0.0
210
0.0
220
0.0
230
1.0
 40
0.25881923076923
 41
3.23181798496728
 42
3.34430844969319
  0
ELLIPSE
  5
592
330
1F
100
AcDbEntity
  8
2
100
AcDbEllipse
 10
3.331660252770234
 20
-39.04220097120174
 30
0.0
 11
0.03110199999999999
 21
3.808770681658356E-18
 31
0.0
210
0.0
220
0.0
230
1.0
 40
0.25882579898399
 41
4.80261709065166
 42
6.19888167779881
  0
ELLIPSE
  5
593
330
1F
100
AcDbEntity
  8
2
100
AcDbEllipse
 10
0.4672662527700595
 20
-36.95291997120171
 30
0.0
 11
0.2029999999999999
 21
2.485950898259425E-17
 31
0.0
210
0.0
220
0.0
230
1.0
 40
0.25881773399015
 41
1.66102154099855
 42
3.05728508008346
  0
ELLIPSE
  5
594
330
1F
100
AcDbEntity
  8
2
100
AcDbEllipse
 10
3.331660252770234
 20
-37.68990497120171
 30
0.0
 11
0.2029999999999999
 21
2.485950898259425E-17
 31
0.0
210
0.0
220
0.0
230
1.0
 40
0.25881773399015
 41
4.802614294383671
 42
6.19887906325143
  0
ELLIPSE
  5
595
330
1F
100
AcDbEntity
  8
2
100
AcDbEllipse
 10
1.899463252770147
 20
-37.32141197120177
 30
0.0
 11
1.35
 21
1.653218577660209E-16
 31
0.0
210
0.0
220
0.0
230
1.0
 40
0.25881925925926
 41
6.011922808076731
 42
6.192958657393169
  0
ELLIPSE
  5
596
330
1F
100
AcDbEntity
  8
2
100
AcDbEllipse
 10
0.2027092527700916
 20
-39.11546797120172
 30
0.0
 11
0.03110199999999999
 21
3.808770681658356E-18
 31
0.0
210
0.0
220
0.0
230
1.0
 40
0.25882579898399
 41
3.17449693768136
 42
4.80261709065166
  0
ELLIPSE
  5
597
330
1F
100
AcDbEntity
  8
2
100
AcDbEllipse
 10
3.341436252770109
 20
-36.8848399712017
 30
0.0
 11
0.4999999999999999
 21
6.123031769111885E-17
 31
0.0
210
0.0
220
0.0
230
1.0
 40
0.25882
 41
1.66102232666127
 42
2.82030312983895
  0
ELLIPSE
  5
598
330
1F
100
AcDbEntity
  8
2
100
AcDbEllipse
 10
3.839402252770015
 20
-36.8731789712017
 30
0.0
 11
0.4999999999999999
 21
6.123031769111885E-17
 31
0.0
210
0.0
220
0.0
230
1.0
 40
0.25882
 41
1.24386862567699
 42
1.66102232666127
  0
ELLIPSE
  5
599
330
1F
100
AcDbEntity
  8
2
100
AcDbEllipse
 10
3.839402252770015
 20
-36.8731789712017
 30
0.0
 11
0.4999999999999999
 21
6.123031769111885E-17
 31
0.0
210
0.0
220
0.0
230
1.0
 40
0.25882
 41
4.80261508004725
 42
5.039317118382839
  0
ELLIPSE
  5
59A
330
1F
100
AcDbEntity
  8
2
100
AcDbEllipse
 10
3.791409252769881
 20
-38.18120997120172
 30
0.0
 11
2.0
 21
2.449212707644754E-16
 31
0.0
210
0.0
220
0.0
230
1.0
 40
0.258819
 41
1.46632651522983
 42
1.65806273916508
  0
ELLIPSE
  5
59B
330
1F
100
AcDbEntity
  8
2
100
AcDbEllipse
 10
1.8251282527699
 20
-36.7720929712018
 30
0.0
 11
0.04999999999999999
 21
6.123031769111885E-18
 31
0.0
210
0.0
220
0.0
230
1.0
 40
0.25882
 41
0.613821605997222
 42
1.66102232666127
  0
ELLIPSE
  5
59C
330
1F
100
AcDbEntity
  8
2
100
AcDbEllipse
 10
2.366178252770169
 20
-36.7236909712019
 30
0.0
 11
0.4999999999999999
 21
6.123031769111885E-17
 31
0.0
210
0.0
220
0.0
230
1.0
 40
0.25882
 41
3.75541518370433
 42
4.80261508004725
  0
ELLIPSE
  5
59D
330
1F
100
AcDbEntity
  8
2
100
AcDbEllipse
 10
2.573860252769919
 20
-36.86175997120176
 30
0.0
 11
0.04999999999999999
 21
6.123031769111885E-18
 31
0.0
210
0.0
220
0.0
230
1.0
 40
0.25882
 41
0.613821605997222
 42
1.66102232666127
  0
ELLIPSE
  5
59E
330
1F
100
AcDbEntity
  8
2
100
AcDbEllipse
 10
2.573860252769919
 20
-36.86175997120176
 30
0.0
 11
0.04999999999999999
 21
6.123031769111885E-18
 31
0.0
210
0.0
220
0.0
230
1.0
 40
0.25882
 41
0.0
 42
0.613821605997222
  0
ELLIPSE
  5
59F
330
1F
100
AcDbEntity
  8
2
100
AcDbEllipse
 10
1.259299252769779
 20
-36.74960897120172
 30
0.0
 11
0.4999999999999999
 21
6.123031769111885E-17
 31
0.0
210
0.0
220
0.0
230
1.0
 40
0.25882
 41
4.80261508004725
 42
5.84981422659199
  0
ELLIPSE
  5
5A0
330
1F
100
AcDbEntity
  8
2
100
AcDbEllipse
 10
1.8251282527699
 20
-36.7720929712018
 30
0.0
 11
0.04999999999999999
 21
6.123031769111885E-18
 31
0.0
210
0.0
220
0.0
230
1.0
 40
0.25882
 41
1.66102232666127
 42
2.70822045479261
  0
ELLIPSE
  5
5A1
330
1F
100
AcDbEntity
  8
2
100
AcDbEllipse
 10
1.150731252770129
 20
-36.89508297120165
 30
0.0
 11
0.04999999999999999
 21
6.123031769111885E-18
 31
0.0
210
0.0
220
0.0
230
1.0
 40
0.25882
 41
1.66102232666127
 42
2.70822045479261
  0
ELLIPSE
  5
5A2
330
1F
100
AcDbEntity
  8
2
100
AcDbEllipse
 10
1.150731252770129
 20
-36.89508297120165
 30
0.0
 11
0.04999999999999999
 21
6.123031769111885E-18
 31
0.0
210
0.0
220
0.0
230
1.0
 40
0.25882
 41
3.141593992039991
 42
3.75541518370433
  0
ELLIPSE
  5
5A3
330
1F
100
AcDbEntity
  8
2
100
AcDbEllipse
 10
3.006342252770082
 20
-36.95883197120179
 30
0.0
 11
0.4999999999999999
 21
6.123031769111885E-17
 31
0.0
210
0.0
220
0.0
230
1.0
 40
0.25882
 41
3.14159399204258
 42
3.75541518370433
  0
ELLIPSE
  5
5A4
330
1F
100
AcDbEntity
  8
2
100
AcDbEllipse
 10
1.899463252770147
 20
-39.97911997120173
 30
0.0
 11
0.7999999999999998
 21
9.796850830579016E-17
 31
0.0
210
0.0
220
0.0
230
1.0
 40
0.25881875
 41
3.29813016604492
 42
6.127588319712809
  0
ELLIPSE
  5
5A5
330
1F
100
AcDbEntity
  8
2
100
AcDbEllipse
 10
0.7925852527700954
 20
-37.01066897120177
 30
0.0
 11
0.4999999999999999
 21
6.123031769111885E-17
 31
0.0
210
0.0
220
0.0
230
1.0
 40
0.25882
 41
0.0
 42
0.613821605997222
  0
ELLIPSE
  5
5A6
330
1F
100
AcDbEntity
  8
2
100
AcDbEllipse
 10
2.573860252769919
 20
-36.86175997120176
 30
0.0
 11
0.04999999999999999
 21
6.123031769111885E-18
 31
0.0
210
0.0
220
0.0
230
1.0
 40
0.25882
 41
5.84981422659199
 42
6.28318412033694
  0
ELLIPSE
  5
5A7
330
1F
100
AcDbEntity
  8
2
100
AcDbEllipse
 10
3.006342252770082
 20
-36.95883197120179
 30
0.0
 11
0.4999999999999999
 21
6.123031769111885E-17
 31
0.0
210
0.0
220
0.0
230
1.0
 40
0.25882
 41
2.70822045479261
 42
3.14159399204258
  0
ELLIPSE
  5
5A8
330
1F
100
AcDbEntity
  8
2
100
AcDbEllipse
 10
2.648195252770165
 20
-37.0744169712018
 30
0.0
 11
0.04999999999999999
 21
6.123031769111885E-18
 31
0.0
210
0.0
220
0.0
230
1.0
 40
0.25882
 41
5.84981422659199
 42
6.28318412033694
  0
ELLIPSE
  5
5A9
330
1F
100
AcDbEntity
  8
2
100
AcDbEllipse
 10
2.648195252770165
 20
-37.0744169712018
 30
0.0
 11
0.04999999999999999
 21
6.123031769111885E-18
 31
0.0
210
0.0
220
0.0
230
1.0
 40
0.25882
 41
0.0
 42
0.613821605997222
  0
ELLIPSE
  5
5AA
330
1F
100
AcDbEntity
  8
2
100
AcDbEllipse
 10
1.150731252770129
 20
-36.89508297120165
 30
0.0
 11
0.04999999999999999
 21
6.123031769111885E-18
 31
0.0
210
0.0
220
0.0
230
1.0
 40
0.25882
 41
2.70822045479261
 42
3.141593992039991
  0
ELLIPSE
  5
5AB
330
1F
100
AcDbEntity
  8
2
100
AcDbEllipse
 10
0.7925852527700954
 20
-37.01066897120177
 30
0.0
 11
0.4999999999999999
 21
6.123031769111885E-17
 31
0.0
210
0.0
220
0.0
230
1.0
 40
0.25882
 41
5.84981422659199
 42
6.283184120313551
  0
ELLIPSE
  5
5AC
330
1F
100
AcDbEntity
  8
2
100
AcDbEllipse
 10
1.225066252769921
 20
-37.10774097120179
 30
0.0
 11
0.04999999999999999
 21
6.123031769111885E-18
 31
0.0
210
0.0
220
0.0
230
1.0
 40
0.25882
 41
2.70822045479261
 42
3.141593992039991
  0
ELLIPSE
  5
5AD
330
1F
100
AcDbEntity
  8
2
100
AcDbEllipse
 10
1.225066252769921
 20
-37.10774097120179
 30
0.0
 11
0.04999999999999999
 21
6.123031769111885E-18
 31
0.0
210
0.0
220
0.0
230
1.0
 40
0.25882
 41
3.141593992039991
 42
3.75541518370433
  0
ELLIPSE
  5
5AE
330
1F
100
AcDbEntity
  8
2
100
AcDbEllipse
 10
1.973798252769939
 20
-37.19740697120187
 30
0.0
 11
0.04999999999999999
 21
6.123031769111885E-18
 31
0.0
210
0.0
220
0.0
230
1.0
 40
0.25882
 41
4.80261508004725
 42
5.84981422659199
  0
ELLIPSE
  5
5AF
330
1F
100
AcDbEntity
  8
2
100
AcDbEllipse
 10
2.648195252770165
 20
-37.0744169712018
 30
0.0
 11
0.04999999999999999
 21
6.123031769111885E-18
 31
0.0
210
0.0
220
0.0
230
1.0
 40
0.25882
 41
4.80261508004725
 42
5.84981422659199
  0
ELLIPSE
  5
5B0
330
1F
100
AcDbEntity
  8
2
100
AcDbEllipse
 10
2.53962725277006
 20
-37.21989097120172
 30
0.0
 11
0.4999999999999999
 21
6.123031769111885E-17
 31
0.0
210
0.0
220
0.0
230
1.0
 40
0.25882
 41
1.66102232666127
 42
2.70822045479261
  0
ELLIPSE
  5
5B1
330
1F
100
AcDbEntity
  8
2
100
AcDbEllipse
 10
1.225066252769921
 20
-37.10774097120179
 30
0.0
 11
0.04999999999999999
 21
6.123031769111885E-18
 31
0.0
210
0.0
220
0.0
230
1.0
 40
0.25882
 41
3.75541518370433
 42
4.80261508004725
  0
ELLIPSE
  5
5B2
330
1F
100
AcDbEntity
  8
2
100
AcDbEllipse
 10
1.973798252769939
 20
-37.19740697120187
 30
0.0
 11
0.04999999999999999
 21
6.123031769111885E-18
 31
0.0
210
0.0
220
0.0
230
1.0
 40
0.25882
 41
3.75541518370433
 42
4.80261508004725
  0
ELLIPSE
  5
5B3
330
1F
100
AcDbEntity
  8
2
100
AcDbEllipse
 10
1.432748252770125
 20
-37.24580897120177
 30
0.0
 11
0.4999999999999999
 21
6.123031769111885E-17
 31
0.0
210
0.0
220
0.0
230
1.0
 40
0.25882
 41
0.613821605997222
 42
1.66102232666127
  0
ELLIPSE
  5
5B4
330
1F
100
AcDbEntity
  8
2
100
AcDbEllipse
 10
1.899463252770147
 20
-36.98474997120184
 30
0.0
 11
0.8749999999999998
 21
1.071530559594580E-16
 31
0.0
210
0.0
220
0.0
230
1.0
 40
0.25881942857143
 41
0.61382264555019
 42
1.66102212853764
  0
ELLIPSE
  5
5B5
330
1F
100
AcDbEntity
  8
2
100
AcDbEllipse
 10
1.899463252770147
 20
-36.98474997120184
 30
0.0
 11
0.8749999999999998
 21
1.071530559594580E-16
 31
0.0
210
0.0
220
0.0
230
1.0
 40
0.25881942857143
 41
5.84981338516273
 42
11.95254612057407
  0
ELLIPSE
  5
5B6
330
1F
100
AcDbEntity
  8
2
100
AcDbEllipse
 10
1.899463252770147
 20
-36.98474997120184
 30
0.0
 11
0.8749999999999998
 21
1.071530559594580E-16
 31
0.0
210
0.0
220
0.0
230
1.0
 40
0.25881942857143
 41
4.8026148819234
 42
5.84981338516273
  0
ELLIPSE
  5
5B7
330
1F
100
AcDbEntity
  8
2
100
AcDbEllipse
 10
1.899463252770147
 20
-36.98474997120184
 30
0.0
 11
0.8749999999999998
 21
1.071530559594580E-16
 31
0.0
210
0.0
220
0.0
230
1.0
 40
0.25881942857143
 41
3.75541622325798
 42
4.8026148819234
  0
ELLIPSE
  5
5B8
330
1F
100
AcDbEntity
  8
2
100
AcDbEllipse
 10
1.899463252770147
 20
-36.98474997120184
 30
0.0
 11
0.8749999999999998
 21
1.071530559594580E-16
 31
0.0
210
0.0
220
0.0
230
1.0
 40
0.25881942857143
 41
2.70821961336175
 42
3.75541622325798
  0
ELLIPSE
  5
5B9
330
1F
100
AcDbEntity
  8
2
100
AcDbEllipse
 10
1.899463252770147
 20
-36.98474997120184
 30
0.0
 11
0.8749999999999998
 21
1.071530559594580E-16
 31
0.0
210
0.0
220
0.0
230
1.0
 40
0.25881942857143
 41
1.66102212853764
 42
2.70821961336175
  0
ELLIPSE
  5
5BA
330
1F
100
AcDbEntity
  8
2
100
AcDbEllipse
 10
1.899463252770147
 20
-37.06913997120182
 30
0.0
 11
1.2
 21
1.469527624586852E-16
 31
0.0
210
0.0
220
0.0
230
1.0
 40
0.25881916666667
 41
2.12175279622833
 42
3.14159399193198
  0
ELLIPSE
  5
5BB
330
1F
100
AcDbEntity
  8
2
100
AcDbEllipse
 10
1.899463252770147
 20
-37.06913997120182
 30
0.0
 11
1.2
 21
1.469527624586852E-16
 31
0.0
210
0.0
220
0.0
230
1.0
 40
0.25881916666667
 41
0.090224025315212
 42
1.01983904249469
  0
ELLIPSE
  5
5BC
330
1F
100
AcDbEntity
  8
2
100
AcDbEllipse
 10
1.899463252770147
 20
-37.06913997120182
 30
0.0
 11
1.2
 21
1.469527624586852E-16
 31
0.0
210
0.0
220
0.0
230
1.0
 40
0.25881916666667
 41
3.14159399193198
 42
6.28318412033694
  0
ELLIPSE
  5
5BD
330
1F
100
AcDbEntity
  8
2
100
AcDbEllipse
 10
1.899463252770147
 20
-37.06913997120182
 30
0.0
 11
1.2
 21
1.469527624586852E-16
 31
0.0
210
0.0
220
0.0
230
1.0
 40
0.25881916666667
 41
0.0
 42
0.090224025315212
  0
LINE
  5
5BE
330
1F
100
AcDbEntity
  8
0
100
AcDbLine
 10
2.867022252769857
 20
-36.84397297120177
 30
0.0
 11
2.738091252770118
 21
-36.84699197120176
 31
0.0
  0
LINE
  5
5BF
330
1F
100
AcDbEntity
  8
0
100
AcDbLine
 10
2.738091252770118
 20
-36.84699197120176
 30
0.0
 11
3.24192225277011
 21
-36.83519497120187
 31
0.0
  0
LINE
  5
5C0
330
1F
100
AcDbEntity
  8
0
100
AcDbLine
 10
0.2055122527699496
 20
-39.12348497120183
 30
0.0
 11
3.334462252770209
 21
-39.05021797120162
 31
0.0
  0
LINE
  5
5C1
330
1F
100
AcDbEntity
  8
0
100
AcDbLine
 10
0.5570042527701844
 20
-37.80762997120178
 30
0.0
 11
3.349951252770097
 21
-37.74223097120171
 31
0.0
  0
LINE
  5
5C2
330
1F
100
AcDbEntity
  8
0
100
AcDbLine
 10
0.4622112527699755
 20
-36.65413097120177
 30
0.0
 11
3.999969252769915
 21
-36.65413097120177
 31
0.0
  0
LINE
  5
5C3
330
1F
100
AcDbEntity
  8
0
100
AcDbLine
 10
2.69436125277025
 20
-40.01186797120181
 30
0.0
 11
6.999969252769915
 21
-40.01186797120181
 31
0.0
  0
LINE
  5
5C4
330
1F
100
AcDbEntity
  8
0
100
AcDbLine
 10
0.2055122527699496
 20
-39.12348497120183
 30
0.0
 11
0.2205002527698525
 21
-37.85773297120181
 31
0.0
  0
LINE
  5
5C5
330
1F
100
AcDbEntity
  8
0
100
AcDbLine
 10
0.0000042527699406
 20
-37.76635097120175
 30
0.0
 11
0.171624252770016
 21
-39.11573197120174
 31
0.0
  0
LINE
  5
5C6
330
1F
100
AcDbEntity
  8
0
100
AcDbLine
 10
0.5760532527701798
 20
-40.01186797120181
 30
0.0
 11
1.104541252770105
 21
-40.01186797120181
 31
0.0
  0
LINE
  5
5C7
330
1F
100
AcDbEntity
  8
0
100
AcDbLine
 10
1.104048252770099
 20
-40.01186797120181
 30
0.0
 11
1.109294252770269
 21
-40.01148497120175
 31
0.0
  0
LINE
  5
5C8
330
1F
100
AcDbEntity
  8
0
100
AcDbLine
 10
0.4489752527701967
 20
-36.90059297120183
 30
0.0
 11
0.9204072527700191
 21
-36.88955497120173
 31
0.0
  0
LINE
  5
5C9
330
1F
100
AcDbEntity
  8
0
100
AcDbLine
 10
0.9204072527700191
 20
-36.88955497120173
 30
0.0
 11
0.4489752527701967
 21
-36.90059297120183
 31
0.0
  0
LINE
  5
5CA
330
1F
100
AcDbEntity
  8
0
100
AcDbLine
 10
0.1205192527700092
 20
-37.39095397120173
 30
0.0
 11
0.2649872527699699
 21
-36.94849597120174
 31
0.0
  0
LINE
  5
5CB
330
1F
100
AcDbEntity
  8
0
100
AcDbLine
 10
0.5570042527701844
 20
-37.80762997120178
 30
0.0
 11
0.1205192527700092
 21
-37.39095397120173
 31
0.0
  0
LINE
  5
5CC
330
1F
100
AcDbEntity
  8
0
100
AcDbLine
 10
0.2205002527698525
 20
-37.85773297120181
 30
0.0
 11
0.2800772527698427
 21
-37.87121097120189
 31
0.0
  0
LINE
  5
5CD
330
1F
100
AcDbEntity
  8
0
100
AcDbLine
 10
0.0593282527697738
 20
-37.66047997120177
 30
0.0
 11
0.2800772527698427
 21
-37.87121097120189
 31
0.0
  0
LINE
  5
5CE
330
1F
100
AcDbEntity
  8
0
100
AcDbLine
 10
0.0008442527700936
 20
-37.76202597120164
 30
0.0
 11
0.0593282527697738
 21
-37.66047997120177
 31
0.0
  0
LINE
  5
5CF
330
1F
100
AcDbEntity
  8
0
100
AcDbLine
 10
0.3812202527701629
 20
-36.9021799712018
 30
0.0
 11
0.3815752527698351
 21
-36.90528997120191
 31
0.0
  0
LINE
  5
5D0
330
1F
100
AcDbEntity
  8
0
100
AcDbLine
 10
0.4622112527699755
 20
-36.65413097120177
 30
0.0
 11
0.3812202527701629
 21
-36.9021799712018
 31
0.0
  0
LINE
  5
5D1
330
1F
100
AcDbEntity
  8
0
100
AcDbLine
 10
0.4489752527701967
 20
-36.90059297120183
 30
0.0
 11
0.3812202527701629
 21
-36.9021799712018
 31
0.0
  0
LINE
  5
5D2
330
1F
100
AcDbEntity
  8
0
100
AcDbLine
 10
0.6994632527698741
 20
-37.06913997120182
 30
0.0
 11
0.6994632527698741
 21
-37.48148297120179
 31
0.0
  0
ARC
  5
5D3
330
1F
100
AcDbEntity
  8
1
100
AcDbCircle
 10
1.89946325276992
 20
-40.75487797120172
 30
0.0
 40
3.99999986753163
100
AcDbArc
 50
80.96424725186999
 51
99.03575274812997
  0
LINE
  5
5D4
330
1F
100
AcDbEntity
  8
0
100
AcDbLine
 10
1.866000252769936
 20
-36.76463897120175
 30
0.0
 11
1.866000252769936
 21
-37.18027897120192
 31
0.0
  0
LINE
  5
5D5
330
1F
100
AcDbEntity
  8
0
100
AcDbLine
 10
1.7797502527701
 20
-36.76665897120165
 30
0.0
 11
1.7797502527701
 21
-37.15263797120178
 31
0.0
  0
LINE
  5
5D6
330
1F
100
AcDbEntity
  8
0
100
AcDbLine
 10
1.957452252770054
 20
-36.79823097120175
 30
0.0
 11
1.957452252770054
 21
-37.20963697120169
 31
0.0
  0
LINE
  5
5D7
330
1F
100
AcDbEntity
  8
0
100
AcDbLine
 10
1.866000252769936
 20
-36.76463897120175
 30
0.0
 11
1.957452252770054
 21
-36.79823097120175
 31
0.0
  0
LINE
  5
5D8
330
1F
100
AcDbEntity
  8
0
100
AcDbLine
 10
1.713077252769836
 20
-36.80395297120185
 30
0.0
 11
1.713077252769836
 21
-37.13865197120185
 31
0.0
  0
LINE
  5
5D9
330
1F
100
AcDbEntity
  8
0
100
AcDbLine
 10
1.304351252770175
 20
-36.8784929712017
 30
0.0
 11
1.304351252770175
 21
-37.11887797120176
 31
0.0
  0
LINE
  5
5DA
330
1F
100
AcDbEntity
  8
0
100
AcDbLine
 10
1.146226252770248
 20
-36.8821949712019
 30
0.0
 11
1.304351252770175
 21
-36.8784929712017
 31
0.0
  0
LINE
  5
5DB
330
1F
100
AcDbEntity
  8
0
100
AcDbLine
 10
1.713077252769836
 20
-36.80395297120185
 30
0.0
 11
1.7797502527701
 21
-36.76665897120165
 31
0.0
  0
LINE
  5
5DC
330
1F
100
AcDbEntity
  8
0
100
AcDbLine
 10
1.146226252770248
 20
-36.8821949712019
 30
0.0
 11
1.146226252770248
 21
-36.91589597120174
 31
0.0
  0
LINE
  5
5DD
330
1F
100
AcDbEntity
  8
0
100
AcDbLine
 10
1.292585252770095
 20
-37.11915297120186
 30
0.0
 11
1.292585252770095
 21
-37.01066897120177
 31
0.0
  0
LINE
  5
5DE
330
1F
100
AcDbEntity
  8
0
100
AcDbLine
 10
1.246362252770268
 20
-37.06501197120178
 30
0.0
 11
1.246362252770268
 21
-37.12023597120174
 31
0.0
  0
LINE
  5
5DF
330
1F
100
AcDbEntity
  8
0
100
AcDbLine
 10
1.17968825277012
 20
-37.10230597120176
 30
0.0
 11
1.246362252770268
 21
-37.06501197120178
 31
0.0
  0
LINE
  5
5E0
330
1F
100
AcDbEntity
  8
0
100
AcDbLine
 10
1.201310252769872
 20
-36.9361289712017
 30
0.0
 11
1.109858252770209
 21
-36.9025369712017
 31
0.0
  0
LINE
  5
5E1
330
1F
100
AcDbEntity
  8
0
100
AcDbLine
 10
1.17968825277012
 20
-37.10230597120176
 30
0.0
 11
1.17968825277012
 21
-37.11317497120172
 31
0.0
  0
LINE
  5
5E2
330
1F
100
AcDbEntity
  8
0
100
AcDbLine
 10
2.085850252769887
 20
-37.1655479712017
 30
0.0
 11
2.019176252770194
 21
-37.20284197120191
 31
0.0
  0
LINE
  5
5E3
330
1F
100
AcDbEntity
  8
0
100
AcDbLine
 10
1.932926252769903
 20
-37.2048609712017
 30
0.0
 11
1.84147425277024
 21
-37.17126997120181
 31
0.0
  0
LINE
  5
5E4
330
1F
100
AcDbEntity
  8
0
100
AcDbLine
 10
1.387697252770067
 20
-37.11692597120191
 30
0.0
 11
1.229571252770256
 21
-37.12062897120177
 31
0.0
  0
LINE
  5
5E5
330
1F
100
AcDbEntity
  8
0
100
AcDbLine
 10
2.41123025277011
 20
-36.85257397120176
 30
0.0
 11
2.41123025277011
 21
-37.0948209712019
 31
0.0
  0
LINE
  5
5E6
330
1F
100
AcDbEntity
  8
0
100
AcDbLine
 10
2.41123025277011
 20
-36.85257397120176
 30
0.0
 11
2.569355252770038
 21
-36.84887197120179
 31
0.0
  0
LINE
  5
5E7
330
1F
100
AcDbEntity
  8
0
100
AcDbLine
 10
2.569355252770038
 20
-36.84887197120179
 30
0.0
 11
2.569355252770038
 21
-36.89509597120173
 31
0.0
  0
LINE
  5
5E8
330
1F
100
AcDbEntity
  8
0
100
AcDbLine
 10
2.506342252770082
 20
-36.95883197120179
 30
0.0
 11
2.506342252770082
 21
-37.09073197120188
 31
0.0
  0
LINE
  5
5E9
330
1F
100
AcDbEntity
  8
0
100
AcDbLine
 10
2.597616252769967
 20
-37.03337197120163
 30
0.0
 11
2.597616252769967
 21
-37.0885949712017
 31
0.0
  0
LINE
  5
5EA
330
1F
100
AcDbEntity
  8
0
100
AcDbLine
 10
2.619238252770174
 20
-36.86719397120169
 30
0.0
 11
2.552564252770026
 21
-36.90448797120189
 31
0.0
  0
LINE
  5
5EB
330
1F
100
AcDbEntity
  8
0
100
AcDbLine
 10
2.597616252769967
 20
-37.03337197120163
 30
0.0
 11
2.689068252770085
 21
-37.06696297120175
 31
0.0
  0
LINE
  5
5EC
330
1F
100
AcDbEntity
  8
0
100
AcDbLine
 10
2.689068252770085
 20
-37.06696297120175
 30
0.0
 11
2.689068252770085
 21
-37.08187097120162
 31
0.0
  0
LINE
  5
5ED
330
1F
100
AcDbEntity
  8
0
100
AcDbLine
 10
2.65270125276993
 20
-37.08730497120178
 30
0.0
 11
2.494575252770119
 21
-37.09100797120163
 31
0.0
  0
LINE
  5
5EE
330
1F
100
AcDbEntity
  8
0
100
AcDbLine
 10
6.999969252769915
 20
-36.01186797120181
 30
0.0
 11
6.260335252769892
 21
-36.01186797120181
 31
0.0
  0
LINE
  5
5EF
330
1F
100
AcDbEntity
  8
0
100
AcDbLine
 10
3.443477252770208
 20
-38.4422129712018
 30
0.0
 11
3.542789252770035
 21
-37.66722397120179
 31
0.0
  0
LINE
  5
5F0
330
1F
100
AcDbEntity
  8
0
100
AcDbLine
 10
3.362651252769865
 20
-39.04287897120184
 30
0.0
 11
3.533939252769869
 21
-37.69432897120169
 31
0.0
  0
LINE
  5
5F1
330
1F
100
AcDbEntity
  8
0
100
AcDbLine
 10
3.334462252770209
 20
-39.05021797120162
 30
0.0
 11
3.349951252770097
 21
-37.74223097120171
 31
0.0
  0
LINE
  5
5F2
330
1F
100
AcDbEntity
  8
0
100
AcDbLine
 10
3.61709825277012
 20
-37.66554097120161
 30
0.0
 11
3.61709825277012
 21
-39.49826197120183
 31
0.0
  0
LINE
  5
5F3
330
1F
100
AcDbEntity
  8
0
100
AcDbLine
 10
3.443477252770208
 20
-39.02176897120171
 30
0.0
 11
3.368993252769997
 21
-39.02345497120177
 31
0.0
  0
LINE
  5
5F4
330
1F
100
AcDbEntity
  8
0
100
AcDbLine
 10
3.362651252769865
 20
-39.04287897120184
 30
0.0
 11
3.443477252770208
 21
-38.79533497120178
 31
0.0
  0
LINE
  5
5F5
330
1F
100
AcDbEntity
  8
0
100
AcDbLine
 10
3.443477252770208
 20
-38.4422129712018
 30
0.0
 11
3.443477252770208
 21
-39.02176897120171
 31
0.0
  0
LINE
  5
5F6
330
1F
100
AcDbEntity
  8
0
100
AcDbLine
 10
3.542789252770035
 20
-37.66722397120179
 30
0.0
 11
3.67840725276983
 21
-37.2518709712017
 31
0.0
  0
LINE
  5
5F7
330
1F
100
AcDbEntity
  8
0
100
AcDbLine
 10
3.542789252770035
 20
-37.66722397120179
 30
0.0
 11
3.759013252770274
 21
-37.00499997120187
 31
0.0
  0
LINE
  5
5F8
330
1F
100
AcDbEntity
  8
0
100
AcDbLine
 10
3.999969252769915
 20
-37.66639397120161
 30
0.0
 11
3.999969252769915
 21
-36.99573497120173
 31
0.0
  0
LINE
  5
5F9
330
1F
100
AcDbEntity
  8
0
100
AcDbLine
 10
3.533939252769869
 20
-37.69432897120169
 30
0.0
 11
3.542789252770035
 21
-37.66722397120179
 31
0.0
  0
LINE
  5
5FA
330
1F
100
AcDbEntity
  8
0
100
AcDbLine
 10
3.61709825277012
 20
-37.66554097120161
 30
0.0
 11
3.542789252770035
 21
-37.66722397120179
 31
0.0
  0
LINE
  5
5FB
330
1F
100
AcDbEntity
  8
0
100
AcDbLine
 10
3.783458252769833
 20
-37.00442797120172
 30
0.0
 11
3.798804252769969
 21
-36.8837649712018
 31
0.0
  0
LINE
  5
5FC
330
1F
100
AcDbEntity
  8
0
100
AcDbLine
 10
3.518849252769996
 20
-36.8897069712018
 30
0.0
 11
3.578426252769987
 21
-36.8724239712019
 31
0.0
  0
LINE
  5
5FD
330
1F
100
AcDbEntity
  8
0
100
AcDbLine
 10
3.730643252769823
 20
-37.0918889712018
 30
0.0
 11
3.518849252769996
 21
-36.8897069712018
 31
0.0
  0
LINE
  5
5FE
330
1F
100
AcDbEntity
  8
0
100
AcDbLine
 10
3.765834252770219
 20
-37.00483997120182
 30
0.0
 11
3.7980822527702
 21
-36.88733797120176
 31
0.0
  0
LINE
  5
5FF
330
1F
100
AcDbEntity
  8
0
100
AcDbLine
 10
3.783209252770121
 20
-37.00443297120182
 30
0.0
 11
3.7980822527702
 21
-36.88733797120176
 31
0.0
  0
LINE
  5
600
330
1F
100
AcDbEntity
  8
0
100
AcDbLine
 10
3.24192225277011
 20
-36.83519497120187
 30
0.0
 11
3.67840725276983
 21
-37.2518709712017
 31
0.0
  0
LINE
  5
601
330
1F
100
AcDbEntity
  8
0
100
AcDbLine
 10
3.794350252770073
 20
-36.74429597120184
 30
0.0
 11
3.296384252770167
 21
-36.75595697120161
 31
0.0
  0
LINE
  5
602
330
1F
100
AcDbEntity
  8
0
100
AcDbLine
 10
3.296384252770167
 20
-36.75595697120161
 30
0.0
 11
3.296384252770167
 21
-36.86971597120191
 31
0.0
  0
LINE
  5
603
330
1F
100
AcDbEntity
  8
0
100
AcDbLine
 10
3.794350252770073
 20
-36.91878197120172
 30
0.0
 11
3.794350252770073
 21
-37.00417197120169
 31
0.0
  0
LINE
  5
604
330
1F
100
AcDbEntity
  8
0
100
AcDbLine
 10
3.794350252770073
 20
-36.74429597120184
 30
0.0
 11
3.794350252770073
 21
-36.86828297120178
 31
0.0
  0
LINE
  5
605
330
1F
100
AcDbEntity
  8
0
100
AcDbLine
 10
3.884454252769956
 20
-37.00206297120167
 30
0.0
 11
3.759013252770274
 21
-37.00499997120187
 31
0.0
  0
LINE
  5
606
330
1F
100
AcDbEntity
  8
0
100
AcDbLine
 10
3.999969252769915
 20
-36.75062397120178
 30
0.0
 11
3.999969252769915
 21
-36.65413097120177
 31
0.0
  0
LINE
  5
607
330
1F
100
AcDbEntity
  8
0
100
AcDbLine
 10
3.099463252769965
 20
-37.48148297120179
 30
0.0
 11
3.099463252769965
 21
-37.06913997120182
 31
0.0
  0
LINE
  5
608
330
1F
100
AcDbEntity
  8
0
100
AcDbLine
 10
5.811565252769924
 20
-36.01186797120181
 30
0.0
 11
6.260335252769892
 21
-36.01186797120181
 31
0.0
  0
LINE
  5
609
330
1F
100
AcDbEntity
  8
0
100
AcDbLine
 10
7.999969252769915
 20
-39.81186797120176
 30
0.0
 11
7.999969252769915
 21
-36.01186797120181
 31
0.0
  0
LINE
  5
60A
330
1F
100
AcDbEntity
  8
0
100
AcDbLine
 10
7.999969252769915
 20
-39.81186797120176
 30
0.0
 11
7.999969252769915
 21
-36.01186797120181
 31
0.0
  0
LINE
  5
60B
330
1F
100
AcDbEntity
  8
0
100
AcDbLine
 10
6.999969252769915
 20
-40.01186797120181
 30
0.0
 11
6.999969252769915
 21
-36.01186797120181
 31
0.0
  0
LINE
  5
60C
330
1F
100
AcDbEntity
  8
0
100
AcDbLine
 10
6.999969252769915
 20
-39.81186797120176
 30
0.0
 11
7.999969252769915
 21
-39.81186797120176
 31
0.0
  0
LINE
  5
60D
330
1F
100
AcDbEntity
  8
0
100
AcDbLine
 10
7.999969252769915
 20
-36.01186797120181
 30
0.0
 11
6.999969252769915
 21
-36.01186797120181
 31
0.0
  0
SPLINE
  5
60E
330
1F
100
AcDbEntity
  8
0
100
AcDbSpline
210
0.0
220
0.0
230
1.0
 70
     8
 71
     3
 72
    11
 73
     7
 74
     5
 42
0.0000000001
 43
0.0000000001
 44
0.0000000001
 40
0.0
 40
0.0
 40
0.0
 40
0.0
 40
0.6096218944508711
 40
1.163186180709719
 40
1.606135687977618
 40
1.899769153496999
 40
1.899769153496999
 40
1.899769153496999
 40
1.899769153496999
 10
-22.69028049364806
 20
1.184876880557113
 30
0.0
 10
-22.82086184382442
 20
1.027352001000187
 30
0.0
 10
-23.07001697320242
 20
0.7267873974542025
 30
0.0
 10
-23.53717860764466
 20
0.4483479069101488
 30
0.0
 10
-23.94559477737298
 20
0.3045295834710492
 30
0.0
 10
-24.18942166960023
 20
0.2721448284979608
 30
0.0
 10
-24.286621493648
 20
0.2592348805571874
 30
0.0
 11
-22.69028049364806
 21
1.184876880557113
 31
0.0
 11
-23.10651749364797
 21
0.7394718805571756
 31
0.0
 11
-23.57725649364829
 21
0.4482018805572352
 31
0.0
 11
-23.99671449364814
 21
0.3058668805572324
 31
0.0
 11
-24.286621493648
 21
0.2592348805571874
 31
0.0
  0
SPLINE
  5
60F
330
1F
100
AcDbEntity
  8
0
100
AcDbSpline
210
0.0
220
0.0
230
1.0
 70
     8
 71
     3
 72
    11
 73
     7
 74
     5
 42
0.0000000001
 43
0.0000000001
 44
0.0000000001
 40
0.0
 40
0.0
 40
0.0
 40
0.0
 40
0.0573409447603595
 40
0.2279464496187301
 40
0.5085646036143787
 40
0.8882434202003235
 40
0.8882434202003235
 40
0.8882434202003235
 40
0.8882434202003235
 10
-23.33254349364825
 20
4.32052188055718
 30
0.0
 10
-23.3163320406569
 20
4.310391865311665
 30
0.0
 10
-23.25188693658717
 20
4.270122193797722
 30
0.0
 10
-23.11442908120757
 20
4.170724596230806
 30
0.0
 10
-22.90366344230997
 20
3.989090221829758
 30
0.0
 10
-22.76818325487314
 20
3.814874847172356
 30
0.0
 10
-22.69028049364806
 20
3.714698880557307
 30
0.0
 11
-23.33254349364825
 21
4.32052188055718
 31
0.0
 11
-23.28408849364814
 21
4.289860880557171
 31
0.0
 11
-23.1452364936481
 21
4.190732880557334
 31
0.0
 11
-22.93457249364838
 21
4.005348880557222
 31
0.0
 11
-22.69028049364806
 21
3.714698880557307
 31
0.0
  0
SPLINE
  5
610
330
1F
100
AcDbEntity
  8
0
100
AcDbSpline
210
0.0
220
0.0
230
1.0
 70
     8
 71
     3
 72
    11
 73
     7
 74
     5
 42
0.0000000001
 43
0.0000000001
 44
0.0000000001
 40
0.0
 40
0.0
 40
0.0
 40
0.0
 40
0.1826107579142352
 40
0.4741424963253454
 40
0.7656457285630178
 40
0.9482548782269565
 40
0.9482548782269565
 40
0.9482548782269565
 40
0.9482548782269565
 10
-23.42903649364826
 20
3.96040288055724
 30
0.0
 10
-23.44072325800022
 20
3.900673654580195
 30
0.0
 10
-23.47106753610902
 20
3.745588791936791
 30
0.0
 10
-23.52440798430809
 20
3.495731089252291
 30
0.0
 10
-23.60315121261685
 20
3.252681390802626
 30
0.0
 10
-23.65440614227567
 20
3.103209486853667
 30
0.0
 10
-23.67414749364798
 20
3.045638880557135
 30
0.0
 11
-23.42903649364826
 21
3.96040288055724
 31
0.0
 11
-23.46449549364797
 21
3.781267880557152
 31
0.0
 11
-23.52924649364832
 21
3.497017880557223
 31
0.0
 11
-23.6152934936481
 21
3.218503880557137
 31
0.0
 11
-23.67414749364798
 21
3.045638880557135
 31
0.0
  0
SPLINE
  5
611
330
1F
100
AcDbEntity
  8
0
100
AcDbSpline
210
0.0
220
0.0
230
1.0
 70
     8
 71
     3
 72
    11
 73
     7
 74
     5
 42
0.0000000001
 43
0.0000000001
 44
0.0000000001
 40
0.0
 40
0.0
 40
0.0
 40
0.0
 40
0.0333677631853967
 40
0.0672335358772193
 40
0.1016066264276804
 40
0.1364940666462798
 40
0.1364940666462798
 40
0.1364940666462798
 40
0.1364940666462798
 10
-24.286621493648
 20
0.2592348805571874
 30
0.0
 10
-24.29770045646219
 20
0.2582477227185147
 30
0.0
 10
-24.32002373416322
 20
0.2562586738393879
 30
0.0
 10
-24.35381567389212
 20
0.2539489482430852
 30
0.0
 10
-24.38814088863783
 20
0.2520611889523764
 30
0.0
 10
-24.41121351055304
 20
0.2512370235228952
 30
0.0
 10
-24.42283549364811
 20
0.2508218805571687
 30
0.0
 11
-24.286621493648
 21
0.2592348805571874
 31
0.0
 11
-24.31986749364796
 21
0.2563868805573293
 31
0.0
 11
-24.35365149364816
 21
0.2540348805571284
 31
0.0
 11
-24.38797449364802
 21
0.2521798805571507
 31
0.0
 11
-24.42283549364811
 21
0.2508218805571687
 31
0.0
  0
SPLINE
  5
612
330
1F
100
AcDbEntity
  8
0
100
AcDbSpline
210
0.0
220
0.0
230
1.0
 70
     8
 71
     3
 72
    11
 73
     7
 74
     5
 42
0.0000000001
 43
0.0000000001
 44
0.0000000001
 40
0.0
 40
0.0
 40
0.0
 40
0.0
 40
0.0363490479792933
 40
0.0974668106102055
 40
0.1819549171578146
 40
0.2874832714755345
 40
0.2874832714755345
 40
0.2874832714755345
 40
0.2874832714755345
 10
-24.345427493648
 20
0.5398618805572824
 30
0.0
 10
-24.34540833500943
 20
0.527717392418796
 30
0.0
 10
-24.34535696278647
 20
0.4951530037716423
 30
0.0
 10
-24.33153619614064
 20
0.4357089952412466
 30
0.0
 10
-24.31229586166094
 20
0.3543973704047897
 30
0.0
 10
-24.29578888101318
 20
0.2932139606509267
 30
0.0
 10
-24.286621493648
 20
0.2592348805571874
 30
0.0
 11
-24.345427493648
 21
0.5398618805572824
 31
0.0
 11
-24.344347493648
 21
0.5035288805572691
 31
0.0
 11
-24.33329449364828
 21
0.4434188805571466
 31
0.0
 11
-24.31352249364818
 21
0.3612768805571704
 31
0.0
 11
-24.286621493648
 21
0.2592348805571874
 31
0.0
  0
SPLINE
  5
613
330
1F
100
AcDbEntity
  8
0
100
AcDbSpline
210
0.0
220
0.0
230
1.0
 70
     8
 71
     3
 72
    11
 73
     7
 74
     5
 42
0.0000000001
 43
0.0000000001
 44
0.0000000001
 40
0.0
 40
0.0
 40
0.0
 40
0.0
 40
0.1489813508464289
 40
0.2977748970538787
 40
0.4483785494828583
 40
0.601726783046308
 40
0.601726783046308
 40
0.601726783046308
 40
0.601726783046308
 10
4.339402252770015
 20
3.497042880557274
 30
0.0
 10
4.334725643538844
 20
3.447118163264011
 30
0.0
 10
4.325378320370799
 20
3.347331663356585
 30
0.0
 10
4.251051544182388
 20
3.213596177651596
 30
0.0
 10
4.141571542387952
 20
3.105386148123119
 30
0.0
 10
4.047453301106826
 20
3.065674164935486
 30
0.0
 10
3.999969252769915
 20
3.045638880557362
 30
0.0
 11
4.339402252770015
 21
3.497042880557274
 31
0.0
 11
4.315356252770016
 21
3.350014880557183
 31
0.0
 11
4.245728252769823
 21
3.218517880557329
 31
0.0
 11
4.137173252770026
 21
3.114127880557362
 31
0.0
 11
3.999969252769915
 21
3.045638880557362
 31
0.0
  0
SPLINE
  5
614
330
1F
100
AcDbEntity
  8
0
100
AcDbSpline
210
0.0
220
0.0
230
1.0
 70
     8
 71
     3
 72
    11
 73
     7
 74
     5
 42
0.0000000001
 43
0.0000000001
 44
0.0000000001
 40
0.0
 40
0.0
 40
0.0
 40
0.0
 40
0.0284013688750752
 40
0.0545638985888113
 40
0.0785106164638755
 40
0.1002817047465789
 40
0.1002817047465789
 40
0.1002817047465789
 40
0.1002817047465789
 10
4.794361252770159
 20
0.2592348805571874
 30
0.0
 10
4.803725253473848
 20
0.2578355924480634
 30
0.0
 10
4.821715104140168
 20
0.2551473201039169
 30
0.0
 10
4.847722382054237
 20
0.2522078922774345
 30
0.0
 10
4.871611549071679
 20
0.2502057777604499
 30
0.0
 10
4.886851769928953
 20
0.249922689061385
 30
0.0
 10
4.894109252770249
 20
0.2497878805572782
 30
0.0
 11
4.794361252770159
 21
0.2592348805571874
 31
0.0
 11
4.822476252769775
 21
0.2552118805572263
 31
0.0
 11
4.848471252770196
 21
0.2522558805571862
 31
0.0
 11
4.872347252769941
 21
0.250416880557168
 31
0.0
 11
4.894109252770249
 21
0.2497878805572782
 31
0.0
  0
SPLINE
  5
615
330
1F
100
AcDbEntity
  8
0
100
AcDbSpline
210
0.0
220
0.0
230
1.0
 70
     8
 71
     3
 72
    11
 73
     7
 74
     5
 42
0.0000000001
 43
0.0000000001
 44
0.0000000001
 40
0.0
 40
0.0
 40
0.0
 40
0.0
 40
0.2134596754895802
 40
0.426665060808224
 40
0.6392113099165335
 40
0.8509104618517491
 40
0.8509104618517491
 40
0.8509104618517491
 40
0.8509104618517491
 10
3.999969252769915
 20
0.5427058805571505
 30
0.0
 10
4.07055779341629
 20
0.5329870279114151
 30
0.0
 10
4.211650784015911
 20
0.5135609004914784
 30
0.0
 10
4.416197087401962
 20
0.4514089626010772
 30
0.0
 10
4.612640807474957
 20
0.3688779785645279
 30
0.0
 10
4.733868456695263
 20
0.2957338972638839
 30
0.0
 10
4.794361252770159
 20
0.2592348805571874
 30
0.0
 11
3.999969252769915
 21
0.5427058805571505
 31
0.0
 11
4.210593252770195
 21
0.5080278805571652
 31
0.0
 11
4.415145252769889
 21
0.4479028805571943
 31
0.0
 11
4.610514252769917
 21
0.3641958805571903
 31
0.0
 11
4.794361252770159
 21
0.2592348805571874
 31
0.0
  0
SPLINE
  5
616
330
1F
100
AcDbEntity
  8
0
100
AcDbSpline
210
0.0
220
0.0
230
1.0
 70
     8
 71
     3
 72
    11
 73
     7
 74
     5
 42
0.0000000001
 43
0.0000000001
 44
0.0000000001
 40
0.0
 40
0.0
 40
0.0
 40
0.0
 40
0.4730373497665001
 40
0.8913906742471671
 40
1.361577092436701
 40
1.921761384454807
 40
1.921761384454807
 40
1.921761384454807
 40
1.921761384454807
 10
6.260335252769892
 20
1.18487688055734
 30
0.0
 10
6.221661241625379
 20
1.02932690979584
 30
0.0
 10
6.148784009231429
 20
0.7362088433584552
 30
0.0
 10
5.802688311242923
 20
0.4037106293491506
 30
0.0
 10
5.323107252444354
 20
0.2840633974673654
 30
0.0
 10
4.98058254223856
 20
0.2679793409170773
 30
0.0
 10
4.794361252770159
 20
0.2592348805571874
 30
0.0
 11
6.260335252769892
 21
1.18487688055734
 31
0.0
 11
6.101028252769993
 21
0.7394718805571756
 31
0.0
 11
5.800726252769891
 21
0.4482018805572352
 31
0.0
 11
5.35260125277
 21
0.3058668805572324
 31
0.0
 11
4.794361252770159
 21
0.2592348805571874
 31
0.0
  0
SPLINE
  5
617
330
1F
100
AcDbEntity
  8
0
100
AcDbSpline
210
0.0
220
0.0
230
1.0
 70
     8
 71
     3
 72
    11
 73
     7
 74
     5
 42
0.0000000001
 43
0.0000000001
 44
0.0000000001
 40
0.0
 40
0.0
 40
0.0
 40
0.0
 40
0.5202782417101162
 40
1.023914021853066
 40
1.501724290282851
 40
1.962899135378386
 40
1.962899135378386
 40
1.962899135378386
 40
1.962899135378386
 10
3.999969252769915
 20
4.32052188055718
 30
0.0
 10
4.173654014691395
 20
4.315141885999596
 30
0.0
 10
4.515467776745085
 20
4.304553990094327
 30
0.0
 10
5.007244423564555
 20
4.206539408097084
 30
0.0
 10
5.465296208269172
 20
4.033560047197692
 30
0.0
 10
5.6975135889041
 20
3.819723130270322
 30
0.0
 10
5.811565252769924
 20
3.714698880557307
 30
0.0
 11
3.999969252769915
 21
4.32052188055718
 31
0.0
 11
4.519343252769886
 21
4.289860880557171
 31
0.0
 11
5.013127252770119
 21
4.190732880557334
 31
0.0
 11
5.453508252770007
 21
4.005348880557222
 31
0.0
 11
5.811565252769924
 21
3.714698880557307
 31
0.0
  0
SPLINE
  5
618
330
1F
100
AcDbEntity
  8
0
100
AcDbSpline
210
0.0
220
0.0
230
1.0
 70
     8
 71
     3
 72
    11
 73
     7
 74
     5
 42
0.0000000001
 43
0.0000000001
 44
0.0000000001
 40
0.0
 40
0.0
 40
0.0
 40
0.0
 40
0.154251411533478
 40
0.3078732341041383
 40
0.4602677970320706
 40
0.6108664410930959
 40
0.6108664410930959
 40
0.6108664410930959
 40
0.6108664410930959
 10
3.999969252769915
 20
3.96040288055724
 30
0.0
 10
4.047597857916975
 20
3.939816622239638
 30
0.0
 10
4.142660668407441
 20
3.89872812999613
 30
0.0
 10
4.251166532798775
 20
3.785754287759312
 30
0.0
 10
4.325052565780004
 20
3.64895616643216
 30
0.0
 10
4.334637962145319
 20
3.547480151012319
 30
0.0
 10
4.339402252770015
 20
3.497042880557274
 30
0.0
 11
3.999969252769915
 21
3.96040288055724
 31
0.0
 11
4.137211252770157
 21
3.889988880557212
 31
0.0
 11
4.245754252769984
 21
3.781277880557354
 31
0.0
 11
4.31536525276988
 21
3.645710880557317
 31
0.0
 11
4.339402252770015
 21
3.497042880557274
 31
0.0
  0
ELLIPSE
  5
619
330
1F
100
AcDbEntity
  8
2
100
AcDbEllipse
 10
-24.27690549364797
 20
-0.0873161194426757
 30
0.0
 11
-0.2803396099109999
 21
0.1127992209149999
 31
0.0
210
0.0
220
0.0
230
1.0
 40
0.09017744273319
 41
-0.693203608000636
 42
-0.6104153059713571
  0
ELLIPSE
  5
61A
330
1F
100
AcDbEntity
  8
2
100
AcDbEllipse
 10
-23.97445349364807
 20
1.041451880557133
 30
0.0
 11
0.2664170782099999
 21
0.8397412223640004
 31
0.0
210
0.0
220
0.0
230
1.0
 40
0.3378347086800099
 41
1.00036917613994
 42
1.70452197892359
  0
ELLIPSE
  5
61B
330
1F
100
AcDbEntity
  8
2
100
AcDbEllipse
 10
-23.97445349364807
 20
1.041451880557133
 30
0.0
 11
0.2664170782099999
 21
0.8397412223640004
 31
0.0
210
0.0
220
0.0
230
1.0
 40
0.3378347086800099
 41
1.70452197892359
 42
1.96632188341271
  0
ELLIPSE
  5
61C
330
1F
100
AcDbEntity
  8
2
100
AcDbEllipse
 10
-24.49288849364802
 20
0.1935208805571165
 30
0.0
 11
0.03656684152499997
 21
0.193528680846
 31
0.0
210
0.0
220
0.0
230
0.9999999999999999
 40
0.25737612526847
 41
3.09020958362229
 42
4.78864116871017
  0
ELLIPSE
  5
61D
330
1F
100
AcDbEntity
  8
2
100
AcDbEllipse
 10
0.1964692527699299
 20
0.1935208805573438
 30
0.0
 11
0.156584538426
 21
0.1273366127660001
 31
0.0
210
0.0
220
0.0
230
1.0
 40
0.9326446178620101
 41
2.39683753296503
 42
4.186096720241991
  0
ELLIPSE
  5
61E
330
1F
100
AcDbEntity
  8
2
100
AcDbEllipse
 10
0.0512222527700033
 20
1.041451880557361
 30
0.0
 11
0.07316737545099988
 21
0.844546493255
 31
0.0
210
0.0
220
0.0
230
1.0
 40
0.03544844345354
 41
4.426711208850921
 42
5.392652817275749
  0
ELLIPSE
  5
61F
330
1F
100
AcDbEntity
  8
2
100
AcDbEllipse
 10
0.3680542527699799
 20
-0.0873161194426757
 30
0.0
 11
0.30338708195
 21
0.02653178341100004
 31
0.0
210
0.0
220
0.0
230
1.0
 40
0.37085159828597
 41
0.8664726537715041
 42
1.83242580550264
  0
ELLIPSE
  5
620
330
1F
100
AcDbEntity
  8
2
100
AcDbEllipse
 10
3.602458252769793
 20
3.494123880557254
 30
0.0
 11
-0.178305505634
 21
0.09017971850499999
 31
0.0
210
0.0
220
0.0
230
1.0
 40
0.91643186379265
 41
3.47973527547454
 42
4.05850059746637
  0
ELLIPSE
  5
621
330
1F
100
AcDbEntity
  8
2
100
AcDbEllipse
 10
3.602458252769793
 20
3.494123880557254
 30
0.0
 11
-0.178305505634
 21
0.09017971850499999
 31
0.0
210
0.0
220
0.0
230
1.0
 40
0.91643186379265
 41
-2.22468538943387
 42
-1.01419030587122
  0
ELLIPSE
  5
622
330
1F
100
AcDbEntity
  8
2
100
AcDbEllipse
 10
3.747704252769836
 20
2.500575880557335
 30
0.0
 11
0.06661852798599989
 21
0.8628089729819999
 31
0.0
210
0.0
220
0.0
230
0.9999999999999998
 40
0.04933225634608
 41
1.10495236881136
 42
2.07090050563461
  0
ELLIPSE
  5
623
330
1F
100
AcDbEntity
  8
2
100
AcDbEllipse
 10
3.430873252770198
 20
3.629344880557255
 30
0.0
 11
0.3035220442500001
 21
0.02841269883700004
 31
0.0
210
0.0
220
0.0
230
1.0
 40
0.1368513591975
 41
1.26394019032496
 42
2.22988302103263
  0
ELLIPSE
  5
624
330
1F
100
AcDbEntity
  8
2
100
AcDbEllipse
 10
0.3623202527701324
 20
2.449787880557324
 30
0.0
 11
0.2520782905059997
 21
2.199867534336
 31
0.0
210
0.0
220
0.0
230
1.0
 40
0.09590369346369
 41
0.010989753571605
 42
0.5651706305326291
  0
ELLIPSE
  5
625
330
1F
100
AcDbEntity
  8
2
100
AcDbEllipse
 10
3.999969252769915
 20
-2.941779119442799
 30
0.0
 11
3.156595998817120E-6
 21
9.659257999998999
 31
0.0
210
0.0
220
0.0
230
1.0
 40
0.2588190521466601
 41
-1.12937724291716
 42
-0.8105093995778975
  0
ELLIPSE
  5
626
330
1F
100
AcDbEntity
  8
2
100
AcDbEllipse
 10
1.973798252769939
 20
1.101754880557337
 30
0.0
 11
0.04999999999999999
 21
6.123031769111885E-18
 31
0.0
210
0.0
220
0.0
230
1.0
 40
0.96592
 41
3.75541969192144
 42
5.84980981601773
  0
ELLIPSE
  5
627
330
1F
100
AcDbEntity
  8
2
100
AcDbEllipse
 10
1.432748252770125
 20
0.9211158805571813
 30
0.0
 11
0.4999999999999999
 21
6.123031769111885E-17
 31
0.0
210
0.0
220
0.0
230
1.0
 40
0.965926
 41
0.6138247751685459
 42
1.66102234976086
  0
ELLIPSE
  5
628
330
1F
100
AcDbEntity
  8
2
100
AcDbEllipse
 10
1.973798252769939
 20
0.9335218805572367
 30
0.0
 11
0.04999999999999999
 21
6.123031769111885E-18
 31
0.0
210
0.0
220
0.0
230
1.0
 40
0.96592
 41
3.75541969192144
 42
4.802613814250821
  0
ELLIPSE
  5
629
330
1F
100
AcDbEntity
  8
2
100
AcDbEllipse
 10
1.432748252770125
 20
0.7528828805573085
 30
0.0
 11
0.4999999999999999
 21
6.123031769111885E-17
 31
0.0
210
0.0
220
0.0
230
1.0
 40
0.965926
 41
0.6138247751685459
 42
1.66102234976086
  0
ELLIPSE
  5
62A
330
1F
100
AcDbEntity
  8
2
100
AcDbEllipse
 10
1.225066252769921
 20
1.268162880557156
 30
0.0
 11
0.04999999999999999
 21
6.123031769111885E-18
 31
0.0
210
0.0
220
0.0
230
1.0
 40
0.96592
 41
3.75541969192144
 42
4.802613814250821
  0
ELLIPSE
  5
62B
330
1F
100
AcDbEntity
  8
2
100
AcDbEllipse
 10
1.225066252769921
 20
1.436395880557257
 30
0.0
 11
-0.04999999999999999
 21
3.267899999387696E-8
 31
0.0
210
0.0
220
0.0
230
1.0
 40
0.9659199999999998
 41
1.61854597312091
 42
1.66102179234453
  0
ELLIPSE
  5
62C
330
1F
100
AcDbEntity
  8
2
100
AcDbEllipse
 10
1.225066252769921
 20
1.268162880557156
 30
0.0
 11
0.04999999999999999
 21
6.123031769111885E-18
 31
0.0
210
0.0
220
0.0
230
1.0
 40
0.96592
 41
3.14159301211874
 42
3.75541969192144
  0
ELLIPSE
  5
62D
330
1F
100
AcDbEntity
  8
2
100
AcDbEllipse
 10
2.53962725277006
 20
1.017843880557393
 30
0.0
 11
0.4999999999999999
 21
6.123031769111885E-17
 31
0.0
210
0.0
220
0.0
230
1.0
 40
0.965926
 41
1.66102234976086
 42
2.7082191753916
  0
ELLIPSE
  5
62E
330
1F
100
AcDbEntity
  8
2
100
AcDbEllipse
 10
1.973798252769939
 20
0.9335218805572367
 30
0.0
 11
0.04999999999999999
 21
6.123031769111885E-18
 31
0.0
210
0.0
220
0.0
230
1.0
 40
0.96592
 41
4.802613814250821
 42
5.84980981601773
  0
ELLIPSE
  5
62F
330
1F
100
AcDbEntity
  8
2
100
AcDbEllipse
 10
2.53962725277006
 20
0.8496118805571769
 30
0.0
 11
0.4999999999999999
 21
6.123031769111885E-17
 31
0.0
210
0.0
220
0.0
230
1.0
 40
0.965926
 41
1.66102234976086
 42
2.7082191753916
  0
ELLIPSE
  5
630
330
1F
100
AcDbEntity
  8
2
100
AcDbEllipse
 10
2.648195252770165
 20
1.392528880557165
 30
0.0
 11
0.04999999999999999
 21
6.123031769111885E-18
 31
0.0
210
0.0
220
0.0
230
1.0
 40
0.96592
 41
4.802613814250821
 42
5.84980981601773
  0
ELLIPSE
  5
631
330
1F
100
AcDbEntity
  8
2
100
AcDbEllipse
 10
2.648195252770165
 20
1.392528880557165
 30
0.0
 11
0.04999999999999999
 21
6.123031769111885E-18
 31
0.0
210
0.0
220
0.0
230
1.0
 40
0.96592
 41
0.0
 42
0.6138276999407299
  0
ELLIPSE
  5
632
330
1F
100
AcDbEntity
  8
2
100
AcDbEllipse
 10
0.7925852527700954
 20
1.798672880557206
 30
0.0
 11
0.4999999999999999
 21
6.123031769111885E-17
 31
0.0
210
0.0
220
0.0
230
1.0
 40
0.965926
 41
0.0
 42
0.6138247751685459
  0
ELLIPSE
  5
633
330
1F
100
AcDbEntity
  8
2
100
AcDbEllipse
 10
0.7925852527700954
 20
1.630440880557217
 30
0.0
 11
0.4999999999999999
 21
6.123031769111885E-17
 31
0.0
210
0.0
220
0.0
230
1.0
 40
0.965926
 41
0.0
 42
0.6138247751685459
  0
ELLIPSE
  5
634
330
1F
100
AcDbEntity
  8
2
100
AcDbEllipse
 10
3.006342252770082
 20
1.99213088055717
 30
0.0
 11
0.4999999999999999
 21
6.123031769111885E-17
 31
0.0
210
0.0
220
0.0
230
1.0
 40
0.965926
 41
2.7082191753916
 42
3.14159301214777
  0
ELLIPSE
  5
635
330
1F
100
AcDbEntity
  8
2
100
AcDbEllipse
 10
3.006342252770082
 20
1.823897880557297
 30
0.0
 11
0.4999999999999999
 21
6.123031769111885E-17
 31
0.0
210
0.0
220
0.0
230
1.0
 40
0.965926
 41
3.14159301214777
 42
3.75541676715063
  0
ELLIPSE
  5
636
330
1F
100
AcDbEntity
  8
2
100
AcDbEllipse
 10
1.225066252769921
 20
1.268162880557156
 30
0.0
 11
0.04999999999999999
 21
6.123031769111885E-18
 31
0.0
210
0.0
220
0.0
230
1.0
 40
0.96592
 41
2.70821680803278
 42
3.14159301211874
  0
ELLIPSE
  5
637
330
1F
100
AcDbEntity
  8
2
100
AcDbEllipse
 10
0.7925852527700954
 20
1.630440880557217
 30
0.0
 11
0.4999999999999999
 21
6.123031769111885E-17
 31
0.0
210
0.0
220
0.0
230
1.0
 40
0.965926
 41
5.849812183375129
 42
6.283184988977849
  0
ELLIPSE
  5
638
330
1F
100
AcDbEntity
  8
2
100
AcDbEllipse
 10
1.150731252770129
 20
2.061810880557232
 30
0.0
 11
0.04999999999999999
 21
6.123031769111885E-18
 31
0.0
210
0.0
220
0.0
230
1.0
 40
0.96592
 41
2.70821680803278
 42
3.14159301211874
  0
ELLIPSE
  5
639
330
1F
100
AcDbEntity
  8
2
100
AcDbEllipse
 10
1.150731252770129
 20
2.061810880557232
 30
0.0
 11
0.04999999999999999
 21
6.123031769111885E-18
 31
0.0
210
0.0
220
0.0
230
1.0
 40
0.96592
 41
3.14159301211874
 42
3.75541969192144
  0
ELLIPSE
  5
63A
330
1F
100
AcDbEntity
  8
2
100
AcDbEllipse
 10
2.648195252770165
 20
1.392528880557165
 30
0.0
 11
0.04999999999999999
 21
6.123031769111885E-18
 31
0.0
210
0.0
220
0.0
230
1.0
 40
0.96592
 41
5.84980981601773
 42
6.283184989163259
  0
ELLIPSE
  5
63B
330
1F
100
AcDbEntity
  8
2
100
AcDbEllipse
 10
3.006342252770082
 20
1.823897880557297
 30
0.0
 11
0.4999999999999999
 21
6.123031769111885E-17
 31
0.0
210
0.0
220
0.0
230
1.0
 40
0.965926
 41
2.7082191753916
 42
3.14159301214777
  0
ELLIPSE
  5
63C
330
1F
100
AcDbEntity
  8
2
100
AcDbEllipse
 10
2.573860252769919
 20
2.186175880557357
 30
0.0
 11
0.04999999999999999
 21
6.123031769111885E-18
 31
0.0
210
0.0
220
0.0
230
1.0
 40
0.96592
 41
5.84980981601773
 42
6.283184989163259
  0
ELLIPSE
  5
63D
330
1F
100
AcDbEntity
  8
2
100
AcDbEllipse
 10
2.573860252769919
 20
2.186175880557357
 30
0.0
 11
0.04999999999999999
 21
6.123031769111885E-18
 31
0.0
210
0.0
220
0.0
230
1.0
 40
0.96592
 41
0.0
 42
0.6138276999407299
  0
ELLIPSE
  5
63E
330
1F
100
AcDbEntity
  8
2
100
AcDbEllipse
 10
1.8251282527699
 20
2.520816880557277
 30
0.0
 11
0.04999999999999999
 21
6.123031769111885E-18
 31
0.0
210
0.0
220
0.0
230
1.0
 40
0.96592
 41
1.66102179234453
 42
2.70821680803278
  0
ELLIPSE
  5
63F
330
1F
100
AcDbEntity
  8
2
100
AcDbEllipse
 10
1.259299252769779
 20
2.604726880557337
 30
0.0
 11
0.4999999999999999
 21
6.123031769111885E-17
 31
0.0
210
0.0
220
0.0
230
1.0
 40
0.965926
 41
4.802614371663291
 42
5.849812183375129
  0
ELLIPSE
  5
640
330
1F
100
AcDbEntity
  8
2
100
AcDbEllipse
 10
1.150731252770129
 20
2.061810880557232
 30
0.0
 11
0.04999999999999999
 21
6.123031769111885E-18
 31
0.0
210
0.0
220
0.0
230
1.0
 40
0.96592
 41
1.66102179234453
 42
2.70821680803278
  0
ELLIPSE
  5
641
330
1F
100
AcDbEntity
  8
2
100
AcDbEllipse
 10
1.899463252770147
 20
1.94716588055735
 30
0.0
 11
1.2
 21
1.469527624586852E-16
 31
0.0
210
0.0
220
0.0
230
1.0
 40
0.96592583333333
 41
1.96760056782948
 42
3.14159301198432
  0
ELLIPSE
  5
642
330
1F
100
AcDbEntity
  8
2
100
AcDbEllipse
 10
1.899463252770147
 20
1.94716588055735
 30
0.0
 11
1.2
 21
1.469527624586852E-16
 31
0.0
210
0.0
220
0.0
230
1.0
 40
0.96592583333333
 41
0.090225538900039
 42
1.17399242395508
  0
ELLIPSE
  5
643
330
1F
100
AcDbEntity
  8
2
100
AcDbEllipse
 10
1.899463252770147
 20
1.94716588055735
 30
0.0
 11
1.2
 21
1.469527624586852E-16
 31
0.0
210
0.0
220
0.0
230
1.0
 40
0.96592583333333
 41
0.0
 42
0.090225538900039
  0
ELLIPSE
  5
644
330
1F
100
AcDbEntity
  8
2
100
AcDbEllipse
 10
1.899463252770147
 20
1.749781880557293
 30
0.0
 11
1.2
 21
1.469527624586852E-16
 31
0.0
210
0.0
220
0.0
230
1.0
 40
0.96592583333333
 41
3.14159301198432
 42
6.28318498937546
  0
ELLIPSE
  5
645
330
1F
100
AcDbEntity
  8
2
100
AcDbEllipse
 10
1.899463252770147
 20
1.749781880557293
 30
0.0
 11
1.2
 21
1.469527624586852E-16
 31
0.0
210
0.0
220
0.0
230
1.0
 40
0.96592583333333
 41
0.0
 42
0.090225538900039
  0
ELLIPSE
  5
646
330
1F
100
AcDbEntity
  8
2
100
AcDbEllipse
 10
2.573860252769919
 20
2.186175880557357
 30
0.0
 11
0.04999999999999999
 21
6.123031769111885E-18
 31
0.0
210
0.0
220
0.0
230
1.0
 40
0.96592
 41
0.6138276999407299
 42
1.66102179234453
  0
ELLIPSE
  5
647
330
1F
100
AcDbEntity
  8
2
100
AcDbEllipse
 10
1.8251282527699
 20
2.520816880557277
 30
0.0
 11
0.04999999999999999
 21
6.123031769111885E-18
 31
0.0
210
0.0
220
0.0
230
1.0
 40
0.96592
 41
0.6138276999407299
 42
1.66102179234453
  0
ELLIPSE
  5
648
330
1F
100
AcDbEntity
  8
2
100
AcDbEllipse
 10
2.366178252770169
 20
2.701455880557205
 30
0.0
 11
0.4999999999999999
 21
6.123031769111885E-17
 31
0.0
210
0.0
220
0.0
230
1.0
 40
0.965926
 41
3.75541676715063
 42
4.802614371663291
  0
ELLIPSE
  5
649
330
1F
100
AcDbEntity
  8
2
100
AcDbEllipse
 10
1.899463252770147
 20
1.727169880557312
 30
0.0
 11
0.8749999999999998
 21
1.071530559594580E-16
 31
0.0
210
0.0
220
0.0
230
1.0
 40
0.9659257142857101
 41
0.6138249144428609
 42
1.66102232321722
  0
ELLIPSE
  5
64A
330
1F
100
AcDbEntity
  8
2
100
AcDbEllipse
 10
1.899463252770147
 20
1.727169880557312
 30
0.0
 11
0.8749999999999998
 21
1.071530559594580E-16
 31
0.0
210
0.0
220
0.0
230
1.0
 40
0.9659257142857101
 41
5.84981207064437
 42
11.95254601086425
  0
ELLIPSE
  5
64B
330
1F
100
AcDbEntity
  8
2
100
AcDbEllipse
 10
1.899463252770147
 20
1.727169880557312
 30
0.0
 11
0.8749999999999998
 21
1.071530559594580E-16
 31
0.0
210
0.0
220
0.0
230
1.0
 40
0.9659257142857101
 41
4.80261434511984
 42
5.84981207064437
  0
ELLIPSE
  5
64C
330
1F
100
AcDbEntity
  8
2
100
AcDbEllipse
 10
1.899463252770147
 20
1.727169880557312
 30
0.0
 11
0.8749999999999998
 21
1.071530559594580E-16
 31
0.0
210
0.0
220
0.0
230
1.0
 40
0.9659257142857101
 41
3.75541690642488
 42
4.80261434511984
  0
ELLIPSE
  5
64D
330
1F
100
AcDbEntity
  8
2
100
AcDbEllipse
 10
1.899463252770147
 20
1.727169880557312
 30
0.0
 11
0.8749999999999998
 21
1.071530559594580E-16
 31
0.0
210
0.0
220
0.0
230
1.0
 40
0.9659257142857101
 41
2.70821906266078
 42
3.75541690642488
  0
ELLIPSE
  5
64E
330
1F
100
AcDbEntity
  8
2
100
AcDbEllipse
 10
1.899463252770147
 20
1.727169880557312
 30
0.0
 11
0.8749999999999998
 21
1.071530559594580E-16
 31
0.0
210
0.0
220
0.0
230
1.0
 40
0.9659257142857101
 41
1.66102232321722
 42
2.70821906266078
  0
ELLIPSE
  5
64F
330
1F
100
AcDbEntity
  8
2
100
AcDbEllipse
 10
1.899463252770147
 20
1.749781880557293
 30
0.0
 11
1.2
 21
1.469527624586852E-16
 31
0.0
210
0.0
220
0.0
230
1.0
 40
0.96592583333333
 41
0.090225538900039
 42
3.14159301198432
  0
ELLIPSE
  5
650
330
1F
100
AcDbEntity
  8
2
100
AcDbEllipse
 10
1.899463252770147
 20
1.959601880557329
 30
0.0
 11
1.3
 21
1.591988259969091E-16
 31
0.0
210
0.0
220
0.0
230
1.0
 40
0.96592615384615
 41
3.18798459929143
 42
3.23181852114856
  0
ELLIPSE
  5
651
330
1F
100
AcDbEntity
  8
2
100
AcDbEllipse
 10
1.899463252770147
 20
1.843133880557161
 30
0.0
 11
1.3
 21
1.591988259969091E-16
 31
0.0
210
0.0
220
0.0
230
1.0
 40
0.96592615384615
 41
0.0
 42
3.14159301205432
  0
ELLIPSE
  5
652
330
1F
100
AcDbEntity
  8
2
100
AcDbEllipse
 10
1.899463252770147
 20
1.843133880557161
 30
0.0
 11
1.3
 21
1.591988259969091E-16
 31
0.0
210
0.0
220
0.0
230
1.0
 40
0.96592615384615
 41
3.23181852114856
 42
6.283184989110009
  0
ELLIPSE
  5
653
330
1F
100
AcDbEntity
  8
2
100
AcDbEllipse
 10
1.899463252770147
 20
1.959601880557329
 30
0.0
 11
1.3
 21
1.591988259969091E-16
 31
0.0
210
0.0
220
0.0
230
1.0
 40
0.96592615384615
 41
3.23181852114856
 42
3.69571665343558
  0
ELLIPSE
  5
654
330
1F
100
AcDbEntity
  8
2
100
AcDbEllipse
 10
1.899463252770147
 20
1.959601880557329
 30
0.0
 11
1.3
 21
1.591988259969091E-16
 31
0.0
210
0.0
220
0.0
230
1.0
 40
0.96592615384615
 41
5.729061347195
 42
6.23679236695992
  0
ELLIPSE
  5
655
330
1F
100
AcDbEntity
  8
2
100
AcDbEllipse
 10
1.899463252770147
 20
1.843133880557161
 30
0.0
 11
-1.3
 21
-4.503330001591988E-7
 31
0.0
210
0.0
220
0.0
230
1.0
 40
0.96592615384615
 41
0.0
 42
0.090225509123689
  0
ELLIPSE
  5
656
330
1F
100
AcDbEntity
  8
2
100
AcDbEllipse
 10
0.4672662527700595
 20
3.205424880557303
 30
0.0
 11
0.2029999999999999
 21
2.485950898259425E-17
 31
0.0
210
0.0
220
0.0
230
1.0
 40
0.96592610837438
 41
2.66558075431581
 42
3.057285227584471
  0
ELLIPSE
  5
657
330
1F
100
AcDbEntity
  8
2
100
AcDbEllipse
 10
3.596217252770202
 20
3.841206880557365
 30
0.0
 11
0.03110199999999999
 21
3.808770681658356E-18
 31
0.0
210
0.0
220
0.0
230
1.0
 40
0.9659185904443399
 41
0.4760154229153711
 42
1.66102166139297
  0
ELLIPSE
  5
658
330
1F
100
AcDbEntity
  8
2
100
AcDbEllipse
 10
0.4672662527700595
 20
3.205424880557303
 30
0.0
 11
0.2029999999999999
 21
2.485950898259425E-17
 31
0.0
210
0.0
220
0.0
230
1.0
 40
0.96592610837438
 41
1.66102235982913
 42
2.66558075431581
  0
ELLIPSE
  5
659
330
1F
100
AcDbEntity
  8
2
100
AcDbEllipse
 10
3.331660252770234
 20
0.4549598805572259
 30
0.0
 11
0.2029999999999999
 21
2.485950898259425E-17
 31
0.0
210
0.0
220
0.0
230
1.0
 40
0.96592610837438
 41
4.80261438173149
 42
6.19887823963405
  0
ELLIPSE
  5
65A
330
1F
100
AcDbEntity
  8
2
100
AcDbEllipse
 10
1.899463252770147
 20
1.830192880557206
 30
0.0
 11
1.35
 21
1.653218577660209E-16
 31
0.0
210
0.0
220
0.0
230
1.0
 40
0.96592592592593
 41
0.0033069146661404
 42
6.283185267381881
  0
ELLIPSE
  5
65B
330
1F
100
AcDbEntity
  8
2
100
AcDbEllipse
 10
3.791409252769881
 20
-1.378613119442662
 30
0.0
 11
2.0
 21
2.449212707644754E-16
 31
0.0
210
0.0
220
0.0
230
1.0
 40
0.965926
 41
1.4663261156044
 42
1.65806301613454
  0
ELLIPSE
  5
65C
330
1F
100
AcDbEntity
  8
2
100
AcDbEllipse
 10
3.839402252770015
 20
3.943013880557373
 30
0.0
 11
0.4999999999999999
 21
6.123031769111885E-17
 31
0.0
210
0.0
220
0.0
230
1.0
 40
0.965926
 41
4.802614371663291
 42
5.804697634109171
  0
ELLIPSE
  5
65D
330
1F
100
AcDbEntity
  8
2
100
AcDbEllipse
 10
3.839402252770015
 20
3.503020880557187
 30
0.0
 11
0.4999999999999999
 21
6.123031769111885E-17
 31
0.0
210
0.0
220
0.0
230
1.0
 40
0.965926
 41
4.802614371663291
 42
5.039315982355821
  0
ELLIPSE
  5
65E
330
1F
100
AcDbEntity
  8
2
100
AcDbEllipse
 10
3.341436252770109
 20
3.459504880557233
 30
0.0
 11
0.4999999999999999
 21
6.123031769111885E-17
 31
0.0
210
0.0
220
0.0
230
1.0
 40
0.965926
 41
1.66102234976086
 42
2.82030188530445
  0
ELLIPSE
  5
65F
330
1F
100
AcDbEntity
  8
2
100
AcDbEllipse
 10
3.839402252770015
 20
3.503020880557187
 30
0.0
 11
0.4999999999999999
 21
6.123031769111885E-17
 31
0.0
210
0.0
220
0.0
230
1.0
 40
0.965926
 41
1.24386999899197
 42
1.66102234976086
  0
SPLINE
  5
660
330
1F
100
AcDbEntity
  8
0
100
AcDbSpline
210
0.0
220
0.0
230
1.0
 70
     8
 71
     3
 72
    11
 73
     7
 74
     5
 42
0.0000000001
 43
0.0000000001
 44
0.0000000001
 40
0.0
 40
0.0
 40
0.0
 40
0.0
 40
0.4498258228268885
 40
0.8992006235321455
 40
1.348638717917888
 40
1.798443946455676
 40
1.798443946455676
 40
1.798443946455676
 40
1.798443946455676
 10
7.999969252769915
 20
1.578007880557379
 30
0.0
 10
7.945466809119886
 20
1.718168144923553
 30
0.0
 10
7.836516569211154
 20
1.998348140639354
 30
0.0
 10
7.781818682174211
 20
2.449781751649959
 30
0.0
 10
7.836711486273714
 20
2.901156338590045
 30
0.0
 10
7.945535187450437
 20
3.181392562545437
 30
0.0
 10
7.999969252769915
 20
3.321567880557268
 30
0.0
 11
7.999969252769915
 21
1.578007880557379
 31
0.0
 11
7.854600252770069
 21
2.0036968805573
 31
0.0
 11
7.800078252770163
 21
2.449751880557187
 31
0.0
 11
7.854737252770065
 21
2.895853880557297
 31
0.0
 11
7.999969252769915
 21
3.321567880557268
 31
0.0
  0
SPLINE
  5
661
330
1F
100
AcDbEntity
  8
0
100
AcDbSpline
210
0.0
220
0.0
230
1.0
 70
     8
 71
     3
 72
    11
 73
     7
 74
     5
 42
0.0000000001
 43
0.0000000001
 44
0.0000000001
 40
0.0
 40
0.0
 40
0.0
 40
0.0
 40
0.4498478499268833
 40
0.8992510635391446
 40
1.348660465445578
 40
1.798486313436826
 40
1.798486313436826
 40
1.798486313436826
 40
1.798486313436826
 10
7.999969252769915
 20
1.578007880557379
 30
0.0
 10
7.945403198967457
 20
1.718152460087971
 30
0.0
 10
7.836325025262788
 20
1.998303098159518
 30
0.0
 10
7.781665725693019
 20
2.449783285035446
 30
0.0
 10
7.836862661972185
 20
2.901110061821271
 30
0.0
 10
7.945583605868258
 20
3.181372010145295
 30
0.0
 10
7.999969252769915
 20
3.321567880557268
 30
0.0
 11
7.999969252769915
 21
1.578007880557379
 31
0.0
 11
7.854447252770115
 21
2.003667880557259
 31
0.0
 11
7.799969252770097
 21
2.449756880557288
 31
0.0
 11
7.854808252769999
 21
2.895807880557186
 31
0.0
 11
7.999969252769915
 21
3.321567880557268
 31
0.0
  0
LINE
  5
666
330
1F
100
AcDbEntity
  8
AM_7
  6
AM_ISO08W050x2
100
AcDbLine
 10
-28.50076712775081
 20
2.449787880557324
 30
0.0
 11
-20.81019108527835
 21
2.449787880557324
 31
0.0
1001
GENIUS_GENODEF_13
1002
{
1000
HIER
1070
     0
1002
}
1002
{
1000
MANEDIT
1070
     0
1002
}
1002
{
1000
NOSEL
1070
     0
1002
}
1002
{
1000
BEHIND
1070
     0
1002
}
1002
{
1000
REACTOR
1002
}
1001
GENIUS_GENOBJ-N-CEN_13
1002
{
1000
OWNER
1000
GEN
1002
}
  0
LINE
  5
667
102
{ACAD_REACTORS
330
9F3
102
}
330
1F
100
AcDbEntity
  8
AM_7
  6
AM_ISO08W050x2
100
AcDbLine
 10
-24.49028049364824
 20
6.652141438828039
 30
0.0
 11
-24.49028049364824
 21
-1.270651842745792
 31
0.0
1001
GENIUS_GENODEF_13
1002
{
1000
HIER
1070
     0
1002
}
1002
{
1000
MANEDIT
1070
     0
1002
}
1002
{
1000
NOSEL
1070
     0
1002
}
1002
{
1000
BEHIND
1070
     0
1002
}
1002
{
1000
REACTOR
1002
}
1001
GENIUS_GENOBJ-N-CEN_13
1002
{
1000
OWNER
1000
GEN
1002
}
  0
LINE
  5
668
330
1F
100
AcDbEntity
  8
0
100
AcDbLine
 10
-25.7932024936481
 20
0.5464018805571413
 30
0.0
 11
-24.44043849364789
 21
0.198879880557115
 31
0.0
  0
LINE
  5
669
330
1F
100
AcDbEntity
  8
0
100
AcDbLine
 10
-25.801929493648
 20
0.5138308805571796
 30
0.0
 11
-24.53196549364793
 21
0.0007318805571686
 31
0.0
  0
ARC
  5
66A
330
1F
100
AcDbEntity
  8
1
100
AcDbCircle
 10
-24.49028049364847
 20
2.449787880557324
 30
0.0
 40
2.20000014998295
100
AcDbArc
 50
58.24796975906526
 51
234.6268125724853
  0
LINE
  5
66B
330
1F
100
AcDbEntity
  8
0
100
AcDbLine
 10
-25.7932024936481
 20
0.5464018805571413
 30
0.0
 11
-24.98295049364788
 21
3.570301880557281
 31
0.0
  0
CIRCLE
  5
66C
102
{ACAD_REACTORS
330
9C3
102
}
330
1F
100
AcDbEntity
  8
AM_0
 62
     3
370
    13
100
AcDbCircle
 10
-24.49028049364847
 20
2.449787880557324
 30
0.0
 40
2.5
  0
LINE
  5
66D
330
1F
100
AcDbEntity
  8
0
100
AcDbLine
 10
-25.7932024936481
 20
0.5464018805571413
 30
0.0
 11
-25.801929493648
 21
0.5138308805571796
 31
0.0
  0
LINE
  5
66E
330
1F
100
AcDbEntity
  8
0
100
AcDbLine
 10
-26.689897493648
 20
2.408722880557207
 30
0.0
 11
-26.86458849364817
 21
1.756767880557163
 31
0.0
  0
LINE
  5
66F
330
1F
100
AcDbEntity
  8
0
100
AcDbLine
 10
-26.86458849364817
 20
1.756767880557163
 30
0.0
 11
-26.54820049364798
 21
1.671991880557243
 31
0.0
  0
LINE
  5
670
330
1F
100
AcDbEntity
  8
0
100
AcDbLine
 10
-23.43696949364812
 20
2.908892880557232
 30
0.0
 11
-24.05813549364802
 21
0.590670880557127
 31
0.0
  0
LINE
  5
671
330
1F
100
AcDbEntity
  8
0
100
AcDbLine
 10
-24.06936649364798
 20
1.570658880557176
 30
0.0
 11
-23.62690849364799
 21
3.221936880557223
 31
0.0
  0
ARC
  5
672
330
1F
100
AcDbEntity
  8
1
100
AcDbCircle
 10
-27.43329049364843
 20
2.737371880557248
 30
0.0
 40
3.99999927639056
100
AcDbArc
 50
357.6356341789608
 51
0.0
  0
LINE
  5
673
330
1F
100
AcDbEntity
  8
0
100
AcDbLine
 10
-22.69028049364806
 20
3.714698880557307
 30
0.0
 11
-22.69028049364806
 21
1.184876880557113
 31
0.0
  0
LINE
  5
674
330
1F
100
AcDbEntity
  8
0
100
AcDbLine
 10
-23.5680614936482
 20
2.0820918805573
 30
0.0
 11
-23.79360749364832
 21
1.240344880557132
 31
0.0
  0
ARC
  5
675
330
1F
100
AcDbEntity
  8
1
100
AcDbCircle
 10
-27.43329049364843
 20
2.737371880557248
 30
0.0
 40
3.99999955717823
100
AcDbArc
 50
327.5424017429162
 51
332.3643833712499
  0
LINE
  5
676
330
1F
100
AcDbEntity
  8
0
100
AcDbLine
 10
-23.79360749364832
 20
1.240344880557132
 30
0.0
 11
-23.88962949364804
 21
0.8819848805571837
 31
0.0
  0
LINE
  5
677
330
1F
100
AcDbEntity
  8
0
100
AcDbLine
 10
-23.4376174936483
 20
2.568916880557254
 30
0.0
 11
-23.5680614936482
 21
2.0820918805573
 31
0.0
  0
LINE
  5
678
330
1F
100
AcDbEntity
  8
0
100
AcDbLine
 10
-23.43669649364801
 20
2.572354880557214
 30
0.0
 11
-23.4376174936483
 21
2.568916880557254
 31
0.0
  0
LINE
  5
679
330
1F
100
AcDbEntity
  8
0
100
AcDbLine
 10
-24.3136114936483
 20
0.6591248805571013
 30
0.0
 11
-24.05813549364802
 21
0.590670880557127
 31
0.0
  0
LINE
  5
67A
330
1F
100
AcDbEntity
  8
0
100
AcDbLine
 10
-24.48604249364826
 20
0.0156028805572532
 30
0.0
 11
-24.45533249364826
 21
0.1302158805572162
 31
0.0
  0
LINE
  5
67B
102
{ACAD_REACTORS
330
9F3
102
}
330
1F
100
AcDbEntity
  8
0
100
AcDbLine
 10
-24.45533249364826
 20
0.1302158805572162
 30
0.0
 11
-24.06936649364798
 21
1.570658880557176
 31
0.0
  0
LINE
  5
67C
330
1F
100
AcDbEntity
  8
0
100
AcDbLine
 10
-24.44043849364789
 20
0.198879880557115
 30
0.0
 11
-24.33889249364802
 21
0.8009618805572245
 31
0.0
  0
LINE
  5
67D
330
1F
100
AcDbEntity
  8
0
100
AcDbLine
 10
-23.33254349364825
 20
4.32052188055718
 30
0.0
 11
-23.58059249364806
 21
3.394789880557255
 31
0.0
  0
LINE
  5
67E
330
1F
100
AcDbEntity
  8
0
100
AcDbLine
 10
-24.9756114936481
 20
3.59769188055725
 30
0.0
 11
-24.98295049364788
 21
3.570301880557281
 31
0.0
  0
LINE
  5
67F
330
1F
100
AcDbEntity
  8
0
100
AcDbLine
 10
-24.9756114936481
 20
3.59769188055725
 30
0.0
 11
-24.97383449364816
 21
3.604323880557331
 31
0.0
  0
LINE
  5
680
330
1F
100
AcDbEntity
  8
0
100
AcDbLine
 10
-24.97383449364816
 20
3.604323880557331
 30
0.0
 11
-24.95454149364832
 21
3.676325880557215
 31
0.0
  0
LINE
  5
681
330
1F
100
AcDbEntity
  8
0
100
AcDbLine
 10
-24.95454149364832
 20
3.676325880557215
 30
0.0
 11
-24.37673049364821
 21
3.514523880557135
 31
0.0
  0
LINE
  5
682
330
1F
100
AcDbEntity
  8
0
100
AcDbLine
 10
-24.9756114936481
 20
3.59769188055725
 30
0.0
 11
-24.23772749364798
 21
3.493618880557278
 31
0.0
  0
LINE
  5
683
330
1F
100
AcDbEntity
  8
0
100
AcDbLine
 10
-23.58059249364806
 20
3.394789880557255
 30
0.0
 11
-24.37673049364821
 21
3.514523880557135
 31
0.0
  0
ARC
  5
684
330
1F
100
AcDbEntity
  8
1
100
AcDbCircle
 10
-27.43329049364843
 20
2.737371880557248
 30
0.0
 40
4.0
100
AcDbArc
 50
0.0
 51
2.457610807579044
  0
LINE
  5
685
330
1F
100
AcDbEntity
  8
0
100
AcDbLine
 10
-23.43696949364812
 20
2.908892880557232
 30
0.0
 11
-23.69244549364794
 21
2.977346880557207
 31
0.0
  0
LINE
  5
686
330
1F
100
AcDbEntity
  8
0
100
AcDbLine
 10
-23.58059249364806
 20
3.394789880557255
 30
0.0
 11
-23.62690849364799
 21
3.221936880557223
 31
0.0
  0
LINE
  5
687
330
1F
100
AcDbEntity
  8
0
100
AcDbLine
 10
-24.98295049364788
 20
3.570301880557281
 30
0.0
 11
-23.62690849364799
 21
3.221936880557223
 31
0.0
  0
LINE
  5
689
330
1F
100
AcDbEntity
  8
0
100
AcDbLine
 10
0.4489752527701967
 20
3.400710880557199
 30
0.0
 11
2.867022252769857
 21
3.612019880557227
 31
0.0
  0
LINE
  5
68A
330
1F
100
AcDbEntity
  8
0
100
AcDbLine
 10
2.867022252769857
 20
3.612019880557227
 30
0.0
 11
0.3812202527701629
 21
3.394789880557255
 31
0.0
  0
LINE
  5
68B
330
1F
100
AcDbEntity
  8
0
100
AcDbLine
 10
0.4622112527699755
 20
4.32052188055718
 30
0.0
 11
3.999969252769915
 21
4.32052188055718
 31
0.0
  0
LINE
  5
68C
330
1F
100
AcDbEntity
  8
0
100
AcDbLine
 10
0.5570042527701844
 20
0.0156028805572532
 30
0.0
 11
3.349951252770097
 21
0.2596748805572133
 31
0.0
  0
LINE
  5
68D
330
1F
100
AcDbEntity
  8
0
100
AcDbLine
 10
6.999969252769915
 20
4.649787880557142
 30
0.0
 11
0.6120652527702077
 21
4.649787880557142
 31
0.0
  0
LINE
  5
68E
330
1F
100
AcDbEntity
  8
0
100
AcDbLine
 10
0.1205192527700092
 20
1.570658880557176
 30
0.0
 11
0.2649872527699699
 21
3.221936880557223
 31
0.0
  0
LINE
  5
68F
330
1F
100
AcDbEntity
  8
0
100
AcDbLine
 10
0.6994632527698741
 20
1.94716588055735
 30
0.0
 11
0.6994632527698741
 21
1.749781880557293
 31
0.0
  0
LINE
  5
690
330
1F
100
AcDbEntity
  8
0
100
AcDbLine
 10
0.2205002527698525
 20
0.0032808805572131
 30
0.0
 11
0.2800772527698427
 21
0.0145038805571858
 31
0.0
  0
LINE
  5
691
330
1F
100
AcDbEntity
  8
0
100
AcDbLine
 10
0.5570042527701844
 20
0.0156028805572532
 30
0.0
 11
0.1205192527700092
 21
1.570658880557176
 31
0.0
  0
LINE
  5
692
330
1F
100
AcDbEntity
  8
0
100
AcDbLine
 10
0.0008442527700936
 20
0.1988798805573424
 30
0.0
 11
0.0593282527697738
 21
0.8009618805572245
 31
0.0
  0
LINE
  5
693
330
1F
100
AcDbEntity
  8
0
100
AcDbLine
 10
1.292585252770095
 20
1.630440880557217
 30
0.0
 11
1.292585252770095
 21
1.798672880557206
 31
0.0
  0
LINE
  5
694
330
1F
100
AcDbEntity
  8
0
100
AcDbLine
 10
1.84147425277024
 20
1.199300880557303
 30
0.0
 11
1.932926252769903
 21
1.073935880557201
 31
0.0
  0
LINE
  5
695
330
1F
100
AcDbEntity
  8
0
100
AcDbLine
 10
2.019176252770194
 20
1.081472880557158
 30
0.0
 11
2.085850252769887
 21
1.220656880557272
 31
0.0
  0
LINE
  5
696
330
1F
100
AcDbEntity
  8
0
100
AcDbLine
 10
1.229571252770256
 20
1.38829588055728
 30
0.0
 11
1.387697252770067
 21
1.402113880557181
 31
0.0
  0
LINE
  5
697
330
1F
100
AcDbEntity
  8
0
100
AcDbLine
 10
1.932926252769903
 20
0.905703880557212
 30
0.0
 11
1.84147425277024
 21
1.031068880557314
 31
0.0
  0
LINE
  5
698
330
1F
100
AcDbEntity
  8
0
100
AcDbLine
 10
1.387697252770067
 20
1.233881880557192
 30
0.0
 11
1.229571252770256
 21
1.22006288055718
 31
0.0
  0
LINE
  5
699
330
1F
100
AcDbEntity
  8
0
100
AcDbLine
 10
2.085850252769887
 20
1.052424880557282
 30
0.0
 11
2.019176252770194
 21
0.9132408805571686
 31
0.0
  0
LINE
  5
69A
330
1F
100
AcDbEntity
  8
0
100
AcDbLine
 10
1.17968825277012
 20
1.288444880557336
 30
0.0
 11
1.246362252770268
 21
1.427627880557338
 31
0.0
  0
LINE
  5
69B
330
1F
100
AcDbEntity
  8
0
100
AcDbLine
 10
2.494575252770119
 20
1.498842880557277
 30
0.0
 11
2.623583252770004
 21
1.510116880557234
 31
0.0
  0
LINE
  5
69C
330
1F
100
AcDbEntity
  8
0
100
AcDbLine
 10
2.65270125276993
 20
1.344428880557189
 30
0.0
 11
2.494575252770119
 21
1.330609880557176
 31
0.0
  0
LINE
  5
69D
330
1F
100
AcDbEntity
  8
0
100
AcDbLine
 10
2.597616252769967
 20
1.545711880557292
 30
0.0
 11
2.689068252770085
 21
1.42034688055719
 31
0.0
  0
LINE
  5
69E
330
1F
100
AcDbEntity
  8
0
100
AcDbLine
 10
1.175343252769835
 20
2.11245488055738
 30
0.0
 11
1.201310252769872
 21
2.076858880557211
 31
0.0
  0
LINE
  5
69F
330
1F
100
AcDbEntity
  8
0
100
AcDbLine
 10
1.201310252769872
 20
1.908626880557222
 30
0.0
 11
1.109858252770209
 21
2.033991880557323
 31
0.0
  0
LINE
  5
6A0
330
1F
100
AcDbEntity
  8
0
100
AcDbLine
 10
1.146226252770248
 20
2.109910880557209
 30
0.0
 11
1.304351252770175
 21
2.123728880557337
 31
0.0
  0
LINE
  5
6A1
330
1F
100
AcDbEntity
  8
0
100
AcDbLine
 10
1.713077252769836
 20
2.401914880557342
 30
0.0
 11
1.7797502527701
 21
2.541097880557345
 31
0.0
  0
LINE
  5
6A2
330
1F
100
AcDbEntity
  8
0
100
AcDbLine
 10
1.866000252769936
 20
2.548635880557185
 30
0.0
 11
1.957452252770054
 21
2.4232698805572
 31
0.0
  0
LINE
  5
6A3
330
1F
100
AcDbEntity
  8
0
100
AcDbLine
 10
2.506342252770082
 20
1.99213088055717
 30
0.0
 11
2.506342252770082
 21
1.823897880557297
 31
0.0
  0
LINE
  5
6A4
330
1F
100
AcDbEntity
  8
0
100
AcDbLine
 10
2.552564252770026
 20
2.194942880557392
 30
0.0
 11
2.571474252769804
 21
2.234416880557319
 31
0.0
  0
LINE
  5
6A5
330
1F
100
AcDbEntity
  8
0
100
AcDbLine
 10
2.619238252770174
 20
2.165894880557289
 30
0.0
 11
2.552564252770026
 21
2.026710880557175
 31
0.0
  0
LINE
  5
6A6
330
1F
100
AcDbEntity
  8
0
100
AcDbLine
 10
2.41123025277011
 20
2.220456880557322
 30
0.0
 11
2.569355252770038
 21
2.234275880557334
 31
0.0
  0
LINE
  5
6A7
102
{ACAD_REACTORS
330
B17
102
}
330
1F
100
AcDbEntity
  8
0
100
AcDbLine
 10
0.4622112527699755
 20
4.32052188055718
 30
0.0
 11
0.3812202527701629
 21
3.394789880557255
 31
0.0
  0
LINE
  5
6A8
330
1F
100
AcDbEntity
  8
0
100
AcDbLine
 10
0.3893122527701962
 20
3.487277880557258
 30
0.0
 11
0.2868342527699497
 21
3.295277880557251
 31
0.0
  0
LINE
  5
6A9
330
1F
100
AcDbEntity
  8
0
100
AcDbLine
 10
5.811565252769924
 20
3.714698880557307
 30
0.0
 11
6.999969252769915
 21
3.714698880557307
 31
0.0
  0
LINE
  5
6AA
330
1F
100
AcDbEntity
  8
0
100
AcDbLine
 10
6.999969252769915
 20
1.18487688055734
 30
0.0
 11
6.260335252769892
 21
1.18487688055734
 31
0.0
  0
LINE
  5
6AB
330
1F
100
AcDbEntity
  8
0
100
AcDbLine
 10
4.893705252769905
 20
0.2497878805572782
 30
0.0
 11
6.999969252769915
 21
0.2497878805572782
 31
0.0
  0
LINE
  5
6AC
330
1F
100
AcDbEntity
  8
0
100
AcDbLine
 10
3.67840725276983
 20
2.089726880557237
 30
0.0
 11
3.759013252770274
 21
3.011060880557352
 31
0.0
  0
LINE
  5
6AD
330
1F
100
AcDbEntity
  8
0
100
AcDbLine
 10
3.24192225277011
 20
3.644781880557275
 30
0.0
 11
3.67840725276983
 21
2.089726880557237
 31
0.0
  0
LINE
  5
6AE
330
1F
100
AcDbEntity
  8
0
100
AcDbLine
 10
3.542789252770035
 20
0.5396068805573577
 30
0.0
 11
3.67840725276983
 21
2.089726880557237
 31
0.0
  0
LINE
  5
6AF
330
1F
100
AcDbEntity
  8
0
100
AcDbLine
 10
3.542789252770035
 20
0.5396068805573577
 30
0.0
 11
3.67840725276983
 21
2.089726880557237
 31
0.0
  0
LINE
  5
6B0
330
1F
100
AcDbEntity
  8
0
100
AcDbLine
 10
3.533939252769869
 20
0.4384488805571891
 30
0.0
 11
3.542789252770035
 21
0.5396068805573577
 31
0.0
  0
LINE
  5
6B1
330
1F
100
AcDbEntity
  8
0
100
AcDbLine
 10
3.61709825277012
 20
0.545886880557191
 30
0.0
 11
3.542789252770035
 21
0.5396068805573577
 31
0.0
  0
LINE
  5
6B2
330
1F
100
AcDbEntity
  8
0
100
AcDbLine
 10
3.099463252769965
 20
1.749781880557293
 30
0.0
 11
3.099463252769965
 21
1.94716588055735
 31
0.0
  0
LINE
  5
6B3
330
1F
100
AcDbEntity
  8
0
100
AcDbLine
 10
3.776513252770201
 20
3.568967880557239
 30
0.0
 11
3.623861252769984
 21
3.85497288055717
 31
0.0
  0
LINE
  5
6B4
330
1F
100
AcDbEntity
  8
0
100
AcDbLine
 10
3.518849252769996
 20
3.677524880557257
 30
0.0
 11
3.578426252769987
 21
3.680505880557348
 31
0.0
  0
LINE
  5
6B5
330
1F
100
AcDbEntity
  8
0
100
AcDbLine
 10
3.593415252769773
 20
3.871125880557202
 30
0.0
 11
3.578426252769987
 21
3.680505880557348
 31
0.0
  0
LINE
  5
6B6
330
1F
100
AcDbEntity
  8
0
100
AcDbLine
 10
3.797175252770103
 20
3.454387880557306
 30
0.0
 11
3.884454252769956
 21
3.462014880557263
 31
0.0
  0
LINE
  5
6B7
330
1F
100
AcDbEntity
  8
0
100
AcDbLine
 10
3.794350252770073
 20
3.984019880557298
 30
0.0
 11
3.296384252770167
 21
3.940502880557233
 31
0.0
  0
LINE
  5
6B8
330
1F
100
AcDbEntity
  8
0
100
AcDbLine
 10
3.008738252769945
 20
3.820031880557281
 30
0.0
 11
3.593415252769773
 21
3.871125880557202
 31
0.0
  0
LINE
  5
6B9
330
1F
100
AcDbEntity
  8
0
100
AcDbLine
 10
2.867022252769857
 20
3.612019880557227
 30
0.0
 11
3.24192225277011
 21
3.644781880557275
 31
0.0
  0
LINE
  5
6BA
330
1F
100
AcDbEntity
  8
0
100
AcDbLine
 10
3.759013252770274
 20
3.011060880557352
 30
0.0
 11
3.753075252770032
 21
3.022918880557199
 31
0.0
  0
LINE
  5
6BB
330
1F
100
AcDbEntity
  8
0
100
AcDbLine
 10
3.884454252769956
 20
3.022022880557188
 30
0.0
 11
3.759013252770274
 21
3.011060880557352
 31
0.0
  0
LINE
  5
6BC
330
1F
100
AcDbEntity
  8
0
100
AcDbLine
 10
3.739599252769949
 20
2.891066880557219
 30
0.0
 11
3.7980822527702
 21
3.463257880557194
 31
0.0
  0
LINE
  5
6BD
330
1F
100
AcDbEntity
  8
0
100
AcDbLine
 10
7.999969252769915
 20
0.4497878805573237
 30
0.0
 11
7.999969252769915
 21
1.578007880557379
 31
0.0
  0
LINE
  5
6BE
330
1F
100
AcDbEntity
  8
0
100
AcDbLine
 10
6.999969252769915
 20
0.2497878805572782
 30
0.0
 11
6.999969252769915
 21
1.18487688055734
 31
0.0
  0
LINE
  5
6BF
330
1F
100
AcDbEntity
  8
0
100
AcDbLine
 10
7.999969252769915
 20
0.4497878805573237
 30
0.0
 11
7.999969252769915
 21
1.578007880557379
 31
0.0
  0
LINE
  5
6C0
330
1F
100
AcDbEntity
  8
0
100
AcDbLine
 10
6.999969252769915
 20
0.4497878805573237
 30
0.0
 11
7.999969252769915
 21
0.4497878805573237
 31
0.0
  0
LINE
  5
6C1
330
1F
100
AcDbEntity
  8
0
100
AcDbLine
 10
6.999969252769915
 20
1.18487688055734
 30
0.0
 11
6.999969252769915
 21
1.578007880557379
 31
0.0
  0
LINE
  5
6C2
330
1F
100
AcDbEntity
  8
0
100
AcDbLine
 10
7.999969252769915
 20
1.578007880557379
 30
0.0
 11
6.999969252769915
 21
1.578007880557379
 31
0.0
  0
LINE
  5
6C3
330
1F
100
AcDbEntity
  8
0
100
AcDbLine
 10
7.999969252769915
 20
0.4497878805573237
 30
0.0
 11
7.999969252769915
 21
1.396222880557161
 31
0.0
  0
LINE
  5
6C4
330
1F
100
AcDbEntity
  8
0
100
AcDbLine
 10
7.999969252769915
 20
0.4497878805573237
 30
0.0
 11
7.999969252769915
 21
1.396222880557161
 31
0.0
  0
LINE
  5
6C5
330
1F
100
AcDbEntity
  8
0
100
AcDbLine
 10
7.999969252769915
 20
3.321567880557268
 30
0.0
 11
7.999969252769915
 21
4.449787880557324
 31
0.0
  0
LINE
  5
6C6
330
1F
100
AcDbEntity
  8
0
100
AcDbLine
 10
6.999969252769915
 20
3.714698880557307
 30
0.0
 11
6.999969252769915
 21
4.649787880557142
 31
0.0
  0
LINE
  5
6C7
330
1F
100
AcDbEntity
  8
0
100
AcDbLine
 10
7.999969252769915
 20
3.321567880557268
 30
0.0
 11
7.999969252769915
 21
4.449787880557324
 31
0.0
  0
LINE
  5
6C8
330
1F
100
AcDbEntity
  8
0
100
AcDbLine
 10
7.999969252769915
 20
4.449787880557324
 30
0.0
 11
6.999969252769915
 21
4.449787880557324
 31
0.0
  0
LINE
  5
6C9
330
1F
100
AcDbEntity
  8
0
100
AcDbLine
 10
6.999969252769915
 20
3.321567880557268
 30
0.0
 11
7.999969252769915
 21
3.321567880557268
 31
0.0
  0
LINE
  5
6CA
330
1F
100
AcDbEntity
  8
0
100
AcDbLine
 10
6.999969252769915
 20
3.321567880557268
 30
0.0
 11
6.999969252769915
 21
3.714698880557307
 31
0.0
  0
LINE
  5
6CB
330
1F
100
AcDbEntity
  8
0
100
AcDbLine
 10
7.999969252769915
 20
3.503352880557259
 30
0.0
 11
7.999969252769915
 21
4.449787880557324
 31
0.0
  0
LINE
  5
6CC
330
1F
100
AcDbEntity
  8
0
100
AcDbLine
 10
7.999969252769915
 20
3.503352880557259
 30
0.0
 11
7.999969252769915
 21
4.449787880557324
 31
0.0
  0
LINE
  5
6CD
330
1F
100
AcDbEntity
  8
0
100
AcDbLine
 10
89.99999999999977
 20
-39.31186797120176
 30
0.0
 11
89.99999999999977
 21
-36.31186797120176
 31
0.0
  0
LINE
  5
6CE
330
1F
100
AcDbEntity
  8
0
100
AcDbLine
 10
89.49999999999977
 20
-39.81186797120176
 30
0.0
 11
89.49999999999977
 21
-36.01186797120181
 31
0.0
  0
LINE
  5
6CF
330
1F
100
AcDbEntity
  8
0
100
AcDbLine
 10
89.49999999999977
 20
-39.81186797120176
 30
0.0
 11
89.99999999999977
 21
-39.31186797120176
 31
0.0
  0
LINE
  5
6D0
330
1F
100
AcDbEntity
  8
0
100
AcDbLine
 10
89.69999999999982
 20
-36.01186797120181
 30
0.0
 11
89.49999999999977
 21
-36.01186797120181
 31
0.0
  0
LINE
  5
6D1
330
1F
100
AcDbEntity
  8
0
100
AcDbLine
 10
89.99999999999977
 20
-36.31186797120176
 30
0.0
 11
89.69999999999982
 21
-36.01186797120181
 31
0.0
  0
SPLINE
  5
6D2
330
1F
100
AcDbEntity
  8
0
100
AcDbSpline
210
0.0
220
0.0
230
1.0
 70
     8
 71
     3
 72
    11
 73
     7
 74
     5
 42
0.0000000001
 43
0.0000000001
 44
0.0000000001
 40
0.0
 40
0.0
 40
0.0
 40
0.0
 40
0.4498218897131626
 40
0.8992375646422838
 40
1.348639035455444
 40
1.798482477726248
 40
1.798482477726248
 40
1.798482477726248
 40
1.798482477726248
 10
89.49999999999977
 20
3.321567880557268
 30
0.0
 10
89.55437246639949
 20
3.181369588872572
 30
0.0
 10
89.66306829776519
 20
2.901099612544949
 30
0.0
 10
89.71831814894659
 20
2.449780622942147
 30
0.0
 10
89.66364252600243
 20
1.998298441399527
 30
0.0
 10
89.55456537884002
 20
1.718150630950652
 30
0.0
 10
89.49999999999977
 20
1.578007880557152
 30
0.0
 11
89.49999999999977
 21
3.321567880557268
 31
0.0
 11
89.64513699999998
 21
2.895803880557196
 31
0.0
 11
89.70000299999992
 21
2.449749880557192
 31
0.0
 11
89.64552299999991
 21
2.003662880557158
 31
0.0
 11
89.49999999999977
 21
1.578007880557152
 31
0.0
  0
LINE
  5
6D3
330
1F
100
AcDbEntity
  8
0
100
AcDbLine
 10
89.99999999999977
 20
2.449787880557324
 30
0.0
 11
89.99999999999977
 21
3.949787880557324
 31
0.0
  0
LINE
  5
6D4
330
1F
100
AcDbEntity
  8
0
100
AcDbLine
 10
89.49999999999977
 20
0.4497878805573237
 30
0.0
 11
89.49999999999977
 21
1.578007880557152
 31
0.0
  0
LINE
  5
6D5
330
1F
100
AcDbEntity
  8
0
100
AcDbLine
 10
89.49999999999977
 20
0.4497878805573237
 30
0.0
 11
89.99999999999977
 21
0.9497878805573237
 31
0.0
  0
LINE
  5
6D6
102
{ACAD_REACTORS
330
7A9
102
}
330
1F
100
AcDbEntity
  8
0
100
AcDbLine
 10
89.99999999999977
 20
0.9497878805573237
 30
0.0
 11
89.99999999999977
 21
2.449787880557324
 31
0.0
  0
LINE
  5
6D7
330
1F
100
AcDbEntity
  8
0
100
AcDbLine
 10
89.49999999999977
 20
3.321567880557268
 30
0.0
 11
89.49999999999977
 21
4.449787880557324
 31
0.0
  0
LINE
  5
6D8
330
1F
100
AcDbEntity
  8
0
100
AcDbLine
 10
89.99999999999977
 20
3.949787880557324
 30
0.0
 11
89.49999999999977
 21
4.449787880557324
 31
0.0
  0
LINE
  5
743
102
{ACAD_REACTORS
330
B17
102
}
330
1F
100
AcDbEntity
  8
AM_0
100
AcDbLine
 10
0.3578642751781445
 20
0.0
 30
0.0
 11
0.0
 21
0.0
 31
0.0
  0
LINE
  5
744
102
{ACAD_REACTORS
330
8A0
102
}
330
1F
100
AcDbEntity
  8
AM_0
100
AcDbLine
 10
0.0
 20
0.0
 30
0.0
 11
0.0
 21
0.487660283833975
 31
0.0
  0
DIMENSION
  5
79D
102
{ACAD_REACTORS
330
7A9
102
}
102
{ACAD_XDICTIONARY
360
7A8
102
}
330
1F
100
AcDbEntity
  8
AM_5
100
AcDbDimension
  2
*D4
 10
-0.0000000000000012
 20
-19.30593036111713
 30
0.0
 11
44.99999999999989
 21
-15.90593036111713
 31
0.0
 70
    32
 71
     5
 42
89.99999999999977
  3
AM_JIS$0
100
AcDbAlignedDimension
 13
89.99999999999977
 23
2.449787880557324
 33
0.0
 14
0.0
 24
0.487660283833975
 34
0.0
 50
180.0
100
AcDbRotatedDimension
  0
DIMENSION
  5
892
102
{ACAD_REACTORS
330
8A0
102
}
102
{ACAD_XDICTIONARY
360
89F
102
}
330
1F
100
AcDbEntity
  8
AM_5
100
AcDbDimension
  2
*D5
 10
-8.461149445676711
 20
2.449787880557325
 30
0.0
 11
-8.461149445676711
 21
-10.80694860834683
 31
0.0
 70
   160
  1
2.5
 71
     5
 42
2.449787880557323
  3
AM_JIS$0
100
AcDbAlignedDimension
 13
0.0
 23
0.0
 33
0.0
 14
-2.80256698202993
 24
2.449787880557324
 34
0.0
 50
90.0
100
AcDbRotatedDimension
1001
ACAD
1000
DSTYLE
1002
{
1070
   271
1070
     1
1002
}
  0
ARC
  5
8D6
330
1F
100
AcDbEntity
  8
AM_5
100
AcDbCircle
 10
40.43598115330474
 20
2.449787880557551
 30
0.0
 40
2.0
100
AcDbArc
 50
198.1948723387613
 51
341.8051276612387
  0
LINE
  5
8E3
330
1F
100
AcDbEntity
  8
AM_7
  6
AM_ISO08W050x2
100
AcDbLine
 10
40.43598115330497
 20
6.17366872515322
 30
0.0
 11
40.43598115330497
 21
-2.760674023987349
 31
0.0
1001
GENIUS_GENOBJ-N-CEN_13
1002
{
1000
OWNER
1000
GEN
1002
}
1001
GENIUS_GENODEF_13
1002
{
1000
HIER
1070
     0
1002
}
1002
{
1000
MANEDIT
1070
     0
1002
}
1002
{
1000
NOSEL
1070
     0
1002
}
1002
{
1000
BEHIND
1070
     0
1002
}
1002
{
1000
OTHER
1070
     0
1002
}
1002
{
1000
REACTOR
1002
}
1001
GENIUS_GENCEN_19
1002
{
1040
2.794
1002
}
  0
ARC
  5
906
330
1F
100
AcDbEntity
  8
AM_5
100
AcDbCircle
 10
40.43598115330474
 20
2.449787880557551
 30
0.0
 40
2.0
100
AcDbArc
 50
18.19487233876132
 51
161.8051276612387
  0
LINE
  5
907
102
{ACAD_REACTORS
330
997
102
}
330
1F
100
AcDbEntity
  8
AM_5
100
AcDbLine
 10
38.53598115330487
 20
1.825288080717883
 30
0.0
 11
38.53598115330487
 21
3.074287680397219
 31
0.0
  0
LINE
  5
908
330
1F
100
AcDbEntity
  8
AM_5
100
AcDbLine
 10
42.33598115330506
 20
3.074287680397219
 30
0.0
 11
42.33598115330506
 21
1.825288080717883
 31
0.0
  0
DIMENSION
  5
93D
330
1F
100
AcDbEntity
  8
AM_5
100
AcDbDimension
  2
*D6
 10
41.4726880819745
 20
0.7394549468720655
 30
0.0
 11
32.6475069029609
 21
8.435953148457879
 31
0.0
 70
   163
 71
     5
 42
4.000000000000327
  3
AM_JIS$3
100
AcDbDiametricDimension
 15
39.39927422463543
 25
4.160120814243051
 35
0.0
 40
0.0
1001
ACAD
1000
DSTYLE
1002
{
1070
   172
1070
     1
1002
}
  0
DIMENSION
  5
989
102
{ACAD_REACTORS
330
997
102
}
102
{ACAD_XDICTIONARY
360
996
102
}
330
1F
100
AcDbEntity
  8
AM_5
100
AcDbDimension
  2
*D7
 10
38.53598115330487
 20
-7.266829503988447
 30
0.0
 11
29.37598115330487
 21
-3.866829503988447
 31
0.0
 70
    32
 71
     5
 42
3.800000000000182
  3
AM_JIS$0
100
AcDbAlignedDimension
 13
42.33598115330506
 23
2.449787880557551
 33
0.0
 14
38.53598115330487
 24
2.449787880557324
 34
0.0
 50
180.0
100
AcDbRotatedDimension
  0
DIMENSION
  5
9B8
102
{ACAD_REACTORS
330
9C3
102
}
102
{ACAD_XDICTIONARY
360
9C2
102
}
330
1F
100
AcDbEntity
  8
AM_5
100
AcDbDimension
  2
*D8
 10
-22.88836640193877
 20
0.5304465240531862
 30
0.0
 11
-35.03241957799334
 21
10.22993360612992
 31
0.0
 70
   163
 71
     5
 42
5.000000000001043
  3
AM_JIS$3
100
AcDbDiametricDimension
 15
-26.09219458535749
 25
4.369129237060655
 35
0.0
 40
0.0
1001
ACAD
1000
DSTYLE
1002
{
1070
   172
1070
     1
1002
}
  0
DIMENSION
  5
9E3
102
{ACAD_REACTORS
330
9F3
102
}
102
{ACAD_XDICTIONARY
360
9F2
102
}
330
1F
100
AcDbEntity
  8
AM_5
100
AcDbDimension
  2
*D9
 10
-24.06936649364798
 20
1.570658880557176
 30
0.0
 11
-17.82439944234557
 21
-13.10845529081189
 31
0.0
 70
   162
  1
<>
 71
     5
 42
0.2617996866646881
  3
AM_JIS$2
100
AcDb2LineAngularDimension
 13
-24.49028049364824
 23
6.652141438828039
 33
0.0
 14
-24.49028049364824
 24
-1.270651842745792
 34
0.0
 15
-24.45533249364826
 25
0.1302158805572162
 35
0.0
 16
-27.04391560483519
 26
-14.48257918176143
 36
0.0
1001
ACAD_DIMASSOC_DIMLFAC
1040
1.0
1001
ACAD_DIMASSOC_CALC_DIMLFAC
1040
1.0
1001
ACAD_DIMASSOC_OVERRIDDEN_DIMLFAC
1040
1.0
1001
ACAD
1000
DSTYLE
1002
{
1070
   144
1040
1.0
1002
}
  0
TEXT
  5
AE0
330
1F
100
AcDbEntity
  8
0
100
AcDbText
 10
8.935428727734688
 20
-57.42334693721762
 30
0.0
 40
2.5
  1
%%uC04G-SCLCR03X1-05
100
AcDbText
  0
DIMENSION
  5
B05
102
{ACAD_REACTORS
330
B17
102
}
102
{ACAD_XDICTIONARY
360
B16
102
}
330
1F
100
AcDbEntity
  8
AM_5
100
AcDbDimension
  2
*D10
 10
0.3812202527701629
 20
3.394789880557255
 30
0.0
 11
-11.66559715764305
 21
12.82266893900645
 31
0.0
 70
    34
 71
     5
 42
1.658062729936738
  3
AM_JIS$2
100
AcDb2LineAngularDimension
 13
0.3578642751781445
 23
0.0
 33
0.0
 14
0.0
 24
0.0
 34
0.0
 15
0.4622112527699755
 25
4.32052188055718
 35
0.0
 16
-6.19534839894714
 26
12.50363716832575
 36
0.0
1001
ACAD_DIMASSOC_DIMLFAC
1040
1.0
1001
ACAD_DIMASSOC_CALC_DIMLFAC
1040
1.0
1001
ACAD_DIMASSOC_OVERRIDDEN_DIMLFAC
1040
1.0
1001
ACAD
1000
DSTYLE
1002
{
1070
   144
1040
1.0
1002
}
  0
ENDSEC
  0
SECTION
  2
OBJECTS
  0
DICTIONARY
  5
C
330
0
100
AcDbDictionary
281
     1
  3
ACAD_COLOR
350
BE
  3
ACAD_GROUP
350
D
  3
ACAD_LAYOUT
350
1A
  3
ACAD_MATERIAL
350
BD
  3
ACAD_MLINESTYLE
350
17
  3
ACAD_PLOTSETTINGS
350
19
  3
ACAD_PLOTSTYLENAME
350
E
  3
ACAD_TABLESTYLE
350
11A
  3
AcAmCatalogState
350
10E
  3
ACDBHEADERROUNDTRIPXREC
350
D39
  3
AcDbVariableDictionary
350
94
  3
ACDMSYSVARMGR
350
D0
  3
ACGREF_MASTER
350
55
  3
ACGREFACAD_MASTER
350
59
  3
AcmDictionary
350
5B
  3
ACME_BOM_MANAGER_NAME
350
4E
  3
ACME_COMMAND_HISTORY
350
49
  3
ACME_SCOPE_NAME
350
48
  3
ACMESTATEMGR
350
53
  3
AcmeSysVarManager
350
4A
  3
AcmSystemVariableManager
350
5F
  3
AD_APPL
350
FA
  3
ADSYSVARMGR
350
F9
  3
AmdtNamedDwgMgr
350
ED
  3
AMG
350
41
  3
AMGSNAPSETTINGS
350
1B8
  3
AMI_MASTER
350
5A
  3
AUTOCAD_ASSEMBLIES_PROJECT
350
102
  3
Designer_Assemblies_SysVars
350
FD
  3
DWGPROPS
350
D3C
  3
GREFAM_MODULE
350
F3
  0
DICTIONARY
  5
34B
330
2
100
AcDbDictionary
280
     1
281
     1
  3
AMLAYER_GROUPCOLORS
360
34C
  0
DICTIONARY
  5
8F
330
1F
100
AcDbDictionary
280
     1
281
     1
  3
ACAD_SORTENTS
360
77F
  0
DICTIONARY
  5
7A8
330
79D
100
AcDbDictionary
280
     1
281
     1
  3
ACAD_DIMASSOC
360
7A9
  0
DICTIONARY
  5
89F
330
892
100
AcDbDictionary
280
     1
281
     1
  3
ACAD_DIMASSOC
360
8A0
  0
DICTIONARY
  5
996
330
989
100
AcDbDictionary
280
     1
281
     1
  3
ACAD_DIMASSOC
360
997
  0
DICTIONARY
  5
9C2
330
9B8
100
AcDbDictionary
280
     1
281
     1
  3
ACAD_DIMASSOC
360
9C3
  0
DICTIONARY
  5
9F2
330
9E3
100
AcDbDictionary
280
     1
281
     1
  3
ACAD_DIMASSOC
360
9F3
  0
DICTIONARY
  5
B16
330
B05
100
AcDbDictionary
280
     1
281
     1
  3
ACAD_DIMASSOC
360
B17
  0
DICTIONARY
  5
BE
102
{ACAD_REACTORS
330
C
102
}
330
C
100
AcDbDictionary
281
     1
  0
DICTIONARY
  5
D
102
{ACAD_REACTORS
330
C
102
}
330
C
100
AcDbDictionary
281
     1
  0
DICTIONARY
  5
1A
102
{ACAD_REACTORS
330
C
102
}
330
C
100
AcDbDictionary
281
     1
  3
Model
350
22
  3
レイアウト1
350
1E
  3
レイアウト2
350
26
  0
DICTIONARY
  5
BD
102
{ACAD_REACTORS
330
C
102
}
330
C
100
AcDbDictionary
281
     1
  0
DICTIONARY
  5
17
102
{ACAD_REACTORS
330
C
102
}
330
C
100
AcDbDictionary
281
     1
  3
Standard
350
18
  0
DICTIONARY
  5
19
102
{ACAD_REACTORS
330
C
102
}
330
C
100
AcDbDictionary
281
     1
  0
ACDBDICTIONARYWDFLT
  5
E
102
{ACAD_REACTORS
330
C
102
}
330
C
100
AcDbDictionary
281
     1
  3
Normal
350
F
100
AcDbDictionaryWithDefault
340
F
  0
DICTIONARY
  5
11A
102
{ACAD_REACTORS
330
C
102
}
330
C
100
AcDbDictionary
281
     1
  3
Standard
350
11B
  0
ACAD_PROXY_OBJECT
  5
10E
102
{ACAD_REACTORS
330
C
102
}
330
C
100
AcDbProxyObject
 90
      499
 91
      568
 95
       25
 70
     0
 93
      632
310
3FFFFFFFE00A02814029B219D2E283937B3B930B6902334B632B9AE20BABA37B232B9B5AE20B1B0B2369B971817199C971C2E20B1B0B236AE2A32B6B83630BA32C0081014020800BEC04A408FEFD08
  0
DICTIONARY
  5
D39
102
{ACAD_REACTORS
330
C
102
}
330
C
100
AcDbDictionary
281
     1
  3
COLORDICT
350
D3A
  3
MATERIALDICT
350
D3B
  0
DICTIONARY
  5
94
102
{ACAD_REACTORS
330
C
102
}
330
C
100
AcDbDictionary
281
     1
  3
CTABLESTYLE
350
138
  3
DIMASSOC
350
96
  3
HIDETEXT
350
D38
  3
INDEXCTL
350
95
  0
ACAD_PROXY_OBJECT
  5
D0
102
{ACAD_REACTORS
330
C
102
}
330
C
100
AcDbProxyObject
 90
      499
 91
      507
 95
       25
 70
     0
 93
      240
310
4C51A47A0000000000000000000000000000000000000000000000000000
330
D1
330
D2
330
D3
330
D4
330
D5
330
D6
330
D7
330
DA
330
DB
330
DC
330
DD
330
DE
330
DF
330
E0
330
E1
330
E2
330
E3
330
E4
330
E5
330
E6
330
E7
330
E8
330
E9
330
EA
330
EB
330
EC
 94
        0
  0
ACAD_PROXY_OBJECT
  5
55
102
{ACAD_REACTORS
330
C
102
}
330
C
100
AcDbProxyObject
 90
      499
 91
      516
 95
       25
 70
     0
 93
       34
310
0400004280
  0
ACAD_PROXY_OBJECT
  5
59
102
{ACAD_REACTORS
330
C
102
}
330
C
100
AcDbProxyObject
 90
      499
 91
      519
 95
       25
 70
     0
 93
      114
310
04000041C080000000000000000000
  0
DICTIONARY
  5
5B
102
{ACAD_REACTORS
330
C
102
}
330
C
100
AcDbDictionary
281
     1
  3
AcmBOM
350
1B5
  3
AcmBOMDATA
350
5C
  3
AcmStdDictionary
350
61
  3
AMDTSECTSYM_ARROWCOLOR
350
123
  0
ACAD_PROXY_OBJECT
  5
4E
102
{ACAD_REACTORS
330
C
102
}
330
C
100
AcDbProxyObject
 90
      499
 91
      510
 95
       25
 70
     0
 93
       50
310
00010040400000
330
0
330
0
330
4F
 94
        0
  0
ACAD_PROXY_OBJECT
  5
49
102
{ACAD_REACTORS
330
C
102
}
330
C
100
AcDbProxyObject
 90
      499
 91
      506
 95
       25
 70
     0
 93
     5884
310
4780504554E444F8050A50524F50455254494553805055055524745805055153415645404052D4D5347202D205050413A2020206465736B746F702E6172782046696C6556657273696F6E3A20392E322E302E34014390535115149154D15511109353D1102014213880B4815539113C05084E202D20554E444F01411553911
310
3E014115539113E014151549054D1601419493D51055116014115539113E0141561312539160142111493D411D153D3601419352549493D4A0142111493D411D153D36014151549054D16014311D4925417D4D514915510D2201415454D05591501014B5354D1C80B481414104E88080819195CDADD1BDC0B985C9E08119A5
310
B1955995C9CDA5BDB8E880E4B8C8B8C0B8D005044D4F5645805045A4F4F4D80507414D4C41594552805055153415645404052D4D5347202D205050413A2020206465736B746F702E6172782046696C6556657273696F6E3A20392E322E302E3401415454D05591501014B5354D1C80B481414104E88080819195CDADD1BDC0
310
B985C9E08119A5B1955995C9CDA5BDB8E880E4B8C8B8C0B8D005055153415645404052D4D5347202D205050413A2020206465736B746F702E6172782046696C6556657273696F6E3A20392E322E302E3401415454D05591501014B5354D1C80B481414104E88080819195CDADD1BDC0B985C9E08119A5B1955995C9CDA5BDB
310
8E880E4B8C8B8C0B8D005055153415645404052D4D5347202D205050413A2020206465736B746F702E6172782046696C6556657273696F6E3A20392E322E302E3401415454D05591501014B5354D1C80B481414104E88080819195CDADD1BDC0B985C9E08119A5B1955995C9CDA5BDB8E880E4B8C8B8C0B8D0050E414D4454
310
524553455444424D4F4440805084E202D20554E444F014213880B4815539113C0504554E444F80504554E444F805055055524745404052D4D5347202D205050413A2020206465736B746F702E6172782046696C6556657273696F6E3A20392E322E302E340
  0
ACAD_PROXY_OBJECT
  5
48
102
{ACAD_REACTORS
330
C
102
}
330
C
100
AcDbProxyObject
 90
      499
 91
      505
 95
       25
 70
     0
 93
      586
310
09000046408000000000000000001344E200000000000000000000000000000000000000000000000000000000000000000000000000000000000000000000000000000000AAA406AA80
360
4B
360
4C
360
4D
360
4F
360
60
360
C9
360
CA
360
CB
360
CC
360
CD
360
CE
360
D1
360
D2
360
D3
360
D4
360
D5
360
D6
360
D7
360
DA
360
DB
360
DC
360
DD
360
DE
360
DF
360
E0
360
E1
360
E2
360
E3
360
E4
360
E5
360
E6
360
E7
360
E8
360
E9
360
EA
360
EB
360
EC
360
F5
360
F6
360
F7
360
F8
360
FE
360
FF
360
100
360
101
360
106
360
107
360
108
360
109
360
10A
360
10B
360
34D
 94
        0
  0
ACAD_PROXY_OBJECT
  5
53
102
{ACAD_REACTORS
330
C
102
}
330
C
100
AcDbProxyObject
 90
      499
 91
      515
 95
       25
 70
     0
 93
       50
310
09000042641280
  0
ACAD_PROXY_OBJECT
  5
4A
102
{ACAD_REACTORS
330
C
102
}
330
C
100
AcDbProxyObject
 90
      499
 91
      507
 95
       25
 70
     0
 93
       48
310
903412000000
330
4B
330
4C
330
4D
 94
        0
  0
ACAD_PROXY_OBJECT
  5
5F
102
{ACAD_REACTORS
330
C
102
}
330
C
100
AcDbProxyObject
 90
      499
 91
      507
 95
       25
 70
     0
 93
       40
310
90240E0000
330
60
330
34D
 94
        0
  0
ACAD_PROXY_OBJECT
  5
FA
102
{ACAD_REACTORS
330
C
102
}
330
C
100
AcDbProxyObject
 90
      499
 91
      557
 95
       25
 70
     0
 93
       42
310
000900004040
330
F5
 94
        0
  0
ACAD_PROXY_OBJECT
  5
F9
102
{ACAD_REACTORS
330
C
102
}
330
C
100
AcDbProxyObject
 90
      499
 91
      507
 95
       25
 70
     0
 93
        8
310
AA
  0
ACAD_PROXY_OBJECT
  5
ED
102
{ACAD_REACTORS
330
C
102
}
330
C
100
AcDbProxyObject
 90
      499
 91
      548
 95
       25
 70
     0
 93
       42
310
000100005E80
330
C9
 94
        0
  0
DICTIONARY
  5
41
102
{ACAD_REACTORS
330
C
102
}
330
C
100
AcDbDictionary
281
     1
  3
AcMgSettings
350
42
  3
AMGLAYCFG
350
63
  0
DICTIONARY
  5
1B8
102
{ACAD_REACTORS
330
C
102
}
330
C
100
AcDbDictionary
281
     1
  3
DIMENSION
350
1BD
  3
FEA
350
1BC
  3
HATCH (1)
350
1B9
  3
HATCH (2)
350
1BA
  3
SIMPLE WELD
350
1BE
  3
SYMBOLS
350
1BB
  0
ACAD_PROXY_OBJECT
  5
5A
102
{ACAD_REACTORS
330
C
102
}
330
C
100
AcDbProxyObject
 90
      499
 91
      520
 95
       25
 70
     0
 93
       34
310
0500004280
  0
ACAD_PROXY_OBJECT
  5
102
102
{ACAD_REACTORS
330
C
102
}
330
C
100
AcDbProxyObject
 90
      499
 91
      560
 95
       25
 70
     0
 93
       98
310
0900004E400000000000000000
330
109
330
0
330
10A
330
0
330
0
330
0
330
0
330
0
 94
        0
  0
ACAD_PROXY_OBJECT
  5
FD
102
{ACAD_REACTORS
330
C
102
}
330
C
100
AcDbProxyObject
 90
      499
 91
      507
 95
       25
 70
     0
 93
       56
310
90441600000000
330
FE
330
FF
330
100
330
101
 94
        0
  0
XRECORD
  5
D3C
102
{ACAD_REACTORS
330
C
102
}
330
C
100
AcDbXrecord
280
     1
  1
DWGPROPS COOKIE
  2

  3

  4

  6

  7

  8

  9

300
AmdtFileType=84
301
=
302
=
303
=
304
=
305
=
306
=
307
=
308
=
309
=
 40
0.0
 41
2455391.20541507
 42
2455482.220881794
  1

 90
        1
  0
ACAD_PROXY_OBJECT
  5
F3
102
{ACAD_REACTORS
330
C
102
}
330
C
100
AcDbProxyObject
 90
      499
 91
      551
 95
       25
 70
     0
 93
        8
310
05
  0
DICTIONARY
  5
34C
102
{ACAD_REACTORS
330
34B
102
}
330
34B
100
AcDbDictionary
280
     1
281
     1
  0
SORTENTSTABLE
  5
77F
102
{ACAD_REACTORS
330
8F
102
}
330
8F
100
AcDbSortentsTable
330
1F
331
571
  5
571
331
572
  5
572
331
573
  5
573
331
574
  5
575
331
575
  5
576
331
576
  5
577
331
577
  5
578
331
578
  5
579
331
579
  5
57A
331
57A
  5
57B
331
57B
  5
57C
331
57C
  5
57D
331
57D
  5
57E
331
57E
  5
57F
331
57F
  5
580
331
580
  5
581
331
581
  5
582
331
582
  5
583
331
583
  5
584
331
584
  5
585
331
585
  5
586
331
586
  5
587
331
587
  5
588
331
588
  5
589
331
589
  5
58A
331
58A
  5
58B
331
58B
  5
58C
331
58C
  5
58D
331
58D
  5
58E
331
58E
  5
58F
331
58F
  5
590
331
590
  5
591
331
591
  5
592
331
592
  5
593
331
593
  5
594
331
594
  5
595
331
595
  5
596
331
596
  5
597
331
597
  5
598
331
598
  5
599
331
599
  5
59A
331
59A
  5
59B
331
59B
  5
59C
331
59C
  5
59D
331
59D
  5
59E
331
59E
  5
59F
331
59F
  5
5A0
331
5A0
  5
5A1
331
5A1
  5
5A2
331
5A2
  5
5A3
331
5A3
  5
5A4
331
5A4
  5
5A5
331
5A5
  5
5A6
331
5A6
  5
5A7
331
5A7
  5
5A8
331
5A8
  5
5A9
331
5A9
  5
5AA
331
5AA
  5
5AB
331
5AB
  5
5AC
331
5AC
  5
5AD
331
5AD
  5
5AE
331
5AE
  5
5AF
331
5AF
  5
5B0
331
5B0
  5
5B1
331
5B1
  5
5B2
331
5B2
  5
5B3
331
5B3
  5
5B4
331
5B4
  5
5B5
331
5B5
  5
5B6
331
5B6
  5
5B7
331
5B7
  5
5B8
331
5B8
  5
5B9
331
5B9
  5
5BA
331
5BA
  5
5BB
331
5BB
  5
5BC
331
5BC
  5
5BD
331
5BD
  5
5BE
331
5BE
  5
5BF
331
5BF
  5
5C0
331
5C0
  5
5C1
331
5C1
  5
5C2
331
5C2
  5
5C3
331
5C3
  5
5C4
331
5C4
  5
5C5
331
5C5
  5
5C6
331
5C6
  5
5C7
331
5C7
  5
5C8
331
5C8
  5
5C9
331
5C9
  5
5CA
331
5CA
  5
5CB
331
5CB
  5
5CC
331
5CC
  5
5CD
331
5CD
  5
5CE
331
5CE
  5
5CF
331
5CF
  5
5D0
331
5D0
  5
5D1
331
5D1
  5
5D2
331
5D2
  5
5D3
331
5D3
  5
5D4
331
5D4
  5
5D5
331
5D5
  5
5D6
331
5D6
  5
5D7
331
5D7
  5
5D8
331
5D8
  5
5D9
331
5D9
  5
5DA
331
5DA
  5
5DB
331
5DB
  5
5DC
331
5DC
  5
5DD
331
5DD
  5
5DE
331
5DE
  5
5DF
331
5DF
  5
5E0
331
5E0
  5
5E1
331
5E1
  5
5E2
331
5E2
  5
5E3
331
5E3
  5
5E4
331
5E4
  5
5E5
331
5E5
  5
5E6
331
5E6
  5
5E7
331
5E7
  5
5E8
331
5E8
  5
5E9
331
5E9
  5
5EA
331
5EA
  5
5EB
331
5EB
  5
5EC
331
5EC
  5
5ED
331
5ED
  5
5EE
331
5EE
  5
5EF
331
5EF
  5
5F0
331
5F0
  5
5F1
331
5F1
  5
5F2
331
5F2
  5
5F3
331
5F3
  5
5F4
331
5F4
  5
5F5
331
5F5
  5
5F6
331
5F6
  5
5F7
331
5F7
  5
5F8
331
5F8
  5
5F9
331
5F9
  5
5FA
331
5FA
  5
5FB
331
5FB
  5
5FC
331
5FC
  5
5FD
331
5FD
  5
5FE
331
5FE
  5
5FF
331
5FF
  5
600
331
600
  5
601
331
601
  5
602
331
602
  5
603
331
603
  5
604
331
604
  5
605
331
605
  5
606
331
606
  5
607
331
607
  5
608
331
608
  5
609
331
609
  5
60A
331
60A
  5
60B
331
60B
  5
60C
331
60C
  5
60D
331
60D
  5
60E
331
60E
  5
60F
331
60F
  5
610
331
610
  5
611
331
611
  5
612
331
612
  5
613
331
613
  5
614
331
614
  5
615
331
615
  5
616
331
616
  5
617
331
617
  5
618
331
618
  5
619
331
619
  5
61A
331
61A
  5
61B
331
61B
  5
61C
331
61C
  5
61D
331
61D
  5
61E
331
61E
  5
61F
331
61F
  5
620
331
620
  5
621
331
621
  5
622
331
622
  5
623
331
623
  5
624
331
624
  5
625
331
625
  5
626
331
626
  5
627
331
627
  5
628
331
628
  5
629
331
629
  5
62A
331
62A
  5
62B
331
62B
  5
62C
331
62C
  5
62D
331
62D
  5
62E
331
62E
  5
62F
331
62F
  5
630
331
630
  5
631
331
631
  5
632
331
632
  5
633
331
633
  5
634
331
634
  5
635
331
635
  5
636
331
636
  5
637
331
637
  5
638
331
638
  5
639
331
639
  5
63A
331
63A
  5
63B
331
63B
  5
63C
331
63C
  5
63D
331
63D
  5
63E
331
63E
  5
63F
331
63F
  5
640
331
640
  5
641
331
641
  5
642
331
642
  5
643
331
643
  5
644
331
644
  5
645
331
645
  5
646
331
646
  5
647
331
647
  5
648
331
648
  5
649
331
649
  5
64A
331
64A
  5
64B
331
64B
  5
64C
331
64C
  5
64D
331
64D
  5
64E
331
64E
  5
64F
331
64F
  5
650
331
650
  5
651
331
651
  5
652
331
652
  5
653
331
653
  5
654
331
654
  5
655
331
655
  5
656
331
656
  5
657
331
657
  5
658
331
658
  5
659
331
659
  5
65A
331
65A
  5
65B
331
65B
  5
65C
331
65C
  5
65D
331
65D
  5
65E
331
65E
  5
65F
331
65F
  5
660
331
660
  5
661
331
661
  5
662
331
666
  5
667
331
667
  5
668
331
668
  5
669
331
669
  5
66A
331
66A
  5
66B
331
66B
  5
66C
331
66C
  5
66D
331
66D
  5
66E
331
66E
  5
66F
331
66F
  5
670
331
670
  5
671
331
671
  5
672
331
672
  5
673
331
673
  5
674
331
674
  5
675
331
675
  5
676
331
676
  5
677
331
677
  5
678
331
678
  5
679
331
679
  5
67A
331
67A
  5
67B
331
67B
  5
67C
331
67C
  5
67D
331
67D
  5
67E
331
67E
  5
67F
331
67F
  5
680
331
680
  5
681
331
681
  5
682
331
682
  5
683
331
683
  5
684
331
684
  5
685
331
685
  5
686
331
686
  5
687
331
687
  5
688
331
689
  5
68A
331
68A
  5
68B
331
68B
  5
68C
331
68C
  5
68D
331
68D
  5
68E
331
68E
  5
68F
331
68F
  5
690
331
690
  5
691
331
691
  5
692
331
692
  5
693
331
693
  5
694
331
694
  5
695
331
695
  5
696
331
696
  5
697
331
697
  5
698
331
698
  5
699
331
699
  5
69A
331
69A
  5
69B
331
69B
  5
69C
331
69C
  5
69D
331
69D
  5
69E
331
69E
  5
69F
331
69F
  5
6A0
331
6A0
  5
6A1
331
6A1
  5
6A2
331
6A2
  5
6A3
331
6A3
  5
6A4
331
6A4
  5
6A5
331
6A5
  5
6A6
331
6A6
  5
6A7
331
6A7
  5
6A8
331
6A8
  5
6A9
331
6A9
  5
6AA
331
6AA
  5
6AB
331
6AB
  5
6AC
331
6AC
  5
6AD
331
6AD
  5
6AE
331
6AE
  5
6AF
331
6AF
  5
6B0
331
6B0
  5
6B1
331
6B1
  5
6B2
331
6B2
  5
6B3
331
6B3
  5
6B4
331
6B4
  5
6B5
331
6B5
  5
6B6
331
6B6
  5
6B7
331
6B7
  5
6B8
331
6B8
  5
6B9
331
6B9
  5
6BA
331
6BA
  5
6BB
331
6BB
  5
6BC
331
6BC
  5
6BD
331
6BD
  5
6BE
331
6BE
  5
6BF
331
6BF
  5
6C0
331
6C0
  5
6C1
331
6C1
  5
6C2
331
6C2
  5
6C3
331
6C3
  5
6C4
331
6C4
  5
6C5
331
6C5
  5
6C6
331
6C6
  5
6C7
331
6C7
  5
6C8
331
6C8
  5
6C9
331
6C9
  5
6CA
331
6CA
  5
6CB
331
6CB
  5
6CC
331
6CC
  5
6CD
331
6CD
  5
6CE
331
6CE
  5
6CF
331
6CF
  5
6D0
331
6D0
  5
6D1
331
6D1
  5
6D2
331
6D2
  5
6D3
331
6D3
  5
6D4
331
6D4
  5
6D5
331
6D5
  5
6D6
331
6D6
  5
6D7
331
6D7
  5
6D8
331
6D8
  5
743
331
743
  5
744
331
744
  5
77B
331
79D
  5
79D
331
892
  5
892
331
8D6
  5
8D6
331
8E3
  5
8FB
331
906
  5
8E3
  0
DIMASSOC
  5
7A9
102
{ACAD_REACTORS
330
7A8
102
}
330
7A8
100
AcDbDimAssoc
330
79D
 90
        1
 70
     0
 71
     0
  1
AcDbOsnapPointRef
 72
     1
331
6D6
 73
     0
 91
        0
 40
0.0
 10
0.0
 20
0.0
 30
2.000000000000000E+50
 75
     0
  0
DIMASSOC
  5
8A0
102
{ACAD_REACTORS
330
89F
102
}
330
89F
100
AcDbDimAssoc
330
892
 90
        3
 70
     0
 71
     0
  1
AcDbOsnapPointRef
 72
    13
331
744
 73
     0
 91
        0
 40
0.0
 10
0.0
 20
0.0
 30
2.000000000000000E+50
 75
     0
  1
AcDbOsnapPointRef
 72
     1
331
578
 73
     0
 91
        0
 40
0.0
 10
0.0
 20
0.0
 30
2.000000000000000E+50
 75
     0
  0
DIMASSOC
  5
997
102
{ACAD_REACTORS
330
996
102
}
330
996
100
AcDbDimAssoc
330
989
 90
        2
 70
     0
 71
     0
  1
AcDbOsnapPointRef
 72
     6
331
907
 73
     0
 91
        0
 40
0.499999999999818
 10
0.0
 20
0.0
 30
0.0
332
578
 74
     0
 92
        0
 75
     0
  0
DIMASSOC
  5
9C3
102
{ACAD_REACTORS
330
9C2
102
}
330
9C2
100
AcDbDimAssoc
330
9B8
 90
        2
 70
     0
 71
     0
  1
AcDbOsnapPointRef
 72
     3
331
66C
 73
     2
 91
        0
 40
0.0
 10
0.0
 20
0.0
 30
0.0
 75
     0
  0
DIMASSOC
  5
9F3
102
{ACAD_REACTORS
330
9F2
102
}
330
9F2
100
AcDbDimAssoc
330
9E3
 90
       15
 70
     1
 71
     0
  1
AcDbOsnapPointRef
 72
    13
331
667
 73
     2
 91
        0
 40
0.0
 10
0.0
 20
0.0
 30
2.000000000000000E+50
 75
     0
  1
AcDbOsnapPointRef
 72
     1
331
667
 73
     2
 91
        0
 40
0.0
 10
0.0
 20
0.0
 30
2.000000000000000E+50
 75
     0
  1
AcDbOsnapPointRef
 72
    13
331
67B
 73
     2
 91
        0
 40
0.0
 10
0.0
 20
0.0
 30
2.000000000000000E+50
 75
     0
  1
AcDbOsnapPointRef
 72
     1
331
67B
 73
     2
 91
        0
 40
0.0
 10
0.0
 20
0.0
 30
2.000000000000000E+50
 75
     0
  0
DIMASSOC
  5
B17
102
{ACAD_REACTORS
330
B16
102
}
330
B16
100
AcDbDimAssoc
330
B05
 90
       15
 70
     1
 71
     0
  1
AcDbOsnapPointRef
 72
    13
331
743
 73
     2
 91
        0
 40
0.0
 10
0.0
 20
0.0
 30
2.000000000000000E+50
 75
     0
  1
AcDbOsnapPointRef
 72
     1
331
743
 73
     2
 91
        0
 40
0.0
 10
0.0
 20
0.0
 30
2.000000000000000E+50
 75
     0
  1
AcDbOsnapPointRef
 72
    13
331
6A7
 73
     2
 91
        0
 40
0.0
 10
0.0
 20
0.0
 30
2.000000000000000E+50
 75
     0
  1
AcDbOsnapPointRef
 72
     1
331
6A7
 73
     2
 91
        0
 40
0.0
 10
0.0
 20
0.0
 30
2.000000000000000E+50
 75
     0
  0
LAYOUT
  5
22
102
{ACAD_REACTORS
330
1A
102
}
330
1A
100
AcDbPlotSettings
  1

  2

  4

  6

 40
0.0
 41
0.0
 42
0.0
 43
0.0
 44
0.0
 45
0.0
 46
0.0
 47
0.0
 48
0.0
 49
0.0
140
0.0
141
0.0
142
1.0
143
1.0
 70
  1712
 72
     0
 73
     0
 74
     0
  7

 75
     0
147
1.0
148
0.0
149
0.0
100
AcDbLayout
  1
Model
 70
     1
 71
     0
 10
0.0
 20
0.0
 11
12.0
 21
9.0
 12
0.0
 22
0.0
 32
0.0
 14
0.0
 24
0.0
 34
0.0
 15
0.0
 25
0.0
 35
0.0
146
0.0
 13
0.0
 23
0.0
 33
0.0
 16
1.0
 26
0.0
 36
0.0
 17
0.0
 27
1.0
 37
0.0
 76
     0
330
1F
  0
LAYOUT
  5
1E
102
{ACAD_REACTORS
330
1A
102
}
330
1A
100
AcDbPlotSettings
  1

  2

  4

  6

 40
0.0
 41
0.0
 42
0.0
 43
0.0
 44
0.0
 45
0.0
 46
0.0
 47
0.0
 48
0.0
 49
0.0
140
0.0
141
0.0
142
1.0
143
1.0
 70
   688
 72
     0
 73
     0
 74
     5
  7

 75
    16
147
1.0
148
0.0
149
0.0
100
AcDbLayout
  1
レイアウト1
 70
     1
 71
     1
 10
0.0
 20
0.0
 11
420.0
 21
297.0
 12
0.0
 22
0.0
 32
0.0
 14
1.000000000000000E+20
 24
1.000000000000000E+20
 34
1.000000000000000E+20
 15
-1.000000000000000E+20
 25
-1.000000000000000E+20
 35
-1.000000000000000E+20
146
0.0
 13
0.0
 23
0.0
 33
0.0
 16
1.0
 26
0.0
 36
0.0
 17
0.0
 27
1.0
 37
0.0
 76
     0
330
1B
  0
LAYOUT
  5
26
102
{ACAD_REACTORS
330
1A
102
}
330
1A
100
AcDbPlotSettings
  1

  2

  4

  6

 40
0.0
 41
0.0
 42
0.0
 43
0.0
 44
0.0
 45
0.0
 46
0.0
 47
0.0
 48
0.0
 49
0.0
140
0.0
141
0.0
142
1.0
143
1.0
 70
   688
 72
     0
 73
     0
 74
     5
  7

 75
    16
147
1.0
148
0.0
149
0.0
100
AcDbLayout
  1
レイアウト2
 70
     1
 71
     2
 10
0.0
 20
0.0
 11
12.0
 21
9.0
 12
0.0
 22
0.0
 32
0.0
 14
0.0
 24
0.0
 34
0.0
 15
0.0
 25
0.0
 35
0.0
146
0.0
 13
0.0
 23
0.0
 33
0.0
 16
1.0
 26
0.0
 36
0.0
 17
0.0
 27
1.0
 37
0.0
 76
     0
330
23
  0
MLINESTYLE
  5
18
102
{ACAD_REACTORS
330
17
102
}
330
17
100
AcDbMlineStyle
  2
STANDARD
 70
     0
  3

 62
   256
 51
90.0
 52
90.0
 71
     2
 49
0.5
 62
   256
  6
BYLAYER
 49
-0.5
 62
   256
  6
BYLAYER
  0
ACDBPLACEHOLDER
  5
F
102
{ACAD_REACTORS
330
E
102
}
330
E
  0
TABLESTYLE
  5
11B
102
{ACAD_REACTORS
330
11A
102
}
330
11A
100
AcDbTableStyle
  3
Standard
 70
     0
 71
     0
 40
1.5
 41
1.5
280
     0
281
     0
  7
STANDARD
140
4.5
170
     2
 62
     0
 63
     7
283
     0
274
    -2
284
     1
 64
     0
275
    -2
285
     1
 65
     0
276
    -2
286
     1
 66
     0
277
    -2
287
     1
 67
     0
278
    -2
288
     1
 68
     0
279
    -2
289
     1
 69
     0
  7
STANDARD
140
6.0
170
     5
 62
     0
 63
     7
283
     0
274
    -2
284
     1
 64
     0
275
    -2
285
     1
 65
     0
276
    -2
286
     1
 66
     0
277
    -2
287
     1
 67
     0
278
    -2
288
     1
 68
     0
279
    -2
289
     1
 69
     0
  7
STANDARD
140
4.5
170
     5
 62
     0
 63
     7
283
     0
274
    -2
284
     1
 64
     0
275
    -2
285
     1
 65
     0
276
    -2
286
     1
 66
     0
277
    -2
287
     1
 67
     0
278
    -2
288
     1
 68
     0
279
    -2
289
     1
 69
     0
  0
XRECORD
  5
D3A
102
{ACAD_REACTORS
330
D39
102
}
330
D39
100
AcDbXrecord
280
     1
340
BE
  0
XRECORD
  5
D3B
102
{ACAD_REACTORS
330
D39
102
}
330
D39
100
AcDbXrecord
280
     1
340
BD
  0
DICTIONARYVAR
  5
138
102
{ACAD_REACTORS
330
94
102
}
330
94
100
DictionaryVariables
280
     0
  1
STANDARD
  0
DICTIONARYVAR
  5
96
102
{ACAD_REACTORS
330
94
102
}
330
94
100
DictionaryVariables
280
     0
  1
2
  0
DICTIONARYVAR
  5
D38
102
{ACAD_REACTORS
330
94
102
}
330
94
100
DictionaryVariables
280
     0
  1
0
  0
DICTIONARYVAR
  5
95
102
{ACAD_REACTORS
330
94
102
}
330
94
100
DictionaryVariables
280
     0
  1
1
  0
DICTIONARY
  5
1B5
102
{ACAD_REACTORS
330
5B
102
}
330
5B
100
AcDbDictionary
281
     1
  0
ACAD_PROXY_OBJECT
  5
5C
102
{ACAD_REACTORS
330
5B
102
}
330
5B
100
AcDbProxyObject
 90
      499
 91
      521
 95
       25
 70
     0
 93
      118
310
405010040CA904C415CD5B075DD048
350
5D
 94
        0
  0
DICTIONARY
  5
61
102
{ACAD_REACTORS
330
5B
102
}
330
5B
100
AcDbDictionary
281
     1
  3
ISO
350
62
  3
JIS
350
1FE
  0
XRECORD
  5
123
102
{ACAD_REACTORS
330
5B
102
}
330
5B
100
AcDbXrecord
280
     1
 90
-1023410169
  0
ACAD_PROXY_OBJECT
  5
4B
330
48
100
AcDbProxyObject
 90
      499
 91
      508
 95
       25
 70
     0
 93
      156
310
00010143D050D351505391D5531054925390D490
330
48
 94
        0
  0
ACAD_PROXY_OBJECT
  5
4C
330
48
100
AcDbProxyObject
 90
      499
 91
      508
 95
       25
 70
     0
 93
      148
310
000101439050D351531253915054925390D490
330
48
 94
        0
  0
ACAD_PROXY_OBJECT
  5
4D
330
48
100
AcDbProxyObject
 90
      499
 91
      509
 95
       25
 70
     0
 93
      156
310
000101439050D35154D6535093D314D256915080
330
48
 94
        0
  0
ACAD_PROXY_OBJECT
  5
4F
330
48
100
AcDbProxyObject
 90
      499
 91
      511
 95
       25
 70
     0
 93
       88
310
000101411093D34C402B00
330
48
330
0
330
0
 94
        0
  0
ACAD_PROXY_OBJECT
  5
60
330
48
100
AcDbProxyObject
 90
      499
 91
      523
 95
       25
 70
     0
 93
      140
310
00010142105350D55494D511005034A49530
330
48
 94
        0
  0
ACAD_PROXY_OBJECT
  5
C9
330
48
100
AcDbProxyObject
 90
      499
 91
      544
 95
       25
 70
     0
 93
      374
310
0001014119185D1940508372E302E33392E38014124FEA55D00507392E322E302E3240501000041905394D24CCC658
330
48
330
CA
330
D0
 94
        0
  0
ACAD_PROXY_OBJECT
  5
CA
330
48
100
AcDbProxyObject
 90
      499
 91
      545
 95
       25
 70
     0
 93
       56
310
000190240E0000
330
48
330
CB
330
CD
 94
        0
  0
ACAD_PROXY_OBJECT
  5
CB
330
48
100
AcDbProxyObject
 90
      499
 91
      546
 95
       25
 70
     0
 93
       48
310
0001AA000000
330
48
330
1E
330
CC
330
0
 94
        0
  0
ACAD_PROXY_OBJECT
  5
CC
330
48
100
AcDbProxyObject
 90
      499
 91
      547
 95
       25
 70
     0
 93
       28
310
0001AAA0
330
48
 94
        0
  0
ACAD_PROXY_OBJECT
  5
CD
330
48
100
AcDbProxyObject
 90
      499
 91
      546
 95
       25
 70
     0
 93
       48
310
0001AA000000
330
48
330
26
330
CE
330
0
 94
        0
  0
ACAD_PROXY_OBJECT
  5
CE
330
48
100
AcDbProxyObject
 90
      499
 91
      547
 95
       25
 70
     0
 93
       28
310
0001AAA0
330
48
 94
        0
  0
ACAD_PROXY_OBJECT
  5
D1
330
48
100
AcDbProxyObject
 90
      499
 91
      509
 95
       25
 70
     0
 93
      108
310
000101421053521310D05310D010
330
48
 94
        0
  0
ACAD_PROXY_OBJECT
  5
D2
330
48
100
AcDbProxyObject
 90
      499
 91
      509
 95
       25
 70
     0
 93
      124
310
00010142905354915554D15112535010
330
48
 94
        0
  0
ACAD_PROXY_OBJECT
  5
D3
330
48
100
AcDbProxyObject
 90
      499
 91
      509
 95
       25
 70
     0
 93
      132
310
00010143105354D150D51253D391125360
330
48
 94
        0
  0
ACAD_PROXY_OBJECT
  5
D4
330
48
100
AcDbProxyObject
 90
      499
 91
      509
 95
       25
 70
     0
 93
      124
310
00010142905355941093D49111549010
330
48
 94
        0
  0
ACAD_PROXY_OBJECT
  5
D5
330
48
100
AcDbProxyObject
 90
      499
 91
      509
 95
       25
 70
     0
 93
      116
310
0001014290535115D1D0D3D313D4A0
330
48
 94
        0
  0
ACAD_PROXY_OBJECT
  5
D6
330
48
100
AcDbProxyObject
 90
      499
 91
      509
 95
       25
 70
     0
 93
      148
310
00010143505355925155D49151949154D21010
330
48
 94
        0
  0
ACAD_PROXY_OBJECT
  5
D7
330
48
100
AcDbProxyObject
 90
      499
 91
      509
 95
       25
 70
     0
 93
      172
310
00010144105350539393D51154149154D15495915010
330
48
 94
        0
  0
ACAD_PROXY_OBJECT
  5
DA
330
48
100
AcDbProxyObject
 90
      499
 91
      509
 95
       25
 70
     0
 93
      172
310
00010144105350555513D11253505494905391D15010
330
48
 94
        0
  0
ACAD_PROXY_OBJECT
  5
DB
330
48
100
AcDbProxyObject
 90
      499
 91
      509
 95
       25
 70
     0
 93
      124
310
00010142D05351561514915191125360
330
48
 94
        0
  0
ACAD_PROXY_OBJECT
  5
DC
330
48
100
AcDbProxyObject
 90
      499
 91
      509
 95
       25
 70
     0
 93
      132
310
00010142D05355105410539393D5115010
330
48
 94
        0
  0
ACAD_PROXY_OBJECT
  5
DD
330
48
100
AcDbProxyObject
 90
      499
 91
      509
 95
       25
 70
     0
 93
      108
310
00010142105350555513D0D31010
330
48
 94
        0
  0
ACAD_PROXY_OBJECT
  5
DE
330
48
100
AcDbProxyObject
 90
      499
 91
      509
 95
       25
 70
     0
 93
      108
310
00010142105350D3119150551050
330
48
 94
        0
  0
ACAD_PROXY_OBJECT
  5
DF
330
48
100
AcDbProxyObject
 90
      499
 91
      509
 95
       25
 70
     0
 93
      108
310
00010142105350D315925155D3F0
330
48
 94
        0
  0
ACAD_PROXY_OBJECT
  5
E0
330
48
100
AcDbProxyObject
 90
      499
 91
      509
 95
       25
 70
     0
 93
      148
310
0001014350535212511156915493D112535010
330
48
 94
        0
  0
ACAD_PROXY_OBJECT
  5
E1
330
48
100
AcDbProxyObject
 90
      499
 91
      509
 95
       25
 70
     0
 93
      124
310
00010142905352105510D21254D3D010
330
48
 94
        0
  0
ACAD_PROXY_OBJECT
  5
E2
330
48
100
AcDbProxyObject
 90
      499
 91
      509
 95
       25
 70
     0
 93
      148
310
00010143905354D25391D31152105513105660
330
48
 94
        0
  0
ACAD_PROXY_OBJECT
  5
E3
330
48
100
AcDbProxyObject
 90
      499
 91
      509
 95
       25
 70
     0
 93
      124
310
00010142D0535115D1D193111254D420
330
48
 94
        0
  0
ACAD_PROXY_OBJECT
  5
E4
330
48
100
AcDbProxyObject
 90
      499
 91
      509
 95
       25
 70
     0
 93
      100
310
00010142105350555513D213A0
330
48
 94
        0
  0
ACAD_PROXY_OBJECT
  5
E5
330
48
100
AcDbProxyObject
 90
      499
 91
      509
 95
       25
 70
     0
 93
      116
310
000101425053521390D3D553951010
330
48
 94
        0
  0
ACAD_PROXY_OBJECT
  5
E6
330
48
100
AcDbProxyObject
 90
      499
 91
      509
 95
       25
 70
     0
 93
      108
310
0001014210535213941493D29010
330
48
 94
        0
  0
ACAD_PROXY_OBJECT
  5
E7
330
48
100
AcDbProxyObject
 90
      499
 91
      509
 95
       25
 70
     0
 93
      108
310
0001014210535213951654115070
330
48
 94
        0
  0
ACAD_PROXY_OBJECT
  5
E8
330
48
100
AcDbProxyObject
 90
      499
 91
      509
 95
       25
 70
     0
 93
      108
310
000101421053521395925155D0F0
330
48
 94
        0
  0
ACAD_PROXY_OBJECT
  5
E9
330
48
100
AcDbProxyObject
 90
      499
 91
      509
 95
       25
 70
     0
 93
      140
310
00010143505354D150D51253D390D3D41660
330
48
 94
        0
  0
ACAD_PROXY_OBJECT
  5
EA
330
48
100
AcDbProxyObject
 90
      499
 91
      509
 95
       25
 70
     0
 93
      108
310
00010142105350D3141493D29030
330
48
 94
        0
  0
ACAD_PROXY_OBJECT
  5
EB
330
48
100
AcDbProxyObject
 90
      499
 91
      508
 95
       25
 70
     0
 93
      212
310
00010143905350555513D2105510D21493D500000000000002E400
330
48
 94
        0
  0
ACAD_PROXY_OBJECT
  5
EC
330
48
100
AcDbProxyObject
 90
      499
 91
      509
 95
       25
 70
     0
 93
      156
310
00010143905350555513D2105510D21111551010
330
48
 94
        0
  0
ACAD_PROXY_OBJECT
  5
F5
330
48
100
AcDbProxyObject
 90
      499
 91
      553
 95
       25
 70
     0
 93
      706
310
0001000000009AA6A9AA4051E576564204665622031392032313A35383A3234203230303320285554432901420DCB8C0B8CCE4B8E00518547565204F63742031322031343A31383A303420323031300141CE4B8C8B8C0B8C80
330
48
330
F6
330
F7
330
F9
330
0
 94
        0
  0
ACAD_PROXY_OBJECT
  5
F6
330
48
100
AcDbProxyObject
 90
      499
 91
      554
 95
       25
 70
     0
 93
       70
310
0001AAA80820000000
330
48
330
F6
330
F6
 94
        0
  0
ACAD_PROXY_OBJECT
  5
F7
330
48
100
AcDbProxyObject
 90
      499
 91
      555
 95
       25
 70
     0
 93
       48
310
000100000000
330
48
330
0
330
F8
330
0
330
0
 94
        0
  0
ACAD_PROXY_OBJECT
  5
F8
330
48
100
AcDbProxyObject
 90
      499
 91
      556
 95
       25
 70
     0
 93
       40
310
000100AAAA
330
48
330
0
 94
        0
  0
ACAD_PROXY_OBJECT
  5
FE
330
48
100
AcDbProxyObject
 90
      499
 91
      523
 95
       25
 70
     0
 93
      180
310
00010143105050D3D35411119390535140504434F4D500
330
48
 94
        0
  0
ACAD_PROXY_OBJECT
  5
FF
330
48
100
AcDbProxyObject
 90
      499
 91
      523
 95
       25
 70
     0
 93
      212
310
0001014390505193D311115491119390535140506466F6C6465720
330
48
 94
        0
  0
ACAD_PROXY_OBJECT
  5
100
330
48
100
AcDbProxyObject
 90
      499
 91
      523
 95
       25
 70
     0
 93
      180
310
00010143105050539393D1119390535140504284156290
330
48
 94
        0
  0
ACAD_PROXY_OBJECT
  5
101
330
48
100
AcDbProxyObject
 90
      499
 91
      523
 95
       25
 70
     0
 93
      436
310
00010143905050D3D35415925155D31254D50052295BD96CA0A90B396CA0A894591A496CA0A8DB691A496CA0A89BA96CA0A95E28F95310
330
48
 94
        0
  0
ACAD_PROXY_OBJECT
  5
106
330
48
100
AcDbProxyObject
 90
      499
 91
      561
 95
       25
 70
     0
 93
       32
310
00010000
330
48
340
103
330
108
330
103
 94
        0
  0
ACAD_PROXY_OBJECT
  5
107
330
48
100
AcDbProxyObject
 90
      499
 91
      562
 95
       25
 70
     0
 93
       18
310
000180
330
48
 94
        0
  0
ACAD_PROXY_OBJECT
  5
108
330
48
100
AcDbProxyObject
 90
      499
 91
      563
 95
       25
 70
     0
 93
      226
310
0001014450CC0D11CB54D0D310D48C0CD60C4B4C0D5050055401550000
330
48
330
106
330
107
 94
        0
  0
ACAD_PROXY_OBJECT
  5
109
330
48
100
AcDbProxyObject
 90
      499
 91
      564
 95
       25
 70
     0
 93
      178
310
000100AAAAAA971AC18A986996926043BCB39CDE285C80
330
48
330
108
 94
        0
  0
ACAD_PROXY_OBJECT
  5
10A
330
48
100
AcDbProxyObject
 90
      499
 91
      565
 95
       25
 70
     0
 93
      108
310
000190140A000000000000AAAAA0
330
48
330
10B
330
10B
330
10B
330
10B
330
10B
330
0
 94
        0
  0
ACAD_PROXY_OBJECT
  5
10B
330
48
100
AcDbProxyObject
 90
      499
 91
      566
 95
       25
 70
     0
 93
       51
310
00010000AAAA80
330
48
330
10A
330
108
 94
        0
  0
ACAD_PROXY_OBJECT
  5
34D
330
48
100
AcDbProxyObject
 90
      499
 91
      509
 95
       25
 70
     0
 93
      148
310
0001014350535311D0D3D313D49353D1115010
330
48
 94
        0
  0
DICTIONARY
  5
42
102
{ACAD_REACTORS
330
41
102
}
330
41
100
AcDbDictionary
281
     1
  3
DWGSETTINGS
350
43
  3
FEM
350
AA
  3
Shaft
350
A7
  3
TRANSSETTINGS
350
44
  0
ACAD_PROXY_OBJECT
  5
63
102
{ACAD_REACTORS
330
41
102
}
330
41
100
AcDbProxyObject
 90
      499
 91
      525
 95
       25
 70
     0
 93
    17920
310
41502491013041105357CC201C00030C011E441013141105357CC603800030C011E441013241105357CCA01400030C011E441013341105357CCE01800030C010D9013441105357CD200C00030C010D9013541105357CD600C00030C010D9013641105357CDA00800030C011E9013741105357CDE01000030C010D901384110
310
5357CE200400030C011E9013941105357CE63F400030C0241102324141505357CC4C201C00030C011E902344141505357CC4C600C00030C010D902495041505357CC4CA01C00030C011E40902304E41505357CC13A01C00030C011E902314E41505357CC53A03800030C011E902324E41505357CC93A01400030C011E90233
310
4E41505357CCD3A01800030C010D902344E41505357CD13A00C00030C010D902354E41505357CD53A00C00030C010D902364E41505357CD93A00800030C011E902374E41505357CDD3A01000030C010D902384E41505357CE13A00400030C011E902394E41505357CE53A3F400030C024110332414E41905357CC4C13A01C0
310
0030C011E90334414E41905357CC4C53A00C00030C010D90349504E41905357CC4C93A01C00030C011E409044B4C494E41505357D0D3200400030C011E42504494E464F42105357D410549151A01000030C010D42D055241484D3541905357D093D4A01C00030C011E425045649455742105357D5925155D4E00400030C011
310
E42D06424548494E4441905357D25395A3F400030C0243505545241494C41505357D514A00C00030C010D4250348494441905357D21251201C00030C011E4250356495341905357D59254E01C00030C011E4250650415244494D42505357D41054911253600C00030C010D4250652454644494D42505357D49151911253601
310
000030C010D425534110921395901398000000C0003FFFFFFFE415092139594D06424548494E448000000C0003FFFFFFFE411093D48C9055241484D358010000C30047A411093D48CD055241484D358020000C30047A411093D48D5055241484D358000000C0003FFFFFFFE4110D0530C901348000000C0003FFFFFFFE4110
310
D0530CD01348020000C30047A4110D0530D501348070000C30047A4110D0530DD013481E0000C30047A4110D15393901378000000C0003FFFFFFFE4110D15395D01378000000C0003FFFFFFFE4110D312539044B4C494E8000000C0003FFFFFFFE4110D3D38C501308000000C0003FFFFFFFD034110D3D38C901318000000C
310
0003FFFFFFFD034110D3D38CD01328000000C0003FFFFFFFD034110D3D38D101328000000C0003FFFFFFFD034111115510501348000000C0003FFFFFFFE4111125051D01358000000C0003FFFFFFFE4111125312501358000000C0003FFFFFFFE411112535410650415244494D8000000C0003FFFFFFFE4111125354906524
310
54644494D8000000C0003FFFFFFFE4111915353901388000000C0003FFFFFFFE415191535413901388030000C3004364151915354D410234418000000C0003FFFFFFFE4151915354D510234418030000C300436415191535593901328000000C0003FFFFFFFE415191535595101328030000C3004364112105510D01388000
310
000C0003FFFFFFFD014112125113901338000000C0003FFFFFFFD034112125115D01338000000C0003FFFFFFFD034112131253901348000000C0003FFFFFFFD01411213D0D3901378000000C0003FFFFFFFE411213D0D5D01378000000C0003FFFFFFFE4112539193D04494E464F8000000C0003FFFFFFFE41131150511013
310
58000000C0003FFFFFFFE419397D0921395902394E8000000C0003FFFFFFFE419397D0D3D38C502304E8000000C0003FFFFFFFD03419397D0D3D38C902314E8000000C0003FFFFFFFD03419397D0D3D38CD02324E8000000C0003FFFFFFFD03419397D0D3D38D102324E8000000C0003FFFFFFFD03419397D0D15393902374
310
E8000000C0003FFFFFFFE419397D0D15395D02374E8000000C0003FFFFFFFE419397D1125312502354E8000000C0003FFFFFFFE419397D2105510D02384E8000000C0003FFFFFFFD01419397D2125113902334E8000000C0003FFFFFFFD03419397D2125115D02334E8000000C0003FFFFFFFD03419397D3115051102354E8
310
000000C0003FFFFFFFE419397D391D25410349504E8000000C0003FFFFFFFE419397D412105390334414E8000000C0003FFFFFFFE419397D510D3D3902304E8000000C0003FFFFFFFD03419397D5121312502344E8000000C0003FFFFFFFD01419397D5131153902304E8000000C0003FFFFFFFD03419397D5941312503324
310
14E8000000C0003FFFFFFFE411391D25410249508000000C0003FFFFFFFE411410530C9055241484D358010000C30047A411410530CD055241484D358020000C30047A411410530D5055241484D358000000C0003FFFFFFFE411412105390234418000000C0003FFFFFFFE411413D4D3901358000000C0003FFFFFFFE41149
310
0D1D3901378000000C0003FFFFFFFE411490D1D5D01378000000C0003FFFFFFFE4114D09492D01348000000C0003FFFFFFFD014114D150D5101348000000C0003FFFFFFFD014114D6508CD01358020000C30047A411354D653501358020000C30047A411510D3D3901308000000C0003FFFFFFFD0341151213125013480000
310
00C0003FFFFFFFD01411512550C9055241484D358010000C30047A411512550CD055241484D358020000C30047A411512550D5055241484D358000000C0003FFFFFFFE4115131153901308000000C0003FFFFFFFD03415514905253105545241494C8000000C0003FFFFFFFE4115149312501348000000C0003FFFFFFFD014
310
11516150C501368030000C300436411516150C901368030000C300436411516150CD01368000000C0003FFFFFFFE411516150D501368070000C30047A411516150DD013681E0000C30047A4115925155D04564945578000000C0003FFFFFFFE41159151121034849448000000C0003FFFFFFFD024115915115903564953800
310
0000C0003FFFFFFFD02411594131250232418000000C0003FFFFFFFE4116925690501348000000C0003FFFFFFFD01AAA3F400030C01013F90A4391E41D1E4190D4151E4110D40D0D4091E4051E4791E7F6
340
16
340
16
340
16
340
64
340
16
340
16
340
16
340
65
340
16
340
16
340
65
340
66
340
16
340
16
340
16
340
16
340
64
340
16
340
16
340
16
340
65
340
16
340
16
340
65
340
66
340
16
340
67
340
16
340
16
340
16
340
16
340
16
340
64
340
16
340
16
340
16
340
15
340
15
340
15
340
15
340
15
340
15
340
15
340
15
340
15
340
68
340
15
340
15
340
15
340
15
340
15
340
15
340
15
340
15
340
15
340
15
340
15
340
15
340
15
340
16
340
15
340
15
340
15
340
15
340
69
340
15
340
15
340
68
340
15
340
15
340
15
340
15
340
15
340
15
340
15
340
15
340
68
340
15
340
15
340
15
340
69
340
15
340
15
340
15
340
15
340
15
340
15
340
15
340
15
340
15
340
15
340
15
340
15
340
15
340
15
340
68
340
15
340
15
340
15
340
15
340
15
340
15
340
15
340
15
340
15
340
15
340
15
340
15
340
15
340
15
340
15
340
15
340
15
340
15
340
15
340
15
340
15
340
15
340
6C
 94
        0
  0
ACAD_PROXY_OBJECT
  5
1BD
102
{ACAD_REACTORS
330
1B8
102
}
330
1B8
100
AcDbProxyObject
 90
      499
 91
      580
 95
       25
 70
     0
 93
      253
310
43D1444494D454E53494F4E2C414D44545F2A5F44494D404A9012A404A9012A8
  0
ACAD_PROXY_OBJECT
  5
1BC
102
{ACAD_REACTORS
330
1B8
102
}
330
1B8
100
AcDbProxyObject
 90
      499
 91
      580
 95
       25
 70
     0
 93
      181
310
43D012A42D05357D191504B505357CA9012A404A9012A8
  0
ACAD_PROXY_OBJECT
  5
1B9
102
{ACAD_REACTORS
330
1B8
102
}
330
1B8
100
AcDbProxyObject
 90
      499
 91
      580
 95
       25
 70
     0
 93
      133
310
43D054841544348404A9012A404A9012A8
  0
ACAD_PROXY_OBJECT
  5
1BA
102
{ACAD_REACTORS
330
1B8
102
}
330
1B8
100
AcDbProxyObject
 90
      499
 91
      580
 95
       25
 70
     0
 93
      549
310
43D044C494E4549CE0B0E138B0A8B4E0B0A8B4E138B105357CE0B105357CE138B0A8B505357CE0B0A8B505357CE139012A404A910494E534552542C5354445041525432448
  0
ACAD_PROXY_OBJECT
  5
1BE
102
{ACAD_REACTORS
330
1B8
102
}
330
1B8
100
AcDbProxyObject
 90
      499
 91
      580
 95
       25
 70
     0
 93
      181
310
43D0341524341105357CD5012A404C906494E534552540
  0
ACAD_PROXY_OBJECT
  5
1BB
102
{ACAD_REACTORS
330
1B8
102
}
330
1B8
100
AcDbProxyObject
 90
      499
 91
      580
 95
       25
 70
     0
 93
     1053
310
43D7841434D46434652414D452C41434D444154554D5441524745542C41434D444154554D49442C41434D57454C4453594D2C41434D5355524653594D2C41434D4645415449442C41434D504152545245462C41434D42414C4C4F4F4E2C414D44544544474553594D2C414D47534352455743414C435441424C45404A9012A
310
404A9012A8
  0
ACAD_PROXY_OBJECT
  5
5D
102
{ACAD_REACTORS
330
5C
102
}
330
5C
100
AcDbProxyObject
 90
      499
 91
      522
 95
       25
 70
     0
 93
      157
310
057356C1D77406406AA8FFFFFFFF05DD01009010
330
1F
330
0
330
108
 94
        0
  0
ACAD_PROXY_OBJECT
  5
62
102
{ACAD_REACTORS
330
61
102
}
330
61
100
AcDbProxyObject
 90
      499
 91
      524
 95
       25
 70
     0
 93
     2497
310
5DC0000000000000C408000000C00040D254D3D01640600800030C0200800030C000000000000000C40C88A2085A0B6B23A22B233B2A9BA3220480A1C82C6DAA6EAE4CCA8CAF0E8A6E8C88120284A0B1B6A321A329BA3220480A1A82C6DAAECAD8C8D2DCCEA6E8C8812028420B1B6A4B229BA3220480A1682C6DA88C2E8EAD
310
AA6E8C88120284A0B1B6A127A6A9BA3220480A2082DAC8E888CAE8C2D2D8A6F2DAA6E8C88120288A0B6B23A29B2B1BA34B7B729BCB6A9BA3220480A2282DAC8E886CADCE8CAE498D2DCCAA6E8C88120285A0B6B23A2737BA32A9BA3220480A1682C682DACE98C2F2A6E8C88120285A0B1A0B6B3A234B6A9BA3220480A2282C
310
682DACE90DED8CA86D0C2E4E8A6E8C88120286A0B1A0B6B3AA34BA3632A9BA3220480A2282DAC8E8A8D0E4CAC2C898D2DCCAA6E8C8812032048080
340
6D
360
6E
360
6F
360
70
360
71
360
72
360
73
360
74
360
75
360
76
360
77
360
78
360
7F
360
80
360
8C
360
8D
360
10D
340
0
340
0
 94
        0
  0
ACAD_PROXY_OBJECT
  5
1FE
102
{ACAD_REACTORS
330
61
102
}
330
61
100
AcDbProxyObject
 90
      499
 91
      581
 95
       25
 70
     0
 93
     2387
310
5DC33333333333309408030000C30040D29254D01640600800030C0200800030C003333333333330940C8121E8720B1B6A9BAB9332A32BC3A29BA3220480A1282C6DA8C868CA6E8C88120286A0B1B6ABB2B63234B733A9BA3220480A1082C6DA92C8A6E8C88120285A0B1B6A230BA3AB6A9BA3220480A1282C6DA849E9AA6E
310
8C8812028820B6B23A2232BA30B4B629BCB6A9BA3220480A2282DAC8E8A6CAC6E8D2DEDCA6F2DAA6E8C88120288A0B6B23A21B2B73A32B92634B732A9BA3220480A2282DAC8E8A8D0E4CAC2C898D2DCCAA6E8C88120285A0B6B23A2737BA32A9BA3220480A1682C682DACE98C2F2A6E8C88120285A0B1A0B6B3A234B6A9BA3
310
220480A2282C682DACE90DED8CA86D0C2E4E8A6E8C88120286A0B1A0B6B3AA34BA3632A9BA3220480A02812020
340
1FF
360
200
360
201
360
202
360
203
360
204
360
205
360
206
360
207
360
208
360
209
360
20A
360
214
360
215
360
223
360
224
340
0
340
0
 94
        0
  0
ACAD_PROXY_OBJECT
  5
43
102
{ACAD_REACTORS
330
42
102
}
330
42
100
AcDbProxyObject
 90
      499
 91
      504
 95
       25
 70
     0
 93
     2640
310
4050B44574753455454494E4753A1286829C8E82A4A482B282A106660F8686AF86C608321A2A720A723A0A849A1ABE1C983E18999AA0C868A9C889282940000000000000488083A1A2A72224A0A9A0A8418983E19183E199820E868A9C8892A6A894000000000000010808321A2A72622A7250000000000000122020C868A9
310
C9E8C8C940000000000000488083A1A2A727A32318A50000000000000122020E868A9C9E8C8C64940000000000000488084A1A624A720A92920ACA0A8198971CA108698929C8AA8B2A082A0AB098929C8A84A22BA3AAA9A1A0A622A50A0E9882A6A89E849482A02608426A0A5A2AB24A2ABA7E8120CA0A68682988A0C00800
310
010652455649534941501304154D0D0531150540CC4E8C50954494D455354414D504A0266D4442792B734141D5915494D253D3905414C4D4B8C0C1107B44574753455454494E4753454E447D
  0
ACAD_PROXY_OBJECT
  5
AA
102
{ACAD_REACTORS
330
42
102
}
330
42
100
AcDbProxyObject
 90
      499
 91
      504
 95
       25
 70
     0
 93
      411
310
4050346454D21092DCC6E486DECACC942842630BCA3B937BAB820A8320A6AFA322A0A20F688AE8EA68AA8A8929C8EA68A9C88FA0
  0
ACAD_PROXY_OBJECT
  5
A7
102
{ACAD_REACTORS
330
42
102
}
330
42
100
AcDbProxyObject
 90
      499
 91
      504
 95
       25
 70
     0
 93
      513
310
40505536861667421292DCE8CAE4E4EAE0E89FC84A634B3B43A2634B732A7F21A98D2CED0E898D2DCCAACD2CAEE9FC883DA22BA3A9A2AA2A24A723A9A2A7223E80
  0
ACAD_PROXY_OBJECT
  5
44
102
{ACAD_REACTORS
330
42
102
}
330
42
100
AcDbProxyObject
 90
      499
 91
      504
 95
       25
 70
     0
 93
      852
310
4050D5452414E5353455454494E4753A2488A482AE929C8EA8A4829CA69882A8929E9C0C00800050D4F524947494E414C4C595F4F4E0600400028529A7AAA921A2A620A723A0A81A52827212AAA0A48AA68AA4AC8A0C0080001107B44574753455454494E4753454E447D0
  0
ACAD_PROXY_OBJECT
  5
6E
330
62
100
AcDbProxyObject
 90
      499
 91
      526
 95
       25
 70
     0
 93
       13
310
5DD0
  0
ACAD_PROXY_OBJECT
  5
6F
330
62
100
AcDbProxyObject
 90
      499
 91
      527
 95
       25
 70
     0
 93
       96
310
5DEA0E80A0280A0280A0280F
  0
ACAD_PROXY_OBJECT
  5
70
330
62
100
AcDbProxyObject
 90
      499
 91
      528
 95
       25
 70
     0
 93
      272
310
5DD0E4050140501405014050140501405014050140D01405012C0000000000000040
340
79
 94
        0
  0
ACAD_PROXY_OBJECT
  5
71
330
62
100
AcDbProxyObject
 90
      499
 91
      529
 95
       25
 70
     0
 93
      497
310
5DE8666666666667A67E199999999999E99FD22405014050140501405014050140501405014050140501405014050140501405014050140501405014050100
340
7A
 94
        0
  0
ACAD_PROXY_OBJECT
  5
72
330
62
100
AcDbProxyObject
 90
      499
 91
      530
 95
       25
 70
     0
 93
       10
310
5DC0
  0
ACAD_PROXY_OBJECT
  5
73
330
62
100
AcDbProxyObject
 90
      499
 91
      531
 95
       25
 70
     0
 93
      257
310
5DE290EA22A7D90F49F80000000000001081400000000000004204010000618000
340
7B
340
7C
 94
        0
  0
ACAD_PROXY_OBJECT
  5
74
330
62
100
AcDbProxyObject
 90
      499
 91
      532
 95
       25
 70
     0
 93
    13453
310
5DD0E411255115350141236025B690140501406901000000000000091013347454E545241434F2C4A504E2C302C8D8096DA2C47454E54524154582C25732C2847454E4D53472067656E647767203232322940690120281A8AA2CA0282484A4BE52028120280A0320200000000000012202668E8A9CA8A482869E5894A09C58
310
605921292F94588E8A9CA8A482A8B0584AE658508E8A9C9AA68E40CECADCC8EECE406464665280D202405044E414D454050496BC914F4051C40640A80000000000004E404CD1D15395149050D3CB1294138B0C0B25AF2453CB11D15395149055160B095CCB0A11D1539354D1C819D95B991DD9C80C8C8D8A50192C3D494628
310
4953424C414E4B28504152543A4E414D45292C424C4F434B3A4E414D452C504152543A4E414D452940480A0A888AA686A480A09251B1DBE80A3A80C81D0000000000100A28099A3A2A72A2920A1A7962528271618164946C76F9623A2A72A2920AA2C1612B9961423A2A726A9A39033B2B7323BB39019189B94A0348090142
310
14D51053911054911014122D2E29A50147501904A000000000000125013347454E545241434F2C4A504E2C302C8B4B8A692C47454E54524154582C25732C2847454E4D53472067656E64776720323138294069012028426A0AA22A924A0A62028246EF4BDFA028EA0320B40000000000001CA02668E8A9CA8A482869E5894A
310
09C5860591BBD2F7E588E8A9CA8A482A8B0584AE658508E8A9C9AA68E40CECADCC8EECE406464625280D202405044E4F544540504928D8B4C4051D40641A80000000000003E404CD1D15395149050D3CB1294138B0C0B24A362D30B11D15395149055160B095CCB0A11D1539354D1C819D95B991DD9C80C8C8D4A501240480
310
A0CAC8A9C889EA480A1106F1072706BF02B680A3A80C83D00000000000007C809BA3A2A72A2920A1A79625282716181641BC41C9C1AFC0AD9623A2A72A2920AA2C1612B9961423A2A726A9A39033B2B7323BB39019191A14A0248090141911154D0D48C90141A43825AF880C90147501908A000000000020145013447454E5
310
45241434F2C4A504E2C302C90E096BE20322C47454E54524154582C25732C2847454E4D53472067656E6477672033362940490120284A9AA20A72220A922192028345A5C53490192028EA03213400000000000024A026A8E8A9CA8A482869E5894A09C586059169714D24064588E8A9CA8A482A8B0584AE658508E8A9C9AA6
310
8E40CECADCC8EECE4064646052809202405094D4154455249414C32405068DDE97BF20324051D40642A8713D0AD7A37045404D11D15395149050D3CB1294138B0C0B2377A5EFC80C8B11D15395149055160B095CCB0A11D1539354D1C819D95B991DD9C80D0C0A501240480A089A82A6A680A091D7F2F9480A3A80A0485A06
310
8100000000000007C809923A2A72A2920A1A796252827161816475FCBE51623A2A72A2920AA2C1612B9961423A2A726A9A39033B2B7323BB3901A1914A024809014154149250D150141226FE29A501475014090C409020000000000000F9013247454E545241434F2C4A504E2C302C89BF8A692C47454E54524154582C2573
310
2C2847454E4D53472067656E6477672034332940490120281A224A6A02824850CB202028EA028121A81A040000000000001F202648E8A9CA8A482869E5894A09C58605921432C80588E8A9CA8A482A8B0584AE658508E8A9C9AA68E40CECADCC8EECE406868528092024050E445020000000000000510201C00030C0001018
310
0000000000003E400000000000000F901073D3C4954454D3E4050180000000000003E400000000000000F901073D3C4954454D3E40501800000000000034400000000000000D101073D3C4954454D3E40501800000000000034400000000000000D101073D3C4954454D3E405029010000000000000F9000000000000003E4
310
041CF4F125511534F901418F4F1455164F9014060000000000000F9000000000000003E4041CF4F125511534F9014060000000000000D100000000000000344041CF4F125511534F901901000000000000000F9000000000000003E40A2200000000000008204018000618048220681A048120280A0D2B292AD32AB8882148
310
421F04D904E44104DF06A706AD06C5069C8820321F04D904E44104DF06A706AD06C5069C8520321F04D904E44104DF06A706AD06C5069C8452028521485214814000000000000F0BF0000000000003C2FD018020000C3008070000C3003373333333333B0FCCDCCCCCCCCCCEC3F00000000000003101203416405034110590
310
1A000000000000062040100006180401000061804008000618008098A02808
340
0
340
0
 94
        0
  0
ACAD_PROXY_OBJECT
  5
75
330
62
100
AcDbProxyObject
 90
      499
 91
      533
 95
       25
 70
     0
 93
      898
310
5DC4000000000000144048CF4F11115510525317D3105091530F880A0F11115510525317D05094D4D0D053114F8A51141C9A9999999999B93F26A666666666724FC000000000000E03F400000000000000400000000000000510000000000000024408070000C300000000000000051000
340
16
340
6D
 94
        0
  0
ACAD_PROXY_OBJECT
  5
76
330
62
100
AcDbProxyObject
 90
      499
 91
      534
 95
       25
 70
     0
 93
      823
310
5DC0B00000000000002880959E9E29A2A1AA24A7A72FA620A122A62FA324A929AA1F169E29A2A1AA24A7A72FA620A122A62FA620A9AA1F000000000000048803FFFE01C00030C0088C0380006180000000000000048800000000000000A2000000000000002880
340
7E
340
6D
 94
        0
  0
ACAD_PROXY_OBJECT
  5
77
330
62
100
AcDbProxyObject
 90
      499
 91
      535
 95
       25
 70
     0
 93
      152
310
5DE80000000000000840A3D0A5723F0BD1F200
  0
ACAD_PROXY_OBJECT
  5
78
330
62
100
AcDbProxyObject
 90
      499
 91
      536
 95
       25
 70
     0
 93
     5143
310
5DD084050BA4050AA405024050A54656D706C6174652031405BE3D2525633C486F6C653A63746469613E2078203C486F6C653A637464657074683E20555C503C696628657175616C28486F6C653A7461707065642C223022292C222525632220486F6C653A6469612C20486F6C653A6E6F6D696E616C20222078202220486F
310
6C653A70697463686465736320222078202220486F6C653A7461706465707468293E203C696628657175616C28486F6C653A7465726D696E6174696F6E2C223022292C22202F202220486F6C653A64657074682C222022293E406901405034050A54656D706C6174652031405BF3D2525633C486F6C653A63746469613E207
310
8203C486F6C653A6374616E676C653E2525645C503C696628657175616C28486F6C653A7461707065642C223022292C222525632220486F6C653A6469612C20486F6C653A6E6F6D696E616C20222078202220486F6C653A70697463686465736320222078202220486F6C653A7461706465707468293E203C6966286571756
310
16C28486F6C653A7465726D696E6174696F6E2C223022292C22202F202220486F6C653A64657074682C222022293E406901405014050A54656D706C61746520314059A3D3C696628657175616C28486F6C653A7461707065642C223022292C222525632220486F6C653A6469612C20486F6C653A6E6F6D696E616C20222078
310
202220486F6C653A70697463686465736320222078202220486F6C653A7461706465707468293E203C696628657175616C28486F6C653A7465726D696E6174696F6E2C223022292C22202F202220486F6C653A64657074682C222022293E4069014051E4050A54656D706C61746520314050C3D3C535444503A444553433E4
310
0690140515AAAB5C
360
1AA
330
1AA
360
1AB
330
1AB
360
1AC
330
1AC
360
1AD
330
1AD
 94
        0
  0
ACAD_PROXY_OBJECT
  5
7F
330
62
100
AcDbProxyObject
 90
      499
 91
      537
 95
       25
 70
     0
 93
    17870
310
5DD02491013041105357CC201C00030C0132441013141105357CC603800030C0132441013241105357CCA01400030C0132441013341105357CCE01800030C01199013441105357CD200C00030C01199013541105357CD600C00030C01199013641105357CDA00800030C01239013741105357CDE01000030C0119901384110
310
5357CE200400030C01199013941105357CE63F400030C0241102324141505357CC4C201C00030C0132902344141505357CC4C600C00030C0119902495041505357CC4CA01C00030C013240902304E41505357CC13A01C00030C0132902314E41505357CC53A03800030C0132902324E41505357CC93A01400030C013290233
310
4E41505357CCD3A01800030C0119902344E41505357CD13A00C00030C0119902354E41505357CD53A00C00030C0119902364E41505357CD93A00800030C0123902374E41505357CDD3A01000030C0119902384E41505357CE13A00400030C0119902394E41505357CE53A3F400030C024110332414E41905357CC4C13A01C0
310
0030C013290334414E41905357CC4C53A00C00030C011990349504E41905357CC4C93A01C00030C0132409044B4C494E41505357D0D3200400030C011942504494E464F42105357D410549151A01000030C011942D055241484D3541905357D093D4A01C00030C0132425045649455742105357D5925155D4E00400030C011
310
942D06424548494E4441905357D25395A3F400030C0243505545241494C41505357D514A00C00030C01194250348494441905357D21251201C00030C01194250356495341905357D59254E01C00030C01324250650415244494D42505357D41054911253600C00030C01194250652454644494D42505357D49151911253601
310
000030C0119425534110921395901398000000C0003FFFFFFFE415092139594D06424548494E448000000C0003FFFFFFFE411093D48C9055241484D358010000C300466411093D48CD055241484D358020000C30048E411093D48D5055241484D358000000C0003FFFFFFFE4110D0530C901348000000C0003FFFFFFFE4110
310
D0530CD01348020000C30048E4110D0530D501348070000C3004CA4110D0530DD013481E0000C30051A4110D15393901378000000C0003FFFFFFFE4110D15395D01378000000C0003FFFFFFFE4110D312539044B4C494E8000000C0003FFFFFFFE4110D3D38C501308000000C0003FFFFFFFD034110D3D38C901318000000C
310
0003FFFFFFFD034110D3D38CD01328000000C0003FFFFFFFD034110D3D38D101328000000C0003FFFFFFFD034111115510501348000000C0003FFFFFFFE4111125051D01358000000C0003FFFFFFFE4111125312501358000000C0003FFFFFFFE411112535410650415244494D8000000C0003FFFFFFFE4111125354906524
310
54644494D8000000C0003FFFFFFFE4111915353901388000000C0003FFFFFFFE415191535413901388030000C3003FFFFFFFE4151915354D410234418000000C0003FFFFFFFE4151915354D510234418030000C300466415191535593901328000000C0003FFFFFFFE415191535595101328030000C3004664112105510D01
310
388000000C0003FFFFFFFD014112125113901338000000C0003FFFFFFFD034112125115D01338000000C0003FFFFFFFD034112131253901348000000C0003FFFFFFFD01411213D0D3901378000000C0003FFFFFFFE411213D0D5D01378000000C0003FFFFFFFE4112539193D04494E464F8000000C0003FFFFFFFE41131150
310
51101358000000C0003FFFFFFFE419397D0921395902394E8000000C0003FFFFFFFE419397D0D3D38C502304E8000000C0003FFFFFFFD03419397D0D3D38C902314E8000000C0003FFFFFFFD03419397D0D3D38CD02324E8000000C0003FFFFFFFD03419397D0D3D38D102324E8000000C0003FFFFFFFD03419397D0D15393
310
902374E8000000C0003FFFFFFFE419397D0D15395D02374E8000000C0003FFFFFFFE419397D1125312502354E8000000C0003FFFFFFFE419397D2105510D02384E8000000C0003FFFFFFFD01419397D2125113902334E8000000C0003FFFFFFFD03419397D2125115D02334E8000000C0003FFFFFFFD03419397D311505110
310
2354E8000000C0003FFFFFFFE419397D391D25410349504E8000000C0003FFFFFFFE419397D412105390334414E8000000C0003FFFFFFFE419397D510D3D3902304E8000000C0003FFFFFFFD03419397D5121312502344E8000000C0003FFFFFFFD01419397D5131153902304E8000000C0003FFFFFFFD03419397D5941312
310
50332414E8000000C0003FFFFFFFE411391D25410249508000000C0003FFFFFFFE411410530C9055241484D358010000C300466411410530CD055241484D358020000C30048E411410530D5055241484D358000000C0003FFFFFFFE411412105390234418000000C0003FFFFFFFE411413D4D3901358000000C0003FFFFFFF
310
E411490D1D3901378000000C0003FFFFFFFE411490D1D5D01378000000C0003FFFFFFFE4114D09492D01348000000C0003FFFFFFFD014114D150D5101348000000C0003FFFFFFFD014114D6508CD01358020000C30048E411354D653501358020000C30048E411510D3D3901308000000C0003FFFFFFFD0341151213125013
310
48000000C0003FFFFFFFD01411512550C9055241484D358010000C300466411512550CD055241484D358020000C30048E411512550D5055241484D358000000C0003FFFFFFFE4115131153901308000000C0003FFFFFFFD03415514905253105545241494C8000000C0003FFFFFFFE4115149312501348000000C0003FFFFF
310
FFD01411516150C501368030000C300466411516150C901368030000C300466411516150CD01368000000C0003FFFFFFFE411516150D501368070000C3004CA411516150DD013681E0000C30051A4115925155D04564945578000000C0003FFFFFFFE41159151121034849448000000C0003FFFFFFFD024115915115903564
310
9538000000C0003FFFFFFFD02411594131250232418000000C0003FFFFFFFE4116925690501348000000C0003FFFFFFFD01429014650248D0346504465054C906465074C90E4C91E519FD8
340
63
340
16
340
16
340
16
340
64
340
16
340
16
340
16
340
65
340
16
340
16
340
65
340
66
340
16
340
16
340
16
340
16
340
64
340
16
340
16
340
16
340
65
340
16
340
16
340
65
340
66
340
16
340
67
340
16
340
16
340
16
340
16
340
16
340
64
340
16
340
16
340
16
340
15
340
15
340
15
340
15
340
15
340
15
340
15
340
15
340
15
340
68
340
15
340
15
340
15
340
15
340
15
340
15
340
15
340
15
340
15
340
15
340
15
340
15
340
15
340
16
340
15
340
15
340
15
340
15
340
69
340
15
340
15
340
68
340
15
340
15
340
15
340
15
340
15
340
15
340
15
340
15
340
68
340
15
340
15
340
15
340
69
340
15
340
15
340
15
340
15
340
15
340
15
340
15
340
15
340
15
340
15
340
15
340
15
340
15
340
15
340
68
340
15
340
15
340
15
340
15
340
15
340
15
340
15
340
15
340
15
340
15
340
15
340
15
340
15
340
15
340
15
340
15
340
15
340
15
340
15
340
15
340
15
340
15
340
6C
 94
        0
  0
ACAD_PROXY_OBJECT
  5
80
330
62
100
AcDbProxyObject
 90
      499
 91
      538
 95
       25
 70
     0
 93
      250
310
5DD020000000000000A1000000000000002440408F0F9023C3E409A0DCFFFF80
340
81
340
0
340
0
340
82
340
83
340
84
340
85
340
86
340
8B
340
0
 94
        0
  0
ACAD_PROXY_OBJECT
  5
8C
330
62
100
AcDbProxyObject
 90
      499
 91
      539
 95
       25
 70
     0
 93
    14055
310
5DD1D023FFFFFFFD030300030CCCCCCCCCCCC250200800030C01030300030000000000000310200800030C0005134C697374206F6620436F6F7264696E61746573015091D15395149050D3CB1153954B0C0B131A5CDD081BD98810DBDBDC991A5B985D195CCB11D15395149055160B095CCB0A11D1539354D1C819D95B991A
310
5B5E880CCC0A78100C000000000000000000000000000000010CCCCCCCCCCCC250200800030C010CCCCCCCCCCCC250200800030C020143CF4F111959985D5B1D151A5D1B194F8050A486F6C65205461626C65014E51D15395149050D3CB1153954B0C0B121BDB19481518589B194B11D15395149055160B095CCB0A11D1539
310
354D1C819D95B991A5B5E880CCC4A78100C000000000000000000000000000000010CCCCCCCCCCCC250200800030C010CCCCCCCCCCCC250200800030C020143CF4F111959985D5B1D151A5D1B194F90D44111409034110541D0C4350F4050E44D03449074510F000141232D24D7C053447454E545241434F2C454E552C302C
310
4F726967696E2C47454E54524154582C25732C2847454E4D53472067656E64696D7A20312900010105002214000281464500A648E8A9CA8A482869E588A9CAA58605890DED8CA588E8A9CA8A482A8B0584AE658508E8A9C9AA68E40CECADCC8D2DAF4406452029F9E9E27B934B3B4B71F1E24A31427A91424A9A12620A7259
310
427B934B3B4B7149624A9A12620A7259424B73232BC149496111116111711149F1E24B73232BC1F00808200111A000140560052F47454E545241434F2C454E552C302C582C47454E54524154582C25732C2847454E4D53472067656E64696D7A20332900010100002054000280AC80A5E8E8A9CA8A482869E588A9CAA58605
310
8B2588E8A9CA8A482A8B0584AE658508E8A9C9AA68E40CECADCC8D2DAF4406852000202000040E800050172014BD1D15395149050D3CB1153954B0C0B1C8B11D15395149055160B095CCB0A11D1539354D1C819D95B991A5B5E880D8A400040400008250000A05090C029823A2A72A2920A1A79622A72A96181642431623A2
310
A72A2920AA2C1612B9961423A2A726A9A39033B2B73234B6BD101B948000808180105A000140C94958C053147454E545241434F2C454E552C302C2525632C47454E54524154582C25732C2847454E4D53472067656E64696D7A203829000101010020F400028248704B5F00A748E8A9CA8A482869E588A9CAA58605888CAE6
310
C6E4D2E0E8D2DEDC588E8A9CA8A482A8B0584AE658508E8A9C9AA68E40CECADCC8D2DAF440646052000200080043280005048B4B8A69014DD1D15395149050D3CB1153954B0C0B14DD185B99185C990B11D15395149055160B095CCB0A11D1539354D1C819D95B991A5B5E880C8C4A4000400100086D0000A09196926BE029
310
A23A2A72A2920A1A79622A72A96181627B934B3B4B71623A2A72A2920AA2C1612B9961423A2A726A9A39033B2B73234B6BD10189480A026202020A0043E80005048D8096DA014CD1D15395149050D3CB1153954B0C0B125D195B4B11D15395149055160B095CCB0A11D1539354D1C819D95B991A5B5E880C4D0A4000404140
310
080D0000A190687072706CD06C5069D06B0029A23A2A72A2920A1A79622A72A96181624B73232BC1623A2A72A2920AA2C1612B9961423A2A726A9A39033B2B73234B6BD10189A94800080828010EA000143A322A0D0E0E4E0D9A0D8A0D3A0D60053947454E545241434F2C454E552C302C486F6C6520496E6465782C47454E
310
54524154582C25732C2847454E4D53472067656E64696D7A2031372900010105002274000281464500A668E8A9CA8A482869E588A9CAA58605890DED8CA588E8A9CA8A482A8B0584AE658508E8A9C9AA68E40CECADCC8D2DAF440626C52000202080044A8000504909497CA014C91D15395149050D3CB1153954B0C0B145D1
310
E4B11D15395149055160B095CCB0A11D1539354D1C819D95B991A5B5E880C4E4A400040418008A521E000000000000001CA040C00000000000034408080000000000006881010000000000000D102040000000000001A204080000000000003440818000000000000728103000000000000125020600000000004028A04000
310
0000000000034408000000000000004881000000000000000D102000000000000001A204000000000000003440818000000000000508143C0000000000000039408180000000000006881030000000000000D102060000000000001A2040C00000000000034408180000000000006881030000000000000E50206000000000
310
00024A040C000000000080514080000000000000068810000000000000009102000000000000001A2040000000000000034408180000000000006881030000000000000A10283A2000000087800000204000000818000002080000008280000020E00000080A24000000
340
0
340
0
340
0
340
0
340
0
340
0
 94
        0
  0
ACAD_PROXY_OBJECT
  5
8D
330
62
100
AcDbProxyObject
 90
      499
 91
      540
 95
       25
 70
     0
 93
     1578
310
5DD9740D254D3D0649534F5F4133429254D3D7D5125513115051349534F5F42525F5265766973696F6E6C697374A411105265766973696F6E6C6973745F424C5F44D254D3D7D09317D4995D9A5CDA5BDB9B1A5CDD1105265766973696F6E6C6973745F544C5F44D254D3D7D51317D4995D9A5CDA5BDB9B1A5CDD1105265766
310
973696F6E6C6973745F42525F44D254D3D7D09497D4995D9A5CDA5BDB9B1A5CDD1105265766973696F6E6C6973745F54525F44D254D3D7D51497D4995D9A5CDA5BDB9B1A5CDD00
  0
ACAD_PROXY_OBJECT
  5
10D
330
62
100
AcDbProxyObject
 90
      499
 91
      567
 95
       25
 70
     0
 93
       14
310
5DE0
340
0
 94
        0
  0
ACAD_PROXY_OBJECT
  5
200
330
1FE
100
AcDbProxyObject
 90
      499
 91
      582
 95
       25
 70
     0
 93
       86
310
5DEA0C80A0280A0280A034
  0
ACAD_PROXY_OBJECT
  5
201
330
1FE
100
AcDbProxyObject
 90
      499
 91
      583
 95
       25
 70
     0
 93
      282
310
5DD0E4050140501405014050140501405014050141101405014048000000000000001000
340
20B
 94
        0
  0
ACAD_PROXY_OBJECT
  5
202
330
1FE
100
AcDbProxyObject
 90
      499
 91
      584
 95
       25
 70
     0
 93
      387
310
5DC8666666666667A67E6DDB36EDDB36ED9F91740501405014050140501405014050140501405014050140501405014040
340
20C
 94
        0
  0
ACAD_PROXY_OBJECT
  5
203
330
1FE
100
AcDbProxyObject
 90
      499
 91
      585
 95
       25
 70
     0
 93
       10
310
5DC0
  0
ACAD_PROXY_OBJECT
  5
204
330
1FE
100
AcDbProxyObject
 90
      499
 91
      586
 95
       25
 70
     0
 93
      257
310
5DE0C16A22A7D90F49F80000000000001081400000000000004204010000618000
340
20D
340
20E
 94
        0
  0
ACAD_PROXY_OBJECT
  5
205
330
1FE
100
AcDbProxyObject
 90
      499
 91
      587
 95
       25
 70
     0
 93
    13013
310
5DD0E411255115350141236025B690140501406901000000000000091013347454E545241434F2C4A504E2C302C8D8096DA2C47454E54524154582C25732C2847454E4D53472067656E647767203232322940690120281A8AA2CA0282484A4BE52028120280A0320200000000000012202668E8A9CA8A482869E5894A09C58
310
605921292F94588E8A9CA8A482A8B0584AE658508E8A9C9AA68E40CECADCC8EECE406464665280D202405044E414D454050496BC914F4051C40640A80000000000004E404CD1D15395149050D3CB1294138B0C0B25AF2453CB11D15395149055160B095CCB0A11D1539354D1C819D95B991DD9C80C8C8D8A50192C3D494628
310
4953424C414E4B28504152543A4E414D45292C424C4F434B3A4E414D452C504152543A4E414D452940480A0A888AA686A480A09251B1DBE80A3A80C81D0000000000100A28099A3A2A72A2920A1A7962528271618164946C76F9623A2A72A2920AA2C1612B9961423A2A726A9A39033B2B7323BB39019189B94A0348090142
310
14D51053911054911014122D2E29A50147501904A000000000000125013347454E545241434F2C4A504E2C302C8B4B8A692C47454E54524154582C25732C2847454E4D53472067656E64776720323138294069012028426A0AA22A924A0A62028246EF4BDFA028EA0320B40000000000001CA02668E8A9CA8A482869E5894A
310
09C5860591BBD2F7E588E8A9CA8A482A8B0584AE658508E8A9C9AA68E40CECADCC8EECE406464625280D202405044E4F544540504928D8B4C4051D40641A80000000000003E404CD1D15395149050D3CB1294138B0C0B24A362D30B11D15395149055160B095CCB0A11D1539354D1C819D95B991DD9C80C8C8D4A501240480
310
A0CAC8A9C889EA480A1106F1072706BF02B680A3A80C83D00000000000007C809BA3A2A72A2920A1A79625282716181641BC41C9C1AFC0AD9623A2A72A2920AA2C1612B9961423A2A726A9A39033B2B7323BB39019191A14A0248090141911154D0D48C90141A43825AF880C90147501908A000000000020145013447454E5
310
45241434F2C4A504E2C302C90E096BE20322C47454E54524154582C25732C2847454E4D53472067656E6477672033362940490120284A9AA20A72220A922192028345A5C53490192028EA03213400000000000024A026A8E8A9CA8A482869E5894A09C586059169714D24064588E8A9CA8A482A8B0584AE658508E8A9C9AA6
310
8E40CECADCC8EECE4064646052809202405094D4154455249414C32405068DDE97BF20324051D40642A8713D0AD7A37045404D11D15395149050D3CB1294138B0C0B2377A5EFC80C8B11D15395149055160B095CCB0A11D1539354D1C819D95B991DD9C80D0C0A501240480A089A82A6A680A091D7F2F9480A3A80A0485A06
310
8100000000000007C809923A2A72A2920A1A796252827161816475FCBE51623A2A72A2920AA2C1612B9961423A2A726A9A39033B2B7323BB3901A1914A024809014154149250D150141226FE29A501475014090C409020000000000000F9013247454E545241434F2C4A504E2C302C89BF8A692C47454E54524154582C2573
310
2C2847454E4D53472067656E6477672034332940490120281A224A6A02824850CB202028EA028121A81A040000000000001F202648E8A9CA8A482869E5894A09C58605921432C80588E8A9CA8A482A8B0584AE658508E8A9C9AA68E40CECADCC8EECE406868528092024050E445020000000000000490201C00030C0001018
310
0000000000003B400000000000000ED01073D3C4954454D3E4050180000000000003B400000000000000ED01073D3C4954454D3E40501800000000000032400000000000000C901073D3C4954454D3E40501800000000000032400000000000000C901073D3C4954454D3E405029010000000000000ED000000000000003B4
310
041CF4F125511534F901418F4F1455164F9014060000000000000ED000000000000003B4041CF4F125511534F9014060000000000000D100000000000000344041CF4F125511534F901901000000000000000ED000000000000003B40A2200000000000008204018000618048220681A048120280C88214844882034852034
310
8452028521485214814000000000000F0BF0000000000003C2FD018020000C3008070000C3003373333333333B0FCCDCCCCCCCCCCEC3F0CCCCCCCCCCCC25012034164050341105901A19999999999984A040100006180401000061804008000618008098A02808
340
0
340
0
 94
        0
  0
ACAD_PROXY_OBJECT
  5
206
330
1FE
100
AcDbProxyObject
 90
      499
 91
      588
 95
       25
 70
     0
 93
      898
310
5DC4000000000000124048CF4F11115510525317D3105091530F880A0F11115510525317D05094D4D0D053114F8A50241C9A9999999999B93F26A666666666724FC000000000000E03F400000000000000400000000000000510000000000000024408070000C300000000000000049000
340
16
340
1FF
 94
        0
  0
ACAD_PROXY_OBJECT
  5
207
330
1FE
100
AcDbProxyObject
 90
      499
 91
      589
 95
       25
 70
     0
 93
      823
310
5DC0B00000000000002480959E9E29A2A1AA24A7A72FA620A122A62FA324A929AA1F169E29A2A1AA24A7A72FA620A122A62FA620A9AA1F000000000000048803FFFE01C00030C008140380006180000000000000048800000000000000A2000000000000002480
340
65
340
1FF
 94
        0
  0
ACAD_PROXY_OBJECT
  5
208
330
1FE
100
AcDbProxyObject
 90
      499
 91
      590
 95
       25
 70
     0
 93
      152
310
5DE8273108AC1C5A0640A3D0A5723F0BD1F200
  0
ACAD_PROXY_OBJECT
  5
209
330
1FE
100
AcDbProxyObject
 90
      499
 91
      591
 95
       25
 70
     0
 93
       14
310
5DE0
340
0
 94
        0
  0
ACAD_PROXY_OBJECT
  5
20A
330
1FE
100
AcDbProxyObject
 90
      499
 91
      592
 95
       25
 70
     0
 93
     6059
310
5DD084050BA4050AA405024050E836583938376838C815B83672031405983D3C486F6C653A6469613E3C696628657175616C28486F6C653A7465726D696E6174696F6E2C223022292C2220905B82B320222C22208368838A838B22293E3C696628657175616C28486F6C653A7465726D696E6174696F6E2C223022292C486F
310
6C653A64657074682C2222293E2C203C486F6C653A63746469613E2082B482AE82E882CC905B82B3203C486F6C653A637464657074683E406901405034050E836583938376838C815B83672031405EF3D3C486F6C653A6374616E676C653E252564202525633C486F6C653A63746469613E208E4D8C8A2C203C69662865717
310
5616C28486F6C653A7461707065642C223022292C22252563222C486F6C653A6E6F6D696E616C202220782022293E3C696628657175616C28486F6C653A7461707065642C223022292C486F6C653A6469612C486F6C653A706974636864657363293E203C696628657175616C28486F6C653A7465726D696E6174696F6E2C2
310
23022292C22905B82B320222C222022293E3C696628657175616C28486F6C653A7465726D696E6174696F6E2C223022292C486F6C653A64657074682C2222293E406901405014050E836583938376838C815B83672031405C73D3C696628657175616C28486F6C653A7461707065642C223022292C22252563222C486F6C65
310
3A6E6F6D696E616C202220782022293E3C696628657175616C28486F6C653A7461707065642C223022292C486F6C653A6469612C486F6C653A706974636864657363293E203C696628657175616C28486F6C653A7465726D696E6174696F6E2C223022292C22905B82B320222C222022293E3C696628657175616C28486F6C
310
653A7465726D696E6174696F6E2C223022292C486F6C653A64657074682C2222293E4069014051E4090E836583938376838C815B83672032405173D3C535444503A444553433E203C535444503A5354443E40690E836583938376838C815B836720314050C3D3C535444503A444553433E40690240515AAABBA120
360
212
330
212
360
213
330
213
360
211
330
211
360
210
360
20F
330
210
330
20F
 94
        0
  0
ACAD_PROXY_OBJECT
  5
214
330
1FE
100
AcDbProxyObject
 90
      499
 91
      537
 95
       25
 70
     0
 93
       26
310
5DD02A80
340
63
 94
        0
  0
ACAD_PROXY_OBJECT
  5
215
330
1FE
100
AcDbProxyObject
 90
      499
 91
      538
 95
       25
 70
     0
 93
      250
310
5DD020000000000000A1000000000000002440408F0F9023C3E409A0DCFFFF80
340
216
340
799
340
814
340
21D
340
21E
340
21F
340
220
340
221
340
222
340
0
 94
        0
  0
ACAD_PROXY_OBJECT
  5
223
330
1FE
100
AcDbProxyObject
 90
      499
 91
      593
 95
       25
 70
     0
 93
    13889
310
5DD1D003FFFFFFFD030300030CCCCCCCCCCCC250200800030C01030300030CCCCCCCCCCCC250200800030C00050C8DC0955782CC838A83588367014ED1D15395149050D3CB1294138B0C0B23702555E0B320E2A0D620D9CB11D15395149055160B095CCB0A11D1539354D1C819D95B991A5B5E880CCC0A78000C0000000000
310
00000000000000000000010CCCCCCCCCCCC250200800030C010CCCCCCCCCCCC250200800030C020143CF4F111959985D5B1D151A5D1B194F8050A8C8A8365815B8375838B014E51D15395149050D3CB1294138B0C0B2322A0D96056E0DD60E2CB11D15395149055160B095CCB0A11D1539354D1C819D95B991A5B5E880CCC4
310
A78000C000000000000000000000000000000010CCCCCCCCCCCC250200800030C010CCCCCCCCCCCC250200800030C020143CF4F111959985D5B1D151A5D1B194F90D44111409034110541D0C4350F4050E44D03449074510F000141232D24D7C053247454E545241434F2C4A504E2C302C8CB4935F2C47454E54524154582C
310
25732C2847454E4D53472067656E64696D7A20312900010104002214000281464500A608E8A9CA8A482869E5894A09C5860591914588E8A9CA8A482A8B0584AE658508E8A9C9AA68E40CECADCC8D2DAF4406452029E9E9E27B934B3B4B71F1E24A31427A91424A9A12620A7259427B934B3B4B7149624A9A12620A7259424B
310
A32B6949496111116111711149F1E24BA32B69F00808200111A000140560052F47454E545241434F2C4A504E2C302C582C47454E54524154582C25732C2847454E4D53472067656E64696D7A20332900010100002054000280AC80A5E8E8A9CA8A482869E5894A09C586058B2588E8A9CA8A482A8B0584AE658508E8A9C9AA
310
68E40CECADCC8D2DAF4406852000202000040E800050152014BD1D15395149050D3CB1294138B0C0B148B11D15395149055160B095CCB0A11D1539354D1C819D95B991A5B5E880D8A400040400008250000A0507A6029823A2A72A2920A1A79625282716181641E99623A2A72A2920AA2C1612B9961423A2A726A9A39033B2
310
B73234B6BD101B948000808180105A000140A0F4C053047454E545241434F2C4A504E2C302C83D32C47454E54524154582C25732C2847454E4D53472067656E64696D7A203829000101010020F400028248704B5F00A668E8A9CA8A482869E5894A09C58605921C12D7C588E8A9CA8A482A8B0584AE658508E8A9C9AA68E40
310
CECADCC8D2DAF440646052000200080043280005048B4B8A69014CD1D15395149050D3CB1294138B0C0B22D2E29A4B11D15395149055160B095CCB0A11D1539354D1C819D95B991A5B5E880C8C4A4000400100086D0000A09196926BE029923A2A72A2920A1A796252827161816465A49AF9623A2A72A2920AA2C1612B9961
310
423A2A726A9A39033B2B73234B6BD10189480A02620202080043E80005048D8096DA014CD1D15395149050D3CB1294138B0C0B236025B68B11D15395149055160B095CCB0A11D1539354D1C819D95B991A5B5E880C4D0A4000404140280D0000A190687072706CD06C5069D06B0029DA3A2A72A2920A1A7962528271618164
310
1A1C1C9C1B341B141A741AC1623A2A72A2920AA2C1612B9961423A2A726A9A39033B2B73234B6BD10189A94800080820050EA000143A322A0D0E0E4E0D9A0D8A0D3A0D60053D47454E545241434F2C4A504E2C302C8C8A8343839383668362834E83582C47454E54524154582C25732C2847454E4D53472067656E64696D7A
310
2031372900010105002274000281464500A628E8A9CA8A482869E5894A09C5860591914588E8A9CA8A482A8B0584AE658508E8A9C9AA68E40CECADCC8D2DAF440626C52000202080044A8000504909497CA014CD1D15395149050D3CB1294138B0C0B242525F28B11D15395149055160B095CCB0A11D1539354D1C819D95B9
310
91A5B5E880C4E4A400040418008A521E000000000000001CA040C00000000000034408080000000000006881010000000000000D102040000000000001A204080000000000003440818000000000000728103000000000000125020600000000004028A040000000000000034408000000000000004881000000000000000D
310
102000000000000001A204000000000000003440818000000000000508143C0000000000000039408180000000000006881030000000000000D102060000000000001A2040C00000000000034408180000000000006881030000000000000E5020600000000000024A040C0000000000805140800000000000000688100000
310
00000000009102000000000000001A2040000000000000034408180000000000006881030000000000000A10284220000000878000002020000008380000020400000081800000208000000828000002028900000000
340
0
340
0
340
0
340
0
340
1FF
340
1FF
 94
        0
  0
ACAD_PROXY_OBJECT
  5
224
330
1FE
100
AcDbProxyObject
 90
      499
 91
      540
 95
       25
 70
     0
 93
     2290
310
5DD9740D29254D0A53484D323030355F413440DE184D1134A49535F42525F5265766973696F6E6C6973744050A53484D323030355F41344B10CE971058D8591B4C8C0C0D571058D8591B5711D95B97111DD9D7199BDC9B585D1714D2134C8C0C0D57D04D10140DE184D124433A5C416361646D323030355C416361646D5C47
310
656E5C4477675C5469746C655C7861344110E979A97F0838A835883675F42525F44D29254D7D09497D4995D9A5CDA5BDB9B1A5CDD10E979A97F0838A835883675F54525F44D29254D7D51497D4995D9A5CDA5BDB9B1A5CDD10E979A97F0838A835883675F424C5F44D29254D7D09317D4995D9A5CDA5BDB9B1A5CDD10E979A
310
97F0838A835883675F544C5F44D29254D7D51317D4995D9A5CDA5BDB9B1A5CDD00
  0
ACAD_PROXY_OBJECT
  5
1AA
330
78
100
AcDbProxyObject
 90
      499
 91
      576
 95
       25
 70
     0
 93
     1648
310
5DE014295195B5C1B185D19480C405BE3D2525633C486F6C653A63746469613E2078203C486F6C653A637464657074683E20555C503C696628657175616C28486F6C653A7461707065642C223022292C222525632220486F6C653A6469612C20486F6C653A6E6F6D696E616C20222078202220486F6C653A70697463686465
310
736320222078202220486F6C653A7461706465707468293E203C696628657175616C28486F6C653A7465726D696E6174696F6E2C223022292C22202F202220486F6C653A64657074682C222022293E
  0
ACAD_PROXY_OBJECT
  5
1AB
330
78
100
AcDbProxyObject
 90
      499
 91
      576
 95
       25
 70
     0
 93
     1656
310
5DE014295195B5C1B185D19480C405BF3D2525633C486F6C653A63746469613E2078203C486F6C653A6374616E676C653E2525645C503C696628657175616C28486F6C653A7461707065642C223022292C222525632220486F6C653A6469612C20486F6C653A6E6F6D696E616C20222078202220486F6C653A706974636864
310
65736320222078202220486F6C653A7461706465707468293E203C696628657175616C28486F6C653A7465726D696E6174696F6E2C223022292C22202F202220486F6C653A64657074682C222022293E
  0
ACAD_PROXY_OBJECT
  5
1AC
330
78
100
AcDbProxyObject
 90
      499
 91
      576
 95
       25
 70
     0
 93
     1360
310
5DE014295195B5C1B185D19480C4059A3D3C696628657175616C28486F6C653A7461707065642C223022292C222525632220486F6C653A6469612C20486F6C653A6E6F6D696E616C20222078202220486F6C653A70697463686465736320222078202220486F6C653A7461706465707468293E203C696628657175616C2848
310
6F6C653A7465726D696E6174696F6E2C223022292C22202F202220486F6C653A64657074682C222022293E
  0
ACAD_PROXY_OBJECT
  5
1AD
330
78
100
AcDbProxyObject
 90
      499
 91
      576
 95
       25
 70
     0
 93
      224
310
5DE014295195B5C1B185D19480C4050C3D3C535444503A444553433E
  0
ACAD_PROXY_OBJECT
  5
212
330
20A
100
AcDbProxyObject
 90
      499
 91
      576
 95
       25
 70
     0
 93
     1376
310
5DE0143A0D960E4E0DDA0E32056E0D9C80C405983D3C486F6C653A6469613E3C696628657175616C28486F6C653A7465726D696E6174696F6E2C223022292C2220905B82B320222C22208368838A838B22293E3C696628657175616C28486F6C653A7465726D696E6174696F6E2C223022292C486F6C653A64657074682C22
310
22293E2C203C486F6C653A63746469613E2082B482AE82E882CC905B82B3203C486F6C653A637464657074683E
  0
ACAD_PROXY_OBJECT
  5
213
330
20A
100
AcDbProxyObject
 90
      499
 91
      576
 95
       25
 70
     0
 93
     2072
310
5DE0143A0D960E4E0DDA0E32056E0D9C80C405EF3D3C486F6C653A6374616E676C653E252564202525633C486F6C653A63746469613E208E4D8C8A2C203C696628657175616C28486F6C653A7461707065642C223022292C22252563222C486F6C653A6E6F6D696E616C202220782022293E3C696628657175616C28486F6C
310
653A7461707065642C223022292C486F6C653A6469612C486F6C653A706974636864657363293E203C696628657175616C28486F6C653A7465726D696E6174696F6E2C223022292C22905B82B320222C222022293E3C696628657175616C28486F6C653A7465726D696E6174696F6E2C223022292C486F6C653A6465707468
310
2C2222293E
  0
ACAD_PROXY_OBJECT
  5
211
330
20A
100
AcDbProxyObject
 90
      499
 91
      576
 95
       25
 70
     0
 93
     1752
310
5DE0143A0D960E4E0DDA0E32056E0D9C80C405C73D3C696628657175616C28486F6C653A7461707065642C223022292C22252563222C486F6C653A6E6F6D696E616C202220782022293E3C696628657175616C28486F6C653A7461707065642C223022292C486F6C653A6469612C486F6C653A706974636864657363293E20
310
3C696628657175616C28486F6C653A7465726D696E6174696F6E2C223022292C22905B82B320222C222022293E3C696628657175616C28486F6C653A7465726D696E6174696F6E2C223022292C486F6C653A64657074682C2222293E
  0
ACAD_PROXY_OBJECT
  5
210
330
20A
100
AcDbProxyObject
 90
      499
 91
      576
 95
       25
 70
     0
 93
      344
310
5DE0143A0D960E4E0DDA0E32056E0D9C80C805173D3C535444503A444553433E203C535444503A5354443E
  0
ACAD_PROXY_OBJECT
  5
20F
330
20A
100
AcDbProxyObject
 90
      499
 91
      576
 95
       25
 70
     0
 93
      256
310
5DE0143A0D960E4E0DDA0E32056E0D9C80C4050C3D3C535444503A444553433E
  0
ENDSEC
  0
EOF
