  0
SECTION
  2
HEADER
  9
$ACADVER
  1
AC1014
  9
$ACADMAINTVER
 70
     0
  9
$DWGCODEPAGE
  3
ANSI_932
  9
$INSBASE
 10
-355.721368
 20
456.604235
 30
0.0
  9
$EXTMIN
 10
-372.812707
 20
451.118136
 30
0.0
  9
$EXTMAX
 10
-194.62263
 20
552.789792
 30
0.0
  9
$LIMMIN
 10
-587.250952
 20
327.890188
  9
$LIMMAX
 10
600.749048
 20
957.890188
  9
$ORTHOMODE
 70
     1
  9
$REGENMODE
 70
     1
  9
$FILLMODE
 70
     1
  9
$QTEXTMODE
 70
     0
  9
$MIRRTEXT
 70
     1
  9
$DRAGMODE
 70
     2
  9
$LTSCALE
 40
5.0
  9
$OSMODE
 70
    45
  9
$ATTMODE
 70
     1
  9
$TEXTSIZE
 40
5.0
  9
$TRACEWID
 40
0.05
  9
$TEXTSTYLE
  7
STANDARD
  9
$CLAYER
  8
外形
  9
$CELTYPE
  6
CONTINUOUS
  9
$CECOLOR
 62
   256
  9
$CELTSCALE
 40
1.0
  9
$DELOBJ
 70
     1
  9
$DISPSILH
 70
     0
  9
$DIMSCALE
 40
1.0
  9
$DIMASZ
 40
1.0
  9
$DIMEXO
 40
1.0
  9
$DIMDLI
 40
8.0
  9
$DIMRND
 40
0.0
  9
$DIMDLE
 40
0.0
  9
$DIMEXE
 40
2.0
  9
$DIMTP
 40
0.0
  9
$DIMTM
 40
0.0
  9
$DIMTXT
 40
1.5
  9
$DIMCEN
 40
-1.0
  9
$DIMTSZ
 40
0.0
  9
$DIMTOL
 70
     0
  9
$DIMLIM
 70
     0
  9
$DIMTIH
 70
     0
  9
$DIMTOH
 70
     0
  9
$DIMSE1
 70
     0
  9
$DIMSE2
 70
     0
  9
$DIMTAD
 70
     1
  9
$DIMZIN
 70
     8
  9
$DIMBLK
  1

  9
$DIMASO
 70
     1
  9
$DIMSHO
 70
     1
  9
$DIMPOST
  1

  9
$DIMAPOST
  1

  9
$DIMALT
 70
     0
  9
$DIMALTD
 70
     2
  9
$DIMALTF
 40
25.4
  9
$DIMLFAC
 40
1.0
  9
$DIMTOFL
 70
     1
  9
$DIMTVP
 40
0.0
  9
$DIMTIX
 70
     0
  9
$DIMSOXD
 70
     0
  9
$DIMSAH
 70
     1
  9
$DIMBLK1
  1
_DOTSMALL
  9
$DIMBLK2
  1
_DOTSMALL
  9
$DIMSTYLE
  2
参考寸法
  9
$DIMCLRD
 70
     2
  9
$DIMCLRE
 70
     2
  9
$DIMCLRT
 70
     2
  9
$DIMTFAC
 40
1.0
  9
$DIMGAP
 40
1.0
  9
$DIMJUST
 70
     0
  9
$DIMSD1
 70
     0
  9
$DIMSD2
 70
     0
  9
$DIMTOLJ
 70
     1
  9
$DIMTZIN
 70
     8
  9
$DIMALTZ
 70
     0
  9
$DIMALTTZ
 70
     0
  9
$DIMFIT
 70
     3
  9
$DIMUPT
 70
     0
  9
$DIMUNIT
 70
     2
  9
$DIMDEC
 70
     3
  9
$DIMTDEC
 70
     2
  9
$DIMALTU
 70
     2
  9
$DIMALTTD
 70
     2
  9
$DIMTXSTY
  7
STANDARD
  9
$DIMAUNIT
 70
     0
  9
$LUNITS
 70
     2
  9
$LUPREC
 70
     3
  9
$SKETCHINC
 40
0.1
  9
$FILLETRAD
 40
4.0
  9
$AUNITS
 70
     0
  9
$AUPREC
 70
     3
  9
$MENU
  1
acad
  9
$ELEVATION
 40
0.0
  9
$PELEVATION
 40
0.0
  9
$THICKNESS
 40
0.0
  9
$LIMCHECK
 70
     0
  9
$BLIPMODE
 70
     0
  9
$CHAMFERA
 40
0.0
  9
$CHAMFERB
 40
0.0
  9
$CHAMFERC
 40
0.0
  9
$CHAMFERD
 40
0.0
  9
$SKPOLY
 70
     0
  9
$TDCREATE
 40
2450751.535399305
  9
$TDUPDATE
 40
2451996.695439814
  9
$TDINDWG
 40
3.3008696759
  9
$TDUSRTIMER
 40
3.3008696759
  9
$USRTIMER
 70
     1
  9
$ANGBASE
 50
0.0
  9
$ANGDIR
 70
     0
  9
$PDMODE
 70
    32
  9
$PDSIZE
 40
0.0
  9
$PLINEWID
 40
0.0
  9
$COORDS
 70
     2
  9
$SPLFRAME
 70
     0
  9
$SPLINETYPE
 70
     5
  9
$SPLINESEGS
 70
     8
  9
$ATTDIA
 70
     0
  9
$ATTREQ
 70
     1
  9
$HANDLING
 70
     1
  9
$HANDSEED
  5
4BC
  9
$SURFTAB1
 70
     6
  9
$SURFTAB2
 70
     6
  9
$SURFTYPE
 70
     6
  9
$SURFU
 70
     6
  9
$SURFV
 70
     6
  9
$UCSNAME
  2

  9
$UCSORG
 10
0.0
 20
0.0
 30
0.0
  9
$UCSXDIR
 10
1.0
 20
0.0
 30
0.0
  9
$UCSYDIR
 10
0.0
 20
1.0
 30
0.0
  9
$PUCSNAME
  2

  9
$PUCSORG
 10
0.0
 20
0.0
 30
0.0
  9
$PUCSXDIR
 10
1.0
 20
0.0
 30
0.0
  9
$PUCSYDIR
 10
0.0
 20
1.0
 30
0.0
  9
$USERI1
 70
     0
  9
$USERI2
 70
     0
  9
$USERI3
 70
     0
  9
$USERI4
 70
     0
  9
$USERI5
 70
     0
  9
$USERR1
 40
0.0
  9
$USERR2
 40
0.0
  9
$USERR3
 40
0.0
  9
$USERR4
 40
0.0
  9
$USERR5
 40
0.0
  9
$WORLDVIEW
 70
     1
  9
$SHADEDGE
 70
     3
  9
$SHADEDIF
 70
    70
  9
$TILEMODE
 70
     1
  9
$MAXACTVP
 70
    16
  9
$PINSBASE
 10
0.0
 20
0.0
 30
0.0
  9
$PLIMCHECK
 70
     0
  9
$PEXTMIN
 10
1.000000E+20
 20
1.000000E+20
 30
1.000000E+20
  9
$PEXTMAX
 10
-1.000000E+20
 20
-1.000000E+20
 30
-1.000000E+20
  9
$PLIMMIN
 10
0.0
 20
0.0
  9
$PLIMMAX
 10
12.0
 20
9.0
  9
$UNITMODE
 70
     0
  9
$VISRETAIN
 70
     0
  9
$PLINEGEN
 70
     0
  9
$PSLTSCALE
 70
     1
  9
$TREEDEPTH
 70
  3020
  9
$PICKSTYLE
 70
     1
  9
$CMLSTYLE
  2
STANDARD
  9
$CMLJUST
 70
     0
  9
$CMLSCALE
 40
1.0
  9
$PROXYGRAPHICS
 70
     1
  9
$MEASUREMENT
 70
     0
  0
ENDSEC
  0
SECTION
  2
CLASSES
  0
CLASS
  1
LWPOLYLINE
  2
AcDbPolyline
  3
"AutoCAD"
 90
        0
280
     0
281
     1
  0
CLASS
  1
ACDBDICTIONARYWDFLT
  2
AcDbDictionaryWithDefault
  3
AutoCAD 2000
 90
        0
280
     1
281
     0
  0
CLASS
  1
ACDBPLACEHOLDER
  2
AcDbPlaceHolder
  3
AutoCAD 2000
 90
        0
280
     1
281
     0
  0
CLASS
  1
LAYOUT
  2
AcDbLayout
  3
AutoCAD 2000
 90
        0
280
     1
281
     0
  0
CLASS
  1
LONG_TRANSACTION
  2
AcDbLongTransaction
  3
AutoCAD 2000
 90
        0
280
     1
281
     0
  0
CLASS
  1
LWPOLYLINE
  2
AcDbPolyline
  3
"AutoCAD"
 90
        0
280
     0
281
     1
  0
CLASS
  1
HATCH
  2
AcDbHatch
  3
"ACAD_SEDONA"
 90
        0
280
     0
281
     1
  0
CLASS
  1
XRECORD
  2
AcDbXrecord
  3
"<Built In>"
 90
        0
280
     0
281
     0
  0
CLASS
  1
DICTIONARYVAR
  2
AcDbDictionaryVar
  3
"AutoCAD"
 90
        0
280
     0
281
     0
  0
ENDSEC
  0
SECTION
  2
TABLES
  0
TABLE
  2
VPORT
  5
16
100
AcDbSymbolTable
 70
     1
  0
VPORT
  5
4B7
100
AcDbSymbolTableRecord
100
AcDbViewportTableRecord
  2
*ACTIVE
 70
     0
 10
0.0
 20
0.0
 11
1.0
 21
1.0
 12
-281.210366
 22
507.888074
 13
0.0
 23
0.0
 14
1.0
 24
1.0
 15
10.0
 25
10.0
 16
0.0
 26
0.0
 36
1.0
 17
0.0
 27
0.0
 37
0.0
 40
171.299104
 41
1.710425
 42
50.0
 43
0.0
 44
0.0
 50
0.0
 51
0.0
 71
     0
 72
   100
 73
     1
 74
     1
 75
     0
 76
     0
 77
     0
 78
     2
  0
ENDTAB
  0
TABLE
  2
LTYPE
  5
11
100
AcDbSymbolTable
 70
     3
  0
LTYPE
  5
12
100
AcDbSymbolTableRecord
100
AcDbLinetypeTableRecord
  2
BYBLOCK
 70
     0
  3

 72
    65
 73
     0
 40
0.0
  0
LTYPE
  5
13
100
AcDbSymbolTableRecord
100
AcDbLinetypeTableRecord
  2
BYLAYER
 70
     0
  3

 72
    65
 73
     0
 40
0.0
  0
LTYPE
  5
7
100
AcDbSymbolTableRecord
100
AcDbLinetypeTableRecord
  2
CONTINUOUS
 70
     0
  3
Solid line
 72
    65
 73
     0
 40
0.0
  0
LTYPE
  5
2D
100
AcDbSymbolTableRecord
100
AcDbLinetypeTableRecord
  2
CENTER
 70
     0
  3
Center ____ _ ____ _ ____ _ ____ _ ____ _ ____
 72
    65
 73
     4
 40
2.0
 49
1.25
 74
     0
 49
-0.25
 74
     0
 49
0.25
 74
     0
 49
-0.25
 74
     0
  0
LTYPE
  5
CE
100
AcDbSymbolTableRecord
100
AcDbLinetypeTableRecord
  2
HIDDEN
 70
     0
  3
Hidden __ __ __ __ __ __ __ __ __ __ __ __ __ _
 72
    65
 73
     2
 40
0.375
 49
0.25
 74
     0
 49
-0.125
 74
     0
  0
ENDTAB
  0
TABLE
  2
LAYER
  5
E
100
AcDbSymbolTable
 70
     4
  0
LAYER
  5
6
100
AcDbSymbolTableRecord
100
AcDbLayerTableRecord
  2
0
 70
     0
 62
     7
  6
CONTINUOUS
  0
LAYER
  5
1F
100
AcDbSymbolTableRecord
100
AcDbLayerTableRecord
  2
外形
 70
     0
 62
     4
  6
CONTINUOUS
  0
LAYER
  5
37
102
{ACAD_XDICTIONARY
360
38
102
}
100
AcDbSymbolTableRecord
100
AcDbLayerTableRecord
  2
DEFPOINTS
 70
     0
 62
     7
  6
CONTINUOUS
  0
LAYER
  5
52
100
AcDbSymbolTableRecord
100
AcDbLayerTableRecord
  2
寸法
 70
     0
 62
     1
  6
CONTINUOUS
  0
ENDTAB
  0
TABLE
  2
STYLE
  5
F
100
AcDbSymbolTable
 70
     1
  0
STYLE
  5
10
100
AcDbSymbolTableRecord
100
AcDbTextStyleTableRecord
  2
STANDARD
 70
     0
 40
0.0
 41
1.0
 50
0.0
 71
     0
 42
5.0
  3
MONOTXT
  4
BIGFONT
  0
ENDTAB
  0
TABLE
  2
VIEW
  5
14
100
AcDbSymbolTable
 70
     0
  0
ENDTAB
  0
TABLE
  2
UCS
  5
15
100
AcDbSymbolTable
 70
     0
  0
ENDTAB
  0
TABLE
  2
APPID
  5
18
100
AcDbSymbolTable
 70
     1
  0
APPID
  5
19
100
AcDbSymbolTableRecord
100
AcDbRegAppTableRecord
  2
ACAD
 70
     0
  0
ENDTAB
  0
TABLE
  2
DIMSTYLE
  5
1A
100
AcDbSymbolTable
 70
     2
  0
DIMSTYLE
105
53
102
{ACAD_XDICTIONARY
360
54
102
}
100
AcDbSymbolTableRecord
100
AcDbDimStyleTableRecord
  2
STANDARD
 70
     0
  3

  4

  5

  6
_OPEN30
  7
_OPEN30
 40
0.0
 41
2.0
 42
1.0
 43
8.0
 44
2.0
 45
0.0
 46
0.0
 47
0.0
 48
0.0
140
3.0
141
-1.0
142
0.0
143
25.4
144
1.0
145
0.0
146
1.0
147
1.0
 71
     0
 72
     0
 73
     0
 74
     0
 75
     0
 76
     0
 77
     1
 78
     8
170
     0
171
     2
172
     1
173
     1
174
     0
175
     0
176
     1
177
     1
178
     3
270
     2
271
     2
272
     2
273
     2
274
     2
340
10
275
     0
280
     0
281
     0
282
     0
283
     1
284
     8
285
     0
286
     0
287
     3
288
     0
  0
DIMSTYLE
105
21
100
AcDbSymbolTableRecord
100
AcDbDimStyleTableRecord
  2
参考寸法
 70
     0
  3

  4

  5

  6
_DOTSMALL
  7
_DOTSMALL
 40
1.0
 41
2.0
 42
1.0
 43
8.0
 44
2.0
 45
0.0
 46
0.0
 47
0.0
 48
0.0
140
2.0
141
-1.0
142
0.0
143
25.4
144
1.0
145
0.0
146
1.0
147
1.0
 71
     0
 72
     0
 73
     0
 74
     0
 75
     0
 76
     0
 77
     1
 78
     8
170
     0
171
     2
172
     1
173
     1
174
     0
175
     0
176
     2
177
     2
178
     2
270
     2
271
     3
272
     2
273
     2
274
     2
340
10
275
     0
280
     0
281
     0
282
     0
283
     1
284
     8
285
     0
286
     0
287
     3
288
     0
  0
ENDTAB
  0
TABLE
  2
BLOCK_RECORD
  5
1
100
AcDbSymbolTable
 70
     9
  0
BLOCK_RECORD
  5
2
102
{ACAD_XDICTIONARY
360
3
102
}
100
AcDbSymbolTableRecord
100
AcDbBlockTableRecord
  2
*MODEL_SPACE
  0
BLOCK_RECORD
  5
9
102
{ACAD_XDICTIONARY
360
A
102
}
100
AcDbSymbolTableRecord
100
AcDbBlockTableRecord
  2
*PAPER_SPACE
  0
BLOCK_RECORD
  5
22
100
AcDbSymbolTableRecord
100
AcDbBlockTableRecord
  2
_DOTSMALL
  0
BLOCK_RECORD
  5
56
100
AcDbSymbolTableRecord
100
AcDbBlockTableRecord
  2
_OPEN30
  0
BLOCK_RECORD
  5
2AC
100
AcDbSymbolTableRecord
100
AcDbBlockTableRecord
  2
*D2
  0
BLOCK_RECORD
  5
2C8
100
AcDbSymbolTableRecord
100
AcDbBlockTableRecord
  2
*D3
  0
BLOCK_RECORD
  5
2F1
100
AcDbSymbolTableRecord
100
AcDbBlockTableRecord
  2
*D4
  0
BLOCK_RECORD
  5
353
100
AcDbSymbolTableRecord
100
AcDbBlockTableRecord
  2
*D5
  0
BLOCK_RECORD
  5
35F
100
AcDbSymbolTableRecord
100
AcDbBlockTableRecord
  2
*D6
  0
BLOCK_RECORD
  5
386
100
AcDbSymbolTableRecord
100
AcDbBlockTableRecord
  2
*D7
  0
BLOCK_RECORD
  5
39F
100
AcDbSymbolTableRecord
100
AcDbBlockTableRecord
  2
*D8
  0
ENDTAB
  0
ENDSEC
  0
SECTION
  2
BLOCKS
  0
BLOCK
  5
5
100
AcDbEntity
  8
0
100
AcDbBlockBegin
  2
*MODEL_SPACE
 70
     0
 10
0.0
 20
0.0
 30
0.0
  3
*MODEL_SPACE
  1

  0
ENDBLK
  5
8
100
AcDbEntity
  8
0
100
AcDbBlockEnd
  0
BLOCK
  5
C
100
AcDbEntity
 67
     1
  8
0
100
AcDbBlockBegin
  2
*PAPER_SPACE
 70
     0
 10
0.0
 20
0.0
 30
0.0
  3
*PAPER_SPACE
  1

  0
ENDBLK
  5
D
100
AcDbEntity
 67
     1
  8
0
100
AcDbBlockEnd
  0
BLOCK
  5
27
100
AcDbEntity
  8
0
100
AcDbBlockBegin
  2
_DOTSMALL
 70
     0
 10
0.0
 20
0.0
 30
0.0
  3
_DOTSMALL
  1

  0
POLYLINE
  5
23
100
AcDbEntity
  8
0
  6
BYBLOCK
 62
     0
100
AcDb2dPolyline
 66
     1
 10
0.0
 20
0.0
 30
0.0
 70
     1
 40
0.5
 41
0.5
  0
VERTEX
  5
24
100
AcDbEntity
  8
0
  6
BYBLOCK
 62
     0
100
AcDbVertex
100
AcDb2dVertex
 10
-0.0625
 20
0.0
 30
0.0
 42
1.0
  0
VERTEX
  5
25
100
AcDbEntity
  8
0
  6
BYBLOCK
 62
     0
100
AcDbVertex
100
AcDb2dVertex
 10
0.0625
 20
0.0
 30
0.0
 42
1.0
  0
SEQEND
  5
26
100
AcDbEntity
  8
0
  6
BYBLOCK
 62
     0
  0
ENDBLK
  5
28
100
AcDbEntity
  8
0
100
AcDbBlockEnd
  0
BLOCK
  5
5A
100
AcDbEntity
  8
0
100
AcDbBlockBegin
  2
_OPEN30
 70
     0
 10
0.0
 20
0.0
 30
0.0
  3
_OPEN30
  1

  0
LINE
  5
57
100
AcDbEntity
  8
0
  6
BYBLOCK
 62
     0
100
AcDbLine
 10
-1.0
 20
0.267949
 30
0.0
 11
0.0
 21
0.0
 31
0.0
  0
LINE
  5
58
100
AcDbEntity
  8
0
  6
BYBLOCK
 62
     0
100
AcDbLine
 10
0.0
 20
0.0
 30
0.0
 11
-1.0
 21
-0.267949
 31
0.0
  0
LINE
  5
59
100
AcDbEntity
  8
0
  6
BYBLOCK
 62
     0
100
AcDbLine
 10
0.0
 20
0.0
 30
0.0
 11
-1.0
 21
0.0
 31
0.0
  0
ENDBLK
  5
5B
100
AcDbEntity
  8
0
100
AcDbBlockEnd
  0
BLOCK
  5
3C7
100
AcDbEntity
  8
0
100
AcDbBlockBegin
  2
*D2
 70
     1
 10
0.0
 20
0.0
 30
0.0
  3
*D2
  1

  0
LINE
  5
3C8
100
AcDbEntity
  8
0
  6
BYBLOCK
 62
     1
100
AcDbLine
 10
-323.004457
 20
527.127913
 30
0.0
 11
-322.042321
 21
538.125168
 31
0.0
  0
LINE
  5
3C9
100
AcDbEntity
  8
0
  6
BYBLOCK
 62
     1
100
AcDbLine
 10
-324.900883
 20
516.881719
 30
0.0
 11
-345.225479
 21
516.881719
 31
0.0
  0
ARC
  5
3CA
100
AcDbEntity
  8
0
  6
BYBLOCK
 62
     1
100
AcDbCircle
 10
-323.900883
 20
516.881719
 30
0.0
 40
19.324596
100
AcDbArc
 50
90.932479
 51
174.067521
  0
INSERT
  5
3CB
100
AcDbEntity
  8
0
  6
BYBLOCK
 62
     1
100
AcDbBlockReference
  2
_OPEN30
 10
-322.216633
 20
536.132779
 30
0.0
 41
2.0
 42
2.0
 43
2.0
 50
357.96624
  0
INSERT
  5
3CC
100
AcDbEntity
  8
0
  6
BYBLOCK
 62
     1
100
AcDbBlockReference
  2
_OPEN30
 10
-343.225479
 20
516.881719
 30
0.0
 41
2.0
 42
2.0
 43
2.0
 50
267.03376
  0
MTEXT
  5
3CD
100
AcDbEntity
  8
0
  6
BYBLOCK
 62
     3
100
AcDbMText
 10
-338.645366
 20
532.972499
 30
0.0
 40
3.0
 41
0.0
 71
     5
 72
     1
  1
\A1;95°
 11
0.737277
 21
0.67559
 31
0.0
  0
POINT
  5
3CE
100
AcDbEntity
  8
DEFPOINTS
  6
BYBLOCK
 62
     0
100
AcDbPoint
 10
-332.573746
 20
534.150809
 30
0.0
  0
POINT
  5
3CF
100
AcDbEntity
  8
DEFPOINTS
  6
BYBLOCK
 62
     0
100
AcDbPoint
 10
-323.478781
 20
516.881719
 30
0.0
  0
POINT
  5
3D0
100
AcDbEntity
  8
DEFPOINTS
  6
BYBLOCK
 62
     0
100
AcDbPoint
 10
-323.091612
 20
526.131719
 30
0.0
  0
POINT
  5
3D1
100
AcDbEntity
  8
DEFPOINTS
  6
BYBLOCK
 62
     0
100
AcDbPoint
 10
-323.86286
 20
517.316322
 30
0.0
  0
POINT
  5
3D2
100
AcDbEntity
  8
DEFPOINTS
  6
BYBLOCK
 62
     0
100
AcDbPoint
 10
-323.864015
 20
516.881719
 30
0.0
  0
ENDBLK
  5
3D3
100
AcDbEntity
  8
0
100
AcDbBlockEnd
  0
BLOCK
  5
3E1
100
AcDbEntity
  8
0
100
AcDbBlockBegin
  2
*D3
 70
     1
 10
0.0
 20
0.0
 30
0.0
  3
*D3
  1

  0
LINE
  5
3E2
100
AcDbEntity
  8
0
  6
BYBLOCK
 62
     1
100
AcDbLine
 10
-355.249362
 20
515.903679
 30
0.0
 11
-358.977492
 21
498.364208
 31
0.0
  0
LINE
  5
3E3
100
AcDbEntity
  8
0
  6
BYBLOCK
 62
     1
100
AcDbLine
 10
-355.041451
 20
510.626126
 30
0.0
 11
-355.041451
 21
497.950514
 31
0.0
  0
ARC
  5
3E4
100
AcDbEntity
  8
0
  6
BYBLOCK
 62
     1
100
AcDbCircle
 10
-355.041451
 20
516.881826
 30
0.0
 40
16.931313
100
AcDbArc
 50
244.43227
 51
258.0
  0
LINE
  5
3E5
100
AcDbEntity
  8
0
  6
BYBLOCK
 62
     1
100
AcDbLine
 10
-362.348628
 20
501.6085
 30
0.0
 11
-372.812707
 21
506.614802
 31
0.0
  0
ARC
  5
3E6
100
AcDbEntity
  8
0
  6
BYBLOCK
 62
     1
100
AcDbCircle
 10
-355.041451
 20
516.881826
 30
0.0
 40
16.931313
100
AcDbArc
 50
244.456067
 51
251.228033
  0
ARC
  5
3E7
100
AcDbEntity
  8
0
  6
BYBLOCK
 62
     1
100
AcDbCircle
 10
-355.041451
 20
516.881826
 30
0.0
 40
16.931313
100
AcDbArc
 50
276.771967
 51
283.543933
  0
ARC
  5
3E8
100
AcDbEntity
  8
0
  6
BYBLOCK
 62
     1
100
AcDbCircle
 10
-355.041451
 20
516.881826
 30
0.0
 40
16.931313
100
AcDbArc
 50
258.0
 51
270.0
  0
INSERT
  5
3E9
100
AcDbEntity
  8
0
  6
BYBLOCK
 62
     1
100
AcDbBlockReference
  2
_OPEN30
 10
-358.561668
 20
500.320503
 30
0.0
 41
2.0
 42
2.0
 43
2.0
 50
344.614017
  0
INSERT
  5
3EA
100
AcDbEntity
  8
0
  6
BYBLOCK
 62
     1
100
AcDbBlockReference
  2
_OPEN30
 10
-355.041451
 20
499.950514
 30
0.0
 41
2.0
 42
2.0
 43
2.0
 50
183.385983
  0
MTEXT
  5
3EB
100
AcDbEntity
  8
0
  6
BYBLOCK
 62
     3
100
AcDbMText
 10
-366.501723
 20
506.36684
 30
0.0
 40
3.0
 41
0.0
 71
     5
 72
     1
  1
\A1;12°
 11
0.902076
 21
-0.431578
 31
0.0
  0
POINT
  5
3EC
100
AcDbEntity
  8
DEFPOINTS
  6
BYBLOCK
 62
     0
100
AcDbPoint
 10
-356.222519
 20
499.991757
 30
0.0
  0
POINT
  5
3ED
100
AcDbEntity
  8
DEFPOINTS
  6
BYBLOCK
 62
     0
100
AcDbPoint
 10
-352.8587
 20
527.15086
 30
0.0
  0
POINT
  5
3EE
100
AcDbEntity
  8
DEFPOINTS
  6
BYBLOCK
 62
     0
100
AcDbPoint
 10
-355.041451
 20
530.541289
 30
0.0
  0
POINT
  5
3EF
100
AcDbEntity
  8
DEFPOINTS
  6
BYBLOCK
 62
     0
100
AcDbPoint
 10
-355.041451
 20
511.626126
 30
0.0
  0
POINT
  5
3F0
100
AcDbEntity
  8
DEFPOINTS
  6
BYBLOCK
 62
     0
100
AcDbPoint
 10
-355.041451
 20
516.881826
 30
0.0
  0
ENDBLK
  5
3F1
100
AcDbEntity
  8
0
100
AcDbBlockEnd
  0
BLOCK
  5
407
100
AcDbEntity
  8
0
100
AcDbBlockBegin
  2
*D4
 70
     1
 10
0.0
 20
0.0
 30
0.0
  3
*D4
  1

  0
LINE
  5
408
100
AcDbEntity
  8
0
  6
BYBLOCK
 62
     1
100
AcDbLine
 10
-233.035408
 20
517.260485
 30
0.0
 11
-234.227235
 21
515.654388
 31
0.0
  0
LINE
  5
409
100
AcDbEntity
  8
0
  6
BYBLOCK
 62
     1
100
AcDbLine
 10
-224.692621
 20
528.503168
 30
0.0
 11
-217.541661
 21
538.139753
 31
0.0
  0
LINE
  5
40A
100
AcDbEntity
  8
0
  6
BYBLOCK
 62
     1
100
AcDbLine
 10
-231.843581
 20
518.866583
 30
0.0
 11
-225.884448
 21
526.89707
 31
0.0
  0
INSERT
  5
40B
100
AcDbEntity
  8
0
  6
BYBLOCK
 62
     1
100
AcDbBlockReference
  2
_OPEN30
 10
-231.843581
 20
518.866583
 30
0.0
 41
2.0
 42
2.0
 43
2.0
 50
53.422231
  0
INSERT
  5
40C
100
AcDbEntity
  8
0
  6
BYBLOCK
 62
     1
100
AcDbBlockReference
  2
_OPEN30
 10
-225.884448
 20
526.89707
 30
0.0
 41
2.0
 42
2.0
 43
2.0
 50
233.422231
  0
MTEXT
  5
40D
100
AcDbEntity
  8
0
  6
BYBLOCK
 62
     3
100
AcDbMText
 10
-222.52885
 20
535.614292
 30
0.0
 40
3.0
 41
0.0
 71
     5
 72
     1
  1
\A1;\U+220510
 11
0.595913
 21
0.803049
 31
0.0
  0
POINT
  5
40E
100
AcDbEntity
  8
DEFPOINTS
  6
BYBLOCK
 62
     0
100
AcDbPoint
 10
-225.884448
 20
526.89707
 30
0.0
  0
POINT
  5
40F
100
AcDbEntity
  8
DEFPOINTS
  6
BYBLOCK
 62
     0
100
AcDbPoint
 10
-231.843581
 20
518.866583
 30
0.0
  0
ENDBLK
  5
410
100
AcDbEntity
  8
0
100
AcDbBlockEnd
  0
BLOCK
  5
461
100
AcDbEntity
  8
0
100
AcDbBlockBegin
  2
*D5
 70
     1
 10
0.0
 20
0.0
 30
0.0
  3
*D5
  1

  0
LINE
  5
462
100
AcDbEntity
  8
0
  6
BYBLOCK
 62
     1
100
AcDbLine
 10
-323.864015
 20
477.447476
 30
0.0
 11
-323.864015
 21
465.687877
 31
0.0
  0
LINE
  5
463
100
AcDbEntity
  8
0
  6
BYBLOCK
 62
     1
100
AcDbLine
 10
-302.864015
 20
478.317729
 30
0.0
 11
-302.864015
 21
465.687877
 31
0.0
  0
LINE
  5
464
100
AcDbEntity
  8
0
  6
BYBLOCK
 62
     1
100
AcDbLine
 10
-321.864015
 20
467.687877
 30
0.0
 11
-304.864015
 21
467.687877
 31
0.0
  0
INSERT
  5
465
100
AcDbEntity
  8
0
  6
BYBLOCK
 62
     1
100
AcDbBlockReference
  2
_OPEN30
 10
-323.864015
 20
467.687877
 30
0.0
 41
2.0
 42
2.0
 43
2.0
 50
180.0
  0
INSERT
  5
466
100
AcDbEntity
  8
0
  6
BYBLOCK
 62
     1
100
AcDbBlockReference
  2
_OPEN30
 10
-302.864015
 20
467.687877
 30
0.0
 41
2.0
 42
2.0
 43
2.0
  0
MTEXT
  5
467
100
AcDbEntity
  8
0
  6
BYBLOCK
 62
     3
100
AcDbMText
 10
-313.364015
 20
470.187877
 30
0.0
 40
3.0
 41
0.0
 71
     5
 72
     1
  1
\A1;21
  0
POINT
  5
468
100
AcDbEntity
  8
DEFPOINTS
  6
BYBLOCK
 62
     0
100
AcDbPoint
 10
-323.864015
 20
478.447476
 30
0.0
  0
POINT
  5
469
100
AcDbEntity
  8
DEFPOINTS
  6
BYBLOCK
 62
     0
100
AcDbPoint
 10
-302.864015
 20
479.317729
 30
0.0
  0
POINT
  5
46A
100
AcDbEntity
  8
DEFPOINTS
  6
BYBLOCK
 62
     0
100
AcDbPoint
 10
-302.864015
 20
467.687877
 30
0.0
  0
ENDBLK
  5
46B
100
AcDbEntity
  8
0
100
AcDbBlockEnd
  0
BLOCK
  5
46C
100
AcDbEntity
  8
0
100
AcDbBlockBegin
  2
*D6
 70
     1
 10
0.0
 20
0.0
 30
0.0
  3
*D6
  1

  0
LINE
  5
46D
100
AcDbEntity
  8
0
  6
BYBLOCK
 62
     1
100
AcDbLine
 10
-323.864015
 20
515.881826
 30
0.0
 11
-323.864015
 21
494.253098
 31
0.0
  0
LINE
  5
46E
100
AcDbEntity
  8
0
  6
BYBLOCK
 62
     1
100
AcDbLine
 10
-198.864015
 20
517.881826
 30
0.0
 11
-198.864015
 21
494.253098
 31
0.0
  0
LINE
  5
46F
100
AcDbEntity
  8
0
  6
BYBLOCK
 62
     1
100
AcDbLine
 10
-321.864015
 20
496.253098
 30
0.0
 11
-200.864015
 21
496.253098
 31
0.0
  0
INSERT
  5
470
100
AcDbEntity
  8
0
  6
BYBLOCK
 62
     1
100
AcDbBlockReference
  2
_OPEN30
 10
-323.864015
 20
496.253098
 30
0.0
 41
2.0
 42
2.0
 43
2.0
 50
180.0
  0
INSERT
  5
471
100
AcDbEntity
  8
0
  6
BYBLOCK
 62
     1
100
AcDbBlockReference
  2
_OPEN30
 10
-198.864015
 20
496.253098
 30
0.0
 41
2.0
 42
2.0
 43
2.0
  0
MTEXT
  5
472
100
AcDbEntity
  8
0
  6
BYBLOCK
 62
     3
100
AcDbMText
 10
-261.364015
 20
498.753098
 30
0.0
 40
3.0
 41
0.0
 71
     5
 72
     1
  1
\A1;125
  0
POINT
  5
473
100
AcDbEntity
  8
DEFPOINTS
  6
BYBLOCK
 62
     0
100
AcDbPoint
 10
-323.864015
 20
516.881826
 30
0.0
  0
POINT
  5
474
100
AcDbEntity
  8
DEFPOINTS
  6
BYBLOCK
 62
     0
100
AcDbPoint
 10
-198.864015
 20
518.881826
 30
0.0
  0
POINT
  5
475
100
AcDbEntity
  8
DEFPOINTS
  6
BYBLOCK
 62
     0
100
AcDbPoint
 10
-198.864015
 20
496.253098
 30
0.0
  0
ENDBLK
  5
476
100
AcDbEntity
  8
0
100
AcDbBlockEnd
  0
BLOCK
  5
490
100
AcDbEntity
  8
0
100
AcDbBlockBegin
  2
*D7
 70
     1
 10
0.0
 20
0.0
 30
0.0
  3
*D7
  1

  0
LINE
  5
491
100
AcDbEntity
  8
0
  6
BYBLOCK
 62
     1
100
AcDbLine
 10
-324.864015
 20
522.881826
 30
0.0
 11
-335.488905
 21
522.881826
 31
0.0
  0
LINE
  5
492
100
AcDbEntity
  8
0
  6
BYBLOCK
 62
     1
100
AcDbLine
 10
-324.864015
 20
516.881719
 30
0.0
 11
-335.488905
 21
516.881719
 31
0.0
  0
LINE
  5
493
100
AcDbEntity
  8
0
  6
BYBLOCK
 62
     1
100
AcDbLine
 10
-333.488905
 20
520.881826
 30
0.0
 11
-333.488905
 21
518.881719
 31
0.0
  0
INSERT
  5
494
100
AcDbEntity
  8
0
  6
BYBLOCK
 62
     1
100
AcDbBlockReference
  2
_OPEN30
 10
-333.488905
 20
522.881826
 30
0.0
 41
2.0
 42
2.0
 43
2.0
 50
90.0
  0
INSERT
  5
495
100
AcDbEntity
  8
0
  6
BYBLOCK
 62
     1
100
AcDbBlockReference
  2
_OPEN30
 10
-333.488905
 20
516.881719
 30
0.0
 41
2.0
 42
2.0
 43
2.0
 50
270.0
  0
MTEXT
  5
496
100
AcDbEntity
  8
0
  6
BYBLOCK
 62
     3
100
AcDbMText
 10
-335.988905
 20
519.881772
 30
0.0
 40
3.0
 41
0.0
 71
     5
 72
     1
  1
\A1;6
 11
0.0
 21
1.0
 31
0.0
  0
POINT
  5
497
100
AcDbEntity
  8
DEFPOINTS
  6
BYBLOCK
 62
     0
100
AcDbPoint
 10
-323.864015
 20
522.881826
 30
0.0
  0
POINT
  5
498
100
AcDbEntity
  8
DEFPOINTS
  6
BYBLOCK
 62
     0
100
AcDbPoint
 10
-323.864015
 20
516.881719
 30
0.0
  0
POINT
  5
499
100
AcDbEntity
  8
DEFPOINTS
  6
BYBLOCK
 62
     0
100
AcDbPoint
 10
-333.488905
 20
516.881719
 30
0.0
  0
ENDBLK
  5
49A
100
AcDbEntity
  8
0
100
AcDbBlockEnd
  0
BLOCK
  5
4A7
100
AcDbEntity
  8
0
100
AcDbBlockBegin
  2
*D8
 70
     1
 10
0.0
 20
0.0
 30
0.0
  3
*D8
  1

  0
LINE
  5
4A8
100
AcDbEntity
  8
0
  6
BYBLOCK
 62
     1
100
AcDbLine
 10
-233.364015
 20
519.945335
 30
0.0
 11
-233.364015
 21
504.903369
 31
0.0
  0
LINE
  5
4A9
100
AcDbEntity
  8
0
  6
BYBLOCK
 62
     1
100
AcDbLine
 10
-224.364015
 20
519.945335
 30
0.0
 11
-224.364015
 21
504.903369
 31
0.0
  0
LINE
  5
4AA
100
AcDbEntity
  8
0
  6
BYBLOCK
 62
     1
100
AcDbLine
 10
-231.364015
 20
506.903369
 30
0.0
 11
-226.364015
 21
506.903369
 31
0.0
  0
INSERT
  5
4AB
100
AcDbEntity
  8
0
  6
BYBLOCK
 62
     1
100
AcDbBlockReference
  2
_OPEN30
 10
-233.364015
 20
506.903369
 30
0.0
 41
2.0
 42
2.0
 43
2.0
 50
180.0
  0
INSERT
  5
4AC
100
AcDbEntity
  8
0
  6
BYBLOCK
 62
     1
100
AcDbBlockReference
  2
_OPEN30
 10
-224.364015
 20
506.903369
 30
0.0
 41
2.0
 42
2.0
 43
2.0
  0
MTEXT
  5
4AD
100
AcDbEntity
  8
0
  6
BYBLOCK
 62
     3
100
AcDbMText
 10
-228.864015
 20
509.403369
 30
0.0
 40
3.0
 41
0.0
 71
     5
 72
     1
  1
\A1;9
  0
POINT
  5
4AE
100
AcDbEntity
  8
DEFPOINTS
  6
BYBLOCK
 62
     0
100
AcDbPoint
 10
-233.364015
 20
520.945335
 30
0.0
  0
POINT
  5
4AF
100
AcDbEntity
  8
DEFPOINTS
  6
BYBLOCK
 62
     0
100
AcDbPoint
 10
-224.364015
 20
520.945335
 30
0.0
  0
POINT
  5
4B0
100
AcDbEntity
  8
DEFPOINTS
  6
BYBLOCK
 62
     0
100
AcDbPoint
 10
-224.364015
 20
506.903369
 30
0.0
  0
ENDBLK
  5
4B1
100
AcDbEntity
  8
0
100
AcDbBlockEnd
  0
ENDSEC
  0
SECTION
  2
ENTITIES
  0
DIMENSION
  5
1F9
100
AcDbEntity
  8
寸法
  6
CONTINUOUS
 62
     1
100
AcDbDimension
  2
*D2
 10
-323.864015
 20
516.881719
 30
0.0
 11
-338.645366
 21
532.972499
 31
0.0
 70
    34
  3
STANDARD
100
AcDb2LineAngularDimension
 13
-323.091612
 23
526.131719
 33
0.0
 14
-323.86286
 24
517.316322
 34
0.0
 15
-323.478781
 25
516.881719
 35
0.0
 16
-332.573746
 26
534.150809
 36
0.0
1001
ACAD
1000
DSTYLE
1002
{
1070
   284
1070
    13
1070
   146
1040
0.5
1070
   272
1070
     3
1070
    40
1040
1.0
1070
   287
1070
     0
1002
}
  0
ARC
  5
1FE
100
AcDbEntity
  8
外形
  6
CONTINUOUS
100
AcDbCircle
 10
-354.941451
 20
522.881826
 30
0.0
 40
4.75
100
AcDbArc
 50
22.132391
 51
91.206316
  0
ARC
  5
1FF
100
AcDbEntity
  8
外形
  6
CONTINUOUS
100
AcDbCircle
 10
-351.239132
 20
525.15086
 30
0.0
 40
2.0
100
AcDbArc
 50
122.469962
 51
168.0
  0
LINE
  5
201
100
AcDbEntity
  8
外形
  6
CENTER
 62
     1
100
AcDbLine
 10
-355.041451
 20
529.77905
 30
0.0
 11
-355.041451
 21
516.148738
 31
0.0
  0
LINE
  5
202
100
AcDbEntity
  8
外形
  6
CENTER
 62
     1
100
AcDbLine
 10
-354.941451
 20
529.77905
 30
0.0
 11
-354.941451
 21
516.148738
 31
0.0
  0
ARC
  5
203
100
AcDbEntity
  8
外形
  6
CONTINUOUS
100
AcDbCircle
 10
-354.941451
 20
522.231826
 30
0.0
 40
5.4
100
AcDbArc
 50
91.061094
 51
180.0
  0
CIRCLE
  5
204
100
AcDbEntity
  8
外形
  6
CENTER
 62
     1
100
AcDbCircle
 10
-355.041451
 20
522.881826
 30
0.0
 40
6.0
  0
DIMENSION
  5
205
100
AcDbEntity
  8
寸法
  6
CONTINUOUS
100
AcDbDimension
  2
*D3
 10
-355.041451
 20
516.881826
 30
0.0
 11
-366.501723
 21
506.36684
 31
0.0
 70
    34
  3
STANDARD
100
AcDb2LineAngularDimension
 13
-355.041451
 23
530.541289
 33
0.0
 14
-355.041451
 24
511.626126
 34
0.0
 15
-352.8587
 25
527.15086
 35
0.0
 16
-356.222519
 26
499.991757
 36
0.0
1001
ACAD
1000
DSTYLE
1002
{
1070
    40
1040
1.0
1002
}
  0
LINE
  5
208
100
AcDbEntity
  8
外形
  6
CONTINUOUS
100
AcDbLine
 10
-318.437824
 20
527.631826
 30
0.0
 11
-323.200964
 21
524.881826
 31
0.0
  0
DIMENSION
  5
209
100
AcDbEntity
  8
寸法
  6
CONTINUOUS
100
AcDbDimension
  2
*D4
 10
-231.843581
 20
518.866583
 30
0.0
 11
-220.521228
 21
534.124509
 31
0.0
 70
   163
  3
STANDARD
100
AcDbDiametricDimension
 15
-225.884448
 25
526.89707
 35
0.0
 40
0.0
1001
ACAD
1000
DSTYLE
1002
{
1070
   284
1070
    13
1070
   146
1040
0.5
1070
   272
1070
     3
1070
    40
1040
1.0
1070
   287
1070
     0
1002
}
  0
LINE
  5
20A
100
AcDbEntity
  8
外形
  6
CENTER
 62
     1
100
AcDbLine
 10
-228.864015
 20
529.028077
 30
0.0
 11
-228.864015
 21
516.707001
 31
0.0
  0
ARC
  5
20B
100
AcDbEntity
  8
外形
  6
CONTINUOUS
100
AcDbCircle
 10
-228.864015
 20
522.881826
 30
0.0
 40
5.0
100
AcDbArc
 50
25.841933
 51
154.158067
  0
LINE
  5
20C
100
AcDbEntity
  8
外形
  6
CONTINUOUS
100
AcDbLine
 10
-198.864015
 20
526.881826
 30
0.0
 11
-198.864015
 21
518.881826
 31
0.0
  0
LINE
  5
20D
100
AcDbEntity
  8
外形
  6
CONTINUOUS
100
AcDbLine
 10
-199.864015
 20
525.061276
 30
0.0
 11
-199.864015
 21
527.881826
 31
0.0
  0
LINE
  5
20E
100
AcDbEntity
  8
外形
  6
CONTINUOUS
100
AcDbLine
 10
-198.864015
 20
518.881826
 30
0.0
 11
-198.864015
 21
526.881826
 31
0.0
  0
SPLINE
  5
210
100
AcDbEntity
  8
外形
  6
CONTINUOUS
100
AcDbSpline
210
0.0
220
0.0
230
1.0
 70
     8
 71
     3
 72
    10
 73
     6
 74
     0
 42
0.0000001
 43
0.0000001
 40
0.0
 40
0.0
 40
0.0
 40
0.0
 40
5.691934359646984
 40
12.09380829925229
 40
17.44101513272187
 40
17.44101513272187
 40
17.44101513272187
 40
17.44101513272187
 10
-319.8124144022242
 20
526.838206212898
 30
0.0
 10
-317.6753293161721
 20
526.4583002351603
 30
0.0
 10
-314.0275575165877
 20
525.9132864099318
 30
0.0
 10
-306.3080750010365
 20
521.3111860935936
 30
0.0
 10
-311.2889659205851
 20
519.3165669486527
 30
0.0
 10
-316.1833826496379
 20
517.5169362337178
 30
0.0
  0
LINE
  5
211
100
AcDbEntity
  8
外形
  6
HIDDEN
100
AcDbLine
 10
-307.864015
 20
527.881826
 30
0.0
 11
-311.364015
 21
524.381826
 31
0.0
  0
LINE
  5
212
100
AcDbEntity
  8
外形
  6
CONTINUOUS
100
AcDbLine
 10
-307.864015
 20
527.881826
 30
0.0
 11
-307.864015
 21
525.061276
 31
0.0
  0
LINE
  5
213
100
AcDbEntity
  8
外形
  6
CONTINUOUS
100
AcDbLine
 10
-309.864015
 20
527.631826
 30
0.0
 11
-309.864015
 21
524.402517
 31
0.0
  0
LINE
  5
214
100
AcDbEntity
  8
外形
  6
CONTINUOUS
100
AcDbLine
 10
-309.614015
 20
527.881826
 30
0.0
 11
-309.614015
 21
525.061276
 31
0.0
  0
LINE
  5
215
100
AcDbEntity
  8
外形
  6
CONTINUOUS
100
AcDbLine
 10
-309.864015
 20
527.631826
 30
0.0
 11
-309.864015
 21
524.402517
 31
0.0
  0
ARC
  5
218
100
AcDbEntity
  8
外形
  6
CONTINUOUS
100
AcDbCircle
 10
-317.690079
 20
523.086514
 30
0.0
 40
1.25
100
AcDbArc
 50
315.0
 51
135.0
  0
LINE
  5
219
100
AcDbEntity
  8
外形
  6
CONTINUOUS
100
AcDbLine
 10
-316.183383
 20
517.516936
 30
0.0
 11
-323.42952
 21
516.882981
 31
0.0
  0
LINE
  5
21C
100
AcDbEntity
  8
外形
  6
CONTINUOUS
100
AcDbLine
 10
-317.527993
 20
483.817729
 30
0.0
 11
-316.183383
 21
483.817729
 31
0.0
  0
SPLINE
  5
21D
100
AcDbEntity
  8
外形
  6
CONTINUOUS
100
AcDbSpline
210
0.0
220
0.0
230
-1.0
 70
     8
 71
     3
 72
    10
 73
     6
 74
     4
 42
0.0000001
 43
0.0000001
 44
0.0000000001
 40
0.0
 40
0.0
 40
0.0
 40
0.0
 40
5.039786751347365
 40
10.72395326214045
 40
15.49561131170895
 40
15.49561131170895
 40
15.49561131170895
 40
15.49561131170895
 10
-323.629214610399
 20
484.3177546147936
 30
0.0
 10
-321.969710887758
 20
484.6397855320634
 30
0.0
 10
-318.4385217248053
 20
485.3250217684657
 30
0.0
 10
-314.072673790762
 20
488.580306964225
 30
0.0
 10
-310.496191301502
 20
488.4000102923984
 30
0.0
 10
-308.8640147705648
 20
488.3177294487916
 30
0.0
 11
-323.629214610399
 21
484.3177546147936
 31
0.0
 11
-318.7632847023513
 21
485.6300718893209
 31
0.0
 11
-313.629214610399
 21
488.0695540502197
 31
0.0
 11
-308.8640147705648
 21
488.3177294487916
 31
0.0
  0
LINE
  5
220
100
AcDbEntity
  8
外形
  6
CONTINUOUS
100
AcDbLine
 10
-316.183383
 20
479.067729
 30
0.0
 11
-323.22349
 21
478.4518
 31
0.0
  0
DIMENSION
  5
221
100
AcDbEntity
  8
寸法
  6
CONTINUOUS
100
AcDbDimension
  2
*D5
 10
-302.864015
 20
467.687877
 30
0.0
 11
-313.364015
 21
470.187877
 31
0.0
 70
    32
  3
STANDARD
100
AcDbAlignedDimension
 13
-323.864015
 23
478.447476
 33
0.0
 14
-302.864015
 24
479.317729
 34
0.0
100
AcDbRotatedDimension
1001
ACAD
1000
DSTYLE
1002
{
1070
    40
1040
1.0
1002
}
  0
LINE
  5
222
100
AcDbEntity
  8
外形
  6
CENTER
 62
     1
100
AcDbLine
 10
-194.62263
 20
522.881826
 30
0.0
 11
-323.864015
 21
522.881826
 31
0.0
  0
DIMENSION
  5
223
100
AcDbEntity
  8
寸法
  6
CONTINUOUS
100
AcDbDimension
  2
*D6
 10
-198.864015
 20
496.253098
 30
0.0
 11
-261.364015
 21
498.753098
 31
0.0
 70
    32
  3
STANDARD
100
AcDbAlignedDimension
 13
-323.864015
 23
516.881826
 33
0.0
 14
-198.864015
 24
518.881826
 34
0.0
100
AcDbRotatedDimension
1001
ACAD
1000
DSTYLE
1002
{
1070
    40
1040
1.0
1002
}
  0
LINE
  5
224
100
AcDbEntity
  8
外形
  6
CENTER
 62
     1
100
AcDbLine
 10
-327.190159
 20
483.817729
 30
0.0
 11
-194.62263
 21
483.817729
 31
0.0
  0
LINE
  5
226
100
AcDbEntity
  8
外形
  6
CONTINUOUS
100
AcDbLine
 10
-323.864015
 20
483.817729
 30
0.0
 11
-323.22349
 21
478.601071
 31
0.0
  0
LINE
  5
227
100
AcDbEntity
  8
外形
  6
CONTINUOUS
100
AcDbLine
 10
-323.629215
 20
484.317755
 30
0.0
 11
-323.629215
 21
483.817729
 31
0.0
  0
LINE
  5
228
100
AcDbEntity
  8
外形
  6
CONTINUOUS
100
AcDbLine
 10
-323.864015
 20
483.817729
 30
0.0
 11
-317.527993
 21
483.817729
 31
0.0
  0
LINE
  5
229
100
AcDbEntity
  8
外形
  6
CONTINUOUS
100
AcDbLine
 10
-317.527993
 20
483.817729
 30
0.0
 11
-317.818042
 21
481.45547
 31
0.0
  0
LINE
  5
22A
100
AcDbEntity
  8
外形
  6
CONTINUOUS
100
AcDbLine
 10
-323.571788
 20
481.437729
 30
0.0
 11
-317.82022
 21
481.437729
 31
0.0
  0
ARC
  5
22C
100
AcDbEntity
  8
外形
  6
CONTINUOUS
100
AcDbCircle
 10
-355.041451
 20
522.881826
 30
0.0
 40
5.0
100
AcDbArc
 50
272.447573
 51
334.158067
  0
LINE
  5
22E
100
AcDbEntity
  8
外形
  6
CENTER
 62
     1
100
AcDbLine
 10
-347.952561
 20
522.881826
 30
0.0
 11
-361.862063
 21
522.881826
 31
0.0
  0
LINE
  5
22F
100
AcDbEntity
  8
外形
  6
CONTINUOUS
100
AcDbLine
 10
-353.340998
 20
524.881826
 30
0.0
 11
-359.646501
 21
524.881826
 31
0.0
  0
LINE
  5
230
100
AcDbEntity
  8
外形
  6
CONTINUOUS
100
AcDbLine
 10
-353.668547
 20
523.340829
 30
0.0
 11
-356.057296
 21
523.549817
 31
0.0
  0
LINE
  5
231
100
AcDbEntity
  8
外形
  6
CONTINUOUS
100
AcDbLine
 10
-355.041451
 20
516.881826
 30
0.0
 11
-357.308684
 21
517.662498
 31
0.0
  0
LINE
  5
232
100
AcDbEntity
  8
外形
  6
CONTINUOUS
100
AcDbLine
 10
-356.057296
 20
523.549817
 30
0.0
 11
-357.313918
 21
517.637877
 31
0.0
  0
ARC
  5
233
100
AcDbEntity
  8
外形
  6
CONTINUOUS
100
AcDbCircle
 10
-355.041451
 20
522.881826
 30
0.0
 40
5.353079
100
AcDbArc
 50
186.974376
 51
245.785857
  0
LINE
  5
234
100
AcDbEntity
  8
外形
  6
CONTINUOUS
100
AcDbLine
 10
-353.195427
 20
525.566684
 30
0.0
 11
-355.041451
 21
516.881826
 31
0.0
  0
LINE
  5
235
100
AcDbEntity
  8
外形
  6
CONTINUOUS
100
AcDbLine
 10
-350.541451
 20
520.702377
 30
0.0
 11
-350.541451
 21
524.636564
 31
0.0
  0
DIMENSION
  5
236
100
AcDbEntity
  8
寸法
  6
CONTINUOUS
100
AcDbDimension
  2
*D7
 10
-333.488905
 20
516.881719
 30
0.0
 11
-335.988905
 21
519.881772
 31
0.0
 70
    32
  3
STANDARD
100
AcDbAlignedDimension
 13
-323.864015
 23
522.881826
 33
0.0
 14
-323.864015
 24
516.881719
 34
0.0
 50
90.0
100
AcDbRotatedDimension
1001
ACAD
1000
DSTYLE
1002
{
1070
   284
1070
    13
1070
   146
1040
0.5
1070
   272
1070
     3
1070
    40
1040
1.0
1070
   287
1070
     0
1002
}
  0
CIRCLE
  5
237
100
AcDbEntity
  8
外形
  6
CONTINUOUS
100
AcDbCircle
 10
-320.432955
 20
520.357872
 30
0.0
 40
3.175
  0
ARC
  5
238
100
AcDbEntity
  8
外形
  6
CONTINUOUS
100
AcDbCircle
 10
-317.401586
 20
523.433616
 30
0.0
 40
0.4
100
AcDbArc
 50
355.0
 51
95.0
  0
LINE
  5
239
100
AcDbEntity
  8
外形
  6
CENTER
 62
     1
100
AcDbLine
 10
-323.858039
 20
520.357537
 30
0.0
 11
-317.098531
 21
520.357537
 31
0.0
  0
CIRCLE
  5
23A
100
AcDbEntity
  8
外形
  6
CONTINUOUS
100
AcDbCircle
 10
-320.432984
 20
520.357537
 30
0.0
 40
1.725
  0
ARC
  5
23B
100
AcDbEntity
  8
外形
  6
CONTINUOUS
100
AcDbCircle
 10
-320.432984
 20
521.296285
 30
0.0
 40
0.266666
100
AcDbArc
 50
240.283476
 51
299.716524
  0
ARC
  5
23C
100
AcDbEntity
  8
外形
  6
CONTINUOUS
100
AcDbCircle
 10
-321.245963
 20
520.826911
 30
0.0
 40
0.266666
100
AcDbArc
 50
300.283476
 51
359.716524
  0
ARC
  5
23D
100
AcDbEntity
  8
外形
  6
CONTINUOUS
100
AcDbCircle
 10
-321.245963
 20
519.888164
 30
0.0
 40
0.266666
100
AcDbArc
 50
0.283476
 51
59.716524
  0
ARC
  5
23E
100
AcDbEntity
  8
外形
  6
CONTINUOUS
100
AcDbCircle
 10
-320.432984
 20
519.41879
 30
0.0
 40
0.266666
100
AcDbArc
 50
60.283476
 51
119.716524
  0
ARC
  5
23F
100
AcDbEntity
  8
外形
  6
CONTINUOUS
100
AcDbCircle
 10
-319.620005
 20
519.888164
 30
0.0
 40
0.266666
100
AcDbArc
 50
120.283476
 51
179.716524
  0
ARC
  5
240
100
AcDbEntity
  8
外形
  6
CONTINUOUS
100
AcDbCircle
 10
-319.620005
 20
520.826911
 30
0.0
 40
0.266666
100
AcDbArc
 50
180.283476
 51
239.716524
  0
LINE
  5
241
100
AcDbEntity
  8
外形
  6
CONTINUOUS
100
AcDbLine
 10
-319.889014
 20
519.415353
 30
0.0
 11
-320.300795
 21
519.650387
 31
0.0
  0
LINE
  5
242
100
AcDbEntity
  8
外形
  6
CONTINUOUS
100
AcDbLine
 10
-319.886668
 20
519.889483
 30
0.0
 11
-319.889014
 21
519.415353
 31
0.0
  0
LINE
  5
243
100
AcDbEntity
  8
外形
  6
CONTINUOUS
100
AcDbLine
 10
-320.976954
 20
519.415353
 30
0.0
 11
-320.9793
 21
519.889483
 31
0.0
  0
LINE
  5
244
100
AcDbEntity
  8
外形
  6
CONTINUOUS
100
AcDbLine
 10
-320.565173
 20
519.650387
 30
0.0
 11
-320.976954
 21
519.415353
 31
0.0
  0
LINE
  5
245
100
AcDbEntity
  8
外形
  6
CONTINUOUS
100
AcDbLine
 10
-321.520924
 20
520.357537
 30
0.0
 11
-321.111489
 21
520.596634
 31
0.0
  0
LINE
  5
246
100
AcDbEntity
  8
外形
  6
CONTINUOUS
100
AcDbLine
 10
-321.111489
 20
520.118441
 30
0.0
 11
-321.520924
 21
520.357537
 31
0.0
  0
LINE
  5
247
100
AcDbEntity
  8
外形
  6
CONTINUOUS
100
AcDbLine
 10
-320.976954
 20
521.299722
 30
0.0
 11
-320.565173
 21
521.064688
 31
0.0
  0
LINE
  5
248
100
AcDbEntity
  8
外形
  6
CONTINUOUS
100
AcDbLine
 10
-320.9793
 20
520.825592
 30
0.0
 11
-320.976954
 21
521.299722
 31
0.0
  0
LINE
  5
249
100
AcDbEntity
  8
外形
  6
CONTINUOUS
100
AcDbLine
 10
-319.889014
 20
521.299722
 30
0.0
 11
-319.886668
 21
520.825592
 31
0.0
  0
LINE
  5
24A
100
AcDbEntity
  8
外形
  6
CONTINUOUS
100
AcDbLine
 10
-320.300795
 20
521.064688
 30
0.0
 11
-319.889014
 21
521.299722
 31
0.0
  0
LINE
  5
24B
100
AcDbEntity
  8
外形
  6
CONTINUOUS
100
AcDbLine
 10
-319.345043
 20
520.357537
 30
0.0
 11
-319.754479
 21
520.118441
 31
0.0
  0
LINE
  5
24C
100
AcDbEntity
  8
外形
  6
CONTINUOUS
100
AcDbLine
 10
-319.754479
 20
520.596634
 30
0.0
 11
-319.345043
 21
520.357537
 31
0.0
  0
LINE
  5
24D
100
AcDbEntity
  8
外形
  6
CONTINUOUS
100
AcDbLine
 10
-318.834588
 20
523.709772
 30
0.0
 11
-318.573963
 21
523.970398
 31
0.0
  0
LINE
  5
24E
100
AcDbEntity
  8
外形
  6
CONTINUOUS
100
AcDbLine
 10
-317.136668
 20
521.872159
 30
0.0
 11
-316.806196
 21
522.202631
 31
0.0
  0
LINE
  5
24F
100
AcDbEntity
  8
外形
  6
CENTER
 62
     1
100
AcDbLine
 10
-320.432984
 20
516.182872
 30
0.0
 11
-320.432984
 21
524.595843
 31
0.0
  0
ARC
  5
250
100
AcDbEntity
  8
外形
  6
CONTINUOUS
100
AcDbCircle
 10
-323.464382
 20
517.281459
 30
0.0
 40
0.4
100
AcDbArc
 50
175.0
 51
275.0
  0
ARC
  5
251
100
AcDbEntity
  8
外形
  6
CONTINUOUS
100
AcDbCircle
 10
-322.96875
 20
522.946552
 30
0.0
 40
0.4
100
AcDbArc
 50
95.0
 51
175.0
  0
LINE
  5
252
100
AcDbEntity
  8
外形
  6
CONTINUOUS
100
AcDbLine
 10
-317.436448
 20
523.832094
 30
0.0
 11
-323.337975
 21
523.315777
 31
0.0
  0
LINE
  5
253
100
AcDbEntity
  8
外形
  6
CONTINUOUS
100
AcDbLine
 10
-323.200964
 20
524.881826
 30
0.0
 11
-323.86286
 21
517.316322
 31
0.0
  0
ARC
  5
254
100
AcDbEntity
  8
外形
  6
CONTINUOUS
100
AcDbCircle
 10
-317.897217
 20
517.768523
 30
0.0
 40
0.4
100
AcDbArc
 50
275.0
 51
355.0
  0
LINE
  5
255
100
AcDbEntity
  8
外形
  6
CONTINUOUS
100
AcDbLine
 10
-317.003108
 20
523.398753
 30
0.0
 11
-317.527993
 21
517.399298
 31
0.0
  0
LINE
  5
256
100
AcDbEntity
  8
外形
  6
CENTER
 62
     1
100
AcDbLine
 10
-323.449982
 20
516.881826
 30
0.0
 11
-323.864015
 21
516.881826
 31
0.0
  0
LINE
  5
257
100
AcDbEntity
  8
外形
  6
CONTINUOUS
 62
     1
100
AcDbLine
 10
-323.864015
 20
517.298699
 30
0.0
 11
-323.864015
 21
516.881826
 31
0.0
  0
TEXT
  5
258
100
AcDbEntity
  8
外形
  6
CONTINUOUS
 62
     2
100
AcDbText
 10
-305.840882
 20
451.118136
 30
0.0
 40
6.0
  1
C10K-SCLCR06-12
100
AcDbText
  0
LINE
  5
259
100
AcDbEntity
  8
外形
  6
CONTINUOUS
100
AcDbLine
 10
-308.864015
 20
488.317729
 30
0.0
 11
-199.864015
 21
488.317729
 31
0.0
  0
LINE
  5
25A
100
AcDbEntity
  8
外形
  6
CONTINUOUS
100
AcDbLine
 10
-302.864015
 20
479.317729
 30
0.0
 11
-199.864015
 21
479.317729
 31
0.0
  0
LINE
  5
25B
100
AcDbEntity
  8
外形
  6
CONTINUOUS
100
AcDbLine
 10
-235.364015
 20
520.702377
 30
0.0
 11
-309.194548
 21
520.702377
 31
0.0
  0
LINE
  5
25C
100
AcDbEntity
  8
外形
  6
CONTINUOUS
100
AcDbLine
 10
-235.364015
 20
517.881826
 30
0.0
 11
-309.614015
 21
517.881826
 31
0.0
  0
LINE
  5
25D
100
AcDbEntity
  8
外形
  6
CONTINUOUS
100
AcDbLine
 10
-235.364015
 20
525.061276
 30
0.0
 11
-309.864015
 21
525.061276
 31
0.0
  0
LINE
  5
25E
100
AcDbEntity
  8
外形
  6
CONTINUOUS
100
AcDbLine
 10
-302.864015
 20
478.817729
 30
0.0
 11
-309.614015
 21
478.817729
 31
0.0
  0
LINE
  5
25F
100
AcDbEntity
  8
外形
  6
CONTINUOUS
100
AcDbLine
 10
-311.864015
 20
479.067729
 30
0.0
 11
-309.864015
 21
479.067729
 31
0.0
  0
LINE
  5
260
100
AcDbEntity
  8
外形
  6
HIDDEN
100
AcDbLine
 10
-307.864015
 20
478.817729
 30
0.0
 11
-311.364015
 21
482.317729
 31
0.0
  0
LINE
  5
261
100
AcDbEntity
  8
外形
  6
HIDDEN
100
AcDbLine
 10
-308.364015
 20
488.317729
 30
0.0
 11
-311.364015
 21
485.317729
 31
0.0
  0
LINE
  5
262
100
AcDbEntity
  8
外形
  6
CONTINUOUS
100
AcDbLine
 10
-309.864015
 20
479.067729
 30
0.0
 11
-311.864015
 21
479.067729
 31
0.0
  0
LINE
  5
263
100
AcDbEntity
  8
外形
  6
HIDDEN
100
AcDbLine
 10
-311.364015
 20
485.317729
 30
0.0
 11
-311.364015
 21
482.317729
 31
0.0
  0
LINE
  5
264
100
AcDbEntity
  8
外形
  6
CONTINUOUS
100
AcDbLine
 10
-307.864015
 20
488.317729
 30
0.0
 11
-307.864015
 21
478.817729
 31
0.0
  0
LINE
  5
265
100
AcDbEntity
  8
外形
  6
CONTINUOUS
100
AcDbLine
 10
-309.614015
 20
487.904847
 30
0.0
 11
-309.614015
 21
479.317729
 31
0.0
  0
LINE
  5
266
100
AcDbEntity
  8
外形
  6
CONTINUOUS
100
AcDbLine
 10
-309.614015
 20
487.904847
 30
0.0
 11
-309.614015
 21
478.817729
 31
0.0
  0
LINE
  5
267
100
AcDbEntity
  8
外形
  6
CONTINUOUS
100
AcDbLine
 10
-309.864015
 20
487.767235
 30
0.0
 11
-309.864015
 21
479.067729
 31
0.0
  0
LINE
  5
268
100
AcDbEntity
  8
外形
  6
CONTINUOUS
100
AcDbLine
 10
-309.864015
 20
479.067729
 30
0.0
 11
-309.614015
 21
478.817729
 31
0.0
  0
LINE
  5
269
100
AcDbEntity
  8
外形
  6
CONTINUOUS
100
AcDbLine
 10
-316.183383
 20
483.817729
 30
0.0
 11
-316.183383
 21
479.067729
 31
0.0
  0
LINE
  5
26A
100
AcDbEntity
  8
外形
  6
CONTINUOUS
100
AcDbLine
 10
-309.864015
 20
479.067729
 30
0.0
 11
-316.183383
 21
479.067729
 31
0.0
  0
SPLINE
  5
26B
100
AcDbEntity
  8
外形
  6
CONTINUOUS
100
AcDbSpline
210
0.0
220
0.0
230
-1.0
 70
     8
 71
     3
 72
     9
 73
     5
 74
     3
 42
0.0000001
 43
0.0000001
 44
0.0000000001
 40
0.0
 40
0.0
 40
0.0
 40
0.0
 40
5.705479858365976
 40
8.61208202306711
 40
8.61208202306711
 40
8.61208202306711
 40
8.61208202306711
 10
-308.8640147705648
 20
488.3177294487916
 30
0.0
 10
-310.5800622792871
 20
487.4779147371396
 30
0.0
 10
-313.1703337844832
 20
486.2102644499652
 30
0.0
 10
-315.4230758115441
 20
484.4214570360902
 30
0.0
 10
-316.1833826496386
 20
483.8177294487918
 30
0.0
 11
-308.8640147705648
 21
488.3177294487916
 31
0.0
 11
-313.8640147705651
 21
485.5695481566972
 31
0.0
 11
-316.1833826496386
 21
483.8177294487918
 31
0.0
  0
LINE
  5
26C
100
AcDbEntity
  8
外形
  6
CONTINUOUS
100
AcDbLine
 10
-313.864015
 20
479.067729
 30
0.0
 11
-309.864015
 21
479.067729
 31
0.0
  0
LINE
  5
26D
100
AcDbEntity
  8
外形
  6
CONTINUOUS
100
AcDbLine
 10
-302.864015
 20
478.817729
 30
0.0
 11
-302.864015
 21
479.317729
 31
0.0
  0
LINE
  5
26E
100
AcDbEntity
  8
外形
  6
HIDDEN
100
AcDbLine
 10
-307.864015
 20
517.881826
 30
0.0
 11
-311.364015
 21
521.381826
 31
0.0
  0
LINE
  5
26F
100
AcDbEntity
  8
外形
  6
CONTINUOUS
100
AcDbLine
 10
-309.864015
 20
524.402517
 30
0.0
 11
-311.864015
 21
524.402517
 31
0.0
  0
LINE
  5
270
100
AcDbEntity
  8
外形
  6
HIDDEN
100
AcDbLine
 10
-311.364015
 20
524.381826
 30
0.0
 11
-311.364015
 21
521.381826
 31
0.0
  0
LINE
  5
271
100
AcDbEntity
  8
外形
  6
CONTINUOUS
100
AcDbLine
 10
-309.614015
 20
520.309194
 30
0.0
 11
-309.614015
 21
517.881826
 31
0.0
  0
LINE
  5
272
100
AcDbEntity
  8
外形
  6
CONTINUOUS
100
AcDbLine
 10
-309.864015
 20
518.131826
 30
0.0
 11
-309.864015
 21
520.125015
 31
0.0
  0
LINE
  5
273
100
AcDbEntity
  8
外形
  6
CONTINUOUS
100
AcDbLine
 10
-307.864015
 20
520.702377
 30
0.0
 11
-307.864015
 21
517.881826
 31
0.0
  0
ARC
  5
274
100
AcDbEntity
  8
外形
  6
CONTINUOUS
100
AcDbCircle
 10
-303.364015
 20
522.881826
 30
0.0
 40
5.0
100
AcDbArc
 50
154.158067
 51
205.841933
  0
LINE
  5
275
100
AcDbEntity
  8
外形
  6
CONTINUOUS
100
AcDbLine
 10
-309.864015
 20
518.131826
 30
0.0
 11
-309.614015
 21
517.881826
 31
0.0
  0
LINE
  5
276
100
AcDbEntity
  8
外形
  6
CONTINUOUS
100
AcDbLine
 10
-309.864015
 20
518.131826
 30
0.0
 11
-314.524369
 21
518.131826
 31
0.0
  0
DIMENSION
  5
278
100
AcDbEntity
  8
寸法
  6
CONTINUOUS
100
AcDbDimension
  2
*D8
 10
-224.364015
 20
506.903369
 30
0.0
 11
-228.864015
 21
509.403369
 31
0.0
 70
    32
  3
STANDARD
100
AcDbAlignedDimension
 13
-233.364015
 23
520.945335
 33
0.0
 14
-224.364015
 24
520.945335
 34
0.0
100
AcDbRotatedDimension
1001
ACAD
1000
DSTYLE
1002
{
1070
   284
1070
    13
1070
   146
1040
0.5
1070
   272
1070
     3
1070
    40
1040
1.0
1070
   287
1070
     0
1002
}
  0
LINE
  5
279
100
AcDbEntity
  8
外形
  6
CONTINUOUS
100
AcDbLine
 10
-224.364015
 20
525.061276
 30
0.0
 11
-224.364015
 21
520.702377
 31
0.0
  0
LINE
  5
27A
100
AcDbEntity
  8
外形
  6
CONTINUOUS
100
AcDbLine
 10
-233.364015
 20
525.061276
 30
0.0
 11
-233.364015
 21
520.702377
 31
0.0
  0
ARC
  5
27B
100
AcDbEntity
  8
外形
  6
CONTINUOUS
100
AcDbCircle
 10
-228.864015
 20
522.881826
 30
0.0
 40
5.0
100
AcDbArc
 50
205.841933
 51
334.158067
  0
LINE
  5
27C
100
AcDbEntity
  8
外形
  6
CONTINUOUS
100
AcDbLine
 10
-199.864015
 20
488.317729
 30
0.0
 11
-198.864015
 21
487.317729
 31
0.0
  0
LINE
  5
27D
100
AcDbEntity
  8
外形
  6
CONTINUOUS
100
AcDbLine
 10
-199.864015
 20
479.317729
 30
0.0
 11
-198.864015
 21
480.317729
 31
0.0
  0
LINE
  5
27E
100
AcDbEntity
  8
外形
  6
CONTINUOUS
100
AcDbLine
 10
-199.864015
 20
479.317729
 30
0.0
 11
-199.864015
 21
488.317729
 31
0.0
  0
LINE
  5
27F
100
AcDbEntity
  8
外形
  6
CONTINUOUS
100
AcDbLine
 10
-198.864015
 20
487.317729
 30
0.0
 11
-198.864015
 21
480.317729
 31
0.0
  0
LINE
  5
280
100
AcDbEntity
  8
外形
  6
CONTINUOUS
100
AcDbLine
 10
-199.864015
 20
517.881826
 30
0.0
 11
-198.864015
 21
518.881826
 31
0.0
  0
LINE
  5
281
100
AcDbEntity
  8
外形
  6
CONTINUOUS
100
AcDbLine
 10
-199.864015
 20
520.702377
 30
0.0
 11
-222.364015
 21
520.702377
 31
0.0
  0
LINE
  5
282
100
AcDbEntity
  8
外形
  6
CONTINUOUS
100
AcDbLine
 10
-199.864015
 20
517.881826
 30
0.0
 11
-222.364015
 21
517.881826
 31
0.0
  0
LINE
  5
283
100
AcDbEntity
  8
外形
  6
CONTINUOUS
100
AcDbLine
 10
-199.864015
 20
525.061276
 30
0.0
 11
-222.364015
 21
525.061276
 31
0.0
  0
LINE
  5
284
100
AcDbEntity
  8
外形
  6
CONTINUOUS
100
AcDbLine
 10
-199.864015
 20
520.702377
 30
0.0
 11
-199.864015
 21
517.881826
 31
0.0
  0
ARC
  5
285
100
AcDbEntity
  8
外形
  6
CONTINUOUS
100
AcDbCircle
 10
-204.364015
 20
522.881826
 30
0.0
 40
5.0
100
AcDbArc
 50
334.158067
 51
25.841933
  0
LEADER
  5
286
100
AcDbEntity
  8
寸法
  6
CONTINUOUS
 62
     1
100
AcDbLeader
  3
STANDARD
 73
     0
 74
     0
 75
     1
 40
3.0
 41
26.0
 76
     3
 10
-351.236733
 20
527.521236
 30
0.0
 10
-343.269408
 20
549.340826
 30
0.0
 10
-341.269408
 20
549.340826
 30
0.0
 77
   256
340
287
213
-0.1129475379637483
223
0.5510341987360619
233
0.0
1001
ACAD
1000
DSTYLE
1002
{
1070
   284
1070
    13
1070
   146
1040
0.5
1070
   272
1070
     3
1070
    40
1040
1.0
1070
   287
1070
     0
1002
}
  0
MTEXT
  5
287
102
{ACAD_REACTORS
330
286
102
}
100
AcDbEntity
  8
寸法
  6
CONTINUOUS
 62
     3
100
AcDbMText
 10
-340.15646
 20
551.289792
 30
0.0
 40
3.0
 41
0.0
 71
     4
 72
     1
  1
%%c12最小加工径
  0
LINE
  5
288
100
AcDbEntity
  8
外形
  6
CONTINUOUS
100
AcDbLine
 10
-309.864015
 20
527.631826
 30
0.0
 11
-318.437824
 21
527.631826
 31
0.0
  0
LINE
  5
289
100
AcDbEntity
  8
外形
  6
CONTINUOUS
100
AcDbLine
 10
-319.812414
 20
526.838206
 30
0.0
 11
-319.378686
 21
526.838206
 31
0.0
  0
LINE
  5
28A
100
AcDbEntity
  8
外形
  6
CONTINUOUS
100
AcDbLine
 10
-235.364015
 20
527.881826
 30
0.0
 11
-309.614015
 21
527.881826
 31
0.0
  0
LINE
  5
28B
100
AcDbEntity
  8
外形
  6
CONTINUOUS
100
AcDbLine
 10
-309.864015
 20
527.631826
 30
0.0
 11
-309.614015
 21
527.881826
 31
0.0
  0
LINE
  5
28C
100
AcDbEntity
  8
外形
  6
CONTINUOUS
100
AcDbLine
 10
-199.864015
 20
527.881826
 30
0.0
 11
-198.864015
 21
526.881826
 31
0.0
  0
LINE
  5
28D
100
AcDbEntity
  8
外形
  6
CONTINUOUS
100
AcDbLine
 10
-199.864015
 20
527.881826
 30
0.0
 11
-222.364015
 21
527.881826
 31
0.0
  0
ENDSEC
  0
SECTION
  2
OBJECTS
  0
DICTIONARY
  5
1E
100
AcDbDictionary
  3
ACAD_GROUP
350
1C
  3
ACAD_MLINESTYLE
350
1D
  0
DICTIONARY
  5
38
100
AcDbDictionary
280
     1
  3
ACAD_XREC_ROUNDTRIP
360
39
  0
DICTIONARY
  5
54
100
AcDbDictionary
280
     1
  3
ACAD_XREC_ROUNDTRIP
360
55
  0
DICTIONARY
  5
3
100
AcDbDictionary
280
     1
  3
ACAD_LAYOUTSELFREF
360
4
  0
DICTIONARY
  5
A
100
AcDbDictionary
280
     1
  3
ACAD_LAYOUTSELFREF
360
B
  0
DICTIONARY
  5
1C
102
{ACAD_REACTORS
330
1E
102
}
100
AcDbDictionary
  0
DICTIONARY
  5
1D
102
{ACAD_REACTORS
330
1E
102
}
100
AcDbDictionary
  3
STANDARD
350
20
  0
XRECORD
  5
39
102
{ACAD_REACTORS
330
38
102
}
100
AcDbXrecord
102
PLOTBIT
280
     0
  0
XRECORD
  5
55
102
{ACAD_REACTORS
330
54
102
}
100
AcDbXrecord
102
ACADR14ROUNDTRIP
1000
DSTYLE
1002
{
1070
   341
340
0
1070
   343
340
0
1070
   344
340
0
1002
}
  0
XRECORD
  5
4
102
{ACAD_REACTORS
330
3
102
}
100
AcDbXrecord
340
2
  0
XRECORD
  5
B
102
{ACAD_REACTORS
330
A
102
}
100
AcDbXrecord
340
9
  0
MLINESTYLE
  5
20
102
{ACAD_REACTORS
330
1D
102
}
100
AcDbMlineStyle
  2
STANDARD
 70
     0
  3

 62
     0
 51
90.0
 52
90.0
 71
     2
 49
0.5
 62
   256
  6
BYLAYER
 49
-0.5
 62
   256
  6
BYLAYER
  0
ENDSEC
  0
EOF
