  0
SECTION
  2
HEADER
  9
$ACADVER
  1
AC1015
  9
$ACADMAINTVER
 70
     6
  9
$DWGCODEPAGE
  3
ANSI_932
  9
$INSBASE
 10
0.0
 20
0.0
 30
0.0
  9
$EXTMIN
 10
-112.4457228271958
 20
-105.0206150746097
 30
-0.0000000349181948
  9
$EXTMAX
 10
204.27734678567
 20
33.64208450162369
 30
0.0000000814935746
  9
$LIMMIN
 10
0.0
 20
0.0
  9
$LIMMAX
 10
420.0
 20
297.0
  9
$ORTHOMODE
 70
     0
  9
$REGENMODE
 70
     1
  9
$FILLMODE
 70
     1
  9
$QTEXTMODE
 70
     0
  9
$MIRRTEXT
 70
     1
  9
$LTSCALE
 40
1.0
  9
$ATTMODE
 70
     1
  9
$TEXTSIZE
 40
2.5
  9
$TRACEWID
 40
1.0
  9
$TEXTSTYLE
  7
STANDARD
  9
$CLAYER
  8
AM_0
  9
$CELTYPE
  6
ByLayer
  9
$CECOLOR
 62
   256
  9
$CELTSCALE
 40
1.0
  9
$DISPSILH
 70
     0
  9
$DIMSCALE
 40
1.0
  9
$DIMASZ
 40
2.5
  9
$DIMEXO
 40
0.625
  9
$DIMDLI
 40
3.75
  9
$DIMRND
 40
0.0
  9
$DIMDLE
 40
0.0
  9
$DIMEXE
 40
1.25
  9
$DIMTP
 40
0.0
  9
$DIMTM
 40
0.0
  9
$DIMTXT
 40
2.5
  9
$DIMCEN
 40
2.5
  9
$DIMTSZ
 40
0.0
  9
$DIMTOL
 70
     0
  9
$DIMLIM
 70
     0
  9
$DIMTIH
 70
     0
  9
$DIMTOH
 70
     0
  9
$DIMSE1
 70
     0
  9
$DIMSE2
 70
     0
  9
$DIMTAD
 70
     1
  9
$DIMZIN
 70
     8
  9
$DIMBLK
  1

  9
$DIMASO
 70
     1
  9
$DIMSHO
 70
     1
  9
$DIMPOST
  1

  9
$DIMAPOST
  1

  9
$DIMALT
 70
     0
  9
$DIMALTD
 70
     3
  9
$DIMALTF
 40
0.03937007874016
  9
$DIMLFAC
 40
1.0
  9
$DIMTOFL
 70
     1
  9
$DIMTVP
 40
0.0
  9
$DIMTIX
 70
     0
  9
$DIMSOXD
 70
     0
  9
$DIMSAH
 70
     0
  9
$DIMBLK1
  1

  9
$DIMBLK2
  1

  9
$DIMSTYLE
  2
ISO-25
  9
$DIMCLRD
 70
     0
  9
$DIMCLRE
 70
     0
  9
$DIMCLRT
 70
     0
  9
$DIMTFAC
 40
1.0
  9
$DIMGAP
 40
0.625
  9
$DIMJUST
 70
     0
  9
$DIMSD1
 70
     0
  9
$DIMSD2
 70
     0
  9
$DIMTOLJ
 70
     0
  9
$DIMTZIN
 70
     8
  9
$DIMALTZ
 70
     0
  9
$DIMALTTZ
 70
     0
  9
$DIMUPT
 70
     0
  9
$DIMDEC
 70
     2
  9
$DIMTDEC
 70
     2
  9
$DIMALTU
 70
     2
  9
$DIMALTTD
 70
     3
  9
$DIMTXSTY
  7
STANDARD
  9
$DIMAUNIT
 70
     0
  9
$DIMADEC
 70
     0
  9
$DIMALTRND
 40
0.0
  9
$DIMAZIN
 70
     0
  9
$DIMDSEP
 70
    46
  9
$DIMATFIT
 70
     3
  9
$DIMFRAC
 70
     0
  9
$DIMLDRBLK
  1

  9
$DIMLUNIT
 70
     2
  9
$DIMLWD
 70
    -2
  9
$DIMLWE
 70
    -2
  9
$DIMTMOVE
 70
     0
  9
$LUNITS
 70
     2
  9
$LUPREC
 70
     2
  9
$SKETCHINC
 40
1.0
  9
$FILLETRAD
 40
2.5
  9
$AUNITS
 70
     0
  9
$AUPREC
 70
     0
  9
$MENU
  1
.
  9
$ELEVATION
 40
0.0
  9
$PELEVATION
 40
0.0
  9
$THICKNESS
 40
0.0
  9
$LIMCHECK
 70
     0
  9
$CHAMFERA
 40
2.5
  9
$CHAMFERB
 40
2.5
  9
$CHAMFERC
 40
20.0
  9
$CHAMFERD
 40
0.0
  9
$SKPOLY
 70
     0
  9
$TDCREATE
 40
2453210.379162743
  9
$TDUCREATE
 40
2453210.004162743
  9
$TDUPDATE
 40
2455468.607286412
  9
$TDUUPDATE
 40
2455468.232286412
  9
$TDINDWG
 40
0.0420488426
  9
$TDUSRTIMER
 40
0.0420483796
  9
$USRTIMER
 70
     1
  9
$ANGBASE
 50
0.0
  9
$ANGDIR
 70
     0
  9
$PDMODE
 70
     0
  9
$PDSIZE
 40
0.0
  9
$PLINEWID
 40
0.0
  9
$SPLFRAME
 70
     0
  9
$SPLINETYPE
 70
     6
  9
$SPLINESEGS
 70
     8
  9
$HANDSEED
  5
29BB
  9
$SURFTAB1
 70
     6
  9
$SURFTAB2
 70
     6
  9
$SURFTYPE
 70
     6
  9
$SURFU
 70
     6
  9
$SURFV
 70
     6
  9
$UCSBASE
  2

  9
$UCSNAME
  2

  9
$UCSORG
 10
0.0
 20
0.0
 30
0.0
  9
$UCSXDIR
 10
1.0
 20
0.0
 30
0.0
  9
$UCSYDIR
 10
0.0
 20
1.0
 30
0.0
  9
$UCSORTHOREF
  2

  9
$UCSORTHOVIEW
 70
     0
  9
$UCSORGTOP
 10
0.0
 20
0.0
 30
0.0
  9
$UCSORGBOTTOM
 10
0.0
 20
0.0
 30
0.0
  9
$UCSORGLEFT
 10
0.0
 20
0.0
 30
0.0
  9
$UCSORGRIGHT
 10
0.0
 20
0.0
 30
0.0
  9
$UCSORGFRONT
 10
0.0
 20
0.0
 30
0.0
  9
$UCSORGBACK
 10
0.0
 20
0.0
 30
0.0
  9
$PUCSBASE
  2

  9
$PUCSNAME
  2

  9
$PUCSORG
 10
0.0
 20
0.0
 30
0.0
  9
$PUCSXDIR
 10
1.0
 20
0.0
 30
0.0
  9
$PUCSYDIR
 10
0.0
 20
1.0
 30
0.0
  9
$PUCSORTHOREF
  2

  9
$PUCSORTHOVIEW
 70
     0
  9
$PUCSORGTOP
 10
0.0
 20
0.0
 30
0.0
  9
$PUCSORGBOTTOM
 10
0.0
 20
0.0
 30
0.0
  9
$PUCSORGLEFT
 10
0.0
 20
0.0
 30
0.0
  9
$PUCSORGRIGHT
 10
0.0
 20
0.0
 30
0.0
  9
$PUCSORGFRONT
 10
0.0
 20
0.0
 30
0.0
  9
$PUCSORGBACK
 10
0.0
 20
0.0
 30
0.0
  9
$USERI1
 70
     0
  9
$USERI2
 70
     0
  9
$USERI3
 70
     0
  9
$USERI4
 70
     0
  9
$USERI5
 70
     0
  9
$USERR1
 40
0.0
  9
$USERR2
 40
0.0
  9
$USERR3
 40
0.0
  9
$USERR4
 40
0.0
  9
$USERR5
 40
0.0
  9
$WORLDVIEW
 70
     1
  9
$SHADEDGE
 70
     3
  9
$SHADEDIF
 70
    70
  9
$TILEMODE
 70
     1
  9
$MAXACTVP
 70
    64
  9
$PINSBASE
 10
0.0
 20
0.0
 30
0.0
  9
$PLIMCHECK
 70
     0
  9
$PEXTMIN
 10
1.000000000000000E+20
 20
1.000000000000000E+20
 30
1.000000000000000E+20
  9
$PEXTMAX
 10
-1.000000000000000E+20
 20
-1.000000000000000E+20
 30
-1.000000000000000E+20
  9
$PLIMMIN
 10
0.0
 20
0.0
  9
$PLIMMAX
 10
420.0
 20
297.0
  9
$UNITMODE
 70
     0
  9
$VISRETAIN
 70
     1
  9
$PLINEGEN
 70
     0
  9
$PSLTSCALE
 70
     1
  9
$TREEDEPTH
 70
  3020
  9
$CMLSTYLE
  2
Standard
  9
$CMLJUST
 70
     0
  9
$CMLSCALE
 40
20.0
  9
$PROXYGRAPHICS
 70
     1
  9
$MEASUREMENT
 70
     1
  9
$CELWEIGHT
370
    13
  9
$ENDCAPS
280
     0
  9
$JOINSTYLE
280
     0
  9
$LWDISPLAY
290
     0
  9
$INSUNITS
 70
     4
  9
$HYPERLINKBASE
  1

  9
$STYLESHEET
  1
sei_cad.ctb
  9
$XEDIT
290
     1
  9
$CEPSNTYPE
380
     0
  9
$PSTYLEMODE
290
     1
  9
$FINGERPRINTGUID
  2
{29CAF1BE-B3FE-466B-B149-E572B19B5D3B}
  9
$VERSIONGUID
  2
{ED4F0229-6A5C-4F34-8D6C-02122922E4A5}
  9
$EXTNAMES
290
     1
  9
$PSVPSCALE
 40
0.0
  9
$OLESTARTUP
290
     0
  0
ENDSEC
  0
SECTION
  2
CLASSES
  0
CLASS
  1
ACDBDICTIONARYWDFLT
  2
AcDbDictionaryWithDefault
  3
ObjectDBX Classes
 90
        0
280
     0
281
     0
  0
CLASS
  1
ACDBPLACEHOLDER
  2
AcDbPlaceHolder
  3
ObjectDBX Classes
 90
        0
280
     0
281
     0
  0
CLASS
  1
LAYOUT
  2
AcDbLayout
  3
ObjectDBX Classes
 90
        0
280
     0
281
     0
  0
CLASS
  1
AMGSETTINGSOBJ
  2
AmgSettingsObj
  3
"AcadM|Product Description: AutoCAD Mechanical 2000|Company: Autodesk"
 90
        0
280
     1
281
     0
  0
CLASS
  1
ACME_DOCUMENT
  2
AcMeDbDoc
  3
AcMeServices
 90
        0
280
     1
281
     0
  0
CLASS
  1
ACMESCOPE
  2
AcMeScope
  3
AcMeServices
 90
        0
280
     1
281
     0
  0
CLASS
  1
ACMECOMMANDHISTORY
  2
AcMeCommandHistory
  3
AcMeServices
 90
        0
280
     1
281
     0
  0
CLASS
  1
DICTIONARYVAR
  2
AcDbDictionaryVar
  3
ObjectDBX Classes
 90
        0
280
     0
281
     0
  0
CLASS
  1
ACIMSYSVARMAN
  2
AcImSysVarManager
  3
AcMeServices
 90
        0
280
     1
281
     0
  0
CLASS
  1
ACIMREALSYSVAR
  2
AcImRealSysVar
  3
AcMeServices
 90
        0
280
     1
281
     0
  0
CLASS
  1
ACIMINTSYSVAR
  2
AcImIntSysVar
  3
AcMeServices
 90
        0
280
     1
281
     0
  0
CLASS
  1
ACMEDRAWINGMAN
  2
AcMeDrawingMan
  3
AcMeServices
 90
        0
280
     1
281
     0
  0
CLASS
  1
ACMEVIEW
  2
AcMeView
  3
AcMeServices
 90
        0
280
     1
281
     0
  0
CLASS
  1
ACDBENTITYCACHE
  2
AcMeEntityCache
  3
AcMeServices
 90
        0
280
     1
281
     0
  0
CLASS
  1
GSMANAGER
  2
AcMeGSManager
  3
AcMeServices
 90
        0
280
     1
281
     0
  0
CLASS
  1
AMDTINTERNALREACTOR
  2
AmdtInternalReactor
  3
AcMeServices
 90
        0
280
     1
281
     0
  0
CLASS
  1
ACMESTATEMGR
  2
AcMeStateMgr
  3
AcMeServices
 90
        0
280
     1
281
     0
  0
CLASS
  1
ACME_DATABASE
  2
AcMeDbDatabase
  3
AcMeServices
 90
        0
280
     1
281
     0
  0
CLASS
  1
ACRFINSADJUSTERMGR
  2
AcRfInsAdjusterMgr
  3
AcMeServices
 90
        0
280
     1
281
     0
  0
CLASS
  1
ACMDATADICTIONARY
  2
AcmDataDictionary
  3
"AcmSymBB|Product Description: AutoCAD Mechanical 2004 DX|Company: Autodesk"
 90
        0
280
     1
281
     0
  0
CLASS
  1
ACMDATAENTRYBLOCK
  2
AcmDataEntryBlock
  3
"AcmSymBB|Product Description: AutoCAD Mechanical 2004 DX|Company: Autodesk"
 90
        0
280
     1
281
     0
  0
CLASS
  1
AMGOBJPROPCFG
  2
AmgObjPropCfg
  3
"AmgLay|Product Description: AutoCAD Mechanical 2000|Company: Autodesk"
 90
        1
280
     1
281
     0
  0
CLASS
  1
ACMSTANDARDJIS
  2
AcmStandardJIS
  3
"Amdt_StdImp|Product Description: AutoCAD Mechanical 2004 DX|Company: Autodesk"
 90
        0
280
     1
281
     0
  0
CLASS
  1
ACMSURFSTANDARDJIS
  2
AcmSurfTextStdJIS
  3
"Amdt_StdImp|Product Description: AutoCAD Mechanical 2004 DX|Company: Autodesk"
 90
        0
280
     1
281
     0
  0
CLASS
  1
ACMFCFSTANDARDJIS
  2
AcmFCFStdJIS
  3
"Amdt_StdImp|Product Description: AutoCAD Mechanical 2004 DX|Company: Autodesk"
 90
        0
280
     1
281
     0
  0
CLASS
  1
ACMWELDSTANDARDJIS
  2
AcmWeldingStdJIS
  3
"Amdt_StdImp|Product Description: AutoCAD Mechanical 2004 DX|Company: Autodesk"
 90
        0
280
     1
281
     0
  0
CLASS
  1
ACMIDSTANDARDJIS
  2
AcmIdStdJIS
  3
"Amdt_StdImp|Product Description: AutoCAD Mechanical 2004 DX|Company: Autodesk"
 90
        0
280
     1
281
     0
  0
CLASS
  1
ACMDATUMSTANDARDJIS
  2
AcmDatumStdJIS
  3
"Amdt_StdImp|Product Description: AutoCAD Mechanical 2004 DX|Company: Autodesk"
 90
        0
280
     1
281
     0
  0
CLASS
  1
ACMBOMSTANDARDJIS
  2
AcmBOMStdJIS
  3
"Amdt_StdImp|Product Description: AutoCAD Mechanical 2004 DX|Company: Autodesk"
 90
        0
280
     1
281
     0
  0
CLASS
  1
ACAMGFILTERDAT
  2
AcAmgFilterDat
  3
"AcadM|Product Description: AutoCAD Mechanical 2000|Company: Autodesk"
 90
        0
280
     1
281
     0
  0
CLASS
  1
LAYER_INDEX
  2
AcDbLayerIndex
  3
ObjectDBX Classes
 90
        0
280
     0
281
     0
  0
CLASS
  1
IDBUFFER
  2
AcDbIdBuffer
  3
ObjectDBX Classes
 90
        0
280
     0
281
     0
  0
CLASS
  1
AMDTNOTE
  2
AmdtNote
  3
"AcmSymBB|Product Description: AutoCAD Mechanical 2004 DX|Company: Autodesk"
 90
     1023
280
     1
281
     1
  0
CLASS
  1
TABLESTYLE
  2
AcDbTableStyle
  3
ObjectDBX Classes
 90
     2047
280
     0
281
     0
  0
CLASS
  1
ACGREFMASTER
  2
AcGrefMaster
  3
AcAttribServices
 90
        0
280
     1
281
     0
  0
CLASS
  1
AM_DRAWING_MGR
  2
AcDmDwgMgr
  3
AcMechDwgViewMgmt
 90
        0
280
     1
281
     0
  0
CLASS
  1
AM_DWG_DOCUMENT
  2
AcDmDwgDocument
  3
AcMechDwgViewMgmt
 90
        0
280
     1
281
     0
  0
CLASS
  1
AM_DWG_SHEET
  2
AcDmSheet
  3
AcMechDwgViewMgmt
 90
        0
280
     1
281
     0
  0
CLASS
  1
AM_VIEWDIMPARMAP
  2
AcDmViewDimParMap
  3
AcMechDwgViewMgmt
 90
        0
280
     1
281
     0
  0
CLASS
  1
AM_DWGMGR_NAME
  2
AcDmDwgMgrName
  3
AcMechDwgViewMgmt
 90
        0
280
     1
281
     0
  0
CLASS
  1
ACGREFACADMASTER
  2
AcGrefacadMaster
  3
AcGrefServices
 90
        0
280
     1
281
     0
  0
CLASS
  1
AMDTMENUSTATEMGR
  2
AmdtMenuStateMgr
  3
McadcomServices
 90
        0
280
     1
281
     0
  0
CLASS
  1
AMDTMCOMMENUSTATE
  2
AmdtMcomMenuState
  3
McadcomServices
 90
        0
280
     1
281
     0
  0
CLASS
  1
AMIMASTER
  2
AmiMaster
  3
AmiServices
 90
        0
280
     1
281
     0
  0
CLASS
  1
MAPIAMMOUDLE
  2
MApiAmModule
  3
MApiAmServices
 90
        0
280
     1
281
     0
  0
CLASS
  1
AMDTADMENUSTATE
  2
AmdtAdMenuState
  3
DesignerServices
 90
        0
280
     1
281
     0
  0
CLASS
  1
ADAPPL
  2
AcAdAppl
  3
DesignerServices
 90
        0
280
     1
281
     0
  0
CLASS
  1
DEPMGR
  2
AcAdDepMgr
  3
DesignerServices
 90
        0
280
     1
281
     0
  0
CLASS
  1
PARAMMGR
  2
AcAdParamMgr
  3
DesignerServices
 90
        0
280
     1
281
     0
  0
CLASS
  1
PARAMSCOPE
  2
AcAdParamScope
  3
DesignerServices
 90
        0
280
     1
281
     0
  0
CLASS
  1
NAMEDAPPL
  2
AcAdNamedAppl
  3
DesignerServices
 90
        0
280
     1
281
     0
  0
CLASS
  1
AMDTDMMENUSTATE
  2
AmdtDmMenuState
  3
AcMechDwgViewMgmt
 90
        0
280
     1
281
     0
  0
CLASS
  1
AMDTAMMENUSTATE
  2
AmdtAmMenuState
  3
DesignerAssemblies
 90
        0
280
     1
281
     0
  0
CLASS
  1
ACIMSTRSYSVAR
  2
AcImStrSysVar
  3
AcMeServices
 90
        0
280
     1
281
     0
  0
CLASS
  1
ACAMPROJECT
  2
AcAmProject
  3
DesignerAssemblies
 90
        0
280
     1
281
     0
  0
CLASS
  1
ACAMGRCOMPDEF
  2
AcAmGrCompDef
  3
DesignerAssemblies
 90
        0
280
     1
281
     0
  0
CLASS
  1
ACCMCONTEXT
  2
AcCmContext
  3
DesignerAssemblies
 90
        0
280
     1
281
     0
  0
CLASS
  1
ACAMCOMPDEF
  2
AcAmCompDef
  3
DesignerAssemblies
 90
        0
280
     1
281
     0
  0
CLASS
  1
ACAMCOMPDEFMGR
  2
AcAmCompDefMgr
  3
DesignerAssemblies
 90
        0
280
     1
281
     0
  0
CLASS
  1
AMCONTEXTMGR
  2
AcAmContextMgr
  3
DesignerAssemblies
 90
        0
280
     1
281
     0
  0
CLASS
  1
ACAMCONTEXTMODELER
  2
AcAmContextModeler
  3
DesignerAssemblies
 90
        0
280
     1
281
     0
  0
CLASS
  1
ACAMGTITLESTD
  2
AcAmgTitleStd
  3
"TITLEAPP"
 90
        0
280
     1
281
     0
  0
CLASS
  1
ACMDETAILSTANDARDJIS
  2
AmdtDetailSymStdJIS
  3
"Amdt_StdImp|Product Description: AutoCAD Mechanical 2004 DX|Company: Autodesk"
 90
        0
280
     1
281
     0
  0
CLASS
  1
ACMSECTIONSTANDARDJIS
  2
AmdtSectionSymStdJIS
  3
"Amdt_StdImp|Product Description: AutoCAD Mechanical 2004 DX|Company: Autodesk"
 90
        0
280
     1
281
     0
  0
CLASS
  1
ACMCENTERLINESTANDARDJIS
  2
AmdtCenterLineStdJIS
  3
"Amdt_StdImp|Product Description: AutoCAD Mechanical 2004 DX|Company: Autodesk"
 90
        0
280
     1
281
     0
  0
CLASS
  1
ACMTHREADLINESTANDARDJIS
  2
AmdtThreadLineStdJIS
  3
"Amdt_StdImp|Product Description: AutoCAD Mechanical 2004 DX|Company: Autodesk"
 90
        0
280
     1
281
     0
  0
CLASS
  1
ACMNOTESTANDARDJIS
  2
AmdtNoteStdJIS
  3
"Amdt_StdImp|Product Description: AutoCAD Mechanical 2004 DX|Company: Autodesk"
 90
        0
280
     1
281
     0
  0
CLASS
  1
AMDTNOTETEMPLATEDB
  2
AmdtNoteTemplateDB
  3
AMDT_STDIMP_MODULE_NAME
 90
        0
280
     1
281
     0
  0
CLASS
  1
ACAMGLAYSTD
  2
AcAmgLayStd
  3
"AcAmgLayStd|Product Description: AutoCAD Mechanical 2000|Company: Autodesk"
 90
        0
280
     1
281
     0
  0
CLASS
  1
ACAMGDIMSTD
  2
AcAmgDimStd
  3
"AcAmgDimStd|Product Description: AutoCAD Mechanical 2000|Company: Autodesk"
 90
        0
280
     1
281
     0
  0
CLASS
  1
ACAMGHOLECHARTSTDJIS
  2
AcAmgHoleChartStdJIS
  3
ACMSYMBB_MODULE_NAME
 90
        0
280
     1
281
     0
  0
CLASS
  1
CATALOGSTATE
  2
AcAmCatalogState
  3
DesignerAssemblies
 90
        0
280
     1
281
     0
  0
CLASS
  1
ACAMGRCOMPDEFSET
  2
AcAmGrCompDefSet
  3
DesignerAssemblies
 90
        0
280
     1
281
     0
  0
CLASS
  1
AMDTBROWSERDBTAB
  2
AmdtBrowserDbTab
  3
McadcomServices
 90
        0
280
     1
281
     0
  0
CLASS
  1
CBROWSERAPPOBJECT
  2
CBrowserAppObject
  3
McadcomServices
 90
        0
280
     1
281
     0
  0
CLASS
  1
DM_PLACEHOLDER
  2
AcDmSelsetPlaceholder
  3
AcMechDwgViewMgmt
 90
        0
280
     1
281
     0
  0
CLASS
  1
SORTENTSTABLE
  2
AcDbSortentsTable
  3
ObjectDBX Classes
 90
        0
280
     0
281
     0
  0
ENDSEC
  0
SECTION
  2
TABLES
  0
TABLE
  2
VPORT
  5
8
330
0
100
AcDbSymbolTable
 70
     3
  0
VPORT
  5
29B4
330
8
100
AcDbSymbolTableRecord
100
AcDbViewportTableRecord
  2
*Active
 70
     0
 10
0.0
 20
0.0
 11
1.0
 21
1.0
 12
45.91581197923709
 22
-35.68926528649303
 13
0.0
 23
0.0
 14
2.5
 24
2.5
 15
10.0
 25
10.0
 16
0.0
 26
0.0
 36
1.0
 17
0.0
 27
0.0
 37
0.0
 40
187.5995030192042
 41
1.697058823529412
 42
50.0
 43
0.0
 44
0.0
 50
0.0
 51
0.0
 71
     0
 72
   100
 73
     1
 74
     3
 75
     0
 76
     0
 77
     0
 78
     0
281
     0
 65
     1
110
0.0
120
0.0
130
0.0
111
1.0
121
0.0
131
0.0
112
0.0
122
1.0
132
0.0
 79
     0
146
0.0
  0
ENDTAB
  0
TABLE
  2
LTYPE
  5
5
330
0
100
AcDbSymbolTable
 70
    13
  0
LTYPE
  5
14
330
5
100
AcDbSymbolTableRecord
100
AcDbLinetypeTableRecord
  2
ByBlock
 70
     0
  3

 72
    65
 73
     0
 40
0.0
  0
LTYPE
  5
15
330
5
100
AcDbSymbolTableRecord
100
AcDbLinetypeTableRecord
  2
ByLayer
 70
     0
  3

 72
    65
 73
     0
 40
0.0
  0
LTYPE
  5
16
330
5
100
AcDbSymbolTableRecord
100
AcDbLinetypeTableRecord
  2
Continuous
 70
     0
  3
Solid line
 72
    65
 73
     0
 40
0.0
  0
LTYPE
  5
4B
330
5
100
AcDbSymbolTableRecord
100
AcDbLinetypeTableRecord
  2
AM_ISO02W050
 70
     0
  3
__ __ __ __ __ __ __ __ __ __ __ __ __ __ __
 72
    65
 73
     2
 40
7.5
 49
6.0
 74
     0
 49
-1.5
 74
     0
  0
LTYPE
  5
4C
330
5
100
AcDbSymbolTableRecord
100
AcDbLinetypeTableRecord
  2
AM_ISO08W050
 70
     0
  3
____ . ____ . ____ . ____ . ____ . ____ . ____
 72
    65
 73
     4
 40
18.0
 49
12.0
 74
     0
 49
-1.5
 74
     0
 49
3.0
 74
     0
 49
-1.5
 74
     0
  0
LTYPE
  5
4D
330
5
100
AcDbSymbolTableRecord
100
AcDbLinetypeTableRecord
  2
AM_ISO09W050
 70
     0
  3
_____ . . _____ . . _____ . . ____ .. ____
 72
    65
 73
     6
 40
22.5
 49
12.0
 74
     0
 49
-1.5
 74
     0
 49
3.0
 74
     0
 49
-1.5
 74
     0
 49
3.0
 74
     0
 49
-1.5
 74
     0
  0
LTYPE
  5
4E
330
5
100
AcDbSymbolTableRecord
100
AcDbLinetypeTableRecord
  2
Amconstr
 70
     0
  3
_______________________
 72
    65
 73
     2
 40
9999.0
 49
9999.0
 74
     0
 49
0.0
 74
     0
  0
LTYPE
  5
4F
330
5
100
AcDbSymbolTableRecord
100
AcDbLinetypeTableRecord
  2
AM_ISO02W050x2
 70
     0
  3
 _ _ _ _ _ _ _ _ _ _ _ _
 72
    65
 73
     2
 40
3.75
 49
3.0
 74
     0
 49
-0.75
 74
     0
  0
LTYPE
  5
50
330
5
100
AcDbSymbolTableRecord
100
AcDbLinetypeTableRecord
  2
AM_ISO08W050x2
 70
     0
  3
__ . __ . __ . __ . __ . __
 72
    65
 73
     4
 40
9.0
 49
6.0
 74
     0
 49
-0.75
 74
     0
 49
1.5
 74
     0
 49
-0.75
 74
     0
  0
LTYPE
  5
53
330
5
100
AcDbSymbolTableRecord
100
AcDbLinetypeTableRecord
  2
Amzigzag
 70
     0
  3
/\/-/\/-/\/-/\/-/\/-/\/
 72
    65
 73
     2
 40
11.0001
 49
0.0001
 74
     4
 75
   135
340
52
 46
0.04
 50
0.0
 44
0.0
 45
0.0
 49
-11.0
 74
     0
  0
LTYPE
  5
328
330
5
100
AcDbSymbolTableRecord
100
AcDbLinetypeTableRecord
  2
ACJISTGB
 70
     0
  3
__ . . __ . .
 72
    65
 73
     6
 40
9.0
 49
4.0
 74
     0
 49
-1.0
 74
     0
 49
1.0
 74
     0
 49
-1.0
 74
     0
 49
1.0
 74
     0
 49
-1.0
 74
     0
  0
LTYPE
  5
329
330
5
100
AcDbSymbolTableRecord
100
AcDbLinetypeTableRecord
  2
ACJISTGL
 70
     0
  3
_ _ _ _ _
 72
    65
 73
     2
 40
3.0
 49
2.0
 74
     0
 49
-1.0
 74
     0
  0
LTYPE
  5
39F
330
5
100
AcDbSymbolTableRecord
100
AcDbLinetypeTableRecord
  2
CENTER
 70
     0
  3
____ _ ____ _ ____ _ ____ _ ____ _ ____ _ ____
 72
    65
 73
     4
 40
17.5
 49
13.0
 74
     0
 49
-1.5
 74
     0
 49
1.5
 74
     0
 49
-1.5
 74
     0
  0
LTYPE
  5
2654
330
5
100
AcDbSymbolTableRecord
100
AcDbLinetypeTableRecord
  2
HIDDEN
 70
     0
  3
Hidden __ __ __ __ __ __ __ __ __ __ __ __ __ _
 72
    65
 73
     2
 40
9.524999999999999
 49
6.35
 74
     0
 49
-3.175
 74
     0
  0
LTYPE
  5
2655
330
5
100
AcDbSymbolTableRecord
100
AcDbLinetypeTableRecord
  2
PHANTOM2
 70
     0
  3
Phantom (.5x) ___ _ _ ___ _ _ ___ _ _ ___ _ _
 72
    65
 73
     6
 40
31.75
 49
15.875
 74
     0
 49
-3.175
 74
     0
 49
3.175
 74
     0
 49
-3.175
 74
     0
 49
3.175
 74
     0
 49
-3.175
 74
     0
  0
ENDTAB
  0
TABLE
  2
LAYER
  5
2
102
{ACAD_XDICTIONARY
360
27DA
102
}
330
0
100
AcDbSymbolTable
 70
     7
  0
LAYER
  5
10
330
2
100
AcDbSymbolTableRecord
100
AcDbLayerTableRecord
  2
0
 70
     0
 62
     7
  6
Continuous
370
    -3
390
F
  0
LAYER
  5
32E
330
2
100
AcDbSymbolTableRecord
100
AcDbLayerTableRecord
  2
AM_0
 70
     0
 62
     7
  6
Continuous
370
    50
390
F
  0
LAYER
  5
52A
330
2
100
AcDbSymbolTableRecord
100
AcDbLayerTableRecord
  2
AM_5
 70
     0
 62
     3
  6
Continuous
370
    25
390
F
  0
LAYER
  5
52B
330
2
100
AcDbSymbolTableRecord
100
AcDbLayerTableRecord
  2
Defpoints
 70
     0
 62
     7
  6
Continuous
290
     0
370
    -3
390
F
  0
LAYER
  5
52D
330
2
100
AcDbSymbolTableRecord
100
AcDbLayerTableRecord
  2
AM_3
 70
     0
 62
     6
  6
AM_ISO02W050
370
    25
390
F
  0
LAYER
  5
52E
330
2
100
AcDbSymbolTableRecord
100
AcDbLayerTableRecord
  2
AM_7
 70
     0
 62
     4
  6
AM_ISO08W050
370
    25
390
F
  0
LAYER
  5
52F
330
2
100
AcDbSymbolTableRecord
100
AcDbLayerTableRecord
  2
AM_6
 70
     0
 62
     2
  6
Continuous
370
    35
390
F
  0
ENDTAB
  0
TABLE
  2
STYLE
  5
3
330
0
100
AcDbSymbolTable
 70
     5
  0
STYLE
  5
11
330
3
100
AcDbSymbolTableRecord
100
AcDbTextStyleTableRecord
  2
STANDARD
 70
     0
 40
0.0
 41
1.0
 50
0.0
 71
     0
 42
2.5
  3
ISOCP.SHX
  4
EXTFONT.SHX
  0
STYLE
  5
52
330
3
100
AcDbSymbolTableRecord
100
AcDbTextStyleTableRecord
  2

 70
     1
 40
0.0
 41
1.0
 50
0.0
 71
     0
 42
2.5
  3
ltypeshp.shx
  4

  0
STYLE
  5
32F
330
3
100
AcDbSymbolTableRecord
100
AcDbTextStyleTableRecord
  2
ACJISTS
 70
     0
 40
1.0
 41
1.0
 50
0.0
 71
     0
 42
2.5
  3
isocp.shx
  4
bigfont.shx
  0
STYLE
  5
330
330
3
100
AcDbSymbolTableRecord
100
AcDbTextStyleTableRecord
  2
ACJISGDT
 70
     0
 40
0.0
 41
1.0
 50
0.0
 71
     0
 42
2.5
  3
amgdt.shx
  4

  0
STYLE
  5
27D9
330
3
100
AcDbSymbolTableRecord
100
AcDbTextStyleTableRecord
  2
ACISOTS
 70
     0
 40
1.0
 41
1.0
 50
0.0
 71
     0
 42
1.0
  3
isocp.shx
  4
extfont.shx
  0
ENDTAB
  0
TABLE
  2
VIEW
  5
6
330
0
100
AcDbSymbolTable
 70
     6
  0
VIEW
  5
35B
330
6
100
AcDbSymbolTableRecord
100
AcDbViewTableRecord
  2
AM_VIEW1
 70
     0
 40
148.5
 10
114.5810387984981
 20
222.75
 41
229.1620775969963
 11
0.0
 21
0.0
 31
1.0
 12
0.0
 22
0.0
 32
0.0
 42
50.0
 43
0.0
 44
0.0
 50
0.0
 71
     0
281
     0
 72
     0
  0
VIEW
  5
35C
330
6
100
AcDbSymbolTableRecord
100
AcDbViewTableRecord
  2
AM_VIEW2
 70
     0
 40
148.5
 10
305.4189612015019
 20
222.75
 41
229.1620775969963
 11
0.0
 21
0.0
 31
1.0
 12
0.0
 22
0.0
 32
0.0
 42
50.0
 43
0.0
 44
0.0
 50
0.0
 71
     0
281
     0
 72
     0
  0
VIEW
  5
35D
330
6
100
AcDbSymbolTableRecord
100
AcDbViewTableRecord
  2
AM_VIEW3
 70
     0
 40
148.5
 10
114.5810387984981
 20
74.25
 41
229.1620775969963
 11
0.0
 21
0.0
 31
1.0
 12
0.0
 22
0.0
 32
0.0
 42
50.0
 43
0.0
 44
0.0
 50
0.0
 71
     0
281
     0
 72
     0
  0
VIEW
  5
35E
330
6
100
AcDbSymbolTableRecord
100
AcDbViewTableRecord
  2
AM_VIEW4
 70
     0
 40
148.5
 10
305.4189612015019
 20
74.25
 41
229.1620775969963
 11
0.0
 21
0.0
 31
1.0
 12
0.0
 22
0.0
 32
0.0
 42
50.0
 43
0.0
 44
0.0
 50
0.0
 71
     0
281
     0
 72
     0
  0
VIEW
  5
35F
330
6
100
AcDbSymbolTableRecord
100
AcDbViewTableRecord
  2
AM_VIEW5
 70
     0
 40
148.5
 10
210.0
 20
148.5
 41
229.1620775969963
 11
0.0
 21
0.0
 31
1.0
 12
0.0
 22
0.0
 32
0.0
 42
50.0
 43
0.0
 44
0.0
 50
0.0
 71
     0
281
     0
 72
     0
  0
VIEW
  5
360
330
6
100
AcDbSymbolTableRecord
100
AcDbViewTableRecord
  2
AM_VIEW6
 70
     0
 40
296.99703
 10
210.0
 20
148.5
 41
458.3195719524406
 11
0.0
 21
0.0
 31
1.0
 12
0.0
 22
0.0
 32
0.0
 42
50.0
 43
0.0
 44
0.0
 50
0.0
 71
     0
281
     0
 72
     0
  0
ENDTAB
  0
TABLE
  2
UCS
  5
7
330
0
100
AcDbSymbolTable
 70
     0
  0
ENDTAB
  0
TABLE
  2
APPID
  5
9
330
0
100
AcDbSymbolTable
 70
    37
  0
APPID
  5
12
330
9
100
AcDbSymbolTableRecord
100
AcDbRegAppTableRecord
  2
ACAD
 70
     0
  0
APPID
  5
30
330
9
100
AcDbSymbolTableRecord
100
AcDbRegAppTableRecord
  2
MCAD_NO_VIS
 70
     0
  0
APPID
  5
31
330
9
100
AcDbSymbolTableRecord
100
AcDbRegAppTableRecord
  2
ACAD_TEMP_GRAPHIC
 70
     0
  0
APPID
  5
338
330
9
100
AcDbSymbolTableRecord
100
AcDbRegAppTableRecord
  2
GENIUS_GENREC_14
 70
     0
  0
APPID
  5
339
330
9
100
AcDbSymbolTableRecord
100
AcDbRegAppTableRecord
  2
GENIUS_GENODEF_13
 70
     0
  0
APPID
  5
33A
330
9
100
AcDbSymbolTableRecord
100
AcDbRegAppTableRecord
  2
GENIUS_GENOBJ-N-REC_13
 70
     0
  0
APPID
  5
33B
330
9
100
AcDbSymbolTableRecord
100
AcDbRegAppTableRecord
  2
GENIUS_GENOBJ-N-HTC_13
 70
     0
  0
APPID
  5
33C
330
9
100
AcDbSymbolTableRecord
100
AcDbRegAppTableRecord
  2
GENIUS_GENHATCH_13
 70
     0
  0
APPID
  5
3B5
330
9
100
AcDbSymbolTableRecord
100
AcDbRegAppTableRecord
  2
GENIUS_GENCFG_13
 70
     0
  0
APPID
  5
3B6
330
9
100
AcDbSymbolTableRecord
100
AcDbRegAppTableRecord
  2
GENIUS_GENCFG0_13
 70
     0
  0
APPID
  5
3B7
330
9
100
AcDbSymbolTableRecord
100
AcDbRegAppTableRecord
  2
GENIUS_GENCFG1_13
 70
     0
  0
APPID
  5
3B8
330
9
100
AcDbSymbolTableRecord
100
AcDbRegAppTableRecord
  2
GENIUS_GENCFG2_13
 70
     0
  0
APPID
  5
3B9
330
9
100
AcDbSymbolTableRecord
100
AcDbRegAppTableRecord
  2
GENIUS_GENCFG3_13
 70
     0
  0
APPID
  5
3BA
330
9
100
AcDbSymbolTableRecord
100
AcDbRegAppTableRecord
  2
GENIUS_GENCFG4_13
 70
     0
  0
APPID
  5
3BB
330
9
100
AcDbSymbolTableRecord
100
AcDbRegAppTableRecord
  2
GENIUS_GENBLLY_14
 70
     0
  0
APPID
  5
3BC
330
9
100
AcDbSymbolTableRecord
100
AcDbRegAppTableRecord
  2
GENIUS_GENOBJ-N-CEN_13
 70
     0
  0
APPID
  5
3C9
330
9
100
AcDbSymbolTableRecord
100
AcDbRegAppTableRecord
  2
GENIUS_GENTRA_14
 70
     0
  0
APPID
  5
3D3
330
9
100
AcDbSymbolTableRecord
100
AcDbRegAppTableRecord
  2
GENIUS_GENOBJ-N-TIT_13
 70
     0
  0
APPID
  5
3D4
330
9
100
AcDbSymbolTableRecord
100
AcDbRegAppTableRecord
  2
GENIUS_GENTITLE_13
 70
     0
  0
APPID
  5
3D5
330
9
100
AcDbSymbolTableRecord
100
AcDbRegAppTableRecord
  2
GENIUS_GENOENT_13
 70
     0
  0
APPID
  5
3D6
330
9
100
AcDbSymbolTableRecord
100
AcDbRegAppTableRecord
  2
GENIUS_GENOREF_13
 70
     0
  0
APPID
  5
3D7
330
9
100
AcDbSymbolTableRecord
100
AcDbRegAppTableRecord
  2
GENIUS_GENOLIS_13
 70
     0
  0
APPID
  5
3D8
330
9
100
AcDbSymbolTableRecord
100
AcDbRegAppTableRecord
  2
GENIUS_GENZVEED_13
 70
     0
  0
APPID
  5
3D9
330
9
100
AcDbSymbolTableRecord
100
AcDbRegAppTableRecord
  2
GENIUS_GENSCREG_15
 70
     0
  0
APPID
  5
3DA
330
9
100
AcDbSymbolTableRecord
100
AcDbRegAppTableRecord
  2
GENIUS_GENOBJ-N-SDF_13
 70
     0
  0
APPID
  5
534
330
9
100
AcDbSymbolTableRecord
100
AcDbRegAppTableRecord
  2
GENIUS_GENOBJ-N-RSBK_13
 70
     0
  0
APPID
  5
535
330
9
100
AcDbSymbolTableRecord
100
AcDbRegAppTableRecord
  2
GENIUS_GENOBJ-N-LIB_13
 70
     0
  0
APPID
  5
536
330
9
100
AcDbSymbolTableRecord
100
AcDbRegAppTableRecord
  2
GENIUS_GENSCALE_13
 70
     0
  0
APPID
  5
AA3
330
9
100
AcDbSymbolTableRecord
100
AcDbRegAppTableRecord
  2
BASE_TYPE
 70
     0
  0
APPID
  5
AB2
330
9
100
AcDbSymbolTableRecord
100
AcDbRegAppTableRecord
  2
GENIUS_GENOBJ-N-FIL_13
 70
     0
  0
APPID
  5
BDE
330
9
100
AcDbSymbolTableRecord
100
AcDbRegAppTableRecord
  2
GENIUS_GENDTOL_13
 70
     0
  0
APPID
  5
BDF
330
9
100
AcDbSymbolTableRecord
100
AcDbRegAppTableRecord
  2
GENIUS_GENSCREG_13
 70
     0
  0
APPID
  5
2657
330
9
100
AcDbSymbolTableRecord
100
AcDbRegAppTableRecord
  2
AD_DRAW
 70
     0
  0
APPID
  5
265A
330
9
100
AcDbSymbolTableRecord
100
AcDbRegAppTableRecord
  2
ACATTRIBSERVICES
 70
     0
  0
APPID
  5
2678
330
9
100
AcDbSymbolTableRecord
100
AcDbRegAppTableRecord
  2
DESIGNERASSEMBLIES
 70
     0
  0
APPID
  5
268D
330
9
100
AcDbSymbolTableRecord
100
AcDbRegAppTableRecord
  2
ACADM_DIM_EDIT
 70
     0
  0
APPID
  5
268E
330
9
100
AcDbSymbolTableRecord
100
AcDbRegAppTableRecord
  2
AMDT_DM_ADJ
 70
     0
  0
ENDTAB
  0
TABLE
  2
DIMSTYLE
  5
A
330
0
100
AcDbSymbolTable
 70
    11
100
AcDbDimStyleTable
  0
DIMSTYLE
105
27
330
A
100
AcDbSymbolTableRecord
100
AcDbDimStyleTableRecord
  2
ISO-25
 70
     0
 41
2.5
 42
0.625
 43
3.75
 44
1.25
 73
     0
 74
     0
 77
     1
 78
     8
140
2.5
141
2.5
143
0.03937007874016
147
0.625
171
     3
172
     1
271
     2
272
     2
274
     3
283
     0
284
     8
340
11
  0
DIMSTYLE
105
331
330
A
100
AcDbSymbolTableRecord
100
AcDbDimStyleTableRecord
  2
AM_JIS
 70
     0
  4
"
 41
2.5
 42
0.0
 43
10.0
 44
1.0
 47
0.1
 48
0.1000000001
 73
     0
 74
     0
 77
     3
 78
     1
 79
     2
140
3.8
141
0.0
143
0.0393701
146
0.71
147
1.5
172
     1
176
   256
177
   256
178
     2
179
     1
271
     2
272
     2
275
     1
283
     0
284
     8
340
11
341
59
342
59
371
    -1
372
    -1
  0
DIMSTYLE
105
332
102
{ACAD_REACTORS
330
2393
330
28B0
102
}
330
A
100
AcDbSymbolTableRecord
100
AcDbDimStyleTableRecord
  2
AM_JIS$3
 70
     0
  4
"
 41
2.5
 42
0.0
 43
10.0
 44
1.0
 47
0.1
 48
0.1000000001
 73
     0
 77
     3
 78
     1
 79
     2
140
3.8
141
0.0
143
0.0393701
146
0.71
147
1.5
172
     1
176
   256
177
   256
178
     2
179
     1
271
     2
272
     2
275
     1
283
     0
284
     8
288
     1
289
     0
340
11
341
59
342
59
371
    -1
372
    -1
  0
DIMSTYLE
105
333
330
A
100
AcDbSymbolTableRecord
100
AcDbDimStyleTableRecord
  2
AM_JIS$4
 70
     0
  4
"
 41
2.5
 42
0.0
 43
10.0
 44
1.0
 47
0.1
 48
0.1000000001
 73
     0
 77
     3
 78
     1
 79
     2
140
3.8
141
0.0
143
0.0393701
146
0.71
147
1.5
172
     1
176
   256
177
   256
178
     2
179
     1
271
     2
272
     2
275
     1
283
     0
284
     8
288
     1
289
     0
340
11
341
59
342
59
371
    -1
372
    -1
  0
DIMSTYLE
105
334
330
A
100
AcDbSymbolTableRecord
100
AcDbDimStyleTableRecord
  2
AM_JIS$6
 70
     0
  4
"
 41
2.5
 42
0.0
 43
10.0
 44
1.0
 47
0.1
 48
0.1000000001
 73
     0
 74
     0
 78
     1
 79
     2
140
3.8
141
0.0
143
0.0393701
146
0.71
147
1.5
172
     1
176
   256
177
   256
178
     2
179
     1
271
     2
272
     2
275
     1
283
     0
284
     8
340
11
341
59
342
59
371
    -1
372
    -1
  0
DIMSTYLE
105
335
330
A
100
AcDbSymbolTableRecord
100
AcDbDimStyleTableRecord
  2
AM_JIS$7
 70
     0
  4
"
 41
2.5
 42
0.0
 43
10.0
 44
1.0
 47
0.1
 48
0.1000000001
 73
     0
 74
     0
 77
     3
 78
     1
 79
     2
140
5.0
141
0.0
143
0.0393701
146
0.71
147
1.5
172
     1
176
   256
177
   256
178
     2
179
     1
271
     2
272
     2
275
     1
283
     0
284
     8
340
11
341
59
342
59
371
    -1
372
    -1
  0
DIMSTYLE
105
336
330
A
100
AcDbSymbolTableRecord
100
AcDbDimStyleTableRecord
  2
AM_JIS$SF
 70
     0
  4
"
 41
2.5
 42
1.0
 43
10.0
 44
1.0
 47
0.1
 48
0.1
 73
     0
 74
     0
 75
     1
 76
     1
 77
     3
 78
     8
 79
     2
140
3.5
141
0.0
143
0.0393701
146
0.71
147
1.5
176
   256
177
   256
178
     2
271
     2
272
     3
274
     4
340
11
341
59
342
59
343
59
344
59
371
    -1
372
    -1
  0
DIMSTYLE
105
337
330
A
100
AcDbSymbolTableRecord
100
AcDbDimStyleTableRecord
  2
AM_JIS$SH
 70
     0
  4
"
 41
2.5
 42
1.0
 43
10.0
 44
1.0
 47
0.1
 48
0.1
 73
     0
 74
     0
 75
     1
 76
     1
 77
     3
 78
     8
 79
     2
140
3.5
141
0.0
143
0.0393701
144
2.0
146
0.71
147
1.5
173
     1
176
   256
177
   256
178
     2
271
     2
272
     3
274
     4
340
11
341
59
342
59
343
5F
344
59
371
    -1
372
    -1
  0
DIMSTYLE
105
3AD
330
A
100
AcDbSymbolTableRecord
100
AcDbDimStyleTableRecord
  2
STANDARD
 70
     0
340
11
  0
DIMSTYLE
105
532
102
{ACAD_REACTORS
330
2296
330
23A3
330
23B4
330
240B
330
27E7
102
}
330
A
100
AcDbSymbolTableRecord
100
AcDbDimStyleTableRecord
  2
AM_JIS$0
 70
     0
  4
"
 41
2.5
 42
0.0
 43
10.0
 44
1.0
 47
0.1
 48
0.1000000001
 73
     0
 74
     0
 77
     3
 78
     1
 79
     2
140
3.8
141
0.0
143
0.0393701
146
0.71
147
1.5
172
     1
176
     3
177
     3
178
     2
271
     3
272
     3
275
     1
283
     0
284
     8
289
     0
340
11
341
59
342
59
371
    13
372
    13
  0
DIMSTYLE
105
533
102
{ACAD_REACTORS
330
2392
330
2789
102
}
330
A
100
AcDbSymbolTableRecord
100
AcDbDimStyleTableRecord
  2
AM_JIS$2
 70
     0
  4
"
 41
2.5
 42
0.0
 43
10.0
 44
1.0
 47
0.1
 48
0.1000000001
 73
     0
 74
     0
 77
     3
 78
     1
 79
     2
140
3.8
141
0.0
143
0.0393701
146
0.71
147
1.5
172
     1
176
     3
177
     3
178
     2
271
     3
272
     3
275
     1
283
     0
284
     8
289
     0
340
11
341
59
342
59
371
    13
372
    13
  0
ENDTAB
  0
TABLE
  2
BLOCK_RECORD
  5
1
330
0
100
AcDbSymbolTable
 70
    13
  0
BLOCK_RECORD
  5
1F
102
{ACAD_XDICTIONARY
360
3DB
102
}
330
1
100
AcDbSymbolTableRecord
100
AcDbBlockTableRecord
  2
*Model_Space
340
22
  0
BLOCK_RECORD
  5
1B
330
1
100
AcDbSymbolTableRecord
100
AcDbBlockTableRecord
  2
*Paper_Space
340
1E
  0
BLOCK_RECORD
  5
23
330
1
100
AcDbSymbolTableRecord
100
AcDbBlockTableRecord
  2
*Paper_Space0
340
26
  0
BLOCK_RECORD
  5
59
330
1
100
AcDbSymbolTableRecord
100
AcDbBlockTableRecord
  2
_Open30
340
0
102
{BLKREFS
331
293F
331
2940
331
294A
331
294B
331
2957
331
2958
331
295F
331
2960
331
2968
331
2969
331
2971
331
2972
331
297A
331
297B
331
2987
331
2988
331
2991
331
2992
102
}
  0
BLOCK_RECORD
  5
5F
330
1
100
AcDbSymbolTableRecord
100
AcDbBlockTableRecord
  2
GENAXEH
340
0
  0
BLOCK_RECORD
  5
242B
330
1
100
AcDbSymbolTableRecord
100
AcDbBlockTableRecord
  2
*D3
340
0
  0
BLOCK_RECORD
  5
2477
330
1
100
AcDbSymbolTableRecord
100
AcDbBlockTableRecord
  2
*D4
340
0
  0
BLOCK_RECORD
  5
2487
330
1
100
AcDbSymbolTableRecord
100
AcDbBlockTableRecord
  2
*D5
340
0
  0
BLOCK_RECORD
  5
249F
330
1
100
AcDbSymbolTableRecord
100
AcDbBlockTableRecord
  2
*D6
340
0
  0
BLOCK_RECORD
  5
24C7
330
1
100
AcDbSymbolTableRecord
100
AcDbBlockTableRecord
  2
*D7
340
0
  0
BLOCK_RECORD
  5
24F9
330
1
100
AcDbSymbolTableRecord
100
AcDbBlockTableRecord
  2
*D8
340
0
  0
BLOCK_RECORD
  5
266F
330
1
100
AcDbSymbolTableRecord
100
AcDbBlockTableRecord
  2
*U9
340
0
  0
BLOCK_RECORD
  5
278A
330
1
100
AcDbSymbolTableRecord
100
AcDbBlockTableRecord
  2
*D10
340
0
  0
BLOCK_RECORD
  5
27E8
330
1
100
AcDbSymbolTableRecord
100
AcDbBlockTableRecord
  2
*D11
340
0
  0
BLOCK_RECORD
  5
28B1
330
1
100
AcDbSymbolTableRecord
100
AcDbBlockTableRecord
  2
*D12
340
0
  0
ENDTAB
  0
ENDSEC
  0
SECTION
  2
BLOCKS
  0
BLOCK
  5
20
330
1F
100
AcDbEntity
  8
0
100
AcDbBlockBegin
  2
*Model_Space
 70
     0
 71
     0
 10
0.0
 20
0.0
 30
0.0
  3
*Model_Space
  1

  0
ENDBLK
  5
21
330
1F
100
AcDbEntity
  8
0
100
AcDbBlockEnd
  0
BLOCK
  5
1C
330
1B
100
AcDbEntity
 67
     1
  8
0
100
AcDbBlockBegin
  2
*Paper_Space
 70
     0
 71
     0
 10
0.0
 20
0.0
 30
0.0
  3
*Paper_Space
  1

  0
ENDBLK
  5
1D
330
1B
100
AcDbEntity
 67
     1
  8
0
100
AcDbBlockEnd
  0
BLOCK
  5
24
330
23
100
AcDbEntity
  8
0
100
AcDbBlockBegin
  2
*Paper_Space0
 70
     0
 71
     0
 10
0.0
 20
0.0
 30
0.0
  3
*Paper_Space0
  1

  0
ENDBLK
  5
25
330
23
100
AcDbEntity
  8
0
100
AcDbBlockEnd
  0
BLOCK
  5
5D
330
59
100
AcDbEntity
  8
0
100
AcDbBlockBegin
  2
_Open30
 70
     0
 71
     0
 10
0.0
 20
0.0
 30
0.0
  3
_Open30
  1

  0
LINE
  5
5A
330
59
100
AcDbEntity
  8
0
 62
     0
370
    -2
100
AcDbLine
 10
-1.0
 20
0.26794919
 30
0.0
 11
0.0
 21
0.0
 31
0.0
  0
LINE
  5
5B
330
59
100
AcDbEntity
  8
0
 62
     0
370
    -2
100
AcDbLine
 10
0.0
 20
0.0
 30
0.0
 11
-1.0
 21
-0.26794919
 31
0.0
  0
LINE
  5
5C
330
59
100
AcDbEntity
  8
0
 62
     0
370
    -2
100
AcDbLine
 10
0.0
 20
0.0
 30
0.0
 11
-1.0
 21
0.0
 31
0.0
  0
ENDBLK
  5
5E
330
59
100
AcDbEntity
  8
0
100
AcDbBlockEnd
  0
BLOCK
  5
61
330
5F
100
AcDbEntity
  8
0
100
AcDbBlockBegin
  2
GENAXEH
 70
     0
 71
     0
 10
0.0
 20
0.0
 30
0.0
  3
GENAXEH
  1

  0
LINE
  5
60
330
5F
100
AcDbEntity
  8
0
100
AcDbLine
 10
-1.0
 20
0.0
 30
0.0
 11
1.0
 21
0.0
 31
0.0
  0
ENDBLK
  5
62
330
5F
100
AcDbEntity
  8
0
100
AcDbBlockEnd
  0
BLOCK
  5
2435
330
242B
100
AcDbEntity
  8
0
100
AcDbBlockBegin
  2
*D3
 70
     1
 71
     0
 10
0.0
 20
0.0
 30
0.0
  3
*D3
  1

  0
LINE
  5
293C
330
242B
100
AcDbEntity
  8
AM_5
 62
     3
370
    13
100
AcDbLine
 10
0.0
 20
-1.733495591606356
 30
0.0
 11
-0.0000000000000016
 21
-27.6568194315673
 31
0.0
  0
LINE
  5
293D
330
242B
100
AcDbEntity
  8
AM_5
 62
     3
370
    13
100
AcDbLine
 10
199.9999999999999
 20
4.000000000000256
 30
0.0
 11
199.9999999999999
 21
-27.6568194315673
 31
0.0
  0
LINE
  5
293E
330
242B
100
AcDbEntity
  8
AM_5
 62
     3
370
    13
100
AcDbLine
 10
2.499999999999999
 20
-26.6568194315673
 30
0.0
 11
197.4999999999999
 21
-26.6568194315673
 31
0.0
  0
INSERT
  5
293F
330
242B
100
AcDbEntity
  8
AM_5
 62
     3
370
    13
100
AcDbBlockReference
  2
_Open30
 10
-0.0000000000000015
 20
-26.6568194315673
 30
0.0
 41
2.5
 42
2.5
 43
2.5
 50
180.0
  0
INSERT
  5
2940
330
242B
100
AcDbEntity
  8
AM_5
 62
     3
370
    13
100
AcDbBlockReference
  2
_Open30
 10
199.9999999999999
 20
-26.6568194315673
 30
0.0
 41
2.5
 42
2.5
 43
2.5
  0
MTEXT
  5
2941
330
242B
100
AcDbEntity
  8
AM_5
 62
     2
370
    13
100
AcDbMText
 10
95.31641058123827
 20
-23.25644541581927
 30
0.0
 40
3.8
 41
0.0
 71
     5
 72
     1
  1
200
 73
     1
 44
1.0
  0
POINT
  5
2942
330
242B
100
AcDbEntity
  8
Defpoints
 62
     0
370
    13
100
AcDbPoint
 10
0.0
 20
-1.733495591606356
 30
0.0
  0
POINT
  5
2943
330
242B
100
AcDbEntity
  8
Defpoints
 62
     0
370
    13
100
AcDbPoint
 10
199.9999999999999
 20
4.000000000000256
 30
0.0
  0
POINT
  5
2944
330
242B
100
AcDbEntity
  8
Defpoints
 62
     0
370
    13
100
AcDbPoint
 10
199.9999999999999
 20
-26.6568194315673
 30
0.0
  0
ENDBLK
  5
2436
330
242B
100
AcDbEntity
  8
0
100
AcDbBlockEnd
  0
BLOCK
  5
2485
330
2477
100
AcDbEntity
  8
0
100
AcDbBlockBegin
  2
*D4
 70
     1
 71
     0
 10
0.0
 20
0.0
 30
0.0
  3
*D4
  1

  0
LINE
  5
2945
330
2477
100
AcDbEntity
  8
AM_5
 62
     3
370
    13
100
AcDbLine
 10
-63.01600620988668
 20
0.0998790557182936
 30
0.0
 11
-65.06366898347694
 21
-19.38233085147792
 31
0.0
  0
LINE
  5
2946
330
2477
100
AcDbEntity
  8
AM_5
 62
     3
370
    13
100
AcDbLine
 10
-63.01600620988668
 20
-3.105041805582005
 30
0.0
 11
-63.01600620988668
 21
-19.48964431016282
 31
0.0
  0
ARC
  5
2947
330
2477
100
AcDbEntity
  8
AM_5
 62
     3
370
    13
100
AcDbCircle
 10
-63.01600620988668
 20
0.0998790557182936
 30
0.0
 40
18.58952336588111
100
AcDbArc
 50
248.5775914433763
 51
256.2887957216751
  0
ARC
  5
2948
330
2477
100
AcDbEntity
  8
AM_5
 62
     3
370
    13
100
AcDbCircle
 10
-63.01600620988668
 20
0.0998790557182936
 30
0.0
 40
18.58952336588111
100
AcDbArc
 50
277.7112042782987
 51
285.4224085565975
  0
ARC
  5
2949
330
2477
100
AcDbEntity
  8
AM_5
 62
     3
370
    13
100
AcDbCircle
 10
-63.01600620988668
 20
0.0998790557182936
 30
0.0
 40
18.58952336588111
100
AcDbArc
 50
263.9999999999738
 51
270.0
  0
INSERT
  5
294A
330
2477
100
AcDbEntity
  8
AM_5
 62
     3
370
    13
100
AcDbBlockReference
  2
_Open30
 10
-64.95914052020882
 20
-18.38780895610971
 30
0.0
 41
2.5
 42
2.5
 43
2.5
 50
350.1443978608245
  0
INSERT
  5
294B
330
2477
100
AcDbEntity
  8
AM_5
 62
     3
370
    13
100
AcDbBlockReference
  2
_Open30
 10
-63.01600620988668
 20
-18.48964431016282
 30
0.0
 41
2.5
 42
2.5
 43
2.5
 50
183.8556021391494
  0
MTEXT
  5
294C
330
2477
100
AcDbEntity
  8
AM_5
 62
     2
370
    13
100
AcDbMText
 10
-67.04696897134923
 20
-14.54501627672948
 30
0.0
 40
3.8
 41
0.0
 71
     5
 72
     1
  1
-6°
 11
0.9641444948393383
 21
-0.2653778307828241
 31
0.0
 73
     1
 44
1.0
  0
POINT
  5
294D
330
2477
100
AcDbEntity
  8
Defpoints
 62
     0
370
    13
100
AcDbPoint
 10
-63.66477121929815
 20
-18.47832007480033
 30
0.0
  0
POINT
  5
294E
330
2477
100
AcDbEntity
  8
Defpoints
 62
     0
370
    13
100
AcDbPoint
 10
-63.01600620988668
 20
23.59843988049309
 30
0.0
  0
POINT
  5
294F
330
2477
100
AcDbEntity
  8
Defpoints
 62
     0
370
    13
100
AcDbPoint
 10
-62.97200596776148
 20
0.5185133953696965
 30
0.0
  0
POINT
  5
2950
330
2477
100
AcDbEntity
  8
Defpoints
 62
     0
370
    13
100
AcDbPoint
 10
-62.24301824892601
 20
7.454368234992188
 30
0.0
  0
POINT
  5
2951
330
2477
100
AcDbEntity
  8
Defpoints
 62
     0
370
    13
100
AcDbPoint
 10
-63.01600620988668
 20
-3.105041805582005
 30
0.0
  0
ENDBLK
  5
2486
330
2477
100
AcDbEntity
  8
0
100
AcDbBlockEnd
  0
BLOCK
  5
2491
330
2487
100
AcDbEntity
  8
0
100
AcDbBlockBegin
  2
*D5
 70
     1
 71
     0
 10
0.0
 20
0.0
 30
0.0
  3
*D5
  1

  0
LINE
  5
2952
330
2487
100
AcDbEntity
  8
AM_5
100
AcDbLine
 10
-112.4132288860129
 20
28.31502946166841
 30
0.0
 11
-77.66023676002854
 21
28.3150294616684
 31
0.0
  0
LINE
  5
2953
330
2487
100
AcDbEntity
  8
AM_5
100
AcDbLine
 10
-77.66023676002854
 20
28.3150294616684
 30
0.0
 11
-70.84821954057523
 21
19.84199334543951
 31
0.0
  0
LINE
  5
2954
330
2487
100
AcDbEntity
  8
AM_5
100
AcDbLine
 10
-55.18379287919828
 20
0.3580066545607039
 30
0.0
 11
-53.61735021306059
 21
-1.590392014527176
 31
0.0
  0
MTEXT
  5
2955
330
2487
100
AcDbEntity
  8
AM_5
 62
     2
370
    13
100
AcDbMText
 10
-96.92673282302071
 20
31.71540347741643
 30
0.0
 40
3.8
 41
0.0
 71
     5
 72
     1
  1
最小加工径\U+220520
 73
     1
 44
1.0
  0
LINE
  5
2956
330
2487
100
AcDbEntity
  8
AM_5
100
AcDbLine
 10
-56.75023554533598
 20
2.306405323648587
 30
0.0
 11
-69.28177687443753
 21
17.89359467635163
 31
0.0
  0
INSERT
  5
2957
330
2487
100
AcDbEntity
  8
AM_5
100
AcDbBlockReference
  2
_Open30
 10
-56.75023554533598
 20
2.306405323648587
 30
0.0
 41
2.5
 42
2.5
 43
2.5
 50
128.7980337807724
  0
INSERT
  5
2958
330
2487
100
AcDbEntity
  8
AM_5
100
AcDbBlockReference
  2
_Open30
 10
-69.28177687443753
 20
17.89359467635163
 30
0.0
 41
2.5
 42
2.5
 43
2.5
 50
308.7980337807725
  0
POINT
  5
2959
330
2487
100
AcDbEntity
  8
Defpoints
 62
     0
370
    13
100
AcDbPoint
 10
-69.28177687443753
 20
17.89359467635163
 30
0.0
  0
POINT
  5
295A
330
2487
100
AcDbEntity
  8
Defpoints
 62
     0
370
    13
100
AcDbPoint
 10
-56.75023554533598
 20
2.306405323648587
 30
0.0
  0
ENDBLK
  5
2492
330
2487
100
AcDbEntity
  8
0
100
AcDbBlockEnd
  0
BLOCK
  5
24AB
330
249F
100
AcDbEntity
  8
0
100
AcDbBlockBegin
  2
*D6
 70
     1
 71
     0
 10
0.0
 20
0.0
 30
0.0
  3
*D6
  1

  0
LINE
  5
295B
330
249F
100
AcDbEntity
  8
AM_0
 62
     3
370
    13
100
AcDbLine
 10
0.3999987381265271
 20
0.0000000000001137
 30
0.0
 11
34.04166659217171
 21
0.0000000000001042
 31
0.0
  0
LINE
  5
295C
330
249F
100
AcDbEntity
  8
AM_0
 62
     3
370
    13
100
AcDbLine
 10
33.04166659217171
 20
6.500000000000116
 30
0.0
 11
33.04166659217171
 21
9.000000000000116
 31
0.0
  0
LINE
  5
295D
330
249F
100
AcDbEntity
  8
AM_0
 62
     3
370
    13
100
AcDbLine
 10
33.04166659217171
 20
-2.499999999999896
 30
0.0
 11
33.04166659217171
 21
-9.899999999999899
 31
0.0
  0
LINE
  5
295E
330
249F
100
AcDbEntity
  8
AM_0
 62
     3
370
    13
100
AcDbLine
 10
33.04166659217171
 20
4.000000000000116
 30
0.0
 11
33.04166659217171
 21
0.0000000000001044
 31
0.0
  0
INSERT
  5
295F
330
249F
100
AcDbEntity
  8
AM_0
 62
     3
370
    13
100
AcDbBlockReference
  2
_Open30
 10
33.04166659217171
 20
4.000000000000116
 30
0.0
 41
2.5
 42
2.5
 43
2.5
 50
270.0
  0
INSERT
  5
2960
330
249F
100
AcDbEntity
  8
AM_0
 62
     3
370
    13
100
AcDbBlockReference
  2
_Open30
 10
33.04166659217171
 20
0.0000000000001044
 30
0.0
 41
2.5
 42
2.5
 43
2.5
 50
90.0
  0
MTEXT
  5
2961
330
249F
100
AcDbEntity
  8
AM_0
 62
     2
370
    30
100
AcDbMText
 10
29.64166659217171
 20
-7.449999999999893
 30
0.0
 40
3.8
 41
0.0
 71
     5
 72
     1
  1
4
 11
6.123031769111886E-17
 21
1.0
 31
0.0
 73
     1
 44
1.0
  0
POINT
  5
2962
330
249F
100
AcDbEntity
  8
Defpoints
 62
     0
370
    13
100
AcDbPoint
 10
0.3999987381265271
 20
0.0000000000001137
 30
0.0
  0
POINT
  5
2963
330
249F
100
AcDbEntity
  8
Defpoints
 62
     0
370
    13
100
AcDbPoint
 10
38.85935348332779
 20
4.000000000000114
 30
0.0
  0
POINT
  5
2964
330
249F
100
AcDbEntity
  8
Defpoints
 62
     0
370
    13
100
AcDbPoint
 10
33.04166659217171
 20
4.000000000000116
 30
0.0
  0
ENDBLK
  5
24AC
330
249F
100
AcDbEntity
  8
0
100
AcDbBlockEnd
  0
BLOCK
  5
24D1
330
24C7
100
AcDbEntity
  8
0
100
AcDbBlockBegin
  2
*D7
 70
     1
 71
     0
 10
0.0
 20
0.0
 30
0.0
  3
*D7
  1

  0
LINE
  5
2965
330
24C7
100
AcDbEntity
  8
AM_5
 62
     3
370
    13
100
AcDbLine
 10
-3.892058478939504
 20
11.00000000000011
 30
0.0
 11
-15.70176214233871
 21
11.00000000000012
 31
0.0
  0
LINE
  5
2966
330
24C7
100
AcDbEntity
  8
AM_5
 62
     3
370
    13
100
AcDbLine
 10
-3.055167178139413
 20
0.0
 30
0.0
 11
-15.70176214233871
 21
0.0000000000000036
 31
0.0
  0
LINE
  5
2967
330
24C7
100
AcDbEntity
  8
AM_5
 62
     3
370
    13
100
AcDbLine
 10
-14.70176214233871
 20
8.500000000000117
 30
0.0
 11
-14.70176214233871
 21
2.500000000000003
 31
0.0
  0
INSERT
  5
2968
330
24C7
100
AcDbEntity
  8
AM_5
 62
     3
370
    13
100
AcDbBlockReference
  2
_Open30
 10
-14.70176214233871
 20
11.00000000000012
 30
0.0
 41
2.5
 42
2.5
 43
2.5
 50
90.0
  0
INSERT
  5
2969
330
24C7
100
AcDbEntity
  8
AM_5
 62
     3
370
    13
100
AcDbBlockReference
  2
_Open30
 10
-14.70176214233871
 20
0.0000000000000033
 30
0.0
 41
2.5
 42
2.5
 43
2.5
 50
270.0
  0
MTEXT
  5
296A
330
24C7
100
AcDbEntity
  8
AM_5
 62
     2
370
    13
100
AcDbMText
 10
-18.10176214233871
 20
5.500000000000085
 30
0.0
 40
3.8
 41
0.0
 71
     5
 72
     1
  1
11
 11
6.123031769111886E-17
 21
1.0
 31
0.0
 73
     1
 44
1.0
  0
POINT
  5
296B
330
24C7
100
AcDbEntity
  8
Defpoints
 62
     0
370
    13
100
AcDbPoint
 10
-3.892058478939504
 20
11.00000000000011
 30
0.0
  0
POINT
  5
296C
330
24C7
100
AcDbEntity
  8
Defpoints
 62
     0
370
    13
100
AcDbPoint
 10
-3.055167178139413
 20
0.0
 30
0.0
  0
POINT
  5
296D
330
24C7
100
AcDbEntity
  8
Defpoints
 62
     0
370
    13
100
AcDbPoint
 10
-14.70176214233871
 20
0.0000000000000033
 30
0.0
  0
ENDBLK
  5
24D2
330
24C7
100
AcDbEntity
  8
0
100
AcDbBlockEnd
  0
BLOCK
  5
2503
330
24F9
100
AcDbEntity
  8
0
100
AcDbBlockBegin
  2
*D8
 70
     1
 71
     0
 10
0.0
 20
0.0
 30
0.0
  3
*D8
  1

  0
LINE
  5
296E
330
24F9
100
AcDbEntity
  8
AM_5
 62
     3
370
    13
100
AcDbLine
 10
103.7499999999999
 20
8.216117818585104
 30
0.0
 11
103.7499999999999
 21
-12.38879042183484
 31
0.0
  0
LINE
  5
296F
330
24F9
100
AcDbEntity
  8
AM_5
 62
     3
370
    13
100
AcDbLine
 10
118.7499999999999
 20
8.216117818585104
 30
0.0
 11
118.7499999999999
 21
-12.38879042183484
 31
0.0
  0
LINE
  5
2970
330
24F9
100
AcDbEntity
  8
AM_5
 62
     3
370
    13
100
AcDbLine
 10
106.2499999999999
 20
-11.38879042183484
 30
0.0
 11
116.2499999999999
 21
-11.38879042183484
 31
0.0
  0
INSERT
  5
2971
330
24F9
100
AcDbEntity
  8
AM_5
 62
     3
370
    13
100
AcDbBlockReference
  2
_Open30
 10
103.7499999999999
 20
-11.38879042183484
 30
0.0
 41
2.5
 42
2.5
 43
2.5
 50
180.0
  0
INSERT
  5
2972
330
24F9
100
AcDbEntity
  8
AM_5
 62
     3
370
    13
100
AcDbBlockReference
  2
_Open30
 10
118.7499999999999
 20
-11.38879042183484
 30
0.0
 41
2.5
 42
2.5
 43
2.5
  0
MTEXT
  5
2973
330
24F9
100
AcDbEntity
  8
AM_5
 62
     2
370
    13
100
AcDbMText
 10
110.9545108384332
 20
-7.988790421834841
 30
0.0
 40
3.8
 41
0.0
 71
     5
 72
     1
  1
15
 73
     1
 44
1.0
  0
POINT
  5
2974
330
24F9
100
AcDbEntity
  8
Defpoints
 62
     0
370
    13
100
AcDbPoint
 10
103.7499999999999
 20
8.216117818585104
 30
0.0
  0
POINT
  5
2975
330
24F9
100
AcDbEntity
  8
Defpoints
 62
     0
370
    13
100
AcDbPoint
 10
118.7499999999999
 20
8.216117818585104
 30
0.0
  0
POINT
  5
2976
330
24F9
100
AcDbEntity
  8
Defpoints
 62
     0
370
    13
100
AcDbPoint
 10
118.7499999999999
 20
-11.38879042183484
 30
0.0
  0
ENDBLK
  5
2504
330
24F9
100
AcDbEntity
  8
0
100
AcDbBlockEnd
  0
BLOCK
  5
2670
330
266F
100
AcDbEntity
  8
0
100
AcDbBlockBegin
  2
*U9
 70
     1
 71
     0
 10
0.0
 20
0.0
 30
0.0
  3
*U9
  1

  0
ENDBLK
  5
2671
330
266F
100
AcDbEntity
  8
0
100
AcDbBlockEnd
  0
BLOCK
  5
2796
330
278A
100
AcDbEntity
  8
0
100
AcDbBlockBegin
  2
*D10
 70
     1
 71
     0
 10
0.0
 20
0.0
 30
0.0
  3
*D10
  1

  0
LINE
  5
2977
330
278A
100
AcDbEntity
  8
AM_5
 62
     3
370
    13
100
AcDbLine
 10
0.364034958254905
 20
7.354368234992335
 30
0.0
 11
1.319932779409115
 21
25.59398521993928
 31
0.0
  0
LINE
  5
2978
330
278A
100
AcDbEntity
  8
AM_5
 62
     3
370
    13
100
AcDbLine
 10
-3.055167178139413
 20
0.0
 30
0.0
 11
-25.65050017209744
 21
0.0000000000000018
 31
0.0
  0
ARC
  5
2979
330
278A
100
AcDbEntity
  8
AM_5
 62
     3
370
    13
100
AcDbCircle
 10
-0.0213911489707381
 20
0.0
 30
0.0
 40
24.6291090231267
100
AcDbArc
 50
92.81835965798921
 51
174.1816403420111
  0
INSERT
  5
297A
330
278A
100
AcDbEntity
  8
AM_5
 62
     3
370
    13
100
AcDbBlockReference
  2
_Open30
 10
1.267596823166176
 20
24.5953556851847
 30
0.0
 41
2.5
 42
2.5
 43
2.5
 50
359.9091798289948
  0
INSERT
  5
297B
330
278A
100
AcDbEntity
  8
AM_5
 62
     3
370
    13
100
AcDbBlockReference
  2
_Open30
 10
-24.65050017209744
 20
0.0000000000000018
 30
0.0
 41
2.5
 42
2.5
 43
2.5
 50
267.0908201710056
  0
MTEXT
  5
297C
330
278A
100
AcDbEntity
  8
AM_5
 62
     2
370
    13
100
AcDbMText
 10
-18.11635066807453
 20
21.40568598836108
 30
0.0
 40
3.8
 41
0.0
 71
     5
 72
     1
  1
93°
 11
0.7636948420550695
 21
0.6455774068370752
 31
0.0
 73
     1
 44
1.0
  0
POINT
  5
297D
330
278A
100
AcDbEntity
  8
Defpoints
 62
     0
370
    13
100
AcDbPoint
 10
-21.13265804902231
 20
12.68492889802099
 30
0.0
  0
POINT
  5
297E
330
278A
100
AcDbEntity
  8
Defpoints
 62
     0
370
    13
100
AcDbPoint
 10
0.3999987381265555
 20
0.0
 30
0.0
  0
POINT
  5
297F
330
278A
100
AcDbEntity
  8
Defpoints
 62
     0
370
    13
100
AcDbPoint
 10
0.0005422086807982
 20
0.4185133953698426
 30
0.0
  0
POINT
  5
2980
330
278A
100
AcDbEntity
  8
Defpoints
 62
     0
370
    13
100
AcDbPoint
 10
0.364034958254905
 20
7.354368234992335
 30
0.0
  0
POINT
  5
2981
330
278A
100
AcDbEntity
  8
Defpoints
 62
     0
370
    13
100
AcDbPoint
 10
-3.055167178139413
 20
0.0
 30
0.0
  0
ENDBLK
  5
2797
330
278A
100
AcDbEntity
  8
0
100
AcDbBlockEnd
  0
BLOCK
  5
27F4
330
27E8
100
AcDbEntity
  8
0
100
AcDbBlockBegin
  2
*D11
 70
     1
 71
     0
 10
0.0
 20
0.0
 30
0.0
  3
*D11
  1

  0
LINE
  5
2982
330
27E8
100
AcDbEntity
  8
AM_5
 62
     3
370
    13
100
AcDbLine
 10
-2.955205609360206
 20
-79.25393550969449
 30
0.0
 11
-10.02318747758253
 21
-79.25393550969449
 31
0.0
  0
LINE
  5
2983
330
27E8
100
AcDbEntity
  8
AM_5
 62
     3
370
    13
100
AcDbLine
 10
-2.955205609360206
 20
-79.25393550969449
 30
0.0
 11
-10.02318747758253
 21
-79.25393550969449
 31
0.0
  0
LINE
  5
2984
330
27E8
100
AcDbEntity
  8
AM_5
 62
     3
370
    13
100
AcDbLine
 10
-9.023187477582525
 20
-81.75393550969449
 30
0.0
 11
-9.023187477582527
 21
-84.25393550969449
 31
0.0
  0
LINE
  5
2985
330
27E8
100
AcDbEntity
  8
AM_5
 62
     3
370
    13
100
AcDbLine
 10
-9.023187477582525
 20
-76.75393550969449
 30
0.0
 11
-9.023187477582523
 21
-74.25393550969449
 31
0.0
  0
MTEXT
  5
2986
330
27E8
100
AcDbEntity
  8
AM_5
 62
     2
370
    13
100
AcDbMText
 10
-12.57548385746966
 20
-77.81955482690907
 30
0.0
 40
3.8
 41
0.0
 71
     5
 72
     1
  1
0%%d
 11
6.123031769111886E-17
 21
1.0
 31
0.0
 73
     1
 44
1.0
  0
INSERT
  5
2987
330
27E8
100
AcDbEntity
  8
AM_5
 62
     3
370
    13
100
AcDbBlockReference
  2
_Open30
 10
-9.023187477582525
 20
-79.25393550969449
 30
0.0
 41
2.5
 42
2.5
 43
2.5
 50
90.0
  0
INSERT
  5
2988
330
27E8
100
AcDbEntity
  8
AM_5
 62
     3
370
    13
100
AcDbBlockReference
  2
_Open30
 10
-9.023187477582525
 20
-79.25393550969449
 30
0.0
 41
2.5
 42
2.5
 43
2.5
 50
270.0
  0
POINT
  5
2989
330
27E8
100
AcDbEntity
  8
Defpoints
 62
     0
370
    13
100
AcDbPoint
 10
-2.955205609360206
 20
-79.25393550969449
 30
0.0
  0
POINT
  5
298A
330
27E8
100
AcDbEntity
  8
Defpoints
 62
     0
370
    13
100
AcDbPoint
 10
-2.955205609360206
 20
-79.25393550969449
 30
0.0
  0
POINT
  5
298B
330
27E8
100
AcDbEntity
  8
Defpoints
 62
     0
370
    13
100
AcDbPoint
 10
-9.023187477582525
 20
-79.25393550969449
 30
0.0
  0
ENDBLK
  5
27F5
330
27E8
100
AcDbEntity
  8
0
100
AcDbBlockEnd
  0
BLOCK
  5
28BA
330
28B1
100
AcDbEntity
  8
0
370
    13
100
AcDbBlockBegin
  2
*D12
 70
     1
 71
     0
 10
0.0
 20
0.0
 30
0.0
  3
*D12
  1

  0
LINE
  5
298C
330
28B1
100
AcDbEntity
  8
AM_5
100
AcDbLine
 10
130.407573232122
 20
25.78573740062907
 30
0.0
 11
121.8790692951141
 21
25.78573740062906
 31
0.0
  0
LINE
  5
298D
330
28B1
100
AcDbEntity
  8
AM_5
100
AcDbLine
 10
121.8790692951141
 20
25.78573740062906
 30
0.0
 11
117.3788706566721
 21
19.52566387290661
 31
0.0
  0
LINE
  5
298E
330
28B1
100
AcDbEntity
  8
AM_5
100
AcDbLine
 10
105.1211293433278
 20
2.474336127093615
 30
0.0
 11
103.6618744250725
 21
0.4444161573539702
 31
0.0
  0
MTEXT
  5
298F
330
28B1
100
AcDbEntity
  8
AM_5
 62
     2
370
    13
100
AcDbMText
 10
126.893321263618
 20
29.18573740062906
 30
0.0
 40
3.8
 41
0.0
 71
     5
 72
     1
  1
\U+220516
 73
     1
 44
1.0
  0
LINE
  5
2990
330
28B1
100
AcDbEntity
  8
AM_5
100
AcDbLine
 10
106.5803842615831
 20
4.504256096833259
 30
0.0
 11
115.9196157384168
 21
17.49574390316695
 31
0.0
  0
INSERT
  5
2991
330
28B1
100
AcDbEntity
  8
AM_5
100
AcDbBlockReference
  2
_Open30
 10
106.5803842615831
 20
4.504256096833259
 30
0.0
 41
2.5
 42
2.5
 43
2.5
 50
54.28865721053425
  0
INSERT
  5
2992
330
28B1
100
AcDbEntity
  8
AM_5
100
AcDbBlockReference
  2
_Open30
 10
115.9196157384168
 20
17.49574390316695
 30
0.0
 41
2.5
 42
2.5
 43
2.5
 50
234.2886572105343
  0
POINT
  5
2993
330
28B1
100
AcDbEntity
  8
Defpoints
 62
     0
370
    13
100
AcDbPoint
 10
115.9196157384168
 20
17.49574390316695
 30
0.0
  0
POINT
  5
2994
330
28B1
100
AcDbEntity
  8
Defpoints
 62
     0
370
    13
100
AcDbPoint
 10
106.5803842615831
 20
4.504256096833259
 30
0.0
  0
ENDBLK
  5
28BB
330
28B1
100
AcDbEntity
  8
0
370
    13
100
AcDbBlockEnd
  0
ENDSEC
  0
SECTION
  2
ENTITIES
  0
LINE
  5
2283
102
{ACAD_REACTORS
330
28AF
102
}
330
1F
100
AcDbEntity
  8
AM_7
  6
CENTER
370
    13
100
AcDbLine
 10
-3.892058478939504
 20
11.00000000000011
 30
0.0
 11
204.2569001319042
 21
11.00000000000011
 31
0.0
1001
GENIUS_GENODEF_13
1002
{
1000
HIER
1070
     0
1002
}
1002
{
1000
MANEDIT
1070
     0
1002
}
1002
{
1000
NOSEL
1070
     0
1002
}
1002
{
1000
BEHIND
1070
     0
1002
}
1002
{
1000
OTHER
1070
     0
1002
}
1002
{
1000
REACTOR
1002
}
1001
GENIUS_GENOBJ-N-CEN_13
1002
{
1000
OWNER
1000
GEN
1002
}
  0
LINE
  5
2284
330
1F
100
AcDbEntity
  8
AM_7
  6
CENTER
100
AcDbLine
 10
-2.955205609360206
 20
-79.25393550969449
 30
0.0
 11
203.8819784603371
 21
-79.25393550969449
 31
0.0
1001
GENIUS_GENODEF_13
1002
{
1000
HIER
1070
     0
1002
}
1002
{
1000
MANEDIT
1070
     0
1002
}
1002
{
1000
NOSEL
1070
     0
1002
}
1002
{
1000
BEHIND
1070
     0
1002
}
1002
{
1000
OTHER
1070
     0
1002
}
1002
{
1000
REACTOR
1002
}
1001
GENIUS_GENOBJ-N-CEN_13
1002
{
1000
OWNER
1000
GEN
1002
}
  0
LINE
  5
228A
330
1F
100
AcDbEntity
  8
AM_0
370
    30
100
AcDbLine
 10
21.25
 20
8.216117818585076
 30
0.0
 11
98.74999999999992
 21
8.216117818585076
 31
0.0
  0
LINE
  5
228B
330
1F
100
AcDbEntity
  8
AM_0
370
    30
100
AcDbLine
 10
98.74999999999992
 20
13.7838821814151
 30
0.0
 11
21.24999999999992
 21
13.78388218141507
 31
0.0
  0
LINE
  5
228C
330
1F
100
AcDbEntity
  8
AM_0
370
    30
100
AcDbLine
 10
21.24999999999997
 20
4.000000000000142
 30
0.0
 11
98.74999999999992
 21
4.000000000000114
 31
0.0
  0
LINE
  5
228D
330
1F
100
AcDbEntity
  8
AM_0
370
    30
100
AcDbLine
 10
21.24999999999983
 20
19.00000000000011
 30
0.0
 11
98.74999999999992
 21
19.00000000000011
 31
0.0
  0
LINE
  5
228E
330
1F
100
AcDbEntity
  8
AM_0
370
    30
100
AcDbLine
 10
21.25000000000031
 20
-71.75393550969443
 30
0.0
 11
199.5000000000002
 21
-71.75393550969463
 31
0.0
  0
LINE
  5
2290
330
1F
100
AcDbEntity
  8
AM_0
370
    30
100
AcDbLine
 10
21.25000000000031
 20
-75.38095216348705
 30
0.0
 11
199.0000000000001
 21
-75.38095216348722
 31
0.0
  0
DIMENSION
  5
2296
330
1F
100
AcDbEntity
  8
AM_5
370
    13
100
AcDbDimension
  2
*D3
 10
199.9999999999999
 20
-26.6568194315673
 30
0.0
 11
95.31641058123827
 21
-26.6568194315673
 31
0.0
 70
   160
  1
<>
 71
     5
 42
199.9999999999999
  3
AM_JIS$0
100
AcDbAlignedDimension
 13
0.0
 23
-1.733495591606356
 33
0.0
 14
199.9999999999999
 24
4.000000000000256
 34
0.0
100
AcDbRotatedDimension
1001
ACAD
1000
DSTYLE
1002
{
1070
   271
1070
     0
1002
}
  0
SPLINE
  5
2299
330
1F
100
AcDbEntity
  8
AM_0
370
    30
100
AcDbSpline
210
0.0
220
0.0
230
1.0
 70
     8
 71
     3
 72
    20
 73
    16
 74
     0
 42
0.0000000001
 43
0.0000000001
 40
0.993584881073777
 40
0.993584881073777
 40
0.993584881073777
 40
0.993584881073777
 40
1.588205426202078
 40
1.588205426202078
 40
3.176410852404156
 40
3.176410852404156
 40
4.764616278606233
 40
4.764616278606233
 40
6.352821704808312
 40
6.352821704808312
 40
7.208545465922554
 40
7.208545465922554
 40
8.064269227036796
 40
8.064269227036796
 40
8.394534628227648
 40
8.394534628227648
 40
8.394534628227648
 40
8.394534628227648
 10
20.13725290824695
 20
-71.75393550969449
 30
0.0
 10
20.11820073931389
 20
-71.80480249253492
 30
0.0
 10
20.09400495075849
 20
-71.86346733006894
 30
0.0
 10
19.98551915523885
 20
-72.10634368812816
 30
0.0
 10
19.86814114928902
 20
-72.33738044718626
 30
0.0
 10
19.55085317513394
 20
-72.88118915585295
 30
0.0
 10
19.35002683795389
 20
-73.19469107116578
 30
0.0
 10
18.86856590321347
 20
-73.85940004687501
 30
0.0
 10
18.58752638784367
 20
-74.2102527019477
 30
0.0
 10
18.11345093351721
 20
-74.73692083999885
 30
0.0
 10
17.9297467087076
 20
-74.92999580664332
 30
0.0
 10
17.53258410906582
 20
-75.31976420885502
 30
0.0
 10
17.31910674183607
 20
-75.5164104614517
 30
0.0
 10
17.00936952595848
 20
-75.78225996947327
 30
0.0
 10
16.92162793715997
 20
-75.8555971458041
 30
0.0
 10
16.83275322445454
 20
-75.92790183509584
 30
0.0
  0
LINE
  5
229A
330
1F
100
AcDbEntity
  8
AM_0
370
    30
100
AcDbLine
 10
21.2500000000002
 20
-75.38095216348705
 30
0.0
 11
21.2500000000002
 21
-71.75393550969449
 31
0.0
  0
LINE
  5
229B
330
1F
100
AcDbEntity
  8
AM_0
370
    30
100
AcDbLine
 10
21.0000000000002
 20
-75.92790183578194
 30
0.0
 11
21.0000000000002
 21
-71.75393550969449
 31
0.0
  0
SPLINE
  5
229E
330
1F
100
AcDbEntity
  8
AM_0
370
    30
100
AcDbSpline
210
0.0
220
0.0
230
1.0
 70
     8
 71
     3
 72
    28
 73
    24
 74
     0
 42
0.0000000001
 43
0.0000000001
 40
18.29440850591165
 40
18.29440850591165
 40
18.29440850591165
 40
18.29440850591165
 40
18.49343387935771
 40
18.49343387935771
 40
20.34496237703289
 40
20.34496237703289
 40
22.19649087470808
 40
22.19649087470808
 40
24.04801937238326
 40
24.04801937238326
 40
24.90315517542236
 40
24.90315517542236
 40
25.75829097846147
 40
25.75829097846147
 40
26.61342678150057
 40
26.61342678150057
 40
27.46856258453967
 40
27.46856258453967
 40
28.92237462924607
 40
28.92237462924607
 40
30.37618667395245
 40
30.37618667395245
 40
31.25038656028972
 40
31.25038656028972
 40
31.25038656028972
 40
31.25038656028972
 10
10.0000000000002
 20
-77.21844697720383
 30
0.0
 10
10.06950789411789
 20
-77.21013750959497
 30
0.0
 10
10.13909815283009
 20
-77.20130220371163
 30
0.0
 10
10.85666903128728
 20
-77.10483103629304
 30
0.0
 10
11.50941996604317
 20
-76.97128925599628
 30
0.0
 10
12.78451189790539
 20
-76.61738582770028
 30
0.0
 10
13.40740757947557
 20
-76.39688249040586
 30
0.0
 10
14.58784342244698
 20
-75.89139145772123
 30
0.0
 10
15.14534501561931
 20
-75.60649633690963
 30
0.0
 10
15.89171292187766
 20
-75.17022511632996
 30
0.0
 10
16.13254737158397
 20
-75.02067741020034
 30
0.0
 10
16.60764492824328
 20
-74.70642480594898
 30
0.0
 10
16.84189376783522
 20
-74.54174142435875
 30
0.0
 10
17.29029781845119
 20
-74.20811217987199
 30
0.0
 10
17.50456575436428
 20
-74.03912447937347
 30
0.0
 10
17.90340171682996
 20
-73.7089988931445
 30
0.0
 10
18.08798826030667
 20
-73.54791599618062
 30
0.0
 10
18.53858826632595
 20
-73.13933848327082
 30
0.0
 10
18.80156768717504
 20
-72.88221379169085
 30
0.0
 10
19.26101766768497
 20
-72.41156785962278
 30
0.0
 10
19.45775494212191
 20
-72.19833951604136
 30
0.0
 10
19.71461617575719
 20
-71.91952399439384
 30
0.0
 10
19.7982713564804
 20
-71.82865368779545
 30
0.0
 10
19.86935961501396
 20
-71.75393550969449
 30
0.0
  0
SPLINE
  5
22CC
330
1F
100
AcDbEntity
  8
AM_0
370
    30
100
AcDbSpline
210
0.0
220
0.0
230
1.0
 70
    28
 71
     2
 72
     6
 73
     3
 74
     0
 42
0.0000000001
 43
0.0000000001
 40
0.0
 40
0.0
 40
0.0
 40
0.8683077351808815
 40
0.8683077351808815
 40
0.8683077351808815
 10
21.2500000000002
 20
-86.75393550969449
 30
0.0
 41
1.0
 10
21.10306055405042
 20
-86.75393550969454
 30
0.0
 41
1.001395898062751
 10
21.0000000000002
 20
-86.75393550969449
 30
0.0
 41
1.0
  0
SPLINE
  5
22CD
330
1F
100
AcDbEntity
  8
AM_0
370
    30
100
AcDbSpline
210
0.0
220
0.0
230
1.0
 70
    12
 71
     2
 72
     6
 73
     3
 74
     0
 42
0.0000000001
 43
0.0000000001
 40
0.0
 40
0.0
 40
0.0
 40
0.6014155539557036
 40
0.6014155539557036
 40
0.6014155539557036
 10
21.2500000000002
 20
-83.12691885590192
 30
0.0
 41
1.0
 10
21.11550304939632
 20
-82.84910314933944
 30
0.0
 41
1.000603526915614
 10
21.0000000000002
 20
-82.57996918360703
 30
0.0
 41
1.0
  0
SPLINE
  5
22CE
330
1F
100
AcDbEntity
  8
AM_0
370
    30
100
AcDbSpline
210
0.0
220
0.0
230
1.0
 70
    12
 71
     2
 72
     6
 73
     3
 74
     0
 42
0.0000000001
 43
0.0000000001
 40
0.0
 40
0.0
 40
0.0
 40
0.6014155539557036
 40
0.6014155539557036
 40
0.6014155539557036
 10
21.0000000000002
 20
-75.92790183578194
 30
0.0
 41
1.0
 10
21.11550304939632
 20
-75.65876787004956
 30
0.0
 41
1.000603526915614
 10
21.2500000000002
 20
-75.38095216348705
 30
0.0
 41
1.0
  0
ELLIPSE
  5
22D0
330
1F
100
AcDbEntity
  8
AM_0
370
    30
100
AcDbEllipse
 10
8.699564223539682
 20
-98.75405518282145
 30
0.0
 11
0.0008660301432258388
 21
28.69988959280508
 31
0.0
210
0.0
220
0.0
230
1.0
 40
0.1045300187979209
 41
5.311080163700177
 42
5.490372237618155
  0
ELLIPSE
  5
22D1
330
1F
100
AcDbEntity
  8
AM_0
370
    30
100
AcDbEllipse
 10
8.700087020351447
 20
-81.42877973613798
 30
0.0
 11
-2.999999998634168
 21
9.052614714036430E-5
 31
0.0
210
0.0
220
0.0
230
1.0
 40
0.1045300187979214
 41
5.606396249229078
 42
5.816433770911915
  0
SPLINE
  5
22D2
330
1F
100
AcDbEntity
  8
AM_0
370
    30
100
AcDbSpline
210
0.0
220
0.0
230
1.0
 70
     8
 71
     3
 72
    38
 73
    34
 74
     0
 42
0.0000000001
 43
0.0000000001
 40
28.50618203883964
 40
28.50618203883964
 40
28.50618203883964
 40
28.50618203883964
 40
29.66296404511013
 40
29.66296404511013
 40
30.28451917964808
 40
30.28451917964808
 40
30.90607431418602
 40
30.90607431418602
 40
31.28382336043714
 40
31.28382336043714
 40
31.66157240668827
 40
31.66157240668827
 40
32.03932145293939
 40
32.03932145293939
 40
32.41707049919052
 40
32.41707049919052
 40
32.79481411662353
 40
32.79481411662353
 40
33.17255773405654
 40
33.17255773405654
 40
33.55030135148955
 40
33.55030135148955
 40
33.92804496892256
 40
33.92804496892256
 40
34.5495955799102
 40
34.5495955799102
 40
35.17114619089785
 40
35.17114619089785
 40
36.41424741287314
 40
36.41424741287314
 40
37.65734863484843
 40
37.65734863484843
 40
37.68058178434822
 40
37.68058178434822
 40
37.68058178434822
 40
37.68058178434822
 10
11.17827404774718
 20
-82.57996918365615
 30
0.0
 10
11.09133627874118
 20
-82.92620300639743
 30
0.0
 10
10.97507951005147
 20
-83.24799605449078
 30
0.0
 10
10.72922379876329
 20
-83.68881285111922
 30
0.0
 10
10.63069570273225
 20
-83.83275911698564
 30
0.0
 10
10.40202088994212
 20
-84.09757612657853
 30
0.0
 10
10.27201470187148
 20
-84.2185143038983
 30
0.0
 10
10.02938385709339
 20
-84.39107863001482
 30
0.0
 10
9.927419622863653
 20
-84.45274157933096
 30
0.0
 10
9.707122778532238
 20
-84.56156239993214
 30
0.0
 10
9.58877666403211
 20
-84.60873077019659
 30
0.0
 10
9.342343103627712
 20
-84.68444831792147
 30
0.0
 10
9.214035417137865
 20
-84.71307876966506
 30
0.0
 10
8.955811116979334
 20
-84.75065145641463
 30
0.0
 10
8.825893397717408
 20
-84.75959699467541
 30
0.0
 10
8.57406250982271
 20
-84.75959699467541
 30
0.0
 10
8.444146576646489
 20
-84.75065170742249
 30
0.0
 10
8.185926085411069
 20
-84.71307958668109
 30
0.0
 10
8.057620422918575
 20
-84.68444944717811
 30
0.0
 10
7.811191398678801
 20
-84.60873225262805
 30
0.0
 10
7.692847778373306
 20
-84.56156391348128
 30
0.0
 10
7.472556512882619
 20
-84.45274268556744
 30
0.0
 10
7.370595363759179
 20
-84.39107929551301
 30
0.0
 10
7.127972210902357
 20
-84.21851244746921
 30
0.0
 10
6.997972766849642
 20
-84.09757257460257
 30
0.0
 10
6.769313951293356
 20
-83.83275282485965
 30
0.0
 10
6.670795145206483
 20
-83.68880550472665
 30
0.0
 10
6.413034663738557
 20
-83.22658719115401
 30
0.0
 10
6.291562908989562
 20
-82.87793512146703
 30
0.0
 10
6.114135405480596
 20
-82.12615061600258
 30
0.0
 10
6.058232350229417
 20
-81.72323112969622
 30
0.0
 10
6.022283996512073
 20
-81.30301614430579
 30
0.0
 10
6.021631832353904
 20
-81.29530327050128
 30
0.0
 10
6.020986981248342
 20
-81.28758723323949
 30
0.0
  0
SPLINE
  5
22D3
330
1F
100
AcDbEntity
  8
AM_0
370
    30
100
AcDbSpline
210
0.0
220
0.0
230
1.0
 70
     8
 71
     3
 72
    33
 73
    29
 74
     0
 42
0.0000000001
 43
0.0000000001
 40
-2.380193106016058
 40
-2.380193106016058
 40
-2.380193106016058
 40
-2.380193106016058
 40
-2.127325257566421
 40
-2.127325257566421
 40
-1.357808899539542
 40
-1.357808899539542
 40
-0.6789044497697709
 40
-0.6789044497697709
 40
-0.3394522248848855
 40
-0.3394522248848855
 40
0.0
 40
0.0
 40
0.0
 40
0.1919334706483523
 40
0.1919334706483523
 40
0.3838669412967046
 40
0.3838669412967046
 40
0.6025306668726924
 40
0.6025306668726924
 40
0.8211943924486802
 40
0.8211943924486802
 40
1.473535771847072
 40
1.473535771847072
 40
2.125877151245463
 40
2.125877151245463
 40
2.772910833709151
 40
2.772910833709151
 40
3.409159803909822
 40
3.409159803909822
 40
3.409159803909822
 40
3.409159803909822
 10
2.456864662881202
 20
-86.75393550969449
 30
0.0
 10
2.492095508197025
 20
-86.68989495057434
 30
0.0
 10
2.530260709044313
 20
-86.62416919309641
 30
0.0
 10
2.694200346862061
 20
-86.35508281403287
 30
0.0
 10
2.84005617822308
 20
-86.14458458801994
 30
0.0
 10
3.122602862816024
 20
-85.78295129328348
 30
0.0
 10
3.279784613630426
 20
-85.59973848449209
 30
0.0
 10
3.535616301034196
 20
-85.35459367250957
 30
0.0
 10
3.624088107896881
 20
-85.27795995088496
 30
0.0
 10
3.805967793158487
 20
-85.14361334865288
 30
0.0
 10
3.899294632460368
 20
-85.08573546214166
 30
0.0
 10
3.995251903476827
 20
-85.0434191013087
 30
0.0
 10
4.049508174934175
 20
-85.01949253549338
 30
0.0
 10
4.108480956496322
 20
-84.99940685490066
 30
0.0
 10
4.22106696483749
 20
-84.97658913801655
 30
0.0
 10
4.274652641113306
 20
-84.97389576862037
 30
0.0
 10
4.371828695507219
 20
-84.98274162012291
 30
0.0
 10
4.421967276496588
 20
-84.99702489842429
 30
0.0
 10
4.507770275973115
 20
-85.04101020898577
 30
0.0
 10
4.543600970630422
 20
-85.07046236933809
 30
0.0
 10
4.653901215779769
 20
-85.19210014053124
 30
0.0
 10
4.693763011172763
 20
-85.31920353618119
 30
0.0
 10
4.702436158121344
 20
-85.59440535765384
 30
0.0
 10
4.669948600439824
 20
-85.74315081040498
 30
0.0
 10
4.560735145560187
 20
-86.02017965732011
 30
0.0
 10
4.474958253661697
 20
-86.17208370068789
 30
0.0
 10
4.25162347944817
 20
-86.47152689667718
 30
0.0
 10
4.115047526896632
 20
-86.61945855822739
 30
0.0
 10
3.971425664368411
 20
-86.75393550969449
 30
0.0
  0
ELLIPSE
  5
22D4
330
1F
100
AcDbEntity
  8
AM_0
370
    30
100
AcDbEllipse
 10
0.5684342065277122
 20
-78.49892785479182
 30
0.0
 11
1.214211967272975
 21
-10.33606003403354
 31
0.0
210
0.0
220
0.0
230
1.0
 40
0.0636885550977899
 41
5.007538113657503
 42
5.629937065170333
  0
SPLINE
  5
22D5
330
1F
100
AcDbEntity
  8
AM_0
370
    30
100
AcDbSpline
210
0.0
220
0.0
230
1.0
 70
    28
 71
     2
 72
     6
 73
     3
 74
     0
 42
0.0000000001
 43
0.0000000001
 40
4.64417708638051
 40
4.64417708638051
 40
4.64417708638051
 40
6.279130584688224
 40
6.279130584688224
 40
6.279130584688224
 10
2.4568646628812
 20
-86.75393550969449
 30
0.0
 41
1.023917540596381
 10
1.869218234997078
 20
-86.75393550969449
 30
0.0
 41
1.021109274205845
 10
1.132569162343629
 20
-86.75393550969449
 30
0.0
 41
1.013359526988105
  0
SPLINE
  5
22D6
330
1F
100
AcDbEntity
  8
AM_0
370
    30
100
AcDbSpline
210
0.0
220
0.0
230
1.0
 70
    28
 71
     2
 72
     6
 73
     3
 74
     0
 42
0.0000000001
 43
0.0000000001
 40
0.0
 40
0.0
 40
0.0
 40
2.053306837138606
 40
2.053306837138606
 40
2.053306837138606
 10
4.720986860671331
 20
-86.75393550969449
 30
0.0
 41
1.0
 10
4.445511970648536
 20
-86.75393550969449
 30
0.0
 41
1.014101390920686
 10
3.971425664368468
 20
-86.75393550969449
 30
0.0
 41
1.020408896517735
  0
ELLIPSE
  5
22D7
330
1F
100
AcDbEntity
  8
AM_0
370
    30
100
AcDbEllipse
 10
0.3999285758452231
 20
-81.57908522682209
 30
0.0
 11
0.10777274500202
 21
-3.252083792073125E-6
 31
0.0
210
0.0
220
0.0
230
1.0
 40
0.1045300187979214
 41
3.154498383390149
 42
5.271183808450032
  0
SPLINE
  5
22D8
330
1F
100
AcDbEntity
  8
AM_0
370
    30
100
AcDbSpline
210
0.0
220
0.0
230
1.0
 70
    28
 71
     2
 72
     6
 73
     3
 74
     0
 42
0.0000000001
 43
0.0000000001
 40
5.285705700631527
 40
5.285705700631527
 40
5.285705700631527
 40
5.286130157642167
 40
5.286130157642167
 40
5.286130157642167
 10
0.2922189234585346
 20
-81.57946743388445
 30
0.0
 41
1.001334114660086
 10
0.2920113386939816
 20
-81.57948108203328
 30
0.0
 41
1.001333211563274
 10
0.2918037487365552
 20
-81.57949473051878
 30
0.0
 41
1.001332308312817
  0
ELLIPSE
  5
22D9
330
1F
100
AcDbEntity
  8
AM_0
370
    30
100
AcDbEllipse
 10
7.148702858708788
 20
-78.14830752444965
 30
0.0
 11
-1.299999999408214
 21
3.922799709876138E-5
 31
0.0
210
0.0
220
0.0
230
1.0
 40
0.104530018797921
 41
3.624364910001735
 42
5.497790298015411
  0
ELLIPSE
  5
22DA
330
1F
100
AcDbEntity
  8
AM_0
370
    30
100
AcDbEllipse
 10
0.39999999982021
 20
-79.21212350603906
 30
0.0
 11
-0.3999999998178894
 21
1.207015295204858E-5
 31
0.0
210
0.0
220
0.0
230
1.0
 40
0.1045300187979214
 41
6.231114897047174
 42
8.412776462040085
  0
ELLIPSE
  5
22DB
330
1F
100
AcDbEntity
  8
AM_0
370
    30
100
AcDbEllipse
 10
3.448702860374596
 20
-78.67084718969448
 30
0.0
 11
-1.249999999430904
 21
3.771922797515179E-5
 31
0.0
210
0.0
220
0.0
230
1.0
 40
0.1045300187979213
 41
0.0002886767064807
 42
6.283473983886064
  0
SPLINE
  5
22DC
330
1F
100
AcDbEntity
  8
AM_0
370
    30
100
AcDbSpline
210
0.0
220
0.0
230
1.0
 70
     8
 71
     3
 72
    18
 73
    14
 74
     0
 42
0.0000000001
 43
0.0000000001
 40
4.136805862285747
 40
4.136805862285747
 40
4.136805862285747
 40
4.136805862285747
 40
4.530252634984056
 40
4.530252634984056
 40
5.098781002968837
 40
5.098781002968837
 40
5.667309370953618
 40
5.667309370953618
 40
6.235837738938398
 40
6.235837738938398
 40
6.804366106923178
 40
6.804366106923178
 40
6.824694319351861
 40
6.824694319351861
 40
6.824694319351861
 40
6.824694319351861
 10
8.3001295111753
 20
-78.75101639385451
 30
0.0
 10
8.434870125021206
 20
-78.74912543196098
 30
0.0
 10
8.569063128089141
 20
-78.74626593607832
 30
0.0
 10
8.889590856499211
 20
-78.73716336543987
 30
0.0
 10
9.085179185034775
 20
-78.72958641118891
 30
0.0
 10
9.473671877191663
 20
-78.71049718842897
 30
0.0
 10
9.666580878634221
 20
-78.69899282594571
 30
0.0
 10
10.03612916052097
 20
-78.67408138001434
 30
0.0
 10
10.21307046847525
 20
-78.66067993518095
 30
0.0
 10
10.54008064500201
 20
-78.6349478026965
 30
0.0
 10
10.69014469683313
 20
-78.62265710184187
 30
0.0
 10
10.82769676807286
 20
-78.61199796345539
 30
0.0
 10
10.83243523841222
 20
-78.6116315870226
 30
0.0
 10
10.83716331585455
 20
-78.61126688739762
 30
0.0
  0
ELLIPSE
  5
22DD
330
1F
100
AcDbEntity
  8
AM_0
370
    30
100
AcDbEllipse
 10
6.497405720928981
 20
-78.12957087334991
 30
0.0
 11
-0.3999999998178894
 21
1.207015295204858E-5
 31
0.0
210
0.0
220
0.0
230
1.0
 40
0.1045300187979214
 41
3.089522243457453
 42
5.271183808450195
  0
ELLIPSE
  5
22DE
330
1F
100
AcDbEntity
  8
AM_0
370
    30
100
AcDbEllipse
 10
7.148702858708788
 20
-78.14830752444965
 30
0.0
 11
-1.299999999408214
 21
3.922799709876138E-5
 31
0.0
210
0.0
220
0.0
230
1.0
 40
0.104530018797921
 41
2.356197644425586
 42
2.658826705644399
  0
SPLINE
  5
22DF
330
1F
100
AcDbEntity
  8
AM_0
370
    30
100
AcDbSpline
210
0.0
220
0.0
230
1.0
 70
     8
 71
     3
 72
    14
 73
    10
 74
     0
 42
0.0000000001
 43
0.0000000001
 40
3.326661386460664
 40
3.326661386460664
 40
3.326661386460664
 40
3.326661386460664
 40
3.436946099510161
 40
3.436946099510161
 40
3.926709565597151
 40
3.926709565597151
 40
4.416417033203945
 40
4.416417033203945
 40
4.526753565152503
 40
4.526753565152503
 40
4.526753565152503
 40
4.526753565152503
 10
8.300129511175413
 20
-78.08525764100739
 30
0.0
 10
8.318208879918842
 20
-78.08886380649511
 30
0.0
 10
8.334781198090212
 20
-78.09252970124652
 30
0.0
 10
8.416071758726702
 20
-78.11275720429529
 30
0.0
 10
8.448702881782054
 20
-78.13049726724307
 30
0.0
 10
8.448702881782054
 20
-78.16462530562882
 30
0.0
 10
8.41607915997119
 20
-78.1832872691387
 30
0.0
 10
8.334796954100369
 20
-78.20408315553959
 30
0.0
 10
8.318217453902179
 20
-78.20781934208793
 30
0.0
 10
8.300129511175413
 20
-78.21142613807513
 30
0.0
  0
SPLINE
  5
22E0
330
1F
100
AcDbEntity
  8
AM_0
370
    30
100
AcDbSpline
210
0.0
220
0.0
230
1.0
 70
     8
 71
     3
 72
    10
 73
     6
 74
     0
 42
0.0000000001
 43
0.0000000001
 40
16.64148524479255
 40
16.64148524479255
 40
16.64148524479255
 40
16.64148524479255
 40
16.64190538168253
 40
16.64190538168253
 40
18.29440850591165
 40
18.29440850591165
 40
18.29440850591165
 40
18.29440850591165
 10
8.300129511175527
 20
-77.31972716448013
 30
0.0
 10
8.300269559474344
 20
-77.31972716859468
 30
0.0
 10
8.300409606438933
 20
-77.3197271706519
 30
0.0
 10
8.851384026811928
 20
-77.3197271706519
 30
0.0
 10
9.422877544711213
 20
-77.28744029673186
 30
0.0
 10
10.0000000000002
 20
-77.21844697720383
 30
0.0
  0
ELLIPSE
  5
22E1
330
1F
100
AcDbEntity
  8
AM_0
370
    30
100
AcDbEllipse
 10
8.700711779518741
 20
-60.72451295715217
 30
0.0
 11
-2.998499725427478
 21
-24.28479177585296
 31
0.0
210
0.0
220
0.0
230
0.9999999999999999
 40
0.0047655257017108
 41
0.6382027399408259
 42
0.7291647612348704
  0
ELLIPSE
  5
22E2
330
1F
100
AcDbEntity
  8
AM_0
370
    30
100
AcDbEllipse
 10
8.700158444326434
 20
-79.0618180153549
 30
0.0
 11
-2.999999998634168
 21
9.052614715098264E-5
 31
0.0
210
0.0
220
0.0
230
1.0
 40
0.1045300187979209
 41
4.846133455366674
 42
5.515434227935062
  0
ELLIPSE
  5
22E3
330
1F
100
AcDbEntity
  8
AM_0
370
    30
100
AcDbEllipse
 10
8.300549652068838
 20
-64.76714299608005
 30
0.0
 11
1.608511971447056E-14
 21
14.07711822816176
 31
0.0
210
0.0
220
0.0
230
1.0
 40
0.9945217318692767
 41
3.323785633105154
 42
3.796950649640631
  0
LINE
  5
2331
330
1F
100
AcDbEntity
  8
AM_0
370
    30
100
AcDbLine
 10
0.4570655952556706
 20
-81.58863889735409
 30
0.0
 11
6.249386257112491
 21
-81.21023017323552
 31
0.0
  0
LINE
  5
2332
330
1F
100
AcDbEntity
  8
AM_0
370
    30
100
AcDbLine
 10
6.533370762494059
 20
-78.86074683065522
 30
0.0
 11
0.6120648196722129
 21
-79.24758208335351
 31
0.0
  0
LINE
  5
2333
330
1F
100
AcDbEntity
  8
AM_0
370
    30
100
AcDbLine
 10
0.364034958255246
 20
-78.48094754873381
 30
0.0
 11
6.285340901076864
 21
-78.09411229603546
 31
0.0
  0
LINE
  5
2334
330
1F
100
AcDbEntity
  8
AM_0
370
    30
100
AcDbLine
 10
0.3640349582551323
 20
-78.48094754873381
 30
0.0
 11
5.066080418263454
 21
-78.17376582880826
 31
0.0
  0
LINE
  5
2335
330
1F
100
AcDbEntity
  8
AM_0
370
    30
100
AcDbLine
 10
0.3640349582551323
 20
-78.48094754873375
 30
0.0
 11
0.7594847623467729
 21
-77.6878696924727
 31
0.0
  0
LINE
  5
2352
330
1F
100
AcDbEntity
  8
AM_0
370
    30
100
AcDbLine
 10
0.292164801530447
 20
-81.57922736030531
 30
0.0
 11
0.0000332948296489
 21
-79.21265103638314
 31
0.0
  0
LINE
  5
2353
330
1F
100
AcDbEntity
  8
AM_0
370
    30
100
AcDbLine
 10
0.2918037487365552
 20
-81.57949473051878
 30
0.0
 11
0.2921196107282356
 21
-81.57886126667927
 31
0.0
  0
LINE
  5
2354
330
1F
100
AcDbEntity
  8
AM_0
370
    30
100
AcDbLine
 10
0.0005422086810256
 20
-79.20993526756928
 30
0.0
 11
0.3640349582551323
 21
-78.48094754873381
 31
0.0
  0
LINE
  5
2357
330
1F
100
AcDbEntity
  8
AM_0
370
    30
100
AcDbLine
 10
16.83275322445454
 20
-75.92790183578194
 30
0.0
 11
21.00000000000031
 21
-75.92790183578194
 31
0.0
  0
LINE
  5
2359
330
1F
100
AcDbEntity
  8
AM_0
370
    30
100
AcDbLine
 10
21.00000000000031
 20
-86.75393550969449
 30
0.0
 11
4.720986860671331
 21
-86.75393550969449
 31
0.0
  0
LINE
  5
235A
330
1F
100
AcDbEntity
  8
AM_0
370
    30
100
AcDbLine
 10
21.00000000000031
 20
-82.57996918360703
 30
0.0
 11
11.17827404774718
 21
-82.57996918360703
 31
0.0
  0
LINE
  5
235B
330
1F
100
AcDbEntity
  8
AM_0
370
    30
100
AcDbLine
 10
4.720986860671331
 20
-86.75393550969449
 30
0.0
 11
4.720986860671331
 21
-81.31007955991737
 31
0.0
  0
LINE
  5
235C
330
1F
100
AcDbEntity
  8
AM_0
370
    30
100
AcDbLine
 10
3.971425664368411
 20
-86.75393550969449
 30
0.0
 11
2.456864662881202
 21
-86.75393550969449
 31
0.0
  0
LINE
  5
235D
330
1F
100
AcDbEntity
  8
AM_0
370
    30
100
AcDbLine
 10
6.829878106285349
 20
-77.31968396930489
 30
0.0
 11
0.7594847623467729
 21
-77.6878696924727
 31
0.0
  0
LINE
  5
235E
330
1F
100
AcDbEntity
  8
AM_0
370
    30
100
AcDbLine
 10
6.361358393475683
 20
-80.28385333142529
 30
0.0
 11
6.249386257112491
 21
-81.21023017323552
 31
0.0
  0
LINE
  5
235F
330
1F
100
AcDbEntity
  8
AM_0
370
    30
100
AcDbLine
 10
6.361329773436268
 20
-81.23230989157224
 30
0.0
 11
6.361359783509869
 21
-80.23778815978011
 31
0.0
  0
LINE
  5
2360
330
1F
100
AcDbEntity
  8
AM_0
370
    30
100
AcDbLine
 10
6.249386257112491
 20
-81.21023017323552
 30
0.0
 11
6.361337214633949
 21
-80.98571160102006
 31
0.0
  0
LINE
  5
2361
330
1F
100
AcDbEntity
  8
AM_0
370
    30
100
AcDbLine
 10
6.020986981248342
 20
-81.28758723323949
 30
0.0
 11
5.06570697289564
 21
-81.28755920831691
 31
0.0
  0
LINE
  5
2362
330
1F
100
AcDbEntity
  8
AM_0
370
    30
100
AcDbLine
 10
5.066080418263454
 20
-78.17376582880826
 30
0.0
 11
6.229464043580236
 21
-78.05219203843927
 31
0.0
  0
LINE
  5
2363
330
1F
100
AcDbEntity
  8
AM_0
370
    30
100
AcDbLine
 10
6.867766662285902
 20
-78.36984150706348
 30
0.0
 11
6.897372393354289
 21
-78.13012254198947
 31
0.0
  0
LINE
  5
2364
330
1F
100
AcDbEntity
  8
AM_0
370
    30
100
AcDbLine
 10
6.896863512068165
 20
-78.13175911181969
 30
0.0
 11
6.533370762493945
 21
-78.86074683065516
 31
0.0
  0
LINE
  5
2365
330
1F
100
AcDbEntity
  8
AM_0
370
    30
100
AcDbLine
 10
6.533370762493945
 20
-78.86074683065522
 30
0.0
 11
6.442968944054854
 21
-79.60866639153534
 31
0.0
  0
LINE
  5
2366
330
1F
100
AcDbEntity
  8
AM_0
370
    30
100
AcDbLine
 10
6.773222919155245
 20
-78.37972134459767
 30
0.0
 11
6.54174179990261
 21
-78.84395864582359
 31
0.0
  0
LINE
  5
2367
330
1F
100
AcDbEntity
  8
AM_0
370
    30
100
AcDbLine
 10
8.067941673837225
 20
-78.24442301046003
 30
0.0
 11
6.773222919155245
 21
-78.37972134459767
 31
0.0
  0
LINE
  5
2368
330
1F
100
AcDbEntity
  8
AM_0
370
    30
100
AcDbLine
 10
6.829878106285349
 20
-77.31968396930489
 30
0.0
 11
8.300129511175527
 21
-77.3197271645958
 31
0.0
  0
LINE
  5
236A
330
1F
100
AcDbEntity
  8
AM_0
370
    30
100
AcDbLine
 10
21.0000000000002
 20
-86.75393550969449
 30
0.0
 11
21.0000000000002
 21
-82.57996918360703
 31
0.0
  0
LINE
  5
236B
330
1F
100
AcDbEntity
  8
AM_0
370
    30
100
AcDbLine
 10
21.2500000000002
 20
-86.75393550969449
 30
0.0
 11
21.2500000000002
 21
-83.12691885590192
 31
0.0
  0
SPLINE
  5
236E
330
1F
100
AcDbEntity
  8
AM_0
370
    30
100
AcDbSpline
210
0.0
220
0.0
230
1.0
 70
     8
 71
     3
 72
    20
 73
    16
 74
     0
 42
0.0000000001
 43
0.0000000001
 40
0.993584881073777
 40
0.993584881073777
 40
0.993584881073777
 40
0.993584881073777
 40
1.588205426202078
 40
1.588205426202078
 40
3.176410852404156
 40
3.176410852404156
 40
4.764616278606233
 40
4.764616278606233
 40
6.352821704808312
 40
6.352821704808312
 40
7.208545465922554
 40
7.208545465922554
 40
8.064269227036796
 40
8.064269227036796
 40
8.394534628227648
 40
8.394534628227648
 40
8.394534628227648
 40
8.394534628227648
 10
20.13725290824672
 20
9.047437581023473
 30
0.0
 10
20.11820073931366
 20
8.85205208778882
 30
0.0
 10
20.09400495075826
 20
8.658109409128997
 30
0.0
 10
19.98551915523862
 20
7.955870959780214
 30
0.0
 10
19.86814114928879
 20
7.464059921488229
 30
0.0
 10
19.55085317513371
 20
6.558191782932113
 30
0.0
 10
19.35002683795366
 20
6.142903344499814
 30
0.0
 10
18.86856590321324
 20
5.41387272936197
 30
0.0
 10
18.58752638784344
 20
5.100074929301172
 30
0.0
 10
18.11345093351699
 20
4.69818383068548
 30
0.0
 10
17.92974670870737
 20
4.564234368327902
 30
0.0
 10
17.5325841090656
 20
4.318845160486376
 30
0.0
 10
17.31910674183584
 20
4.207361214908929
 30
0.0
 10
17.00936952595825
 20
4.070577205613404
 30
0.0
 10
16.92162793715974
 20
4.034355404651933
 30
0.0
 10
16.83275322445431
 20
4.000000000163141
 30
0.0
  0
SPLINE
  5
236F
330
1F
100
AcDbEntity
  8
AM_0
370
    30
100
AcDbSpline
210
0.0
220
0.0
230
1.0
 70
    28
 71
     2
 72
     6
 73
     3
 74
     0
 42
0.0000000001
 43
0.0000000001
 40
0.0
 40
0.0
 40
0.0
 40
0.6014155539557036
 40
0.6014155539557036
 40
0.6014155539557036
 10
20.99999999999997
 20
4.000000000000227
 30
0.0
 41
1.0
 10
21.1155030493961
 20
4.000000000000226
 30
0.0
 41
1.000603526915614
 10
21.24999999999997
 20
4.000000000000227
 30
0.0
 41
1.0
  0
ELLIPSE
  5
2370
330
1F
100
AcDbEntity
  8
AM_0
370
    30
100
AcDbEllipse
 10
8.300549652067815
 20
-62.47389015738247
 30
0.0
 11
-1.457528592431246E-12
 21
-133.9328181004232
 31
0.0
210
0.0
220
0.0
230
1.0
 40
0.1045300188449911
 41
2.134131500271126
 42
2.169008872028126
  0
SPLINE
  5
2371
330
1F
100
AcDbEntity
  8
AM_0
370
    30
100
AcDbSpline
210
0.0
220
0.0
230
1.0
 70
    12
 71
     2
 72
     6
 73
     3
 74
     0
 42
0.0000000001
 43
0.0000000001
 40
0.0
 40
0.0
 40
0.0
 40
0.8683077351808815
 40
0.8683077351808815
 40
0.8683077351808815
 10
20.99999999999997
 20
9.047437581023473
 30
0.0
 41
1.0
 10
21.10306055405019
 20
8.638375475696762
 30
0.0
 41
1.001395898062751
 10
21.24999999999997
 20
8.21611781858519
 30
0.0
 41
1.0
  0
SPLINE
  5
2372
330
1F
100
AcDbEntity
  8
AM_0
370
    30
100
AcDbSpline
210
0.0
220
0.0
230
1.0
 70
    12
 71
     2
 72
     6
 73
     3
 74
     0
 42
0.0000000001
 43
0.0000000001
 40
0.0
 40
0.0
 40
0.0
 40
0.8683077351808815
 40
0.8683077351808815
 40
0.8683077351808815
 10
21.24999999999997
 20
13.78388218141515
 30
0.0
 41
1.0
 10
21.10306055405019
 20
13.36162452430369
 30
0.0
 41
1.001395898062751
 10
20.99999999999997
 20
12.95256241897687
 30
0.0
 41
1.0
  0
ELLIPSE
  5
2374
330
1F
100
AcDbEntity
  8
AM_0
370
    30
100
AcDbEllipse
 10
8.700158444326206
 20
1.830231330042267
 30
0.0
 11
-2.99999987636447
 21
-0.0008612857624012311
 31
0.0
210
0.0
220
0.0
230
1.0
 40
0.9945217314214415
 41
4.845844778660151
 42
5.515145551228539
  0
SPLINE
  5
2375
330
1F
100
AcDbEntity
  8
AM_0
370
    30
100
AcDbSpline
210
0.0
220
0.0
230
1.0
 70
     8
 71
     3
 72
    16
 73
    12
 74
     0
 42
0.0000000001
 43
0.0000000001
 40
4.136805862285747
 40
4.136805862285747
 40
4.136805862285747
 40
4.136805862285747
 40
4.530252634984056
 40
4.530252634984056
 40
5.098781002968837
 40
5.098781002968837
 40
5.667309370953618
 40
5.667309370953618
 40
6.235837738938398
 40
6.235837738938398
 40
6.682570670667009
 40
6.682570670667009
 40
6.682570670667009
 40
6.682570670667009
 10
8.300129511175072
 20
4.787151891152263
 30
0.0
 10
8.434870125020979
 20
4.805181604458454
 30
0.0
 10
8.569063128088914
 20
4.813590305647523
 30
0.0
 10
8.889590856498984
 20
4.812633572526494
 30
0.0
 10
9.085179185034548
 20
4.793506752992158
 30
0.0
 10
9.473671877191435
 20
4.714627117973379
 30
0.0
 10
9.666580878633994
 20
4.654895232735527
 30
0.0
 10
10.03612916052074
 20
4.497868178016034
 30
0.0
 10
10.21307046847502
 20
4.400453265242192
 30
0.0
 10
10.50505306383511
 20
4.200209862346611
 30
0.0
 10
10.62523159670457
 20
4.103004729907269
 30
0.0
 10
10.73525810130016
 20
4.000000000000256
 30
0.0
  0
ELLIPSE
  5
2376
330
1F
100
AcDbEntity
  8
AM_0
370
    30
100
AcDbEllipse
 10
0.3999999998199826
 20
0.3978086927498055
 30
0.0
 11
-0.3999999835152628
 21
-0.0001148381016400613
 31
0.0
210
0.0
220
0.0
230
0.9999999999999999
 40
0.9945217314214413
 41
6.230826220340687
 42
8.4124877853336
  0
ELLIPSE
  5
2377
330
1F
100
AcDbEntity
  8
AM_0
370
    30
100
AcDbEllipse
 10
8.700087020351219
 20
2.079012774781319
 30
0.0
 11
-2.99999987636447
 21
-0.0008612857623004594
 31
0.0
210
0.0
220
0.0
230
0.9999999999999999
 40
0.9945217314214413
 41
5.814805922023777
 42
5.816145094205438
  0
ELLIPSE
  5
2378
330
1F
100
AcDbEntity
  8
AM_0
370
    30
100
AcDbEllipse
 10
7.14870285870856
 20
10.52112688557421
 30
0.0
 11
-1.299999946424677
 21
-0.000373223830373888
 31
0.0
210
0.0
220
0.0
230
0.9999999999999999
 40
0.9945217314214419
 41
3.624076233295206
 42
5.497501621308882
  0
ELLIPSE
  5
2379
330
1F
100
AcDbEntity
  8
AM_0
370
    30
100
AcDbEllipse
 10
7.148631434733574
 20
10.76990833031326
 30
0.0
 11
1.299999946424677
 21
0.0003732238303762473
 31
0.0
210
0.0
220
0.0
230
0.9999999999999999
 40
0.9945217314214416
 41
5.497501621308847
 42
6.18679454160122
  0
SPLINE
  5
237A
330
1F
100
AcDbEntity
  8
AM_0
370
    30
100
AcDbSpline
210
0.0
220
0.0
230
1.0
 70
     8
 71
     3
 72
    14
 73
    10
 74
     0
 42
0.0000000001
 43
0.0000000001
 40
3.326661386460664
 40
3.326661386460664
 40
3.326661386460664
 40
3.326661386460664
 40
3.436946099510161
 40
3.436946099510161
 40
3.926709565597151
 40
3.926709565597151
 40
4.416417033203945
 40
4.416417033203945
 40
4.526753565152503
 40
4.526753565152503
 40
4.526753565152503
 40
4.526753565152503
 10
8.300129511175186
 20
11.1213279986919
 30
0.0
 10
8.318208879918615
 20
11.08702333269358
 30
0.0
 10
8.334781198089985
 20
11.05181597357662
 30
0.0
 10
8.416071758726474
 20
10.85663558317097
 30
0.0
 10
8.448702881781827
 20
10.68340869099077
 30
0.0
 10
8.448702881781827
 20
10.35870698122645
 30
0.0
 10
8.416079159970963
 20
10.18559572151938
 30
0.0
 10
8.334796954100142
 20
9.990471410981883
 30
0.0
 10
8.318217453901951
 20
9.955254044568306
 30
0.0
 10
8.300129511175186
 20
9.920932996398534
 30
0.0
  0
ELLIPSE
  5
237B
330
1F
100
AcDbEntity
  8
AM_0
370
    30
100
AcDbEllipse
 10
7.14870285870856
 20
10.52112688557421
 30
0.0
 11
-1.299999946424677
 21
-0.000373223830373888
 31
0.0
210
0.0
220
0.0
230
0.9999999999999999
 40
0.9945217314214419
 41
2.355908967719057
 42
2.65853802893787
  0
ELLIPSE
  5
237C
330
1F
100
AcDbEntity
  8
AM_0
370
    30
100
AcDbEllipse
 10
6.497405720928754
 20
10.69920454624835
 30
0.0
 11
-0.3999999835152628
 21
-0.0001148381016400613
 31
0.0
210
0.0
220
0.0
230
0.9999999999999999
 40
0.9945217314214413
 41
3.089233566750967
 42
5.270895131743708
  0
SPLINE
  5
237D
330
1F
100
AcDbEntity
  8
AM_0
370
    30
100
AcDbSpline
210
0.0
220
0.0
230
1.0
 70
     8
 71
     3
 72
    10
 73
     6
 74
     0
 42
0.0000000001
 43
0.0000000001
 40
16.64148524479255
 40
16.64148524479255
 40
16.64148524479255
 40
16.64148524479255
 40
16.64190538168253
 40
16.64190538168253
 40
18.29440850591165
 40
18.29440850591165
 40
18.29440850591165
 40
18.29440850591165
 10
8.3001295111753
 20
18.50475436488807
 30
0.0
 10
8.300269559474117
 20
18.50475436594854
 30
0.0
 10
8.300409606438706
 20
18.50475436647866
 30
0.0
 10
8.851384026811701
 20
18.50475436647866
 30
0.0
 10
9.422877544710985
 20
18.4966998968082
 30
0.0
 10
9.999999999999972
 20
18.47791992696511
 30
0.0
  0
SPLINE
  5
237E
330
1F
100
AcDbEntity
  8
AM_0
370
    30
100
AcDbSpline
210
0.0
220
0.0
230
1.0
 70
     8
 71
     3
 72
    28
 73
    24
 74
     0
 42
0.0000000001
 43
0.0000000001
 40
18.29440850591165
 40
18.29440850591165
 40
18.29440850591165
 40
18.29440850591165
 40
18.49343387935771
 40
18.49343387935771
 40
20.34496237703289
 40
20.34496237703289
 40
22.19649087470808
 40
22.19649087470808
 40
24.04801937238326
 40
24.04801937238326
 40
24.90315517542236
 40
24.90315517542236
 40
25.75829097846147
 40
25.75829097846147
 40
26.61342678150057
 40
26.61342678150057
 40
27.46856258453967
 40
27.46856258453967
 40
28.92237462924607
 40
28.92237462924607
 40
30.37618667395245
 40
30.37618667395245
 40
31.25038656028972
 40
31.25038656028972
 40
31.25038656028972
 40
31.25038656028972
 10
-60.98051767739597
 20
18.47791992696497
 30
0.0
 10
-60.97220820978717
 20
18.47565809129489
 30
0.0
 10
-60.96337290390378
 20
18.47323831169908
 30
0.0
 10
-60.86690173648529
 20
18.44661102696054
 30
0.0
 10
-60.73335995618848
 20
18.40856534910583
 30
0.0
 10
-60.37945652789247
 20
18.29012545473253
 30
0.0
 10
-60.15895319059806
 20
18.20943047706371
 30
0.0
 10
-59.65346215791354
 20
17.98798521281285
 30
0.0
 10
-59.36856703710183
 20
17.84681822274135
 30
0.0
 10
-58.93229581652216
 20
17.58873706148162
 30
0.0
 10
-58.78274811039253
 20
17.49448859552044
 30
0.0
 10
-58.46849550614118
 20
17.27845543567523
 30
0.0
 10
-58.30381212455089
 20
17.15660807147683
 30
0.0
 10
-57.97018288006419
 20
16.88627763442784
 30
0.0
 10
-57.80119517956567
 20
16.7376678074971
 30
0.0
 10
-57.47106959333669
 20
16.41929551482573
 30
0.0
 10
-57.30998669637282
 20
16.24949923063954
 30
0.0
 10
-56.90140918346302
 20
15.77792307698186
 30
0.0
 10
-56.64428449188304
 20
15.43467639838181
 30
0.0
 10
-56.17363855981503
 20
14.66704207195036
 30
0.0
 10
-55.96041021623356
 20
14.24263453273554
 30
0.0
 10
-55.68159469458604
 20
13.5205941790891
 30
0.0
 10
-55.59072438798765
 20
13.23956289092618
 30
0.0
 10
-55.51600620988668
 20
12.95256241897673
 30
0.0
  0
ELLIPSE
  5
237F
330
1F
100
AcDbEntity
  8
AM_0
370
    30
100
AcDbEllipse
 10
-62.26099855498401
 20
10.58187373695429
 30
0.0
 11
-9.04970580623551
 21
5.011763319022637
 31
0.0
210
0.0
220
0.0
230
1.0
 40
0.9965137262392936
 41
1.150046973025988
 42
1.772445924538817
  0
SPLINE
  5
2380
330
1F
100
AcDbEntity
  8
AM_0
370
    30
100
AcDbSpline
210
0.0
220
0.0
230
1.0
 70
    28
 71
     2
 72
     6
 73
     3
 74
     0
 42
0.0000000001
 43
0.0000000001
 40
0.0
 40
0.0
 40
0.0
 40
0.8683077351808815
 40
0.8683077351808815
 40
0.8683077351808815
 10
-70.51600620988668
 20
12.95256241897673
 30
0.0
 41
1.0
 10
-70.51600620988668
 20
13.36162452430355
 30
0.0
 41
1.001395898062751
 10
-70.51600620988668
 20
13.78388218141501
 30
0.0
 41
1.0
  0
SPLINE
  5
2381
330
1F
100
AcDbEntity
  8
AM_0
370
    30
100
AcDbSpline
210
0.0
220
0.0
230
1.0
 70
     8
 71
     3
 72
    20
 73
    16
 74
     0
 42
0.0000000001
 43
0.0000000001
 40
0.993584881073777
 40
0.993584881073777
 40
0.993584881073777
 40
0.993584881073777
 40
1.588205426202078
 40
1.588205426202078
 40
3.176410852404156
 40
3.176410852404156
 40
4.764616278606233
 40
4.764616278606233
 40
6.352821704808312
 40
6.352821704808312
 40
7.208545465922554
 40
7.208545465922554
 40
8.064269227036796
 40
8.064269227036796
 40
8.394534628227648
 40
8.394534628227648
 40
8.394534628227648
 40
8.394534628227648
 10
-55.51600620988668
 20
9.047437581023331
 30
0.0
 10
-55.56687319272717
 20
8.852052087788678
 30
0.0
 10
-55.6255380302612
 20
8.658109409128855
 30
0.0
 10
-55.86841438832042
 20
7.955870959780071
 30
0.0
 10
-56.09945114737846
 20
7.464059921488087
 30
0.0
 10
-56.64325985604515
 20
6.558191782931971
 30
0.0
 10
-56.95676177135798
 20
6.142903344499672
 30
0.0
 10
-57.62147074706721
 20
5.413872729361827
 30
0.0
 10
-57.97232340213989
 20
5.10007492930103
 30
0.0
 10
-58.49899154019116
 20
4.698183830685338
 30
0.0
 10
-58.69206650683557
 20
4.56423436832776
 30
0.0
 10
-59.08183490904722
 20
4.318845160486234
 30
0.0
 10
-59.2784811616439
 20
4.207361214908787
 30
0.0
 10
-59.54433066966547
 20
4.070577205613262
 30
0.0
 10
-59.61766784599629
 20
4.034355404651791
 30
0.0
 10
-59.68997253528804
 20
4.000000000162999
 30
0.0
  0
SPLINE
  5
2382
330
1F
100
AcDbEntity
  8
AM_0
370
    30
100
AcDbSpline
210
0.0
220
0.0
230
1.0
 70
     8
 71
     3
 72
    18
 73
    14
 74
     0
 42
0.0000000001
 43
0.0000000001
 40
4.21745741651992
 40
4.21745741651992
 40
4.21745741651992
 40
4.21745741651992
 40
4.530252634984056
 40
4.530252634984056
 40
5.098781002968837
 40
5.098781002968837
 40
5.667309370953618
 40
5.667309370953618
 40
6.235837738938398
 40
6.235837738938398
 40
6.804366106923178
 40
6.804366106923178
 40
6.824694319351861
 40
6.824694319351861
 40
6.824694319351861
 40
6.824694319351861
 10
-62.51180435350719
 20
4.897039275787137
 30
0.0
 10
-62.50998753024922
 20
4.90825918276218
 30
0.0
 10
-62.50757348092637
 20
4.913510093581607
 30
0.0
 10
-62.49923406563201
 20
4.912633572526346
 30
0.0
 10
-62.4916571113811
 20
4.89350675299201
 30
0.0
 10
-62.47256788862117
 20
4.814627117973231
 30
0.0
 10
-62.46106352613791
 20
4.754895232735379
 30
0.0
 10
-62.43615208020654
 20
4.597868178015887
 30
0.0
 10
-62.42275063537321
 20
4.500453265242044
 30
0.0
 10
-62.39701850288864
 20
4.276187738564175
 30
0.0
 10
-62.38472780203406
 20
4.149325515074878
 30
0.0
 10
-62.37406866364759
 20
4.009705249714074
 30
0.0
 10
-62.3737022872148
 20
4.004863488332461
 30
0.0
 10
-62.37333758758987
 20
3.999999999999858
 30
0.0
  0
SPLINE
  5
2383
330
1F
100
AcDbEntity
  8
AM_0
370
    30
100
AcDbSpline
210
0.0
220
0.0
230
1.0
 70
    28
 71
     2
 72
     6
 73
     3
 74
     0
 42
0.0000000001
 43
0.0000000001
 40
0.0
 40
0.0
 40
0.0
 40
0.6014155539557036
 40
0.6014155539557036
 40
0.6014155539557036
 10
-59.68997253597425
 20
4.000000000000085
 30
0.0
 41
1.0
 10
-59.42083857024187
 20
4.000000000000084
 30
0.0
 41
1.000603526915614
 10
-59.14302286367925
 20
4.000000000000085
 30
0.0
 41
1.0
  0
ELLIPSE
  5
2384
330
1F
100
AcDbEntity
  8
AM_0
370
    30
100
AcDbEllipse
 10
-65.3411559270144
 20
0.7465901374887096
 30
0.0
 11
0.01126548707116653
 21
0.1071823370565126
 31
0.0
210
0.0
220
0.0
230
1.0
 40
0.0000300100735447
 41
2.582800979761927
 42
4.675744060460251
  0
ELLIPSE
  5
2385
330
1F
100
AcDbEntity
  8
AM_0
370
    30
100
AcDbEllipse
 10
-62.97419420623126
 20
0.4978086927496577
 30
0.0
 11
0.0418120075379966
 21
0.3978086927477108
 31
0.0
210
0.0
220
0.0
230
1.0
 40
0.0000300100735447
 41
3.141588968823346
 42
4.764462544750383
  0
SPLINE
  5
2386
330
1F
100
AcDbEntity
  8
AM_0
370
    30
100
AcDbSpline
210
0.0
220
0.0
230
1.0
 70
     8
 71
     3
 72
    10
 73
     6
 74
     0
 42
0.0000000001
 43
0.0000000001
 40
3.521669995388218
 40
3.521669995388218
 40
3.521669995388218
 40
3.521669995388218
 40
3.926709565597151
 40
3.926709565597151
 40
4.331081995106221
 40
4.331081995106221
 40
4.331081995106221
 40
4.331081995106221
 10
-61.86697497271783
 20
11.03218101538104
 30
0.0
 10
-61.88094538909562
 20
10.89702793673948
 30
0.0
 10
-61.89552003091288
 20
10.75532210577089
 30
0.0
 10
-61.92372264810754
 20
10.48699616451901
 30
0.0
 10
-61.93890255948557
 20
10.34560045082353
 30
0.0
 10
-61.95331656223814
 20
10.21069566513071
 30
0.0
  0
SPLINE
  5
2387
330
1F
100
AcDbEntity
  8
AM_0
370
    30
100
AcDbSpline
210
0.0
220
0.0
230
1.0
 70
    28
 71
     2
 72
     6
 73
     3
 74
     0
 42
0.0000000001
 43
0.0000000001
 40
0.0
 40
0.0
 40
0.0
 40
0.8683077351808815
 40
0.8683077351808815
 40
0.8683077351808815
 10
-55.51600620988668
 20
9.047437581023331
 30
0.0
 41
1.0
 10
-55.51600620988668
 20
8.63837547569662
 30
0.0
 41
1.001395898062751
 10
-55.51600620988668
 20
8.216117818585047
 30
0.0
 41
1.0
  0
SPLINE
  5
2388
330
1F
100
AcDbEntity
  8
AM_0
370
    30
100
AcDbSpline
210
0.0
220
0.0
230
1.0
 70
    28
 71
     2
 72
     6
 73
     3
 74
     0
 42
0.0000000001
 43
0.0000000001
 40
0.0
 40
0.0
 40
0.0
 40
0.8683077351808815
 40
0.8683077351808815
 40
0.8683077351808815
 10
-55.51600620988668
 20
13.78388218141501
 30
0.0
 41
1.0
 10
-55.51600620988668
 20
13.36162452430355
 30
0.0
 41
1.001395898062751
 10
-55.51600620988668
 20
12.95256241897673
 30
0.0
 41
1.0
  0
SPLINE
  5
2389
330
1F
100
AcDbEntity
  8
AM_0
370
    30
100
AcDbSpline
210
0.0
220
0.0
230
1.0
 70
     8
 71
     3
 72
     8
 73
     4
 74
     0
 42
0.0000000001
 43
0.0000000001
 40
16.67702863120842
 40
16.67702863120842
 40
16.67702863120842
 40
16.67702863120842
 40
18.29440850591165
 40
18.29440850591165
 40
18.29440850591165
 40
18.29440850591165
 10
-61.08175466941455
 20
18.50474323199543
 30
0.0
 10
-61.08040880096806
 20
18.50440713252053
 30
0.0
 10
-61.04804457332583
 20
18.49630073655405
 30
0.0
 10
-60.98051767739597
 20
18.47791992696497
 30
0.0
  0
SPLINE
  5
238A
330
1F
100
AcDbEntity
  8
AM_0
370
    30
100
AcDbSpline
210
0.0
220
0.0
230
1.0
 70
     8
 71
     3
 72
    28
 73
    24
 74
     0
 42
0.0000000001
 43
0.0000000001
 40
18.29440850591165
 40
18.29440850591165
 40
18.29440850591165
 40
18.29440850591165
 40
18.49343387935771
 40
18.49343387935771
 40
20.34496237703289
 40
20.34496237703289
 40
22.19649087470808
 40
22.19649087470808
 40
24.04801937238326
 40
24.04801937238326
 40
24.90315517542236
 40
24.90315517542236
 40
25.75829097846147
 40
25.75829097846147
 40
26.61342678150057
 40
26.61342678150057
 40
27.46856258453967
 40
27.46856258453967
 40
28.92237462924607
 40
28.92237462924607
 40
30.37618667395245
 40
30.37618667395245
 40
31.25038656028972
 40
31.25038656028972
 40
31.25038656028972
 40
31.25038656028972
 10
9.999999999999972
 20
18.47791992696511
 30
0.0
 10
10.06950789411766
 20
18.47565809129503
 30
0.0
 10
10.13909815282986
 20
18.47323831169922
 30
0.0
 10
10.85666903128706
 20
18.44661102696068
 30
0.0
 10
11.50941996604294
 20
18.40856534910597
 30
0.0
 10
12.78451189790516
 20
18.29012545473267
 30
0.0
 10
13.40740757947535
 20
18.20943047706385
 30
0.0
 10
14.58784342244675
 20
17.98798521281299
 30
0.0
 10
15.14534501561909
 20
17.84681822274149
 30
0.0
 10
15.89171292187743
 20
17.58873706148177
 30
0.0
 10
16.13254737158374
 20
17.49448859552058
 30
0.0
 10
16.60764492824305
 20
17.27845543567537
 30
0.0
 10
16.84189376783499
 20
17.15660807147697
 30
0.0
 10
17.29029781845097
 20
16.88627763442798
 30
0.0
 10
17.50456575436405
 20
16.73766780749725
 30
0.0
 10
17.90340171682973
 20
16.41929551482588
 30
0.0
 10
18.08798826030645
 20
16.24949923063969
 30
0.0
 10
18.53858826632572
 20
15.77792307698201
 30
0.0
 10
18.80156768717481
 20
15.43467639838195
 30
0.0
 10
19.26101766768474
 20
14.66704207195051
 30
0.0
 10
19.45775494212168
 20
14.24263453273568
 30
0.0
 10
19.71461617575696
 20
13.52059417908924
 30
0.0
 10
19.79827135648017
 20
13.23956289092632
 30
0.0
 10
19.86935961501374
 20
12.95256241897687
 30
0.0
  0
SPLINE
  5
238B
330
1F
100
AcDbEntity
  8
AM_0
370
    30
100
AcDbSpline
210
0.0
220
0.0
230
1.0
 70
    28
 71
     2
 72
     6
 73
     3
 74
     0
 42
0.0000000001
 43
0.0000000001
 40
0.0
 40
0.0
 40
0.0
 40
0.8683077351808815
 40
0.8683077351808815
 40
0.8683077351808815
 10
21.0000000000002
 20
-71.75393550969449
 30
0.0
 41
1.0
 10
21.10306055405042
 20
-71.75393550969451
 30
0.0
 41
1.001395898062751
 10
21.2500000000002
 20
-71.75393550969449
 30
0.0
 41
1.0
  0
ARC
  5
238C
330
1F
100
AcDbEntity
  8
AM_0
370
    30
100
AcDbCircle
 10
-63.01600620988668
 20
11.00000000000009
 30
0.0
 40
8.0
100
AcDbArc
 50
20.36413480631646
 51
159.6358651936835
  0
ARC
  5
238D
330
1F
100
AcDbEntity
  8
AM_0
370
    30
100
AcDbCircle
 10
-63.01600620988668
 20
11.00000000000009
 30
0.0
 40
7.750000000000014
100
AcDbArc
 50
75.54728991207129
 51
144.0558688295169
  0
LINE
  5
238E
330
1F
100
AcDbEntity
  8
AM_0
370
    30
100
AcDbLine
 10
-61.4499403926649
 20
14.99999999999997
 30
0.0
 11
-69.29032682003518
 21
15.54921981015056
 31
0.0
  0
LINE
  5
238F
330
1F
100
AcDbEntity
  8
AM_0
370
    30
100
AcDbLine
 10
-64.6274583479117
 20
7.536938031632616
 30
0.0
 11
-65.34056634584752
 21
0.7521686440807969
 31
0.0
  0
LINE
  5
2390
330
1F
100
AcDbEntity
  8
AM_0
370
    30
100
AcDbLine
 10
-65.34156543071097
 20
0.7426629865690018
 30
0.0
 11
-64.61181157740035
 21
7.68580710880903
 31
0.0
  0
LINE
  5
2391
330
1F
100
AcDbEntity
  8
AM_0
370
    30
100
AcDbLine
 10
-65.35242141409734
 20
0.6394078004342134
 30
0.0
 11
-63.01600621381297
 21
0.1000000000093166
 31
0.0
  0
DIMENSION
  5
2392
330
1F
100
AcDbEntity
  8
AM_5
370
    13
100
AcDbDimension
  2
*D4
 10
-63.01600620988668
 20
-3.105041805582005
 30
0.0
 11
-67.94925359601083
 21
-17.82310755918323
 31
0.0
 70
   162
  1
-<>
 71
     5
 42
0.1047197551201169
  3
AM_JIS$2
100
AcDb2LineAngularDimension
 13
-62.97200596776148
 23
0.5185133953696948
 33
0.0
 14
-62.24301824892601
 24
7.454368234992188
 34
0.0
 15
-63.01600620988668
 25
23.59843988049309
 35
0.0
 16
-63.66477121929815
 26
-18.47832007480033
 36
0.0
1001
GENIUS_GENDTOL_13
1000

1000
h7
1000

1040
0.0
1001
ACAD
1000
DSTYLE
1002
{
1070
   271
1070
     0
1070
   179
1070
     0
1002
}
  0
DIMENSION
  5
2393
330
1F
100
AcDbEntity
  8
AM_5
370
    13
100
AcDbDimension
  2
*D5
 10
-56.75023554533598
 20
2.306405323648587
 30
0.0
 11
-96.92673282302071
 21
28.3150294616684
 31
0.0
 70
   163
  1
最小加工径<>
 71
     5
 42
19.99999999999998
  3
AM_JIS$3
100
AcDbDiametricDimension
 15
-69.28177687443753
 25
17.89359467635163
 35
0.0
 40
0.0
1001
GENIUS_GENDTOL_13
1000

1000
h7
1000

1040
0.0
1001
ACAD
1000
DSTYLE
1002
{
1070
   287
1070
     3
1070
   271
1070
     0
1070
   288
1070
     1
1070
   289
1070
     3
1070
   172
1070
     1
1070
    74
1070
     1
1002
}
  0
LINE
  5
2394
330
1F
100
AcDbEntity
  8
AM_7
  6
CENTER
370
    13
100
AcDbLine
 10
-76.0624674724568
 20
11.00000000000009
 30
0.0
 11
-49.53198469397697
 21
11.00000000000009
 31
0.0
1001
GENIUS_GENODEF_13
1002
{
1000
HIER
1070
     0
1002
}
1002
{
1000
MANEDIT
1070
     0
1002
}
1002
{
1000
NOSEL
1070
     0
1002
}
1002
{
1000
BEHIND
1070
     0
1002
}
1002
{
1000
REACTOR
1002
}
1001
GENIUS_GENOBJ-N-CEN_13
1002
{
1000
OWNER
1000
GEN
1002
}
  0
CIRCLE
  5
2395
330
1F
100
AcDbEntity
  8
AM_5
  6
AM_ISO09W050
370
    13
100
AcDbCircle
 10
-63.01600620988668
 20
10.10000000000019
 30
0.0
 40
10.0
  0
LINE
  5
2399
330
1F
100
AcDbEntity
  8
AM_0
370
    30
100
AcDbLine
 10
-70.51600620988668
 20
12.95256241897673
 30
0.0
 11
-70.51600620988668
 21
4.397280542063044
 31
0.0
  0
LINE
  5
239A
330
1F
100
AcDbEntity
  8
AM_0
370
    30
100
AcDbLine
 10
-65.35070959754629
 20
0.655710805580469
 30
0.0
 11
-65.34157434241448
 21
0.742665790163727
 31
0.0
  0
ARC
  5
239B
330
1F
100
AcDbEntity
  8
AM_0
370
    30
100
AcDbCircle
 10
-63.01600620988668
 20
11.00000000000009
 30
0.0
 40
7.750000000000014
100
AcDbArc
 50
144.0558688295169
 51
165.407449397964
  0
LINE
  5
239C
330
1F
100
AcDbEntity
  8
AM_7
  6
CENTER
370
    13
100
AcDbLine
 10
-63.01600620988668
 20
23.59843988049309
 30
0.0
 11
-63.01600620988668
 21
-3.105041805582005
 31
0.0
1001
GENIUS_GENODEF_13
1002
{
1000
HIER
1070
     0
1002
}
1002
{
1000
MANEDIT
1070
     0
1002
}
1002
{
1000
NOSEL
1070
     0
1002
}
1002
{
1000
BEHIND
1070
     0
1002
}
1002
{
1000
REACTOR
1002
}
1001
GENIUS_GENOBJ-N-CEN_13
1002
{
1000
OWNER
1000
GEN
1002
}
  0
LINE
  5
239E
330
1F
100
AcDbEntity
  8
AM_0
370
    30
100
AcDbLine
 10
6.533370762493831
 20
3.742645004005709
 30
0.0
 11
0.6120648196719856
 21
0.060508823974402
 31
0.0
  0
LINE
  5
239F
330
1F
100
AcDbEntity
  8
AM_0
370
    30
100
AcDbLine
 10
0.3640349582550186
 20
7.354368234992336
 30
0.0
 11
6.285340901076637
 21
11.03650441502376
 31
0.0
  0
LINE
  5
23A0
330
1F
100
AcDbEntity
  8
AM_0
370
    30
100
AcDbLine
 10
0.364034958254905
 20
7.35436823499245
 30
0.0
 11
5.066080418263226
 21
10.27831303291956
 31
0.0
  0
LINE
  5
23A1
330
1F
100
AcDbEntity
  8
AM_0
370
    30
100
AcDbLine
 10
0.3586176322147594
 20
7.350999496338517
 30
0.0
 11
0.7594847623465455
 21
15.00000000000011
 31
0.0
  0
LINE
  5
23A2
330
1F
100
AcDbEntity
  8
AM_7
  6
CENTER
370
    13
100
AcDbLine
 10
-0.8524486927585997
 20
5.627165747626407
 30
0.0
 11
7.747551307241309
 21
5.627165747626407
 31
0.0
1001
GENIUS_GENODEF_13
1002
{
1000
HIER
1070
     0
1002
}
1002
{
1000
MANEDIT
1070
     0
1002
}
1002
{
1000
NOSEL
1070
     0
1002
}
1002
{
1000
BEHIND
1070
     0
1002
}
1002
{
1000
REACTOR
1002
}
1001
GENIUS_GENOBJ-N-CEN_13
1002
{
1000
OWNER
1000
GEN
1002
}
  0
DIMENSION
  5
23A3
330
1F
100
AcDbEntity
  8
AM_0
370
    30
100
AcDbDimension
  2
*D6
 10
33.04166659217171
 20
4.000000000000116
 30
0.0
 11
33.04166659217171
 21
-7.449999999999893
 31
0.0
 70
   160
  1
<>
 71
     5
 42
4.000000000000009
  3
AM_JIS$0
100
AcDbAlignedDimension
 13
0.3999987381265271
 23
0.0000000000001137
 33
0.0
 14
38.85935348332779
 24
4.000000000000114
 34
0.0
 50
90.0
100
AcDbRotatedDimension
1001
ACAD
1000
DSTYLE
1002
{
1070
    76
1070
     1
1070
   271
1070
     0
1002
}
  0
LINE
  5
23A7
330
1F
100
AcDbEntity
  8
AM_0
370
    30
100
AcDbLine
 10
-62.24301824892601
 20
7.454368234992302
 30
0.0
 11
-61.4499403926649
 21
14.99999999999997
 31
0.0
  0
LINE
  5
23A8
330
1F
100
AcDbEntity
  8
AM_0
370
    30
100
AcDbLine
 10
-55.51600620988668
 20
12.95256241897695
 30
0.0
 11
-55.51600620988668
 21
9.047437581023218
 31
0.0
  0
ARC
  5
23A9
330
1F
100
AcDbEntity
  8
AM_0
370
    30
100
AcDbCircle
 10
-63.01600620988668
 20
11.00000000000009
 30
0.0
 40
8.0
100
AcDbArc
 50
298.9550243718609
 51
339.6358651936804
  0
LINE
  5
23AA
330
1F
100
AcDbEntity
  8
AM_0
370
    30
100
AcDbLine
 10
-62.97200596776148
 20
0.5185133953696948
 30
0.0
 11
-62.24301824892601
 21
7.454368234992188
 31
0.0
  0
LINE
  5
23AB
330
1F
100
AcDbEntity
  8
AM_0
370
    30
100
AcDbLine
 10
-62.37333758758976
 20
4.000000000000085
 30
0.0
 11
-59.68997253530941
 21
4.000000000000085
 31
0.0
  0
LINE
  5
23AC
330
1F
100
AcDbEntity
  8
AM_0
370
    30
100
AcDbLine
 10
-62.60608698059266
 20
4.000000000000085
 30
0.0
 11
-62.37333758758999
 21
4.000000000000085
 31
0.0
  0
LINE
  5
23AD
330
1F
100
AcDbEntity
  8
AM_0
370
    30
100
AcDbLine
 10
-62.24301824892601
 20
7.454368234992188
 30
0.0
 11
-64.6274583479117
 21
7.536938031632616
 31
0.0
  0
LINE
  5
23AE
330
1F
100
AcDbEntity
  8
AM_0
370
    30
100
AcDbLine
 10
-64.61181157740035
 20
7.685807108809144
 30
0.0
 11
-63.62559275972288
 21
7.502244839753729
 31
0.0
  0
LINE
  5
23AF
330
1F
100
AcDbEntity
  8
AM_0
370
    30
100
AcDbLine
 10
-62.24301824892601
 20
7.454368234992188
 30
0.0
 11
-63.62559275972288
 21
7.502244839753729
 31
0.0
  0
LINE
  5
23B0
330
1F
100
AcDbEntity
  8
AM_0
370
    30
100
AcDbLine
 10
-61.08175466949709
 20
18.50474323120986
 30
0.0
 11
-61.4499403926649
 21
15.00000000000009
 31
0.0
  0
DIMENSION
  5
23B4
330
1F
100
AcDbEntity
  8
AM_5
370
    13
100
AcDbDimension
  2
*D7
 10
-14.70176214233871
 20
0.0000000000000033
 30
0.0
 11
-14.70176214233871
 21
5.500000000000085
 31
0.0
 70
   160
  1
<>
 71
     5
 42
11.00000000000011
  3
AM_JIS$0
100
AcDbAlignedDimension
 13
-3.892058478939504
 23
11.00000000000011
 33
0.0
 14
-3.055167178139413
 24
0.0
 34
0.0
 50
270.0
100
AcDbRotatedDimension
1001
ACAD
1000
DSTYLE
1002
{
1070
   271
1070
     0
1002
}
  0
LINE
  5
23B5
330
1F
100
AcDbEntity
  8
AM_0
370
    30
100
AcDbLine
 10
0.0005422086807982
 20
0.4185133953698426
 30
0.0
 11
0.364034958254905
 21
7.354368234992336
 31
0.0
  0
LINE
  5
23B6
330
1F
100
AcDbEntity
  8
AM_5
370
    13
100
AcDbLine
 10
0.0
 20
-1.733495591606356
 30
0.0
 11
0.0
 21
0.4978074379682766
 31
0.0
  0
LINE
  5
23B7
330
1F
100
AcDbEntity
  8
AM_5
370
    13
100
AcDbLine
 10
0.3999987381265555
 20
0.0
 30
0.0
 11
-3.055167178139413
 21
0.0
 31
0.0
  0
LINE
  5
23B8
330
1F
100
AcDbEntity
  8
AM_0
370
    30
100
AcDbLine
 10
20.13725290824695
 20
-71.75393550969449
 30
0.0
 11
21.0000000000002
 21
-71.75393550969449
 31
0.0
  0
LINE
  5
23B9
330
1F
100
AcDbEntity
  8
AM_0
370
    30
100
AcDbLine
 10
19.86935961501396
 20
-71.75393550969449
 30
0.0
 11
20.13725290824695
 21
-71.75393550969449
 31
0.0
  0
LINE
  5
23BA
330
1F
100
AcDbEntity
  8
AM_0
370
    30
100
AcDbLine
 10
16.83275322445431
 20
4.000000000000227
 30
0.0
 11
20.99999999999986
 21
4.000000000000227
 31
0.0
  0
LINE
  5
23BD
330
1F
100
AcDbEntity
  8
AM_0
370
    30
100
AcDbLine
 10
7.254675290729978
 20
18.75000000000023
 30
0.0
 11
21.00000000000009
 21
18.75000000000023
 31
0.0
  0
LINE
  5
23BF
330
1F
100
AcDbEntity
  8
AM_0
370
    30
100
AcDbLine
 10
6.896863512067938
 20
10.67849984362832
 30
0.0
 11
6.533370762493718
 21
3.742645004005709
 31
0.0
  0
LINE
  5
23C0
330
1F
100
AcDbEntity
  8
AM_0
370
    30
100
AcDbLine
 10
8.067941673836998
 20
9.606926790348922
 30
0.0
 11
6.773222919155018
 21
8.319296790106506
 31
0.0
  0
LINE
  5
23C1
330
1F
100
AcDbEntity
  8
AM_0
370
    30
100
AcDbLine
 10
6.786981852014122
 20
8.581832868668045
 30
0.0
 11
8.067870249862011
 21
9.855708235087974
 31
0.0
  0
LINE
  5
23C2
330
1F
100
AcDbEntity
  8
AM_7
  6
CENTER
370
    13
100
AcDbLine
 10
3.447551307241355
 20
9.927165747626418
 30
0.0
 11
3.447551307241355
 21
1.327165747626395
 31
0.0
1001
GENIUS_GENODEF_13
1002
{
1000
HIER
1070
     0
1002
}
1002
{
1000
MANEDIT
1070
     0
1002
}
1002
{
1000
NOSEL
1070
     0
1002
}
1002
{
1000
BEHIND
1070
     0
1002
}
1002
{
1000
REACTOR
1002
}
1001
GENIUS_GENOBJ-N-CEN_13
1002
{
1000
OWNER
1000
GEN
1002
}
  0
LINE
  5
23C3
330
1F
100
AcDbEntity
  8
AM_0
370
    30
100
AcDbLine
 10
6.020986981248115
 20
3.42158033643446
 30
0.0
 11
6.017061148557644
 21
3.421580305114873
 31
0.0
  0
CIRCLE
  5
23C4
330
1F
100
AcDbEntity
  8
AM_0
370
    30
100
AcDbCircle
 10
3.447551307241355
 20
5.527165747626412
 30
0.0
 40
1.725
  0
ARC
  5
23C5
330
1F
100
AcDbEntity
  8
AM_0
370
    30
100
AcDbCircle
 10
4.055203088861589
 20
4.474681988550373
 30
0.0
 40
0.4375
100
AcDbArc
 50
73.53115216735387
 51
166.4688478326311
  0
ARC
  5
23C6
330
1F
100
AcDbEntity
  8
AM_0
370
    30
100
AcDbCircle
 10
4.055203088861816
 20
6.579649506702566
 30
0.0
 40
0.4375
100
AcDbArc
 50
193.5311521673554
 51
286.4688478326189
  0
CIRCLE
  5
23C7
330
1F
100
AcDbEntity
  8
AM_0
370
    30
100
AcDbCircle
 10
3.447551307241355
 20
5.527165747626412
 30
0.0
 40
1.09375
  0
CIRCLE
  5
23C8
330
1F
100
AcDbEntity
  8
AM_0
370
    30
100
AcDbCircle
 10
3.447551307241355
 20
5.527165747626412
 30
0.0
 40
1.3
  0
ARC
  5
23C9
330
1F
100
AcDbEntity
  8
AM_0
370
    30
100
AcDbCircle
 10
2.662715785061749
 20
5.074040747626469
 30
0.0
 40
0.1874999999999716
100
AcDbArc
 50
133.531152167358
 51
286.4688478326189
  0
ARC
  5
23CA
330
1F
100
AcDbEntity
  8
AM_0
370
    30
100
AcDbCircle
 10
2.232247744000773
 20
5.527165747626526
 30
0.0
 40
0.4375
100
AcDbArc
 50
313.5311521673581
 51
46.46884783262381
  0
ARC
  5
23CB
330
1F
100
AcDbEntity
  8
AM_0
370
    30
100
AcDbCircle
 10
2.662715785061863
 20
5.980290747626526
 30
0.0
 40
0.1874999999999716
100
AcDbArc
 50
73.53115216738107
 51
226.4688478326417
  0
ARC
  5
23CC
330
1F
100
AcDbEntity
  8
AM_0
370
    30
100
AcDbCircle
 10
2.839899525620893
 20
4.474681988550429
 30
0.0
 40
0.4375
100
AcDbArc
 50
13.53115216735544
 51
106.4688478326189
  0
ARC
  5
23CD
330
1F
100
AcDbEntity
  8
AM_0
370
    30
100
AcDbCircle
 10
2.839899525621121
 20
6.57964950670268
 30
0.0
 40
0.4375
100
AcDbArc
 50
253.5311521673811
 51
346.4688478326236
  0
ARC
  5
23CE
330
1F
100
AcDbEntity
  8
AM_0
370
    30
100
AcDbCircle
 10
3.447551307241355
 20
4.620915747626526
 30
0.0
 40
0.1874999999999716
100
AcDbArc
 50
193.5311521673657
 51
346.4688478326311
  0
ARC
  5
23CF
330
1F
100
AcDbEntity
  8
AM_0
370
    30
100
AcDbCircle
 10
3.447551307241355
 20
6.433415747626412
 30
0.0
 40
0.1874999999999716
100
AcDbArc
 50
13.53115216736571
 51
166.4688478326343
  0
ARC
  5
23D0
330
1F
100
AcDbEntity
  8
AM_0
370
    30
100
AcDbCircle
 10
4.232386829421074
 20
5.074040747626469
 30
0.0
 40
0.1874999999999716
100
AcDbArc
 50
253.5311521673539
 51
46.46884783264194
  0
ARC
  5
23D1
330
1F
100
AcDbEntity
  8
AM_0
370
    30
100
AcDbCircle
 10
4.232386829421074
 20
5.980290747626356
 30
0.0
 40
0.1874999999999716
100
AcDbArc
 50
313.5311521673581
 51
106.4688478326325
  0
ARC
  5
23D2
330
1F
100
AcDbEntity
  8
AM_0
370
    30
100
AcDbCircle
 10
4.662854870481937
 20
5.527165747626412
 30
0.0
 40
0.4375
100
AcDbArc
 50
133.531152167358
 51
226.4688478326417
  0
LINE
  5
23D3
330
1F
100
AcDbEntity
  8
AM_0
370
    30
100
AcDbLine
 10
6.773222919155018
 20
8.319296790106506
 30
0.0
 11
6.541741799902383
 21
3.90237391301801
 31
0.0
  0
LINE
  5
23D4
330
1F
100
AcDbEntity
  8
AM_0
370
    30
100
AcDbLine
 10
10.73525810130013
 20
4.000000000000227
 30
0.0
 11
16.83275322447091
 21
4.000000000000227
 31
0.0
  0
LINE
  5
23D5
330
1F
100
AcDbEntity
  8
AM_0
370
    30
100
AcDbLine
 10
6.829878106285122
 20
18.50474323121
 30
0.0
 11
0.7594847623465455
 21
15.00000000000023
 31
0.0
  0
LINE
  5
23D6
330
1F
100
AcDbEntity
  8
AM_0
370
    30
100
AcDbLine
 10
5.066080418263226
 20
10.27831303291956
 30
0.0
 11
6.229464043580009
 21
11.4353269807996
 31
0.0
  0
LINE
  5
23D7
330
1F
100
AcDbEntity
  8
AM_0
370
    30
100
AcDbLine
 10
6.829878106285122
 20
18.50474323121
 30
0.0
 11
8.3001295111753
 21
18.50475436387114
 31
0.0
  0
LINE
  5
23D8
330
1F
100
AcDbEntity
  8
AM_0
370
    30
100
AcDbLine
 10
6.829878107389362
 20
18.50474323184756
 30
0.0
 11
7.254675290729978
 21
18.75000000000023
 31
0.0
  0
LINE
  5
23DA
330
1F
100
AcDbEntity
  8
AM_0
370
    30
100
AcDbLine
 10
20.99999999999997
 20
4.000000000000227
 30
0.0
 11
20.99999999999997
 21
9.047437581023473
 31
0.0
  0
LINE
  5
23DB
330
1F
100
AcDbEntity
  8
AM_0
370
    30
100
AcDbLine
 10
20.13725290824672
 20
9.047437581023473
 30
0.0
 11
20.99999999999997
 21
9.047437581023473
 31
0.0
  0
LINE
  5
23DC
330
1F
100
AcDbEntity
  8
AM_0
370
    30
100
AcDbLine
 10
21.24999999999997
 20
4.000000000000227
 30
0.0
 11
21.24999999999997
 21
8.21611781858519
 31
0.0
  0
LINE
  5
23DE
330
1F
100
AcDbEntity
  8
AM_0
370
    30
100
AcDbLine
 10
21.24999999999997
 20
13.78388218141515
 30
0.0
 11
21.24999999999997
 21
19.00000000000011
 31
0.0
  0
LINE
  5
23DF
330
1F
100
AcDbEntity
  8
AM_0
370
    30
100
AcDbLine
 10
20.99999999999997
 20
12.95256241897687
 30
0.0
 11
20.99999999999997
 21
18.75000000000023
 31
0.0
  0
LINE
  5
23E1
330
1F
100
AcDbEntity
  8
AM_0
370
    30
100
AcDbLine
 10
21.00000000000009
 20
12.95256241897687
 30
0.0
 11
19.86935961501374
 21
12.95256241897687
 31
0.0
  0
LINE
  5
23E2
330
1F
100
AcDbEntity
  8
AM_0
370
    30
100
AcDbLine
 10
20.99999999999997
 20
18.75000000000023
 30
0.0
 11
21.24999999999997
 21
19.00000000000023
 31
0.0
  0
LINE
  5
23E3
330
1F
100
AcDbEntity
  8
AM_0
370
    30
100
AcDbLine
 10
200.0000000000001
 20
-72.25393550969449
 30
0.0
 11
199.5000000000001
 21
-71.75393550969449
 31
0.0
  0
LINE
  5
23E4
330
1F
100
AcDbEntity
  8
AM_0
370
    30
100
AcDbLine
 10
199.0000000000001
 20
-75.38095216348711
 30
0.0
 11
199.0000000000001
 21
-71.75393550969449
 31
0.0
  0
SPLINE
  5
23E6
330
1F
100
AcDbEntity
  8
AM_0
370
    30
100
AcDbSpline
210
0.0
220
0.0
230
1.0
 70
    12
 71
     2
 72
     6
 73
     3
 74
     0
 42
0.0000000001
 43
0.0000000001
 40
0.0
 40
0.0
 40
0.0
 40
4.026427188539781
 40
4.026427188539781
 40
4.026427188539781
 10
199.0000000000001
 20
-75.38095216348711
 30
0.0
 41
1.0
 10
200.0000000000001
 20
-77.44654328146436
 30
0.0
 41
1.035098339013507
 10
200.0000000000001
 20
-79.25393550969449
 30
0.0
 41
1.0
  0
SPLINE
  5
23E7
330
1F
100
AcDbEntity
  8
AM_0
370
    30
100
AcDbSpline
210
0.0
220
0.0
230
1.0
 70
    28
 71
     2
 72
     6
 73
     3
 74
     0
 42
0.0000000001
 43
0.0000000001
 40
2.828427124746181
 40
2.828427124746181
 40
2.828427124746181
 40
5.65685424949238
 40
5.65685424949238
 40
5.65685424949238
 10
199.5000000000001
 20
-86.7539355096944
 30
0.0
 41
1.033333333333333
 10
199.5000000000001
 20
-86.75393550969449
 30
0.0
 41
1.033333333333333
 10
199.0000000000001
 20
-86.75393550969449
 30
0.0
 41
1.0
  0
SPLINE
  5
23E8
330
1F
100
AcDbEntity
  8
AM_0
370
    30
100
AcDbSpline
210
0.0
220
0.0
230
1.0
 70
    12
 71
     2
 72
     6
 73
     3
 74
     0
 42
0.0000000001
 43
0.0000000001
 40
4.026427188539781
 40
4.026427188539781
 40
4.026427188539781
 40
8.052854377079562
 40
8.052854377079562
 40
8.052854377079562
 10
200.0000000000001
 20
-79.25393550969449
 30
0.0
 41
1.0
 10
200.0000000000001
 20
-81.06132773792461
 30
0.0
 41
1.035098339013507
 10
199.0000000000001
 20
-83.12691885590192
 30
0.0
 41
1.0
  0
LINE
  5
23F9
330
1F
100
AcDbEntity
  8
AM_0
370
    30
100
AcDbLine
 10
199.0000000000001
 20
-86.75393550969449
 30
0.0
 11
199.0000000000001
 21
-83.12691885590192
 31
0.0
  0
LINE
  5
23FA
330
1F
100
AcDbEntity
  8
AM_0
370
    30
100
AcDbLine
 10
200.0000000000001
 20
-86.25393550969449
 30
0.0
 11
200.0000000000001
 21
-79.25393550969443
 31
0.0
  0
LINE
  5
23FB
330
1F
100
AcDbEntity
  8
AM_0
370
    30
100
AcDbLine
 10
200.0000000000001
 20
-86.25393550969449
 30
0.0
 11
199.5000000000001
 21
-86.75393550969449
 31
0.0
  0
LINE
  5
23FC
330
1F
100
AcDbEntity
  8
AM_0
370
    30
100
AcDbLine
 10
200.0000000000001
 20
-79.25393550969454
 30
0.0
 11
200.0000000000001
 21
-72.25393550969449
 31
0.0
  0
LINE
  5
23FD
330
1F
100
AcDbEntity
  8
AM_3
  6
AM_ISO02W050
100
AcDbLine
 10
200.0
 20
-77.75393550969443
 30
0.0
 11
197.4019237886468
 21
-79.25393550969443
 31
0.0
  0
LINE
  5
23FE
330
1F
100
AcDbEntity
  8
AM_3
  6
AM_ISO02W050
100
AcDbLine
 10
197.4019237886468
 20
-79.25393550969443
 30
0.0
 11
200.0
 21
-80.75393550969443
 31
0.0
  0
SPLINE
  5
23FF
330
1F
100
AcDbEntity
  8
AM_0
370
    30
100
AcDbSpline
210
0.0
220
0.0
230
1.0
 70
    28
 71
     2
 72
     6
 73
     3
 74
     0
 42
0.0000000001
 43
0.0000000001
 40
0.0
 40
0.0
 40
0.0
 40
2.828427124746199
 40
2.828427124746199
 40
2.828427124746199
 10
199.0000000000001
 20
-71.75393550969449
 30
0.0
 41
1.0
 10
199.5000000000001
 20
-71.75393550969454
 30
0.0
 41
1.033333333333333
 10
199.5000000000001
 20
-71.75393550969457
 30
0.0
 41
1.033333333333333
  0
SPLINE
  5
2400
330
1F
100
AcDbEntity
  8
AM_0
370
    30
100
AcDbSpline
210
0.0
220
0.0
230
1.0
 70
    12
 71
     2
 72
     6
 73
     3
 74
     0
 42
0.0000000001
 43
0.0000000001
 40
0.0
 40
0.0
 40
0.0
 40
5.656854249492205
 40
5.656854249492205
 40
5.656854249492205
 10
199.0
 20
13.78388218141501
 30
0.0
 41
1.0
 10
199.96875
 20
11.00000000000009
 30
0.0
 41
1.066666666666671
 10
199.0
 20
8.216117818585161
 30
0.0
 41
1.0
  0
LINE
  5
2401
330
1F
100
AcDbEntity
  8
AM_0
370
    30
100
AcDbLine
 10
199.9999999999999
 20
4.000000000000256
 30
0.0
 11
123.7499999999999
 21
4.000000000000085
 31
0.0
  0
LINE
  5
2402
330
1F
100
AcDbEntity
  8
AM_0
370
    30
100
AcDbLine
 10
123.7499999999999
 20
13.78388218141501
 30
0.0
 11
198.9999999999999
 21
13.78388218141504
 31
0.0
  0
LINE
  5
2403
330
1F
100
AcDbEntity
  8
AM_0
370
    30
100
AcDbLine
 10
123.7499999999999
 20
19.00000000000009
 30
0.0
 11
198.9999999999999
 21
19.00000000000006
 31
0.0
  0
LINE
  5
2407
102
{ACAD_REACTORS
330
28AF
102
}
330
1F
100
AcDbEntity
  8
AM_7
  6
CENTER
370
    13
100
AcDbLine
 10
111.2499999999999
 20
22.20813857451893
 30
0.0
 11
111.2499999999999
 21
-0.1839045905007595
 31
0.0
1001
GENIUS_GENODEF_13
1002
{
1000
HIER
1070
     0
1002
}
1002
{
1000
MANEDIT
1070
     0
1002
}
1002
{
1000
NOSEL
1070
     0
1002
}
1002
{
1000
BEHIND
1070
     0
1002
}
1002
{
1000
REACTOR
1002
}
1001
GENIUS_GENOBJ-N-CEN_13
1002
{
1000
OWNER
1000
GEN
1002
}
  0
DIMENSION
  5
240B
330
1F
100
AcDbEntity
  8
AM_5
370
    13
100
AcDbDimension
  2
*D8
 10
118.7499999999999
 20
-11.38879042183484
 30
0.0
 11
110.9545108384332
 21
-11.38879042183484
 31
0.0
 70
   160
  1
<>
 71
     5
 42
15.0
  3
AM_JIS$0
100
AcDbAlignedDimension
 13
103.7499999999999
 23
8.216117818585104
 33
0.0
 14
118.7499999999999
 24
8.216117818585104
 34
0.0
100
AcDbRotatedDimension
1001
GENIUS_GENDTOL_13
1000

1000
h7
1000

1040
0.0
1001
ACAD
1000
DSTYLE
1002
{
1070
   271
1070
     0
1002
}
  0
ARC
  5
240E
102
{ACAD_REACTORS
330
28AF
102
}
330
1F
100
AcDbEntity
  8
AM_0
370
    30
100
AcDbCircle
 10
111.2499999999999
 20
11.00000000000011
 30
0.0
 40
8.0
100
AcDbArc
 50
298.9550243718609
 51
339.635865193682
  0
ARC
  5
240F
102
{ACAD_REACTORS
330
28AF
102
}
330
1F
100
AcDbEntity
  8
AM_0
370
    30
100
AcDbCircle
 10
111.2499999999999
 20
11.00000000000011
 30
0.0
 40
8.0
100
AcDbArc
 50
20.36413480631799
 51
159.635865193682
  0
LINE
  5
2410
102
{ACAD_REACTORS
330
28AF
102
}
330
1F
100
AcDbEntity
  8
AM_0
370
    30
100
AcDbLine
 10
103.7499999999999
 20
13.78388218141512
 30
0.0
 11
103.7499999999999
 21
8.216117818585104
 31
0.0
  0
LINE
  5
2411
102
{ACAD_REACTORS
330
28AF
102
}
330
1F
100
AcDbEntity
  8
AM_0
370
    30
100
AcDbLine
 10
115.1229833462073
 20
4.000000000000085
 30
0.0
 11
107.3770166537925
 21
4.000000000000085
 31
0.0
  0
ARC
  5
2412
102
{ACAD_REACTORS
330
28AF
102
}
330
1F
100
AcDbEntity
  8
AM_0
370
    30
100
AcDbCircle
 10
111.2499999999999
 20
11.00000000000011
 30
0.0
 40
8.0
100
AcDbArc
 50
200.3641348063176
 51
241.0449756281391
  0
LINE
  5
2413
102
{ACAD_REACTORS
330
28AF
102
}
330
1F
100
AcDbEntity
  8
AM_0
370
    30
100
AcDbLine
 10
118.7499999999999
 20
13.78388218141512
 30
0.0
 11
118.7499999999999
 21
8.216117818585104
 31
0.0
  0
LINE
  5
2425
330
1F
100
AcDbEntity
  8
AM_0
370
    30
100
AcDbLine
 10
200.0
 20
4.000000000000142
 30
0.0
 11
200.0
 21
18.00000000000009
 31
0.0
  0
LINE
  5
2426
330
1F
100
AcDbEntity
  8
AM_0
370
    30
100
AcDbLine
 10
199.0
 20
4.000000000000114
 30
0.0
 11
199.0
 21
8.216117818585161
 31
0.0
  0
LINE
  5
2427
330
1F
100
AcDbEntity
  8
AM_0
370
    30
100
AcDbLine
 10
199.0
 20
13.78388218141501
 30
0.0
 11
199.0
 21
19.00000000000009
 31
0.0
  0
LINE
  5
2428
330
1F
100
AcDbEntity
  8
AM_3
  6
AM_ISO02W050
370
    13
100
AcDbLine
 10
197.4019237886467
 20
11.00000000000011
 30
0.0
 11
200.0
 21
9.500000000000114
 31
0.0
  0
LINE
  5
2429
330
1F
100
AcDbEntity
  8
AM_3
  6
AM_ISO02W050
370
    13
100
AcDbLine
 10
200.0
 20
12.50000000000011
 30
0.0
 11
197.4019237886467
 21
11.00000000000011
 31
0.0
  0
LINE
  5
242A
330
1F
100
AcDbEntity
  8
AM_0
370
    30
100
AcDbLine
 10
200.0
 20
18.00000000000009
 30
0.0
 11
199.0
 21
19.00000000000009
 31
0.0
  0
LINE
  5
26FE
330
1F
100
AcDbEntity
  8
AM_0
370
    30
100
AcDbLine
 10
198.9999999999999
 20
8.216117818585133
 30
0.0
 11
123.7499999999999
 21
8.216117818585161
 31
0.0
  0
DIMENSION
  5
2789
330
1F
100
AcDbEntity
  8
AM_5
370
    13
100
AcDbDimension
  2
*D10
 10
-3.055167178139413
 20
0.0
 30
0.0
 11
-15.92138748482847
 21
18.80912352537385
 31
0.0
 70
   162
 71
     5
 42
1.623156204354721
  3
AM_JIS$2
100
AcDb2LineAngularDimension
 13
0.0005422086807982
 23
0.4185133953698426
 33
0.0
 14
0.364034958254905
 24
7.354368234992336
 34
0.0
 15
0.3999987381265555
 25
0.0
 35
0.0
 16
-21.13265804902231
 26
12.68492889802099
 36
0.0
1001
ACAD
1000
DSTYLE
1002
{
1070
   271
1070
     0
1002
}
  0
LINE
  5
27CF
330
1F
100
AcDbEntity
  8
AM_0
370
    30
100
AcDbLine
 10
199.0000000000001
 20
-83.12691885590198
 30
0.0
 11
21.25000000000031
 21
-83.12691885590198
 31
0.0
  0
LINE
  5
27D0
330
1F
100
AcDbEntity
  8
AM_0
370
    30
100
AcDbLine
 10
199.5
 20
-86.75393550969463
 30
0.0
 11
21.25000000000031
 21
-86.75393550969449
 31
0.0
  0
TEXT
  5
27E3
330
1F
100
AcDbEntity
  8
AM_6
  6
Continuous
 62
     0
370
    30
100
AcDbText
 10
80.44359412805383
 20
-104.9658944838485
 30
0.0
 40
3.8
  1
C16R-SDUCR0702-20
  7
ACISOTS
100
AcDbText
  0
DIMENSION
  5
27E7
330
1F
100
AcDbEntity
  8
AM_5
370
    13
100
AcDbDimension
  2
*D11
 10
-9.023187477582525
 20
-79.25393550969449
 30
0.0
 11
-12.57548385746966
 21
-77.81955482690907
 31
0.0
 70
   160
  1
0%%d
 71
     5
 42
-1.0
  3
AM_JIS$0
100
AcDbAlignedDimension
 13
-2.955205609360206
 23
-79.25393550969449
 33
0.0
 14
-2.955205609360206
 24
-79.25393550969449
 34
0.0
 50
90.0
100
AcDbRotatedDimension
1001
ACAD
1000
DSTYLE
1002
{
1070
   271
1070
     0
1070
   279
1070
     2
1002
}
  0
HATCH
  5
28AF
330
1F
100
AcDbEntity
  8
AM_5
370
    13
100
AcDbHatch
 10
0.0
 20
0.0
 30
0.0
210
0.0
220
0.0
230
1.0
  2
LINE
 70
     0
 71
     1
 91
        4
 92
        7
 72
     1
 73
     1
 93
        4
 10
111.2499999999999
 20
19.00000000000011
 42
0.3135528725660041
 10
103.7499999999999
 20
13.78388218141515
 42
0.0
 10
103.7499999999999
 20
11.00000000000011
 42
0.0
 10
111.2499999999999
 20
11.00000000000011
 42
0.0
 97
        4
330
240F
330
2410
330
2283
330
2407
 92
        7
 72
     1
 73
     1
 93
        4
 10
118.7499999999999
 20
13.78388218141512
 42
0.3135528725660049
 10
111.2499999999999
 20
19.00000000000012
 42
0.0
 10
111.2499999999999
 20
11.00000000000011
 42
0.0
 10
118.7499999999999
 20
11.00000000000011
 42
0.0
 97
        4
330
240F
330
2407
330
2283
330
2413
 92
        7
 72
     1
 73
     1
 93
        5
 10
111.2499999999999
 20
11.00000000000011
 42
0.0
 10
103.7499999999999
 20
11.00000000000011
 42
0.0
 10
103.7499999999999
 20
8.216117818585104
 42
0.1793916871093622
 10
107.3770166537925
 20
4.000000000000085
 42
0.0
 10
111.2499999999999
 20
4.000000000000085
 42
0.0
 97
        5
330
2283
330
2410
330
2412
330
2411
330
2407
 92
        7
 72
     1
 73
     1
 93
        5
 10
118.7499999999999
 20
8.216117818585104
 42
0.0
 10
118.7499999999999
 20
11.00000000000011
 42
0.0
 10
111.2499999999999
 20
11.00000000000011
 42
0.0
 10
111.2499999999999
 20
4.000000000000085
 42
0.0
 10
115.1229833462073
 20
4.000000000000085
 42
0.1793916871093624
 97
        5
330
2413
330
2283
330
2407
330
2411
330
240E
 75
     0
 76
     1
 52
45.0
 41
0.5
 77
     0
 78
     1
 53
45.0
 43
0.0
 44
11.00000000000011
 45
-1.122532015133644
 46
1.122532015133644
 79
     0
 47
0.1033365439213359
 98
        4
 10
108.1826894468848
 20
13.56175801102256
 10
114.7992427618754
 20
12.63172949845819
 10
109.2165265710798
 20
7.671574316127476
 10
112.7315702967594
 20
7.154892068757249
  0
DIMENSION
  5
28B0
330
1F
100
AcDbEntity
  8
AM_5
370
    13
100
AcDbDimension
  2
*D12
 10
106.5803842615831
 20
4.504256096833259
 30
0.0
 11
126.893321263618
 21
25.78573740062906
 31
0.0
 70
   163
 71
     5
 42
15.99999999999997
  3
AM_JIS$3
100
AcDbDiametricDimension
 15
115.9196157384168
 25
17.49574390316695
 35
0.0
 40
0.0
1001
ACAD
1000
DSTYLE
1002
{
1070
   271
1070
     0
1070
   289
1070
     3
1002
}
  0
ENDSEC
  0
SECTION
  2
OBJECTS
  0
DICTIONARY
  5
C
330
0
100
AcDbDictionary
281
     1
  3
ACAD_COLOR
350
261E
  3
ACAD_GROUP
350
D
  3
ACAD_LAYOUT
350
1A
  3
ACAD_MATERIAL
350
261D
  3
ACAD_MLINESTYLE
350
17
  3
ACAD_PLOTSETTINGS
350
19
  3
ACAD_PLOTSTYLENAME
350
E
  3
ACAD_TABLESTYLE
350
261F
  3
AcAmCatalogState
350
268A
  3
ACDBHEADERROUNDTRIPXREC
350
29B7
  3
AcDbVariableDictionary
350
34
  3
ACDMSYSVARMGR
350
2639
  3
ACGREF_MASTER
350
2631
  3
ACGREFACAD_MASTER
350
265B
  3
AcmDictionary
350
43
  3
ACME_BOM_MANAGER_NAME
350
3A
  3
ACME_COMMAND_HISTORY
350
33
  3
ACME_SCOPE_NAME
350
32
  3
ACMESTATEMGR
350
3F
  3
AcmeSysVarManager
350
36
  3
AcmSystemVariableManager
350
2679
  3
AD_APPL
350
2666
  3
ADSYSVARMGR
350
2665
  3
AmdtNamedDwgMgr
350
2656
  3
AMG
350
2B
  3
AMGSNAPSETTINGS
350
350
  3
AMI_MASTER
350
265E
  3
AUTOCAD_ASSEMBLIES_PROJECT
350
266E
  3
Designer_Assemblies_SysVars
350
2669
  3
DWGPROPS
350
29BA
  3
GREFAM_MODULE
350
265F
  3
table_dic_data
350
AA4
  0
DICTIONARY
  5
27DA
330
2
100
AcDbDictionary
280
     1
281
     1
  3
ACAD_LAYERSTATES
360
27DB
  0
DICTIONARY
  5
3DB
330
1F
100
AcDbDictionary
280
     1
281
     1
  3
ACAD_SORTENTS
360
26FC
  0
DICTIONARY
  5
261E
102
{ACAD_REACTORS
330
C
102
}
330
C
100
AcDbDictionary
281
     1
  0
DICTIONARY
  5
D
102
{ACAD_REACTORS
330
C
102
}
330
C
100
AcDbDictionary
281
     1
  0
DICTIONARY
  5
1A
102
{ACAD_REACTORS
330
C
102
}
330
C
100
AcDbDictionary
281
     1
  3
Model
350
22
  3
ﾚｲｱｳﾄ1
350
1E
  3
ﾚｲｱｳﾄ2
350
26
  0
DICTIONARY
  5
261D
102
{ACAD_REACTORS
330
C
102
}
330
C
100
AcDbDictionary
281
     1
  0
DICTIONARY
  5
17
102
{ACAD_REACTORS
330
C
102
}
330
C
100
AcDbDictionary
281
     1
  3
Standard
350
18
  0
DICTIONARY
  5
19
102
{ACAD_REACTORS
330
C
102
}
330
C
100
AcDbDictionary
281
     1
  0
ACDBDICTIONARYWDFLT
  5
E
102
{ACAD_REACTORS
330
C
102
}
330
C
100
AcDbDictionary
281
     1
  3
Normal
350
F
100
AcDbDictionaryWithDefault
340
F
  0
DICTIONARY
  5
261F
102
{ACAD_REACTORS
330
C
102
}
330
C
100
AcDbDictionary
281
     1
  3
Standard
350
2620
  0
ACAD_PROXY_OBJECT
  5
268A
102
{ACAD_REACTORS
330
C
102
}
330
C
100
AcDbProxyObject
 90
      499
 91
      571
 95
       25
 70
     0
 93
      160
310
3FFFFFFFE00A028140283A19D2E3A32B6B8400AA
  0
DICTIONARY
  5
29B7
102
{ACAD_REACTORS
330
C
102
}
330
C
100
AcDbDictionary
281
     1
  3
COLORDICT
350
29B8
  3
MATERIALDICT
350
29B9
  0
DICTIONARY
  5
34
102
{ACAD_REACTORS
330
C
102
}
330
C
100
AcDbDictionary
281
     1
  3
CTABLESTYLE
350
2695
  3
DIMASSOC
350
29B5
  3
HIDETEXT
350
29B6
  3
INDEXCTL
350
35
  0
ACAD_PROXY_OBJECT
  5
2639
102
{ACAD_REACTORS
330
C
102
}
330
C
100
AcDbProxyObject
 90
      499
 91
      508
 95
       25
 70
     0
 93
      240
310
4C51A47A0000000000000000000000000000000000000000000000000000
330
263A
330
263B
330
263C
330
263D
330
263E
330
263F
330
2640
330
2641
330
2642
330
2643
330
2644
330
2645
330
2646
330
2647
330
2648
330
2649
330
264A
330
264B
330
264C
330
264D
330
264E
330
264F
330
2650
330
2651
330
2652
330
2653
 94
        0
  0
ACAD_PROXY_OBJECT
  5
2631
102
{ACAD_REACTORS
330
C
102
}
330
C
100
AcDbProxyObject
 90
      499
 91
      534
 95
       25
 70
     0
 93
       34
310
0400004280
  0
ACAD_PROXY_OBJECT
  5
265B
102
{ACAD_REACTORS
330
C
102
}
330
C
100
AcDbProxyObject
 90
      499
 91
      540
 95
       25
 70
     0
 93
      114
310
04000041C080000000000000000000
  0
DICTIONARY
  5
43
102
{ACAD_REACTORS
330
C
102
}
330
C
100
AcDbDictionary
281
     1
  3
AcmBOMDATA
350
44
  3
AcmStdDictionary
350
342
  3
AMDTSECTSYM_ARROWCOLOR
350
267E
  0
ACAD_PROXY_OBJECT
  5
3A
102
{ACAD_REACTORS
330
C
102
}
330
C
100
AcDbProxyObject
 90
      499
 91
      511
 95
       25
 70
     0
 93
       50
310
00010040400000
330
0
330
0
330
3B
 94
        0
  0
ACAD_PROXY_OBJECT
  5
33
102
{ACAD_REACTORS
330
C
102
}
330
C
100
AcDbProxyObject
 90
      499
 91
      506
 95
       25
 70
     0
 93
     6032
310
478050B44494D4449414D45544552805094D4154434850524F5080505524547454E40405184D5347202D20436F6D6D616E642043414E43454C4C45442E0142D11253511250535155115490101461354D1C80B4810DBDB5B585B990810D05390D1531311510B805094D4154434850524F5080505524547454E8050550555247
310
45404052D4D5347202D205050413A2020206465736B746F702E6172782046696C6556657273696F6E3A20392E322E302E3401415454D05591501014B5354D1C80B481414104E88080819195CDADD1BDC0B985C9E08119A5B1955995C9CDA5BDB8E880E4B8C8B8C0B8D005055153415645404052D4D5347202D205050413A20
310
20206465736B746F702E6172782046696C6556657273696F6E3A20392E322E302E3401415454D05591501014B5354D1C80B481414104E88080819195CDADD1BDC0B985C9E08119A5B1955995C9CDA5BDB8E880E4B8C8B8C0B8D0050E414D4454524553455444424D4F4440805084E202D20554E444F014213880B481553911
310
3C0504554E444F80504554E444F80505455241534580505455241534580508524547454E414C4C8050A50524F50455254494553805044D4F564540405184D5347202D20436F6D6D616E642043414E43454C4C45442E01411693D3D36014154155491D1601415454D05591501014B5354D1C80B481414104E88080819195CDA
310
DD1BDC0B985C9E08119A5B1955995C9CDA5BDB8E880E4B8C8B8C0B8D005045A4F4F4D40405184D5347202D20436F6D6D616E642043414E43454C4C45442E01415454D05591501014B5354D1C80B481414104E88080819195CDADD1BDC0B985C9E08119A5B1955995C9CDA5BDB8E880E4B8C8B8C0B8D0050E414D4454524553
310
455444424D4F4440805084E202D20554E444F014213880B4815539113C0504554E444F80504554E444F805054552415345805054552415345805045A4F4F4D805055153415645404052D4D5347202D205050413A2020206465736B746F702E6172782046696C6556657273696F6E3A20392E322E302E34
  0
ACAD_PROXY_OBJECT
  5
32
102
{ACAD_REACTORS
330
C
102
}
330
C
100
AcDbProxyObject
 90
      499
 91
      505
 95
       25
 70
     0
 93
      578
310
09000046408000000000000000001334DE000000000000000000000000000000000000000000000000000000000000000000000000000000000000000000000000000000AAA406AA80
360
37
360
38
360
39
360
3B
360
2632
360
2633
360
2634
360
2635
360
2636
360
2637
360
263A
360
263B
360
263C
360
263D
360
263E
360
263F
360
2640
360
2641
360
2642
360
2643
360
2644
360
2645
360
2646
360
2647
360
2648
360
2649
360
264A
360
264B
360
264C
360
264D
360
264E
360
264F
360
2650
360
2651
360
2652
360
2653
360
2661
360
2662
360
2663
360
2664
360
266A
360
266B
360
266C
360
266D
360
2672
360
2673
360
2674
360
2675
360
2676
360
2677
360
267A
 94
        0
  0
ACAD_PROXY_OBJECT
  5
3F
102
{ACAD_REACTORS
330
C
102
}
330
C
100
AcDbProxyObject
 90
      499
 91
      516
 95
       25
 70
     0
 93
       50
310
09000042641280
  0
ACAD_PROXY_OBJECT
  5
36
102
{ACAD_REACTORS
330
C
102
}
330
C
100
AcDbProxyObject
 90
      499
 91
      508
 95
       25
 70
     0
 93
       48
310
903412000000
330
37
330
38
330
39
 94
        0
  0
ACAD_PROXY_OBJECT
  5
2679
102
{ACAD_REACTORS
330
C
102
}
330
C
100
AcDbProxyObject
 90
      499
 91
      508
 95
       25
 70
     0
 93
       32
310
90140A00
330
267A
 94
        0
  0
ACAD_PROXY_OBJECT
  5
2666
102
{ACAD_REACTORS
330
C
102
}
330
C
100
AcDbProxyObject
 90
      499
 91
      550
 95
       25
 70
     0
 93
       42
310
000900004040
330
2661
 94
        0
  0
ACAD_PROXY_OBJECT
  5
2665
102
{ACAD_REACTORS
330
C
102
}
330
C
100
AcDbProxyObject
 90
      499
 91
      508
 95
       25
 70
     0
 93
        8
310
AA
  0
ACAD_PROXY_OBJECT
  5
2656
102
{ACAD_REACTORS
330
C
102
}
330
C
100
AcDbProxyObject
 90
      499
 91
      539
 95
       25
 70
     0
 93
       42
310
000100005E80
330
2632
 94
        0
  0
DICTIONARY
  5
2B
102
{ACAD_REACTORS
330
C
102
}
330
C
100
AcDbDictionary
281
     1
  3
AcMgSettings
350
2C
  3
AMGLAYCFG
350
4A
  0
DICTIONARY
  5
350
102
{ACAD_REACTORS
330
C
102
}
330
C
100
AcDbDictionary
281
     1
  3
DIMENSION
350
355
  3
FEA
350
354
  3
HATCH (1)
350
351
  3
HATCH (2)
350
352
  3
SYMBOLS
350
353
  0
ACAD_PROXY_OBJECT
  5
265E
102
{ACAD_REACTORS
330
C
102
}
330
C
100
AcDbProxyObject
 90
      499
 91
      543
 95
       25
 70
     0
 93
       34
310
0500004280
  0
ACAD_PROXY_OBJECT
  5
266E
102
{ACAD_REACTORS
330
C
102
}
330
C
100
AcDbProxyObject
 90
      499
 91
      554
 95
       25
 70
     0
 93
       98
310
0900004E400000000000000000
330
2675
330
0
330
2676
330
0
330
0
330
0
330
0
330
0
 94
        0
  0
ACAD_PROXY_OBJECT
  5
2669
102
{ACAD_REACTORS
330
C
102
}
330
C
100
AcDbProxyObject
 90
      499
 91
      508
 95
       25
 70
     0
 93
       56
310
90441600000000
330
266A
330
266B
330
266C
330
266D
 94
        0
  0
XRECORD
  5
29BA
102
{ACAD_REACTORS
330
C
102
}
330
C
100
AcDbXrecord
280
     1
  1
DWGPROPS COOKIE
  2

  3

  4

  6

  7

  8

  9

300
AmdtFileType=82
301
=
302
=
303
=
304
=
305
=
306
=
307
=
308
=
309
=
 40
0.0
 41
2453210.004162743
 42
2455468.232286412
  1

 90
        1
  0
ACAD_PROXY_OBJECT
  5
265F
102
{ACAD_REACTORS
330
C
102
}
330
C
100
AcDbProxyObject
 90
      499
 91
      544
 95
       25
 70
     0
 93
        8
310
05
  0
DICTIONARY
  5
AA4
102
{ACAD_REACTORS
330
C
102
}
330
C
100
AcDbDictionary
281
     1
  3
input_data
350
AA6
  3
table_data
350
AA5
  0
DICTIONARY
  5
27DB
102
{ACAD_REACTORS
330
27DA
102
}
330
27DA
100
AcDbDictionary
281
     1
  0
SORTENTSTABLE
  5
26FC
102
{ACAD_REACTORS
330
3DB
102
}
330
3DB
100
AcDbSortentsTable
330
1F
331
0
  5
2378
331
2283
  5
2284
331
2284
  5
228A
331
228A
  5
228B
331
228B
  5
228C
331
228C
  5
228D
331
228D
  5
228E
331
228E
  5
2291
331
2290
  5
229B
331
2296
  5
229D
331
2299
  5
229E
331
229A
  5
22CC
331
229B
  5
22CD
331
229E
  5
22D0
331
22CC
  5
22D1
331
22CD
  5
22D2
331
22CE
  5
22D3
331
22D0
  5
22D5
331
22D1
  5
22D6
331
22D2
  5
22D7
331
22D3
  5
22D8
331
22D4
  5
22D9
331
22D5
  5
22DA
331
22D6
  5
22DB
331
22D7
  5
22DC
331
22D8
  5
22DD
331
22D9
  5
22DE
331
22DA
  5
22DF
331
22DB
  5
22E0
331
22DC
  5
22E1
331
22DD
  5
22E2
331
22DE
  5
22E3
331
22DF
  5
2331
331
22E0
  5
2332
331
22E1
  5
2333
331
22E2
  5
2334
331
22E3
  5
2335
331
2331
  5
2352
331
2332
  5
2353
331
2333
  5
2354
331
2334
  5
2357
331
2335
  5
2358
331
2352
  5
2359
331
2353
  5
235A
331
2354
  5
235B
331
2357
  5
235C
331
2359
  5
235E
331
235A
  5
235F
331
235B
  5
2360
331
235C
  5
2361
331
235D
  5
2362
331
235E
  5
2363
331
235F
  5
2364
331
2360
  5
2365
331
2361
  5
2366
331
2362
  5
2367
331
2363
  5
2368
331
2364
  5
2369
331
2365
  5
236A
331
2366
  5
236B
331
2367
  5
236C
331
2368
  5
236D
331
236A
  5
236F
331
236B
  5
2370
331
236E
  5
2373
331
236F
  5
2374
331
2370
  5
2375
331
2371
  5
2376
331
2372
  5
2377
331
2374
  5
2379
331
2375
  5
237A
331
2376
  5
237B
331
2377
  5
237C
331
2378
  5
237D
331
2379
  5
237E
331
237A
  5
237F
331
237B
  5
2380
331
237C
  5
2381
331
237D
  5
2382
331
237E
  5
2383
331
237F
  5
2384
331
2380
  5
2385
331
2381
  5
2386
331
2382
  5
2387
331
2383
  5
2388
331
2384
  5
2389
331
2385
  5
238A
331
2386
  5
238B
331
2387
  5
238C
331
2388
  5
238D
331
2389
  5
238E
331
238A
  5
238F
331
238B
  5
2390
331
238C
  5
2391
331
238D
  5
2392
331
238E
  5
2393
331
238F
  5
2394
331
2390
  5
2395
331
2391
  5
2399
331
2392
  5
239A
331
2393
  5
239B
331
2394
  5
239C
331
2395
  5
239E
331
2399
  5
239F
331
239A
  5
23A0
331
239B
  5
23A1
331
239C
  5
23A2
331
239E
  5
23A3
331
239F
  5
23A7
331
23A0
  5
23A8
331
23A1
  5
23A9
331
23A2
  5
23AA
331
23A3
  5
23AB
331
23A7
  5
23AC
331
23A8
  5
23AD
331
23A9
  5
23AE
331
23AA
  5
23AF
331
23AB
  5
23B0
331
23AC
  5
23B4
331
23AD
  5
23B5
331
23AE
  5
23B6
331
23AF
  5
23B7
331
23B0
  5
23B8
331
23B4
  5
23B9
331
23B5
  5
23BA
331
23B6
  5
23BB
331
23B7
  5
23BC
331
23B8
  5
23BD
331
23B9
  5
23BE
331
23BA
  5
23BF
331
23BD
  5
23C2
331
23BF
  5
23C4
331
23C0
  5
23C5
331
23C1
  5
23C6
331
23C2
  5
23C7
331
23C3
  5
23C8
331
23C4
  5
23C9
331
23C5
  5
23CA
331
23C6
  5
23CB
331
23C7
  5
23CC
331
23C8
  5
23CD
331
23C9
  5
23CE
331
23CA
  5
23CF
331
23CB
  5
23D0
331
23CC
  5
23D1
331
23CD
  5
23D2
331
23CE
  5
23D3
331
23CF
  5
23D4
331
23D0
  5
23D5
331
23D1
  5
23D6
331
23D2
  5
23D7
331
23D3
  5
23D8
331
23D4
  5
23D9
331
23D5
  5
23DA
331
23D6
  5
23DB
331
23D7
  5
23DC
331
23D8
  5
23DD
331
23DA
  5
23DF
331
23DB
  5
23E0
331
23DC
  5
23E1
331
23DE
  5
23E3
331
23DF
  5
23E4
331
23E1
  5
23E7
331
23E2
  5
23E8
331
23E3
  5
23F9
331
23E4
  5
23FA
331
23E6
  5
23FB
331
23E7
  5
23FC
331
23E8
  5
23FD
331
23F9
  5
23FE
331
23FA
  5
23FF
331
23FB
  5
2400
331
23FC
  5
2401
331
23FD
  5
2402
331
23FE
  5
2404
331
23FF
  5
2408
331
2400
  5
240B
331
2401
  5
240E
331
2402
  5
2410
331
2403
  5
2411
331
2407
  5
2424
331
240B
  5
2425
331
240E
  5
2426
331
240F
  5
2428
331
2410
  5
2429
331
2411
  5
242A
331
2412
  5
26FB
331
2413
  5
26FD
331
2425
  5
26FE
331
2426
  5
2789
331
2427
  5
27CD
331
2428
  5
27CE
331
2429
  5
27CF
331
242A
  5
27D0
331
26FE
  5
2412
331
2789
  5
27E3
331
27CF
  5
2296
331
27D0
  5
229C
331
27E3
  5
27E7
331
27E7
  5
289A
331
28AF
  5
2283
  0
LAYOUT
  5
22
102
{ACAD_REACTORS
330
1A
102
}
330
1A
100
AcDbPlotSettings
  1

  2
SII LP-2150 (D-SCAN C2)
  4
User120
  6
AM_VIEW1
 40
3.174999952316284
 41
3.174999952316284
 42
3.17498779296875
 43
3.17498779296875
 44
296.9259948730469
 45
419.9889831542969
 46
0.0
 47
0.0
 48
0.0
 49
0.0
140
420.0
141
297.0
142
1.0
143
1.022107788374329
 70
 11952
 72
     1
 73
     1
 74
     4
  7
sei_cad.ctb
 75
     0
147
0.9783703943695685
148
0.0
149
0.0
100
AcDbLayout
  1
Model
 70
     1
 71
     0
 10
0.0
 20
0.0
 11
12.0
 21
9.0
 12
0.0
 22
0.0
 32
0.0
 14
0.0
 24
0.0
 34
0.0
 15
0.0
 25
0.0
 35
0.0
146
0.0
 13
0.0
 23
0.0
 33
0.0
 16
1.0
 26
0.0
 36
0.0
 17
0.0
 27
1.0
 37
0.0
 76
     0
330
1F
  0
LAYOUT
  5
1E
102
{ACAD_REACTORS
330
1A
102
}
330
1A
100
AcDbPlotSettings
  1

  2
C:\ACADM2000\plotters\DWF Classic.pc3
  4

  6

 40
0.0
 41
0.0
 42
0.0
 43
0.0
 44
0.0
 45
0.0
 46
0.0
 47
0.0
 48
0.0
 49
0.0
140
0.0
141
0.0
142
1.0
143
1.0
 70
   688
 72
     0
 73
     0
 74
     5
  7
sei_cad.ctb
 75
    16
147
1.0
148
0.0
149
0.0
100
AcDbLayout
  1
ﾚｲｱｳﾄ1
 70
     1
 71
     1
 10
0.0
 20
0.0
 11
420.0
 21
297.0
 12
0.0
 22
0.0
 32
0.0
 14
1.000000000000000E+20
 24
1.000000000000000E+20
 34
1.000000000000000E+20
 15
-1.000000000000000E+20
 25
-1.000000000000000E+20
 35
-1.000000000000000E+20
146
0.0
 13
0.0
 23
0.0
 33
0.0
 16
1.0
 26
0.0
 36
0.0
 17
0.0
 27
1.0
 37
0.0
 76
     0
330
1B
  0
LAYOUT
  5
26
102
{ACAD_REACTORS
330
1A
102
}
330
1A
100
AcDbPlotSettings
  1

  2
C:\ACADM2000\plotters\DWF Classic.pc3
  4

  6

 40
0.0
 41
0.0
 42
0.0
 43
0.0
 44
0.0
 45
0.0
 46
0.0
 47
0.0
 48
0.0
 49
0.0
140
0.0
141
0.0
142
1.0
143
1.0
 70
   688
 72
     0
 73
     0
 74
     5
  7
sei_cad.ctb
 75
    16
147
1.0
148
0.0
149
0.0
100
AcDbLayout
  1
ﾚｲｱｳﾄ2
 70
     1
 71
     2
 10
0.0
 20
0.0
 11
12.0
 21
9.0
 12
0.0
 22
0.0
 32
0.0
 14
0.0
 24
0.0
 34
0.0
 15
0.0
 25
0.0
 35
0.0
146
0.0
 13
0.0
 23
0.0
 33
0.0
 16
1.0
 26
0.0
 36
0.0
 17
0.0
 27
1.0
 37
0.0
 76
     0
330
23
  0
MLINESTYLE
  5
18
102
{ACAD_REACTORS
330
17
102
}
330
17
100
AcDbMlineStyle
  2
STANDARD
 70
     0
  3

 62
   256
 51
90.0
 52
90.0
 71
     2
 49
0.5
 62
   256
  6
BYLAYER
 49
-0.5
 62
   256
  6
BYLAYER
  0
ACDBPLACEHOLDER
  5
F
102
{ACAD_REACTORS
330
E
102
}
330
E
  0
TABLESTYLE
  5
2620
102
{ACAD_REACTORS
330
261F
102
}
330
261F
100
AcDbTableStyle
  3
Standard
 70
     0
 71
     8
 40
1.5
 41
1.5
280
     0
281
     0
  7
STANDARD
140
4.5
170
     2
 62
     0
 63
     7
283
     0
274
    -2
284
     1
 64
     0
275
    -2
285
     1
 65
     0
276
    -2
286
     1
 66
     0
277
    -2
287
     1
 67
     0
278
    -2
288
     1
 68
     0
279
    -2
289
     1
 69
     0
  7
STANDARD
140
6.0
170
     5
 62
     0
 63
     7
283
     0
274
    -2
284
     1
 64
     0
275
    -2
285
     1
 65
     0
276
    -2
286
     1
 66
     0
277
    -2
287
     1
 67
     0
278
    -2
288
     1
 68
     0
279
    -2
289
     1
 69
     0
  7
STANDARD
140
4.5
170
     5
 62
     0
 63
     7
283
     0
274
    -2
284
     1
 64
     0
275
    -2
285
     1
 65
     0
276
    -2
286
     1
 66
     0
277
    -2
287
     1
 67
     0
278
    -2
288
     1
 68
     0
279
    -2
289
     1
 69
     0
  0
XRECORD
  5
29B8
102
{ACAD_REACTORS
330
29B7
102
}
330
29B7
100
AcDbXrecord
280
     1
340
261E
  0
XRECORD
  5
29B9
102
{ACAD_REACTORS
330
29B7
102
}
330
29B7
100
AcDbXrecord
280
     1
340
261D
  0
DICTIONARYVAR
  5
2695
102
{ACAD_REACTORS
330
34
102
}
330
34
100
DictionaryVariables
280
     0
  1
STANDARD
  0
DICTIONARYVAR
  5
29B5
102
{ACAD_REACTORS
330
34
102
}
330
34
100
DictionaryVariables
280
     0
  1
1
  0
DICTIONARYVAR
  5
29B6
102
{ACAD_REACTORS
330
34
102
}
330
34
100
DictionaryVariables
280
     0
  1
0
  0
DICTIONARYVAR
  5
35
102
{ACAD_REACTORS
330
34
102
}
330
34
100
DictionaryVariables
280
     0
  1
1
  0
ACAD_PROXY_OBJECT
  5
44
102
{ACAD_REACTORS
330
43
102
}
330
43
100
AcDbProxyObject
 90
      499
 91
      519
 95
       25
 70
     0
 93
      118
310
405010040CA904C415CD5B075DD058
350
45
 94
        0
  0
DICTIONARY
  5
342
102
{ACAD_REACTORS
330
43
102
}
330
43
100
AcDbDictionary
281
     1
  3
JIS
350
343
  0
XRECORD
  5
267E
102
{ACAD_REACTORS
330
43
102
}
330
43
100
AcDbXrecord
280
     1
 90
-1023410169
  0
ACAD_PROXY_OBJECT
  5
37
330
32
100
AcDbProxyObject
 90
      499
 91
      509
 95
       25
 70
     0
 93
      156
310
00010143D050D351505391D5531054925390D490
330
32
 94
        0
  0
ACAD_PROXY_OBJECT
  5
38
330
32
100
AcDbProxyObject
 90
      499
 91
      509
 95
       25
 70
     0
 93
      148
310
000101439050D351531253915054925390D490
330
32
 94
        0
  0
ACAD_PROXY_OBJECT
  5
39
330
32
100
AcDbProxyObject
 90
      499
 91
      510
 95
       25
 70
     0
 93
      156
310
000101439050D35154D6535093D314D256915080
330
32
 94
        0
  0
ACAD_PROXY_OBJECT
  5
3B
330
32
100
AcDbProxyObject
 90
      499
 91
      512
 95
       25
 70
     0
 93
       88
310
000101411093D34C402B00
330
32
330
0
330
0
 94
        0
  0
ACAD_PROXY_OBJECT
  5
2632
330
32
100
AcDbProxyObject
 90
      499
 91
      535
 95
       25
 70
     0
 93
      478
310
0001014124FEA55D00507392E322E302E32014124FEA55D00507392E322E302E3240501000041131253914182D4454FB21E93F000000000000380FD8
330
32
330
2633
330
2639
 94
        0
  0
ACAD_PROXY_OBJECT
  5
2633
330
32
100
AcDbProxyObject
 90
      499
 91
      536
 95
       25
 70
     0
 93
       56
310
000190240E0000
330
32
330
2634
330
2636
 94
        0
  0
ACAD_PROXY_OBJECT
  5
2634
330
32
100
AcDbProxyObject
 90
      499
 91
      537
 95
       25
 70
     0
 93
       48
310
0001AA000000
330
32
330
1E
330
2635
330
0
 94
        0
  0
ACAD_PROXY_OBJECT
  5
2635
330
32
100
AcDbProxyObject
 90
      499
 91
      538
 95
       25
 70
     0
 93
       28
310
0001AAA0
330
32
 94
        0
  0
ACAD_PROXY_OBJECT
  5
2636
330
32
100
AcDbProxyObject
 90
      499
 91
      537
 95
       25
 70
     0
 93
       48
310
0001AA000000
330
32
330
26
330
2637
330
0
 94
        0
  0
ACAD_PROXY_OBJECT
  5
2637
330
32
100
AcDbProxyObject
 90
      499
 91
      538
 95
       25
 70
     0
 93
       28
310
0001AAA0
330
32
 94
        0
  0
ACAD_PROXY_OBJECT
  5
263A
330
32
100
AcDbProxyObject
 90
      499
 91
      510
 95
       25
 70
     0
 93
      108
310
000101421053521310D05310D010
330
32
 94
        0
  0
ACAD_PROXY_OBJECT
  5
263B
330
32
100
AcDbProxyObject
 90
      499
 91
      510
 95
       25
 70
     0
 93
      124
310
00010142905354915554D15112535010
330
32
 94
        0
  0
ACAD_PROXY_OBJECT
  5
263C
330
32
100
AcDbProxyObject
 90
      499
 91
      510
 95
       25
 70
     0
 93
      132
310
00010143105354D150D51253D391125360
330
32
 94
        0
  0
ACAD_PROXY_OBJECT
  5
263D
330
32
100
AcDbProxyObject
 90
      499
 91
      510
 95
       25
 70
     0
 93
      124
310
00010142905355941093D49111549010
330
32
 94
        0
  0
ACAD_PROXY_OBJECT
  5
263E
330
32
100
AcDbProxyObject
 90
      499
 91
      510
 95
       25
 70
     0
 93
      116
310
0001014290535115D1D0D3D313D4A0
330
32
 94
        0
  0
ACAD_PROXY_OBJECT
  5
263F
330
32
100
AcDbProxyObject
 90
      499
 91
      510
 95
       25
 70
     0
 93
      148
310
00010143505355925155D49151949154D21010
330
32
 94
        0
  0
ACAD_PROXY_OBJECT
  5
2640
330
32
100
AcDbProxyObject
 90
      499
 91
      510
 95
       25
 70
     0
 93
      172
310
00010144105350539393D51154149154D15495915010
330
32
 94
        0
  0
ACAD_PROXY_OBJECT
  5
2641
330
32
100
AcDbProxyObject
 90
      499
 91
      510
 95
       25
 70
     0
 93
      172
310
00010144105350555513D11253505494905391D15010
330
32
 94
        0
  0
ACAD_PROXY_OBJECT
  5
2642
330
32
100
AcDbProxyObject
 90
      499
 91
      510
 95
       25
 70
     0
 93
      124
310
00010142D05351561514915191125360
330
32
 94
        0
  0
ACAD_PROXY_OBJECT
  5
2643
330
32
100
AcDbProxyObject
 90
      499
 91
      510
 95
       25
 70
     0
 93
      132
310
00010142D05355105410539393D5115010
330
32
 94
        0
  0
ACAD_PROXY_OBJECT
  5
2644
330
32
100
AcDbProxyObject
 90
      499
 91
      510
 95
       25
 70
     0
 93
      108
310
00010142105350555513D0D31010
330
32
 94
        0
  0
ACAD_PROXY_OBJECT
  5
2645
330
32
100
AcDbProxyObject
 90
      499
 91
      510
 95
       25
 70
     0
 93
      108
310
00010142105350D3119150551050
330
32
 94
        0
  0
ACAD_PROXY_OBJECT
  5
2646
330
32
100
AcDbProxyObject
 90
      499
 91
      510
 95
       25
 70
     0
 93
      108
310
00010142105350D315925155D3F0
330
32
 94
        0
  0
ACAD_PROXY_OBJECT
  5
2647
330
32
100
AcDbProxyObject
 90
      499
 91
      510
 95
       25
 70
     0
 93
      148
310
0001014350535212511156915493D112535010
330
32
 94
        0
  0
ACAD_PROXY_OBJECT
  5
2648
330
32
100
AcDbProxyObject
 90
      499
 91
      510
 95
       25
 70
     0
 93
      124
310
00010142905352105510D21254D3D010
330
32
 94
        0
  0
ACAD_PROXY_OBJECT
  5
2649
330
32
100
AcDbProxyObject
 90
      499
 91
      510
 95
       25
 70
     0
 93
      148
310
00010143905354D25391D31152105513105660
330
32
 94
        0
  0
ACAD_PROXY_OBJECT
  5
264A
330
32
100
AcDbProxyObject
 90
      499
 91
      510
 95
       25
 70
     0
 93
      124
310
00010142D0535115D1D193111254D420
330
32
 94
        0
  0
ACAD_PROXY_OBJECT
  5
264B
330
32
100
AcDbProxyObject
 90
      499
 91
      510
 95
       25
 70
     0
 93
      100
310
00010142105350555513D213A0
330
32
 94
        0
  0
ACAD_PROXY_OBJECT
  5
264C
330
32
100
AcDbProxyObject
 90
      499
 91
      510
 95
       25
 70
     0
 93
      116
310
000101425053521390D3D553951010
330
32
 94
        0
  0
ACAD_PROXY_OBJECT
  5
264D
330
32
100
AcDbProxyObject
 90
      499
 91
      510
 95
       25
 70
     0
 93
      108
310
0001014210535213941493D29010
330
32
 94
        0
  0
ACAD_PROXY_OBJECT
  5
264E
330
32
100
AcDbProxyObject
 90
      499
 91
      510
 95
       25
 70
     0
 93
      108
310
0001014210535213951654115070
330
32
 94
        0
  0
ACAD_PROXY_OBJECT
  5
264F
330
32
100
AcDbProxyObject
 90
      499
 91
      510
 95
       25
 70
     0
 93
      108
310
000101421053521395925155D0F0
330
32
 94
        0
  0
ACAD_PROXY_OBJECT
  5
2650
330
32
100
AcDbProxyObject
 90
      499
 91
      510
 95
       25
 70
     0
 93
      140
310
00010143505354D150D51253D390D3D41660
330
32
 94
        0
  0
ACAD_PROXY_OBJECT
  5
2651
330
32
100
AcDbProxyObject
 90
      499
 91
      510
 95
       25
 70
     0
 93
      108
310
00010142105350D3141493D29030
330
32
 94
        0
  0
ACAD_PROXY_OBJECT
  5
2652
330
32
100
AcDbProxyObject
 90
      499
 91
      509
 95
       25
 70
     0
 93
      212
310
00010143905350555513D2105510D21493D500000000000002E400
330
32
 94
        0
  0
ACAD_PROXY_OBJECT
  5
2653
330
32
100
AcDbProxyObject
 90
      499
 91
      510
 95
       25
 70
     0
 93
      156
310
00010143905350555513D2105510D21111551010
330
32
 94
        0
  0
ACAD_PROXY_OBJECT
  5
2661
330
32
100
AcDbProxyObject
 90
      499
 91
      546
 95
       25
 70
     0
 93
      698
310
0001000000009AA6A9AA4051E547565204175672032342030323A35353A333320323031302028555443290141CE4B8C8B8C0B8C80518547565205365702032382031343A33343A323920323031300141CE4B8C8B8C0B8C80
330
32
330
2662
330
2663
330
2665
330
0
 94
        0
  0
ACAD_PROXY_OBJECT
  5
2662
330
32
100
AcDbProxyObject
 90
      499
 91
      547
 95
       25
 70
     0
 93
       70
310
0001AAA80820000000
330
32
330
2662
330
2662
 94
        0
  0
ACAD_PROXY_OBJECT
  5
2663
330
32
100
AcDbProxyObject
 90
      499
 91
      548
 95
       25
 70
     0
 93
       48
310
000100000000
330
32
330
0
330
2664
330
0
330
0
 94
        0
  0
ACAD_PROXY_OBJECT
  5
2664
330
32
100
AcDbProxyObject
 90
      499
 91
      549
 95
       25
 70
     0
 93
       40
310
000100AAAA
330
32
330
0
 94
        0
  0
ACAD_PROXY_OBJECT
  5
266A
330
32
100
AcDbProxyObject
 90
      499
 91
      553
 95
       25
 70
     0
 93
      180
310
00010143105050D3D35411119390535140504434F4D500
330
32
 94
        0
  0
ACAD_PROXY_OBJECT
  5
266B
330
32
100
AcDbProxyObject
 90
      499
 91
      553
 95
       25
 70
     0
 93
      212
310
0001014390505193D311115491119390535140506466F6C6465720
330
32
 94
        0
  0
ACAD_PROXY_OBJECT
  5
266C
330
32
100
AcDbProxyObject
 90
      499
 91
      553
 95
       25
 70
     0
 93
      180
310
00010143105050539393D1119390535140504284156290
330
32
 94
        0
  0
ACAD_PROXY_OBJECT
  5
266D
330
32
100
AcDbProxyObject
 90
      499
 91
      553
 95
       25
 70
     0
 93
      436
310
00010143905050D3D35415925155D31254D50052295BD96CA0A90B396CA0A894591A496CA0A8DB691A496CA0A89BA96CA0A95E28F95310
330
32
 94
        0
  0
ACAD_PROXY_OBJECT
  5
2672
330
32
100
AcDbProxyObject
 90
      499
 91
      555
 95
       25
 70
     0
 93
       32
310
00010000
330
32
340
266F
330
2674
330
266F
 94
        0
  0
ACAD_PROXY_OBJECT
  5
2673
330
32
100
AcDbProxyObject
 90
      499
 91
      556
 95
       25
 70
     0
 93
       18
310
000180
330
32
 94
        0
  0
ACAD_PROXY_OBJECT
  5
2674
330
32
100
AcDbProxyObject
 90
      499
 91
      557
 95
       25
 70
     0
 93
      226
310
0001014450CC4D948B54D11550D48C0DCC0C8B4C8C1050055401550000
330
32
330
2672
330
2673
 94
        0
  0
ACAD_PROXY_OBJECT
  5
2675
330
32
100
AcDbProxyObject
 90
      499
 91
      558
 95
       25
 70
     0
 93
      178
310
000100AAAAAABA530DEC5334EE12AFF0F1FFD4D877A380
330
32
330
2674
 94
        0
  0
ACAD_PROXY_OBJECT
  5
2676
330
32
100
AcDbProxyObject
 90
      499
 91
      559
 95
       25
 70
     0
 93
      108
310
000190140A000000000000AAAAA0
330
32
330
2677
330
2677
330
2677
330
2677
330
2677
330
0
 94
        0
  0
ACAD_PROXY_OBJECT
  5
2677
330
32
100
AcDbProxyObject
 90
      499
 91
      560
 95
       25
 70
     0
 93
       51
310
00010000AAAA80
330
32
330
2676
330
2674
 94
        0
  0
ACAD_PROXY_OBJECT
  5
267A
330
32
100
AcDbProxyObject
 90
      499
 91
      553
 95
       25
 70
     0
 93
      140
310
00010142105350D55494D511005034A49530
330
32
 94
        0
  0
DICTIONARY
  5
2C
102
{ACAD_REACTORS
330
2B
102
}
330
2B
100
AcDbDictionary
281
     1
  3
DWGSETTINGS
350
2D
  3
TRANSSETTINGS
350
2E
  0
ACAD_PROXY_OBJECT
  5
4A
102
{ACAD_REACTORS
330
2B
102
}
330
2B
100
AcDbProxyObject
 90
      499
 91
      521
 95
       25
 70
     0
 93
    23256
310
41502491013041105357CC201C00030C0132441013141105357CC603800030C0132441013241105357CCA01400030C0132441013341105357CCE01800030C01199013441105357CD200C00030C01199013541105357CD600C00030C01199013641105357CDA00800030C01239013741105357CDE01000030C0119901384110
310
5357CE200400030C01199013941105357CE63F400030C0241102324141505357CC4C201C00030C0132902344141505357CC4C600C00030C0119902495041505357CC4CA01C00030C013240902304E41505357CC13A01C00030C0132902314E41505357CC53A03800030C0132902324E41505357CC93A01400030C013290233
310
4E41505357CCD3A01800030C0119902344E41505357CD13A00C00030C0119902354E41505357CD53A00C00030C0119902364E41505357CD93A00800030C0123902374E41505357CDD3A01000030C0119902384E41505357CE13A00400030C0119902394E41505357CE53A3F400030C024110332414E41905357CC4C13A01C0
310
0030C013290334414E41905357CC4C53A00C00030C011990349504E41905357CC4C93A01C00030C0132409044B4C494E41505357D0D3200400030C011942504494E464F42105357D410549151A01000030C011942D055241484D3541905357D093D4A01C00030C0132425045649455742105357D5925155D4E00400030C011
310
942D06424548494E4441905357D25395A3F400030C0243505545241494C41505357D514A00C00030C01194250348494441905357D21251201C00030C01194250356495341905357D59254E01C00030C01324250650415244494D42505357D41054911253600C00030C01194250652454644494D42505357D49151911253601
310
000030C0119425774110531514901348070000C3004C9034110915312501348000000C0003FFFFFFFD034110921395901398000000C0003FFFFFFFE415092139594D06424548494E448000000C0003FFFFFFFE411093125110234418000000C0003FFFFFFFD03411093D05410234418000000C0003FFFFFFFD03411093D48C
310
9055241484D358010000C300466411093D48CD055241484D358020000C30048E411093D48D5055241484D358000000C0003FFFFFFFE411093D48DD055241484D3581E0000C30051903411094105410234418000000C0003FFFFFFFD03411094115610234418000000C0003FFFFFFFD034110951112501358000000C0003FFF
310
FFFFD034110D0530C901348000000C0003FFFFFFFE4110D0530CD01348020000C30048E4110D0530D501348070000C3004CA4110D0530DD013481E0000C30051A4110D15393901378000000C0003FFFFFFFE4110D15395D01378000000C0003FFFFFFFE4110D312539044B4C494E8000000C0003FFFFFFFE4110D3D38C5013
310
08000000C0003FFFFFFFD034110D3D38C901318000000C0003FFFFFFFD034110D3D38CD01328000000C0003FFFFFFFD034110D3D38D101328000000C0003FFFFFFFD034111115494101348000000C0003FFFFFFFD034111115510501348000000C0003FFFFFFFE4111125051D01358000000C0003FFFFFFFE4111125312501
310
358000000C0003FFFFFFFE411112535410650415244494D8000000C0003FFFFFFFE411112535490652454644494D8000000C0003FFFFFFFE411156135410234418000000C0003FFFFFFFD034111915353901388000000C0003FFFFFFFE415191535413901388030000C3003FFFFFFFE4151915354D410234418000000C0003
310
FFFFFFFE4151915354D510234418030000C300466415191535593901328000000C0003FFFFFFFE415191535595101328030000C3004664111931055101308000000C0003FFFFFFFD03411194905490234418000000C0003FFFFFFFD034111D49312501358000000C0003FFFFFFFD034111D5931250234418000000C0003FFF
310
FFFFD034112105510D01388000000C0003FFFFFFFD014112125113901338000000C0003FFFFFFFD034112125115D01338000000C0003FFFFFFFD034112131253901348000000C0003FFFFFFFD01411213D0D3901378000000C0003FFFFFFFE411213D0D5D01378000000C0003FFFFFFFE4112539193D04494E464F8000000C
310
0003FFFFFFFE4113105112501348000000C0003FFFFFFFD034113115051101358000000C0003FFFFFFFE419397D0921395902394E8000000C0003FFFFFFFE419397D0D3D38C502304E8000000C0003FFFFFFFD03419397D0D3D38C902314E8000000C0003FFFFFFFD03419397D0D3D38CD02324E8000000C0003FFFFFFFD03
310
419397D0D3D38D102324E8000000C0003FFFFFFFD03419397D0D15393902374E8000000C0003FFFFFFFE419397D0D15395D02374E8000000C0003FFFFFFFE419397D1125312502354E8000000C0003FFFFFFFE419397D2105510D02384E8000000C0003FFFFFFFD01419397D2125113902334E8000000C0003FFFFFFFD0341
310
9397D2125115D02334E8000000C0003FFFFFFFD03419397D3115051102354E8000000C0003FFFFFFFE419397D391D25410349504E8000000C0003FFFFFFFE419397D412105390334414E8000000C0003FFFFFFFE419397D510D3D3902304E8000000C0003FFFFFFFD03419397D5121312502344E8000000C0003FFFFFFFD01
310
419397D5131153902304E8000000C0003FFFFFFFD03419397D516150CD02364E8000000C0003FFFFFFFD03419397D594131250332414E8000000C0003FFFFFFFE411391D25410249508000000C0003FFFFFFFE411410530C9055241484D358010000C300466411410530CD055241484D358020000C30048E411410530D5055
310
241484D358000000C0003FFFFFFFE411410530DD055241484D3581E0000C30051903411412105390234418000000C0003FFFFFFFE411413D4D3901368070000C3004CA419413D4D49151901368050000C3004C903411413D4D6101368000000C0003FFFFFFFD03411414D150D0234418000000C0003FFFFFFFD03411490D1D
310
3901378000000C0003FFFFFFFE411490D1D5D01378000000C0003FFFFFFFE4114919112501348000000C0003FFFFFFFD034114945514901348070000C3004C903411494D093D01348000000C0003FFFFFFFD034114D09492D01348000000C0003FFFFFFFD014114D0D153901378000000C0003FFFFFFFD034114D150D51013
310
48000000C0003FFFFFFFD014114D15313901378000000C0003FFFFFFFD034114D15315D01378000000C0003FFFFFFFD034114D4D654D01308000000C0003FFFFFFFD034114D51312501348070000C3004C9034114D6508C501358000000C0003FFFFFFFD034114D6508C901358000000C0003FFFFFFFD034114D6508CD0135
310
8020000C30048E4114D6508D501358070000C3004C9034114D65353901378000000C0003FFFFFFFD034114D65355D01378000000C0003FFFFFFFD03411510D3D3901308000000C0003FFFFFFFD034115121312501348000000C0003FFFFFFFD01411512550C9055241484D358010000C300466411512550CD055241484D358
310
020000C30048E411512550D5055241484D358000000C0003FFFFFFFE411512550DD055241484D3581E0000C300519034115131153901308000000C0003FFFFFFFD03415514905253105545241494C8000000C0003FFFFFFFE41151492D3901378000000C0003FFFFFFFD0341151492D5D01378000000C0003FFFFFFFD03411
310
5149312501348000000C0003FFFFFFFD01411516150C501368030000C300466411516150C901368030000C300466411516150CD01368000000C0003FFFFFFFE411516150D501368070000C3004CA411516150DD013681E0000C30051A4115925155D04564945578000000C0003FFFFFFFE41159151121034849448000000C0
310
003FFFFFFFD0241159151159035649538000000C0003FFFFFFFD02411594131250232418000000C0003FFFFFFFE4116925690501348000000C0003FFFFFFFD01411354D653501358020000C30048EAAA3F400030C01013F90A4393241D3241919415324111940D194092340519479467F6
340
16
340
16
340
16
340
4B
340
16
340
16
340
16
340
4C
340
16
340
16
340
4C
340
4D
340
16
340
16
340
16
340
16
340
4B
340
16
340
16
340
16
340
4C
340
16
340
16
340
4C
340
4D
340
16
340
4E
340
16
340
16
340
16
340
16
340
16
340
4B
340
16
340
16
340
16
340
4F
340
15
340
15
340
15
340
15
340
15
340
15
340
15
340
15
340
15
340
15
340
15
340
15
340
15
340
15
340
15
340
15
340
50
340
15
340
15
340
15
340
15
340
15
340
15
340
15
340
15
340
15
340
15
340
15
340
15
340
15
340
15
340
15
340
16
340
15
340
15
340
15
340
15
340
15
340
15
340
15
340
15
340
4F
340
15
340
15
340
50
340
15
340
15
340
15
340
15
340
15
340
15
340
15
340
15
340
15
340
50
340
15
340
15
340
15
340
4F
340
15
340
15
340
15
340
15
340
15
340
15
340
15
340
15
340
15
340
15
340
15
340
15
340
15
340
15
340
15
340
15
340
15
340
15
340
15
340
50
340
15
340
15
340
50
340
15
340
15
340
16
340
15
340
50
340
15
340
15
340
4F
340
15
340
15
340
16
340
15
340
50
340
15
340
15
340
15
340
15
340
15
340
15
340
15
340
15
340
15
340
50
340
15
340
15
340
15
340
15
340
15
340
15
340
15
340
15
340
15
340
15
340
15
340
53
340
16
 94
        0
  0
ACAD_PROXY_OBJECT
  5
355
102
{ACAD_REACTORS
330
350
102
}
330
350
100
AcDbProxyObject
 90
      499
 91
      529
 95
       25
 70
     0
 93
      253
310
43D1444494D454E53494F4E2C414D44545F2A5F44494D404A9012A404A9012A8
  0
ACAD_PROXY_OBJECT
  5
354
102
{ACAD_REACTORS
330
350
102
}
330
350
100
AcDbProxyObject
 90
      499
 91
      529
 95
       25
 70
     0
 93
      181
310
43D012A42D05357D191504B505357CA9012A404A9012A8
  0
ACAD_PROXY_OBJECT
  5
351
102
{ACAD_REACTORS
330
350
102
}
330
350
100
AcDbProxyObject
 90
      499
 91
      529
 95
       25
 70
     0
 93
      133
310
43D054841544348404A9012A404A9012A8
  0
ACAD_PROXY_OBJECT
  5
352
102
{ACAD_REACTORS
330
350
102
}
330
350
100
AcDbProxyObject
 90
      499
 91
      529
 95
       25
 70
     0
 93
      549
310
43D044C494E4549CE0B0E138B0A8B4E0B0A8B4E138B105357CE0B105357CE138B0A8B505357CE0B0A8B505357CE139012A404A910494E534552542C5354445041525432448
  0
ACAD_PROXY_OBJECT
  5
353
102
{ACAD_REACTORS
330
350
102
}
330
350
100
AcDbProxyObject
 90
      499
 91
      529
 95
       25
 70
     0
 93
      909
310
43D6641434D46434652414D452C41434D444154554D5441524745542C41434D444154554D49442C41434D57454C4453594D2C41434D5355524653594D2C41434D4645415449442C41434D504152545245462C41434D42414C4C4F4F4E2C414D44544544474553594D404A9012A404A9012A8
  0
XRECORD
  5
AA6
102
{ACAD_REACTORS
330
AA4
102
}
330
AA4
100
AcDbXrecord
280
     1
  1
1,,,,,,,,,^M^J2,,,,,,,,,^M^J3,,,,,,,,,^M^J4,,,,,,,,,^M^J5,,,,,,,,,
  0

  0
XRECORD
  5
AA5
102
{ACAD_REACTORS
330
AA4
102
}
330
AA4
100
AcDbXrecord
280
     1
  1
5,10
  0

  0
ACAD_PROXY_OBJECT
  5
45
102
{ACAD_REACTORS
330
44
102
}
330
44
100
AcDbProxyObject
 90
      499
 91
      520
 95
       25
 70
     0
 93
      157
310
057356C1D77406406AA8FFFFFFFF05DD01009010
330
1F
330
0
330
2674
 94
        0
  0
ACAD_PROXY_OBJECT
  5
343
102
{ACAD_REACTORS
330
342
102
}
330
342
100
AcDbProxyObject
 90
      499
 91
      522
 95
       25
 70
     0
 93
     2379
310
5DC33333333333309408000000C00040D29254D01640600800030C0200800030C003333333333330940C8121E8720B1B6A9BAB9332A32BC3A29BA3220480A1282C6DA8C868CA6E8C88120286A0B1B6ABB2B63234B733A9BA3220480A1082C6DA92C8A6E8C88120285A0B1B6A230BA3AB6A9BA3220480A1282C6DA849E9AA6E
310
8C88120286A0B1A0B6B3AA34BA3632A9BA3220480A2082DAC8E888CAE8C2D2D8A6F2DAA6E8C88120288A0B6B23A29B2B1BA34B7B729BCB6A9BA3220480A2282DAC8E886CADCE8CAE498D2DCCAA6E8C88120288A0B6B23A2A343932B0B22634B732A9BA3220480A1682DAC8E89CDEE8CAA6E8C88120285A0B1A0B6B3A630BCA
310
9BA3220480A1682C682DACE88D2DAA6E8C88120288A0B1A0B6B3A437B632A1B430B93A29BA3220480C812020
340
32F
360
344
360
345
360
346
360
347
360
348
360
349
360
267B
360
267C
360
267D
360
267F
360
2680
360
2681
360
2687
360
2688
360
2689
340
0
340
0
 94
        0
  0
ACAD_PROXY_OBJECT
  5
2D
102
{ACAD_REACTORS
330
2C
102
}
330
2C
100
AcDbProxyObject
 90
      499
 91
      503
 95
       25
 70
     0
 93
     2624
310
4050B44574753455454494E4753A0E8482A68AA6A88882A069492A684A1A0A723A0A92920ACA0A8419983E1A1ABE1B1820C868A9C829C8E82A12686AF87260F862666A8321A2A72224A0A50000000000000122020E868A9C889282A682A106260F86460F8666083A1A2A72224A9AA250000000000000042020C868A9C988A9
310
C94000000000000048808321A2A727A32325000000000000012202128698929C82A4A482B282A106260F86460F866608421A624A722AA2CA820A82AC2624A722A1288AE8EAAA68682988A94283A620A9AA27A12520A80982109A82968AAC928AAE9FA04832829A1A0A622830020000419491559254D2505404C1055343414C
310
4541503313A314214D510539110549110540D29254D0954494D455354414D504A0CE704B02742B734141D5915494D253D3905414C4D4B8C0C1107B44574753455454494E4753454E447D
  0
ACAD_PROXY_OBJECT
  5
2E
102
{ACAD_REACTORS
330
2C
102
}
330
2C
100
AcDbProxyObject
 90
      499
 91
      503
 95
       25
 70
     0
 93
      852
310
4050D5452414E5353455454494E4753A2488A482AE929C8EA8A4829CA69882A8929E9C0C00800050D4F524947494E414C4C595F4F4E0600400028529A7AAA921A2A620A723A0A81A52827212AAA0A48AA68AA4AC8A0C0080001107B44574753455454494E4753454E447D0
  0
ACAD_PROXY_OBJECT
  5
344
330
343
100
AcDbProxyObject
 90
      499
 91
      523
 95
       25
 70
     0
 93
       86
310
5DEA0C80A0280A0280A034
  0
ACAD_PROXY_OBJECT
  5
345
330
343
100
AcDbProxyObject
 90
      499
 91
      524
 95
       25
 70
     0
 93
      282
310
5DD0E4050140501405014050140501405014050141101405014048000000000000001000
340
330
 94
        0
  0
ACAD_PROXY_OBJECT
  5
346
330
343
100
AcDbProxyObject
 90
      499
 91
      525
 95
       25
 70
     0
 93
      323
310
5DCC199999999999E99F91740501405014050140501405014050140501405014050140501405014040
340
0
 94
        0
  0
ACAD_PROXY_OBJECT
  5
347
330
343
100
AcDbProxyObject
 90
      499
 91
      526
 95
       25
 70
     0
 93
       10
310
5DC0
  0
ACAD_PROXY_OBJECT
  5
348
330
343
100
AcDbProxyObject
 90
      499
 91
      527
 95
       25
 70
     0
 93
      257
310
5DE0C16A22A7D90F49F80000000000001081400000000000004204010000618000
340
328
340
329
 94
        0
  0
ACAD_PROXY_OBJECT
  5
349
330
343
100
AcDbProxyObject
 90
      499
 91
      528
 95
       25
 70
     0
 93
     5277
310
5DD06411255115350141236025B6901405014069010000000000000910240690120281A8AA2CA0282484A4BE52028120280A032020000000000001220480D202405044E414D454050496BC914F4051C40640A80000000000004E4090193C3D3C4946284953424C414E4B28504152543A4E414D45292C424C4F434B3A4E414D
310
452C504152543A4E414D45293E3C41435F44455343524950544E3E40480A109A82A88AA492829880A091BBD2F7E80A3A80C81D0E27A15AF46E08A81203480901411393D5115014124A363B7D0147501904A0000000000000F902406428F4F1050D7D393D5114F901202832B22A72227A92028366EF6EE06F582028EA0320B4
310
0000000000001F20480C879E9E20A1AFAB27222FA620A122A61F20240506445020000000000000490201C00030C00010180000000000003E400000000000000F901073D3C4954454D3E4050180000000000003E400000000000000F901073D3C4954454D3E40501800000000000034400000000000000D101073D3C4954454
310
D3E40501800000000000034400000000000000D101073D3C4954454D3E405029010000000000000F9000000000000003E4041CF4F125511534F901418F4F1455164F9014060000000000000F9000000000000003E4041CF4F125511534F901800000000000034400000000000000D101073D3C4954454D3E40640400000000
310
0000003E400000000000000F90288800000000000020810000001800120881A068120480A032208521122080D21480D211480A1485214852050000000000003C2FC000000000000F0BF40600800030C0200400030C00CDCCCCCCCCCCEC3F3373333333333B0FC3333333333330940C80D069014090341504901A1999999999
310
9984A040100006180400800061804010000618008098A02808
340
0
340
0
 94
        0
  0
ACAD_PROXY_OBJECT
  5
267B
330
343
100
AcDbProxyObject
 90
      499
 91
      561
 95
       25
 70
     0
 93
     3042
310
5DD9740D29254D064A49535F413342929254D7D512551311505134A49535F42525F5265766973696F6E6C6973744190F4134522028323937783231306D6D2941D29254D7D04D1490E41312028353934783834316D6D2941929254D7D04C50E41332028323937783432306D6D2941929254D7D04CD0F41344C2028323130783
310
239376D6D2941D29254D7D04D1310E41322028343230783539346D6D2941929254D7D04C90F4130202838343178313138396D6D2941929254D7D04C10243129254C82557247A25E4C81050A4A49535F5449544C454143129254C82557247A25E4C81090A4A49535F5449544C45424110E979A97F0838A835883675F42525F4
310
4D29254D7D09497D4995D9A5CDA5BDB9B1A5CDD10E979A97F0838A835883675F54525F44D29254D7D51497D4995D9A5CDA5BDB9B1A5CDD10E979A97F0838A835883675F424C5F44D29254D7D09317D4995D9A5CDA5BDB9B1A5CDD10E979A97F0838A835883675F544C5F44D29254D7D51317D4995D9A5CDA5BDB9B1A5CDD00
  0
ACAD_PROXY_OBJECT
  5
267C
330
343
100
AcDbProxyObject
 90
      499
 91
      562
 95
       25
 70
     0
 93
      898
310
5DC4000000000000124048CF4F11115510525317D3105091530F880A0F11115510525317D05094D4D0D053114F8A50241C9A9999999999B93F26A666666666724FC000000000000E03F400000000000000400000000000000510000000000000024408070000C300000000000000049000
340
16
340
32F
 94
        0
  0
ACAD_PROXY_OBJECT
  5
267D
330
343
100
AcDbProxyObject
 90
      499
 91
      563
 95
       25
 70
     0
 93
      823
310
5DC0B00000000000002480959E9E29A2A1AA24A7A72FA620A122A62FA324A929AA1F169E29A2A1AA24A7A72FA620A122A62FA620A9AA1F000000000000048803FFFE01C00030C008140380006180000000000000048800000000000000A2000000000000002480
340
39F
340
32F
 94
        0
  0
ACAD_PROXY_OBJECT
  5
267F
330
343
100
AcDbProxyObject
 90
      499
 91
      564
 95
       25
 70
     0
 93
      152
310
5DE8273108AC1C5A0640A3D0A5723F0BD1F200
  0
ACAD_PROXY_OBJECT
  5
2680
330
343
100
AcDbProxyObject
 90
      499
 91
      565
 95
       25
 70
     0
 93
       14
310
5DE0
340
0
 94
        0
  0
ACAD_PROXY_OBJECT
  5
2681
330
343
100
AcDbProxyObject
 90
      499
 91
      566
 95
       25
 70
     0
 93
     6059
310
5DD084050BA4050AA405024050E836583938376838C815B83672031405983D3C486F6C653A6469613E3C696628657175616C28486F6C653A7465726D696E6174696F6E2C223022292C2220905B82B320222C22208368838A838B22293E3C696628657175616C28486F6C653A7465726D696E6174696F6E2C223022292C486F
310
6C653A64657074682C2222293E2C203C486F6C653A63746469613E2082B482AE82E882CC905B82B3203C486F6C653A637464657074683E406901405034050E836583938376838C815B83672031405EF3D3C486F6C653A6374616E676C653E252564202525633C486F6C653A63746469613E208E4D8C8A2C203C69662865717
310
5616C28486F6C653A7461707065642C223022292C22252563222C486F6C653A6E6F6D696E616C202220782022293E3C696628657175616C28486F6C653A7461707065642C223022292C486F6C653A6469612C486F6C653A706974636864657363293E203C696628657175616C28486F6C653A7465726D696E6174696F6E2C2
310
23022292C22905B82B320222C222022293E3C696628657175616C28486F6C653A7465726D696E6174696F6E2C223022292C486F6C653A64657074682C2222293E406901405014050E836583938376838C815B83672031405C73D3C696628657175616C28486F6C653A7461707065642C223022292C22252563222C486F6C65
310
3A6E6F6D696E616C202220782022293E3C696628657175616C28486F6C653A7461707065642C223022292C486F6C653A6469612C486F6C653A706974636864657363293E203C696628657175616C28486F6C653A7465726D696E6174696F6E2C223022292C22905B82B320222C222022293E3C696628657175616C28486F6C
310
653A7465726D696E6174696F6E2C223022292C486F6C653A64657074682C2222293E4069014051E4090E836583938376838C815B83672032405173D3C535444503A444553433E203C535444503A5354443E40690E836583938376838C815B836720314050C3D3C535444503A444553433E40690240515AAABBA120
360
2685
330
2685
360
2686
330
2686
360
2684
330
2684
360
2683
360
2682
330
2683
330
2682
 94
        0
  0
ACAD_PROXY_OBJECT
  5
2687
330
343
100
AcDbProxyObject
 90
      499
 91
      568
 95
       25
 70
     0
 93
       26
310
5DD02A80
340
4A
 94
        0
  0
ACAD_PROXY_OBJECT
  5
2688
330
343
100
AcDbProxyObject
 90
      499
 91
      569
 95
       25
 70
     0
 93
      250
310
5DD020000000000000A1000000000000002440408F0F9023C3E409A0DCFFFF80
340
331
340
532
340
533
340
332
340
333
340
334
340
335
340
336
340
337
340
0
 94
        0
  0
ACAD_PROXY_OBJECT
  5
2689
330
343
100
AcDbProxyObject
 90
      499
 91
      570
 95
       25
 70
     0
 93
    13889
310
5DD1D003FFFFFFFD030300030CCCCCCCCCCCC250200800030C01030300030CCCCCCCCCCCC250200800030C00050C8DC0955782CC838A83588367014ED1D15395149050D3CB1294138B0C0B23702555E0B320E2A0D620D9CB11D15395149055160B095CCB0A11D1539354D1C819D95B991A5B5E880CCC0A78000C0000000000
310
00000000000000000000010CCCCCCCCCCCC250200800030C010CCCCCCCCCCCC250200800030C020143CF4F111959985D5B1D151A5D1B194F8050A8C8A8365815B8375838B014E51D15395149050D3CB1294138B0C0B2322A0D96056E0DD60E2CB11D15395149055160B095CCB0A11D1539354D1C819D95B991A5B5E880CCC4
310
A78000C000000000000000000000000000000010CCCCCCCCCCCC250200800030C010CCCCCCCCCCCC250200800030C020143CF4F111959985D5B1D151A5D1B194F90D44111409034110541D0C4350F4050E44D03449074510F000141232D24D7C053247454E545241434F2C4A504E2C302C8CB4935F2C47454E54524154582C
310
25732C2847454E4D53472067656E64696D7A20312900010104002214000281464500A608E8A9CA8A482869E5894A09C5860591914588E8A9CA8A482A8B0584AE658508E8A9C9AA68E40CECADCC8D2DAF4406452029E9E9E27B934B3B4B71F1E24A31427A91424A9A12620A7259427B934B3B4B7149624A9A12620A7259424B
310
A32B6949496111116111711149F1E24BA32B69F00808200111A000140560052F47454E545241434F2C4A504E2C302C582C47454E54524154582C25732C2847454E4D53472067656E64696D7A20332900010100002054000280AC80A5E8E8A9CA8A482869E5894A09C586058B2588E8A9CA8A482A8B0584AE658508E8A9C9AA
310
68E40CECADCC8D2DAF4406852000202000040E800050152014BD1D15395149050D3CB1294138B0C0B148B11D15395149055160B095CCB0A11D1539354D1C819D95B991A5B5E880D8A400040400008250000A0507A6029823A2A72A2920A1A79625282716181641E99623A2A72A2920AA2C1612B9961423A2A726A9A39033B2
310
B73234B6BD101B948000808180105A000140A0F4C053047454E545241434F2C4A504E2C302C83D32C47454E54524154582C25732C2847454E4D53472067656E64696D7A203829000101010020F400028248704B5F00A668E8A9CA8A482869E5894A09C58605921C12D7C588E8A9CA8A482A8B0584AE658508E8A9C9AA68E40
310
CECADCC8D2DAF440646052000200080043280005048B4B8A69014CD1D15395149050D3CB1294138B0C0B22D2E29A4B11D15395149055160B095CCB0A11D1539354D1C819D95B991A5B5E880C8C4A4000400100086D0000A09196926BE029923A2A72A2920A1A796252827161816465A49AF9623A2A72A2920AA2C1612B9961
310
423A2A726A9A39033B2B73234B6BD10189480A02620202080043E80005048D8096DA014CD1D15395149050D3CB1294138B0C0B236025B68B11D15395149055160B095CCB0A11D1539354D1C819D95B991A5B5E880C4D0A4000404140280D0000A190687072706CD06C5069D06B0029DA3A2A72A2920A1A7962528271618164
310
1A1C1C9C1B341B141A741AC1623A2A72A2920AA2C1612B9961423A2A726A9A39033B2B73234B6BD10189A94800080820050EA000143A322A0D0E0E4E0D9A0D8A0D3A0D60053D47454E545241434F2C4A504E2C302C8C8A8343839383668362834E83582C47454E54524154582C25732C2847454E4D53472067656E64696D7A
310
2031372900010105002274000281464500A628E8A9CA8A482869E5894A09C5860591914588E8A9CA8A482A8B0584AE658508E8A9C9AA68E40CECADCC8D2DAF440626C52000202080044A8000504909497CA014CD1D15395149050D3CB1294138B0C0B242525F28B11D15395149055160B095CCB0A11D1539354D1C819D95B9
310
91A5B5E880C4E4A400040418008A521E000000000000001CA040C00000000000034408080000000000006881010000000000000D102040000000000001A204080000000000003440818000000000000728103000000000000125020600000000004028A040000000000000034408000000000000004881000000000000000D
310
102000000000000001A204000000000000003440818000000000000508143C0000000000000039408180000000000006881030000000000000D102060000000000001A2040C00000000000034408180000000000006881030000000000000E5020600000000000024A040C0000000000805140800000000000000688100000
310
00000000009102000000000000001A2040000000000000034408180000000000006881030000000000000A10284220000000878000002020000008380000020400000081800000208000000828000002028900000000
340
0
340
0
340
0
340
0
340
32F
340
32F
 94
        0
  0
ACAD_PROXY_OBJECT
  5
2685
330
2681
100
AcDbProxyObject
 90
      499
 91
      567
 95
       25
 70
     0
 93
     1376
310
5DE0143A0D960E4E0DDA0E32056E0D9C80C405983D3C486F6C653A6469613E3C696628657175616C28486F6C653A7465726D696E6174696F6E2C223022292C2220905B82B320222C22208368838A838B22293E3C696628657175616C28486F6C653A7465726D696E6174696F6E2C223022292C486F6C653A64657074682C22
310
22293E2C203C486F6C653A63746469613E2082B482AE82E882CC905B82B3203C486F6C653A637464657074683E
  0
ACAD_PROXY_OBJECT
  5
2686
330
2681
100
AcDbProxyObject
 90
      499
 91
      567
 95
       25
 70
     0
 93
     2072
310
5DE0143A0D960E4E0DDA0E32056E0D9C80C405EF3D3C486F6C653A6374616E676C653E252564202525633C486F6C653A63746469613E208E4D8C8A2C203C696628657175616C28486F6C653A7461707065642C223022292C22252563222C486F6C653A6E6F6D696E616C202220782022293E3C696628657175616C28486F6C
310
653A7461707065642C223022292C486F6C653A6469612C486F6C653A706974636864657363293E203C696628657175616C28486F6C653A7465726D696E6174696F6E2C223022292C22905B82B320222C222022293E3C696628657175616C28486F6C653A7465726D696E6174696F6E2C223022292C486F6C653A6465707468
310
2C2222293E
  0
ACAD_PROXY_OBJECT
  5
2684
330
2681
100
AcDbProxyObject
 90
      499
 91
      567
 95
       25
 70
     0
 93
     1752
310
5DE0143A0D960E4E0DDA0E32056E0D9C80C405C73D3C696628657175616C28486F6C653A7461707065642C223022292C22252563222C486F6C653A6E6F6D696E616C202220782022293E3C696628657175616C28486F6C653A7461707065642C223022292C486F6C653A6469612C486F6C653A706974636864657363293E20
310
3C696628657175616C28486F6C653A7465726D696E6174696F6E2C223022292C22905B82B320222C222022293E3C696628657175616C28486F6C653A7465726D696E6174696F6E2C223022292C486F6C653A64657074682C2222293E
  0
ACAD_PROXY_OBJECT
  5
2683
330
2681
100
AcDbProxyObject
 90
      499
 91
      567
 95
       25
 70
     0
 93
      344
310
5DE0143A0D960E4E0DDA0E32056E0D9C80C805173D3C535444503A444553433E203C535444503A5354443E
  0
ACAD_PROXY_OBJECT
  5
2682
330
2681
100
AcDbProxyObject
 90
      499
 91
      567
 95
       25
 70
     0
 93
      256
310
5DE0143A0D960E4E0DDA0E32056E0D9C80C4050C3D3C535444503A444553433E
  0
ENDSEC
  0
EOF
