  0
SECTION
  2
HEADER
  9
$ACADVER
  1
AC1015
  9
$ACADMAINTVER
 70
     6
  9
$DWGCODEPAGE
  3
ANSI_932
  9
$INSBASE
 10
0.0
 20
0.0
 30
0.0
  9
$EXTMIN
 10
-123.9716858020133
 20
-98.31574875898002
 30
-0.0015258207003583
  9
$EXTMAX
 10
205.2101185366887
 20
37.52163814606354
 30
0.0000000349246037
  9
$LIMMIN
 10
0.0
 20
0.0
  9
$LIMMAX
 10
420.0
 20
297.0
  9
$ORTHOMODE
 70
     1
  9
$REGENMODE
 70
     1
  9
$FILLMODE
 70
     1
  9
$QTEXTMODE
 70
     0
  9
$MIRRTEXT
 70
     1
  9
$LTSCALE
 40
1.0
  9
$ATTMODE
 70
     1
  9
$TEXTSIZE
 40
4.0
  9
$TRACEWID
 40
1.0
  9
$TEXTSTYLE
  7
STANDARD
  9
$CLAYER
  8
AM_0
  9
$CELTYPE
  6
ByLayer
  9
$CECOLOR
 62
   256
  9
$CELTSCALE
 40
1.0
  9
$DISPSILH
 70
     0
  9
$DIMSCALE
 40
1.0
  9
$DIMASZ
 40
2.5
  9
$DIMEXO
 40
0.0
  9
$DIMDLI
 40
10.0
  9
$DIMRND
 40
0.0
  9
$DIMDLE
 40
0.0
  9
$DIMEXE
 40
1.0
  9
$DIMTP
 40
0.1
  9
$DIMTM
 40
0.1000000001
  9
$DIMTXT
 40
3.8
  9
$DIMCEN
 40
0.0
  9
$DIMTSZ
 40
0.0
  9
$DIMTOL
 70
     0
  9
$DIMLIM
 70
     0
  9
$DIMTIH
 70
     0
  9
$DIMTOH
 70
     0
  9
$DIMSE1
 70
     0
  9
$DIMSE2
 70
     0
  9
$DIMTAD
 70
     3
  9
$DIMZIN
 70
     1
  9
$DIMBLK
  1
Open30
  9
$DIMASO
 70
     1
  9
$DIMSHO
 70
     1
  9
$DIMPOST
  1

  9
$DIMAPOST
  1
"
  9
$DIMALT
 70
     0
  9
$DIMALTD
 70
     2
  9
$DIMALTF
 40
0.0393701
  9
$DIMLFAC
 40
1.0
  9
$DIMTOFL
 70
     1
  9
$DIMTVP
 40
0.0
  9
$DIMTIX
 70
     0
  9
$DIMSOXD
 70
     0
  9
$DIMSAH
 70
     0
  9
$DIMBLK1
  1

  9
$DIMBLK2
  1

  9
$DIMSTYLE
  2
AM_JIS
  9
$DIMCLRD
 70
   256
  9
$DIMCLRE
 70
   256
  9
$DIMCLRT
 70
     2
  9
$DIMTFAC
 40
0.71
  9
$DIMGAP
 40
1.5
  9
$DIMJUST
 70
     0
  9
$DIMSD1
 70
     0
  9
$DIMSD2
 70
     0
  9
$DIMTOLJ
 70
     0
  9
$DIMTZIN
 70
     8
  9
$DIMALTZ
 70
     0
  9
$DIMALTTZ
 70
     0
  9
$DIMUPT
 70
     0
  9
$DIMDEC
 70
     3
  9
$DIMTDEC
 70
     3
  9
$DIMALTU
 70
     2
  9
$DIMALTTD
 70
     2
  9
$DIMTXSTY
  7
STANDARD
  9
$DIMAUNIT
 70
     1
  9
$DIMADEC
 70
     2
  9
$DIMALTRND
 40
0.0
  9
$DIMAZIN
 70
     2
  9
$DIMDSEP
 70
    46
  9
$DIMATFIT
 70
     3
  9
$DIMFRAC
 70
     0
  9
$DIMLDRBLK
  1
Open30
  9
$DIMLUNIT
 70
     2
  9
$DIMLWD
 70
    -1
  9
$DIMLWE
 70
    -1
  9
$DIMTMOVE
 70
     0
  9
$LUNITS
 70
     2
  9
$LUPREC
 70
     4
  9
$SKETCHINC
 40
1.0
  9
$FILLETRAD
 40
0.2
  9
$AUNITS
 70
     0
  9
$AUPREC
 70
     4
  9
$MENU
  1
.
  9
$ELEVATION
 40
0.0
  9
$PELEVATION
 40
0.0
  9
$THICKNESS
 40
0.0
  9
$LIMCHECK
 70
     0
  9
$CHAMFERA
 40
1.0
  9
$CHAMFERB
 40
1.0
  9
$CHAMFERC
 40
20.0
  9
$CHAMFERD
 40
0.0
  9
$SKPOLY
 70
     0
  9
$TDCREATE
 40
2451943.610431667
  9
$TDUCREATE
 40
2451943.235431667
  9
$TDUPDATE
 40
2455468.610402014
  9
$TDUUPDATE
 40
2455468.235402014
  9
$TDINDWG
 40
1.7629266898
  9
$TDUSRTIMER
 40
1.7629265162
  9
$USRTIMER
 70
     1
  9
$ANGBASE
 50
0.0
  9
$ANGDIR
 70
     0
  9
$PDMODE
 70
     0
  9
$PDSIZE
 40
0.0
  9
$PLINEWID
 40
0.0
  9
$SPLFRAME
 70
     0
  9
$SPLINETYPE
 70
     6
  9
$SPLINESEGS
 70
     8
  9
$HANDSEED
  5
1D7F1
  9
$SURFTAB1
 70
     6
  9
$SURFTAB2
 70
     6
  9
$SURFTYPE
 70
     6
  9
$SURFU
 70
     6
  9
$SURFV
 70
     6
  9
$UCSBASE
  2

  9
$UCSNAME
  2

  9
$UCSORG
 10
0.0
 20
0.0
 30
0.0
  9
$UCSXDIR
 10
1.0
 20
0.0
 30
0.0
  9
$UCSYDIR
 10
0.0
 20
1.0
 30
0.0
  9
$UCSORTHOREF
  2

  9
$UCSORTHOVIEW
 70
     0
  9
$UCSORGTOP
 10
0.0
 20
0.0
 30
0.0
  9
$UCSORGBOTTOM
 10
0.0
 20
0.0
 30
0.0
  9
$UCSORGLEFT
 10
0.0
 20
0.0
 30
0.0
  9
$UCSORGRIGHT
 10
0.0
 20
0.0
 30
0.0
  9
$UCSORGFRONT
 10
0.0
 20
0.0
 30
0.0
  9
$UCSORGBACK
 10
0.0
 20
0.0
 30
0.0
  9
$PUCSBASE
  2

  9
$PUCSNAME
  2

  9
$PUCSORG
 10
0.0
 20
0.0
 30
0.0
  9
$PUCSXDIR
 10
1.0
 20
0.0
 30
0.0
  9
$PUCSYDIR
 10
0.0
 20
1.0
 30
0.0
  9
$PUCSORTHOREF
  2

  9
$PUCSORTHOVIEW
 70
     0
  9
$PUCSORGTOP
 10
0.0
 20
0.0
 30
0.0
  9
$PUCSORGBOTTOM
 10
0.0
 20
0.0
 30
0.0
  9
$PUCSORGLEFT
 10
0.0
 20
0.0
 30
0.0
  9
$PUCSORGRIGHT
 10
0.0
 20
0.0
 30
0.0
  9
$PUCSORGFRONT
 10
0.0
 20
0.0
 30
0.0
  9
$PUCSORGBACK
 10
0.0
 20
0.0
 30
0.0
  9
$USERI1
 70
     0
  9
$USERI2
 70
     0
  9
$USERI3
 70
     0
  9
$USERI4
 70
     0
  9
$USERI5
 70
     0
  9
$USERR1
 40
0.0
  9
$USERR2
 40
0.0
  9
$USERR3
 40
0.0
  9
$USERR4
 40
0.0
  9
$USERR5
 40
0.0
  9
$WORLDVIEW
 70
     1
  9
$SHADEDGE
 70
     3
  9
$SHADEDIF
 70
    70
  9
$TILEMODE
 70
     1
  9
$MAXACTVP
 70
    64
  9
$PINSBASE
 10
0.0
 20
0.0
 30
0.0
  9
$PLIMCHECK
 70
     0
  9
$PEXTMIN
 10
1.000000000000000E+20
 20
1.000000000000000E+20
 30
1.000000000000000E+20
  9
$PEXTMAX
 10
-1.000000000000000E+20
 20
-1.000000000000000E+20
 30
-1.000000000000000E+20
  9
$PLIMMIN
 10
0.0
 20
0.0
  9
$PLIMMAX
 10
420.0
 20
297.0
  9
$UNITMODE
 70
     0
  9
$VISRETAIN
 70
     1
  9
$PLINEGEN
 70
     0
  9
$PSLTSCALE
 70
     1
  9
$TREEDEPTH
 70
  3020
  9
$CMLSTYLE
  2
Standard
  9
$CMLJUST
 70
     0
  9
$CMLSCALE
 40
20.0
  9
$PROXYGRAPHICS
 70
     1
  9
$MEASUREMENT
 70
     1
  9
$CELWEIGHT
370
    -1
  9
$ENDCAPS
280
     0
  9
$JOINSTYLE
280
     0
  9
$LWDISPLAY
290
     0
  9
$INSUNITS
 70
     4
  9
$HYPERLINKBASE
  1

  9
$STYLESHEET
  1
sei_cad.ctb
  9
$XEDIT
290
     1
  9
$CEPSNTYPE
380
     0
  9
$PSTYLEMODE
290
     1
  9
$FINGERPRINTGUID
  2
{C77AB3BE-9CA2-11D3-BAF3-006094EB760E}
  9
$VERSIONGUID
  2
{C18DD900-A952-43D3-BD15-DCAAC072DF7C}
  9
$EXTNAMES
290
     1
  9
$PSVPSCALE
 40
0.0
  9
$OLESTARTUP
290
     0
  0
ENDSEC
  0
SECTION
  2
CLASSES
  0
CLASS
  1
ACDBDICTIONARYWDFLT
  2
AcDbDictionaryWithDefault
  3
ObjectDBX Classes
 90
        0
280
     0
281
     0
  0
CLASS
  1
ACDBPLACEHOLDER
  2
AcDbPlaceHolder
  3
ObjectDBX Classes
 90
        0
280
     0
281
     0
  0
CLASS
  1
LAYOUT
  2
AcDbLayout
  3
ObjectDBX Classes
 90
        0
280
     0
281
     0
  0
CLASS
  1
ACME_DOCUMENT
  2
AcMeDbDoc
  3
AcMeServices
 90
        0
280
     1
281
     0
  0
CLASS
  1
ACMESCOPE
  2
AcMeScope
  3
AcMeServices
 90
        0
280
     1
281
     0
  0
CLASS
  1
ACMECOMMANDHISTORY
  2
AcMeCommandHistory
  3
AcMeServices
 90
        0
280
     1
281
     0
  0
CLASS
  1
DICTIONARYVAR
  2
AcDbDictionaryVar
  3
ObjectDBX Classes
 90
        0
280
     0
281
     0
  0
CLASS
  1
ACIMSYSVARMAN
  2
AcImSysVarManager
  3
AcMeServices
 90
        0
280
     1
281
     0
  0
CLASS
  1
ACIMREALSYSVAR
  2
AcImRealSysVar
  3
AcMeServices
 90
        0
280
     1
281
     0
  0
CLASS
  1
ACIMINTSYSVAR
  2
AcImIntSysVar
  3
AcMeServices
 90
        0
280
     1
281
     0
  0
CLASS
  1
ACMEDRAWINGMAN
  2
AcMeDrawingMan
  3
AcMeServices
 90
        0
280
     1
281
     0
  0
CLASS
  1
ACMEVIEW
  2
AcMeView
  3
AcMeServices
 90
        0
280
     1
281
     0
  0
CLASS
  1
ACDBENTITYCACHE
  2
AcMeEntityCache
  3
AcMeServices
 90
        0
280
     1
281
     0
  0
CLASS
  1
GSMANAGER
  2
AcMeGSManager
  3
AcMeServices
 90
        0
280
     1
281
     0
  0
CLASS
  1
AMDTINTERNALREACTOR
  2
AmdtInternalReactor
  3
AcMeServices
 90
        0
280
     1
281
     0
  0
CLASS
  1
ACMESTATEMGR
  2
AcMeStateMgr
  3
AcMeServices
 90
        0
280
     1
281
     0
  0
CLASS
  1
ACME_DATABASE
  2
AcMeDbDatabase
  3
AcMeServices
 90
        0
280
     1
281
     0
  0
CLASS
  1
ACRFINSADJUSTERMGR
  2
AcRfInsAdjusterMgr
  3
AcMeServices
 90
        0
280
     1
281
     0
  0
CLASS
  1
AMGSETTINGSOBJ
  2
AmgSettingsObj
  3
"AcadM|Product Description: AutoCAD Mechanical 2000|Company: Autodesk"
 90
        0
280
     1
281
     0
  0
CLASS
  1
AMGOBJPROPCFG
  2
AmgObjPropCfg
  3
"AmgLay|Product Description: AutoCAD Mechanical 2000|Company: Autodesk"
 90
        1
280
     1
281
     0
  0
CLASS
  1
ACMDATADICTIONARY
  2
AcmDataDictionary
  3
"AcmSymBB|Product Description: AutoCAD Mechanical 2004 DX|Company: Autodesk"
 90
        0
280
     1
281
     0
  0
CLASS
  1
ACMDATAENTRYBLOCK
  2
AcmDataEntryBlock
  3
"AcmSymBB|Product Description: AutoCAD Mechanical 2004 DX|Company: Autodesk"
 90
        0
280
     1
281
     0
  0
CLASS
  1
ACIMSTRSYSVAR
  2
AcImStrSysVar
  3
AcMeServices
 90
        0
280
     1
281
     0
  0
CLASS
  1
ACAMGFILTERDAT
  2
AcAmgFilterDat
  3
"AcadM|Product Description: AutoCAD Mechanical 2000|Company: Autodesk"
 90
        0
280
     1
281
     0
  0
CLASS
  1
LAYER_INDEX
  2
AcDbLayerIndex
  3
ObjectDBX Classes
 90
        0
280
     0
281
     0
  0
CLASS
  1
IDBUFFER
  2
AcDbIdBuffer
  3
ObjectDBX Classes
 90
        0
280
     0
281
     0
  0
CLASS
  1
ACMSTANDARDJIS
  2
AcmStandardJIS
  3
"Amdt_StdImp|Product Description: AutoCAD Mechanical 2004 DX|Company: Autodesk"
 90
        0
280
     1
281
     0
  0
CLASS
  1
ACMSURFSTANDARDJIS
  2
AcmSurfTextStdJIS
  3
"Amdt_StdImp|Product Description: AutoCAD Mechanical 2004 DX|Company: Autodesk"
 90
        0
280
     1
281
     0
  0
CLASS
  1
ACMFCFSTANDARDJIS
  2
AcmFCFStdJIS
  3
"Amdt_StdImp|Product Description: AutoCAD Mechanical 2004 DX|Company: Autodesk"
 90
        0
280
     1
281
     0
  0
CLASS
  1
ACMWELDSTANDARDJIS
  2
AcmWeldingStdJIS
  3
"Amdt_StdImp|Product Description: AutoCAD Mechanical 2004 DX|Company: Autodesk"
 90
        0
280
     1
281
     0
  0
CLASS
  1
ACMIDSTANDARDJIS
  2
AcmIdStdJIS
  3
"Amdt_StdImp|Product Description: AutoCAD Mechanical 2004 DX|Company: Autodesk"
 90
        0
280
     1
281
     0
  0
CLASS
  1
ACMDATUMSTANDARDJIS
  2
AcmDatumStdJIS
  3
"Amdt_StdImp|Product Description: AutoCAD Mechanical 2004 DX|Company: Autodesk"
 90
        0
280
     1
281
     0
  0
CLASS
  1
ACMBOMSTANDARDJIS
  2
AcmBOMStdJIS
  3
"Amdt_StdImp|Product Description: AutoCAD Mechanical 2004 DX|Company: Autodesk"
 90
        0
280
     1
281
     0
  0
CLASS
  1
AMDTNOTE
  2
AmdtNote
  3
"AcmSymBB|Product Description: AutoCAD Mechanical 2004 DX|Company: Autodesk"
 90
     1023
280
     1
281
     1
  0
CLASS
  1
TABLESTYLE
  2
AcDbTableStyle
  3
ObjectDBX Classes
 90
     2047
280
     0
281
     0
  0
CLASS
  1
ACGREFMASTER
  2
AcGrefMaster
  3
AcAttribServices
 90
        0
280
     1
281
     0
  0
CLASS
  1
AM_DRAWING_MGR
  2
AcDmDwgMgr
  3
AcMechDwgViewMgmt
 90
        0
280
     1
281
     0
  0
CLASS
  1
AM_DWG_DOCUMENT
  2
AcDmDwgDocument
  3
AcMechDwgViewMgmt
 90
        0
280
     1
281
     0
  0
CLASS
  1
AM_DWG_SHEET
  2
AcDmSheet
  3
AcMechDwgViewMgmt
 90
        0
280
     1
281
     0
  0
CLASS
  1
AM_VIEWDIMPARMAP
  2
AcDmViewDimParMap
  3
AcMechDwgViewMgmt
 90
        0
280
     1
281
     0
  0
CLASS
  1
AM_DWGMGR_NAME
  2
AcDmDwgMgrName
  3
AcMechDwgViewMgmt
 90
        0
280
     1
281
     0
  0
CLASS
  1
ACGREFACADMASTER
  2
AcGrefacadMaster
  3
AcGrefServices
 90
        0
280
     1
281
     0
  0
CLASS
  1
AMDTMENUSTATEMGR
  2
AmdtMenuStateMgr
  3
McadcomServices
 90
        0
280
     1
281
     0
  0
CLASS
  1
AMDTMCOMMENUSTATE
  2
AmdtMcomMenuState
  3
McadcomServices
 90
        0
280
     1
281
     0
  0
CLASS
  1
AMIMASTER
  2
AmiMaster
  3
AmiServices
 90
        0
280
     1
281
     0
  0
CLASS
  1
MAPIAMMOUDLE
  2
MApiAmModule
  3
MApiAmServices
 90
        0
280
     1
281
     0
  0
CLASS
  1
AMDTADMENUSTATE
  2
AmdtAdMenuState
  3
DesignerServices
 90
        0
280
     1
281
     0
  0
CLASS
  1
ADAPPL
  2
AcAdAppl
  3
DesignerServices
 90
        0
280
     1
281
     0
  0
CLASS
  1
DEPMGR
  2
AcAdDepMgr
  3
DesignerServices
 90
        0
280
     1
281
     0
  0
CLASS
  1
PARAMMGR
  2
AcAdParamMgr
  3
DesignerServices
 90
        0
280
     1
281
     0
  0
CLASS
  1
PARAMSCOPE
  2
AcAdParamScope
  3
DesignerServices
 90
        0
280
     1
281
     0
  0
CLASS
  1
NAMEDAPPL
  2
AcAdNamedAppl
  3
DesignerServices
 90
        0
280
     1
281
     0
  0
CLASS
  1
AMDTDMMENUSTATE
  2
AmdtDmMenuState
  3
AcMechDwgViewMgmt
 90
        0
280
     1
281
     0
  0
CLASS
  1
AMDTAMMENUSTATE
  2
AmdtAmMenuState
  3
DesignerAssemblies
 90
        0
280
     1
281
     0
  0
CLASS
  1
ACAMPROJECT
  2
AcAmProject
  3
DesignerAssemblies
 90
        0
280
     1
281
     0
  0
CLASS
  1
ACAMGRCOMPDEF
  2
AcAmGrCompDef
  3
DesignerAssemblies
 90
        0
280
     1
281
     0
  0
CLASS
  1
ACCMCONTEXT
  2
AcCmContext
  3
DesignerAssemblies
 90
        0
280
     1
281
     0
  0
CLASS
  1
ACAMCOMPDEF
  2
AcAmCompDef
  3
DesignerAssemblies
 90
        0
280
     1
281
     0
  0
CLASS
  1
ACAMCOMPDEFMGR
  2
AcAmCompDefMgr
  3
DesignerAssemblies
 90
        0
280
     1
281
     0
  0
CLASS
  1
AMCONTEXTMGR
  2
AcAmContextMgr
  3
DesignerAssemblies
 90
        0
280
     1
281
     0
  0
CLASS
  1
ACAMCONTEXTMODELER
  2
AcAmContextModeler
  3
DesignerAssemblies
 90
        0
280
     1
281
     0
  0
CLASS
  1
ACAMGTITLESTD
  2
AcAmgTitleStd
  3
"TITLEAPP"
 90
        0
280
     1
281
     0
  0
CLASS
  1
ACMDETAILSTANDARDJIS
  2
AmdtDetailSymStdJIS
  3
"Amdt_StdImp|Product Description: AutoCAD Mechanical 2004 DX|Company: Autodesk"
 90
        0
280
     1
281
     0
  0
CLASS
  1
ACMSECTIONSTANDARDJIS
  2
AmdtSectionSymStdJIS
  3
"Amdt_StdImp|Product Description: AutoCAD Mechanical 2004 DX|Company: Autodesk"
 90
        0
280
     1
281
     0
  0
CLASS
  1
ACMCENTERLINESTANDARDJIS
  2
AmdtCenterLineStdJIS
  3
"Amdt_StdImp|Product Description: AutoCAD Mechanical 2004 DX|Company: Autodesk"
 90
        0
280
     1
281
     0
  0
CLASS
  1
ACMTHREADLINESTANDARDJIS
  2
AmdtThreadLineStdJIS
  3
"Amdt_StdImp|Product Description: AutoCAD Mechanical 2004 DX|Company: Autodesk"
 90
        0
280
     1
281
     0
  0
CLASS
  1
ACMNOTESTANDARDJIS
  2
AmdtNoteStdJIS
  3
"Amdt_StdImp|Product Description: AutoCAD Mechanical 2004 DX|Company: Autodesk"
 90
        0
280
     1
281
     0
  0
CLASS
  1
AMDTNOTETEMPLATEDB
  2
AmdtNoteTemplateDB
  3
AMDT_STDIMP_MODULE_NAME
 90
        0
280
     1
281
     0
  0
CLASS
  1
ACAMGLAYSTD
  2
AcAmgLayStd
  3
"AcAmgLayStd|Product Description: AutoCAD Mechanical 2000|Company: Autodesk"
 90
        0
280
     1
281
     0
  0
CLASS
  1
ACAMGDIMSTD
  2
AcAmgDimStd
  3
"AcAmgDimStd|Product Description: AutoCAD Mechanical 2000|Company: Autodesk"
 90
        0
280
     1
281
     0
  0
CLASS
  1
ACAMGHOLECHARTSTDJIS
  2
AcAmgHoleChartStdJIS
  3
ACMSYMBB_MODULE_NAME
 90
        0
280
     1
281
     0
  0
CLASS
  1
CATALOGSTATE
  2
AcAmCatalogState
  3
DesignerAssemblies
 90
        0
280
     1
281
     0
  0
CLASS
  1
ACAMGRCOMPDEFSET
  2
AcAmGrCompDefSet
  3
DesignerAssemblies
 90
        0
280
     1
281
     0
  0
CLASS
  1
AMDTBROWSERDBTAB
  2
AmdtBrowserDbTab
  3
McadcomServices
 90
        0
280
     1
281
     0
  0
CLASS
  1
CBROWSERAPPOBJECT
  2
CBrowserAppObject
  3
McadcomServices
 90
        0
280
     1
281
     0
  0
CLASS
  1
DM_PLACEHOLDER
  2
AcDmSelsetPlaceholder
  3
AcMechDwgViewMgmt
 90
        0
280
     1
281
     0
  0
CLASS
  1
SORTENTSTABLE
  2
AcDbSortentsTable
  3
ObjectDBX Classes
 90
        0
280
     0
281
     0
  0
ENDSEC
  0
SECTION
  2
TABLES
  0
TABLE
  2
VPORT
  5
8
330
0
100
AcDbSymbolTable
 70
    13
  0
VPORT
  5
1D7E9
330
8
100
AcDbSymbolTableRecord
100
AcDbViewportTableRecord
  2
*Active
 70
     0
 10
0.0
 20
0.0
 11
1.0
 21
1.0
 12
40.61921636733769
 22
-30.39705530645824
 13
0.0
 23
0.0
 14
2.5
 24
2.5
 15
10.0
 25
10.0
 16
0.0
 26
0.0
 36
1.0
 17
0.0
 27
0.0
 37
0.0
 40
194.9789858136587
 41
1.697058823529412
 42
50.0
 43
0.0
 44
0.0
 50
0.0
 51
0.0
 71
     0
 72
  2000
 73
     1
 74
     3
 75
     0
 76
     0
 77
     0
 78
     0
281
     0
 65
     1
110
0.0
120
0.0
130
0.0
111
1.0
121
0.0
131
0.0
112
0.0
122
1.0
132
0.0
 79
     0
146
0.0
  0
ENDTAB
  0
TABLE
  2
LTYPE
  5
5
330
0
100
AcDbSymbolTable
 70
    13
  0
LTYPE
  5
14
330
5
100
AcDbSymbolTableRecord
100
AcDbLinetypeTableRecord
  2
ByBlock
 70
     0
  3

 72
    65
 73
     0
 40
0.0
  0
LTYPE
  5
15
330
5
100
AcDbSymbolTableRecord
100
AcDbLinetypeTableRecord
  2
ByLayer
 70
     0
  3

 72
    65
 73
     0
 40
0.0
  0
LTYPE
  5
16
330
5
100
AcDbSymbolTableRecord
100
AcDbLinetypeTableRecord
  2
Continuous
 70
     0
  3
Solid line
 72
    65
 73
     0
 40
0.0
  0
LTYPE
  5
43
330
5
100
AcDbSymbolTableRecord
100
AcDbLinetypeTableRecord
  2
AM_ISO02W050
 70
     0
  3
__ __ __ __ __ __ __ __ __ __ __ __ __ __ __
 72
    65
 73
     2
 40
7.5
 49
6.0
 74
     0
 49
-1.5
 74
     0
  0
LTYPE
  5
44
330
5
100
AcDbSymbolTableRecord
100
AcDbLinetypeTableRecord
  2
AM_ISO08W050
 70
     0
  3
____ . ____ . ____ . ____ . ____ . ____ . ____
 72
    65
 73
     4
 40
18.0
 49
12.0
 74
     0
 49
-1.5
 74
     0
 49
3.0
 74
     0
 49
-1.5
 74
     0
  0
LTYPE
  5
45
330
5
100
AcDbSymbolTableRecord
100
AcDbLinetypeTableRecord
  2
AM_ISO09W050
 70
     0
  3
_____ . . _____ . . _____ . . ____ .. ____
 72
    65
 73
     6
 40
22.5
 49
12.0
 74
     0
 49
-1.5
 74
     0
 49
3.0
 74
     0
 49
-1.5
 74
     0
 49
3.0
 74
     0
 49
-1.5
 74
     0
  0
LTYPE
  5
46
330
5
100
AcDbSymbolTableRecord
100
AcDbLinetypeTableRecord
  2
Amconstr
 70
     0
  3
_______________________
 72
    65
 73
     2
 40
9999.0
 49
9999.0
 74
     0
 49
0.0
 74
     0
  0
LTYPE
  5
47
330
5
100
AcDbSymbolTableRecord
100
AcDbLinetypeTableRecord
  2
AM_ISO02W050x2
 70
     0
  3
 _ _ _ _ _ _ _ _ _ _ _ _
 72
    65
 73
     2
 40
3.75
 49
3.0
 74
     0
 49
-0.75
 74
     0
  0
LTYPE
  5
48
330
5
100
AcDbSymbolTableRecord
100
AcDbLinetypeTableRecord
  2
AM_ISO08W050x2
 70
     0
  3
__ . __ . __ . __ . __ . __
 72
    65
 73
     4
 40
9.0
 49
6.0
 74
     0
 49
-0.75
 74
     0
 49
1.5
 74
     0
 49
-0.75
 74
     0
  0
LTYPE
  5
4B
330
5
100
AcDbSymbolTableRecord
100
AcDbLinetypeTableRecord
  2
Amzigzag
 70
     0
  3
/\/-/\/-/\/-/\/-/\/-/\/
 72
    65
 73
     2
 40
11.0001
 49
0.0001
 74
     4
 75
   135
340
4A
 46
0.04
 50
0.0
 44
0.0
 45
0.0
 49
-11.0
 74
     0
  0
LTYPE
  5
188
330
5
100
AcDbSymbolTableRecord
100
AcDbLinetypeTableRecord
  2
ACJISTGB
 70
     0
  3
__ . . __ . .
 72
    65
 73
     6
 40
9.0
 49
4.0
 74
     0
 49
-1.0
 74
     0
 49
1.0
 74
     0
 49
-1.0
 74
     0
 49
1.0
 74
     0
 49
-1.0
 74
     0
  0
LTYPE
  5
189
330
5
100
AcDbSymbolTableRecord
100
AcDbLinetypeTableRecord
  2
ACJISTGL
 70
     0
  3
_ _ _ _ _
 72
    65
 73
     2
 40
3.0
 49
2.0
 74
     0
 49
-1.0
 74
     0
  0
LTYPE
  5
652
330
5
100
AcDbSymbolTableRecord
100
AcDbLinetypeTableRecord
  2
CENTER
 70
     0
  3
____ _ ____ _ ____ _ ____ _ ____ _ ____ _ ____
 72
    65
 73
     4
 40
17.5
 49
13.0
 74
     0
 49
-1.5
 74
     0
 49
1.5
 74
     0
 49
-1.5
 74
     0
  0
LTYPE
  5
12AB
330
5
100
AcDbSymbolTableRecord
100
AcDbLinetypeTableRecord
  2
HIDDEN
 70
     0
  3
Hidden __ __ __ __ __ __ __ __ __ __ __ __ __ _
 72
    65
 73
     2
 40
0.375
 49
0.25
 74
     0
 49
-0.125
 74
     0
  0
LTYPE
  5
12AC
330
5
100
AcDbSymbolTableRecord
100
AcDbLinetypeTableRecord
  2
PHANTOM2
 70
     0
  3
Phantom (.5x) ___ _ _ ___ _ _ ___ _ _ ___ _ _
 72
    65
 73
     6
 40
1.25
 49
0.625
 74
     0
 49
-0.125
 74
     0
 49
0.125
 74
     0
 49
-0.125
 74
     0
 49
0.125
 74
     0
 49
-0.125
 74
     0
  0
ENDTAB
  0
TABLE
  2
LAYER
  5
2
102
{ACAD_XDICTIONARY
360
1D6A9
102
}
330
0
100
AcDbSymbolTable
 70
     7
  0
LAYER
  5
10
330
2
100
AcDbSymbolTableRecord
100
AcDbLayerTableRecord
  2
0
 70
     0
 62
     7
  6
Continuous
370
    -3
390
F
  0
LAYER
  5
7D
330
2
100
AcDbSymbolTableRecord
100
AcDbLayerTableRecord
  2
AM_5
 70
     0
 62
     3
  6
Continuous
370
    13
390
F
  0
LAYER
  5
7F
330
2
100
AcDbSymbolTableRecord
100
AcDbLayerTableRecord
  2
Defpoints
 70
     0
 62
     7
  6
Continuous
290
     0
370
    -3
390
F
  0
LAYER
  5
12B1
330
2
100
AcDbSymbolTableRecord
100
AcDbLayerTableRecord
  2
AM_0
 70
     0
 62
     7
  6
Continuous
370
    30
390
F
  0
LAYER
  5
1AFF
330
2
100
AcDbSymbolTableRecord
100
AcDbLayerTableRecord
  2
AM_7
 70
     0
 62
     4
  6
AM_ISO08W050
370
    13
390
F
  0
LAYER
  5
2953
330
2
100
AcDbSymbolTableRecord
100
AcDbLayerTableRecord
  2
AM_6
 70
     0
 62
     2
  6
Continuous
370
    30
390
F
  0
ENDTAB
  0
TABLE
  2
STYLE
  5
3
330
0
100
AcDbSymbolTable
 70
     5
  0
STYLE
  5
11
330
3
100
AcDbSymbolTableRecord
100
AcDbTextStyleTableRecord
  2
STANDARD
 70
     0
 40
0.0
 41
1.0
 50
0.0
 71
     0
 42
4.0
  3
ISOCP.SHX
  4
EXTFONT.SHX
  0
STYLE
  5
4A
330
3
100
AcDbSymbolTableRecord
100
AcDbTextStyleTableRecord
  2

 70
     1
 40
0.0
 41
1.0
 50
0.0
 71
     0
 42
2.5
  3
ltypeshp.shx
  4

  0
STYLE
  5
180
330
3
100
AcDbSymbolTableRecord
100
AcDbTextStyleTableRecord
  2
ACJISTS
 70
     0
 40
1.0
 41
1.0
 50
0.0
 71
     0
 42
2.5
  3
isocp.shx
  4
bigfont.shx
  0
STYLE
  5
187
330
3
100
AcDbSymbolTableRecord
100
AcDbTextStyleTableRecord
  2
ACJISGDT
 70
     0
 40
0.0
 41
1.0
 50
0.0
 71
     0
 42
2.5
  3
amgdt.shx
  4

  0
STYLE
  5
1D6A8
330
3
100
AcDbSymbolTableRecord
100
AcDbTextStyleTableRecord
  2
ACISOTS
 70
     0
 40
1.0
 41
1.0
 50
0.0
 71
     0
 42
1.0
  3
isocp.shx
  4
extfont.shx
  0
ENDTAB
  0
TABLE
  2
VIEW
  5
6
330
0
100
AcDbSymbolTable
 70
     6
  0
VIEW
  5
A30
330
6
100
AcDbSymbolTableRecord
100
AcDbViewTableRecord
  2
AM_VIEW1
 70
     0
 40
148.5
 10
107.8088054187192
 20
222.75
 41
215.6176108374384
 11
0.0
 21
0.0
 31
1.0
 12
0.0
 22
0.0
 32
0.0
 42
50.0
 43
0.0
 44
0.0
 50
0.0
 71
     0
281
     0
 72
     0
  0
VIEW
  5
A31
330
6
100
AcDbSymbolTableRecord
100
AcDbViewTableRecord
  2
AM_VIEW2
 70
     0
 40
148.5
 10
312.1911945812808
 20
222.75
 41
215.6176108374384
 11
0.0
 21
0.0
 31
1.0
 12
0.0
 22
0.0
 32
0.0
 42
50.0
 43
0.0
 44
0.0
 50
0.0
 71
     0
281
     0
 72
     0
  0
VIEW
  5
A32
330
6
100
AcDbSymbolTableRecord
100
AcDbViewTableRecord
  2
AM_VIEW3
 70
     0
 40
148.5
 10
107.8088054187192
 20
74.25
 41
215.6176108374384
 11
0.0
 21
0.0
 31
1.0
 12
0.0
 22
0.0
 32
0.0
 42
50.0
 43
0.0
 44
0.0
 50
0.0
 71
     0
281
     0
 72
     0
  0
VIEW
  5
A33
330
6
100
AcDbSymbolTableRecord
100
AcDbViewTableRecord
  2
AM_VIEW4
 70
     0
 40
148.5
 10
312.1911945812808
 20
74.25
 41
215.6176108374384
 11
0.0
 21
0.0
 31
1.0
 12
0.0
 22
0.0
 32
0.0
 42
50.0
 43
0.0
 44
0.0
 50
0.0
 71
     0
281
     0
 72
     0
  0
VIEW
  5
A34
330
6
100
AcDbSymbolTableRecord
100
AcDbViewTableRecord
  2
AM_VIEW5
 70
     0
 40
148.5
 10
210.0
 20
148.5
 41
215.6176108374384
 11
0.0
 21
0.0
 31
1.0
 12
0.0
 22
0.0
 32
0.0
 42
50.0
 43
0.0
 44
0.0
 50
0.0
 71
     0
281
     0
 72
     0
  0
VIEW
  5
A35
330
6
100
AcDbSymbolTableRecord
100
AcDbViewTableRecord
  2
AM_VIEW6
 70
     0
 40
296.99703
 10
210.0
 20
148.5
 41
431.2309093226602
 11
0.0
 21
0.0
 31
1.0
 12
0.0
 22
0.0
 32
0.0
 42
50.0
 43
0.0
 44
0.0
 50
0.0
 71
     0
281
     0
 72
     0
  0
ENDTAB
  0
TABLE
  2
UCS
  5
7
330
0
100
AcDbSymbolTable
 70
     0
  0
ENDTAB
  0
TABLE
  2
APPID
  5
9
330
0
100
AcDbSymbolTable
 70
    39
  0
APPID
  5
12
330
9
100
AcDbSymbolTableRecord
100
AcDbRegAppTableRecord
  2
ACAD
 70
     0
  0
APPID
  5
2C
330
9
100
AcDbSymbolTableRecord
100
AcDbRegAppTableRecord
  2
MCAD_NO_VIS
 70
     0
  0
APPID
  5
2D
330
9
100
AcDbSymbolTableRecord
100
AcDbRegAppTableRecord
  2
ACAD_TEMP_GRAPHIC
 70
     0
  0
APPID
  5
B9
330
9
100
AcDbSymbolTableRecord
100
AcDbRegAppTableRecord
  2
GENIUS_GENDTOL_13
 70
     0
  0
APPID
  5
359
330
9
100
AcDbSymbolTableRecord
100
AcDbRegAppTableRecord
  2
GENIUS_GENREC_14
 70
     0
  0
APPID
  5
35A
330
9
100
AcDbSymbolTableRecord
100
AcDbRegAppTableRecord
  2
GENIUS_GENODEF_13
 70
     0
  0
APPID
  5
35B
330
9
100
AcDbSymbolTableRecord
100
AcDbRegAppTableRecord
  2
GENIUS_GENOBJ-N-REC_13
 70
     0
  0
APPID
  5
667
330
9
100
AcDbSymbolTableRecord
100
AcDbRegAppTableRecord
  2
GENIUS_GENCFG_13
 70
     0
  0
APPID
  5
668
330
9
100
AcDbSymbolTableRecord
100
AcDbRegAppTableRecord
  2
GENIUS_GENCFG0_13
 70
     0
  0
APPID
  5
669
330
9
100
AcDbSymbolTableRecord
100
AcDbRegAppTableRecord
  2
GENIUS_GENCFG1_13
 70
     0
  0
APPID
  5
66A
330
9
100
AcDbSymbolTableRecord
100
AcDbRegAppTableRecord
  2
GENIUS_GENCFG2_13
 70
     0
  0
APPID
  5
66B
330
9
100
AcDbSymbolTableRecord
100
AcDbRegAppTableRecord
  2
GENIUS_GENCFG3_13
 70
     0
  0
APPID
  5
66C
330
9
100
AcDbSymbolTableRecord
100
AcDbRegAppTableRecord
  2
GENIUS_GENCFG4_13
 70
     0
  0
APPID
  5
A76
330
9
100
AcDbSymbolTableRecord
100
AcDbRegAppTableRecord
  2
GENIUS_GENBLLY_14
 70
     0
  0
APPID
  5
A77
330
9
100
AcDbSymbolTableRecord
100
AcDbRegAppTableRecord
  2
GENIUS_GENOBJ-N-CEN_13
 70
     0
  0
APPID
  5
A83
330
9
100
AcDbSymbolTableRecord
100
AcDbRegAppTableRecord
  2
GENIUS_GENTRA_14
 70
     0
  0
APPID
  5
A8D
330
9
100
AcDbSymbolTableRecord
100
AcDbRegAppTableRecord
  2
GENIUS_GENOBJ-N-TIT_13
 70
     0
  0
APPID
  5
A8E
330
9
100
AcDbSymbolTableRecord
100
AcDbRegAppTableRecord
  2
GENIUS_GENTITLE_13
 70
     0
  0
APPID
  5
A8F
330
9
100
AcDbSymbolTableRecord
100
AcDbRegAppTableRecord
  2
GENIUS_GENOENT_13
 70
     0
  0
APPID
  5
A90
330
9
100
AcDbSymbolTableRecord
100
AcDbRegAppTableRecord
  2
GENIUS_GENOREF_13
 70
     0
  0
APPID
  5
A91
330
9
100
AcDbSymbolTableRecord
100
AcDbRegAppTableRecord
  2
GENIUS_GENOLIS_13
 70
     0
  0
APPID
  5
A92
330
9
100
AcDbSymbolTableRecord
100
AcDbRegAppTableRecord
  2
GENIUS_GENZVEED_13
 70
     0
  0
APPID
  5
A93
330
9
100
AcDbSymbolTableRecord
100
AcDbRegAppTableRecord
  2
GENIUS_GENSCREG_15
 70
     0
  0
APPID
  5
A94
330
9
100
AcDbSymbolTableRecord
100
AcDbRegAppTableRecord
  2
GENIUS_GENOBJ-N-SDF_13
 70
     0
  0
APPID
  5
12B5
330
9
100
AcDbSymbolTableRecord
100
AcDbRegAppTableRecord
  2
GENIUS_GENOBJ-N-RSBK_13
 70
     0
  0
APPID
  5
12B6
330
9
100
AcDbSymbolTableRecord
100
AcDbRegAppTableRecord
  2
GENIUS_GENOBJ-N-LIB_13
 70
     0
  0
APPID
  5
12B7
330
9
100
AcDbSymbolTableRecord
100
AcDbRegAppTableRecord
  2
GENIUS_GENSCALE_13
 70
     0
  0
APPID
  5
12B8
330
9
100
AcDbSymbolTableRecord
100
AcDbRegAppTableRecord
  2
GENIUS_GENOBJ-N-HTC_13
 70
     0
  0
APPID
  5
12B9
330
9
100
AcDbSymbolTableRecord
100
AcDbRegAppTableRecord
  2
GENIUS_GENHATCH_13
 70
     0
  0
APPID
  5
1687
330
9
100
AcDbSymbolTableRecord
100
AcDbRegAppTableRecord
  2
BASE_TYPE
 70
     0
  0
APPID
  5
1ABF
330
9
100
AcDbSymbolTableRecord
100
AcDbRegAppTableRecord
  2
GENIUS_GENFIL_13
 70
     0
  0
APPID
  5
1AC0
330
9
100
AcDbSymbolTableRecord
100
AcDbRegAppTableRecord
  2
GENIUS_GENOBJ-N-CHA_13
 70
     0
  0
APPID
  5
1AE7
330
9
100
AcDbSymbolTableRecord
100
AcDbRegAppTableRecord
  2
GENIUS_GENOBJ-N-FIL_13
 70
     0
  0
APPID
  5
20E9
330
9
100
AcDbSymbolTableRecord
100
AcDbRegAppTableRecord
  2
GENIUS_GENDIMSH_14
 70
     0
  0
APPID
  5
1D494
330
9
100
AcDbSymbolTableRecord
100
AcDbRegAppTableRecord
  2
AD_DRAW
 70
     0
  0
APPID
  5
1D497
330
9
100
AcDbSymbolTableRecord
100
AcDbRegAppTableRecord
  2
ACATTRIBSERVICES
 70
     0
  0
APPID
  5
1D4B5
330
9
100
AcDbSymbolTableRecord
100
AcDbRegAppTableRecord
  2
DESIGNERASSEMBLIES
 70
     0
  0
APPID
  5
1D4C8
330
9
100
AcDbSymbolTableRecord
100
AcDbRegAppTableRecord
  2
ACADM_DIM_EDIT
 70
     0
  0
APPID
  5
1D4C9
330
9
100
AcDbSymbolTableRecord
100
AcDbRegAppTableRecord
  2
AMDT_DM_ADJ
 70
     0
  0
ENDTAB
  0
TABLE
  2
DIMSTYLE
  5
A
330
0
100
AcDbSymbolTable
 70
    10
100
AcDbDimStyleTable
  0
DIMSTYLE
105
58
330
A
100
AcDbSymbolTableRecord
100
AcDbDimStyleTableRecord
  2
AM_JIS
 70
     0
  4
"
 41
2.5
 42
0.0
 43
10.0
 44
1.0
 47
0.1
 48
0.1000000001
 73
     0
 74
     0
 77
     3
 78
     1
 79
     2
140
3.8
141
0.0
143
0.0393701
146
0.71
147
1.5
172
     1
176
   256
177
   256
178
     2
179
     2
271
     3
272
     3
275
     1
283
     0
284
     8
340
11
341
59
342
59
371
    -1
372
    -1
  0
DIMSTYLE
105
5F
102
{ACAD_REACTORS
330
1B220
330
1C17A
102
}
330
A
100
AcDbSymbolTableRecord
100
AcDbDimStyleTableRecord
  2
AM_JIS$3
 70
     0
  4
"
 41
2.5
 42
0.0
 43
10.0
 44
1.0
 47
0.1
 48
0.1000000001
 73
     0
 77
     3
 78
     1
 79
     2
140
3.8
141
0.0
143
0.0393701
146
0.71
147
1.5
172
     1
176
   256
177
   256
178
     2
179
     2
271
     3
272
     3
275
     1
283
     0
284
     8
288
     1
289
     0
340
11
341
59
342
59
371
    -1
372
    -1
  0
DIMSTYLE
105
60
330
A
100
AcDbSymbolTableRecord
100
AcDbDimStyleTableRecord
  2
AM_JIS$4
 70
     0
  4
"
 41
2.5
 42
0.0
 43
10.0
 44
1.0
 47
0.1
 48
0.1000000001
 73
     0
 77
     3
 78
     1
 79
     2
140
3.8
141
0.0
143
0.0393701
146
0.71
147
1.5
172
     1
176
   256
177
   256
178
     2
179
     2
271
     3
272
     3
275
     1
283
     0
284
     8
288
     1
289
     0
340
11
341
59
342
59
371
    -1
372
    -1
  0
DIMSTYLE
105
61
330
A
100
AcDbSymbolTableRecord
100
AcDbDimStyleTableRecord
  2
AM_JIS$6
 70
     0
  4
"
 41
2.5
 42
0.0
 43
10.0
 44
1.0
 47
0.1
 48
0.1000000001
 73
     0
 74
     0
 78
     1
 79
     2
140
3.8
141
0.0
143
0.0393701
146
0.71
147
1.5
172
     1
176
   256
177
   256
178
     2
179
     2
271
     3
272
     3
275
     1
283
     0
284
     8
340
11
341
59
342
59
371
    -1
372
    -1
  0
DIMSTYLE
105
62
330
A
100
AcDbSymbolTableRecord
100
AcDbDimStyleTableRecord
  2
AM_JIS$7
 70
     0
  4
"
 41
2.5
 42
0.0
 43
10.0
 44
1.0
 47
0.1
 48
0.1000000001
 73
     0
 74
     0
 77
     3
 78
     1
 79
     2
140
5.0
141
0.0
143
0.0393701
146
0.71
147
1.5
172
     1
176
   256
177
   256
178
     2
179
     2
271
     3
272
     3
275
     1
283
     0
284
     8
340
11
341
59
342
59
371
    -1
372
    -1
  0
DIMSTYLE
105
63
330
A
100
AcDbSymbolTableRecord
100
AcDbDimStyleTableRecord
  2
AM_JIS$SF
 70
     0
  4
"
 41
2.5
 42
1.0
 43
10.0
 44
1.0
 47
0.1
 48
0.1
 73
     0
 74
     0
 75
     1
 76
     1
 77
     3
 78
     8
 79
     2
140
3.5
141
0.0
143
0.0393701
146
0.71
147
1.5
176
   256
177
   256
178
     2
271
     2
272
     3
274
     4
340
11
341
59
342
59
343
59
344
59
371
    -1
372
    -1
  0
DIMSTYLE
105
68
330
A
100
AcDbSymbolTableRecord
100
AcDbDimStyleTableRecord
  2
AM_JIS$SH
 70
     0
  4
"
 41
2.5
 42
1.0
 43
10.0
 44
1.0
 47
0.1
 48
0.1
 73
     0
 74
     0
 75
     1
 76
     1
 77
     3
 78
     8
 79
     2
140
3.5
141
0.0
143
0.0393701
144
2.0
146
0.71
147
1.5
173
     1
176
   256
177
   256
178
     2
271
     2
272
     3
274
     4
340
11
341
59
342
59
343
64
344
59
371
    -1
372
    -1
  0
DIMSTYLE
105
65F
330
A
100
AcDbSymbolTableRecord
100
AcDbDimStyleTableRecord
  2
STANDARD
 70
     0
340
11
  0
DIMSTYLE
105
1B97
102
{ACAD_REACTORS
330
FED6
330
1C17F
330
1D5EA
330
1D62A
102
}
330
A
100
AcDbSymbolTableRecord
100
AcDbDimStyleTableRecord
  2
AM_JIS$0
 70
     0
  4
"
 41
2.5
 42
0.0
 43
10.0
 44
1.0
 47
0.1
 48
0.1000000001
 73
     0
 74
     0
 77
     3
 78
     1
 79
     2
140
3.8
141
0.0
143
0.0393701
146
0.71
147
1.5
172
     1
176
     3
177
     3
178
     2
271
     3
272
     3
275
     1
283
     0
284
     8
289
     0
340
11
341
59
342
59
371
    13
372
    13
  0
DIMSTYLE
105
1B98
102
{ACAD_REACTORS
330
1D5A2
330
1D65B
102
}
330
A
100
AcDbSymbolTableRecord
100
AcDbDimStyleTableRecord
  2
AM_JIS$2
 70
     0
  4
"
 41
2.5
 42
0.0
 43
10.0
 44
1.0
 47
0.1
 48
0.1000000001
 73
     0
 74
     0
 77
     3
 78
     1
 79
     2
140
3.8
141
0.0
143
0.0393701
146
0.71
147
1.5
172
     1
176
     3
177
     3
178
     2
271
     3
272
     3
275
     1
283
     0
284
     8
289
     0
340
11
341
59
342
59
371
    13
372
    13
  0
ENDTAB
  0
TABLE
  2
BLOCK_RECORD
  5
1
330
0
100
AcDbSymbolTable
 70
    12
  0
BLOCK_RECORD
  5
1F
102
{ACAD_XDICTIONARY
360
165
102
}
330
1
100
AcDbSymbolTableRecord
100
AcDbBlockTableRecord
  2
*Model_Space
340
22
  0
BLOCK_RECORD
  5
1B
330
1
100
AcDbSymbolTableRecord
100
AcDbBlockTableRecord
  2
*Paper_Space
340
1E
  0
BLOCK_RECORD
  5
23
330
1
100
AcDbSymbolTableRecord
100
AcDbBlockTableRecord
  2
*Paper_Space0
340
26
  0
BLOCK_RECORD
  5
59
330
1
100
AcDbSymbolTableRecord
100
AcDbBlockTableRecord
  2
_Open30
340
0
102
{BLKREFS
331
1D7E0
331
1D7E1
331
1D772
331
1D773
331
1D6F4
331
1D6F5
331
1D7C2
331
1D7C3
331
1D706
331
1D707
331
1D710
331
1D711
331
1D719
331
1D71A
331
1D722
331
1D723
102
}
  0
BLOCK_RECORD
  5
64
330
1
100
AcDbSymbolTableRecord
100
AcDbBlockTableRecord
  2
GENAXEH
340
0
  0
BLOCK_RECORD
  5
FED7
330
1
100
AcDbSymbolTableRecord
100
AcDbBlockTableRecord
  2
*D3
340
0
  0
BLOCK_RECORD
  5
1B221
330
1
100
AcDbSymbolTableRecord
100
AcDbBlockTableRecord
  2
*D4
340
0
  0
BLOCK_RECORD
  5
1C1AE
330
1
100
AcDbSymbolTableRecord
100
AcDbBlockTableRecord
  2
*D5
340
0
  0
BLOCK_RECORD
  5
1C1C7
330
1
100
AcDbSymbolTableRecord
100
AcDbBlockTableRecord
  2
*D6
340
0
  0
BLOCK_RECORD
  5
1D4AC
330
1
100
AcDbSymbolTableRecord
100
AcDbBlockTableRecord
  2
*U7
340
0
  0
BLOCK_RECORD
  5
1D5A3
330
1
100
AcDbSymbolTableRecord
100
AcDbBlockTableRecord
  2
*D8
340
0
  0
BLOCK_RECORD
  5
1D5EB
330
1
100
AcDbSymbolTableRecord
100
AcDbBlockTableRecord
  2
*D9
340
0
  0
BLOCK_RECORD
  5
1D62B
330
1
100
AcDbSymbolTableRecord
100
AcDbBlockTableRecord
  2
*D10
340
0
  0
BLOCK_RECORD
  5
1D65C
330
1
100
AcDbSymbolTableRecord
100
AcDbBlockTableRecord
  2
*D11
340
0
  0
ENDTAB
  0
ENDSEC
  0
SECTION
  2
BLOCKS
  0
BLOCK
  5
20
330
1F
100
AcDbEntity
  8
0
100
AcDbBlockBegin
  2
*Model_Space
 70
     0
 71
     0
 10
0.0
 20
0.0
 30
0.0
  3
*Model_Space
  1

  0
ENDBLK
  5
21
330
1F
100
AcDbEntity
  8
0
100
AcDbBlockEnd
  0
BLOCK
  5
1C
330
1B
100
AcDbEntity
 67
     1
  8
0
100
AcDbBlockBegin
  2
*Paper_Space
 70
     0
 71
     0
 10
0.0
 20
0.0
 30
0.0
  3
*Paper_Space
  1

  0
ENDBLK
  5
1D
330
1B
100
AcDbEntity
 67
     1
  8
0
100
AcDbBlockEnd
  0
BLOCK
  5
24
330
23
100
AcDbEntity
  8
0
100
AcDbBlockBegin
  2
*Paper_Space0
 70
     0
 71
     0
 10
0.0
 20
0.0
 30
0.0
  3
*Paper_Space0
  1

  0
ENDBLK
  5
25
330
23
100
AcDbEntity
  8
0
100
AcDbBlockEnd
  0
BLOCK
  5
5D
330
59
100
AcDbEntity
  8
0
100
AcDbBlockBegin
  2
_Open30
 70
     0
 71
     0
 10
0.0
 20
0.0
 30
0.0
  3
_Open30
  1

  0
LINE
  5
5A
330
59
100
AcDbEntity
  8
0
 62
     0
370
    -2
100
AcDbLine
 10
-1.0
 20
0.26794919
 30
0.0
 11
0.0
 21
0.0
 31
0.0
  0
LINE
  5
5B
330
59
100
AcDbEntity
  8
0
 62
     0
370
    -2
100
AcDbLine
 10
0.0
 20
0.0
 30
0.0
 11
-1.0
 21
-0.26794919
 31
0.0
  0
LINE
  5
5C
330
59
100
AcDbEntity
  8
0
 62
     0
370
    -2
100
AcDbLine
 10
0.0
 20
0.0
 30
0.0
 11
-1.0
 21
0.0
 31
0.0
  0
ENDBLK
  5
5E
330
59
100
AcDbEntity
  8
0
100
AcDbBlockEnd
  0
BLOCK
  5
66
330
64
100
AcDbEntity
  8
0
100
AcDbBlockBegin
  2
GENAXEH
 70
     0
 71
     0
 10
0.0
 20
0.0
 30
0.0
  3
GENAXEH
  1

  0
LINE
  5
65
330
64
100
AcDbEntity
  8
0
100
AcDbLine
 10
-1.0
 20
0.0
 30
0.0
 11
1.0
 21
0.0
 31
0.0
  0
ENDBLK
  5
67
330
64
100
AcDbEntity
  8
0
100
AcDbBlockEnd
  0
BLOCK
  5
FEE2
330
FED7
100
AcDbEntity
  8
0
100
AcDbBlockBegin
  2
*D3
 70
     1
 71
     0
 10
0.0
 20
0.0
 30
0.0
  3
*D3
  1

  0
LINE
  5
1D7DD
330
FED7
100
AcDbEntity
  8
AM_5
 62
     3
370
    13
100
AcDbLine
 10
-2.165548451965805
 20
16.5
 30
0.0
 11
-21.67730081006354
 21
16.5
 31
0.0
  0
LINE
  5
1D7DE
330
FED7
100
AcDbEntity
  8
AM_5
 62
     3
370
    13
100
AcDbLine
 10
-2.165548451965805
 20
0.0
 30
0.0
 11
-21.67730081006354
 21
0.0000000000000055
 31
0.0
  0
LINE
  5
1D7DF
330
FED7
100
AcDbEntity
  8
AM_5
 62
     3
370
    13
100
AcDbLine
 10
-20.67730081006354
 20
14.00000000000001
 30
0.0
 11
-20.67730081006354
 21
2.500000000000005
 31
0.0
  0
INSERT
  5
1D7E0
330
FED7
100
AcDbEntity
  8
AM_5
 62
     3
370
    13
100
AcDbBlockReference
  2
_Open30
 10
-20.67730081006354
 20
16.5
 30
0.0
 41
2.5
 42
2.5
 43
2.5
 50
90.0
  0
INSERT
  5
1D7E1
330
FED7
100
AcDbEntity
  8
AM_5
 62
     3
370
    13
100
AcDbBlockReference
  2
_Open30
 10
-20.67730081006354
 20
0.0000000000000052
 30
0.0
 41
2.5
 42
2.5
 43
2.5
 50
270.0
  0
MTEXT
  5
1D7E2
330
FED7
100
AcDbEntity
  8
AM_5
 62
     2
370
    13
100
AcDbMText
 10
-24.07730081006354
 20
8.284899191192181
 30
0.0
 40
3.8
 41
0.0
 71
     5
 72
     1
  1
16.5
 11
6.123031769111886E-17
 21
1.0
 31
0.0
 73
     1
 44
1.0
  0
POINT
  5
1D7E3
330
FED7
100
AcDbEntity
  8
Defpoints
 62
     0
100
AcDbPoint
 10
-2.165548451965805
 20
16.5
 30
0.0
  0
POINT
  5
1D7E4
330
FED7
100
AcDbEntity
  8
Defpoints
 62
     0
100
AcDbPoint
 10
-2.165548451965805
 20
0.0
 30
0.0
  0
POINT
  5
1D7E5
330
FED7
100
AcDbEntity
  8
Defpoints
 62
     0
100
AcDbPoint
 10
-20.67730081006354
 20
0.0000000000000052
 30
0.0
  0
ENDBLK
  5
FEE3
330
FED7
100
AcDbEntity
  8
0
100
AcDbBlockEnd
  0
BLOCK
  5
1B227
330
1B221
100
AcDbEntity
  8
0
100
AcDbBlockBegin
  2
*D4
 70
     1
 71
     0
 10
0.0
 20
0.0
 30
0.0
  3
*D4
  1

  0
LINE
  5
1D76D
330
1B221
100
AcDbEntity
  8
AM_5
100
AcDbLine
 10
-123.955086876628
 20
32.04128590505009
 30
0.0
 11
-89.04768572292636
 21
32.0412859050501
 31
0.0
  0
LINE
  5
1D76E
330
1B221
100
AcDbEntity
  8
AM_5
100
AcDbLine
 10
-89.04768572292636
 20
32.0412859050501
 30
0.0
 11
-82.52997647279094
 21
24.09673962096973
 31
0.0
  0
LINE
  5
1D76F
330
1B221
100
AcDbEntity
  8
AM_5
100
AcDbLine
 10
-63.50203594698233
 20
0.9032603790299589
 30
0.0
 11
-61.91637423649829
 21
-1.029529557798355
 31
0.0
  0
MTEXT
  5
1D770
330
1B221
100
AcDbEntity
  8
AM_5
 62
     2
370
    13
100
AcDbMText
 10
-108.3913862997771
 20
35.44165992079814
 30
0.0
 40
3.8
 41
0.0
 71
     5
 72
     1
  1
最小加工径\U+220525
 73
     1
 44
1.0
  0
LINE
  5
1D771
330
1B221
100
AcDbEntity
  8
AM_5
100
AcDbLine
 10
-65.08769765746638
 20
2.836050315858277
 30
0.0
 11
-80.94431476230687
 21
22.16394968414141
 31
0.0
  0
INSERT
  5
1D772
330
1B221
100
AcDbEntity
  8
AM_5
100
AcDbBlockReference
  2
_Open30
 10
-65.08769765746638
 20
2.836050315858277
 30
0.0
 41
2.5
 42
2.5
 43
2.5
 50
129.3654687800724
  0
INSERT
  5
1D773
330
1B221
100
AcDbEntity
  8
AM_5
100
AcDbBlockReference
  2
_Open30
 10
-80.94431476230687
 20
22.16394968414141
 30
0.0
 41
2.5
 42
2.5
 43
2.5
 50
309.3654687800724
  0
POINT
  5
1D774
330
1B221
100
AcDbEntity
  8
Defpoints
 62
     0
100
AcDbPoint
 10
-80.94431476230687
 20
22.16394968414141
 30
0.0
  0
POINT
  5
1D775
330
1B221
100
AcDbEntity
  8
Defpoints
 62
     0
100
AcDbPoint
 10
-65.08769765746638
 20
2.836050315858277
 30
0.0
  0
ENDBLK
  5
1B228
330
1B221
100
AcDbEntity
  8
0
100
AcDbBlockEnd
  0
BLOCK
  5
1C1B8
330
1C1AE
100
AcDbEntity
  8
0
100
AcDbBlockBegin
  2
*D5
 70
     1
 71
     0
 10
0.0
 20
0.0
 30
0.0
  3
*D5
  1

  0
LINE
  5
1D6EF
330
1C1AE
100
AcDbEntity
  8
AM_5
100
AcDbLine
 10
121.2477649223629
 20
32.23619213819611
 30
0.0
 11
112.719260985355
 21
32.23619213819611
 31
0.0
  0
LINE
  5
1D6F0
330
1C1AE
100
AcDbEntity
  8
AM_5
100
AcDbLine
 10
112.719260985355
 20
32.23619213819611
 30
0.0
 11
107.4345311589795
 21
24.98537414281797
 31
0.0
  0
LINE
  5
1D6F1
330
1C1AE
100
AcDbEntity
  8
AM_5
100
AcDbLine
 10
95.06546884102019
 20
8.014625857181585
 30
0.0
 11
93.5929614222155
 21
5.994298680320092
 31
0.0
  0
MTEXT
  5
1D6F2
330
1C1AE
100
AcDbEntity
  8
AM_5
 62
     2
370
    13
100
AcDbMText
 10
117.7335129538589
 20
35.63619213819612
 30
0.0
 40
3.8
 41
0.0
 71
     5
 72
     1
  1
\U+220516
 73
     1
 44
1.0
  0
LINE
  5
1D6F3
330
1C1AE
100
AcDbEntity
  8
AM_5
100
AcDbLine
 10
96.53797625982489
 20
10.03495303404308
 30
0.0
 11
105.9620237401748
 21
22.96504696595647
 31
0.0
  0
INSERT
  5
1D6F4
330
1C1AE
100
AcDbEntity
  8
AM_5
100
AcDbBlockReference
  2
_Open30
 10
96.53797625982489
 20
10.03495303404308
 30
0.0
 41
2.5
 42
2.5
 43
2.5
 50
53.91371236779047
  0
INSERT
  5
1D6F5
330
1C1AE
100
AcDbEntity
  8
AM_5
100
AcDbBlockReference
  2
_Open30
 10
105.9620237401748
 20
22.96504696595647
 30
0.0
 41
2.5
 42
2.5
 43
2.5
 50
233.9137123677905
  0
POINT
  5
1D6F6
330
1C1AE
100
AcDbEntity
  8
Defpoints
 62
     0
100
AcDbPoint
 10
105.9620237401748
 20
22.96504696595647
 30
0.0
  0
POINT
  5
1D6F7
330
1C1AE
100
AcDbEntity
  8
Defpoints
 62
     0
100
AcDbPoint
 10
96.53797625982489
 20
10.03495303404308
 30
0.0
  0
ENDBLK
  5
1C1B9
330
1C1AE
100
AcDbEntity
  8
0
100
AcDbBlockEnd
  0
BLOCK
  5
1C1D1
330
1C1C7
100
AcDbEntity
  8
0
100
AcDbBlockBegin
  2
*D6
 70
     1
 71
     0
 10
0.0
 20
0.0
 30
0.0
  3
*D6
  1

  0
LINE
  5
1D7BF
330
1C1C7
100
AcDbEntity
  8
AM_5
 62
     3
370
    13
100
AcDbLine
 10
93.74999999999997
 20
13.71611781858499
 30
0.0
 11
93.74999999999997
 21
-8.406822434802592
 31
0.0
  0
LINE
  5
1D7C0
330
1C1C7
100
AcDbEntity
  8
AM_5
 62
     3
370
    13
100
AcDbLine
 10
108.75
 20
13.71611781858499
 30
0.0
 11
108.75
 21
-8.406822434802592
 31
0.0
  0
LINE
  5
1D7C1
330
1C1C7
100
AcDbEntity
  8
AM_5
 62
     3
370
    13
100
AcDbLine
 10
96.24999999999997
 20
-7.406822434802592
 30
0.0
 11
106.25
 21
-7.406822434802592
 31
0.0
  0
INSERT
  5
1D7C2
330
1C1C7
100
AcDbEntity
  8
AM_5
 62
     3
370
    13
100
AcDbBlockReference
  2
_Open30
 10
93.74999999999997
 20
-7.406822434802592
 30
0.0
 41
2.5
 42
2.5
 43
2.5
 50
180.0
  0
INSERT
  5
1D7C3
330
1C1C7
100
AcDbEntity
  8
AM_5
 62
     3
370
    13
100
AcDbBlockReference
  2
_Open30
 10
108.75
 20
-7.406822434802592
 30
0.0
 41
2.5
 42
2.5
 43
2.5
  0
MTEXT
  5
1D7C4
330
1C1C7
100
AcDbEntity
  8
AM_5
 62
     2
370
    13
100
AcDbMText
 10
100.9979550155852
 20
-4.006822434802592
 30
0.0
 40
3.8
 41
0.0
 71
     5
 72
     1
  1
15
 73
     1
 44
1.0
  0
POINT
  5
1D7C5
330
1C1C7
100
AcDbEntity
  8
Defpoints
 62
     0
100
AcDbPoint
 10
93.74999999999997
 20
13.71611781858499
 30
0.0
  0
POINT
  5
1D7C6
330
1C1C7
100
AcDbEntity
  8
Defpoints
 62
     0
100
AcDbPoint
 10
108.75
 20
13.71611781858499
 30
0.0
  0
POINT
  5
1D7C7
330
1C1C7
100
AcDbEntity
  8
Defpoints
 62
     0
100
AcDbPoint
 10
108.75
 20
-7.406822434802592
 30
0.0
  0
ENDBLK
  5
1C1D2
330
1C1C7
100
AcDbEntity
  8
0
100
AcDbBlockEnd
  0
BLOCK
  5
1D4AD
330
1D4AC
100
AcDbEntity
  8
0
100
AcDbBlockBegin
  2
*U7
 70
     1
 71
     0
 10
0.0
 20
0.0
 30
0.0
  3
*U7
  1

  0
ENDBLK
  5
1D4AE
330
1D4AC
100
AcDbEntity
  8
0
100
AcDbBlockEnd
  0
BLOCK
  5
1D5B3
330
1D5A3
100
AcDbEntity
  8
0
100
AcDbBlockBegin
  2
*D8
 70
     1
 71
     0
 10
0.0
 20
0.0
 30
0.0
  3
*D8
  1

  0
LINE
  5
1D701
330
1D5A3
100
AcDbEntity
  8
AM_5
 62
     3
370
    13
100
AcDbLine
 10
-0.065267720625605
 20
-0.8359257867980915
 30
0.0
 11
-11.79386385483345
 21
-15.67454618397497
 31
0.0
  0
LINE
  5
1D702
330
1D5A3
100
AcDbEntity
  8
AM_5
 62
     3
370
    13
100
AcDbLine
 10
-0.065267720625605
 20
-0.8359257867980915
 30
0.0
 11
-1.055157228065842
 21
-19.72414278401433
 31
0.0
  0
ARC
  5
1D703
330
1D5A3
100
AcDbEntity
  8
AM_5
 62
     3
370
    13
100
AcDbCircle
 10
-0.065267720625605
 20
-0.8359257867980915
 30
0.0
 40
17.91413816622023
100
AcDbArc
 50
215.6720157358306
 51
223.6744068403247
  0
ARC
  5
1D704
330
1D5A3
100
AcDbEntity
  8
AM_5
 62
     3
370
    13
100
AcDbCircle
 10
-0.065267720625605
 20
-0.8359257867980915
 30
0.0
 40
17.91413816622023
100
AcDbArc
 50
275.0023911044942
 51
283.0047822089883
  0
ARC
  5
1D705
330
1D5A3
100
AcDbEntity
  8
AM_5
 62
     3
370
    13
100
AcDbCircle
 10
-0.065267720625605
 20
-0.8359257867980915
 30
0.0
 40
17.91413816622023
100
AcDbArc
 50
231.6767979448187
 51
267.0000000000002
  0
INSERT
  5
1D706
330
1D5A3
100
AcDbEntity
  8
AM_5
 62
     3
370
    13
100
AcDbBlockReference
  2
_Open30
 10
-11.17376707690282
 20
-14.89002085869856
 30
0.0
 41
2.5
 42
2.5
 43
2.5
 50
317.6756023925717
  0
INSERT
  5
1D707
330
1D5A3
100
AcDbEntity
  8
AM_5
 62
     3
370
    13
100
AcDbBlockReference
  2
_Open30
 10
-1.002821271822901
 20
-18.72551324925976
 30
0.0
 41
2.5
 42
2.5
 43
2.5
 50
181.0011955522472
  0
MTEXT
  5
1D708
330
1D5A3
100
AcDbEntity
  8
AM_5
 62
     2
370
    13
100
AcDbMText
 10
-3.117231130018712
 20
-15.02556024494593
 30
0.0
 40
3.8
 41
0.0
 71
     5
 72
     1
  1
35°
 11
0.9776422337753655
 21
-0.210275207142244
 31
0.0
 73
     1
 44
1.0
  0
POINT
  5
1D709
330
1D5A3
100
AcDbEntity
  8
Defpoints
 62
     0
100
AcDbPoint
 10
-8.072169243392985
 20
-16.86108956889823
 30
0.0
  0
POINT
  5
1D70A
330
1D5A3
100
AcDbEntity
  8
Defpoints
 62
     0
100
AcDbPoint
 10
0.0005391563459511
 20
0.4197442276887671
 30
0.0
  0
POINT
  5
1D70B
330
1D5A3
100
AcDbEntity
  8
Defpoints
 62
     0
100
AcDbPoint
 10
6.738924675434674
 20
7.772506707524059
 30
0.0
  0
POINT
  5
1D70C
330
1D5A3
100
AcDbEntity
  8
Defpoints
 62
     0
100
AcDbPoint
 10
0.7144400278486671
 20
0.1505339026614649
 30
0.0
  0
POINT
  5
1D70D
330
1D5A3
100
AcDbEntity
  8
Defpoints
 62
     0
100
AcDbPoint
 10
0.5090021295516181
 20
10.12179572007543
 30
0.0
  0
ENDBLK
  5
1D5B4
330
1D5A3
100
AcDbEntity
  8
0
100
AcDbBlockEnd
  0
BLOCK
  5
1D5F7
330
1D5EB
100
AcDbEntity
  8
0
100
AcDbBlockBegin
  2
*D9
 70
     1
 71
     0
 10
0.0
 20
0.0
 30
0.0
  3
*D9
  1

  0
LINE
  5
1D70E
330
1D5EB
100
AcDbEntity
  8
AM_5
 62
     3
370
    13
100
AcDbLine
 10
0.4026734855850975
 20
0.0000004088674075
 30
0.0
 11
18.63772583905305
 21
0.0000004088674023
 31
0.0
  0
LINE
  5
1D70F
330
1D5EB
100
AcDbEntity
  8
AM_5
 62
     3
370
    13
100
AcDbLine
 10
17.63772583905305
 20
2.500000408867403
 30
0.0
 11
17.63772583905305
 21
6.249999999999915
 31
0.0
  0
INSERT
  5
1D710
330
1D5EB
100
AcDbEntity
  8
AM_5
 62
     3
370
    13
100
AcDbBlockReference
  2
_Open30
 10
17.63772583905305
 20
0.0000004088674026
 30
0.0
 41
2.5
 42
2.5
 43
2.5
 50
270.0
  0
INSERT
  5
1D711
330
1D5EB
100
AcDbEntity
  8
AM_5
 62
     3
370
    13
100
AcDbBlockReference
  2
_Open30
 10
17.63772583905305
 20
8.749999999999915
 30
0.0
 41
2.5
 42
2.5
 43
2.5
 50
90.0
  0
MTEXT
  5
1D712
330
1D5EB
100
AcDbEntity
  8
AM_5
 62
     2
370
    13
100
AcDbMText
 10
14.23772583905305
 20
4.384114116090842
 30
0.0
 40
3.8
 41
0.0
 71
     5
 72
     1
  1
9
 11
6.123031769111886E-17
 21
1.0
 31
0.0
 73
     1
 44
1.0
  0
POINT
  5
1D713
330
1D5EB
100
AcDbEntity
  8
Defpoints
 62
     0
100
AcDbPoint
 10
0.4026734855850975
 20
0.0000004088674075
 30
0.0
  0
POINT
  5
1D714
330
1D5EB
100
AcDbEntity
  8
Defpoints
 62
     0
100
AcDbPoint
 10
19.99999999999986
 20
8.749999999999915
 30
0.0
  0
POINT
  5
1D715
330
1D5EB
100
AcDbEntity
  8
Defpoints
 62
     0
100
AcDbPoint
 10
17.63772583905305
 20
8.749999999999915
 30
0.0
  0
ENDBLK
  5
1D5F8
330
1D5EB
100
AcDbEntity
  8
0
100
AcDbBlockEnd
  0
BLOCK
  5
1D635
330
1D62B
100
AcDbEntity
  8
0
100
AcDbBlockBegin
  2
*D10
 70
     1
 71
     0
 10
0.0
 20
0.0
 30
0.0
  3
*D10
  1

  0
LINE
  5
1D716
330
1D62B
100
AcDbEntity
  8
AM_5
 62
     3
370
    13
100
AcDbLine
 10
0.0
 20
-3.89157238910704
 30
0.0
 11
-0.0000000000000014
 21
-26.99838817190661
 31
0.0
  0
LINE
  5
1D717
330
1D62B
100
AcDbEntity
  8
AM_5
 62
     3
370
    13
100
AcDbLine
 10
200.0
 20
9.500000000000028
 30
0.0
 11
200.0
 21
-26.99838817190661
 31
0.0
  0
LINE
  5
1D718
330
1D62B
100
AcDbEntity
  8
AM_5
 62
     3
370
    13
100
AcDbLine
 10
2.499999999999999
 20
-25.99838817190661
 30
0.0
 11
197.5
 21
-25.99838817190661
 31
0.0
  0
INSERT
  5
1D719
330
1D62B
100
AcDbEntity
  8
AM_5
 62
     3
370
    13
100
AcDbBlockReference
  2
_Open30
 10
-0.0000000000000014
 20
-25.99838817190661
 30
0.0
 41
2.5
 42
2.5
 43
2.5
 50
180.0
  0
INSERT
  5
1D71A
330
1D62B
100
AcDbEntity
  8
AM_5
 62
     3
370
    13
100
AcDbBlockReference
  2
_Open30
 10
200.0
 20
-25.99838817190661
 30
0.0
 41
2.5
 42
2.5
 43
2.5
  0
MTEXT
  5
1D71B
330
1D62B
100
AcDbEntity
  8
AM_5
 62
     2
370
    13
100
AcDbMText
 10
100.0
 20
-22.59801415615858
 30
0.0
 40
3.8
 41
0.0
 71
     5
 72
     1
  1
200
 73
     1
 44
1.0
  0
POINT
  5
1D71C
330
1D62B
100
AcDbEntity
  8
Defpoints
 62
     0
100
AcDbPoint
 10
0.0
 20
-3.89157238910704
 30
0.0
  0
POINT
  5
1D71D
330
1D62B
100
AcDbEntity
  8
Defpoints
 62
     0
100
AcDbPoint
 10
200.0
 20
9.500000000000028
 30
0.0
  0
POINT
  5
1D71E
330
1D62B
100
AcDbEntity
  8
Defpoints
 62
     0
100
AcDbPoint
 10
200.0
 20
-25.99838817190661
 30
0.0
  0
ENDBLK
  5
1D636
330
1D62B
100
AcDbEntity
  8
0
100
AcDbBlockEnd
  0
BLOCK
  5
1D668
330
1D65C
100
AcDbEntity
  8
0
100
AcDbBlockBegin
  2
*D11
 70
     1
 71
     0
 10
0.0
 20
0.0
 30
0.0
  3
*D11
  1

  0
LINE
  5
1D71F
330
1D65C
100
AcDbEntity
  8
AM_5
 62
     3
370
    13
100
AcDbLine
 10
0.5090021295516181
 20
10.12179572007543
 30
0.0
 11
0.6552837898887258
 21
12.91301607587606
 31
0.0
  0
LINE
  5
1D720
330
1D65C
100
AcDbEntity
  8
AM_5
 62
     3
370
    13
100
AcDbLine
 10
-2.165548451965805
 20
0.0
 30
0.0
 11
-12.95219590830297
 21
0.0000000000000027
 31
0.0
  0
ARC
  5
1D721
330
1D65C
100
AcDbEntity
  8
AM_5
 62
     3
370
    13
100
AcDbCircle
 10
-0.0214587064940909
 20
0.0
 30
0.0
 40
11.93073720180887
100
AcDbArc
 50
99.02799181767671
 51
167.9720081823236
  0
INSERT
  5
1D722
330
1D65C
100
AcDbEntity
  8
AM_5
 62
     3
370
    13
100
AcDbBlockReference
  2
_Open30
 10
0.6029478336457901
 20
11.91438654112148
 30
0.0
 41
2.5
 42
2.5
 43
2.5
 50
3.013995908838474
  0
INSERT
  5
1D723
330
1D65C
100
AcDbEntity
  8
AM_5
 62
     3
370
    13
100
AcDbBlockReference
  2
_Open30
 10
-11.95219590830296
 20
0.0000000000000027
 30
0.0
 41
2.5
 42
2.5
 43
2.5
 50
263.9860040911618
  0
MTEXT
  5
1D724
330
1D65C
100
AcDbEntity
  8
AM_5
 62
     2
370
    13
100
AcDbMText
 10
-9.230397296581522
 20
12.25671053729038
 30
0.0
 40
3.8
 41
0.0
 71
     5
 72
     1
  1
93°
 11
0.7994860505367093
 21
0.6006846552037219
 31
0.0
 73
     1
 44
1.0
  0
POINT
  5
1D725
330
1D65C
100
AcDbEntity
  8
Defpoints
 62
     0
100
AcDbPoint
 10
-10.24809650915488
 20
6.144783920677395
 30
0.0
  0
POINT
  5
1D726
330
1D65C
100
AcDbEntity
  8
Defpoints
 62
     0
100
AcDbPoint
 10
0.4020998172312602
 20
0.0
 30
0.0
  0
POINT
  5
1D727
330
1D65C
100
AcDbEntity
  8
Defpoints
 62
     0
100
AcDbPoint
 10
0.0005391563459511
 20
0.4197442276887671
 30
0.0
  0
POINT
  5
1D728
330
1D65C
100
AcDbEntity
  8
Defpoints
 62
     0
100
AcDbPoint
 10
0.5090021295516181
 20
10.12179572007543
 30
0.0
  0
POINT
  5
1D729
330
1D65C
100
AcDbEntity
  8
Defpoints
 62
     0
100
AcDbPoint
 10
-2.165548451965805
 20
0.0
 30
0.0
  0
ENDBLK
  5
1D669
330
1D65C
100
AcDbEntity
  8
0
100
AcDbBlockEnd
  0
ENDSEC
  0
SECTION
  2
ENTITIES
  0
LINE
  5
EF21
102
{ACAD_REACTORS
330
1D6D1
102
}
330
1F
100
AcDbEntity
  8
AM_7
  6
CENTER
370
    13
100
AcDbLine
 10
205.1727598446765
 20
16.5
 30
0.0
 11
-2.165548451965805
 21
16.5
 31
0.0
1001
GENIUS_GENODEF_13
1002
{
1000
HIER
1070
     0
1002
}
1002
{
1000
MANEDIT
1070
     0
1002
}
1002
{
1000
NOSEL
1070
     0
1002
}
1002
{
1000
BEHIND
1070
     0
1002
}
1002
{
1000
REACTOR
1002
}
1001
GENIUS_GENOBJ-N-CEN_13
1002
{
1000
OWNER
1000
GEN
1002
}
  0
LINE
  5
EF96
330
1F
100
AcDbEntity
  8
AM_7
  6
CENTER
370
    13
100
AcDbLine
 10
-1.773854710452469
 20
-73.65393550969461
 30
0.0
 11
205.1727598446765
 21
-73.65393550969461
 31
0.0
1001
GENIUS_GENODEF_13
1002
{
1000
HIER
1070
     0
1002
}
1002
{
1000
MANEDIT
1070
     0
1002
}
1002
{
1000
NOSEL
1070
     0
1002
}
1002
{
1000
BEHIND
1070
     0
1002
}
1002
{
1000
REACTOR
1002
}
1001
GENIUS_GENOBJ-N-CEN_13
1002
{
1000
OWNER
1000
GEN
1002
}
  0
DIMENSION
  5
FED6
330
1F
100
AcDbEntity
  8
AM_5
370
    13
100
AcDbDimension
  2
*D3
 10
-20.67730081006354
 20
0.0000000000000052
 30
0.0
 11
-20.67730081006354
 21
8.284899191192181
 31
0.0
 70
   160
  1
<>
 71
     5
 42
16.5
  3
AM_JIS$0
100
AcDbAlignedDimension
 13
-2.165548451965805
 23
16.5
 33
0.0
 14
-2.165548451965805
 24
0.0
 34
0.0
 50
270.0
100
AcDbRotatedDimension
1001
ACAD
1000
DSTYLE
1002
{
1070
   271
1070
     1
1002
}
  0
LINE
  5
15AD4
330
1F
100
AcDbEntity
  8
AM_7
  6
CENTER
370
    13
100
AcDbLine
 10
-57.40940589959186
 20
16.49999999999997
 30
0.0
 11
-88.71940548730967
 21
16.49999999999997
 31
0.0
1001
GENIUS_GENODEF_13
1002
{
1000
HIER
1070
     0
1002
}
1002
{
1000
MANEDIT
1070
     0
1002
}
1002
{
1000
NOSEL
1070
     0
1002
}
1002
{
1000
BEHIND
1070
     0
1002
}
1002
{
1000
REACTOR
1002
}
1001
GENIUS_GENOBJ-N-CEN_13
1002
{
1000
OWNER
1000
GEN
1002
}
  0
CIRCLE
  5
19939
330
1F
100
AcDbEntity
  8
AM_0
100
AcDbCircle
 10
3.623963402493104
 20
8.947151213799742
 30
0.0
 40
1.09375
  0
ARC
  5
1993A
330
1F
100
AcDbEntity
  8
AM_0
100
AcDbCircle
 10
3.016311620872699
 20
7.894667454723759
 30
0.0
 40
0.4375
100
AcDbArc
 50
13.53115216735703
 51
106.4688478326188
  0
ARC
  5
1993B
330
1F
100
AcDbEntity
  8
AM_0
100
AcDbCircle
 10
3.01631162087287
 20
9.999634972876009
 30
0.0
 40
0.4375
100
AcDbArc
 50
253.5311521673709
 51
346.4688478326225
  0
CIRCLE
  5
1993C
330
1F
100
AcDbEntity
  8
AM_0
100
AcDbCircle
 10
3.623963402493104
 20
8.947151213799742
 30
0.0
 40
1.3
  0
CIRCLE
  5
1993D
330
1F
100
AcDbEntity
  8
AM_0
100
AcDbCircle
 10
3.623963402493104
 20
8.947151213799742
 30
0.0
 40
1.725
  0
ARC
  5
1994D
330
1F
100
AcDbEntity
  8
AM_0
100
AcDbCircle
 10
2.839127880313555
 20
8.494026213799799
 30
0.0
 40
0.1874999999999716
100
AcDbArc
 50
133.5311521673627
 51
286.4688478326257
  0
ARC
  5
1994E
330
1F
100
AcDbEntity
  8
AM_0
100
AcDbCircle
 10
2.408659839252522
 20
8.947151213799856
 30
0.0
 40
0.4375
100
AcDbArc
 50
313.5311521673586
 51
46.46884783262353
  0
ARC
  5
1994F
330
1F
100
AcDbEntity
  8
AM_0
100
AcDbCircle
 10
2.839127880313612
 20
9.400276213799856
 30
0.0
 40
0.1874999999999716
100
AcDbArc
 50
73.53115216737758
 51
226.4688478326373
  0
ARC
  5
19961
330
1F
100
AcDbEntity
  8
AM_0
100
AcDbCircle
 10
3.623963402493104
 20
9.853401213799742
 30
0.0
 40
0.1874999999999716
100
AcDbArc
 50
13.53115216736412
 51
166.4688478326343
  0
ARC
  5
19962
330
1F
100
AcDbEntity
  8
AM_0
100
AcDbCircle
 10
4.408798924672823
 20
8.494026213799799
 30
0.0
 40
0.1874999999999716
100
AcDbArc
 50
253.5311521673539
 51
46.46884783263734
  0
ARC
  5
19963
330
1F
100
AcDbEntity
  8
AM_0
100
AcDbCircle
 10
4.231615184113394
 20
7.894667454723702
 30
0.0
 40
0.4375
100
AcDbArc
 50
73.53115216735387
 51
166.4688478326327
  0
ARC
  5
19964
330
1F
100
AcDbEntity
  8
AM_0
100
AcDbCircle
 10
3.623963402493104
 20
8.040901213799856
 30
0.0
 40
0.1874999999999716
100
AcDbArc
 50
193.5311521673641
 51
346.4688478326311
  0
ARC
  5
19965
330
1F
100
AcDbEntity
  8
AM_0
100
AcDbCircle
 10
4.408798924672823
 20
9.400276213799685
 30
0.0
 40
0.1874999999999716
100
AcDbArc
 50
313.5311521673627
 51
106.4688478326358
  0
ARC
  5
19966
330
1F
100
AcDbEntity
  8
AM_0
100
AcDbCircle
 10
4.839266965733685
 20
8.947151213799742
 30
0.0
 40
0.4375
100
AcDbArc
 50
133.5311521673586
 51
226.4688478326414
  0
ARC
  5
19967
330
1F
100
AcDbEntity
  8
AM_0
100
AcDbCircle
 10
4.231615184113565
 20
9.999634972875896
 30
0.0
 40
0.4375
100
AcDbArc
 50
193.531152167357
 51
286.4688478326291
  0
LINE
  5
19A33
330
1F
100
AcDbEntity
  8
AM_7
  6
CENTER
370
    13
100
AcDbLine
 10
-73.01600620988663
 20
32.97866351642642
 30
0.0
 11
-73.01600620988663
 21
-2.894879724441552
 31
0.0
1001
GENIUS_GENODEF_13
1002
{
1000
HIER
1070
     0
1002
}
1002
{
1000
MANEDIT
1070
     0
1002
}
1002
{
1000
NOSEL
1070
     0
1002
}
1002
{
1000
BEHIND
1070
     0
1002
}
1002
{
1000
REACTOR
1002
}
1001
GENIUS_GENOBJ-N-CEN_13
1002
{
1000
OWNER
1000
GEN
1002
}
  0
LINE
  5
19D80
330
1F
100
AcDbEntity
  8
AM_7
  6
CENTER
370
    13
100
AcDbLine
 10
-0.3033919040107946
 20
-1.467382694403938
 30
0.0
 11
7.804938018022341
 21
20.0342592876419
 31
0.0
1001
GENIUS_GENODEF_13
1002
{
1000
HIER
1070
     0
1002
}
1002
{
1000
MANEDIT
1070
     0
1002
}
1002
{
1000
NOSEL
1070
     0
1002
}
1002
{
1000
BEHIND
1070
     0
1002
}
1002
{
1000
REACTOR
1002
}
1001
GENIUS_GENOBJ-N-CEN_13
1002
{
1000
OWNER
1000
GEN
1002
}
  0
LINE
  5
19D92
330
1F
100
AcDbEntity
  8
AM_7
  6
CENTER
370
    13
100
AcDbLine
 10
-1.412902450038956
 20
10.846567543156
 30
0.0
 11
8.517878475056733
 21
7.101642027042828
 31
0.0
1001
GENIUS_GENODEF_13
1002
{
1000
HIER
1070
     0
1002
}
1002
{
1000
MANEDIT
1070
     0
1002
}
1002
{
1000
NOSEL
1070
     0
1002
}
1002
{
1000
BEHIND
1070
     0
1002
}
1002
{
1000
REACTOR
1002
}
1001
GENIUS_GENOBJ-N-CEN_13
1002
{
1000
OWNER
1000
GEN
1002
}
  0
CIRCLE
  5
1B216
330
1F
100
AcDbEntity
  8
AM_5
  6
AM_ISO09W050
370
    13
100
AcDbCircle
 10
-73.01600620988663
 20
12.5
 30
0.0
 40
12.5
  0
DIMENSION
  5
1B220
330
1F
100
AcDbEntity
  8
AM_5
370
    13
100
AcDbDimension
  2
*D4
 10
-65.08769765746638
 20
2.836050315858277
 30
0.0
 11
-108.3913862997771
 21
32.04128590505011
 31
0.0
 70
   163
  1
最小加工径<>
 71
     5
 42
25.0
  3
AM_JIS$3
100
AcDbDiametricDimension
 15
-80.94431476230687
 25
22.16394968414141
 35
0.0
 40
0.0
1001
GENIUS_GENDTOL_13
1000

1000
h7
1000

1040
0.0
1001
ACAD
1000
DSTYLE
1002
{
1070
   271
1070
     0
1070
   288
1070
     1
1070
   289
1070
     3
1070
   172
1070
     1
1070
    74
1070
     1
1002
}
  0
TEXT
  5
1BCF0
330
1F
100
AcDbEntity
  8
AM_6
 62
     0
100
AcDbText
 10
-32.35095727835451
 20
-42.09945224182167
 30
0.0
 40
3.5
  1
(-2%%d30')
100
AcDbText
  0
ACAD_PROXY_ENTITY
  5
1BCF1
330
1F
100
AcDbEntity
  8
AM_5
370
    13
100
AcDbProxyEntity
 90
      498
 91
      533
 95
       25
 70
     0
 92
      668
310
9C020000270000000C00000016000000000000C00C00000013000000010000000C00000016000000000000C00C000000170000000D0000003C0000000600000002000000FCBB9FA2056745C08CF566025F8844C000000000000000002FEFD2D538FA41C089F566025F8844C000000000000000000C00000016000000000000
310
C00C00000010000000FFFFFFFF0C00000012000000FFFFFFFF0C00000017000000000000000C00000014000000010000000C00000013000000020000000C00000016000000000000C00C000000170000000D0000003C00000006000000020000002FEFD2D538FA41C089F566025F8844C00000000000000000FCBB9FA20567
310
40C088F566025F8844C000000000000000000C00000016000000000000C00C00000010000000FFFFFFFF0C00000012000000FFFFFFFF0C00000017000000000000000C00000014000000010000000C00000013000000030000000C00000016000000000000C00C000000170000000D0000003C00000006000000020000002F
310
EFD2D538FA41C03237261374BD44C00000000000000000FCBB9FA2056740C088F566025F8844C000000000000000000C00000016000000000000C00C00000010000000FFFFFFFF0C00000012000000FFFFFFFF0C00000017000000000000000C00000014000000010000000C00000013000000040000000C00000016000000
310
000000C00C000000170000000D0000003C0000000600000002000000FCBB9FA2056740C088F566025F8844C000000000000000002FEFD2D538FA41C0E0B3A7F1495344C000000000000000000C00000016000000000000C00C00000010000000FFFFFFFF0C00000012000000FFFFFFFF0C00000017000000000000000C0000
310
0014000000010000000C00000013000000050000000C00000016000000000000C0
 93
     1225
310
5DCFCBB9FA2056740C0223D598097E2113026A6A54051F8000000C800AA3F2EE7E88159D17008CF566025F8844C09018FFFFFFFF3F2EE7E88159D030088F566025F8844C0A8FFFFFFFF1FFFFFFFF1F9773F440ACE8B80467AB3012FC4226045409C8709455393C9F3046C03D16F35A316F90F02A5A83333333333330940425
310
050000000000003C2FC000000000000F0BF4040101521340020500
340
17F
340
1D4BC
330
0
330
0
340
0
340
0
340
180
330
0
330
0
 94
        0
  0
ACAD_PROXY_ENTITY
  5
1BCF3
330
1F
100
AcDbEntity
  8
AM_5
370
    13
100
AcDbProxyEntity
 90
      498
 91
      533
 95
       25
 70
     0
 92
      668
310
9C020000270000000C00000016000000000000C00C00000013000000010000000C00000016000000000000C00C000000170000000D0000003C0000000600000002000000FCBB9FA2056745C088F566025F8844C00000000000000000FCBB9FA2056745C0BB289A35921B41C000000000000000000C00000016000000000000
310
C00C00000010000000FFFFFFFF0C00000012000000FFFFFFFF0C00000017000000000000000C00000014000000010000000C00000013000000020000000C00000016000000000000C00C000000170000000D0000003C0000000600000002000000FCBB9FA2056745C0BB289A35921B41C00000000000000000FCBB9FA20567
310
45C010EBCD04BE103FC000000000000000000C00000016000000000000C00C00000010000000FFFFFFFF0C00000012000000FFFFFFFF0C00000017000000000000000C00000014000000010000000C00000013000000030000000C00000016000000000000C00C000000170000000D0000003C000000060000000200000053
310
7AE091F03145C0BB289A35921B41C00000000000000000FCBB9FA2056745C010EBCD04BE103FC000000000000000000C00000016000000000000C00C00000010000000FFFFFFFF0C00000012000000FFFFFFFF0C00000017000000000000000C00000014000000010000000C00000013000000040000000C00000016000000
310
000000C00C000000170000000D0000003C0000000600000002000000FCBB9FA2056745C010EBCD04BE103FC00000000000000000A5FD5EB31A9C45C0BB289A35921B41C000000000000000000C00000016000000000000C00C00000010000000FFFFFFFF0C00000012000000FFFFFFFF0C00000017000000000000000C0000
310
0014000000010000000C00000013000000050000000C00000016000000000000C0
 93
     1217
310
5DCFCBB9FA2056745C0043AF3412F840FF026A6A54051F8000000C800AA3F2EE7E88159D170088F566025F8844C09018FFFFFFFF3F2EE7E88159D170010EBCD04BE103FC0A8FFFFFFFF1FFFFFFFF1F9773F440ACE8B80447AB3012FC4226045409C870642206096C9D44C03C16F35A316F90F02A5A8333333333333094041D
310
050000000000003C2FC000000000000F0BF40401015213400500
340
17F
340
1D4BC
330
0
330
0
340
0
340
0
340
180
330
0
330
0
 94
        0
  0
TEXT
  5
1BCF6
330
1F
100
AcDbEntity
  8
AM_6
 62
     0
100
AcDbText
 10
-55.75115141780125
 20
-28.55742526977411
 30
0.0
 40
3.5
  1
-7%%d30'
100
AcDbText
  0
DIMENSION
  5
1C17A
330
1F
100
AcDbEntity
  8
AM_5
370
    13
100
AcDbDimension
  2
*D5
 10
96.53797625982489
 20
10.03495303404308
 30
0.0
 11
117.7335129538589
 21
32.23619213819612
 31
0.0
 70
   163
  1
<>
 71
     5
 42
15.9999999999998
  3
AM_JIS$3
100
AcDbDiametricDimension
 15
105.9620237401748
 25
22.96504696595647
 35
0.0
 40
0.0
1001
GENIUS_GENDTOL_13
1000

1000
h7
1000

1040
0.0
1001
ACAD
1000
DSTYLE
1002
{
1070
   271
1070
     0
1070
   289
1070
     3
1002
}
  0
LINE
  5
1C17C
102
{ACAD_REACTORS
330
1D6D1
102
}
330
1F
100
AcDbEntity
  8
AM_7
  6
CENTER
370
    13
100
AcDbLine
 10
101.25
 20
27.70813857451881
 30
0.0
 11
101.25
 21
5.316095409499127
 31
0.0
1001
GENIUS_GENODEF_13
1002
{
1000
HIER
1070
     0
1002
}
1002
{
1000
MANEDIT
1070
     0
1002
}
1002
{
1000
NOSEL
1070
     0
1002
}
1002
{
1000
BEHIND
1070
     0
1002
}
1002
{
1000
REACTOR
1002
}
1001
GENIUS_GENOBJ-N-CEN_13
1002
{
1000
OWNER
1000
GEN
1002
}
  0
LINE
  5
1C17D
102
{ACAD_REACTORS
330
1D6D1
102
}
330
1F
100
AcDbEntity
  8
AM_0
100
AcDbLine
 10
93.74999999999997
 20
19.28388218141501
 30
0.0
 11
93.74999999999997
 21
13.71611781858499
 31
0.0
  0
LINE
  5
1C17E
102
{ACAD_REACTORS
330
1D6D1
102
}
330
1F
100
AcDbEntity
  8
AM_0
100
AcDbLine
 10
108.75
 20
19.28388218141501
 30
0.0
 11
108.75
 21
13.71611781858499
 31
0.0
  0
DIMENSION
  5
1C17F
330
1F
100
AcDbEntity
  8
AM_5
370
    13
100
AcDbDimension
  2
*D6
 10
108.75
 20
-7.406822434802592
 30
0.0
 11
100.9979550155852
 21
-7.406822434802592
 31
0.0
 70
   160
  1
<>
 71
     5
 42
15.0
  3
AM_JIS$0
100
AcDbAlignedDimension
 13
93.74999999999997
 23
13.71611781858499
 33
0.0
 14
108.75
 24
13.71611781858499
 34
0.0
100
AcDbRotatedDimension
1001
GENIUS_GENDTOL_13
1000

1000
h7
1000

1040
0.0
1001
ACAD
1000
DSTYLE
1002
{
1070
   271
1070
     0
1002
}
  0
ARC
  5
1C181
102
{ACAD_REACTORS
330
1D6D1
102
}
330
1F
100
AcDbEntity
  8
AM_0
100
AcDbCircle
 10
101.25
 20
16.50000000000003
 30
0.0
 40
8.0
100
AcDbArc
 50
200.3641348063165
 51
339.6358651936804
  0
ARC
  5
1C185
102
{ACAD_REACTORS
330
1D6D1
102
}
330
1F
100
AcDbEntity
  8
AM_0
100
AcDbCircle
 10
101.25
 20
16.50000000000003
 30
0.0
 40
8.0
100
AcDbArc
 50
20.36413480631646
 51
159.6358651936835
  0
SPLINE
  5
1C187
330
1F
100
AcDbEntity
  8
AM_0
100
AcDbSpline
210
0.0
220
0.0
230
1.0
 70
    12
 71
     2
 72
     6
 73
     3
 74
     0
 42
0.0000000001
 43
0.0000000001
 40
0.0
 40
0.0
 40
0.0
 40
5.656854249492205
 40
5.656854249492205
 40
5.656854249492205
 10
199.0
 20
19.2838821814149
 30
0.0
 41
1.0
 10
199.96875
 20
16.49999999999998
 30
0.0
 41
1.066666666666671
 10
199.0
 20
13.71611781858505
 30
0.0
 41
1.0
  0
LINE
  5
1C188
330
1F
100
AcDbEntity
  8
AM_0
100
AcDbLine
 10
200.0
 20
9.500000000000028
 30
0.0
 11
200.0
 21
23.49999999999997
 31
0.0
  0
LINE
  5
1C189
330
1F
100
AcDbEntity
  8
AM_0
100
AcDbLine
 10
113.75
 20
8.500000000000028
 30
0.0
 11
199.0000000000001
 21
8.500000000000028
 31
0.0
  0
LINE
  5
1C18A
330
1F
100
AcDbEntity
  8
AM_0
100
AcDbLine
 10
199.0
 20
13.71611781858502
 30
0.0
 11
113.75
 21
13.71611781858505
 31
0.0
  0
LINE
  5
1C18B
330
1F
100
AcDbEntity
  8
AM_0
100
AcDbLine
 10
199.0
 20
8.500000000000028
 30
0.0
 11
199.0
 21
13.71611781858505
 31
0.0
  0
LINE
  5
1C18C
330
1F
100
AcDbEntity
  8
AM_0
100
AcDbLine
 10
200.0
 20
9.500000000000028
 30
0.0
 11
199.0
 21
8.500000000000028
 31
0.0
  0
LINE
  5
1C18E
330
1F
100
AcDbEntity
  8
AM_0
100
AcDbLine
 10
113.75
 20
19.2838821814149
 30
0.0
 11
199.0000000000001
 21
19.2838821814149
 31
0.0
  0
LINE
  5
1C18F
330
1F
100
AcDbEntity
  8
AM_0
100
AcDbLine
 10
113.75
 20
24.49999999999997
 30
0.0
 11
199.0000000000001
 21
24.49999999999997
 31
0.0
  0
LINE
  5
1C192
330
1F
100
AcDbEntity
  8
AM_0
100
AcDbLine
 10
199.0
 20
19.2838821814149
 30
0.0
 11
199.0
 21
24.49999999999997
 31
0.0
  0
LINE
  5
1C193
330
1F
100
AcDbEntity
  8
AM_0
100
AcDbLine
 10
200.0
 20
23.49999999999997
 30
0.0
 11
199.0
 21
24.49999999999997
 31
0.0
  0
LINE
  5
1C199
330
1F
100
AcDbEntity
  8
AM_0
100
AcDbLine
 10
199.0
 20
-81.15393550969472
 30
0.0
 11
199.0
 21
-66.15393550969466
 31
0.0
  0
LINE
  5
1C19A
330
1F
100
AcDbEntity
  8
AM_0
100
AcDbLine
 10
200.0
 20
-80.65393550969461
 30
0.0
 11
200.0
 21
-66.65393550969466
 31
0.0
  0
SPLINE
  5
1C19B
330
1F
100
AcDbEntity
  8
AM_0
100
AcDbSpline
210
0.0
220
0.0
230
1.0
 70
    28
 71
     2
 72
     6
 73
     3
 74
     0
 42
0.0000000001
 43
0.0000000001
 40
0.0
 40
0.0
 40
0.0
 40
2.828427124746073
 40
2.828427124746073
 40
2.828427124746073
 10
199.0
 20
-81.15393550969466
 30
0.0
 41
1.0
 10
199.5
 20
-81.15393550969466
 30
0.0
 41
1.033333333333335
 10
199.5
 20
-81.15393550969466
 30
0.0
 41
1.033333333333335
  0
LINE
  5
1C19C
330
1F
100
AcDbEntity
  8
AM_0
100
AcDbLine
 10
200.0
 20
-80.65393550969461
 30
0.0
 11
199.5
 21
-81.15393550969466
 31
0.0
  0
SPLINE
  5
1C19F
330
1F
100
AcDbEntity
  8
AM_0
100
AcDbSpline
210
0.0
220
0.0
230
1.0
 70
    28
 71
     2
 72
     6
 73
     3
 74
     0
 42
0.0000000001
 43
0.0000000001
 40
2.828427124746073
 40
2.828427124746073
 40
2.828427124746073
 40
5.656854249492205
 40
5.656854249492205
 40
5.656854249492205
 10
199.5
 20
-66.15393550969466
 30
0.0
 41
1.033333333333335
 10
199.4999999999999
 20
-66.15393550969466
 30
0.0
 41
1.033333333333336
 10
199.0
 20
-66.15393550969466
 30
0.0
 41
1.0
  0
LINE
  5
1C1A0
330
1F
100
AcDbEntity
  8
AM_0
100
AcDbLine
 10
200.0
 20
-66.65393550969466
 30
0.0
 11
199.5
 21
-66.15393550969466
 31
0.0
  0
LINE
  5
1C43D
330
1F
100
AcDbEntity
  8
AM_5
100
AcDbLine
 10
0.0
 20
-3.89157238910704
 30
0.0
 11
0.0
 21
0.5241514293147986
 31
0.0
  0
LINE
  5
1CD57
330
1F
100
AcDbEntity
  8
AM_0
100
AcDbLine
 10
20.24999999999997
 20
-66.15393550969461
 30
0.0
 11
199.0
 21
-66.15393550969461
 31
0.0
  0
LINE
  5
1CD58
330
1F
100
AcDbEntity
  8
AM_0
100
AcDbLine
 10
20.24999999999997
 20
24.50000000000003
 30
0.0
 11
88.74999999999997
 21
24.50000000000003
 31
0.0
  0
LINE
  5
1CD59
330
1F
100
AcDbEntity
  8
AM_0
100
AcDbLine
 10
20.24999999999997
 20
8.500000000000028
 30
0.0
 11
88.74999999999997
 21
8.500000000000028
 31
0.0
  0
LINE
  5
1CD5B
330
1F
100
AcDbEntity
  8
AM_0
100
AcDbLine
 10
20.24999999999997
 20
13.71611781858499
 30
0.0
 11
88.74999999999997
 21
13.71611781858499
 31
0.0
  0
SPLINE
  5
1CD5C
330
1F
100
AcDbEntity
  8
AM_0
100
AcDbSpline
210
0.0
220
0.0
230
1.0
 70
    28
 71
     2
 72
     6
 73
     3
 74
     0
 42
0.0000000001
 43
0.0000000001
 40
1.73917663765309
 40
1.73917663765309
 40
1.73917663765309
 40
8.310468446234722
 40
8.310468446234722
 40
8.310468446234722
 10
4.723954987514475
 20
-81.15393550969472
 30
0.0
 41
1.015437972334643
 10
3.448251436741003
 20
-81.15393550969461
 30
0.0
 41
1.037701601109793
 10
1.183394369375918
 20
-81.15393550969461
 30
0.0
 41
1.00781034154736
  0
LINE
  5
1CD5D
330
1F
100
AcDbEntity
  8
AM_0
100
AcDbLine
 10
1.085293485367771
 20
-71.22143817346645
 30
0.0
 11
6.45466982756713
 21
-70.5471130892939
 31
0.0
  0
LINE
  5
1CD5E
330
1F
100
AcDbEntity
  8
AM_0
100
AcDbLine
 10
6.738924675434674
 20
-72.29684010242752
 30
0.0
 11
0.7144400278486671
 21
-73.59884059568751
 31
0.0
  0
LINE
  5
1CD5F
330
1F
100
AcDbEntity
  8
AM_0
100
AcDbLine
 10
0.6515777908937821
 20
-76.73618149088091
 30
0.0
 11
6.622149206678017
 21
-75.44583262568622
 31
0.0
  0
LINE
  5
1CD60
330
1F
100
AcDbEntity
  8
AM_0
100
AcDbLine
 10
0.5090021295515612
 20
-72.29660289463672
 30
0.0
 11
6.53348677713754
 21
-70.99460240137668
 31
0.0
  0
ELLIPSE
  5
1CD61
330
1F
100
AcDbEntity
  8
AM_0
100
AcDbEllipse
 10
3.623963402493104
 20
-72.29672149853209
 30
0.0
 11
-1.248465487104898
 21
-0.06191871694349647
 31
0.0
210
0.0
220
0.0
230
0.9999999999999999
 40
0.1303379353271464
 41
5.919586222283172
 42
12.20277152946276
  0
ELLIPSE
  5
1CD62
330
1F
100
AcDbEntity
  8
AM_0
100
AcDbEllipse
 10
0.6880785406423513
 20
-71.06219354714361
 30
0.0
 11
2.042515776900252
 21
-15.58856777991124
 31
0.0
210
0.0
220
0.0
230
1.0
 40
0.0679165536603422
 41
5.15722118836743
 42
5.407599806490595
  0
LINE
  5
1CD63
330
1F
100
AcDbEntity
  8
AM_0
100
AcDbLine
 10
0.0005391563459511
 20
-73.59881341351192
 30
0.0
 11
0.5090021295516181
 21
-72.29660289463672
 31
0.0
  0
LINE
  5
1CD64
330
1F
100
AcDbEntity
  8
AM_0
100
AcDbLine
 10
0.4340753482595687
 20
-76.73729113768363
 30
0.0
 11
0.0000644728276598
 21
-73.60248517338036
 31
0.0
  0
LINE
  5
1CD65
330
1F
100
AcDbEntity
  8
AM_0
100
AcDbLine
 10
0.6112961555578806
 20
-77.89527513404718
 30
0.0
 11
0.6112961555578806
 21
-76.74250093464499
 31
0.0
  0
ELLIPSE
  5
1CD66
330
1F
100
AcDbEntity
  8
AM_0
100
AcDbEllipse
 10
1.120901631317253
 20
-73.65393550969461
 30
0.0
 11
2.047325779119588
 21
-15.74937345951549
 31
0.0
210
0.0
220
0.0
230
1.0
 40
0.0686180816121575
 41
4.900849373846865
 42
4.976126450462102
  0
ELLIPSE
  5
1CD67
330
1F
100
AcDbEntity
  8
AM_0
100
AcDbEllipse
 10
0.3995173027594206
 20
-73.58207361343941
 30
0.0
 11
-0.3995089558735677
 21
-0.01981398942191888
 31
0.0
210
0.0
220
0.0
230
0.9999999999999999
 40
0.1303379353271464
 41
6.224763057141982
 42
8.755490472533719
  0
LINE
  5
1CD68
330
1F
100
AcDbEntity
  8
AM_0
100
AcDbLine
 10
0.7144400278486387
 20
-73.59884059568751
 30
0.0
 11
0.6515777908938105
 21
-76.73618149088091
 31
0.0
  0
ELLIPSE
  5
1CD69
330
1F
100
AcDbEntity
  8
AM_0
100
AcDbEllipse
 10
0.5556948040439238
 20
-76.73107652953539
 30
0.0
 11
0.1216365441762416
 21
0.006032668765477037
 31
0.0
210
0.0
220
0.0
230
0.9999999999999999
 40
0.1303379353271463
 41
3.153094108461158
 42
5.613897818943787
  0
LINE
  5
1CD6A
330
1F
100
AcDbEntity
  8
AM_0
100
AcDbLine
 10
0.6799049053374517
 20
-72.25966770243539
 30
0.0
 11
1.085293485367771
 21
-71.22143817346645
 31
0.0
  0
LINE
  5
1CD6B
330
1F
100
AcDbEntity
  8
AM_0
100
AcDbLine
 10
20.24999999999997
 20
-81.15393550969461
 30
0.0
 11
20.24999999999997
 21
-66.15393550969461
 31
0.0
  0
LINE
  5
1CD6C
330
1F
100
AcDbEntity
  8
AM_0
100
AcDbLine
 10
5.360190342407208
 20
-81.15393550969461
 30
0.0
 11
5.360190342407208
 21
-75.71856484426908
 31
0.0
  0
LINE
  5
1CD6D
330
1F
100
AcDbEntity
  8
AM_0
100
AcDbLine
 10
19.99999999999997
 20
-81.15393550969461
 30
0.0
 11
19.99999999999997
 21
-66.15393550969461
 31
0.0
  0
LINE
  5
1CD6E
330
1F
100
AcDbEntity
  8
AM_0
100
AcDbLine
 10
9.300244110440843
 20
-81.15393550969461
 30
0.0
 11
9.300244110440843
 21
-72.3455344140236
 31
0.0
  0
SPLINE
  5
1CD6F
330
1F
100
AcDbEntity
  8
AM_0
100
AcDbSpline
210
0.0
220
0.0
230
1.0
 70
    28
 71
     2
 72
     6
 73
     3
 74
     0
 42
0.0000000001
 43
0.0000000001
 40
0.0
 40
0.0
 40
0.0
 40
0.8683077351798001
 40
0.8683077351798001
 40
0.8683077351798001
 10
20.24999999999997
 20
-81.15393550969461
 30
0.0
 41
1.0
 10
20.10306055405013
 20
-81.15393550969461
 30
0.0
 41
1.001395898062698
 10
19.99999999999997
 20
-81.15393550969461
 30
0.0
 41
1.0
  0
LINE
  5
1CD70
330
1F
100
AcDbEntity
  8
AM_0
100
AcDbLine
 10
19.99999999999997
 20
-81.15393550969461
 30
0.0
 11
9.300244110440843
 21
-81.15393550969461
 31
0.0
  0
SPLINE
  5
1CD71
330
1F
100
AcDbEntity
  8
AM_0
100
AcDbSpline
210
0.0
220
0.0
230
1.0
 70
    24
 71
     3
 72
    20
 73
    16
 74
     0
 42
0.0000000001
 43
0.0000000001
 40
17.70191994753794
 40
17.70191994753794
 40
17.70191994753794
 40
17.70191994753794
 40
17.99086410092313
 40
17.99086410092313
 40
18.27980825430833
 40
18.27980825430833
 40
18.69758768362531
 40
18.69758768362531
 40
19.11536711294229
 40
19.11536711294229
 40
20.4628915631649
 40
20.4628915631649
 40
21.81041601338751
 40
21.81041601338751
 40
23.27042638332235
 40
23.27042638332235
 40
23.27042638332235
 40
23.27042638332235
 10
9.300244110440843
 20
-81.15393550969461
 30
0.0
 10
9.20392939264579
 20
-81.15393550969461
 30
0.0
 10
9.099236165940141
 20
-81.15393550969461
 30
0.0
 10
8.895139164631672
 20
-81.15393550969461
 30
0.0
 10
8.795646789991992
 20
-81.15393550969461
 30
0.0
 10
8.580422722991528
 20
-81.15393550969461
 30
0.0
 10
8.448269826738198
 20
-81.15393550969461
 30
0.0
 10
8.19605586594966
 20
-81.15393550969461
 30
0.0
 10
8.075732584795759
 20
-81.15393550969461
 30
0.0
 10
7.627308905152148
 20
-81.15393550969461
 30
0.0
 10
7.291767631391764
 20
-81.15393550969461
 30
0.0
 10
6.665482664129485
 20
-81.15393550969461
 30
0.0
 10
6.376175272070412
 20
-81.15393550969461
 30
0.0
 10
5.864108479593114
 20
-81.15393550969461
 30
0.0
 10
5.59602355365783
 20
-81.15393550969461
 30
0.0
 10
5.360190342407208
 20
-81.15393550969461
 30
0.0
  0
SPLINE
  5
1CD72
330
1F
100
AcDbEntity
  8
AM_0
100
AcDbSpline
210
0.0
220
0.0
230
1.0
 70
    28
 71
     2
 72
     6
 73
     3
 74
     0
 42
0.0000000001
 43
0.0000000001
 40
0.0
 40
0.0
 40
0.0
 40
0.1376386194655368
 40
0.1376386194655368
 40
0.1376386194655368
 10
5.360190342407208
 20
-81.15393550969461
 30
0.0
 41
1.0
 10
5.337102982925302
 20
-81.15393550969461
 30
0.0
 41
1.000755441159158
 10
5.313660650880337
 20
-81.15393550969461
 30
0.0
 41
1.001488001364236
  0
SPLINE
  5
1CD73
330
1F
100
AcDbEntity
  8
AM_0
100
AcDbSpline
210
0.0
220
0.0
230
1.0
 70
     8
 71
     3
 72
    20
 73
    16
 74
     0
 42
0.0000000001
 43
0.0000000001
 40
1.414238701045486
 40
1.414238701045486
 40
1.414238701045486
 40
1.414238701045486
 40
1.528481548154048
 40
1.528481548154048
 40
1.746836055033198
 40
1.746836055033198
 40
1.929255422803863
 40
1.929255422803863
 40
2.111674790574527
 40
2.111674790574527
 40
2.32156257549766
 40
2.32156257549766
 40
2.531450360420793
 40
2.531450360420793
 40
2.915305059172433
 40
2.915305059172433
 40
2.915305059172433
 40
2.915305059172433
 10
4.723954987514475
 20
-81.15393550969472
 30
0.0
 10
4.745651421956069
 20
-81.12576262659619
 30
0.0
 10
4.76753000830044
 20
-81.09845289893141
 30
0.0
 10
4.831957004462851
 20
-81.0219142331292
 30
0.0
 10
4.875131371034087
 20
-80.97525310381636
 30
0.0
 10
4.957378382680389
 20
-80.90037118153143
 30
0.0
 10
4.9980748993909
 20
-80.8690518497348
 30
0.0
 10
5.074609269510887
 20
-80.82693290781921
 30
0.0
 10
5.110391775298439
 20
-80.81632767044167
 30
0.0
 10
5.17353447766115
 20
-80.81452543794521
 30
0.0
 10
5.203947087820978
 20
-80.82608711279929
 30
0.0
 10
5.251851865965392
 20
-80.86939818601636
 30
0.0
 10
5.269542675719066
 20
-80.90077928030328
 30
0.0
 10
5.304130299234856
 20
-80.99439560794488
 30
0.0
 10
5.313329450832413
 20
-81.06996500655376
 30
0.0
 10
5.313660650880337
 20
-81.15393550969461
 30
0.0
  0
LINE
  5
1CD74
330
1F
100
AcDbEntity
  8
AM_0
100
AcDbLine
 10
5.31366065088028
 20
-81.15393550969461
 30
0.0
 11
4.723954987514645
 21
-81.15393550969461
 31
0.0
  0
SPLINE
  5
1CD75
330
1F
100
AcDbEntity
  8
AM_0
100
AcDbSpline
210
0.0
220
0.0
230
1.0
 70
    28
 71
     2
 72
     6
 73
     3
 74
     0
 42
0.0000000001
 43
0.0000000001
 40
0.0
 40
0.0
 40
0.0
 40
0.8683077351798001
 40
0.8683077351798001
 40
0.8683077351798001
 10
19.99999999999997
 20
-66.15393550969461
 30
0.0
 41
1.0
 10
20.10306055405013
 20
-66.15393550969461
 30
0.0
 41
1.001395898062698
 10
20.24999999999997
 20
-66.15393550969461
 30
0.0
 41
1.0
  0
SPLINE
  5
1CD76
330
1F
100
AcDbEntity
  8
AM_0
100
AcDbSpline
210
0.0
220
0.0
230
1.0
 70
     8
 71
     3
 72
    30
 73
    26
 74
     0
 42
0.0000000001
 43
0.0000000001
 40
0.9903739561156824
 40
0.9903739561156824
 40
0.9903739561156824
 40
0.9903739561156824
 40
1.537439018137154
 40
1.537439018137154
 40
3.034706039397558
 40
3.034706039397558
 40
4.531973060657962
 40
4.531973060657962
 40
6.029240081918366
 40
6.029240081918366
 40
6.840356035940975
 40
6.840356035940975
 40
7.651471989963582
 40
7.651471989963582
 40
8.46258794398619
 40
8.46258794398619
 40
9.273703898008797
 40
9.273703898008797
 40
11.01947192610142
 40
11.01947192610142
 40
12.76523995419404
 40
12.76523995419404
 40
14.51100798228666
 40
14.51100798228666
 40
15.42902982969657
 40
15.42902982969657
 40
15.42902982969657
 40
15.42902982969657
 10
19.99999999999997
 20
-66.15393550969461
 30
0.0
 10
19.98100299475144
 20
-66.20062938755947
 30
0.0
 10
19.95637794362298
 20
-66.25385535918306
 30
0.0
 10
19.84286134830731
 20
-66.4760414834785
 30
0.0
 10
19.71628083972152
 20
-66.68621365474584
 30
0.0
 10
19.37608416047343
 20
-67.17510976803291
 30
0.0
 10
19.16159695818917
 20
-67.45442830857988
 30
0.0
 10
18.65591696236967
 20
-68.04068014233698
 30
0.0
 10
18.36444621809014
 20
-68.34725704020875
 30
0.0
 10
17.8809431987834
 20
-68.80391323811577
 30
0.0
 10
17.69406548848153
 20
-68.97140851578641
 30
0.0
 10
17.29290423236486
 20
-69.30857624310252
 30
0.0
 10
17.07861111496274
 20
-69.47820815683517
 30
0.0
 10
16.63276277742406
 20
-69.80835414847658
 30
0.0
 10
16.40111577770412
 20
-69.96891450462263
 30
0.0
 10
15.93361991916831
 20
-70.27188377182111
 30
0.0
 10
15.69778517352503
 20
-70.4142864508265
 30
0.0
 10
14.97267773442829
 20
-70.82456482390128
 30
0.0
 10
14.43500038008651
 20
-71.08735351894458
 30
0.0
 10
13.30207229563067
 20
-71.54851514907605
 30
0.0
 10
12.70685761279285
 20
-71.74686893100883
 30
0.0
 10
11.49266768606262
 20
-72.06305544929748
 30
0.0
 10
10.87325576649985
 20
-72.18103206419946
 30
0.0
 10
9.93742170726577
 20
-72.29810566796041
 30
0.0
 10
9.616597179297031
 20
-72.32716447229521
 30
0.0
 10
9.300244110440843
 20
-72.3455344140236
 30
0.0
  0
SPLINE
  5
1CD77
330
1F
100
AcDbEntity
  8
AM_0
100
AcDbSpline
210
0.0
220
0.0
230
1.0
 70
     8
 71
     3
 72
    28
 73
    24
 74
     0
 42
0.0000000001
 43
0.0000000001
 40
16.51299726102304
 40
16.51299726102304
 40
16.51299726102304
 40
16.51299726102304
 40
17.52878036057963
 40
17.52878036057963
 40
19.26948907287049
 40
19.26948907287049
 40
21.01019778516135
 40
21.01019778516135
 40
22.75090649745221
 40
22.75090649745221
 40
23.56250639727389
 40
23.56250639727389
 40
24.37410629709557
 40
24.37410629709557
 40
25.18570619691726
 40
25.18570619691726
 40
25.99730609673894
 40
25.99730609673894
 40
27.39201539669863
 40
27.39201539669863
 40
28.78672469665833
 40
28.78672469665833
 40
29.02717229479331
 40
29.02717229479331
 40
29.02717229479331
 40
29.02717229479331
 10
9.194163072696171
 20
-70.41881793374856
 30
0.0
 10
9.543095597010876
 20
-70.40249901585148
 30
0.0
 10
9.897907425551722
 20
-70.37422025859789
 30
0.0
 10
10.86642810178088
 20
-70.26324583211314
 30
0.0
 10
11.48417182837457
 20
-70.15570181402515
 30
0.0
 10
12.69524937525827
 20
-69.87079303803373
 30
0.0
 10
13.28901640420949
 20
-69.69334441528898
 30
0.0
 10
14.41939892092697
 20
-69.28771105054844
 30
0.0
 10
14.95597890287192
 20
-69.0596319433221
 30
0.0
 10
15.68059747610815
 20
-68.71109076987622
 30
0.0
 10
15.91686273082789
 20
-68.5908952631863
 30
0.0
 10
16.38527941488579
 20
-68.33855203984686
 30
0.0
 10
16.61741674319356
 20
-68.20642429880851
 30
0.0
 10
17.06428428288351
 20
-67.9391593029271
 30
0.0
 10
17.27910613525009
 20
-67.80400318407143
 30
0.0
 10
17.68133341797497
 20
-67.54060944802458
 30
0.0
 10
17.86874829617332
 20
-67.4124214824362
 30
0.0
 10
18.33201889529974
 20
-67.08618819919658
 30
0.0
 10
18.60717114291739
 20
-66.88082975376997
 30
0.0
 10
19.09183540942709
 20
-66.51055981801804
 30
0.0
 10
19.30153818759519
 20
-66.34595338633355
 30
0.0
 10
19.50180429787881
 20
-66.19511486920354
 30
0.0
 10
19.530130236752
 20
-66.17397550843529
 30
0.0
 10
19.55732041535569
 20
-66.15393550969461
 30
0.0
  0
LINE
  5
1CD78
330
1F
100
AcDbEntity
  8
AM_0
100
AcDbLine
 10
6.686065741085344
 20
-74.3859358357021
 30
0.0
 11
6.755102810722036
 21
-72.52426729839462
 31
0.0
  0
SPLINE
  5
1CD79
330
1F
100
AcDbEntity
  8
AM_0
100
AcDbSpline
210
0.0
220
0.0
230
1.0
 70
     8
 71
     3
 72
    15
 73
    11
 74
     0
 42
0.0000000001
 43
0.0000000001
 40
-2.34595154978502
 40
-2.34595154978502
 40
-2.34595154978502
 40
-2.34595154978502
 40
-1.756548558643658
 40
-1.756548558643658
 40
-0.878274279321829
 40
-0.878274279321829
 40
0.0
 40
0.0
 40
0.0
 40
0.5299338390698976
 40
0.5299338390698976
 40
0.5299338390698976
 40
0.5299338390698976
 10
7.120351286455758
 20
-72.52428120540603
 30
0.0
 10
7.18523032056541
 20
-72.7190315951141
 30
0.0
 10
7.244375231722046
 20
-72.91404842011875
 30
0.0
 10
7.373783889895634
 20
-73.40005143924319
 30
0.0
 10
7.43520840281289
 20
-73.69133255549494
 30
0.0
 10
7.518236706461806
 20
-74.2733479511767
 30
0.0
 10
7.539756776360122
 20
-74.56409099573156
 30
0.0
 10
7.539756776360065
 20
-74.85359635551336
 30
0.0
 10
7.539756776360065
 20
-75.02827833169388
 30
0.0
 10
7.531979559224141
 20
-75.20255109497018
 30
0.0
 10
7.516630005676603
 20
-75.37621807925765
 30
0.0
  0
LINE
  5
1CD7A
330
1F
100
AcDbEntity
  8
AM_0
100
AcDbLine
 10
6.738924675434731
 20
-72.29684010242752
 30
0.0
 11
6.622149206678017
 21
-75.44583262568628
 31
0.0
  0
LINE
  5
1CD7B
330
1F
100
AcDbEntity
  8
AM_0
100
AcDbLine
 10
7.516630005676603
 20
-75.37621807925765
 30
0.0
 11
6.735178162872927
 21
-75.376188325041
 31
0.0
  0
LINE
  5
1CD7C
330
1F
100
AcDbEntity
  8
AM_0
100
AcDbLine
 10
6.735178162872927
 20
-75.376188325041
 30
0.0
 11
6.686065741085344
 21
-74.3859358357021
 31
0.0
  0
SPLINE
  5
1CD7D
330
1F
100
AcDbEntity
  8
AM_0
100
AcDbSpline
210
0.0
220
0.0
230
1.0
 70
     8
 71
     3
 72
    10
 73
     6
 74
     0
 42
0.0000000001
 43
0.0000000001
 40
17.40999950824415
 40
17.40999950824415
 40
17.40999950824415
 40
17.40999950824415
 40
17.60204368922011
 40
17.60204368922011
 40
17.98134912579769
 40
17.98134912579769
 40
17.98134912579769
 40
17.98134912579769
 10
6.699285963997312
 20
-75.46811084719971
 30
0.0
 10
6.639879683400949
 20
-75.4757134074994
 30
0.0
 10
6.581024198011136
 20
-75.48346862003231
 30
0.0
 10
6.408355196469842
 20
-75.50689762170632
 30
0.0
 10
6.296905774350847
 20
-75.52292651881223
 30
0.0
 10
6.190426308583909
 20
-75.53913578091883
 30
0.0
  0
SPLINE
  5
1CD7E
330
1F
100
AcDbEntity
  8
AM_0
100
AcDbSpline
210
0.0
220
0.0
230
1.0
 70
     8
 71
     3
 72
    10
 73
     6
 74
     0
 42
0.0000000001
 43
0.0000000001
 40
16.53912606431825
 40
16.53912606431825
 40
16.53912606431825
 40
16.53912606431825
 40
16.67704582135848
 40
16.67704582135848
 40
17.40999950824417
 40
17.40999950824417
 40
17.40999950824417
 40
17.40999950824417
 10
7.516630005676603
 20
-75.37621807925765
 30
0.0
 10
7.472600339207276
 20
-75.38054251184937
 30
0.0
 10
7.429304894691001
 20
-75.3848883527194
 30
0.0
 10
7.161134323596713
 20
-75.41236365474728
 30
0.0
 10
6.926015314326861
 20
-75.4390950000487
 30
0.0
 10
6.699285963997312
 20
-75.46811084719971
 30
0.0
  0
LINE
  5
1CD7F
330
1F
100
AcDbEntity
  8
AM_0
100
AcDbLine
 10
6.62214920667796
 20
-75.44583262568628
 30
0.0
 11
6.725504223605157
 21
-75.18113293797327
 31
0.0
  0
SPLINE
  5
1CD80
330
1F
100
AcDbEntity
  8
AM_0
100
AcDbSpline
210
0.0
220
0.0
230
1.0
 70
     8
 71
     3
 72
    12
 73
     8
 74
     0
 42
0.0000000001
 43
0.0000000001
 40
15.07824120190679
 40
15.07824120190679
 40
15.07824120190679
 40
15.07824120190679
 40
15.89254717663237
 40
15.89254717663237
 40
16.81204284947589
 40
16.81204284947589
 40
17.12469038110872
 40
17.12469038110872
 40
17.12469038110872
 40
17.12469038110872
 10
9.194163072696057
 20
-72.35145897048065
 30
0.0
 10
8.917906400841758
 20
-72.36627532995996
 30
0.0
 10
8.623241282460157
 20
-72.38536187518
 30
0.0
 10
8.008638096148701
 20
-72.43298016790405
 30
0.0
 10
7.690346225055492
 20
-72.46245641474937
 30
0.0
 10
7.314530991466228
 20
-72.50226321369567
 30
0.0
 10
7.217556915916731
 20
-72.51299787885196
 30
0.0
 10
7.120351286455758
 20
-72.52428120540603
 30
0.0
  0
LINE
  5
1CD81
330
1F
100
AcDbEntity
  8
AM_0
100
AcDbLine
 10
7.124929618991445
 20
-71.57711404381692
 30
0.0
 11
8.033527362592025
 21
-71.21492221444495
 31
0.0
  0
ELLIPSE
  5
1CD82
330
1F
100
AcDbEntity
  8
AM_0
100
AcDbEllipse
 10
7.097845042419607
 20
-71.21488659023586
 30
0.0
 11
0.9987723896798798
 21
0.04953497363532054
 31
0.0
210
0.0
220
0.0
230
1.0
 40
0.1303379353266329
 41
5.919330438032426
 42
7.700058375079713
  0
ELLIPSE
  5
1CD83
330
1F
100
AcDbEntity
  8
AM_0
100
AcDbEllipse
 10
-37.34561114969259
 20
-73.65393550969461
 30
0.0
 11
-157.6107850036852
 21
-7.684044337084242
 31
0.0
210
0.0
220
0.0
230
0.9999999999999999
 40
0.0064014739795056
 41
4.412325263863047
 42
4.430467986265721
  0
LINE
  5
1CD84
330
1F
100
AcDbEntity
  8
AM_0
100
AcDbLine
 10
7.226976242444465
 20
-71.53643547787286
 30
0.0
 11
7.247921736196048
 21
-70.99215558575625
 31
0.0
  0
LINE
  5
1CD85
330
1F
100
AcDbEntity
  8
AM_0
100
AcDbLine
 10
7.120351286455758
 20
-72.52428120540597
 30
0.0
 11
6.755102810722036
 21
-72.52426729839462
 31
0.0
  0
LINE
  5
1CD86
330
1F
100
AcDbEntity
  8
AM_0
100
AcDbLine
 10
6.755102810721979
 20
-72.52426729839462
 30
0.0
 11
7.124929618991388
 21
-71.57711404381692
 31
0.0
  0
LINE
  5
1CD87
330
1F
100
AcDbEntity
  8
AM_0
100
AcDbLine
 10
7.247387648640284
 20
-70.99462958355227
 30
0.0
 11
6.738924675434674
 21
-72.29684010242752
 31
0.0
  0
LINE
  5
1CD88
330
1F
100
AcDbEntity
  8
AM_0
100
AcDbLine
 10
7.247387648640228
 20
-70.99462958355227
 30
0.0
 11
7.226583682630434
 21
-71.53659196291611
 31
0.0
  0
ELLIPSE
  5
1CD89
330
1F
100
AcDbEntity
  8
AM_0
100
AcDbEllipse
 10
6.848409502226758
 20
-71.01136938362484
 30
0.0
 11
-0.3995089558735677
 21
-0.01981398942191888
 31
0.0
210
0.0
220
0.0
230
0.9999999999999999
 40
0.1303379353271464
 41
3.083170403552113
 42
5.61389781894397
  0
SPLINE
  5
1CD8A
330
1F
100
AcDbEntity
  8
AM_0
100
AcDbSpline
210
0.0
220
0.0
230
1.0
 70
     8
 71
     3
 72
     8
 73
     4
 74
     0
 42
0.0000000001
 43
0.0000000001
 40
-1.610015942030415
 40
-1.610015942030415
 40
-1.610015942030415
 40
-1.610015942030415
 40
-1.50372859388815
 40
-1.50372859388815
 40
-1.50372859388815
 40
-1.50372859388815
 10
9.300244110440843
 20
-72.3455344140236
 30
0.0
 10
9.264874862258779
 20
-72.34758823012984
 30
0.0
 10
9.229512569870025
 20
-72.34956308556306
 30
0.0
 10
9.194163072696057
 20
-72.35145897048065
 30
0.0
  0
LINE
  5
1CD8B
330
1F
100
AcDbEntity
  8
AM_0
100
AcDbLine
 10
9.194163072696057
 20
-72.35145897048065
 30
0.0
 11
9.194163072696171
 21
-70.41881793374856
 31
0.0
  0
LINE
  5
1CD8C
330
1F
100
AcDbEntity
  8
AM_0
100
AcDbLine
 10
19.55732041535563
 20
-66.15393550969461
 30
0.0
 11
19.99999999774215
 21
-66.15393550969461
 31
0.0
  0
LINE
  5
1CD8F
330
1F
100
AcDbEntity
  8
AM_0
100
AcDbLine
 10
1.085293485367771
 20
20.50000000006915
 30
0.0
 11
6.45466982756713
 21
23.60001087661831
 31
0.0
  0
LINE
  5
1CD90
330
1F
100
AcDbEntity
  8
AM_0
100
AcDbLine
 10
6.738924675434674
 20
7.772506707524059
 30
0.0
 11
0.7144400278486671
 21
0.1505339026614649
 31
0.0
  0
LINE
  5
1CD91
330
1F
100
AcDbEntity
  8
AM_0
100
AcDbLine
 10
0.5090021295515612
 20
10.12179572007543
 30
0.0
 11
6.53348677713754
 21
17.74376852493813
 31
0.0
  0
LINE
  5
1CD94
330
1F
100
AcDbEntity
  8
AM_0
100
AcDbLine
 10
-80.51600620988661
 20
18.45256241897639
 30
0.0
 11
-80.51600620988661
 21
3.489129724225762
 31
0.0
  0
LINE
  5
1CD95
330
1F
100
AcDbEntity
  8
AM_0
100
AcDbLine
 10
-70.57692166152833
 20
18.51204014960192
 30
0.0
 11
-70.93911349090634
 21
16.10262707904096
 31
0.0
  0
LINE
  5
1CD96
330
1F
100
AcDbEntity
  8
AM_0
100
AcDbLine
 10
-71.88610275219807
 20
10.67009230681944
 30
0.0
 11
-70.58350887365849
 21
20.37500000006887
 31
0.0
  0
LINE
  5
1CD97
330
1F
100
AcDbEntity
  8
AM_0
100
AcDbLine
 10
-65.51600620988663
 20
18.4525624189765
 30
0.0
 11
-65.51600620988663
 21
14.54743758077731
 31
0.0
  0
LINE
  5
1CD98
330
1F
100
AcDbEntity
  8
AM_0
100
AcDbLine
 10
-70.35670028374433
 20
17.47455819991043
 30
0.0
 11
-71.65891080261955
 21
7.772506707523775
 31
0.0
  0
LINE
  5
1CD99
330
1F
100
AcDbEntity
  8
AM_0
100
AcDbLine
 10
-71.65867359482876
 20
10.12179572007514
 30
0.0
 11
-70.35667310156873
 21
17.74376852493785
 31
0.0
  0
LINE
  5
1CD9A
330
1F
100
AcDbEntity
  8
AM_0
100
AcDbLine
 10
0.5766808250230042
 20
10.79509230681973
 30
0.0
 11
1.085293485367771
 21
20.50000000006915
 31
0.0
  0
ELLIPSE
  5
1CD9B
330
1F
100
AcDbEntity
  8
AM_0
100
AcDbEllipse
 10
-70.42426424733563
 20
15.10223574063386
 30
0.0
 11
-13.77598127380678
 21
7.42958772148335
 31
0.0
210
0.0
220
0.0
230
1.0
 40
0.9821432094642141
 41
1.353798840040048
 42
1.604177458163212
  0
LINE
  5
1CD9C
330
1F
100
AcDbEntity
  8
AM_0
100
AcDbLine
 10
-76.08367766354489
 20
0.9266378909471484
 30
0.0
 11
-74.73803933492879
 21
10.9522460127732
 31
0.0
  0
LINE
  5
1CD9D
330
1F
100
AcDbEntity
  8
AM_0
100
AcDbLine
 10
-71.65891080261955
 20
7.772506707523775
 30
0.0
 11
-72.96091129587957
 21
0.1505339026611807
 31
0.0
  0
LINE
  5
1CD9E
330
1F
100
AcDbEntity
  8
AM_0
100
AcDbLine
 10
-72.96088411370397
 20
0.4197442276884829
 30
0.0
 11
-71.65867359482876
 21
10.12179572007514
 31
0.0
  0
LINE
  5
1CD9F
330
1F
100
AcDbEntity
  8
AM_0
100
AcDbLine
 10
-74.80768690376196
 20
10.43334043695049
 30
0.0
 11
-76.09824391504844
 21
0.8181127945128708
 31
0.0
  0
ARC
  5
1CDA0
330
1F
100
AcDbEntity
  8
AM_0
100
AcDbCircle
 10
-73.01600620988663
 20
16.49999999999974
 30
0.0
 40
15.75
100
AcDbArc
 50
254.3778943357898
 51
258.7685490328059
  0
LINE
  5
1CDA1
330
1F
100
AcDbEntity
  8
AM_0
100
AcDbLine
 10
-76.10906511412006
 20
0.6903223135649057
 30
0.0
 11
-72.99642578394527
 21
0.0000229838807115
 31
0.0
  0
ELLIPSE
  5
1CDA2
330
1F
100
AcDbEntity
  8
AM_0
100
AcDbEllipse
 10
-72.94414431363141
 20
0.3965878510723258
 30
0.0
 11
0.05219816390505553
 21
0.3965795653900249
 31
0.0
210
0.0
220
0.0
230
1.0
 40
0.0491124217875818
 41
1.518838208446096
 42
4.049565623837832
  0
ELLIPSE
  5
1CDA3
330
1F
100
AcDbEntity
  8
AM_0
100
AcDbEllipse
 10
-76.09314722972739
 20
0.8110624854126343
 30
0.0
 11
0.01589252049649999
 21
0.120744646936587
 31
0.0
210
0.0
220
0.0
230
1.0
 40
0.0491124217875818
 41
1.518838208446082
 42
3.137290668801088
  0
LINE
  5
1CDA4
330
1F
100
AcDbEntity
  8
AM_0
100
AcDbLine
 10
-71.8861139852075
 20
10.55884115236242
 30
0.0
 11
-73.74779481043349
 21
10.74302482156506
 31
0.0
  0
LINE
  5
1CDA5
330
1F
100
AcDbEntity
  8
AM_0
100
AcDbLine
 10
-74.73803933492877
 20
10.9522460127732
 30
0.0
 11
-71.88610275219807
 21
10.67009230681944
 31
0.0
  0
LINE
  5
1CDA6
330
1F
100
AcDbEntity
  8
AM_0
100
AcDbLine
 10
-71.65867359482876
 20
10.12179572007514
 30
0.0
 11
-74.80768690376196
 21
10.43334043695049
 31
0.0
  0
LINE
  5
1CDA7
330
1F
100
AcDbEntity
  8
AM_0
100
AcDbLine
 10
-74.73264292988178
 20
10.87265142880082
 30
0.0
 11
-74.80768690376198
 21
10.43334043695049
 31
0.0
  0
LINE
  5
1CDA8
330
1F
100
AcDbEntity
  8
AM_0
100
AcDbLine
 10
-73.74779481043349
 20
10.74302482156506
 30
0.0
 11
-74.73804729977378
 21
10.87336275689253
 31
0.0
  0
LINE
  5
1CDA9
330
1F
100
AcDbEntity
  8
AM_0
100
AcDbLine
 10
-74.73804729977378
 20
10.87336275689242
 30
0.0
 11
-74.73803933492879
 21
10.9522460127732
 31
0.0
  0
ARC
  5
1CDAA
330
1F
100
AcDbEntity
  8
AM_0
100
AcDbCircle
 10
-73.01600620988663
 20
16.37499999999974
 30
0.0
 40
8.0
100
AcDbArc
 50
280.4854954595618
 51
339.6358651936835
  0
SPLINE
  5
1CDAB
330
1F
100
AcDbEntity
  8
AM_0
100
AcDbSpline
210
0.0
220
0.0
230
1.0
 70
     8
 71
     3
 72
    28
 73
    24
 74
     0
 42
0.0000000001
 43
0.0000000001
 40
0.9903739561156824
 40
0.9903739561156824
 40
0.9903739561156824
 40
0.9903739561156824
 40
1.537439018137154
 40
1.537439018137154
 40
3.034706039397558
 40
3.034706039397558
 40
4.531973060657962
 40
4.531973060657962
 40
6.029240081918366
 40
6.029240081918366
 40
6.840356035940975
 40
6.840356035940975
 40
7.651471989963582
 40
7.651471989963582
 40
8.46258794398619
 40
8.46258794398619
 40
9.273703898008797
 40
9.273703898008797
 40
11.01947192610142
 40
11.01947192610142
 40
12.76523995419404
 40
12.76523995419404
 40
13.90448041534704
 40
13.90448041534704
 40
13.90448041534704
 40
13.90448041534704
 10
-65.51600620982838
 20
14.42243758124616
 30
0.0
 10
-65.56270008775151
 20
14.24308142800848
 30
0.0
 10
-65.6159260593751
 20
14.06509005525729
 30
0.0
 10
-65.83811218367056
 20
13.40889264726636
 30
0.0
 10
-66.04828435493788
 20
12.94645865962204
 30
0.0
 10
-66.53718046822492
 20
12.09378403325476
 30
0.0
 10
-66.81649900877189
 20
11.70235753507379
 30
0.0
 10
-67.40275084252899
 20
11.01227298986859
 30
0.0
 10
-67.7093277404008
 20
10.71351592632502
 30
0.0
 10
-68.16598393830783
 20
10.32652734112352
 30
0.0
 10
-68.33347921597846
 20
10.19604758834097
 30
0.0
 10
-68.67064694329456
 20
9.954457593711339
 30
0.0
 10
-68.84027885702719
 20
9.843306676321021
 30
0.0
 10
-69.1704248486686
 20
9.643639131167305
 30
0.0
 10
-69.33098520481467
 20
9.555022720507367
 30
0.0
 10
-69.63395447201312
 20
9.39981570574011
 30
0.0
 10
-69.7763571510185
 20
9.333170431669572
 30
0.0
 10
-70.18663552409332
 20
9.153456639711379
 30
0.0
 10
-70.44942421913659
 20
9.058331521396866
 30
0.0
 10
-70.91058584926809
 20
8.912548273772671
 30
0.0
 10
-71.10893963120086
 20
8.861549623397394
 30
0.0
 10
-71.37020022675786
 20
8.801029169704606
 30
0.0
 10
-71.45628384777147
 20
8.783164064657029
 30
0.0
 10
-71.52505845746586
 20
8.769766617679778
 30
0.0
  0
ELLIPSE
  5
1CDAC
330
1F
100
AcDbEntity
  8
AM_0
100
AcDbEllipse
 10
-71.65879219872416
 20
8.947151213799515
 30
0.0
 11
0.1631192622032986
 21
1.239311141843828
 31
0.0
210
0.0
220
0.0
230
1.0
 40
0.0491124217875818
 41
1.213661373587287
 42
7.496846680766873
  0
LINE
  5
1CDAD
330
1F
100
AcDbEntity
  8
AM_0
100
AcDbLine
 10
-70.93911349090634
 20
16.10262707904096
 30
0.0
 11
-71.8861139852075
 21
10.55884115236242
 31
0.0
  0
LINE
  5
1CDAE
330
1F
100
AcDbEntity
  8
AM_0
100
AcDbLine
 10
-71.8861139852075
 20
10.55884115236242
 30
0.0
 11
-71.88610275219807
 21
10.67009230681944
 31
0.0
  0
SPLINE
  5
1CDAF
330
1F
100
AcDbEntity
  8
AM_0
100
AcDbSpline
210
0.0
220
0.0
230
1.0
 70
    28
 71
     2
 72
     6
 73
     3
 74
     0
 42
0.0000000001
 43
0.0000000001
 40
0.0
 40
0.0
 40
0.0
 40
0.6439055030259555
 40
0.6439055030259555
 40
0.6439055030259555
 10
-65.51600620988663
 20
14.54743758102197
 30
0.0
 41
1.0
 10
-65.51600620988663
 20
14.24398265076495
 30
0.0
 41
1.001035147342144
 10
-65.51600620988663
 20
13.5911178185847
 30
0.0
 41
1.000535039283365
  0
LINE
  5
1CDB0
330
1F
100
AcDbEntity
  8
AM_0
100
AcDbLine
 10
0.0005391563459511
 20
0.4197442276887671
 30
0.0
 11
0.5090021295516181
 21
10.12179572007543
 31
0.0
  0
ELLIPSE
  5
1CDB1
330
1F
100
AcDbEntity
  8
AM_0
100
AcDbEllipse
 10
0.3995173027594206
 20
0.39658785107261
 30
0.0
 11
-0.3743086651870545
 21
0.1410426288959678
 31
0.0
210
0.0
220
0.0
230
1.0
 40
0.9902524893383582
 41
0.3051768348587876
 42
2.835904250250525
  0
LINE
  5
1CDB4
330
1F
100
AcDbEntity
  8
AM_0
100
AcDbLine
 10
0.8584089313773404
 20
10.68885330626532
 30
0.0
 11
0.5766808250230326
 21
10.79509230681973
 31
0.0
  0
ARC
  5
1CDB5
330
1F
100
AcDbEntity
  8
AM_0
100
AcDbCircle
 10
-73.01600620988663
 20
16.49999999999974
 30
0.0
 40
8.0
100
AcDbArc
 50
20.36413480631646
 51
159.6358651936835
  0
ARC
  5
1CDB6
330
1F
100
AcDbEntity
  8
AM_0
100
AcDbCircle
 10
-73.01600620988663
 20
16.49999999999974
 30
0.0
 40
7.761296155558073
100
AcDbArc
 50
14.9094985443079
 51
165.0905014556921
  0
ARC
  5
1CDB7
330
1F
100
AcDbEntity
  8
AM_0
100
AcDbCircle
 10
-73.01600620988663
 20
16.49999999999974
 30
0.0
 40
7.750000000000141
100
AcDbArc
 50
142.9391184841222
 51
165.407449397968
  0
SPLINE
  5
1CDB8
330
1F
100
AcDbEntity
  8
AM_0
100
AcDbSpline
210
0.0
220
0.0
230
1.0
 70
    28
 71
     2
 72
     6
 73
     3
 74
     0
 42
0.0000000001
 43
0.0000000001
 40
0.0469897154225116
 40
0.0469897154225116
 40
0.0469897154225116
 40
0.8683077351798001
 40
0.8683077351798001
 40
0.8683077351798001
 10
-80.51600620988661
 20
18.49692714295722
 30
0.0
 41
1.000142906020847
 10
-80.51600620988661
 20
18.88444546976845
 30
0.0
 41
1.001320357041851
 10
-80.51600620988663
 20
19.28388218141478
 30
0.0
 41
1.0
  0
LINE
  5
1CDB9
330
1F
100
AcDbEntity
  8
AM_0
100
AcDbLine
 10
-80.51600620988663
 20
18.45256241897639
 30
0.0
 11
-80.51600620988663
 21
18.49692714295722
 31
0.0
  0
LINE
  5
1CDBA
330
1F
100
AcDbEntity
  8
AM_0
100
AcDbLine
 10
-70.5835088736585
 20
20.37500000006887
 30
0.0
 11
-79.20047196224193
 21
21.04564057254933
 31
0.0
  0
ARC
  5
1CDBB
330
1F
100
AcDbEntity
  8
AM_0
100
AcDbCircle
 10
-73.01600620988663
 20
16.49999999999974
 30
0.0
 40
7.750000000000142
100
AcDbArc
 50
66.36677740762849
 51
142.9391184841222
  0
LINE
  5
1CDBC
330
1F
100
AcDbEntity
  8
AM_0
100
AcDbLine
 10
-70.5835088736585
 20
20.37500000006887
 30
0.0
 11
-69.88436679397447
 21
23.58909970085792
 31
0.0
  0
SPLINE
  5
1CDBD
330
1F
100
AcDbEntity
  8
AM_0
100
AcDbSpline
210
0.0
220
0.0
230
1.0
 70
     8
 71
     3
 72
    28
 73
    24
 74
     0
 42
0.0000000001
 43
0.0000000001
 40
16.51299726102304
 40
16.51299726102304
 40
16.51299726102304
 40
16.51299726102304
 40
17.52878036057963
 40
17.52878036057963
 40
19.26948907287049
 40
19.26948907287049
 40
21.01019778516135
 40
21.01019778516135
 40
22.75090649745221
 40
22.75090649745221
 40
23.56250639727389
 40
23.56250639727389
 40
24.37410629709557
 40
24.37410629709557
 40
25.18570619691726
 40
25.18570619691726
 40
25.99730609673894
 40
25.99730609673894
 40
27.39201539669863
 40
27.39201539669863
 40
28.78672469665833
 40
28.78672469665833
 40
29.02717229479331
 40
29.02717229479331
 40
29.02717229479331
 40
29.02717229479331
 10
-69.78088863394059
 20
23.5424792701011
 30
0.0
 10
-69.76456971604351
 20
23.53498281663858
 30
0.0
 10
-69.73629095878992
 20
23.52196669764348
 30
0.0
 10
-69.62531653230518
 20
23.46934279750448
 30
0.0
 10
-69.51777251421719
 20
23.41743419835674
 30
0.0
 10
-69.23286373822576
 20
23.26582422610861
 30
0.0
 10
-69.05541511548103
 20
23.16588629473094
 30
0.0
 10
-68.64978175074049
 20
22.90752728922345
 30
0.0
 10
-68.42170264351411
 20
22.74878512983636
 30
0.0
 10
-68.07316147006823
 20
22.47083589085159
 30
0.0
 10
-67.9529659633783
 20
22.37000681984361
 30
0.0
 10
-67.7006227400389
 20
22.14252205802561
 30
0.0
 10
-67.56849499900058
 20
22.01581517669465
 30
0.0
 10
-67.30123000311913
 20
21.73840909127122
 30
0.0
 10
-67.16607388426345
 20
21.58760178670227
 30
0.0
 10
-66.90268014821663
 20
21.26787632239311
 30
0.0
 10
-66.77449218262821
 20
21.09892914746953
 30
0.0
 10
-66.44825889938865
 20
20.63008066956908
 30
0.0
 10
-66.24290045396201
 20
20.29002843888813
 30
0.0
 10
-65.87263051821009
 20
19.53503889547389
 30
0.0
 10
-65.7080240865256
 20
19.12007447336825
 30
0.0
 10
-65.55718556939557
 20
18.6058744372244
 30
0.0
 10
-65.53604620862733
 20
18.52953818635498
 30
0.0
 10
-65.51600620988663
 20
18.45256241897639
 30
0.0
  0
LINE
  5
1CDBE
330
1F
100
AcDbEntity
  8
AM_0
100
AcDbLine
 10
-70.66751738869239
 20
17.90936910221555
 30
0.0
 11
-70.32132619235436
 21
17.89430150059954
 31
0.0
  0
ELLIPSE
  5
1CDBF
330
1F
100
AcDbEntity
  8
AM_0
100
AcDbEllipse
 10
-70.57695729042793
 20
18.15919656667617
 30
0.0
 11
0.1304954097626321
 21
0.9914489134750172
 31
0.0
210
0.0
220
0.0
230
0.9999999999999999
 40
0.0491124218674239
 41
4.459362994447055
 42
7.496590896526667
  0
ELLIPSE
  5
1CDC0
330
1F
100
AcDbEntity
  8
AM_0
100
AcDbEllipse
 10
-70.37344008381687
 20
17.4977145765267
 30
0.0
 11
0.05219816390505553
 21
0.3965795653900249
 31
0.0
210
0.0
220
0.0
230
1.0
 40
0.0491124217875818
 41
4.660430862035813
 42
7.191158277427669
  0
LINE
  5
1CDC1
330
1F
100
AcDbEntity
  8
AM_0
100
AcDbLine
 10
-65.51600620988663
 20
18.49692714295722
 30
0.0
 11
-65.51600620988663
 21
18.45256241897639
 31
0.0
  0
SPLINE
  5
1CDC2
330
1F
100
AcDbEntity
  8
AM_0
100
AcDbSpline
210
0.0
220
0.0
230
1.0
 70
    28
 71
     2
 72
     6
 73
     3
 74
     0
 42
0.0000000001
 43
0.0000000001
 40
0.0
 40
0.0
 40
0.0
 40
0.8213180197572884
 40
0.8213180197572884
 40
0.8213180197572884
 10
-65.51600620988663
 20
19.28388218141478
 30
0.0
 41
1.0
 10
-65.51600620988663
 20
18.88444546976845
 30
0.0
 41
1.001320357041851
 10
-65.51600620988663
 20
18.49692714295722
 30
0.0
 41
1.000142906020847
  0
ARC
  5
1CDC3
330
1F
100
AcDbEntity
  8
AM_0
100
AcDbCircle
 10
-73.01600620988663
 20
16.49999999999974
 30
0.0
 40
7.750000000000141
100
AcDbArc
 50
65.32727598507675
 51
66.36677740762849
  0
LINE
  5
1CDC4
330
1F
100
AcDbEntity
  8
AM_0
100
AcDbLine
 10
8.038460184543936
 20
17.81972745770921
 30
0.0
 11
7.140713193243556
 21
15.43908833539766
 31
0.0
  0
LINE
  5
1CDC5
330
1F
100
AcDbEntity
  8
AM_0
100
AcDbLine
 10
7.140695319601463
 20
15.43874728598919
 30
0.0
 11
8.033527362592025
 21
17.80635298313328
 31
0.0
  0
LINE
  5
1CDC6
330
1F
100
AcDbEntity
  8
AM_0
100
AcDbLine
 10
6.162162722014585
 20
18.5120401496022
 30
0.0
 11
5.269306757337091
 21
16.14437101709794
 31
0.0
  0
ELLIPSE
  5
1CDC7
330
1F
100
AcDbEntity
  8
AM_0
100
AcDbEllipse
 10
8.457476744684044
 20
-58.86260936522402
 30
0.0
 11
9.393274035311588E-13
 21
114.9465718930952
 31
0.0
210
0.0
220
0.0
230
1.0
 40
0.1304954097626381
 41
5.405125003215392
 42
5.450130443574788
  0
LINE
  5
1CDC8
330
1F
100
AcDbEntity
  8
AM_0
100
AcDbLine
 10
7.247387648640284
 20
17.47455819991072
 30
0.0
 11
6.738924675434674
 21
7.772506707524059
 31
0.0
  0
LINE
  5
1CDC9
330
1F
100
AcDbEntity
  8
AM_0
100
AcDbLine
 10
19.99999999999997
 20
8.749999999999801
 30
0.0
 11
20.24999999999997
 21
8.500000000000028
 31
0.0
  0
SPLINE
  5
1CDCA
330
1F
100
AcDbEntity
  8
AM_0
100
AcDbSpline
210
0.0
220
0.0
230
1.0
 70
    12
 71
     2
 72
     6
 73
     3
 74
     0
 42
0.0000000001
 43
0.0000000001
 40
0.0
 40
0.0
 40
0.0
 40
0.8683077351798001
 40
0.8683077351798001
 40
0.8683077351798001
 10
19.99999999999997
 20
14.54743758102225
 30
0.0
 41
1.0
 10
20.10306055405013
 20
14.138375475696
 30
0.0
 41
1.001395898062698
 10
20.24999999999997
 20
13.71611781858499
 30
0.0
 41
1.0
  0
LINE
  5
1CDCB
330
1F
100
AcDbEntity
  8
AM_0
100
AcDbLine
 10
9.300244110440843
 20
8.749999999999915
 30
0.0
 11
19.99999999999997
 21
8.749999999999915
 31
0.0
  0
SPLINE
  5
1CDCC
330
1F
100
AcDbEntity
  8
AM_0
100
AcDbSpline
210
0.0
220
0.0
230
1.0
 70
     8
 71
     3
 72
    30
 73
    26
 74
     0
 42
0.0000000001
 43
0.0000000001
 40
0.9903739561156824
 40
0.9903739561156824
 40
0.9903739561156824
 40
0.9903739561156824
 40
1.537439018137154
 40
1.537439018137154
 40
3.034706039397558
 40
3.034706039397558
 40
4.531973060657962
 40
4.531973060657962
 40
6.029240081918366
 40
6.029240081918366
 40
6.840356035940975
 40
6.840356035940975
 40
7.651471989963582
 40
7.651471989963582
 40
8.46258794398619
 40
8.46258794398619
 40
9.273703898008797
 40
9.273703898008797
 40
11.01947192610142
 40
11.01947192610142
 40
12.76523995419404
 40
12.76523995419404
 40
14.51100798228666
 40
14.51100798228666
 40
15.42902982969657
 40
15.42902982969657
 40
15.42902982969657
 40
15.42902982969657
 10
19.99999999999997
 20
14.54743758102225
 30
0.0
 10
19.98100299475144
 20
14.36808142800877
 30
0.0
 10
19.95637794362298
 20
14.19009005525757
 30
0.0
 10
19.84286134830731
 20
13.53389264726664
 30
0.0
 10
19.71628083972152
 20
13.07145865962232
 30
0.0
 10
19.37608416047343
 20
12.21878403325505
 30
0.0
 10
19.16159695818917
 20
11.82735753507407
 30
0.0
 10
18.65591696236967
 20
11.13727298986888
 30
0.0
 10
18.36444621809014
 20
10.8385159263253
 30
0.0
 10
17.8809431987834
 20
10.45152734112381
 30
0.0
 10
17.69406548848153
 20
10.32104758834126
 30
0.0
 10
17.29290423236486
 20
10.07945759371162
 30
0.0
 10
17.07861111496274
 20
9.968306676321305
 30
0.0
 10
16.63276277742406
 20
9.768639131167589
 30
0.0
 10
16.40111577770412
 20
9.680022720507651
 30
0.0
 10
15.93361991916831
 20
9.524815705740394
 30
0.0
 10
15.69778517352503
 20
9.458170431669856
 30
0.0
 10
14.97267773442829
 20
9.278456639711664
 30
0.0
 10
14.43500038008651
 20
9.18333152139715
 30
0.0
 10
13.30207229563067
 20
9.037548273772956
 30
0.0
 10
12.70685761279285
 20
8.986549623397679
 30
0.0
 10
11.49266768606262
 20
8.913305698122287
 30
0.0
 10
10.87325576649985
 20
8.890851566918883
 30
0.0
 10
9.93742170726577
 20
8.869409726156533
 30
0.0
 10
9.616597179297031
 20
8.864390923478169
 30
0.0
 10
9.300244110440843
 20
8.861244435587224
 30
0.0
  0
ARC
  5
1CDCD
330
1F
100
AcDbEntity
  8
AM_0
100
AcDbCircle
 10
9.300244110440843
 20
3.750000000000028
 30
0.0
 40
5.0
100
AcDbArc
 50
90.0
 51
112.068523184083
  0
SPLINE
  5
1CDCE
330
1F
100
AcDbEntity
  8
AM_0
100
AcDbSpline
210
0.0
220
0.0
230
1.0
 70
     8
 71
     3
 72
    12
 73
     8
 74
     0
 42
0.0000000001
 43
0.0000000001
 40
15.07824120190679
 40
15.07824120190679
 40
15.07824120190679
 40
15.07824120190679
 40
15.89254717663237
 40
15.89254717663237
 40
16.81204284947589
 40
16.81204284947589
 40
17.12469038110872
 40
17.12469038110872
 40
17.12469038110872
 40
17.12469038110872
 10
9.194163072696057
 20
8.859090333351816
 30
0.0
 10
8.917906400841758
 20
8.850617722191174
 30
0.0
 10
8.623241282460157
 20
8.816638502693678
 30
0.0
 10
8.008638096148701
 20
8.686442471138008
 30
0.0
 10
7.690346225055492
 20
8.582429451975401
 30
0.0
 10
7.314530991466228
 20
8.421604551686556
 30
0.0
 10
7.217556915916731
 20
8.376587748483445
 30
0.0
 10
7.120351286455758
 20
8.327489699552672
 30
0.0
  0
SPLINE
  5
1CDD0
330
1F
100
AcDbEntity
  8
AM_0
100
AcDbSpline
210
0.0
220
0.0
230
1.0
 70
     8
 71
     3
 72
     8
 73
     4
 74
     0
 42
0.0000000001
 43
0.0000000001
 40
17.10015910466547
 40
17.10015910466547
 40
17.10015910466547
 40
17.10015910466547
 40
17.34751882815347
 40
17.34751882815347
 40
17.34751882815347
 40
17.34751882815347
 10
6.989911318139974
 20
8.376678302157899
 30
0.0
 10
6.912123543154934
 20
8.337073075724021
 30
0.0
 10
6.834394426832631
 20
8.295046090174111
 30
0.0
 10
6.757433544052532
 20
8.250676030925121
 30
0.0
  0
SPLINE
  5
1CDD1
330
1F
100
AcDbEntity
  8
AM_0
100
AcDbSpline
210
0.0
220
0.0
230
1.0
 70
     8
 71
     3
 72
    10
 73
     6
 74
     0
 42
0.0000000001
 43
0.0000000001
 40
-2.34595154978502
 40
-2.34595154978502
 40
-2.34595154978502
 40
-2.34595154978502
 40
-1.756548558643658
 40
-1.756548558643658
 40
-1.20857258124692
 40
-1.20857258124692
 40
-1.20857258124692
 40
-1.20857258124692
 10
7.120351286455758
 20
8.327489699552672
 30
0.0
 10
7.18523032056541
 20
8.332299192805436
 30
0.0
 10
7.244375231722046
 20
8.339311094573901
 30
0.0
 10
7.344660688964922
 20
8.358109346735802
 30
0.0
 10
7.386742707417255
 20
8.369543544172103
 30
0.0
 10
7.421668132539679
 20
8.383675894498111
 30
0.0
  0
LINE
  5
1CDD2
330
1F
100
AcDbEntity
  8
AM_0
100
AcDbLine
 10
7.120351286455758
 20
8.327489699552672
 30
0.0
 11
6.76841440471199
 21
8.460204262748135
 31
0.0
  0
SPLINE
  5
1CDD3
330
1F
100
AcDbEntity
  8
AM_0
100
AcDbSpline
210
0.0
220
0.0
230
1.0
 70
     8
 71
     3
 72
     8
 73
     4
 74
     0
 42
0.0000000001
 43
0.0000000001
 40
-1.610015942030415
 40
-1.610015942030415
 40
-1.610015942030415
 40
-1.610015942030415
 40
-1.50372859388815
 40
-1.50372859388815
 40
-1.50372859388815
 40
-1.50372859388815
 10
9.300244110440843
 20
8.861244435587224
 30
0.0
 10
9.264874862258779
 20
8.860892648542773
 30
0.0
 10
9.229512569870025
 20
8.860174479273979
 30
0.0
 10
9.194163072696057
 20
8.859090333351816
 30
0.0
  0
LINE
  5
1CDD4
330
1F
100
AcDbEntity
  8
AM_0
100
AcDbLine
 10
19.99999999999997
 20
8.749999999999801
 30
0.0
 11
19.99999999999997
 21
14.54743758102225
 31
0.0
  0
LINE
  5
1CDD5
330
1F
100
AcDbEntity
  8
AM_0
100
AcDbLine
 10
20.24999999999997
 20
8.500000000000028
 30
0.0
 11
20.24999999999997
 21
13.71611781858499
 31
0.0
  0
LINE
  5
1CDD6
330
1F
100
AcDbEntity
  8
AM_0
100
AcDbLine
 10
7.580484013631718
 20
24.25000000000014
 30
0.0
 11
19.99999999999974
 21
24.25000000000014
 31
0.0
  0
LINE
  5
1CDD7
330
1F
100
AcDbEntity
  8
AM_0
100
AcDbLine
 10
19.99999999999974
 20
18.45256241897678
 30
0.0
 11
19.55732041535569
 21
18.45256241897667
 31
0.0
  0
SPLINE
  5
1CDD8
330
1F
100
AcDbEntity
  8
AM_0
100
AcDbSpline
210
0.0
220
0.0
230
1.0
 70
     8
 71
     3
 72
    28
 73
    24
 74
     0
 42
0.0000000001
 43
0.0000000001
 40
16.51299726102304
 40
16.51299726102304
 40
16.51299726102304
 40
16.51299726102304
 40
17.52878036057963
 40
17.52878036057963
 40
19.26948907287049
 40
19.26948907287049
 40
21.01019778516135
 40
21.01019778516135
 40
22.75090649745221
 40
22.75090649745221
 40
23.56250639727389
 40
23.56250639727389
 40
24.37410629709557
 40
24.37410629709557
 40
25.18570619691726
 40
25.18570619691726
 40
25.99730609673894
 40
25.99730609673894
 40
27.39201539669863
 40
27.39201539669863
 40
28.78672469665833
 40
28.78672469665833
 40
29.02717229479331
 40
29.02717229479331
 40
29.02717229479331
 40
29.02717229479331
 10
9.194163072696171
 20
23.54247927010138
 30
0.0
 10
9.543095597010876
 20
23.53498281663886
 30
0.0
 10
9.897907425551722
 20
23.52196669764376
 30
0.0
 10
10.86642810178088
 20
23.46934279750477
 30
0.0
 10
11.48417182837457
 20
23.41743419835703
 30
0.0
 10
12.69524937525827
 20
23.26582422610889
 30
0.0
 10
13.28901640420949
 20
23.16588629473122
 30
0.0
 10
14.41939892092697
 20
22.90752728922374
 30
0.0
 10
14.95597890287192
 20
22.74878512983665
 30
0.0
 10
15.68059747610815
 20
22.47083589085187
 30
0.0
 10
15.91686273082789
 20
22.37000681984389
 30
0.0
 10
16.38527941488579
 20
22.14252205802589
 30
0.0
 10
16.61741674319356
 20
22.01581517669493
 30
0.0
 10
17.06428428288351
 20
21.73840909127151
 30
0.0
 10
17.27910613525009
 20
21.58760178670255
 30
0.0
 10
17.68133341797497
 20
21.26787632239339
 30
0.0
 10
17.86874829617332
 20
21.09892914746982
 30
0.0
 10
18.33201889529974
 20
20.63008066956937
 30
0.0
 10
18.60717114291739
 20
20.29002843888841
 30
0.0
 10
19.09183540942709
 20
19.53503889547417
 30
0.0
 10
19.30153818759519
 20
19.12007447336853
 30
0.0
 10
19.50180429787881
 20
18.60587443722469
 30
0.0
 10
19.530130236752
 20
18.52953818635527
 30
0.0
 10
19.55732041535569
 20
18.45256241897667
 30
0.0
  0
ELLIPSE
  5
1CDD9
330
1F
100
AcDbEntity
  8
AM_0
100
AcDbEllipse
 10
7.097845042419607
 20
18.15919656667646
 30
0.0
 11
0.9357716627779918
 21
-0.3526065727430812
 31
0.0
210
0.0
220
0.0
230
1.0
 40
0.9902524893344659
 41
6.282929523471833
 42
9.424522177061654
  0
LINE
  5
1CDDA
330
1F
100
AcDbEntity
  8
AM_0
100
AcDbLine
 10
6.941802410851807
 20
18.01600930743282
 30
0.0
 11
6.642196745787629
 21
17.83870632911638
 31
0.0
  0
LINE
  5
1CDDB
330
1F
100
AcDbEntity
  8
AM_0
100
AcDbLine
 10
7.120272204220584
 20
17.94876039984288
 30
0.0
 11
7.228371577427396
 21
17.6178307605376
 31
0.0
  0
ELLIPSE
  5
1CDDC
330
1F
100
AcDbEntity
  8
AM_0
100
AcDbEllipse
 10
6.848409502226758
 20
17.49771457652699
 30
0.0
 11
-0.3743086651870545
 21
0.1410426288959678
 31
0.0
210
0.0
220
0.0
230
1.0
 40
0.9902524893383582
 41
3.44676948844853
 42
5.977496903840386
  0
ELLIPSE
  5
1CDDD
330
1F
100
AcDbEntity
  8
AM_0
100
AcDbEllipse
 10
7.004587003511261
 20
17.9121892108673
 30
0.0
 11
0.1139639345231197
 21
-0.04294256163275338
 31
0.0
210
0.0
220
0.0
230
1.0
 40
0.9902524893383581
 41
0.671306035857715
 42
2.470286617733271
  0
ELLIPSE
  5
1CDDE
330
1F
100
AcDbEntity
  8
AM_0
100
AcDbEllipse
 10
-37.34561114969259
 20
16.50000000000003
 30
0.0
 11
-157.6107849316413
 21
1.01374864078051
 31
0.0
210
0.0
220
0.0
230
1.0
 40
0.0487492755994648
 41
4.412950910888887
 42
4.431093633291564
  0
LINE
  5
1CDDF
330
1F
100
AcDbEntity
  8
AM_0
100
AcDbLine
 10
6.45466982756713
 20
23.60001087661831
 30
0.0
 11
7.580484013631718
 21
24.25000000000014
 31
0.0
  0
LINE
  5
1CDE0
330
1F
100
AcDbEntity
  8
AM_0
100
AcDbLine
 10
20.24999999999997
 20
19.28388218141507
 30
0.0
 11
20.24999999999997
 21
24.50000000000003
 31
0.0
  0
LINE
  5
1CDE1
330
1F
100
AcDbEntity
  8
AM_0
100
AcDbLine
 10
19.99999999999974
 20
18.45256241897678
 30
0.0
 11
19.99999999999974
 21
24.25000000000014
 31
0.0
  0
SPLINE
  5
1CDE3
330
1F
100
AcDbEntity
  8
AM_0
100
AcDbSpline
210
0.0
220
0.0
230
1.0
 70
    12
 71
     2
 72
     6
 73
     3
 74
     0
 42
0.0000000001
 43
0.0000000001
 40
0.0
 40
0.0
 40
0.0
 40
0.8213180197572884
 40
0.8213180197572884
 40
0.8213180197572884
 10
20.24999999999997
 20
19.28388218141507
 30
0.0
 41
1.0
 10
20.11100190698042
 20
18.88444546976874
 30
0.0
 41
1.001320357041851
 10
19.99999999999974
 20
18.45256241897678
 30
0.0
 41
1.000142906020847
  0
LINE
  5
1CDE4
330
1F
100
AcDbEntity
  8
AM_0
100
AcDbLine
 10
19.99999999999974
 20
24.25000000000014
 30
0.0
 11
20.24999999999997
 21
24.50000000000003
 31
0.0
  0
LINE
  5
1CFF1
330
1F
100
AcDbEntity
  8
AM_0
100
AcDbLine
 10
88.74999999999997
 20
19.28388218141507
 30
0.0
 11
20.24999999999997
 21
19.28388218141507
 31
0.0
  0
LINE
  5
1CFF4
330
1F
100
AcDbEntity
  8
AM_0
100
AcDbLine
 10
199.0
 20
-81.15393550969462
 30
0.0
 11
20.24999999999997
 21
-81.15393550969461
 31
0.0
  0
LINE
  5
1D56E
330
1F
100
AcDbEntity
  8
AM_5
370
    13
100
AcDbLine
 10
0.4020998172312602
 20
0.0
 30
0.0
 11
-2.165548451965805
 21
0.0
 31
0.0
1001
GENIUS_GENODEF_13
1002
{
1000
HIER
1070
     0
1002
}
1002
{
1000
MANEDIT
1070
     0
1002
}
1002
{
1000
NOSEL
1070
     0
1002
}
1002
{
1000
BEHIND
1070
     0
1002
}
1002
{
1000
REACTOR
1002
}
1001
GENIUS_GENOBJ-N-CEN_13
1002
{
1000
OWNER
1000
GEN
1002
}
  0
DIMENSION
  5
1D5A2
330
1F
100
AcDbEntity
  8
AM_5
370
    13
100
AcDbDimension
  2
*D8
 10
0.5090021295516181
 20
10.12179572007543
 30
0.0
 11
-3.832166834302342
 21
-18.34954383978217
 31
0.0
 70
   162
 71
     5
 42
0.6165061782101446
  3
AM_JIS$2
100
AcDb2LineAngularDimension
 13
6.738924675434674
 23
7.772506707524059
 33
0.0
 14
0.7144400278486671
 24
0.1505339026614649
 34
0.0
 15
0.0005391563459511
 25
0.4197442276887671
 35
0.0
 16
-8.072169243392985
 26
-16.86108956889823
 36
0.0
  0
DIMENSION
  5
1D5EA
330
1F
100
AcDbEntity
  8
AM_5
370
    13
100
AcDbDimension
  2
*D9
 10
17.63772583905305
 20
8.749999999999915
 30
0.0
 11
17.63772583905305
 21
4.384114116090842
 31
0.0
 70
   160
 71
     5
 42
8.749999591132511
  3
AM_JIS$0
100
AcDbAlignedDimension
 13
0.4026734855850975
 23
0.0000004088674075
 33
0.0
 14
19.99999999999986
 24
8.749999999999915
 34
0.0
 50
90.0
100
AcDbRotatedDimension
1001
ACAD
1000
DSTYLE
1002
{
1070
    76
1070
     1
1070
   271
1070
     0
1002
}
  0
DIMENSION
  5
1D62A
330
1F
100
AcDbEntity
  8
AM_5
370
    13
100
AcDbDimension
  2
*D10
 10
200.0
 20
-25.99838817190661
 30
0.0
 11
100.0
 21
-22.59801415615858
 31
0.0
 70
    32
 71
     5
 42
200.0
  3
AM_JIS$0
100
AcDbAlignedDimension
 13
0.0
 23
-3.89157238910704
 33
0.0
 14
200.0
 24
9.500000000000028
 34
0.0
100
AcDbRotatedDimension
1001
ACAD
1000
DSTYLE
1002
{
1070
   271
1070
     0
1002
}
  0
DIMENSION
  5
1D65B
330
1F
100
AcDbEntity
  8
AM_5
370
    13
100
AcDbDimension
  2
*D11
 10
-2.165548451965805
 20
0.0
 30
0.0
 11
-7.188069468888869
 21
9.538457965465566
 31
0.0
 70
   162
 71
     5
 42
1.623156204354722
  3
AM_JIS$2
100
AcDb2LineAngularDimension
 13
0.0005391563459511
 23
0.4197442276887671
 33
0.0
 14
0.5090021295516181
 24
10.12179572007543
 34
0.0
 15
0.4020998172312602
 25
0.0
 35
0.0
 16
-10.24809650915488
 26
6.144783920677395
 36
0.0
  0
TEXT
  5
1D6B2
330
1F
100
AcDbEntity
  8
AM_6
  6
Continuous
 62
     0
370
    30
100
AcDbText
 10
75.993461552009
 20
-98.31660967031999
 30
0.0
 40
3.8
  1
C16R-SVUBR1103-25
  7
ACISOTS
100
AcDbText
  0
HATCH
  5
1D6D1
330
1F
100
AcDbEntity
  8
AM_5
370
    13
100
AcDbHatch
 10
0.0
 20
0.0
 30
0.0
210
0.0
220
0.0
230
1.0
  2
LINE
 70
     0
 71
     1
 91
        4
 92
        7
 72
     1
 73
     1
 93
        4
 10
101.25
 20
24.50000000000004
 42
0.3135528725660038
 10
93.74999999999997
 20
19.28388218141506
 42
0.0
 10
93.74999999999999
 20
16.5
 42
0.0
 10
101.25
 20
16.5
 42
0.0
 97
        4
330
1C185
330
1C17D
330
EF21
330
1C17C
 92
        7
 72
     1
 73
     1
 93
        4
 10
101.25
 20
16.5
 42
0.0
 10
108.7499999999999
 20
16.5
 42
0.0
 10
108.75
 20
19.28388218141501
 42
0.3135528725660046
 10
101.25
 20
24.50000000000001
 42
0.0
 97
        4
330
1C17C
330
EF21
330
1C17E
330
1C185
 92
        7
 72
     1
 73
     1
 93
        4
 10
93.74999999999997
 20
16.5
 42
0.0
 10
93.74999999999997
 20
13.71611781858499
 42
0.3135528725660038
 10
101.25
 20
8.500000000000018
 42
0.0
 10
101.25
 20
16.5
 42
0.0
 97
        4
330
EF21
330
1C17D
330
1C181
330
1C17C
 92
        7
 72
     1
 73
     1
 93
        4
 10
101.25
 20
8.500000000000027
 42
0.3135528725660037
 10
108.75
 20
13.71611781858499
 42
0.0
 10
108.75
 20
16.5
 42
0.0
 10
101.25
 20
16.5
 42
0.0
 97
        4
330
EF21
330
1C17C
330
1C181
330
1C17E
 75
     0
 76
     1
 52
45.0
 41
0.5
 77
     0
 78
     1
 53
45.0
 43
-164.8876100554412
 44
-203.0161161793162
 45
-1.122532015133644
 46
1.122532015133644
 79
     0
 47
0.1097624370144329
 98
        4
 10
98.87069251988922
 20
19.28038200686277
 10
103.4828163294467
 20
20.26824434969117
 10
98.76087975580325
 20
14.78012209216982
 10
103.7024407410682
 20
14.01178528333279
  0
ENDSEC
  0
SECTION
  2
OBJECTS
  0
DICTIONARY
  5
C
330
0
100
AcDbDictionary
281
     1
  3
ACAD_COLOR
350
1D45C
  3
ACAD_GROUP
350
D
  3
ACAD_LAYOUT
350
1A
  3
ACAD_MATERIAL
350
1D45B
  3
ACAD_MLINESTYLE
350
17
  3
ACAD_PLOTSETTINGS
350
19
  3
ACAD_PLOTSTYLENAME
350
E
  3
ACAD_TABLESTYLE
350
1D45D
  3
AcAmCatalogState
350
1D4C5
  3
ACDBHEADERROUNDTRIPXREC
350
1D7ED
  3
AcDbVariableDictionary
350
30
  3
ACDMSYSVARMGR
350
1D478
  3
ACGREF_MASTER
350
1D470
  3
ACGREFACAD_MASTER
350
1D498
  3
AcmDictionary
350
4D
  3
ACME_BOM_MANAGER_NAME
350
36
  3
ACME_COMMAND_HISTORY
350
2F
  3
ACME_SCOPE_NAME
350
2E
  3
ACMESTATEMGR
350
3B
  3
AcmeSysVarManager
350
32
  3
AcmSystemVariableManager
350
6A
  3
AD_APPL
350
1D4A3
  3
ADSYSVARMGR
350
1D4A2
  3
AmdtNamedDwgMgr
350
1D493
  3
AMG
350
3F
  3
AMGSNAPSETTINGS
350
73
  3
AMI_MASTER
350
1D49B
  3
AUTOCAD_ASSEMBLIES_PROJECT
350
1D4AB
  3
Designer_Assemblies_SysVars
350
1D4A6
  3
DWGPROPS
350
1D7F0
  3
eng_data
350
2A40
  3
FILENAME
350
2916
  3
GREFAM_MODULE
350
1D49C
  3
line_dic_data
350
2A3E
  3
table_dic_data
350
1688
  3
ZWKSIZE
350
2918
  0
DICTIONARY
  5
1D6A9
330
2
100
AcDbDictionary
280
     1
281
     1
  3
ACAD_LAYERSTATES
360
1D6AA
  0
DICTIONARY
  5
165
330
1F
100
AcDbDictionary
280
     1
281
     1
  3
ACAD_SORTENTS
360
1D537
  0
DICTIONARY
  5
1D45C
102
{ACAD_REACTORS
330
C
102
}
330
C
100
AcDbDictionary
281
     1
  0
DICTIONARY
  5
D
102
{ACAD_REACTORS
330
C
102
}
330
C
100
AcDbDictionary
281
     1
  0
DICTIONARY
  5
1A
102
{ACAD_REACTORS
330
C
102
}
330
C
100
AcDbDictionary
281
     1
  3
Model
350
22
  3
ﾚｲｱｳﾄ1
350
1E
  3
ﾚｲｱｳﾄ2
350
26
  0
DICTIONARY
  5
1D45B
102
{ACAD_REACTORS
330
C
102
}
330
C
100
AcDbDictionary
281
     1
  0
DICTIONARY
  5
17
102
{ACAD_REACTORS
330
C
102
}
330
C
100
AcDbDictionary
281
     1
  3
Standard
350
18
  0
DICTIONARY
  5
19
102
{ACAD_REACTORS
330
C
102
}
330
C
100
AcDbDictionary
281
     1
  0
ACDBDICTIONARYWDFLT
  5
E
102
{ACAD_REACTORS
330
C
102
}
330
C
100
AcDbDictionary
281
     1
  3
Normal
350
F
100
AcDbDictionaryWithDefault
340
F
  0
DICTIONARY
  5
1D45D
102
{ACAD_REACTORS
330
C
102
}
330
C
100
AcDbDictionary
281
     1
  3
Standard
350
1D45E
  0
ACAD_PROXY_OBJECT
  5
1D4C5
102
{ACAD_REACTORS
330
C
102
}
330
C
100
AcDbProxyObject
 90
      499
 91
      571
 95
       25
 70
     0
 93
      544
310
3FFFFFFFE00A02814029BAE2E29B2B5B5B2B4AFB9B2B93B32B92E34BA30B6B4AFB9B2B5B5B2B4AE4661483641BA41A441C5C1AFAE73714BBAAE19181898181C1998C00AA
  0
DICTIONARY
  5
1D7ED
102
{ACAD_REACTORS
330
C
102
}
330
C
100
AcDbDictionary
281
     1
  3
COLORDICT
350
1D7EE
  3
MATERIALDICT
350
1D7EF
  0
DICTIONARY
  5
30
102
{ACAD_REACTORS
330
C
102
}
330
C
100
AcDbDictionary
281
     1
  3
CTABLESTYLE
350
1D515
  3
HIDETEXT
350
1D7EC
  3
INDEXCTL
350
1D7EB
  0
ACAD_PROXY_OBJECT
  5
1D478
102
{ACAD_REACTORS
330
C
102
}
330
C
100
AcDbProxyObject
 90
      499
 91
      507
 95
       25
 70
     0
 93
      240
310
4C51A47A0000000000000000000000000000000000000000000000000000
330
1D479
330
1D47A
330
1D47B
330
1D47C
330
1D47D
330
1D47E
330
1D47F
330
1D480
330
1D481
330
1D482
330
1D483
330
1D484
330
1D485
330
1D486
330
1D487
330
1D488
330
1D489
330
1D48A
330
1D48B
330
1D48C
330
1D48D
330
1D48E
330
1D48F
330
1D490
330
1D491
330
1D492
 94
        0
  0
ACAD_PROXY_OBJECT
  5
1D470
102
{ACAD_REACTORS
330
C
102
}
330
C
100
AcDbProxyObject
 90
      499
 91
      535
 95
       25
 70
     0
 93
       34
310
0400004280
  0
ACAD_PROXY_OBJECT
  5
1D498
102
{ACAD_REACTORS
330
C
102
}
330
C
100
AcDbProxyObject
 90
      499
 91
      541
 95
       25
 70
     0
 93
      114
310
04000041C080000000000000000000
  0
DICTIONARY
  5
4D
102
{ACAD_REACTORS
330
C
102
}
330
C
100
AcDbDictionary
281
     1
  3
AcmBOMDATA
350
4E
  3
AcmStdDictionary
350
17E
  3
AMDTSECTSYM_ARROWCOLOR
350
1D4B9
  0
ACAD_PROXY_OBJECT
  5
36
102
{ACAD_REACTORS
330
C
102
}
330
C
100
AcDbProxyObject
 90
      499
 91
      510
 95
       25
 70
     0
 93
       50
310
00010040400000
330
0
330
0
330
37
 94
        0
  0
ACAD_PROXY_OBJECT
  5
2F
102
{ACAD_REACTORS
330
C
102
}
330
C
100
AcDbProxyObject
 90
      499
 91
      505
 95
       25
 70
     0
 93
     8356
310
47805045452494D40405184D5347202D20436F6D6D616E642043414E43454C4C45442E01415454D05591501014B5354D1C80B481414104E88080819195CDADD1BDC0B985C9E08119A5B1955995C9CDA5BDB8E880E4B8C8B8C0B8D005055153415645404052D4D5347202D205050413A2020206465736B746F702E617278204
310
6696C6556657273696F6E3A20392E322E302E3401415454D05591501014B5354D1C80B481414104E88080819195CDADD1BDC0B985C9E08119A5B1955995C9CDA5BDB8E880E4B8C8B8C0B8D005055153415645404052D4D5347202D205050413A2020206465736B746F702E6172782046696C6556657273696F6E3A20392E32
310
2E302E34014154155491D1601415454D05591501014B5354D1C80B481414104E88080819195CDADD1BDC0B985C9E08119A5B1955995C9CDA5BDB8E880E4B8C8B8C0B8D005055153415645404052D4D5347202D205050413A2020206465736B746F702E6172782046696C6556657273696F6E3A20392E322E302E3401415454
310
D05591501014B5354D1C80B481414104E88080819195CDADD1BDC0B985C9E08119A5B1955995C9CDA5BDB8E880E4B8C8B8C0B8D0050E414D4454524553455444424D4F4440805084E202D20554E444F014213880B4815539113C0504554E444F80504554E444F805055153415645404052D4D5347202D205050413A2020206
310
465736B746F702E6172782046696C6556657273696F6E3A20392E322E302E3401415454D05591501014B5354D1C80B481414104E88080819195CDADD1BDC0B985C9E08119A5B1955995C9CDA5BDB8E880E4B8C8B8C0B8D005055153415645404052D4D5347202D205050413A2020206465736B746F702E6172782046696C65
310
56657273696F6E3A20392E322E302E3401415454D05591501014B5354D1C80B481414104E88080819195CDADD1BDC0B985C9E08119A5B1955995C9CDA5BDB8E880E4B8C8B8C0B8D005055153415645404052D4D5347202D205050413A2020206465736B746F702E6172782046696C6556657273696F6E3A20392E322E302E3
310
401415454D05591501014B5354D1C80B481414104E88080819195CDADD1BDC0B985C9E08119A5B1955995C9CDA5BDB8E880E4B8C8B8C0B8D0050E414D4454524553455444424D4F4440805084E202D20554E444F014213880B4815539113C0504554E444F80504554E444F8050A50524F50455254494553805054552415345
310
40405184D5347202D20436F6D6D616E642043414E43454C4C45442E014151549054D1601419111115112552014151549054D150101461354D1C80B4810DBDB5B585B990810D05390D1531311510B805054552415345805045A4F4F4D805055055524745805055153415645404052D4D5347202D205050413A2020206465736
310
B746F702E6172782046696C6556657273696F6E3A20392E322E302E340
  0
ACAD_PROXY_OBJECT
  5
2E
102
{ACAD_REACTORS
330
C
102
}
330
C
100
AcDbProxyObject
 90
      499
 91
      504
 95
       25
 70
     0
 93
      586
310
09000046408000000000000000001344E200000000000000000000000000000000000000000000000000000000000000000000000000000000000000000000000000000000AAA406AA80
360
33
360
34
360
35
360
37
360
6B
360
6C
360
1D471
360
1D472
360
1D473
360
1D474
360
1D475
360
1D476
360
1D479
360
1D47A
360
1D47B
360
1D47C
360
1D47D
360
1D47E
360
1D47F
360
1D480
360
1D481
360
1D482
360
1D483
360
1D484
360
1D485
360
1D486
360
1D487
360
1D488
360
1D489
360
1D48A
360
1D48B
360
1D48C
360
1D48D
360
1D48E
360
1D48F
360
1D490
360
1D491
360
1D492
360
1D49E
360
1D49F
360
1D4A0
360
1D4A1
360
1D4A7
360
1D4A8
360
1D4A9
360
1D4AA
360
1D4AF
360
1D4B0
360
1D4B1
360
1D4B2
360
1D4B3
360
1D4B4
 94
        0
  0
ACAD_PROXY_OBJECT
  5
3B
102
{ACAD_REACTORS
330
C
102
}
330
C
100
AcDbProxyObject
 90
      499
 91
      515
 95
       25
 70
     0
 93
       50
310
09000042641280
  0
ACAD_PROXY_OBJECT
  5
32
102
{ACAD_REACTORS
330
C
102
}
330
C
100
AcDbProxyObject
 90
      499
 91
      507
 95
       25
 70
     0
 93
       48
310
903412000000
330
33
330
34
330
35
 94
        0
  0
ACAD_PROXY_OBJECT
  5
6A
102
{ACAD_REACTORS
330
C
102
}
330
C
100
AcDbProxyObject
 90
      499
 91
      507
 95
       25
 70
     0
 93
       40
310
90240E0000
330
6B
330
6C
 94
        0
  0
ACAD_PROXY_OBJECT
  5
1D4A3
102
{ACAD_REACTORS
330
C
102
}
330
C
100
AcDbProxyObject
 90
      499
 91
      551
 95
       25
 70
     0
 93
       42
310
000900004040
330
1D49E
 94
        0
  0
ACAD_PROXY_OBJECT
  5
1D4A2
102
{ACAD_REACTORS
330
C
102
}
330
C
100
AcDbProxyObject
 90
      499
 91
      507
 95
       25
 70
     0
 93
        8
310
AA
  0
ACAD_PROXY_OBJECT
  5
1D493
102
{ACAD_REACTORS
330
C
102
}
330
C
100
AcDbProxyObject
 90
      499
 91
      540
 95
       25
 70
     0
 93
       42
310
000100005E80
330
1D471
 94
        0
  0
DICTIONARY
  5
3F
102
{ACAD_REACTORS
330
C
102
}
330
C
100
AcDbDictionary
281
     1
  3
AcMgSettings
350
40
  3
AMGLAYCFG
350
42
  0
DICTIONARY
  5
73
102
{ACAD_REACTORS
330
C
102
}
330
C
100
AcDbDictionary
281
     1
  3
DIMENSION
350
62F
  3
FEA
350
630
  3
HATCH (1)
350
631
  3
HATCH (2)
350
632
  3
SYMBOLS
350
633
  0
ACAD_PROXY_OBJECT
  5
1D49B
102
{ACAD_REACTORS
330
C
102
}
330
C
100
AcDbProxyObject
 90
      499
 91
      544
 95
       25
 70
     0
 93
       34
310
0500004280
  0
ACAD_PROXY_OBJECT
  5
1D4AB
102
{ACAD_REACTORS
330
C
102
}
330
C
100
AcDbProxyObject
 90
      499
 91
      554
 95
       25
 70
     0
 93
       98
310
0900004E400000000000000000
330
1D4B2
330
0
330
1D4B3
330
0
330
0
330
0
330
0
330
0
 94
        0
  0
ACAD_PROXY_OBJECT
  5
1D4A6
102
{ACAD_REACTORS
330
C
102
}
330
C
100
AcDbProxyObject
 90
      499
 91
      507
 95
       25
 70
     0
 93
       56
310
90441600000000
330
1D4A7
330
1D4A8
330
1D4A9
330
1D4AA
 94
        0
  0
XRECORD
  5
1D7F0
102
{ACAD_REACTORS
330
C
102
}
330
C
100
AcDbXrecord
280
     1
  1
DWGPROPS COOKIE
  2

  3

  4

  6

  7

  8
ishikawa
  9

300
AmdtFileType=82
301
=
302
=
303
=
304
=
305
=
306
=
307
=
308
=
309
=
 40
0.0
 41
2451943.235431667
 42
2455468.235402014
  1

 90
        1
  0
DICTIONARY
  5
2A40
102
{ACAD_REACTORS
330
C
102
}
330
C
100
AcDbDictionary
281
     1
  3
eng_id
350
2A41
  0
DICTIONARY
  5
2916
102
{ACAD_REACTORS
330
C
102
}
330
C
100
AcDbDictionary
281
     1
  3
FILENAME
350
2917
  0
ACAD_PROXY_OBJECT
  5
1D49C
102
{ACAD_REACTORS
330
C
102
}
330
C
100
AcDbProxyObject
 90
      499
 91
      545
 95
       25
 70
     0
 93
        8
310
05
  0
DICTIONARY
  5
2A3E
102
{ACAD_REACTORS
330
C
102
}
330
C
100
AcDbDictionary
281
     1
  3
line_data
350
2A3F
  0
DICTIONARY
  5
1688
102
{ACAD_REACTORS
330
C
102
}
330
C
100
AcDbDictionary
281
     1
  3
input_data
350
168A
  3
table_data
350
1689
  0
DICTIONARY
  5
2918
102
{ACAD_REACTORS
330
C
102
}
330
C
100
AcDbDictionary
281
     1
  3
ZWKSIZE
350
2919
  0
DICTIONARY
  5
1D6AA
102
{ACAD_REACTORS
330
1D6A9
102
}
330
1D6A9
100
AcDbDictionary
281
     1
  0
SORTENTSTABLE
  5
1D537
102
{ACAD_REACTORS
330
165
102
}
330
165
100
AcDbSortentsTable
330
1F
331
0
  5
1CE3D
331
EF21
  5
EF96
331
EF96
  5
109A3
331
FED6
  5
164E9
331
15AD4
  5
1993A
331
19939
  5
1993B
331
1993A
  5
1993C
331
1993B
  5
1993D
331
1993C
  5
1994D
331
1993D
  5
1994E
331
1994D
  5
1994F
331
1994E
  5
19961
331
1994F
  5
19962
331
19961
  5
19963
331
19962
  5
19964
331
19963
  5
19965
331
19964
  5
19966
331
19965
  5
19967
331
19966
  5
19A33
331
19967
  5
19C91
331
19A33
  5
19D92
331
19D80
  5
1B0F4
331
19D92
  5
1B220
331
1B216
  5
1B6A8
331
1B220
  5
1BCF1
331
1BCF0
  5
1BCF3
331
1BCF1
  5
1BCF6
331
1BCF3
  5
1C17A
331
1BCF6
  5
1C17C
331
1C17A
  5
1C17D
331
1C17C
  5
1C17E
331
1C17D
  5
1C17F
331
1C17E
  5
1C181
331
1C17F
  5
1C185
331
1C181
  5
1C186
331
1C185
  5
1C187
331
1C187
  5
1C189
331
1C188
  5
1C18A
331
1C189
  5
1C18B
331
1C18A
  5
1C18C
331
1C18B
  5
1C18D
331
1C18C
  5
1C18E
331
1C18E
  5
1C192
331
1C18F
  5
1C193
331
1C192
  5
1C199
331
1C193
  5
1C19A
331
1C199
  5
1C19B
331
1C19A
  5
1C19C
331
1C19B
  5
1C19D
331
1C19C
  5
1C19E
331
1C19F
  5
1C43D
331
1C1A0
  5
1CD57
331
1C43D
  5
1CD58
331
1CD57
  5
1CD59
331
1CD58
  5
1CD5B
331
1CD59
  5
1CD5C
331
1CD5B
  5
1CD5D
331
1CD5C
  5
1CD5E
331
1CD5D
  5
1CD5F
331
1CD5E
  5
1CD60
331
1CD5F
  5
1CD61
331
1CD60
  5
1CD62
331
1CD61
  5
1CD63
331
1CD62
  5
1CD64
331
1CD63
  5
1CD65
331
1CD64
  5
1CD66
331
1CD65
  5
1CD67
331
1CD66
  5
1CD68
331
1CD67
  5
1CD69
331
1CD68
  5
1CD6A
331
1CD69
  5
1CD6B
331
1CD6A
  5
1CD6C
331
1CD6B
  5
1CD6D
331
1CD6C
  5
1CD6E
331
1CD6D
  5
1CD6F
331
1CD6E
  5
1CD70
331
1CD6F
  5
1CD71
331
1CD70
  5
1CD72
331
1CD71
  5
1CD73
331
1CD72
  5
1CD74
331
1CD73
  5
1CD75
331
1CD74
  5
1CD76
331
1CD75
  5
1CD77
331
1CD76
  5
1CD78
331
1CD77
  5
1CD79
331
1CD78
  5
1CD7A
331
1CD79
  5
1CD7B
331
1CD7A
  5
1CD7C
331
1CD7B
  5
1CD7D
331
1CD7C
  5
1CD7E
331
1CD7D
  5
1CD7F
331
1CD7E
  5
1CD80
331
1CD7F
  5
1CD81
331
1CD80
  5
1CD82
331
1CD81
  5
1CD83
331
1CD82
  5
1CD84
331
1CD83
  5
1CD85
331
1CD84
  5
1CD86
331
1CD85
  5
1CD87
331
1CD86
  5
1CD88
331
1CD87
  5
1CD89
331
1CD88
  5
1CD8A
331
1CD89
  5
1CD8B
331
1CD8A
  5
1CD8C
331
1CD8B
  5
1CD8F
331
1CD8C
  5
1CD90
331
1CD8F
  5
1CD91
331
1CD90
  5
1CD94
331
1CD91
  5
1CD95
331
1CD94
  5
1CD96
331
1CD95
  5
1CD97
331
1CD96
  5
1CD98
331
1CD97
  5
1CD99
331
1CD98
  5
1CD9A
331
1CD99
  5
1CD9B
331
1CD9A
  5
1CD9C
331
1CD9B
  5
1CD9D
331
1CD9C
  5
1CD9E
331
1CD9D
  5
1CD9F
331
1CD9E
  5
1CDA0
331
1CD9F
  5
1CDA1
331
1CDA0
  5
1CDA2
331
1CDA1
  5
1CDA3
331
1CDA2
  5
1CDA4
331
1CDA3
  5
1CDA5
331
1CDA4
  5
1CDA6
331
1CDA5
  5
1CDA7
331
1CDA6
  5
1CDA8
331
1CDA7
  5
1CDA9
331
1CDA8
  5
1CDAA
331
1CDA9
  5
1CDAB
331
1CDAA
  5
1CDAC
331
1CDAB
  5
1CDAD
331
1CDAC
  5
1CDAE
331
1CDAD
  5
1CDAF
331
1CDAE
  5
1CDB0
331
1CDAF
  5
1CDB1
331
1CDB0
  5
1CDB4
331
1CDB1
  5
1CDB5
331
1CDB4
  5
1CDB6
331
1CDB5
  5
1CDB7
331
1CDB6
  5
1CDB8
331
1CDB7
  5
1CDB9
331
1CDB8
  5
1CDBA
331
1CDB9
  5
1CDBB
331
1CDBA
  5
1CDBC
331
1CDBB
  5
1CDBD
331
1CDBC
  5
1CDBE
331
1CDBD
  5
1CDBF
331
1CDBE
  5
1CDC0
331
1CDBF
  5
1CDC1
331
1CDC0
  5
1CDC2
331
1CDC1
  5
1CDC3
331
1CDC2
  5
1CDC4
331
1CDC3
  5
1CDC5
331
1CDC4
  5
1CDC6
331
1CDC5
  5
1CDC7
331
1CDC6
  5
1CDC8
331
1CDC7
  5
1CDC9
331
1CDC8
  5
1CDCA
331
1CDC9
  5
1CDCB
331
1CDCA
  5
1CDCC
331
1CDCB
  5
1CDCD
331
1CDCC
  5
1CDCE
331
1CDCD
  5
1CDD0
331
1CDCE
  5
1CDD1
331
1CDD0
  5
1CDD2
331
1CDD1
  5
1CDD3
331
1CDD2
  5
1CDD4
331
1CDD3
  5
1CDD5
331
1CDD4
  5
1CDD6
331
1CDD5
  5
1CDD7
331
1CDD6
  5
1CDD8
331
1CDD7
  5
1CDD9
331
1CDD8
  5
1CDDA
331
1CDD9
  5
1CDDB
331
1CDDA
  5
1CDDC
331
1CDDB
  5
1CDDD
331
1CDDC
  5
1CDDE
331
1CDDD
  5
1CDDF
331
1CDDE
  5
1CDE0
331
1CDDF
  5
1CDE1
331
1CDE0
  5
1CDE3
331
1CDE1
  5
1CDE4
331
1CDE3
  5
1CDED
331
1CDE4
  5
1CDEE
331
1CFF1
  5
1D56E
331
1CFF4
  5
1D5A2
331
1D56E
  5
FD2F
331
1D5A2
  5
1D5EA
331
1D5EA
  5
1D62A
331
1D62A
  5
1D65B
331
1D65B
  5
1D6B2
331
1D6B2
  5
1D6BE
331
1D6D1
  5
EF21
  0
LAYOUT
  5
22
102
{ACAD_REACTORS
330
1A
102
}
330
1A
100
AcDbPlotSettings
  1

  2
SII LP-2150 (D-SCAN C2)
  4
User120
  6
AM_VIEW1
 40
3.174999952316284
 41
3.174999952316284
 42
3.17498779296875
 43
3.17498779296875
 44
296.9259948730469
 45
419.9889831542969
 46
0.0
 47
0.0
 48
0.0
 49
0.0000000000000007
140
420.0
141
297.0
142
1.0
143
1.022107788374329
 70
 11952
 72
     1
 73
     1
 74
     4
  7
sei_cad.ctb
 75
     0
147
0.9783703943695685
148
0.0
149
-0.0000000000000007
100
AcDbLayout
  1
Model
 70
     1
 71
     0
 10
0.0
 20
0.0
 11
12.0
 21
9.0
 12
0.0
 22
0.0
 32
0.0
 14
0.0
 24
0.0
 34
0.0
 15
0.0
 25
0.0
 35
0.0
146
0.0
 13
0.0
 23
0.0
 33
0.0
 16
1.0
 26
0.0
 36
0.0
 17
0.0
 27
1.0
 37
0.0
 76
     0
330
1F
  0
LAYOUT
  5
1E
102
{ACAD_REACTORS
330
1A
102
}
330
1A
100
AcDbPlotSettings
  1

  2
Canon LASER SHOT LBP-2030
  4

  6

 40
0.0
 41
0.0
 42
0.0
 43
0.0
 44
0.0
 45
0.0
 46
0.0
 47
0.0
 48
0.0
 49
0.0
140
0.0
141
0.0
142
1.0
143
1.0
 70
   688
 72
     0
 73
     0
 74
     5
  7
sei_cad.ctb
 75
    16
147
1.0
148
0.0
149
0.0
100
AcDbLayout
  1
ﾚｲｱｳﾄ1
 70
     1
 71
     1
 10
0.0
 20
0.0
 11
420.0
 21
297.0
 12
0.0
 22
0.0
 32
0.0
 14
1.000000000000000E+20
 24
1.000000000000000E+20
 34
1.000000000000000E+20
 15
-1.000000000000000E+20
 25
-1.000000000000000E+20
 35
-1.000000000000000E+20
146
0.0
 13
0.0
 23
0.0
 33
0.0
 16
1.0
 26
0.0
 36
0.0
 17
0.0
 27
1.0
 37
0.0
 76
     0
330
1B
  0
LAYOUT
  5
26
102
{ACAD_REACTORS
330
1A
102
}
330
1A
100
AcDbPlotSettings
  1

  2
Canon LASER SHOT LBP-2030
  4

  6

 40
0.0
 41
0.0
 42
0.0
 43
0.0
 44
0.0
 45
0.0
 46
0.0
 47
0.0
 48
0.0
 49
0.0
140
0.0
141
0.0
142
1.0
143
1.0
 70
   688
 72
     0
 73
     0
 74
     5
  7
sei_cad.ctb
 75
    16
147
1.0
148
0.0
149
0.0
100
AcDbLayout
  1
ﾚｲｱｳﾄ2
 70
     1
 71
     2
 10
0.0
 20
0.0
 11
12.0
 21
9.0
 12
0.0
 22
0.0
 32
0.0
 14
0.0
 24
0.0
 34
0.0
 15
0.0
 25
0.0
 35
0.0
146
0.0
 13
0.0
 23
0.0
 33
0.0
 16
1.0
 26
0.0
 36
0.0
 17
0.0
 27
1.0
 37
0.0
 76
     0
330
23
  0
MLINESTYLE
  5
18
102
{ACAD_REACTORS
330
17
102
}
330
17
100
AcDbMlineStyle
  2
STANDARD
 70
     0
  3

 62
   256
 51
90.0
 52
90.0
 71
     2
 49
0.5
 62
   256
  6
BYLAYER
 49
-0.5
 62
   256
  6
BYLAYER
  0
ACDBPLACEHOLDER
  5
F
102
{ACAD_REACTORS
330
E
102
}
330
E
  0
TABLESTYLE
  5
1D45E
102
{ACAD_REACTORS
330
1D45D
102
}
330
1D45D
100
AcDbTableStyle
  3
Standard
 70
     0
 71
     8
 40
1.5
 41
1.5
280
     0
281
     0
  7
STANDARD
140
4.5
170
     2
 62
     0
 63
     7
283
     0
274
    -2
284
     1
 64
     0
275
    -2
285
     1
 65
     0
276
    -2
286
     1
 66
     0
277
    -2
287
     1
 67
     0
278
    -2
288
     1
 68
     0
279
    -2
289
     1
 69
     0
  7
STANDARD
140
6.0
170
     5
 62
     0
 63
     7
283
     0
274
    -2
284
     1
 64
     0
275
    -2
285
     1
 65
     0
276
    -2
286
     1
 66
     0
277
    -2
287
     1
 67
     0
278
    -2
288
     1
 68
     0
279
    -2
289
     1
 69
     0
  7
STANDARD
140
4.5
170
     5
 62
     0
 63
     7
283
     0
274
    -2
284
     1
 64
     0
275
    -2
285
     1
 65
     0
276
    -2
286
     1
 66
     0
277
    -2
287
     1
 67
     0
278
    -2
288
     1
 68
     0
279
    -2
289
     1
 69
     0
  0
XRECORD
  5
1D7EE
102
{ACAD_REACTORS
330
1D7ED
102
}
330
1D7ED
100
AcDbXrecord
280
     1
340
1D45C
  0
XRECORD
  5
1D7EF
102
{ACAD_REACTORS
330
1D7ED
102
}
330
1D7ED
100
AcDbXrecord
280
     1
340
1D45B
  0
DICTIONARYVAR
  5
1D515
102
{ACAD_REACTORS
330
30
102
}
330
30
100
DictionaryVariables
280
     0
  1
STANDARD
  0
DICTIONARYVAR
  5
1D7EC
102
{ACAD_REACTORS
330
30
102
}
330
30
100
DictionaryVariables
280
     0
  1
0
  0
DICTIONARYVAR
  5
1D7EB
102
{ACAD_REACTORS
330
30
102
}
330
30
100
DictionaryVariables
280
     0
  1
1
  0
ACAD_PROXY_OBJECT
  5
4E
102
{ACAD_REACTORS
330
4D
102
}
330
4D
100
AcDbProxyObject
 90
      499
 91
      520
 95
       25
 70
     0
 93
      118
310
405010040CA904C415CD5B075DD0A8
350
4F
 94
        0
  0
DICTIONARY
  5
17E
102
{ACAD_REACTORS
330
4D
102
}
330
4D
100
AcDbDictionary
281
     1
  3
JIS
350
17F
  0
XRECORD
  5
1D4B9
102
{ACAD_REACTORS
330
4D
102
}
330
4D
100
AcDbXrecord
280
     1
 90
-1023410169
  0
ACAD_PROXY_OBJECT
  5
33
330
2E
100
AcDbProxyObject
 90
      499
 91
      508
 95
       25
 70
     0
 93
      156
310
00010143D050D351505391D5531054925390D490
330
2E
 94
        0
  0
ACAD_PROXY_OBJECT
  5
34
330
2E
100
AcDbProxyObject
 90
      499
 91
      508
 95
       25
 70
     0
 93
      148
310
000101439050D351531253915054925390D490
330
2E
 94
        0
  0
ACAD_PROXY_OBJECT
  5
35
330
2E
100
AcDbProxyObject
 90
      499
 91
      509
 95
       25
 70
     0
 93
      156
310
000101439050D35154D6535093D314D256915080
330
2E
 94
        0
  0
ACAD_PROXY_OBJECT
  5
37
330
2E
100
AcDbProxyObject
 90
      499
 91
      511
 95
       25
 70
     0
 93
       88
310
000101411093D34C402B00
330
2E
330
0
330
0
 94
        0
  0
ACAD_PROXY_OBJECT
  5
6B
330
2E
100
AcDbProxyObject
 90
      499
 91
      509
 95
       25
 70
     0
 93
      108
310
00010142505351D153D35054D4E0
330
2E
 94
        0
  0
ACAD_PROXY_OBJECT
  5
6C
330
2E
100
AcDbProxyObject
 90
      499
 91
      522
 95
       25
 70
     0
 93
      140
310
00010142105350D55494D511005034A49530
330
2E
 94
        0
  0
ACAD_PROXY_OBJECT
  5
1D471
330
2E
100
AcDbProxyObject
 90
      499
 91
      536
 95
       25
 70
     0
 93
      478
310
0001014124FEA55D00507392E322E302E32014124FEA55D00507392E322E302E3240501000041131253914182D4454FB21E93F000000000000380FD8
330
2E
330
1D472
330
1D478
 94
        0
  0
ACAD_PROXY_OBJECT
  5
1D472
330
2E
100
AcDbProxyObject
 90
      499
 91
      537
 95
       25
 70
     0
 93
       56
310
000190240E0000
330
2E
330
1D473
330
1D475
 94
        0
  0
ACAD_PROXY_OBJECT
  5
1D473
330
2E
100
AcDbProxyObject
 90
      499
 91
      538
 95
       25
 70
     0
 93
       48
310
0001AA000000
330
2E
330
1E
330
1D474
330
0
 94
        0
  0
ACAD_PROXY_OBJECT
  5
1D474
330
2E
100
AcDbProxyObject
 90
      499
 91
      539
 95
       25
 70
     0
 93
       28
310
0001AAA0
330
2E
 94
        0
  0
ACAD_PROXY_OBJECT
  5
1D475
330
2E
100
AcDbProxyObject
 90
      499
 91
      538
 95
       25
 70
     0
 93
       48
310
0001AA000000
330
2E
330
26
330
1D476
330
0
 94
        0
  0
ACAD_PROXY_OBJECT
  5
1D476
330
2E
100
AcDbProxyObject
 90
      499
 91
      539
 95
       25
 70
     0
 93
       28
310
0001AAA0
330
2E
 94
        0
  0
ACAD_PROXY_OBJECT
  5
1D479
330
2E
100
AcDbProxyObject
 90
      499
 91
      509
 95
       25
 70
     0
 93
      108
310
000101421053521310D05310D010
330
2E
 94
        0
  0
ACAD_PROXY_OBJECT
  5
1D47A
330
2E
100
AcDbProxyObject
 90
      499
 91
      509
 95
       25
 70
     0
 93
      124
310
00010142905354915554D15112535010
330
2E
 94
        0
  0
ACAD_PROXY_OBJECT
  5
1D47B
330
2E
100
AcDbProxyObject
 90
      499
 91
      509
 95
       25
 70
     0
 93
      132
310
00010143105354D150D51253D391125360
330
2E
 94
        0
  0
ACAD_PROXY_OBJECT
  5
1D47C
330
2E
100
AcDbProxyObject
 90
      499
 91
      509
 95
       25
 70
     0
 93
      124
310
00010142905355941093D49111549010
330
2E
 94
        0
  0
ACAD_PROXY_OBJECT
  5
1D47D
330
2E
100
AcDbProxyObject
 90
      499
 91
      509
 95
       25
 70
     0
 93
      116
310
0001014290535115D1D0D3D313D4A0
330
2E
 94
        0
  0
ACAD_PROXY_OBJECT
  5
1D47E
330
2E
100
AcDbProxyObject
 90
      499
 91
      509
 95
       25
 70
     0
 93
      148
310
00010143505355925155D49151949154D21010
330
2E
 94
        0
  0
ACAD_PROXY_OBJECT
  5
1D47F
330
2E
100
AcDbProxyObject
 90
      499
 91
      509
 95
       25
 70
     0
 93
      172
310
00010144105350539393D51154149154D15495915010
330
2E
 94
        0
  0
ACAD_PROXY_OBJECT
  5
1D480
330
2E
100
AcDbProxyObject
 90
      499
 91
      509
 95
       25
 70
     0
 93
      172
310
00010144105350555513D11253505494905391D15010
330
2E
 94
        0
  0
ACAD_PROXY_OBJECT
  5
1D481
330
2E
100
AcDbProxyObject
 90
      499
 91
      509
 95
       25
 70
     0
 93
      124
310
00010142D05351561514915191125360
330
2E
 94
        0
  0
ACAD_PROXY_OBJECT
  5
1D482
330
2E
100
AcDbProxyObject
 90
      499
 91
      509
 95
       25
 70
     0
 93
      132
310
00010142D05355105410539393D5115010
330
2E
 94
        0
  0
ACAD_PROXY_OBJECT
  5
1D483
330
2E
100
AcDbProxyObject
 90
      499
 91
      509
 95
       25
 70
     0
 93
      108
310
00010142105350555513D0D31010
330
2E
 94
        0
  0
ACAD_PROXY_OBJECT
  5
1D484
330
2E
100
AcDbProxyObject
 90
      499
 91
      509
 95
       25
 70
     0
 93
      108
310
00010142105350D3119150551050
330
2E
 94
        0
  0
ACAD_PROXY_OBJECT
  5
1D485
330
2E
100
AcDbProxyObject
 90
      499
 91
      509
 95
       25
 70
     0
 93
      108
310
00010142105350D315925155D3F0
330
2E
 94
        0
  0
ACAD_PROXY_OBJECT
  5
1D486
330
2E
100
AcDbProxyObject
 90
      499
 91
      509
 95
       25
 70
     0
 93
      148
310
0001014350535212511156915493D112535010
330
2E
 94
        0
  0
ACAD_PROXY_OBJECT
  5
1D487
330
2E
100
AcDbProxyObject
 90
      499
 91
      509
 95
       25
 70
     0
 93
      124
310
00010142905352105510D21254D3D010
330
2E
 94
        0
  0
ACAD_PROXY_OBJECT
  5
1D488
330
2E
100
AcDbProxyObject
 90
      499
 91
      509
 95
       25
 70
     0
 93
      148
310
00010143905354D25391D31152105513105660
330
2E
 94
        0
  0
ACAD_PROXY_OBJECT
  5
1D489
330
2E
100
AcDbProxyObject
 90
      499
 91
      509
 95
       25
 70
     0
 93
      124
310
00010142D0535115D1D193111254D420
330
2E
 94
        0
  0
ACAD_PROXY_OBJECT
  5
1D48A
330
2E
100
AcDbProxyObject
 90
      499
 91
      509
 95
       25
 70
     0
 93
      100
310
00010142105350555513D213A0
330
2E
 94
        0
  0
ACAD_PROXY_OBJECT
  5
1D48B
330
2E
100
AcDbProxyObject
 90
      499
 91
      509
 95
       25
 70
     0
 93
      116
310
000101425053521390D3D553951010
330
2E
 94
        0
  0
ACAD_PROXY_OBJECT
  5
1D48C
330
2E
100
AcDbProxyObject
 90
      499
 91
      509
 95
       25
 70
     0
 93
      108
310
0001014210535213941493D29010
330
2E
 94
        0
  0
ACAD_PROXY_OBJECT
  5
1D48D
330
2E
100
AcDbProxyObject
 90
      499
 91
      509
 95
       25
 70
     0
 93
      108
310
0001014210535213951654115070
330
2E
 94
        0
  0
ACAD_PROXY_OBJECT
  5
1D48E
330
2E
100
AcDbProxyObject
 90
      499
 91
      509
 95
       25
 70
     0
 93
      108
310
000101421053521395925155D0F0
330
2E
 94
        0
  0
ACAD_PROXY_OBJECT
  5
1D48F
330
2E
100
AcDbProxyObject
 90
      499
 91
      509
 95
       25
 70
     0
 93
      140
310
00010143505354D150D51253D390D3D41660
330
2E
 94
        0
  0
ACAD_PROXY_OBJECT
  5
1D490
330
2E
100
AcDbProxyObject
 90
      499
 91
      509
 95
       25
 70
     0
 93
      108
310
00010142105350D3141493D29030
330
2E
 94
        0
  0
ACAD_PROXY_OBJECT
  5
1D491
330
2E
100
AcDbProxyObject
 90
      499
 91
      508
 95
       25
 70
     0
 93
      212
310
00010143905350555513D2105510D21493D500000000000002E400
330
2E
 94
        0
  0
ACAD_PROXY_OBJECT
  5
1D492
330
2E
100
AcDbProxyObject
 90
      499
 91
      509
 95
       25
 70
     0
 93
      156
310
00010143905350555513D2105510D21111551010
330
2E
 94
        0
  0
ACAD_PROXY_OBJECT
  5
1D49E
330
2E
100
AcDbProxyObject
 90
      499
 91
      547
 95
       25
 70
     0
 93
      698
310
0001000000009AA6A9AA4051E547565204175672033312030343A35363A313620323031302028555443290141CE4B8C8B8C0B8C80518547565205365702032382031343A33383A353820323031300141CE4B8C8B8C0B8C80
330
2E
330
1D49F
330
1D4A0
330
1D4A2
330
0
 94
        0
  0
ACAD_PROXY_OBJECT
  5
1D49F
330
2E
100
AcDbProxyObject
 90
      499
 91
      548
 95
       25
 70
     0
 93
       70
310
0001AAA80820000000
330
2E
330
1D49F
330
1D49F
 94
        0
  0
ACAD_PROXY_OBJECT
  5
1D4A0
330
2E
100
AcDbProxyObject
 90
      499
 91
      549
 95
       25
 70
     0
 93
       48
310
000100000000
330
2E
330
0
330
1D4A1
330
0
330
0
 94
        0
  0
ACAD_PROXY_OBJECT
  5
1D4A1
330
2E
100
AcDbProxyObject
 90
      499
 91
      550
 95
       25
 70
     0
 93
       40
310
000100AAAA
330
2E
330
0
 94
        0
  0
ACAD_PROXY_OBJECT
  5
1D4A7
330
2E
100
AcDbProxyObject
 90
      499
 91
      522
 95
       25
 70
     0
 93
      180
310
00010143105050D3D35411119390535140504434F4D500
330
2E
 94
        0
  0
ACAD_PROXY_OBJECT
  5
1D4A8
330
2E
100
AcDbProxyObject
 90
      499
 91
      522
 95
       25
 70
     0
 93
      212
310
0001014390505193D311115491119390535140506466F6C6465720
330
2E
 94
        0
  0
ACAD_PROXY_OBJECT
  5
1D4A9
330
2E
100
AcDbProxyObject
 90
      499
 91
      522
 95
       25
 70
     0
 93
      180
310
00010143105050539393D1119390535140504284156290
330
2E
 94
        0
  0
ACAD_PROXY_OBJECT
  5
1D4AA
330
2E
100
AcDbProxyObject
 90
      499
 91
      522
 95
       25
 70
     0
 93
      436
310
00010143905050D3D35415925155D31254D50052295BD96CA0A90B396CA0A894591A496CA0A8DB691A496CA0A89BA96CA0A95E28F95310
330
2E
 94
        0
  0
ACAD_PROXY_OBJECT
  5
1D4AF
330
2E
100
AcDbProxyObject
 90
      499
 91
      555
 95
       25
 70
     0
 93
       32
310
00010000
330
2E
340
1D4AC
330
1D4B1
330
1D4AC
 94
        0
  0
ACAD_PROXY_OBJECT
  5
1D4B0
330
2E
100
AcDbProxyObject
 90
      499
 91
      556
 95
       25
 70
     0
 93
       18
310
000180
330
2E
 94
        0
  0
ACAD_PROXY_OBJECT
  5
1D4B1
330
2E
100
AcDbProxyObject
 90
      499
 91
      557
 95
       25
 70
     0
 93
      218
310
0001014410CC4D9494D59550948C4C4C0CCB4C8D5050055401550000
330
2E
330
1D4AF
330
1D4B0
 94
        0
  0
ACAD_PROXY_OBJECT
  5
1D4B2
330
2E
100
AcDbProxyObject
 90
      499
 91
      558
 95
       25
 70
     0
 93
      178
310
000100AAAAAAB1998AA69FAEE1516721E69EB1CC43F940
330
2E
330
1D4B1
 94
        0
  0
ACAD_PROXY_OBJECT
  5
1D4B3
330
2E
100
AcDbProxyObject
 90
      499
 91
      559
 95
       25
 70
     0
 93
      108
310
000190140A000000000000AAAAA0
330
2E
330
1D4B4
330
1D4B4
330
1D4B4
330
1D4B4
330
1D4B4
330
0
 94
        0
  0
ACAD_PROXY_OBJECT
  5
1D4B4
330
2E
100
AcDbProxyObject
 90
      499
 91
      560
 95
       25
 70
     0
 93
       51
310
00010000AAAA80
330
2E
330
1D4B3
330
1D4B1
 94
        0
  0
DICTIONARY
  5
40
102
{ACAD_REACTORS
330
3F
102
}
330
3F
100
AcDbDictionary
281
     1
  3
DWGSETTINGS
350
41
  3
FEM
350
69
  3
Shaft
350
56
  3
TRANSSETTINGS
350
4C
  0
ACAD_PROXY_OBJECT
  5
42
102
{ACAD_REACTORS
330
3F
102
}
330
3F
100
AcDbProxyObject
 90
      499
 91
      519
 95
       25
 70
     0
 93
    23232
310
41502491013041105357CC201C00030C011E441013141105357CC603800030C011E441013241105357CCA01400030C011E441013341105357CCE01800030C010D9013441105357CD200C00030C010D9013541105357CD600C00030C010D9013641105357CDA00800030C011E9013741105357CDE01000030C010D901384110
310
5357CE200400030C011E9013941105357CE63F400030C0241102324141505357CC4C201C00030C011E902344141505357CC4C600C00030C010D902495041505357CC4CA01C00030C011E40902304E41505357CC13A01C00030C011E902314E41505357CC53A03800030C011E902324E41505357CC93A01400030C011E90233
310
4E41505357CCD3A01800030C010D902344E41505357CD13A00C00030C010D902354E41505357CD53A00C00030C010D902364E41505357CD93A00800030C011E902374E41505357CDD3A01000030C010D902384E41505357CE13A00400030C011E902394E41505357CE53A3F400030C024110332414E41905357CC4C13A01C0
310
0030C011E90334414E41905357CC4C53A00C00030C010D90349504E41905357CC4C93A01C00030C011E409044B4C494E41505357D0D3200400030C011E42504494E464F42105357D410549151A01000030C010D42D055241484D3541905357D093D4A01C00030C011E425045649455742105357D5925155D4E00400030C011
310
E42D06424548494E4441905357D25395A3F400030C0243505545241494C41505357D514A00C00030C010D4250348494441905357D21251201C00030C011E4250356495341905357D59254E01C00030C011E4250650415244494D42505357D41054911253600C00030C010D4250652454644494D42505357D49151911253601
310
000030C010D425774110531514901348070000C300479034110915312501348000000C0003FFFFFFFD034110921395901398000000C0003FFFFFFFE415092139594D06424548494E448000000C0003FFFFFFFE411093125110234418000000C0003FFFFFFFD03411093D05410234418000000C0003FFFFFFFD03411093D48C
310
9055241484D358010000C30047A411093D48CD055241484D358020000C30047A411093D48D5055241484D358000000C0003FFFFFFFE411093D48DD055241484D3581E0000C30047903411094105410234418000000C0003FFFFFFFD03411094115610234418000000C0003FFFFFFFD034110951112501358000000C0003FFF
310
FFFFD034110D0530C901348000000C0003FFFFFFFE4110D0530CD01348020000C30047A4110D0530D501348070000C30047A4110D0530DD013481E0000C30047A4110D15393901378000000C0003FFFFFFFE4110D15395D01378000000C0003FFFFFFFE4110D312539044B4C494E8000000C0003FFFFFFFE4110D3D38C5013
310
08000000C0003FFFFFFFD034110D3D38C901318000000C0003FFFFFFFD034110D3D38CD01328000000C0003FFFFFFFD034110D3D38D101328000000C0003FFFFFFFD034111115494101348000000C0003FFFFFFFD034111115510501348000000C0003FFFFFFFE4111125051D01358000000C0003FFFFFFFE4111125312501
310
358000000C0003FFFFFFFE411112535410650415244494D8000000C0003FFFFFFFE411112535490652454644494D8000000C0003FFFFFFFE411156135410234418000000C0003FFFFFFFD034111915353901388000000C0003FFFFFFFE415191535413901388030000C3004364151915354D410234418000000C0003FFFFFF
310
FE4151915354D510234418030000C300436415191535593901328000000C0003FFFFFFFE415191535595101328030000C3004364111931055101308000000C0003FFFFFFFD03411194905490234418000000C0003FFFFFFFD034111D49312501358000000C0003FFFFFFFD034111D5931250234418000000C0003FFFFFFFD0
310
34112105510D01388000000C0003FFFFFFFD014112125113901338000000C0003FFFFFFFD034112125115D01338000000C0003FFFFFFFD034112131253901348000000C0003FFFFFFFD01411213D0D3901378000000C0003FFFFFFFE411213D0D5D01378000000C0003FFFFFFFE4112539193D04494E464F8000000C0003FF
310
FFFFFE4113105112501348000000C0003FFFFFFFD034113115051101358000000C0003FFFFFFFE419397D0921395902394E8000000C0003FFFFFFFE419397D0D3D38C502304E8000000C0003FFFFFFFD03419397D0D3D38C902314E8000000C0003FFFFFFFD03419397D0D3D38CD02324E8000000C0003FFFFFFFD03419397
310
D0D3D38D102324E8000000C0003FFFFFFFD03419397D0D15393902374E8000000C0003FFFFFFFE419397D0D15395D02374E8000000C0003FFFFFFFE419397D1125312502354E8000000C0003FFFFFFFE419397D2105510D02384E8000000C0003FFFFFFFD01419397D2125113902334E8000000C0003FFFFFFFD03419397D2
310
125115D02334E8000000C0003FFFFFFFD03419397D3115051102354E8000000C0003FFFFFFFE419397D391D25410349504E8000000C0003FFFFFFFE419397D412105390334414E8000000C0003FFFFFFFE419397D510D3D3902304E8000000C0003FFFFFFFD03419397D5121312502344E8000000C0003FFFFFFFD01419397
310
D5131153902304E8000000C0003FFFFFFFD03419397D516150CD02364E8000000C0003FFFFFFFD03419397D594131250332414E8000000C0003FFFFFFFE411391D25410249508000000C0003FFFFFFFE411410530C9055241484D358010000C30047A411410530CD055241484D358020000C30047A411410530D5055241484
310
D358000000C0003FFFFFFFE411410530DD055241484D3581E0000C30047903411412105390234418000000C0003FFFFFFFE411413D4D3901368070000C30047A419413D4D49151901368050000C30047903411413D4D6101368000000C0003FFFFFFFD03411414D150D0234418000000C0003FFFFFFFD03411490D1D390137
310
8000000C0003FFFFFFFE411490D1D5D01378000000C0003FFFFFFFE4114919112501348000000C0003FFFFFFFD034114945514901348070000C30047903411494D093D01348000000C0003FFFFFFFD034114D09492D01348000000C0003FFFFFFFD014114D0D153901378000000C0003FFFFFFFD034114D150D51013480000
310
00C0003FFFFFFFD014114D15313901378000000C0003FFFFFFFD034114D15315D01378000000C0003FFFFFFFD034114D4D654D01308000000C0003FFFFFFFD034114D51312501348070000C300479034114D6508C501358000000C0003FFFFFFFD034114D6508C901358000000C0003FFFFFFFD034114D6508CD0135802000
310
0C30047A4114D6508D501358070000C300479034114D65353901378000000C0003FFFFFFFD034114D65355D01378000000C0003FFFFFFFD03411510D3D3901308000000C0003FFFFFFFD034115121312501348000000C0003FFFFFFFD01411512550C9055241484D358010000C30047A411512550CD055241484D358020000
310
C30047A411512550D5055241484D358000000C0003FFFFFFFE411512550DD055241484D3581E0000C300479034115131153901308000000C0003FFFFFFFD03415514905253105545241494C8000000C0003FFFFFFFE41151492D3901378000000C0003FFFFFFFD0341151492D5D01378000000C0003FFFFFFFD03411514931
310
2501348000000C0003FFFFFFFD01411516150C501368030000C300436411516150C901368030000C300436411516150CD01368000000C0003FFFFFFFE411516150D501368070000C30047A411516150DD013681E0000C30047A4115925155D04564945578000000C0003FFFFFFFE41159151121034849448000000C0003FFF
310
FFFFD0241159151159035649538000000C0003FFFFFFFD02411594131250232418000000C0003FFFFFFFE4116925690501348000000C0003FFFFFFFD01411354D653501358020000C30047AAAA3F400030C01013F90A4051E4091E40D0D4110D4151E4190D41D1E4391E4791E7F6
340
16
340
16
340
16
340
43
340
16
340
16
340
16
340
44
340
16
340
16
340
44
340
45
340
16
340
16
340
16
340
16
340
43
340
16
340
16
340
16
340
44
340
16
340
16
340
44
340
45
340
16
340
46
340
16
340
16
340
16
340
16
340
16
340
43
340
16
340
16
340
16
340
47
340
15
340
15
340
15
340
15
340
15
340
15
340
15
340
15
340
15
340
15
340
15
340
15
340
15
340
15
340
15
340
15
340
48
340
15
340
15
340
15
340
15
340
15
340
15
340
15
340
15
340
15
340
15
340
15
340
15
340
15
340
15
340
15
340
16
340
15
340
15
340
15
340
15
340
15
340
15
340
15
340
15
340
47
340
15
340
15
340
48
340
15
340
15
340
15
340
15
340
15
340
15
340
15
340
15
340
15
340
48
340
15
340
15
340
15
340
47
340
15
340
15
340
15
340
15
340
15
340
15
340
15
340
15
340
15
340
15
340
15
340
15
340
15
340
15
340
15
340
15
340
15
340
15
340
15
340
48
340
15
340
15
340
48
340
15
340
15
340
16
340
15
340
48
340
15
340
15
340
47
340
15
340
15
340
16
340
15
340
48
340
15
340
15
340
15
340
15
340
15
340
15
340
15
340
15
340
15
340
48
340
15
340
15
340
15
340
15
340
15
340
15
340
15
340
15
340
15
340
15
340
15
340
4B
340
16
 94
        0
  0
ACAD_PROXY_OBJECT
  5
62F
102
{ACAD_REACTORS
330
73
102
}
330
73
100
AcDbProxyObject
 90
      499
 91
      523
 95
       25
 70
     0
 93
      253
310
43D1444494D454E53494F4E2C414D44545F2A5F44494D404A9012A404A9012A0
  0
ACAD_PROXY_OBJECT
  5
630
102
{ACAD_REACTORS
330
73
102
}
330
73
100
AcDbProxyObject
 90
      499
 91
      523
 95
       25
 70
     0
 93
      181
310
43D012A42D05357D191504B505357CA9012A404A9012A8
  0
ACAD_PROXY_OBJECT
  5
631
102
{ACAD_REACTORS
330
73
102
}
330
73
100
AcDbProxyObject
 90
      499
 91
      523
 95
       25
 70
     0
 93
      133
310
43D054841544348404A9012A404A9012A8
  0
ACAD_PROXY_OBJECT
  5
632
102
{ACAD_REACTORS
330
73
102
}
330
73
100
AcDbProxyObject
 90
      499
 91
      523
 95
       25
 70
     0
 93
      549
310
43D044C494E4549CE0B0E138B0A8B4E0B0A8B4E138B105357CE0B105357CE138B0A8B505357CE0B0A8B505357CE139012A404A910494E534552542C5354445041525432448
  0
ACAD_PROXY_OBJECT
  5
633
102
{ACAD_REACTORS
330
73
102
}
330
73
100
AcDbProxyObject
 90
      499
 91
      523
 95
       25
 70
     0
 93
      909
310
43D6641434D46434652414D452C41434D444154554D5441524745542C41434D444154554D49442C41434D57454C4453594D2C41434D5355524653594D2C41434D4645415449442C41434D504152545245462C41434D42414C4C4F4F4E2C414D44544544474553594D404A9012A404A9012A8
  0
XRECORD
  5
2A41
102
{ACAD_REACTORS
330
2A40
102
}
330
2A40
100
AcDbXrecord
280
     1
  1
LINE
  0

  0
XRECORD
  5
2917
102
{ACAD_REACTORS
330
2916
102
}
330
2916
100
AcDbXrecord
280
     1
  1
25000259__00___
  0

  0
XRECORD
  5
2A3F
102
{ACAD_REACTORS
330
2A3E
102
}
330
2A3E
100
AcDbXrecord
280
     1
  1
110 ^M^J ^M^J ^M^J ^M^J ^M^J ^M^J ^M^J ^M^J ^M^J ^M^J ^M^Jボーリングクイル ^M^J鋼 ^M^J特型 ^M^J直付け ^M^Jストレート ^M^J25 ^M^J2 ^M^J ^M^Jアルミ ^M^J ^M^J
  0

  0
XRECORD
  5
168A
102
{ACAD_REACTORS
330
1688
102
}
330
1688
100
AcDbXrecord
280
     1
  1
1,,,,,,,,,^M^J2,,,,,,,,,^M^J3,,,,,,,,,^M^J4,,,,,,,,,^M^J5,,,,,,,,,
  0

  0
XRECORD
  5
1689
102
{ACAD_REACTORS
330
1688
102
}
330
1688
100
AcDbXrecord
280
     1
  1
5,10
  0

  0
XRECORD
  5
2919
102
{ACAD_REACTORS
330
2918
102
}
330
2918
100
AcDbXrecord
280
     1
  1
3
  0

  0
ACAD_PROXY_OBJECT
  5
4F
102
{ACAD_REACTORS
330
4E
102
}
330
4E
100
AcDbProxyObject
 90
      499
 91
      521
 95
       25
 70
     0
 93
      157
310
057356C1D77406406AA8FFFFFFFF05DD01009010
330
1F
330
0
330
1D4B1
 94
        0
  0
ACAD_PROXY_OBJECT
  5
17F
102
{ACAD_REACTORS
330
17E
102
}
330
17E
100
AcDbProxyObject
 90
      499
 91
      526
 95
       25
 70
     0
 93
     2379
310
5DC33333333333309408000000C00040D29254D01640600800030C0200800030C003333333333330940C8121E8720B1B6A9BAB9332A32BC3A29BA3220480A1282C6DA8C868CA6E8C88120286A0B1B6ABB2B63234B733A9BA3220480A1082C6DA92C8A6E8C88120285A0B1B6A230BA3AB6A9BA3220480A1282C6DA849E9AA6E
310
8C88120286A0B1A0B6B3AA34BA3632A9BA3220480A2082DAC8E888CAE8C2D2D8A6F2DAA6E8C88120288A0B6B23A29B2B1BA34B7B729BCB6A9BA3220480A2282DAC8E886CADCE8CAE498D2DCCAA6E8C88120288A0B6B23A2A343932B0B22634B732A9BA3220480A1682DAC8E89CDEE8CAA6E8C88120285A0B1A0B6B3A630BCA
310
9BA3220480A1682C682DACE88D2DAA6E8C88120288A0B1A0B6B3A437B632A1B430B93A29BA3220480C812020
340
180
360
181
360
182
360
183
360
184
360
185
360
186
360
1D4B6
360
1D4B7
360
1D4B8
360
1D4BA
360
1D4BB
360
1D4BC
360
1D4C2
360
1D4C3
360
1D4C4
340
0
340
0
 94
        0
  0
ACAD_PROXY_OBJECT
  5
41
102
{ACAD_REACTORS
330
40
102
}
330
40
100
AcDbProxyObject
 90
      499
 91
      518
 95
       25
 70
     0
 93
     2994
310
4050B44574753455454494E4753A0E8482A68AA6A88882A069492A684A1A0A723A0A92920ACA0A81969A1AA0C868A9C829C8E82A12686AF87260F862666A8321A2A72224A0A50000000000000122020E868A9C889282A682A106260F86460F8666083A1A2A72224A9AA250000000000000042020C868A9C988A9C940000000
310
00000048808321A2A727A323250000000000000122020E868A9C9E8C8C62940000000000000488083A1A2A727A32319250000000000000122021CC6D0C2DACCCAE4C8D2DADADEC8CA9FC84A1A624A720A92920ACA0A83989B171A9818182108698929C8AA8B2A082A0AB098929C8A84A22BA3AAA9A1A0A622A50A0E9882A6A
310
89E849482A02608426A0A5A2AB24A2ABA7E8120CA0A68682988A0C00800010652455649534941501304154D0D0531150540CC4E8C5085354414E44415244415034A4953425512535154D5105354128262853009D0ADCD050756455253494F4E4150531352E3030441ED115D1D4D15515125391D4D153911F40
  0
ACAD_PROXY_OBJECT
  5
69
102
{ACAD_REACTORS
330
40
102
}
330
40
100
AcDbProxyObject
 90
      499
 91
      518
 95
       25
 70
     0
 93
      411
310
4050346454D21092DCC6E486DECACC942842630BCA3B937BAB820A8320A6AFA322A0A20F688AE8EA68AA8A8929C8EA68A9C88FA0
  0
ACAD_PROXY_OBJECT
  5
56
102
{ACAD_REACTORS
330
40
102
}
330
40
100
AcDbProxyObject
 90
      499
 91
      518
 95
       25
 70
     0
 93
      583
310
40505536861667421292DCE8CAE4E4EAE0E89FA0484A634B3B43A2634B732A7F21A98D2CED0E898D2DCCAACD2CAEE9FC8229B4B232A7E80A20F688AE8EA68AA8A8929C8EA68A9C88FA
  0
ACAD_PROXY_OBJECT
  5
4C
102
{ACAD_REACTORS
330
40
102
}
330
40
100
AcDbProxyObject
 90
      499
 91
      518
 95
       25
 70
     0
 93
      852
310
4050D5452414E5353455454494E4753A2488A482AE929C8EA8A4829CA69882A8929E9C0C00800050D4F524947494E414C4C595F4F4E0600400028529A7AAA921A2A620A723A0A81A52827212AAA0A48AA68AA4AC8A0C0080001107B44574753455454494E4753454E447D0
  0
ACAD_PROXY_OBJECT
  5
181
330
17F
100
AcDbProxyObject
 90
      499
 91
      527
 95
       25
 70
     0
 93
       86
310
5DEA0C80A0280A0280A034
  0
ACAD_PROXY_OBJECT
  5
182
330
17F
100
AcDbProxyObject
 90
      499
 91
      528
 95
       25
 70
     0
 93
      282
310
5DD0E4050140501405014050140501405014050141101405014041000000000000001000
340
187
 94
        0
  0
ACAD_PROXY_OBJECT
  5
183
330
17F
100
AcDbProxyObject
 90
      499
 91
      529
 95
       25
 70
     0
 93
      323
310
5DCC199999999999E99F91740501405014050140501405014050140501405014050140501405014040
340
0
 94
        0
  0
ACAD_PROXY_OBJECT
  5
184
330
17F
100
AcDbProxyObject
 90
      499
 91
      530
 95
       25
 70
     0
 93
       10
310
5DC0
  0
ACAD_PROXY_OBJECT
  5
185
330
17F
100
AcDbProxyObject
 90
      499
 91
      531
 95
       25
 70
     0
 93
      257
310
5DE0C16A22A7D90F49F80000000000001081400000000000004204010000618000
340
188
340
189
 94
        0
  0
ACAD_PROXY_OBJECT
  5
186
330
17F
100
AcDbProxyObject
 90
      499
 91
      532
 95
       25
 70
     0
 93
     5277
310
5DD06411255115350141236025B6901405014069010000000000000910240690120281A8AA2CA0282484A4BE52028120280A032020000000000001220480D202405044E414D454050496BC914F4051C40640A80000000000004E4090193C3D3C4946284953424C414E4B28504152543A4E414D45292C424C4F434B3A4E414D
310
452C504152543A4E414D45293E3C41435F44455343524950544E3E40480A109A82A88AA492829880A091BBD2F7E80A3A80C81D0E27A15AF46E08A81203480901411393D5115014124A363B7D0147501904A0000000000000F902406428F4F1050D7D393D5114F901202832B22A72227A92028366EF6EE06F582028EA0320B4
310
0000000000001F20480C879E9E20A1AFAB27222FA620A122A61F20240506445020000000000000490201C00030C00010180000000000003E400000000000000F901073D3C4954454D3E4050180000000000003E400000000000000F901073D3C4954454D3E40501800000000000034400000000000000D101073D3C4954454
310
D3E40501800000000000034400000000000000D101073D3C4954454D3E405029010000000000000F9000000000000003E4041CF4F125511534F901418F4F1455164F9014060000000000000F9000000000000003E4041CF4F125511534F901800000000000034400000000000000D101073D3C4954454D3E40640400000000
310
0000003E400000000000000F90288800000000000020810000001800120881A068120480A032208521122080D21480D211480A1485214852050000000000003C2FC000000000000F0BF40600800030C0200400030C00CDCCCCCCCCCCEC3F3373333333333B0FC3333333333330940C80D069014090341504901A1999999999
310
9984A040100006180400800061804010000618008098A02808
340
0
340
0
 94
        0
  0
ACAD_PROXY_OBJECT
  5
1D4B6
330
17F
100
AcDbProxyObject
 90
      499
 91
      561
 95
       25
 70
     0
 93
     3042
310
5DD9740D29254D064A49535F413342929254D7D512551311505134A49535F42525F5265766973696F6E6C6973744190F4134522028323937783231306D6D2941D29254D7D04D1490E41312028353934783834316D6D2941929254D7D04C50E41332028323937783432306D6D2941929254D7D04CD0F41344C2028323130783
310
239376D6D2941D29254D7D04D1310E41322028343230783539346D6D2941929254D7D04C90F4130202838343178313138396D6D2941929254D7D04C10243129254C82557247A25E4C81050A4A49535F5449544C454143129254C82557247A25E4C81090A4A49535F5449544C45424110E979A97F0838A835883675F42525F4
310
4D29254D7D09497D4995D9A5CDA5BDB9B1A5CDD10E979A97F0838A835883675F54525F44D29254D7D51497D4995D9A5CDA5BDB9B1A5CDD10E979A97F0838A835883675F424C5F44D29254D7D09317D4995D9A5CDA5BDB9B1A5CDD10E979A97F0838A835883675F544C5F44D29254D7D51317D4995D9A5CDA5BDB9B1A5CDD00
  0
ACAD_PROXY_OBJECT
  5
1D4B7
330
17F
100
AcDbProxyObject
 90
      499
 91
      562
 95
       25
 70
     0
 93
      898
310
5DC4000000000000124048CF4F11115510525317D3105091530F880A0F11115510525317D05094D4D0D053114F8A50241C9A9999999999B93F26A666666666724FC000000000000E03F400000000000000400000000000000510000000000000024408070000C300000000000000049000
340
16
340
180
 94
        0
  0
ACAD_PROXY_OBJECT
  5
1D4B8
330
17F
100
AcDbProxyObject
 90
      499
 91
      563
 95
       25
 70
     0
 93
      823
310
5DC0B00000000000002480959E9E29A2A1AA24A7A72FA620A122A62FA324A929AA1F169E29A2A1AA24A7A72FA620A122A62FA620A9AA1F000000000000048803FFFE01C00030C008140380006180000000000000048800000000000000A2000000000000002480
340
652
340
180
 94
        0
  0
ACAD_PROXY_OBJECT
  5
1D4BA
330
17F
100
AcDbProxyObject
 90
      499
 91
      564
 95
       25
 70
     0
 93
      152
310
5DE8273108AC1C5A0640A3D0A5723F0BD1F200
  0
ACAD_PROXY_OBJECT
  5
1D4BB
330
17F
100
AcDbProxyObject
 90
      499
 91
      565
 95
       25
 70
     0
 93
       14
310
5DE0
340
0
 94
        0
  0
ACAD_PROXY_OBJECT
  5
1D4BC
330
17F
100
AcDbProxyObject
 90
      499
 91
      566
 95
       25
 70
     0
 93
     6059
310
5DD084050BA4050AA405024050E836583938376838C815B83672031405983D3C486F6C653A6469613E3C696628657175616C28486F6C653A7465726D696E6174696F6E2C223022292C2220905B82B320222C22208368838A838B22293E3C696628657175616C28486F6C653A7465726D696E6174696F6E2C223022292C486F
310
6C653A64657074682C2222293E2C203C486F6C653A63746469613E2082B482AE82E882CC905B82B3203C486F6C653A637464657074683E406901405034050E836583938376838C815B83672031405EF3D3C486F6C653A6374616E676C653E252564202525633C486F6C653A63746469613E208E4D8C8A2C203C69662865717
310
5616C28486F6C653A7461707065642C223022292C22252563222C486F6C653A6E6F6D696E616C202220782022293E3C696628657175616C28486F6C653A7461707065642C223022292C486F6C653A6469612C486F6C653A706974636864657363293E203C696628657175616C28486F6C653A7465726D696E6174696F6E2C2
310
23022292C22905B82B320222C222022293E3C696628657175616C28486F6C653A7465726D696E6174696F6E2C223022292C486F6C653A64657074682C2222293E406901405014050E836583938376838C815B83672031405C73D3C696628657175616C28486F6C653A7461707065642C223022292C22252563222C486F6C65
310
3A6E6F6D696E616C202220782022293E3C696628657175616C28486F6C653A7461707065642C223022292C486F6C653A6469612C486F6C653A706974636864657363293E203C696628657175616C28486F6C653A7465726D696E6174696F6E2C223022292C22905B82B320222C222022293E3C696628657175616C28486F6C
310
653A7465726D696E6174696F6E2C223022292C486F6C653A64657074682C2222293E4069014051E4090E836583938376838C815B83672032405173D3C535444503A444553433E203C535444503A5354443E40690E836583938376838C815B836720314050C3D3C535444503A444553433E40690240515AAABBA120
360
1D4C0
330
1D4C0
360
1D4C1
330
1D4C1
360
1D4BF
330
1D4BF
360
1D4BE
360
1D4BD
330
1D4BE
330
1D4BD
 94
        0
  0
ACAD_PROXY_OBJECT
  5
1D4C2
330
17F
100
AcDbProxyObject
 90
      499
 91
      568
 95
       25
 70
     0
 93
       26
310
5DD02A80
340
42
 94
        0
  0
ACAD_PROXY_OBJECT
  5
1D4C3
330
17F
100
AcDbProxyObject
 90
      499
 91
      569
 95
       25
 70
     0
 93
      250
310
5DD020000000000000A1000000000000002440408F0F9023C3E409A0DCFFFF80
340
58
340
1B97
340
1B98
340
5F
340
60
340
61
340
62
340
63
340
68
340
0
 94
        0
  0
ACAD_PROXY_OBJECT
  5
1D4C4
330
17F
100
AcDbProxyObject
 90
      499
 91
      570
 95
       25
 70
     0
 93
    13889
310
5DD1D003FFFFFFFD030300030CCCCCCCCCCCC250200800030C01030300030CCCCCCCCCCCC250200800030C00050C8DC0955782CC838A83588367014ED1D15395149050D3CB1294138B0C0B23702555E0B320E2A0D620D9CB11D15395149055160B095CCB0A11D1539354D1C819D95B991A5B5E880CCC0A78000C0000000000
310
00000000000000000000010CCCCCCCCCCCC250200800030C010CCCCCCCCCCCC250200800030C020143CF4F111959985D5B1D151A5D1B194F8050A8C8A8365815B8375838B014E51D15395149050D3CB1294138B0C0B2322A0D96056E0DD60E2CB11D15395149055160B095CCB0A11D1539354D1C819D95B991A5B5E880CCC4
310
A78000C000000000000000000000000000000010CCCCCCCCCCCC250200800030C010CCCCCCCCCCCC250200800030C020143CF4F111959985D5B1D151A5D1B194F90D44111409034110541D0C4350F4050E44D03449074510F000141232D24D7C053247454E545241434F2C4A504E2C302C8CB4935F2C47454E54524154582C
310
25732C2847454E4D53472067656E64696D7A20312900010104002214000281464500A608E8A9CA8A482869E5894A09C5860591914588E8A9CA8A482A8B0584AE658508E8A9C9AA68E40CECADCC8D2DAF4406452029E9E9E27B934B3B4B71F1E24A31427A91424A9A12620A7259427B934B3B4B7149624A9A12620A7259424B
310
A32B6949496111116111711149F1E24BA32B69F00808200111A000140560052F47454E545241434F2C4A504E2C302C582C47454E54524154582C25732C2847454E4D53472067656E64696D7A20332900010100002054000280AC80A5E8E8A9CA8A482869E5894A09C586058B2588E8A9CA8A482A8B0584AE658508E8A9C9AA
310
68E40CECADCC8D2DAF4406852000202000040E800050152014BD1D15395149050D3CB1294138B0C0B148B11D15395149055160B095CCB0A11D1539354D1C819D95B991A5B5E880D8A400040400008250000A0507A6029823A2A72A2920A1A79625282716181641E99623A2A72A2920AA2C1612B9961423A2A726A9A39033B2
310
B73234B6BD101B948000808180105A000140A0F4C053047454E545241434F2C4A504E2C302C83D32C47454E54524154582C25732C2847454E4D53472067656E64696D7A203829000101010020F400028248704B5F00A668E8A9CA8A482869E5894A09C58605921C12D7C588E8A9CA8A482A8B0584AE658508E8A9C9AA68E40
310
CECADCC8D2DAF440646052000200080043280005048B4B8A69014CD1D15395149050D3CB1294138B0C0B22D2E29A4B11D15395149055160B095CCB0A11D1539354D1C819D95B991A5B5E880C8C4A4000400100086D0000A09196926BE029923A2A72A2920A1A796252827161816465A49AF9623A2A72A2920AA2C1612B9961
310
423A2A726A9A39033B2B73234B6BD10189480A02620202080043E80005048D8096DA014CD1D15395149050D3CB1294138B0C0B236025B68B11D15395149055160B095CCB0A11D1539354D1C819D95B991A5B5E880C4D0A4000404140280D0000A190687072706CD06C5069D06B0029DA3A2A72A2920A1A7962528271618164
310
1A1C1C9C1B341B141A741AC1623A2A72A2920AA2C1612B9961423A2A726A9A39033B2B73234B6BD10189A94800080820050EA000143A322A0D0E0E4E0D9A0D8A0D3A0D60053D47454E545241434F2C4A504E2C302C8C8A8343839383668362834E83582C47454E54524154582C25732C2847454E4D53472067656E64696D7A
310
2031372900010105002274000281464500A628E8A9CA8A482869E5894A09C5860591914588E8A9CA8A482A8B0584AE658508E8A9C9AA68E40CECADCC8D2DAF440626C52000202080044A8000504909497CA014CD1D15395149050D3CB1294138B0C0B242525F28B11D15395149055160B095CCB0A11D1539354D1C819D95B9
310
91A5B5E880C4E4A400040418008A521E000000000000001CA040C00000000000034408080000000000006881010000000000000D102040000000000001A204080000000000003440818000000000000728103000000000000125020600000000004028A040000000000000034408000000000000004881000000000000000D
310
102000000000000001A204000000000000003440818000000000000508143C0000000000000039408180000000000006881030000000000000D102060000000000001A2040C00000000000034408180000000000006881030000000000000E5020600000000000024A040C0000000000805140800000000000000688100000
310
00000000009102000000000000001A2040000000000000034408180000000000006881030000000000000A10284220000000878000002020000008380000020400000081800000208000000828000002028900000000
340
0
340
0
340
0
340
0
340
180
340
180
 94
        0
  0
ACAD_PROXY_OBJECT
  5
1D4C0
330
1D4BC
100
AcDbProxyObject
 90
      499
 91
      567
 95
       25
 70
     0
 93
     1376
310
5DE0143A0D960E4E0DDA0E32056E0D9C80C405983D3C486F6C653A6469613E3C696628657175616C28486F6C653A7465726D696E6174696F6E2C223022292C2220905B82B320222C22208368838A838B22293E3C696628657175616C28486F6C653A7465726D696E6174696F6E2C223022292C486F6C653A64657074682C22
310
22293E2C203C486F6C653A63746469613E2082B482AE82E882CC905B82B3203C486F6C653A637464657074683E
  0
ACAD_PROXY_OBJECT
  5
1D4C1
330
1D4BC
100
AcDbProxyObject
 90
      499
 91
      567
 95
       25
 70
     0
 93
     2072
310
5DE0143A0D960E4E0DDA0E32056E0D9C80C405EF3D3C486F6C653A6374616E676C653E252564202525633C486F6C653A63746469613E208E4D8C8A2C203C696628657175616C28486F6C653A7461707065642C223022292C22252563222C486F6C653A6E6F6D696E616C202220782022293E3C696628657175616C28486F6C
310
653A7461707065642C223022292C486F6C653A6469612C486F6C653A706974636864657363293E203C696628657175616C28486F6C653A7465726D696E6174696F6E2C223022292C22905B82B320222C222022293E3C696628657175616C28486F6C653A7465726D696E6174696F6E2C223022292C486F6C653A6465707468
310
2C2222293E
  0
ACAD_PROXY_OBJECT
  5
1D4BF
330
1D4BC
100
AcDbProxyObject
 90
      499
 91
      567
 95
       25
 70
     0
 93
     1752
310
5DE0143A0D960E4E0DDA0E32056E0D9C80C405C73D3C696628657175616C28486F6C653A7461707065642C223022292C22252563222C486F6C653A6E6F6D696E616C202220782022293E3C696628657175616C28486F6C653A7461707065642C223022292C486F6C653A6469612C486F6C653A706974636864657363293E20
310
3C696628657175616C28486F6C653A7465726D696E6174696F6E2C223022292C22905B82B320222C222022293E3C696628657175616C28486F6C653A7465726D696E6174696F6E2C223022292C486F6C653A64657074682C2222293E
  0
ACAD_PROXY_OBJECT
  5
1D4BE
330
1D4BC
100
AcDbProxyObject
 90
      499
 91
      567
 95
       25
 70
     0
 93
      344
310
5DE0143A0D960E4E0DDA0E32056E0D9C80C805173D3C535444503A444553433E203C535444503A5354443E
  0
ACAD_PROXY_OBJECT
  5
1D4BD
330
1D4BC
100
AcDbProxyObject
 90
      499
 91
      567
 95
       25
 70
     0
 93
      256
310
5DE0143A0D960E4E0DDA0E32056E0D9C80C4050C3D3C535444503A444553433E
  0
ENDSEC
  0
EOF
