  0
SECTION
  2
HEADER
  9
$ACADVER
  1
AC1014
  9
$ACADMAINTVER
 70
     0
  9
$DWGCODEPAGE
  3
ANSI_932
  9
$INSBASE
 10
-34.077479
 20
273.931036
 30
0.0
  9
$EXTMIN
 10
-43.531317
 20
264.728608
 30
0.0
  9
$EXTMAX
 10
268.062735
 20
397.869007
 30
0.0
  9
$LIMMIN
 10
-587.250952
 20
327.890188
  9
$LIMMAX
 10
600.749048
 20
957.890188
  9
$ORTHOMODE
 70
     1
  9
$REGENMODE
 70
     1
  9
$FILLMODE
 70
     1
  9
$QTEXTMODE
 70
     0
  9
$MIRRTEXT
 70
     1
  9
$DRAGMODE
 70
     2
  9
$LTSCALE
 40
5.0
  9
$OSMODE
 70
    45
  9
$ATTMODE
 70
     1
  9
$TEXTSIZE
 40
5.0
  9
$TRACEWID
 40
0.05
  9
$TEXTSTYLE
  7
STANDARD
  9
$CLAYER
  8
外形
  9
$CELTYPE
  6
CONTINUOUS
  9
$CECOLOR
 62
   256
  9
$CELTSCALE
 40
1.0
  9
$DELOBJ
 70
     1
  9
$DISPSILH
 70
     0
  9
$DIMSCALE
 40
1.0
  9
$DIMASZ
 40
1.0
  9
$DIMEXO
 40
1.0
  9
$DIMDLI
 40
8.0
  9
$DIMRND
 40
0.0
  9
$DIMDLE
 40
0.0
  9
$DIMEXE
 40
2.0
  9
$DIMTP
 40
0.0
  9
$DIMTM
 40
0.0
  9
$DIMTXT
 40
1.5
  9
$DIMCEN
 40
-1.0
  9
$DIMTSZ
 40
0.0
  9
$DIMTOL
 70
     0
  9
$DIMLIM
 70
     0
  9
$DIMTIH
 70
     0
  9
$DIMTOH
 70
     0
  9
$DIMSE1
 70
     0
  9
$DIMSE2
 70
     0
  9
$DIMTAD
 70
     1
  9
$DIMZIN
 70
     8
  9
$DIMBLK
  1

  9
$DIMASO
 70
     1
  9
$DIMSHO
 70
     1
  9
$DIMPOST
  1

  9
$DIMAPOST
  1

  9
$DIMALT
 70
     0
  9
$DIMALTD
 70
     2
  9
$DIMALTF
 40
25.4
  9
$DIMLFAC
 40
1.0
  9
$DIMTOFL
 70
     1
  9
$DIMTVP
 40
0.0
  9
$DIMTIX
 70
     0
  9
$DIMSOXD
 70
     0
  9
$DIMSAH
 70
     1
  9
$DIMBLK1
  1
_DOTSMALL
  9
$DIMBLK2
  1
_DOTSMALL
  9
$DIMSTYLE
  2
参考寸法
  9
$DIMCLRD
 70
     2
  9
$DIMCLRE
 70
     2
  9
$DIMCLRT
 70
     2
  9
$DIMTFAC
 40
1.0
  9
$DIMGAP
 40
1.0
  9
$DIMJUST
 70
     0
  9
$DIMSD1
 70
     0
  9
$DIMSD2
 70
     0
  9
$DIMTOLJ
 70
     1
  9
$DIMTZIN
 70
     8
  9
$DIMALTZ
 70
     0
  9
$DIMALTTZ
 70
     0
  9
$DIMFIT
 70
     3
  9
$DIMUPT
 70
     0
  9
$DIMUNIT
 70
     2
  9
$DIMDEC
 70
     3
  9
$DIMTDEC
 70
     2
  9
$DIMALTU
 70
     2
  9
$DIMALTTD
 70
     2
  9
$DIMTXSTY
  7
STANDARD
  9
$DIMAUNIT
 70
     0
  9
$LUNITS
 70
     2
  9
$LUPREC
 70
     3
  9
$SKETCHINC
 40
0.1
  9
$FILLETRAD
 40
4.0
  9
$AUNITS
 70
     0
  9
$AUPREC
 70
     3
  9
$MENU
  1
acad
  9
$ELEVATION
 40
0.0
  9
$PELEVATION
 40
0.0
  9
$THICKNESS
 40
0.0
  9
$LIMCHECK
 70
     0
  9
$BLIPMODE
 70
     0
  9
$CHAMFERA
 40
0.0
  9
$CHAMFERB
 40
0.0
  9
$CHAMFERC
 40
0.0
  9
$CHAMFERD
 40
0.0
  9
$SKPOLY
 70
     0
  9
$TDCREATE
 40
2450751.535399305
  9
$TDUPDATE
 40
2451996.697638889
  9
$TDINDWG
 40
3.3004993056
  9
$TDUSRTIMER
 40
3.3004993056
  9
$USRTIMER
 70
     1
  9
$ANGBASE
 50
0.0
  9
$ANGDIR
 70
     0
  9
$PDMODE
 70
    32
  9
$PDSIZE
 40
0.0
  9
$PLINEWID
 40
0.0
  9
$COORDS
 70
     2
  9
$SPLFRAME
 70
     0
  9
$SPLINETYPE
 70
     5
  9
$SPLINESEGS
 70
     8
  9
$ATTDIA
 70
     0
  9
$ATTREQ
 70
     1
  9
$HANDLING
 70
     1
  9
$HANDSEED
  5
487
  9
$SURFTAB1
 70
     6
  9
$SURFTAB2
 70
     6
  9
$SURFTYPE
 70
     6
  9
$SURFU
 70
     6
  9
$SURFV
 70
     6
  9
$UCSNAME
  2

  9
$UCSORG
 10
0.0
 20
0.0
 30
0.0
  9
$UCSXDIR
 10
1.0
 20
0.0
 30
0.0
  9
$UCSYDIR
 10
0.0
 20
1.0
 30
0.0
  9
$PUCSNAME
  2

  9
$PUCSORG
 10
0.0
 20
0.0
 30
0.0
  9
$PUCSXDIR
 10
1.0
 20
0.0
 30
0.0
  9
$PUCSYDIR
 10
0.0
 20
1.0
 30
0.0
  9
$USERI1
 70
     0
  9
$USERI2
 70
     0
  9
$USERI3
 70
     0
  9
$USERI4
 70
     0
  9
$USERI5
 70
     0
  9
$USERR1
 40
0.0
  9
$USERR2
 40
0.0
  9
$USERR3
 40
0.0
  9
$USERR4
 40
0.0
  9
$USERR5
 40
0.0
  9
$WORLDVIEW
 70
     1
  9
$SHADEDGE
 70
     3
  9
$SHADEDIF
 70
    70
  9
$TILEMODE
 70
     1
  9
$MAXACTVP
 70
    16
  9
$PINSBASE
 10
0.0
 20
0.0
 30
0.0
  9
$PLIMCHECK
 70
     0
  9
$PEXTMIN
 10
1.000000E+20
 20
1.000000E+20
 30
1.000000E+20
  9
$PEXTMAX
 10
-1.000000E+20
 20
-1.000000E+20
 30
-1.000000E+20
  9
$PLIMMIN
 10
0.0
 20
0.0
  9
$PLIMMAX
 10
12.0
 20
9.0
  9
$UNITMODE
 70
     0
  9
$VISRETAIN
 70
     0
  9
$PLINEGEN
 70
     0
  9
$PSLTSCALE
 70
     1
  9
$TREEDEPTH
 70
  3020
  9
$PICKSTYLE
 70
     1
  9
$CMLSTYLE
  2
STANDARD
  9
$CMLJUST
 70
     0
  9
$CMLSCALE
 40
1.0
  9
$PROXYGRAPHICS
 70
     1
  9
$MEASUREMENT
 70
     0
  0
ENDSEC
  0
SECTION
  2
CLASSES
  0
CLASS
  1
LWPOLYLINE
  2
AcDbPolyline
  3
"AutoCAD"
 90
        0
280
     0
281
     1
  0
CLASS
  1
ACDBDICTIONARYWDFLT
  2
AcDbDictionaryWithDefault
  3
AutoCAD 2000
 90
        0
280
     1
281
     0
  0
CLASS
  1
ACDBPLACEHOLDER
  2
AcDbPlaceHolder
  3
AutoCAD 2000
 90
        0
280
     1
281
     0
  0
CLASS
  1
LAYOUT
  2
AcDbLayout
  3
AutoCAD 2000
 90
        0
280
     1
281
     0
  0
CLASS
  1
LONG_TRANSACTION
  2
AcDbLongTransaction
  3
AutoCAD 2000
 90
        0
280
     1
281
     0
  0
CLASS
  1
LWPOLYLINE
  2
AcDbPolyline
  3
"AutoCAD"
 90
        0
280
     0
281
     1
  0
CLASS
  1
HATCH
  2
AcDbHatch
  3
"ACAD_SEDONA"
 90
        0
280
     0
281
     1
  0
CLASS
  1
XRECORD
  2
AcDbXrecord
  3
"<Built In>"
 90
        0
280
     0
281
     0
  0
CLASS
  1
DICTIONARYVAR
  2
AcDbDictionaryVar
  3
"AutoCAD"
 90
        0
280
     0
281
     0
  0
ENDSEC
  0
SECTION
  2
TABLES
  0
TABLE
  2
VPORT
  5
16
100
AcDbSymbolTable
 70
     1
  0
VPORT
  5
482
100
AcDbSymbolTableRecord
100
AcDbViewportTableRecord
  2
*ACTIVE
 70
     0
 10
0.0
 20
0.0
 11
1.0
 21
1.0
 12
119.159474
 22
333.327752
 13
0.0
 23
0.0
 14
1.0
 24
1.0
 15
10.0
 25
10.0
 16
0.0
 26
0.0
 36
1.0
 17
0.0
 27
0.0
 37
0.0
 40
210.282904
 41
1.710425
 42
50.0
 43
0.0
 44
0.0
 50
0.0
 51
0.0
 71
     0
 72
   100
 73
     1
 74
     1
 75
     0
 76
     0
 77
     0
 78
     2
  0
ENDTAB
  0
TABLE
  2
LTYPE
  5
11
100
AcDbSymbolTable
 70
     3
  0
LTYPE
  5
12
100
AcDbSymbolTableRecord
100
AcDbLinetypeTableRecord
  2
BYBLOCK
 70
     0
  3

 72
    65
 73
     0
 40
0.0
  0
LTYPE
  5
13
100
AcDbSymbolTableRecord
100
AcDbLinetypeTableRecord
  2
BYLAYER
 70
     0
  3

 72
    65
 73
     0
 40
0.0
  0
LTYPE
  5
7
100
AcDbSymbolTableRecord
100
AcDbLinetypeTableRecord
  2
CONTINUOUS
 70
     0
  3
Solid line
 72
    65
 73
     0
 40
0.0
  0
LTYPE
  5
31
100
AcDbSymbolTableRecord
100
AcDbLinetypeTableRecord
  2
CENTER
 70
     0
  3
Center ____ _ ____ _ ____ _ ____ _ ____ _ ____
 72
    65
 73
     4
 40
2.0
 49
1.25
 74
     0
 49
-0.25
 74
     0
 49
0.25
 74
     0
 49
-0.25
 74
     0
  0
LTYPE
  5
94
100
AcDbSymbolTableRecord
100
AcDbLinetypeTableRecord
  2
HIDDEN
 70
     0
  3
Hidden __ __ __ __ __ __ __ __ __ __ __ __ __ _
 72
    65
 73
     2
 40
0.375
 49
0.25
 74
     0
 49
-0.125
 74
     0
  0
ENDTAB
  0
TABLE
  2
LAYER
  5
E
100
AcDbSymbolTable
 70
     5
  0
LAYER
  5
6
100
AcDbSymbolTableRecord
100
AcDbLayerTableRecord
  2
0
 70
     0
 62
     7
  6
CONTINUOUS
  0
LAYER
  5
1F
100
AcDbSymbolTableRecord
100
AcDbLayerTableRecord
  2
外形
 70
     0
 62
     4
  6
CONTINUOUS
  0
LAYER
  5
46
102
{ACAD_XDICTIONARY
360
47
102
}
100
AcDbSymbolTableRecord
100
AcDbLayerTableRecord
  2
DEFPOINTS
 70
     0
 62
     7
  6
CONTINUOUS
  0
LAYER
  5
34
100
AcDbSymbolTableRecord
100
AcDbLayerTableRecord
  2
寸法
 70
     0
 62
     1
  6
CONTINUOUS
  0
LAYER
  5
50
100
AcDbSymbolTableRecord
100
AcDbLayerTableRecord
  2
参考
 70
     0
 62
     2
  6
CONTINUOUS
  0
ENDTAB
  0
TABLE
  2
STYLE
  5
F
100
AcDbSymbolTable
 70
     1
  0
STYLE
  5
10
100
AcDbSymbolTableRecord
100
AcDbTextStyleTableRecord
  2
STANDARD
 70
     0
 40
0.0
 41
1.0
 50
0.0
 71
     0
 42
5.0
  3
MONOTXT
  4
BIGFONT
  0
ENDTAB
  0
TABLE
  2
VIEW
  5
14
100
AcDbSymbolTable
 70
     0
  0
ENDTAB
  0
TABLE
  2
UCS
  5
15
100
AcDbSymbolTable
 70
     0
  0
ENDTAB
  0
TABLE
  2
APPID
  5
18
100
AcDbSymbolTable
 70
     1
  0
APPID
  5
19
100
AcDbSymbolTableRecord
100
AcDbRegAppTableRecord
  2
ACAD
 70
     0
  0
ENDTAB
  0
TABLE
  2
DIMSTYLE
  5
1A
100
AcDbSymbolTable
 70
     2
  0
DIMSTYLE
105
35
102
{ACAD_XDICTIONARY
360
36
102
}
102
{ACAD_REACTORS
330
33
330
77
330
12E
330
164
330
1C2
330
1B4
330
111
330
FD
102
}
100
AcDbSymbolTableRecord
100
AcDbDimStyleTableRecord
  2
STANDARD
 70
     0
  3

  4

  5

  6
_OPEN30
  7
_OPEN30
 40
0.0
 41
2.0
 42
1.0
 43
8.0
 44
2.0
 45
0.0
 46
0.0
 47
0.0
 48
0.0
140
3.0
141
-1.0
142
0.0
143
25.4
144
1.0
145
0.0
146
1.0
147
1.0
 71
     0
 72
     0
 73
     0
 74
     0
 75
     0
 76
     0
 77
     1
 78
     8
170
     0
171
     2
172
     1
173
     1
174
     0
175
     0
176
     1
177
     1
178
     3
270
     2
271
     2
272
     2
273
     2
274
     2
340
10
275
     0
280
     0
281
     0
282
     0
283
     1
284
     8
285
     0
286
     0
287
     3
288
     0
  0
DIMSTYLE
105
21
102
{ACAD_REACTORS
330
54
330
84
330
124
330
F2
330
E4
330
D6
330
C9
330
19F
330
142
330
151
330
B5
330
A4
330
62
102
}
100
AcDbSymbolTableRecord
100
AcDbDimStyleTableRecord
  2
参考寸法
 70
     0
  3

  4

  5

  6
_DOTSMALL
  7
_DOTSMALL
 40
1.0
 41
2.0
 42
1.0
 43
8.0
 44
2.0
 45
0.0
 46
0.0
 47
0.0
 48
0.0
140
2.0
141
-1.0
142
0.0
143
25.4
144
1.0
145
0.0
146
1.0
147
1.0
 71
     0
 72
     0
 73
     0
 74
     0
 75
     0
 76
     0
 77
     1
 78
     8
170
     0
171
     2
172
     1
173
     1
174
     0
175
     0
176
     2
177
     2
178
     2
270
     2
271
     3
272
     2
273
     2
274
     2
340
10
275
     0
280
     0
281
     0
282
     0
283
     1
284
     8
285
     0
286
     0
287
     3
288
     0
  0
ENDTAB
  0
TABLE
  2
BLOCK_RECORD
  5
1
100
AcDbSymbolTable
 70
    45
  0
BLOCK_RECORD
  5
2
102
{ACAD_XDICTIONARY
360
3
102
}
100
AcDbSymbolTableRecord
100
AcDbBlockTableRecord
  2
*MODEL_SPACE
  0
BLOCK_RECORD
  5
9
102
{ACAD_XDICTIONARY
360
A
102
}
100
AcDbSymbolTableRecord
100
AcDbBlockTableRecord
  2
*PAPER_SPACE
  0
BLOCK_RECORD
  5
22
100
AcDbSymbolTableRecord
100
AcDbBlockTableRecord
  2
_DOTSMALL
  0
BLOCK_RECORD
  5
38
100
AcDbSymbolTableRecord
100
AcDbBlockTableRecord
  2
_OPEN30
  0
BLOCK_RECORD
  5
3E
100
AcDbSymbolTableRecord
100
AcDbBlockTableRecord
  2
*D2
  0
BLOCK_RECORD
  5
CA
100
AcDbSymbolTableRecord
100
AcDbBlockTableRecord
  2
*D3
  0
BLOCK_RECORD
  5
1B5
100
AcDbSymbolTableRecord
100
AcDbBlockTableRecord
  2
*D4
  0
BLOCK_RECORD
  5
1C3
100
AcDbSymbolTableRecord
100
AcDbBlockTableRecord
  2
*D5
  0
BLOCK_RECORD
  5
D7
100
AcDbSymbolTableRecord
100
AcDbBlockTableRecord
  2
*D6
  0
BLOCK_RECORD
  5
165
100
AcDbSymbolTableRecord
100
AcDbBlockTableRecord
  2
*D7
  0
BLOCK_RECORD
  5
78
100
AcDbSymbolTableRecord
100
AcDbBlockTableRecord
  2
*D8
  0
BLOCK_RECORD
  5
F3
100
AcDbSymbolTableRecord
100
AcDbBlockTableRecord
  2
*D9
  0
BLOCK_RECORD
  5
125
100
AcDbSymbolTableRecord
100
AcDbBlockTableRecord
  2
*D10
  0
BLOCK_RECORD
  5
12F
100
AcDbSymbolTableRecord
100
AcDbBlockTableRecord
  2
*D11
  0
BLOCK_RECORD
  5
55
100
AcDbSymbolTableRecord
100
AcDbBlockTableRecord
  2
*D12
  0
BLOCK_RECORD
  5
85
100
AcDbSymbolTableRecord
100
AcDbBlockTableRecord
  2
*D13
  0
BLOCK_RECORD
  5
E5
100
AcDbSymbolTableRecord
100
AcDbBlockTableRecord
  2
*D14
  0
BLOCK_RECORD
  5
1A0
100
AcDbSymbolTableRecord
100
AcDbBlockTableRecord
  2
*D15
  0
BLOCK_RECORD
  5
152
100
AcDbSymbolTableRecord
100
AcDbBlockTableRecord
  2
*D16
  0
BLOCK_RECORD
  5
112
100
AcDbSymbolTableRecord
100
AcDbBlockTableRecord
  2
*D17
  0
BLOCK_RECORD
  5
143
100
AcDbSymbolTableRecord
100
AcDbBlockTableRecord
  2
*D18
  0
BLOCK_RECORD
  5
FE
100
AcDbSymbolTableRecord
100
AcDbBlockTableRecord
  2
*D19
  0
BLOCK_RECORD
  5
B6
100
AcDbSymbolTableRecord
100
AcDbBlockTableRecord
  2
*D20
  0
BLOCK_RECORD
  5
A5
100
AcDbSymbolTableRecord
100
AcDbBlockTableRecord
  2
*D21
  0
BLOCK_RECORD
  5
63
100
AcDbSymbolTableRecord
100
AcDbBlockTableRecord
  2
*D22
  0
BLOCK_RECORD
  5
2A
100
AcDbSymbolTableRecord
100
AcDbBlockTableRecord
  2
2
  0
BLOCK_RECORD
  5
27B
100
AcDbSymbolTableRecord
100
AcDbBlockTableRecord
  2
*D24
  0
BLOCK_RECORD
  5
2A3
100
AcDbSymbolTableRecord
100
AcDbBlockTableRecord
  2
*D27
  0
BLOCK_RECORD
  5
308
100
AcDbSymbolTableRecord
100
AcDbBlockTableRecord
  2
*D35
  0
BLOCK_RECORD
  5
316
100
AcDbSymbolTableRecord
100
AcDbBlockTableRecord
  2
*D36
  0
BLOCK_RECORD
  5
35A
100
AcDbSymbolTableRecord
100
AcDbBlockTableRecord
  2
*D41
  0
BLOCK_RECORD
  5
372
100
AcDbSymbolTableRecord
100
AcDbBlockTableRecord
  2
*D43
  0
BLOCK_RECORD
  5
37E
100
AcDbSymbolTableRecord
100
AcDbBlockTableRecord
  2
*D44
  0
ENDTAB
  0
ENDSEC
  0
SECTION
  2
BLOCKS
  0
BLOCK
  5
5
100
AcDbEntity
  8
0
100
AcDbBlockBegin
  2
*MODEL_SPACE
 70
     0
 10
0.0
 20
0.0
 30
0.0
  3
*MODEL_SPACE
  1

  0
ENDBLK
  5
8
100
AcDbEntity
  8
0
100
AcDbBlockEnd
  0
BLOCK
  5
C
100
AcDbEntity
 67
     1
  8
0
100
AcDbBlockBegin
  2
*PAPER_SPACE
 70
     0
 10
0.0
 20
0.0
 30
0.0
  3
*PAPER_SPACE
  1

  0
ENDBLK
  5
D
100
AcDbEntity
 67
     1
  8
0
100
AcDbBlockEnd
  0
BLOCK
  5
27
100
AcDbEntity
  8
0
100
AcDbBlockBegin
  2
_DOTSMALL
 70
     0
 10
0.0
 20
0.0
 30
0.0
  3
_DOTSMALL
  1

  0
POLYLINE
  5
23
100
AcDbEntity
  8
0
  6
BYBLOCK
 62
     0
100
AcDb2dPolyline
 66
     1
 10
0.0
 20
0.0
 30
0.0
 70
     1
 40
0.5
 41
0.5
  0
VERTEX
  5
24
100
AcDbEntity
  8
0
  6
BYBLOCK
 62
     0
100
AcDbVertex
100
AcDb2dVertex
 10
-0.0625
 20
0.0
 30
0.0
 42
1.0
  0
VERTEX
  5
25
100
AcDbEntity
  8
0
  6
BYBLOCK
 62
     0
100
AcDbVertex
100
AcDb2dVertex
 10
0.0625
 20
0.0
 30
0.0
 42
1.0
  0
SEQEND
  5
26
100
AcDbEntity
  8
0
  6
BYBLOCK
 62
     0
  0
ENDBLK
  5
28
100
AcDbEntity
  8
0
100
AcDbBlockEnd
  0
BLOCK
  5
3C
100
AcDbEntity
  8
0
100
AcDbBlockBegin
  2
_OPEN30
 70
     0
 10
0.0
 20
0.0
 30
0.0
  3
_OPEN30
  1

  0
LINE
  5
39
100
AcDbEntity
  8
0
  6
BYBLOCK
 62
     0
100
AcDbLine
 10
-1.0
 20
0.267949
 30
0.0
 11
0.0
 21
0.0
 31
0.0
  0
LINE
  5
3A
100
AcDbEntity
  8
0
  6
BYBLOCK
 62
     0
100
AcDbLine
 10
0.0
 20
0.0
 30
0.0
 11
-1.0
 21
-0.267949
 31
0.0
  0
LINE
  5
3B
100
AcDbEntity
  8
0
  6
BYBLOCK
 62
     0
100
AcDbLine
 10
0.0
 20
0.0
 30
0.0
 11
-1.0
 21
0.0
 31
0.0
  0
ENDBLK
  5
3D
100
AcDbEntity
  8
0
100
AcDbBlockEnd
  0
BLOCK
  5
4B
100
AcDbEntity
  8
0
100
AcDbBlockBegin
  2
*D2
 70
     1
 10
0.0
 20
0.0
 30
0.0
  3
*D2
  1

  0
LINE
  5
3F
100
AcDbEntity
  8
0
  6
BYBLOCK
 62
     1
100
AcDbLine
 10
154.450595
 20
473.274294
 30
0.0
 11
154.450595
 21
454.210376
 31
0.0
  0
LINE
  5
40
100
AcDbEntity
  8
0
  6
BYBLOCK
 62
     1
100
AcDbLine
 10
404.450595
 20
475.274294
 30
0.0
 11
404.450595
 21
454.210376
 31
0.0
  0
LINE
  5
41
100
AcDbEntity
  8
0
  6
BYBLOCK
 62
     1
100
AcDbLine
 10
156.450595
 20
456.210376
 30
0.0
 11
402.450595
 21
456.210376
 31
0.0
  0
INSERT
  5
42
100
AcDbEntity
  8
0
  6
BYBLOCK
 62
     1
100
AcDbBlockReference
  2
_OPEN30
 10
154.450595
 20
456.210376
 30
0.0
 41
2.0
 42
2.0
 43
2.0
 50
180.0
  0
INSERT
  5
43
100
AcDbEntity
  8
0
  6
BYBLOCK
 62
     1
100
AcDbBlockReference
  2
_OPEN30
 10
404.450595
 20
456.210376
 30
0.0
 41
2.0
 42
2.0
 43
2.0
  0
MTEXT
  5
44
100
AcDbEntity
  8
0
  6
BYBLOCK
 62
     3
100
AcDbMText
 10
279.450595
 20
458.710376
 30
0.0
 40
3.0
 41
0.0
 71
     5
 72
     1
  1
\A1;250
  0
POINT
  5
45
100
AcDbEntity
  8
DEFPOINTS
  6
BYBLOCK
 62
     0
100
AcDbPoint
 10
154.450595
 20
474.274294
 30
0.0
  0
POINT
  5
49
100
AcDbEntity
  8
DEFPOINTS
  6
BYBLOCK
 62
     0
100
AcDbPoint
 10
404.450595
 20
476.274294
 30
0.0
  0
POINT
  5
4A
100
AcDbEntity
  8
DEFPOINTS
  6
BYBLOCK
 62
     0
100
AcDbPoint
 10
404.450595
 20
456.210376
 30
0.0
  0
ENDBLK
  5
4C
100
AcDbEntity
  8
0
100
AcDbBlockEnd
  0
BLOCK
  5
D4
100
AcDbEntity
  8
0
100
AcDbBlockBegin
  2
*D3
 70
     1
 10
0.0
 20
0.0
 30
0.0
  3
*D3
  1

  0
LINE
  5
CB
100
AcDbEntity
  8
0
  6
BYBLOCK
 62
     2
100
AcDbLine
 10
154.450595
 20
473.274294
 30
0.0
 11
154.450595
 21
463.862469
 31
0.0
  0
LINE
  5
CC
100
AcDbEntity
  8
0
  6
BYBLOCK
 62
     2
100
AcDbLine
 10
179.450595
 20
476.524294
 30
0.0
 11
179.450595
 21
463.862469
 31
0.0
  0
LINE
  5
CD
100
AcDbEntity
  8
0
  6
BYBLOCK
 62
     2
100
AcDbLine
 10
154.450595
 20
465.862469
 30
0.0
 11
179.450595
 21
465.862469
 31
0.0
  0
INSERT
  5
CE
100
AcDbEntity
  8
0
  6
BYBLOCK
 62
     2
100
AcDbBlockReference
  2
_DOTSMALL
 10
154.450595
 20
465.862469
 30
0.0
 50
180.0
  0
INSERT
  5
CF
100
AcDbEntity
  8
0
  6
BYBLOCK
 62
     2
100
AcDbBlockReference
  2
_DOTSMALL
 10
179.450595
 20
465.862469
 30
0.0
  0
MTEXT
  5
D0
100
AcDbEntity
  8
0
  6
BYBLOCK
 62
     2
100
AcDbMText
 10
166.950595
 20
467.612469
 30
0.0
 40
1.5
 41
0.0
 71
     5
 72
     1
  1
\A1;25
  0
POINT
  5
D1
100
AcDbEntity
  8
DEFPOINTS
  6
BYBLOCK
 62
     0
100
AcDbPoint
 10
154.450595
 20
474.274294
 30
0.0
  0
POINT
  5
D2
100
AcDbEntity
  8
DEFPOINTS
  6
BYBLOCK
 62
     0
100
AcDbPoint
 10
179.450595
 20
477.524294
 30
0.0
  0
POINT
  5
D3
100
AcDbEntity
  8
DEFPOINTS
  6
BYBLOCK
 62
     0
100
AcDbPoint
 10
179.450595
 20
465.862469
 30
0.0
  0
ENDBLK
  5
D5
100
AcDbEntity
  8
0
100
AcDbBlockEnd
  0
BLOCK
  5
1BF
100
AcDbEntity
  8
0
100
AcDbBlockBegin
  2
*D4
 70
     1
 10
0.0
 20
0.0
 30
0.0
  3
*D4
  1

  0
LINE
  5
1B6
100
AcDbEntity
  8
0
  6
BYBLOCK
 62
     1
100
AcDbLine
 10
335.450595
 20
481.915395
 30
0.0
 11
335.450595
 21
463.904299
 31
0.0
  0
LINE
  5
1B7
100
AcDbEntity
  8
0
  6
BYBLOCK
 62
     1
100
AcDbLine
 10
353.450595
 20
481.915395
 30
0.0
 11
353.450595
 21
463.904299
 31
0.0
  0
LINE
  5
1B8
100
AcDbEntity
  8
0
  6
BYBLOCK
 62
     1
100
AcDbLine
 10
337.450595
 20
465.904299
 30
0.0
 11
351.450595
 21
465.904299
 31
0.0
  0
INSERT
  5
1B9
100
AcDbEntity
  8
0
  6
BYBLOCK
 62
     1
100
AcDbBlockReference
  2
_OPEN30
 10
335.450595
 20
465.904299
 30
0.0
 41
2.0
 42
2.0
 43
2.0
 50
180.0
  0
INSERT
  5
1BA
100
AcDbEntity
  8
0
  6
BYBLOCK
 62
     1
100
AcDbBlockReference
  2
_OPEN30
 10
353.450595
 20
465.904299
 30
0.0
 41
2.0
 42
2.0
 43
2.0
  0
MTEXT
  5
1BB
100
AcDbEntity
  8
0
  6
BYBLOCK
 62
     3
100
AcDbMText
 10
344.450595
 20
468.404299
 30
0.0
 40
3.0
 41
0.0
 71
     5
 72
     1
  1
\A1;18
  0
POINT
  5
1BC
100
AcDbEntity
  8
DEFPOINTS
  6
BYBLOCK
 62
     0
100
AcDbPoint
 10
335.450595
 20
482.915395
 30
0.0
  0
POINT
  5
1BD
100
AcDbEntity
  8
DEFPOINTS
  6
BYBLOCK
 62
     0
100
AcDbPoint
 10
353.450595
 20
482.915395
 30
0.0
  0
POINT
  5
1BE
100
AcDbEntity
  8
DEFPOINTS
  6
BYBLOCK
 62
     0
100
AcDbPoint
 10
353.450595
 20
465.904299
 30
0.0
  0
ENDBLK
  5
1C0
100
AcDbEntity
  8
0
100
AcDbBlockEnd
  0
BLOCK
  5
1CC
100
AcDbEntity
  8
0
100
AcDbBlockBegin
  2
*D5
 70
     1
 10
0.0
 20
0.0
 30
0.0
  3
*D5
  1

  0
LINE
  5
1C4
100
AcDbEntity
  8
0
  6
BYBLOCK
 62
     1
100
AcDbLine
 10
337.093633
 20
477.794045
 30
0.0
 11
335.867472
 21
476.214004
 31
0.0
  0
LINE
  5
1C5
100
AcDbEntity
  8
0
  6
BYBLOCK
 62
     1
100
AcDbLine
 10
351.807557
 20
496.754542
 30
0.0
 11
360.840108
 21
508.39397
 31
0.0
  0
LINE
  5
1C6
100
AcDbEntity
  8
0
  6
BYBLOCK
 62
     1
100
AcDbLine
 10
338.319793
 20
479.374087
 30
0.0
 11
350.581396
 21
495.174501
 31
0.0
  0
INSERT
  5
1C7
100
AcDbEntity
  8
0
  6
BYBLOCK
 62
     1
100
AcDbBlockReference
  2
_OPEN30
 10
338.319793
 20
479.374087
 30
0.0
 41
2.0
 42
2.0
 43
2.0
 50
52.187446
  0
INSERT
  5
1C8
100
AcDbEntity
  8
0
  6
BYBLOCK
 62
     1
100
AcDbBlockReference
  2
_OPEN30
 10
350.581396
 20
495.174501
 30
0.0
 41
2.0
 42
2.0
 43
2.0
 50
232.187446
  0
MTEXT
  5
1C9
100
AcDbEntity
  8
0
  6
BYBLOCK
 62
     3
100
AcDbMText
 10
355.799655
 20
505.976567
 30
0.0
 40
3.0
 41
0.0
 71
     5
 72
     1
  1
\A1;\U+220520
 11
0.61308
 21
0.790021
 31
0.0
  0
POINT
  5
1CA
100
AcDbEntity
  8
DEFPOINTS
  6
BYBLOCK
 62
     0
100
AcDbPoint
 10
350.581396
 20
495.174501
 30
0.0
  0
POINT
  5
1CB
100
AcDbEntity
  8
DEFPOINTS
  6
BYBLOCK
 62
     0
100
AcDbPoint
 10
338.319793
 20
479.374087
 30
0.0
  0
ENDBLK
  5
1CD
100
AcDbEntity
  8
0
100
AcDbBlockEnd
  0
BLOCK
  5
E2
100
AcDbEntity
  8
0
100
AcDbBlockBegin
  2
*D6
 70
     1
 10
0.0
 20
0.0
 30
0.0
  3
*D6
  1

  0
LINE
  5
D8
100
AcDbEntity
  8
0
  6
BYBLOCK
 62
     2
100
AcDbLine
 10
156.824654
 20
478.448378
 30
0.0
 11
156.824654
 21
469.78892
 31
0.0
  0
LINE
  5
D9
100
AcDbEntity
  8
0
  6
BYBLOCK
 62
     2
100
AcDbLine
 10
162.42466
 20
478.448378
 30
0.0
 11
162.42466
 21
469.78892
 31
0.0
  0
LINE
  5
DA
100
AcDbEntity
  8
0
  6
BYBLOCK
 62
     2
100
AcDbLine
 10
156.824654
 20
471.78892
 30
0.0
 11
162.42466
 21
471.78892
 31
0.0
  0
LINE
  5
DB
100
AcDbEntity
  8
0
  6
BYBLOCK
 62
     2
100
AcDbLine
 10
162.42466
 20
471.78892
 30
0.0
 11
169.42466
 21
471.78892
 31
0.0
  0
INSERT
  5
DC
100
AcDbEntity
  8
0
  6
BYBLOCK
 62
     2
100
AcDbBlockReference
  2
_DOTSMALL
 10
156.824654
 20
471.78892
 30
0.0
 50
180.0
  0
INSERT
  5
DD
100
AcDbEntity
  8
0
  6
BYBLOCK
 62
     2
100
AcDbBlockReference
  2
_DOTSMALL
 10
162.42466
 20
471.78892
 30
0.0
  0
MTEXT
  5
DE
100
AcDbEntity
  8
0
  6
BYBLOCK
 62
     2
100
AcDbMText
 10
166.42466
 20
473.53892
 30
0.0
 40
1.5
 41
0.0
 71
     5
 72
     1
  1
\A1;5.6
  0
POINT
  5
DF
100
AcDbEntity
  8
DEFPOINTS
  6
BYBLOCK
 62
     0
100
AcDbPoint
 10
156.824654
 20
479.448378
 30
0.0
  0
POINT
  5
E0
100
AcDbEntity
  8
DEFPOINTS
  6
BYBLOCK
 62
     0
100
AcDbPoint
 10
162.42466
 20
479.448378
 30
0.0
  0
POINT
  5
E1
100
AcDbEntity
  8
DEFPOINTS
  6
BYBLOCK
 62
     0
100
AcDbPoint
 10
162.42466
 20
471.78892
 30
0.0
  0
ENDBLK
  5
E3
100
AcDbEntity
  8
0
100
AcDbBlockEnd
  0
BLOCK
  5
16F
100
AcDbEntity
  8
0
100
AcDbBlockBegin
  2
*D7
 70
     1
 10
0.0
 20
0.0
 30
0.0
  3
*D7
  1

  0
LINE
  5
166
100
AcDbEntity
  8
0
  6
BYBLOCK
 62
     1
100
AcDbLine
 10
153.450595
 20
487.274294
 30
0.0
 11
142.345043
 21
487.274294
 31
0.0
  0
LINE
  5
167
100
AcDbEntity
  8
0
  6
BYBLOCK
 62
     1
100
AcDbLine
 10
153.450595
 20
474.274294
 30
0.0
 11
142.345043
 21
474.274294
 31
0.0
  0
LINE
  5
168
100
AcDbEntity
  8
0
  6
BYBLOCK
 62
     1
100
AcDbLine
 10
144.345043
 20
485.274294
 30
0.0
 11
144.345043
 21
476.274294
 31
0.0
  0
INSERT
  5
169
100
AcDbEntity
  8
0
  6
BYBLOCK
 62
     1
100
AcDbBlockReference
  2
_OPEN30
 10
144.345043
 20
487.274294
 30
0.0
 41
2.0
 42
2.0
 43
2.0
 50
90.0
  0
INSERT
  5
16A
100
AcDbEntity
  8
0
  6
BYBLOCK
 62
     1
100
AcDbBlockReference
  2
_OPEN30
 10
144.345043
 20
474.274294
 30
0.0
 41
2.0
 42
2.0
 43
2.0
 50
270.0
  0
MTEXT
  5
16B
100
AcDbEntity
  8
0
  6
BYBLOCK
 62
     3
100
AcDbMText
 10
141.845043
 20
480.774294
 30
0.0
 40
3.0
 41
0.0
 71
     5
 72
     1
  1
\A1;13
 11
0.0
 21
1.0
 31
0.0
  0
POINT
  5
16C
100
AcDbEntity
  8
DEFPOINTS
  6
BYBLOCK
 62
     0
100
AcDbPoint
 10
154.450595
 20
487.274294
 30
0.0
  0
POINT
  5
16D
100
AcDbEntity
  8
DEFPOINTS
  6
BYBLOCK
 62
     0
100
AcDbPoint
 10
154.450595
 20
474.274294
 30
0.0
  0
POINT
  5
16E
100
AcDbEntity
  8
DEFPOINTS
  6
BYBLOCK
 62
     0
100
AcDbPoint
 10
144.345043
 20
474.274294
 30
0.0
  0
ENDBLK
  5
170
100
AcDbEntity
  8
0
100
AcDbBlockEnd
  0
BLOCK
  5
82
100
AcDbEntity
  8
0
100
AcDbBlockBegin
  2
*D8
 70
     1
 10
0.0
 20
0.0
 30
0.0
  3
*D8
  1

  0
LINE
  5
79
100
AcDbEntity
  8
0
  6
BYBLOCK
 62
     1
100
AcDbLine
 10
154.450595
 20
422.689119
 30
0.0
 11
154.450595
 21
409.689572
 31
0.0
  0
LINE
  5
7A
100
AcDbEntity
  8
0
  6
BYBLOCK
 62
     1
100
AcDbLine
 10
189.450595
 20
425.289119
 30
0.0
 11
189.450595
 21
409.689572
 31
0.0
  0
LINE
  5
7B
100
AcDbEntity
  8
0
  6
BYBLOCK
 62
     1
100
AcDbLine
 10
156.450595
 20
411.689572
 30
0.0
 11
187.450595
 21
411.689572
 31
0.0
  0
INSERT
  5
7C
100
AcDbEntity
  8
0
  6
BYBLOCK
 62
     1
100
AcDbBlockReference
  2
_OPEN30
 10
154.450595
 20
411.689572
 30
0.0
 41
2.0
 42
2.0
 43
2.0
 50
180.0
  0
INSERT
  5
7D
100
AcDbEntity
  8
0
  6
BYBLOCK
 62
     1
100
AcDbBlockReference
  2
_OPEN30
 10
189.450595
 20
411.689572
 30
0.0
 41
2.0
 42
2.0
 43
2.0
  0
MTEXT
  5
7E
100
AcDbEntity
  8
0
  6
BYBLOCK
 62
     3
100
AcDbMText
 10
171.950595
 20
414.189572
 30
0.0
 40
3.0
 41
0.0
 71
     5
 72
     1
  1
\A1;35
  0
POINT
  5
7F
100
AcDbEntity
  8
DEFPOINTS
  6
BYBLOCK
 62
     0
100
AcDbPoint
 10
154.450595
 20
423.689119
 30
0.0
  0
POINT
  5
80
100
AcDbEntity
  8
DEFPOINTS
  6
BYBLOCK
 62
     0
100
AcDbPoint
 10
189.450595
 20
426.289119
 30
0.0
  0
POINT
  5
81
100
AcDbEntity
  8
DEFPOINTS
  6
BYBLOCK
 62
     0
100
AcDbPoint
 10
189.450595
 20
411.689572
 30
0.0
  0
ENDBLK
  5
83
100
AcDbEntity
  8
0
100
AcDbBlockEnd
  0
BLOCK
  5
FB
100
AcDbEntity
  8
0
100
AcDbBlockBegin
  2
*D9
 70
     1
 10
0.0
 20
0.0
 30
0.0
  3
*D9
  1

  0
LINE
  5
F4
100
AcDbEntity
  8
0
  6
BYBLOCK
 62
     2
100
AcDbLine
 10
186.321553
 20
504.831144
 30
0.0
 11
163.076129
 21
482.729955
 31
0.0
  0
MTEXT
  5
F5
100
AcDbEntity
  8
0
  6
BYBLOCK
 62
     2
100
AcDbMText
 10
181.310952
 20
502.481916
 30
0.0
 40
1.5
 41
0.0
 71
     5
 72
     1
  1
\A1;\U+22059.525
 11
0.724719
 21
0.689045
 31
0.0
  0
LINE
  5
F6
100
AcDbEntity
  8
0
  6
BYBLOCK
 62
     2
100
AcDbLine
 10
156.173185
 20
476.166802
 30
0.0
 11
163.076129
 21
482.729955
 31
0.0
  0
INSERT
  5
F7
100
AcDbEntity
  8
0
  6
BYBLOCK
 62
     2
100
AcDbBlockReference
  2
_DOTSMALL
 10
156.173185
 20
476.166802
 30
0.0
 50
43.554558
  0
INSERT
  5
F8
100
AcDbEntity
  8
0
  6
BYBLOCK
 62
     2
100
AcDbBlockReference
  2
_DOTSMALL
 10
163.076129
 20
482.729955
 30
0.0
 50
223.554558
  0
POINT
  5
F9
100
AcDbEntity
  8
DEFPOINTS
  6
BYBLOCK
 62
     0
100
AcDbPoint
 10
163.076129
 20
482.729955
 30
0.0
  0
POINT
  5
FA
100
AcDbEntity
  8
DEFPOINTS
  6
BYBLOCK
 62
     0
100
AcDbPoint
 10
156.173185
 20
476.166802
 30
0.0
  0
ENDBLK
  5
FC
100
AcDbEntity
  8
0
100
AcDbBlockEnd
  0
BLOCK
  5
12C
100
AcDbEntity
  8
0
100
AcDbBlockBegin
  2
*D10
 70
     1
 10
0.0
 20
0.0
 30
0.0
  3
*D10
  1

  0
LINE
  5
126
100
AcDbEntity
  8
0
  6
BYBLOCK
 62
     2
100
AcDbLine
 10
142.826408
 20
505.873383
 30
0.0
 11
155.554603
 21
483.811621
 31
0.0
  0
MTEXT
  5
127
100
AcDbEntity
  8
0
  6
BYBLOCK
 62
     2
100
AcDbMText
 10
146.216212
 20
503.499731
 30
0.0
 40
1.5
 41
0.0
 71
     5
 72
     1
  1
\A1;R0.8
 11
0.49973
 21
-0.866181
 31
0.0
  0
LINE
  5
128
100
AcDbEntity
  8
0
  6
BYBLOCK
 62
     2
100
AcDbLine
 10
155.954387
 20
483.118676
 30
0.0
 11
155.554603
 21
483.811621
 31
0.0
  0
INSERT
  5
129
100
AcDbEntity
  8
0
  6
BYBLOCK
 62
     2
100
AcDbBlockReference
  2
_DOTSMALL
 10
155.554603
 20
483.811621
 30
0.0
 50
299.982136
  0
POINT
  5
12A
100
AcDbEntity
  8
DEFPOINTS
  6
BYBLOCK
 62
     0
100
AcDbPoint
 10
155.554603
 20
483.811621
 30
0.0
  0
POINT
  5
12B
100
AcDbEntity
  8
DEFPOINTS
  6
BYBLOCK
 62
     0
100
AcDbPoint
 10
155.954387
 20
483.118676
 30
0.0
  0
ENDBLK
  5
12D
100
AcDbEntity
  8
0
100
AcDbBlockEnd
  0
BLOCK
  5
13B
100
AcDbEntity
  8
0
100
AcDbBlockBegin
  2
*D11
 70
     1
 10
0.0
 20
0.0
 30
0.0
  3
*D11
  1

  0
LINE
  5
130
100
AcDbEntity
  8
0
  6
BYBLOCK
 62
     1
100
AcDbLine
 10
2218.320957
 20
487.274294
 30
0.0
 11
2206.379182
 21
487.274294
 31
0.0
  0
LINE
  5
131
100
AcDbEntity
  8
0
  6
BYBLOCK
 62
     1
100
AcDbLine
 10
2218.898994
 20
491.274294
 30
0.0
 11
2206.379182
 21
491.274294
 31
0.0
  0
LINE
  5
132
100
AcDbEntity
  8
0
  6
BYBLOCK
 62
     1
100
AcDbLine
 10
2208.379182
 20
485.274294
 30
0.0
 11
2208.379182
 21
483.274294
 31
0.0
  0
LINE
  5
133
100
AcDbEntity
  8
0
  6
BYBLOCK
 62
     1
100
AcDbLine
 10
2208.379182
 20
493.274294
 30
0.0
 11
2208.379182
 21
499.274294
 31
0.0
  0
LINE
  5
134
100
AcDbEntity
  8
0
  6
BYBLOCK
 62
     1
100
AcDbLine
 10
2208.379182
 20
487.274294
 30
0.0
 11
2208.379182
 21
491.274294
 31
0.0
  0
INSERT
  5
135
100
AcDbEntity
  8
0
  6
BYBLOCK
 62
     1
100
AcDbBlockReference
  2
_OPEN30
 10
2208.379182
 20
487.274294
 30
0.0
 41
2.0
 42
2.0
 43
2.0
 50
90.0
  0
INSERT
  5
136
100
AcDbEntity
  8
0
  6
BYBLOCK
 62
     1
100
AcDbBlockReference
  2
_OPEN30
 10
2208.379182
 20
491.274294
 30
0.0
 41
2.0
 42
2.0
 43
2.0
 50
270.0
  0
MTEXT
  5
137
100
AcDbEntity
  8
0
  6
BYBLOCK
 62
     3
100
AcDbMText
 10
2205.879182
 20
497.274294
 30
0.0
 40
3.0
 41
0.0
 71
     5
 72
     1
  1
\A1;4
 11
0.0
 21
1.0
 31
0.0
  0
POINT
  5
138
100
AcDbEntity
  8
DEFPOINTS
  6
BYBLOCK
 62
     0
100
AcDbPoint
 10
2219.320957
 20
487.274294
 30
0.0
  0
POINT
  5
139
100
AcDbEntity
  8
DEFPOINTS
  6
BYBLOCK
 62
     0
100
AcDbPoint
 10
2219.898994
 20
491.274294
 30
0.0
  0
POINT
  5
13A
100
AcDbEntity
  8
DEFPOINTS
  6
BYBLOCK
 62
     0
100
AcDbPoint
 10
2208.379182
 20
491.274294
 30
0.0
  0
ENDBLK
  5
13C
100
AcDbEntity
  8
0
100
AcDbBlockEnd
  0
BLOCK
  5
5F
100
AcDbEntity
  8
0
100
AcDbBlockBegin
  2
*D12
 70
     1
 10
0.0
 20
0.0
 30
0.0
  3
*D12
  1

  0
LINE
  5
56
100
AcDbEntity
  8
0
  6
BYBLOCK
 62
     2
100
AcDbLine
 10
154.450595
 20
437.289119
 30
0.0
 11
154.450595
 21
450.199247
 31
0.0
  0
LINE
  5
57
100
AcDbEntity
  8
0
  6
BYBLOCK
 62
     2
100
AcDbLine
 10
181.450595
 20
446.289119
 30
0.0
 11
181.450595
 21
450.199247
 31
0.0
  0
LINE
  5
58
100
AcDbEntity
  8
0
  6
BYBLOCK
 62
     2
100
AcDbLine
 10
154.450595
 20
448.199247
 30
0.0
 11
181.450595
 21
448.199247
 31
0.0
  0
INSERT
  5
59
100
AcDbEntity
  8
0
  6
BYBLOCK
 62
     2
100
AcDbBlockReference
  2
_DOTSMALL
 10
154.450595
 20
448.199247
 30
0.0
 50
180.0
  0
INSERT
  5
5A
100
AcDbEntity
  8
0
  6
BYBLOCK
 62
     2
100
AcDbBlockReference
  2
_DOTSMALL
 10
181.450595
 20
448.199247
 30
0.0
  0
MTEXT
  5
5B
100
AcDbEntity
  8
0
  6
BYBLOCK
 62
     2
100
AcDbMText
 10
167.950595
 20
449.949247
 30
0.0
 40
1.5
 41
0.0
 71
     5
 72
     1
  1
\A1;27
  0
POINT
  5
5C
100
AcDbEntity
  8
DEFPOINTS
  6
BYBLOCK
 62
     0
100
AcDbPoint
 10
154.450595
 20
436.289119
 30
0.0
  0
POINT
  5
5D
100
AcDbEntity
  8
DEFPOINTS
  6
BYBLOCK
 62
     0
100
AcDbPoint
 10
181.450595
 20
445.289119
 30
0.0
  0
POINT
  5
5E
100
AcDbEntity
  8
DEFPOINTS
  6
BYBLOCK
 62
     0
100
AcDbPoint
 10
181.450595
 20
448.199247
 30
0.0
  0
ENDBLK
  5
60
100
AcDbEntity
  8
0
100
AcDbBlockEnd
  0
BLOCK
  5
8F
100
AcDbEntity
  8
0
100
AcDbBlockBegin
  2
*D13
 70
     1
 10
0.0
 20
0.0
 30
0.0
  3
*D13
  1

  0
LINE
  5
86
100
AcDbEntity
  8
0
  6
BYBLOCK
 62
     2
100
AcDbLine
 10
154.450595
 20
435.289119
 30
0.0
 11
154.450595
 21
416.078262
 31
0.0
  0
LINE
  5
87
100
AcDbEntity
  8
0
  6
BYBLOCK
 62
     2
100
AcDbLine
 10
172.450595
 20
425.539119
 30
0.0
 11
172.450595
 21
416.078262
 31
0.0
  0
LINE
  5
88
100
AcDbEntity
  8
0
  6
BYBLOCK
 62
     2
100
AcDbLine
 10
154.450595
 20
418.078262
 30
0.0
 11
172.450595
 21
418.078262
 31
0.0
  0
INSERT
  5
89
100
AcDbEntity
  8
0
  6
BYBLOCK
 62
     2
100
AcDbBlockReference
  2
_DOTSMALL
 10
154.450595
 20
418.078262
 30
0.0
 50
180.0
  0
INSERT
  5
8A
100
AcDbEntity
  8
0
  6
BYBLOCK
 62
     2
100
AcDbBlockReference
  2
_DOTSMALL
 10
172.450595
 20
418.078262
 30
0.0
  0
MTEXT
  5
8B
100
AcDbEntity
  8
0
  6
BYBLOCK
 62
     2
100
AcDbMText
 10
163.450595
 20
419.828262
 30
0.0
 40
1.5
 41
0.0
 71
     5
 72
     1
  1
\A1;18
  0
POINT
  5
8C
100
AcDbEntity
  8
DEFPOINTS
  6
BYBLOCK
 62
     0
100
AcDbPoint
 10
154.450595
 20
436.289119
 30
0.0
  0
POINT
  5
8D
100
AcDbEntity
  8
DEFPOINTS
  6
BYBLOCK
 62
     0
100
AcDbPoint
 10
172.450595
 20
426.539119
 30
0.0
  0
POINT
  5
8E
100
AcDbEntity
  8
DEFPOINTS
  6
BYBLOCK
 62
     0
100
AcDbPoint
 10
172.450595
 20
418.078262
 30
0.0
  0
ENDBLK
  5
90
100
AcDbEntity
  8
0
100
AcDbBlockEnd
  0
BLOCK
  5
EF
100
AcDbEntity
  8
0
100
AcDbBlockBegin
  2
*D14
 70
     1
 10
0.0
 20
0.0
 30
0.0
  3
*D14
  1

  0
LINE
  5
E6
100
AcDbEntity
  8
0
  6
BYBLOCK
 62
     2
100
AcDbLine
 10
154.450595
 20
473.274294
 30
0.0
 11
154.450595
 21
458.605789
 31
0.0
  0
LINE
  5
E7
100
AcDbEntity
  8
0
  6
BYBLOCK
 62
     2
100
AcDbLine
 10
184.450595
 20
476.274294
 30
0.0
 11
184.450595
 21
458.605789
 31
0.0
  0
LINE
  5
E8
100
AcDbEntity
  8
0
  6
BYBLOCK
 62
     2
100
AcDbLine
 10
154.450595
 20
460.605789
 30
0.0
 11
184.450595
 21
460.605789
 31
0.0
  0
INSERT
  5
E9
100
AcDbEntity
  8
0
  6
BYBLOCK
 62
     2
100
AcDbBlockReference
  2
_DOTSMALL
 10
154.450595
 20
460.605789
 30
0.0
 50
180.0
  0
INSERT
  5
EA
100
AcDbEntity
  8
0
  6
BYBLOCK
 62
     2
100
AcDbBlockReference
  2
_DOTSMALL
 10
184.450595
 20
460.605789
 30
0.0
  0
MTEXT
  5
EB
100
AcDbEntity
  8
0
  6
BYBLOCK
 62
     2
100
AcDbMText
 10
169.450595
 20
462.355789
 30
0.0
 40
1.5
 41
0.0
 71
     5
 72
     1
  1
\A1;30
  0
POINT
  5
EC
100
AcDbEntity
  8
DEFPOINTS
  6
BYBLOCK
 62
     0
100
AcDbPoint
 10
154.450595
 20
474.274294
 30
0.0
  0
POINT
  5
ED
100
AcDbEntity
  8
DEFPOINTS
  6
BYBLOCK
 62
     0
100
AcDbPoint
 10
184.450595
 20
477.274294
 30
0.0
  0
POINT
  5
EE
100
AcDbEntity
  8
DEFPOINTS
  6
BYBLOCK
 62
     0
100
AcDbPoint
 10
184.450595
 20
460.605789
 30
0.0
  0
ENDBLK
  5
F0
100
AcDbEntity
  8
0
100
AcDbBlockEnd
  0
BLOCK
  5
1AA
100
AcDbEntity
  8
0
100
AcDbBlockBegin
  2
*D15
 70
     1
 10
0.0
 20
0.0
 30
0.0
  3
*D15
  1

  0
LINE
  5
1A1
100
AcDbEntity
  8
0
  6
BYBLOCK
 62
     2
100
AcDbLine
 10
176.450595
 20
490.274294
 30
0.0
 11
172.225426
 21
490.274294
 31
0.0
  0
LINE
  5
1A2
100
AcDbEntity
  8
0
  6
BYBLOCK
 62
     2
100
AcDbLine
 10
176.450595
 20
484.274294
 30
0.0
 11
172.225426
 21
484.274294
 31
0.0
  0
LINE
  5
1A3
100
AcDbEntity
  8
0
  6
BYBLOCK
 62
     2
100
AcDbLine
 10
174.225426
 20
490.274294
 30
0.0
 11
174.225426
 21
484.274294
 31
0.0
  0
INSERT
  5
1A4
100
AcDbEntity
  8
0
  6
BYBLOCK
 62
     2
100
AcDbBlockReference
  2
_DOTSMALL
 10
174.225426
 20
490.274294
 30
0.0
 50
90.0
  0
INSERT
  5
1A5
100
AcDbEntity
  8
0
  6
BYBLOCK
 62
     2
100
AcDbBlockReference
  2
_DOTSMALL
 10
174.225426
 20
484.274294
 30
0.0
 50
270.0
  0
MTEXT
  5
1A6
100
AcDbEntity
  8
0
  6
BYBLOCK
 62
     2
100
AcDbMText
 10
172.475426
 20
487.274294
 30
0.0
 40
1.5
 41
0.0
 71
     5
 72
     1
  1
\A1;6
 11
0.0
 21
1.0
 31
0.0
  0
POINT
  5
1A7
100
AcDbEntity
  8
DEFPOINTS
  6
BYBLOCK
 62
     0
100
AcDbPoint
 10
177.450595
 20
490.274294
 30
0.0
  0
POINT
  5
1A8
100
AcDbEntity
  8
DEFPOINTS
  6
BYBLOCK
 62
     0
100
AcDbPoint
 10
177.450595
 20
484.274294
 30
0.0
  0
POINT
  5
1A9
100
AcDbEntity
  8
DEFPOINTS
  6
BYBLOCK
 62
     0
100
AcDbPoint
 10
174.225426
 20
484.274294
 30
0.0
  0
ENDBLK
  5
1AB
100
AcDbEntity
  8
0
100
AcDbBlockEnd
  0
BLOCK
  5
15E
100
AcDbEntity
  8
0
100
AcDbBlockBegin
  2
*D16
 70
     1
 10
0.0
 20
0.0
 30
0.0
  3
*D16
  1

  0
LINE
  5
153
100
AcDbEntity
  8
0
  6
BYBLOCK
 62
     2
100
AcDbLine
 10
1064.138178
 20
474.132828
 30
0.0
 11
1058.772329
 21
474.132828
 31
0.0
  0
LINE
  5
154
100
AcDbEntity
  8
0
  6
BYBLOCK
 62
     2
100
AcDbLine
 10
1064.138178
 20
472.682828
 30
0.0
 11
1058.772329
 21
472.682828
 31
0.0
  0
LINE
  5
155
100
AcDbEntity
  8
0
  6
BYBLOCK
 62
     2
100
AcDbLine
 10
1060.772329
 20
474.132828
 30
0.0
 11
1060.772329
 21
475.132828
 31
0.0
  0
LINE
  5
156
100
AcDbEntity
  8
0
  6
BYBLOCK
 62
     2
100
AcDbLine
 10
1060.772329
 20
472.682828
 30
0.0
 11
1060.772329
 21
463.182828
 31
0.0
  0
LINE
  5
157
100
AcDbEntity
  8
0
  6
BYBLOCK
 62
     2
100
AcDbLine
 10
1060.772329
 20
474.132828
 30
0.0
 11
1060.772329
 21
472.682828
 31
0.0
  0
INSERT
  5
158
100
AcDbEntity
  8
0
  6
BYBLOCK
 62
     2
100
AcDbBlockReference
  2
_DOTSMALL
 10
1060.772329
 20
474.132828
 30
0.0
 50
270.0
  0
INSERT
  5
159
100
AcDbEntity
  8
0
  6
BYBLOCK
 62
     2
100
AcDbBlockReference
  2
_DOTSMALL
 10
1060.772329
 20
472.682828
 30
0.0
 50
90.0
  0
MTEXT
  5
15A
100
AcDbEntity
  8
0
  6
BYBLOCK
 62
     2
100
AcDbMText
 10
1059.022329
 20
466.932828
 30
0.0
 40
1.5
 41
0.0
 71
     5
 72
     1
  1
\A1;1.45
 11
0.0
 21
1.0
 31
0.0
  0
POINT
  5
15B
100
AcDbEntity
  8
DEFPOINTS
  6
BYBLOCK
 62
     0
100
AcDbPoint
 10
1065.138178
 20
474.132828
 30
0.0
  0
POINT
  5
15C
100
AcDbEntity
  8
DEFPOINTS
  6
BYBLOCK
 62
     0
100
AcDbPoint
 10
1065.138178
 20
472.682828
 30
0.0
  0
POINT
  5
15D
100
AcDbEntity
  8
DEFPOINTS
  6
BYBLOCK
 62
     0
100
AcDbPoint
 10
1060.772329
 20
472.682828
 30
0.0
  0
ENDBLK
  5
15F
100
AcDbEntity
  8
0
100
AcDbBlockEnd
  0
BLOCK
  5
122
100
AcDbEntity
  8
0
100
AcDbBlockBegin
  2
*D17
 70
     1
 10
0.0
 20
0.0
 30
0.0
  3
*D17
  1

  0
LINE
  5
113
100
AcDbEntity
  8
0
  6
BYBLOCK
 62
     1
100
AcDbLine
 10
1080.374079
 20
460.140282
 30
0.0
 11
1078.11976
 21
441.780324
 31
0.0
  0
LINE
  5
114
100
AcDbEntity
  8
0
  6
BYBLOCK
 62
     1
100
AcDbLine
 10
1080.495948
 20
460.132828
 30
0.0
 11
1080.495948
 21
441.63499
 31
0.0
  0
ARC
  5
115
100
AcDbEntity
  8
0
  6
BYBLOCK
 62
     1
100
AcDbCircle
 10
1080.495948
 20
461.132828
 30
0.0
 40
17.497838
100
AcDbArc
 50
249.873516
 51
263.0
  0
LINE
  5
116
100
AcDbEntity
  8
0
  6
BYBLOCK
 62
     1
100
AcDbLine
 10
1074.475052
 20
444.70349
 30
0.0
 11
1066.400208
 21
447.662697
 31
0.0
  0
ARC
  5
117
100
AcDbEntity
  8
0
  6
BYBLOCK
 62
     1
100
AcDbCircle
 10
1080.495948
 20
461.132828
 30
0.0
 40
17.497838
100
AcDbArc
 50
249.895064
 51
256.447532
  0
ARC
  5
118
100
AcDbEntity
  8
0
  6
BYBLOCK
 62
     1
100
AcDbCircle
 10
1080.495948
 20
461.132828
 30
0.0
 40
17.497838
100
AcDbArc
 50
276.552468
 51
283.104936
  0
ARC
  5
119
100
AcDbEntity
  8
0
  6
BYBLOCK
 62
     1
100
AcDbCircle
 10
1080.495948
 20
461.132828
 30
0.0
 40
17.497838
100
AcDbArc
 50
263.0
 51
270.0
  0
INSERT
  5
11A
100
AcDbEntity
  8
0
  6
BYBLOCK
 62
     1
100
AcDbBlockReference
  2
_OPEN30
 10
1078.363498
 20
443.765416
 30
0.0
 41
2.0
 42
2.0
 43
2.0
 50
349.723766
  0
INSERT
  5
11B
100
AcDbEntity
  8
0
  6
BYBLOCK
 62
     1
100
AcDbBlockReference
  2
_OPEN30
 10
1080.495948
 20
443.63499
 30
0.0
 41
2.0
 42
2.0
 43
2.0
 50
183.276234
  0
MTEXT
  5
11C
100
AcDbEntity
  8
0
  6
BYBLOCK
 62
     3
100
AcDbMText
 10
1071.297864
 20
448.530432
 30
0.0
 40
3.0
 41
0.0
 71
     5
 72
     1
  1
\A1;7°
 11
0.938935
 21
-0.344094
 31
0.0
  0
POINT
  5
11D
100
AcDbEntity
  8
DEFPOINTS
  6
BYBLOCK
 62
     0
100
AcDbPoint
 10
1079.783557
 20
443.649498
 30
0.0
  0
POINT
  5
11E
100
AcDbEntity
  8
DEFPOINTS
  6
BYBLOCK
 62
     0
100
AcDbPoint
 10
1083.240875
 20
483.488462
 30
0.0
  0
POINT
  5
11F
100
AcDbEntity
  8
DEFPOINTS
  6
BYBLOCK
 62
     0
100
AcDbPoint
 10
1080.495948
 20
477.403746
 30
0.0
  0
POINT
  5
120
100
AcDbEntity
  8
DEFPOINTS
  6
BYBLOCK
 62
     0
100
AcDbPoint
 10
1080.495948
 20
461.132828
 30
0.0
  0
POINT
  5
121
100
AcDbEntity
  8
DEFPOINTS
  6
BYBLOCK
 62
     0
100
AcDbPoint
 10
1080.495948
 20
461.132828
 30
0.0
  0
ENDBLK
  5
123
100
AcDbEntity
  8
0
100
AcDbBlockEnd
  0
BLOCK
  5
14E
100
AcDbEntity
  8
0
100
AcDbBlockBegin
  2
*D18
 70
     1
 10
0.0
 20
0.0
 30
0.0
  3
*D18
  1

  0
LINE
  5
144
100
AcDbEntity
  8
0
  6
BYBLOCK
 62
     2
100
AcDbLine
 10
1080.374079
 20
460.140282
 30
0.0
 11
1079.543725
 21
453.377591
 31
0.0
  0
LINE
  5
145
100
AcDbEntity
  8
0
  6
BYBLOCK
 62
     2
100
AcDbLine
 10
1076.433671
 20
460.624104
 30
0.0
 11
1075.603317
 21
453.861413
 31
0.0
  0
LINE
  5
146
100
AcDbEntity
  8
0
  6
BYBLOCK
 62
     2
100
AcDbLine
 10
1079.787464
 20
455.362684
 30
0.0
 11
1075.847055
 21
455.846505
 31
0.0
  0
LINE
  5
147
100
AcDbEntity
  8
0
  6
BYBLOCK
 62
     2
100
AcDbLine
 10
1075.847055
 20
455.846505
 30
0.0
 11
1067.410413
 21
456.882394
 31
0.0
  0
INSERT
  5
148
100
AcDbEntity
  8
0
  6
BYBLOCK
 62
     2
100
AcDbBlockReference
  2
_DOTSMALL
 10
1079.787464
 20
455.362684
 30
0.0
 50
353.0
  0
INSERT
  5
149
100
AcDbEntity
  8
0
  6
BYBLOCK
 62
     2
100
AcDbBlockReference
  2
_DOTSMALL
 10
1075.847055
 20
455.846505
 30
0.0
 50
173.0
  0
MTEXT
  5
14A
100
AcDbEntity
  8
0
  6
BYBLOCK
 62
     2
100
AcDbMText
 10
1071.345733
 20
458.16234
 30
0.0
 40
1.5
 41
0.0
 71
     5
 72
     1
  1
\A1;3.97
 11
0.992546
 21
-0.121869
 31
0.0
  0
POINT
  5
14B
100
AcDbEntity
  8
DEFPOINTS
  6
BYBLOCK
 62
     0
100
AcDbPoint
 10
1080.495948
 20
461.132828
 30
0.0
  0
POINT
  5
14C
100
AcDbEntity
  8
DEFPOINTS
  6
BYBLOCK
 62
     0
100
AcDbPoint
 10
1076.55554
 20
461.61665
 30
0.0
  0
POINT
  5
14D
100
AcDbEntity
  8
DEFPOINTS
  6
BYBLOCK
 62
     0
100
AcDbPoint
 10
1075.847055
 20
455.846505
 30
0.0
  0
ENDBLK
  5
14F
100
AcDbEntity
  8
0
100
AcDbBlockEnd
  0
BLOCK
  5
10A
100
AcDbEntity
  8
0
100
AcDbBlockBegin
  2
*D19
 70
     1
 10
0.0
 20
0.0
 30
0.0
  3
*D19
  1

  0
LINE
  5
FF
100
AcDbEntity
  8
0
  6
BYBLOCK
 62
     1
100
AcDbLine
 10
2219.998283
 20
492.409177
 30
0.0
 11
2220.968806
 21
503.502297
 31
0.0
  0
LINE
  5
100
100
AcDbEntity
  8
0
  6
BYBLOCK
 62
     1
100
AcDbLine
 10
2217.411687
 20
474.274294
 30
0.0
 11
2189.072038
 21
474.274294
 31
0.0
  0
ARC
  5
101
100
AcDbEntity
  8
0
  6
BYBLOCK
 62
     1
100
AcDbCircle
 10
2218.411687
 20
474.274294
 30
0.0
 40
27.339649
100
AcDbArc
 50
89.192341
 51
175.807659
  0
INSERT
  5
102
100
AcDbEntity
  8
0
  6
BYBLOCK
 62
     1
100
AcDbBlockReference
  2
_OPEN30
 10
2220.794494
 20
501.509907
 30
0.0
 41
2.0
 42
2.0
 43
2.0
 50
357.09617
  0
INSERT
  5
103
100
AcDbEntity
  8
0
  6
BYBLOCK
 62
     1
100
AcDbBlockReference
  2
_OPEN30
 10
2191.072038
 20
474.274294
 30
0.0
 41
2.0
 42
2.0
 43
2.0
 50
267.90383
  0
MTEXT
  5
104
100
AcDbEntity
  8
0
  6
BYBLOCK
 62
     3
100
AcDbMText
 10
2198.252312
 20
496.274391
 30
0.0
 40
3.0
 41
0.0
 71
     5
 72
     1
  1
\A1;95°
 11
0.737277
 21
0.67559
 31
0.0
  0
POINT
  5
105
100
AcDbEntity
  8
DEFPOINTS
  6
BYBLOCK
 62
     0
100
AcDbPoint
 10
2206.141675
 20
498.705897
 30
0.0
  0
POINT
  5
106
100
AcDbEntity
  8
DEFPOINTS
  6
BYBLOCK
 62
     0
100
AcDbPoint
 10
2219.911128
 20
491.412982
 30
0.0
  0
POINT
  5
107
100
AcDbEntity
  8
DEFPOINTS
  6
BYBLOCK
 62
     0
100
AcDbPoint
 10
2219.319666
 20
474.274294
 30
0.0
  0
POINT
  5
108
100
AcDbEntity
  8
DEFPOINTS
  6
BYBLOCK
 62
     0
100
AcDbPoint
 10
2218.484733
 20
474.274294
 30
0.0
  0
POINT
  5
109
100
AcDbEntity
  8
DEFPOINTS
  6
BYBLOCK
 62
     0
100
AcDbPoint
 10
2218.487778
 20
475.144018
 30
0.0
  0
ENDBLK
  5
10B
100
AcDbEntity
  8
0
100
AcDbBlockEnd
  0
BLOCK
  5
C2
100
AcDbEntity
  8
0
100
AcDbBlockBegin
  2
*D20
 70
     1
 10
0.0
 20
0.0
 30
0.0
  3
*D20
  1

  0
LINE
  5
B7
100
AcDbEntity
  8
0
  6
BYBLOCK
 62
     2
100
AcDbLine
 10
2230.724311
 20
497.524294
 30
0.0
 11
2232.852628
 21
498.753078
 31
0.0
  0
LINE
  5
B8
100
AcDbEntity
  8
0
  6
BYBLOCK
 62
     2
100
AcDbLine
 10
2218.484733
 20
476.074293
 30
0.0
 11
2218.484733
 21
507.048386
 31
0.0
  0
ARC
  5
B9
100
AcDbEntity
  8
0
  6
BYBLOCK
 62
     2
100
AcDbCircle
 10
2218.484733
 20
490.45777
 30
0.0
 40
14.590616
100
AcDbArc
 50
30.0
 51
90.0
  0
INSERT
  5
BA
100
AcDbEntity
  8
0
  6
BYBLOCK
 62
     2
100
AcDbBlockReference
  2
_DOTSMALL
 10
2231.120578
 20
497.753078
 30
0.0
 50
300.0
  0
INSERT
  5
BB
100
AcDbEntity
  8
0
  6
BYBLOCK
 62
     2
100
AcDbBlockReference
  2
_DOTSMALL
 10
2218.484733
 20
505.048386
 30
0.0
 50
180.0
  0
MTEXT
  5
BC
100
AcDbEntity
  8
0
  6
BYBLOCK
 62
     2
100
AcDbMText
 10
2226.655041
 20
504.609159
 30
0.0
 40
1.5
 41
0.0
 71
     5
 72
     1
  1
\A1;60°
 11
0.866025
 21
-0.5
 31
0.0
  0
POINT
  5
BD
100
AcDbEntity
  8
DEFPOINTS
  6
BYBLOCK
 62
     0
100
AcDbPoint
 10
2227.863401
 20
501.634831
 30
0.0
  0
POINT
  5
BE
100
AcDbEntity
  8
DEFPOINTS
  6
BYBLOCK
 62
     0
100
AcDbPoint
 10
2229.858286
 20
497.024294
 30
0.0
  0
POINT
  5
BF
100
AcDbEntity
  8
DEFPOINTS
  6
BYBLOCK
 62
     0
100
AcDbPoint
 10
2218.484733
 20
475.074293
 30
0.0
  0
POINT
  5
C0
100
AcDbEntity
  8
DEFPOINTS
  6
BYBLOCK
 62
     0
100
AcDbPoint
 10
2218.484733
 20
474.274294
 30
0.0
  0
POINT
  5
C1
100
AcDbEntity
  8
DEFPOINTS
  6
BYBLOCK
 62
     0
100
AcDbPoint
 10
2219.898994
 20
491.274294
 30
0.0
  0
ENDBLK
  5
C3
100
AcDbEntity
  8
0
100
AcDbBlockEnd
  0
BLOCK
  5
B3
100
AcDbEntity
  8
0
100
AcDbBlockBegin
  2
*D21
 70
     1
 10
0.0
 20
0.0
 30
0.0
  3
*D21
  1

  0
LINE
  5
A6
100
AcDbEntity
  8
0
  6
BYBLOCK
 62
     2
100
AcDbLine
 10
2219.98615
 20
492.270489
 30
0.0
 11
2221.608776
 21
510.81719
 31
0.0
  0
LINE
  5
A7
100
AcDbEntity
  8
0
  6
BYBLOCK
 62
     2
100
AcDbLine
 10
2218.484733
 20
476.109222
 30
0.0
 11
2218.484733
 21
510.953589
 31
0.0
  0
ARC
  5
A8
100
AcDbEntity
  8
0
  6
BYBLOCK
 62
     2
100
AcDbCircle
 10
2218.484733
 20
475.109222
 30
0.0
 40
33.844367
100
AcDbArc
 50
83.307019
 51
85.0
  0
LINE
  5
A9
100
AcDbEntity
  8
0
  6
BYBLOCK
 62
     2
100
AcDbLine
 10
2222.429263
 20
508.722937
 30
0.0
 11
2227.693143
 21
508.105227
 31
0.0
  0
ARC
  5
AA
100
AcDbEntity
  8
0
  6
BYBLOCK
 62
     2
100
AcDbCircle
 10
2218.484733
 20
475.109222
 30
0.0
 40
33.844367
100
AcDbArc
 50
85.0
 51
90.0
  0
INSERT
  5
AB
100
AcDbEntity
  8
0
  6
BYBLOCK
 62
     2
100
AcDbBlockReference
  2
_DOTSMALL
 10
2221.434464
 20
508.824801
 30
0.0
 50
355.0
  0
INSERT
  5
AC
100
AcDbEntity
  8
0
  6
BYBLOCK
 62
     2
100
AcDbBlockReference
  2
_DOTSMALL
 10
2218.484733
 20
508.953589
 30
0.0
 50
180.0
  0
MTEXT
  5
AD
100
AcDbEntity
  8
0
  6
BYBLOCK
 62
     2
100
AcDbMText
 10
2225.265164
 20
510.152156
 30
0.0
 40
1.5
 41
0.0
 71
     5
 72
     1
  1
\A1;5°
 11
0.993185
 21
-0.116549
 31
0.0
  0
POINT
  5
AE
100
AcDbEntity
  8
DEFPOINTS
  6
BYBLOCK
 62
     0
100
AcDbPoint
 10
2219.469087
 20
508.939271
 30
0.0
  0
POINT
  5
AF
100
AcDbEntity
  8
DEFPOINTS
  6
BYBLOCK
 62
     0
100
AcDbPoint
 10
2219.898994
 20
491.274294
 30
0.0
  0
POINT
  5
B0
100
AcDbEntity
  8
DEFPOINTS
  6
BYBLOCK
 62
     0
100
AcDbPoint
 10
2218.484733
 20
475.074293
 30
0.0
  0
POINT
  5
B1
100
AcDbEntity
  8
DEFPOINTS
  6
BYBLOCK
 62
     0
100
AcDbPoint
 10
2218.484733
 20
474.274294
 30
0.0
  0
POINT
  5
B2
100
AcDbEntity
  8
DEFPOINTS
  6
BYBLOCK
 62
     0
100
AcDbPoint
 10
2218.487778
 20
475.144018
 30
0.0
  0
ENDBLK
  5
B4
100
AcDbEntity
  8
0
100
AcDbBlockEnd
  0
BLOCK
  5
71
100
AcDbEntity
  8
0
100
AcDbBlockBegin
  2
*D22
 70
     1
 10
0.0
 20
0.0
 30
0.0
  3
*D22
  1

  0
LINE
  5
64
100
AcDbEntity
  8
0
  6
BYBLOCK
 62
     2
100
AcDbLine
 10
2219.031819
 20
423.689119
 30
0.0
 11
2206.42579
 21
423.689119
 31
0.0
  0
LINE
  5
65
100
AcDbEntity
  8
0
  6
BYBLOCK
 62
     2
100
AcDbLine
 10
2219.160936
 20
422.58138
 30
0.0
 11
2206.522432
 21
421.475654
 31
0.0
  0
ARC
  5
66
100
AcDbEntity
  8
0
  6
BYBLOCK
 62
     2
100
AcDbCircle
 10
2231.822451
 20
423.689119
 30
0.0
 40
23.39666
100
AcDbArc
 50
177.550926
 51
180.0
  0
LINE
  5
67
100
AcDbEntity
  8
0
  6
BYBLOCK
 62
     2
100
AcDbLine
 10
2208.447161
 20
424.688891
 30
0.0
 11
2208.673637
 21
429.98405
 31
0.0
  0
ARC
  5
68
100
AcDbEntity
  8
0
  6
BYBLOCK
 62
     2
100
AcDbCircle
 10
2231.822451
 20
423.689119
 30
0.0
 40
23.39666
100
AcDbArc
 50
180.0
 51
185.0
  0
INSERT
  5
69
100
AcDbEntity
  8
0
  6
BYBLOCK
 62
     2
100
AcDbBlockReference
  2
_DOTSMALL
 10
2208.42579
 20
423.689119
 30
0.0
 50
90.0
  0
INSERT
  5
6A
100
AcDbEntity
  8
0
  6
BYBLOCK
 62
     2
100
AcDbBlockReference
  2
_DOTSMALL
 10
2208.514822
 20
421.649966
 30
0.0
 50
275.0
  0
MTEXT
  5
6B
100
AcDbEntity
  8
0
  6
BYBLOCK
 62
     2
100
AcDbMText
 10
2210.308801
 20
427.26169
 30
0.0
 40
1.5
 41
0.0
 71
     5
 72
     1
  1
\A1;5°
 11
-0.042731
 21
-0.999087
 31
0.0
  0
POINT
  5
6C
100
AcDbEntity
  8
DEFPOINTS
  6
BYBLOCK
 62
     0
100
AcDbPoint
 10
2208.465374
 20
422.328724
 30
0.0
  0
POINT
  5
6D
100
AcDbEntity
  8
DEFPOINTS
  6
BYBLOCK
 62
     0
100
AcDbPoint
 10
2231.822451
 20
423.689119
 30
0.0
  0
POINT
  5
6E
100
AcDbEntity
  8
DEFPOINTS
  6
BYBLOCK
 62
     0
100
AcDbPoint
 10
2220.157131
 20
422.668536
 30
0.0
  0
POINT
  5
6F
100
AcDbEntity
  8
DEFPOINTS
  6
BYBLOCK
 62
     0
100
AcDbPoint
 10
2241.392501
 20
424.52639
 30
0.0
  0
POINT
  5
70
100
AcDbEntity
  8
DEFPOINTS
  6
BYBLOCK
 62
     0
100
AcDbPoint
 10
2220.031819
 20
423.689119
 30
0.0
  0
ENDBLK
  5
72
100
AcDbEntity
  8
0
100
AcDbBlockEnd
  0
BLOCK
  5
1DF
100
AcDbEntity
  8
0
100
AcDbBlockBegin
  2
2
 70
     0
 10
0.0
 20
0.0
 30
0.0
  3
2
  1

  0
LINE
  5
2B
100
AcDbEntity
  8
外形
  6
CONTINUOUS
100
AcDbLine
 10
226.209984
 20
101.201649
 30
0.0
 11
72.209984
 21
101.201649
 31
0.0
  0
LINE
  5
2C
100
AcDbEntity
  8
外形
  6
CONTINUOUS
100
AcDbLine
 10
226.209984
 20
106.84275
 30
0.0
 11
72.459984
 21
106.84275
 31
0.0
  0
LINE
  5
2D
100
AcDbEntity
  8
外形
  6
CONTINUOUS
100
AcDbLine
 10
226.209984
 20
92.483851
 30
0.0
 11
74.026322
 21
92.483851
 31
0.0
  0
LINE
  5
2E
100
AcDbEntity
  8
外形
  6
CONTINUOUS
100
AcDbLine
 10
226.209984
 20
86.84275
 30
0.0
 11
72.459984
 21
86.84275
 31
0.0
  0
TEXT
  5
2F
100
AcDbEntity
  8
外形
  6
CONTINUOUS
 62
     2
100
AcDbText
 10
132.627054
 20
2.583395
 30
0.0
 40
6.0
  1
C20S-SCLCR09
100
AcDbText
  0
LINE
  5
30
100
AcDbEntity
  8
外形
  6
CENTER
 62
     1
100
AcDbLine
 10
41.488146
 20
45.857576
 30
0.0
 11
301.451369
 21
45.857576
 31
0.0
  0
LINE
  5
32
100
AcDbEntity
  8
外形
  6
CENTER
 62
     1
100
AcDbLine
 10
301.451369
 20
96.84275
 30
0.0
 11
47.209984
 21
96.84275
 31
0.0
  0
DIMENSION
  5
33
100
AcDbEntity
  8
寸法
  6
CONTINUOUS
100
AcDbDimension
  2
*D2
 10
297.209984
 20
65.778832
 30
0.0
 11
172.209984
 21
68.278832
 31
0.0
 12
-107.240611
 22
-390.431543
 32
0.0
  3
STANDARD
100
AcDbAlignedDimension
 13
47.209984
 23
83.84275
 33
0.0
 14
297.209984
 24
85.84275
 34
0.0
100
AcDbRotatedDimension
1001
ACAD
1000
DSTYLE
1002
{
1070
    40
1040
1.0
1002
}
  0
LINE
  5
4D
100
AcDbEntity
  8
外形
  6
CONTINUOUS
100
AcDbLine
 10
296.209984
 20
54.857576
 30
0.0
 11
74.209984
 21
54.857576
 31
0.0
  0
LINE
  5
4E
100
AcDbEntity
  8
外形
  6
CONTINUOUS
100
AcDbLine
 10
296.209984
 20
36.857576
 30
0.0
 11
82.209984
 21
36.857576
 31
0.0
  0
LINE
  5
4F
100
AcDbEntity
  8
参考
  6
CENTER
 62
     6
100
AcDbLine
 10
65.484046
 20
105.513174
 30
0.0
 11
65.484046
 21
26.576151
 31
0.0
  0
LINE
  5
51
100
AcDbEntity
  8
参考
  6
CENTER
 62
     6
100
AcDbLine
 10
82.234046
 20
105.513174
 30
0.0
 11
82.234046
 21
26.576151
 31
0.0
  0
LINE
  5
52
100
AcDbEntity
  8
参考
  6
CENTER
 62
     6
100
AcDbLine
 10
47.484046
 20
105.513174
 30
0.0
 11
47.484046
 21
26.576151
 31
0.0
  0
LINE
  5
53
100
AcDbEntity
  8
参考
  6
CENTER
 62
     6
100
AcDbLine
 10
52.384046
 20
105.513174
 30
0.0
 11
52.384046
 21
26.576151
 31
0.0
  0
DIMENSION
  5
54
100
AcDbEntity
  8
参考
  6
CONTINUOUS
100
AcDbDimension
  2
*D12
 10
74.209984
 20
57.767704
 30
0.0
 11
60.709984
 21
59.517704
 31
0.0
 12
-107.240611
 22
-390.431543
 32
0.0
  3
参考寸法
100
AcDbAlignedDimension
 13
47.209984
 23
45.857576
 33
0.0
 14
74.209984
 24
54.857576
 34
0.0
100
AcDbRotatedDimension
1001
ACAD
1000
DSTYLE
1002
{
1070
   140
1040
1.5
1070
    41
1040
1.0
1002
}
  0
ARC
  5
61
100
AcDbEntity
  8
外形
  6
CONTINUOUS
100
AcDbCircle
 10
68.733599
 20
62.539126
 30
0.0
 40
30.404245
100
AcDbArc
 50
226.690741
 51
254.381229
  0
DIMENSION
  5
62
100
AcDbEntity
  8
参考
  6
CONTINUOUS
100
AcDbDimension
  2
*D22
 10
48.75707
 20
33.257576
 30
0.0
 11
39.034051
 21
36.830147
 31
0.0
 12
-2171.274749
 22
-390.431543
 32
0.0
 70
     2
  3
参考寸法
100
AcDb2LineAngularDimension
 13
48.882381
 23
32.236993
 33
0.0
 14
70.117751
 24
34.094847
 34
0.0
 15
60.547701
 25
33.257576
 35
0.0
 16
37.190625
 26
31.897181
 36
0.0
1001
ACAD
1000
DSTYLE
1002
{
1070
   140
1040
1.5
1070
    41
1040
1.0
1002
}
  0
LINE
  5
73
100
AcDbEntity
  8
外形
  6
CONTINUOUS
100
AcDbLine
 10
48.882381
 20
32.236993
 30
0.0
 11
60.547701
 21
33.257576
 31
0.0
  0
LINE
  5
74
100
AcDbEntity
  8
外形
  6
CONTINUOUS
100
AcDbLine
 10
47.209984
 20
45.857576
 30
0.0
 11
56.792766
 21
45.857576
 31
0.0
  0
LINE
  5
75
100
AcDbEntity
  8
外形
  6
CONTINUOUS
100
AcDbLine
 10
47.697439
 20
41.887576
 30
0.0
 11
56.305311
 21
41.887576
 31
0.0
  0
SPLINE
  5
76
100
AcDbEntity
  8
外形
  6
CONTINUOUS
100
AcDbSpline
210
0.0
220
0.0
230
-1.0
 70
     8
 71
     3
 72
    10
 73
     6
 74
     4
 42
0.0000001
 43
0.0000001
 44
0.0000000001
 40
0.0
 40
0.0
 40
0.0
 40
0.0
 40
5.039786751347365
 40
10.72395326214045
 40
28.1485650307029
 40
28.1485650307029
 40
28.1485650307029
 40
28.1485650307029
 10
47.44478421637313
 20
46.35760097330899
 30
0.0
 10
49.09513155802497
 20
46.71830741227889
 30
0.0
 10
52.60683723752427
 20
47.48583968769357
 30
0.0
 10
60.81294240897363
 20
52.23630722707992
 30
0.0
 10
68.45082477359183
 20
53.73073723551193
 30
0.0
 10
74.20998405620593
 20
54.85757580730609
 30
0.0
 11
47.44478421637313
 21
46.35760097330899
 31
0.0
 11
52.31071412442088
 21
47.66991824783633
 31
0.0
 11
57.44478421637314
 21
50.10940040873504
 31
0.0
 11
74.20998405620593
 21
54.85757580730609
 31
0.0
  0
DIMENSION
  5
77
100
AcDbEntity
  8
寸法
  6
CONTINUOUS
100
AcDbDimension
  2
*D8
 10
82.209984
 20
21.258028
 30
0.0
 11
64.709984
 21
23.758028
 31
0.0
 12
-107.240611
 22
-390.431543
 32
0.0
  3
STANDARD
100
AcDbAlignedDimension
 13
47.209984
 23
33.257576
 33
0.0
 14
82.209984
 24
35.857576
 34
0.0
100
AcDbRotatedDimension
1001
ACAD
1000
DSTYLE
1002
{
1070
    40
1040
1.0
1002
}
  0
DIMENSION
  5
84
100
AcDbEntity
  8
参考
  6
CONTINUOUS
100
AcDbDimension
  2
*D13
 10
65.484046
 20
27.646718
 30
0.0
 11
56.484046
 21
29.396718
 31
0.0
 12
-106.966548
 22
-390.431543
 32
0.0
  3
参考寸法
100
AcDbAlignedDimension
 13
47.484046
 23
45.857576
 33
0.0
 14
65.484046
 24
36.107576
 34
0.0
100
AcDbRotatedDimension
1001
ACAD
1000
DSTYLE
1002
{
1070
   140
1040
1.5
1070
    41
1040
1.0
1002
}
  0
LINE
  5
91
100
AcDbEntity
  8
外形
  6
CONTINUOUS
100
AcDbLine
 10
47.209984
 20
45.857576
 30
0.0
 11
48.882381
 21
32.236993
 31
0.0
  0
LINE
  5
92
100
AcDbEntity
  8
外形
  6
CONTINUOUS
100
AcDbLine
 10
47.444784
 20
46.357601
 30
0.0
 11
47.444784
 21
45.857576
 31
0.0
  0
LINE
  5
93
100
AcDbEntity
  8
外形
  6
HIDDEN
100
AcDbLine
 10
76.209984
 20
54.857576
 30
0.0
 11
70.209984
 21
48.857576
 31
0.0
  0
LINE
  5
95
100
AcDbEntity
  8
外形
  6
CONTINUOUS
100
AcDbLine
 10
82.209984
 20
35.857576
 30
0.0
 11
72.459984
 21
35.857576
 31
0.0
  0
LINE
  5
96
100
AcDbEntity
  8
外形
  6
HIDDEN
100
AcDbLine
 10
77.209984
 20
35.857576
 30
0.0
 11
70.209984
 21
42.857576
 31
0.0
  0
SPLINE
  5
97
100
AcDbEntity
  8
外形
  6
CONTINUOUS
100
AcDbSpline
210
0.0
220
0.0
230
-1.0
 70
     8
 71
     3
 72
     9
 73
     5
 74
     3
 42
0.0000001
 43
0.0000001
 44
0.0000000001
 40
0.0
 40
0.0
 40
0.0
 40
0.0
 40
10.76232283732139
 40
16.36032595426797
 40
16.36032595426797
 40
16.36032595426797
 40
16.36032595426797
 10
74.20998405620548
 20
54.85757580730603
 30
0.0
 10
71.20596834313556
 20
52.89649529027823
 30
0.0
 10
66.63941919009059
 20
49.915362223922
 30
0.0
 10
62.10070917621997
 20
46.89205802744464
 30
0.0
 10
60.54770143813539
 20
45.85757580730631
 30
0.0
 11
74.20998405620548
 21
54.85757580730603
 31
0.0
 11
65.20998405620685
 21
48.95608507574047
 31
0.0
 11
60.54770143813539
 21
45.85757580730631
 31
0.0
  0
LINE
  5
98
100
AcDbEntity
  8
外形
  6
CONTINUOUS
100
AcDbLine
 10
72.209984
 20
53.528566
 30
0.0
 11
72.209984
 21
36.107576
 31
0.0
  0
LINE
  5
99
100
AcDbEntity
  8
外形
  6
CONTINUOUS
100
AcDbLine
 10
65.484046
 20
49.137318
 30
0.0
 11
65.484046
 21
36.107576
 31
0.0
  0
LINE
  5
9A
100
AcDbEntity
  8
外形
  6
HIDDEN
100
AcDbLine
 10
70.209984
 20
48.857576
 30
0.0
 11
70.209984
 21
42.857576
 31
0.0
  0
LINE
  5
9B
100
AcDbEntity
  8
外形
  6
CONTINUOUS
100
AcDbLine
 10
72.459984
 20
53.694502
 30
0.0
 11
72.459984
 21
35.857576
 31
0.0
  0
LINE
  5
9C
100
AcDbEntity
  8
外形
  6
CONTINUOUS
100
AcDbLine
 10
60.547701
 20
33.257576
 30
0.0
 11
60.547701
 21
45.857576
 31
0.0
  0
LINE
  5
9D
100
AcDbEntity
  8
外形
  6
CONTINUOUS
100
AcDbLine
 10
56.792766
 20
45.857576
 30
0.0
 11
56.305311
 21
41.887576
 31
0.0
  0
LINE
  5
9E
100
AcDbEntity
  8
外形
  6
CONTINUOUS
100
AcDbLine
 10
65.484046
 20
36.107576
 30
0.0
 11
60.547701
 21
33.257576
 31
0.0
  0
LINE
  5
9F
100
AcDbEntity
  8
外形
  6
CONTINUOUS
100
AcDbLine
 10
72.209984
 20
36.107576
 30
0.0
 11
72.459984
 21
35.857576
 31
0.0
  0
LINE
  5
A0
100
AcDbEntity
  8
外形
  6
CONTINUOUS
100
AcDbLine
 10
72.209984
 20
36.107576
 30
0.0
 11
65.484046
 21
36.107576
 31
0.0
  0
LINE
  5
A1
100
AcDbEntity
  8
外形
  6
CONTINUOUS
100
AcDbLine
 10
60.547701
 20
45.857576
 30
0.0
 11
56.792766
 21
45.857576
 31
0.0
  0
LINE
  5
A2
100
AcDbEntity
  8
外形
  6
CONTINUOUS
100
AcDbLine
 10
77.209984
 20
54.857576
 30
0.0
 11
77.209984
 21
35.857576
 31
0.0
  0
LINE
  5
A3
100
AcDbEntity
  8
外形
  6
CONTINUOUS
100
AcDbLine
 10
82.209984
 20
36.857576
 30
0.0
 11
82.209984
 21
35.857576
 31
0.0
  0
DIMENSION
  5
A4
100
AcDbEntity
  8
参考
  6
CONTINUOUS
100
AcDbDimension
  2
*D21
 10
47.213028
 20
84.712475
 30
0.0
 11
53.990414
 21
119.720613
 31
0.0
 12
-2171.274749
 22
-390.431543
 32
0.0
 70
     2
  3
参考寸法
100
AcDb2LineAngularDimension
 13
47.209984
 23
84.64275
 33
0.0
 14
47.209984
 24
83.84275
 34
0.0
 15
48.624245
 25
100.84275
 35
0.0
 16
48.194338
 26
118.507728
 36
0.0
1001
ACAD
1000
DSTYLE
1002
{
1070
   140
1040
1.5
1070
    41
1040
1.0
1002
}
  0
DIMENSION
  5
B5
100
AcDbEntity
  8
参考
  6
CONTINUOUS
100
AcDbDimension
  2
*D20
 10
48.624245
 20
100.84275
 30
0.0
 11
55.380292
 21
114.177615
 31
0.0
 12
-2171.274749
 22
-390.431543
 32
0.0
 70
     2
  3
参考寸法
100
AcDb2LineAngularDimension
 13
47.209984
 23
84.64275
 33
0.0
 14
47.209984
 24
83.84275
 34
0.0
 15
58.583537
 25
106.59275
 35
0.0
 16
56.588651
 26
111.203287
 36
0.0
1001
ACAD
1000
DSTYLE
1002
{
1070
   140
1040
1.5
1070
    41
1040
1.0
1002
}
  0
LINE
  5
C4
100
AcDbEntity
  8
外形
  6
CONTINUOUS
100
AcDbLine
 10
56.688384
 20
94.187876
 30
0.0
 11
47.975326
 21
93.425582
 31
0.0
  0
CIRCLE
  5
C5
100
AcDbEntity
  8
外形
  6
CONTINUOUS
100
AcDbCircle
 10
52.384046
 20
89.016835
 30
0.0
 40
2.800003
  0
LINE
  5
C6
100
AcDbEntity
  8
外形
  6
CONTINUOUS
100
AcDbLine
 10
60.547701
 20
84.936602
 30
0.0
 11
48.079709
 21
83.845794
 31
0.0
  0
LINE
  5
C7
100
AcDbEntity
  8
外形
  6
CENTER
 62
     1
100
AcDbLine
 10
46.871005
 20
89.016835
 30
0.0
 11
58.76758
 21
89.016835
 31
0.0
  0
CIRCLE
  5
C8
100
AcDbEntity
  8
外形
  6
CONTINUOUS
100
AcDbCircle
 10
52.384046
 20
89.016835
 30
0.0
 40
4.7625
  0
DIMENSION
  5
C9
100
AcDbEntity
  8
参考
  6
CONTINUOUS
100
AcDbDimension
  2
*D3
 10
72.209984
 20
75.430925
 30
0.0
 11
59.709984
 21
77.180925
 31
0.0
 12
-107.240611
 22
-390.431543
 32
0.0
  3
参考寸法
100
AcDbAlignedDimension
 13
47.209984
 23
83.84275
 33
0.0
 14
72.209984
 24
87.09275
 34
0.0
100
AcDbRotatedDimension
1001
ACAD
1000
DSTYLE
1002
{
1070
   140
1040
1.5
1070
    41
1040
1.0
1002
}
  0
DIMENSION
  5
D6
100
AcDbEntity
  8
参考
  6
CONTINUOUS
100
AcDbDimension
  2
*D6
 10
55.184049
 20
81.357377
 30
0.0
 11
59.184049
 21
83.107377
 31
0.0
 12
-107.240611
 22
-390.431543
 32
0.0
  3
参考寸法
100
AcDbAlignedDimension
 13
49.584043
 23
89.016835
 33
0.0
 14
55.184049
 24
89.016835
 34
0.0
100
AcDbRotatedDimension
1001
ACAD
1000
DSTYLE
1002
{
1070
   140
1040
1.5
1070
    41
1040
1.0
1002
}
  0
DIMENSION
  5
E4
100
AcDbEntity
  8
参考
  6
CONTINUOUS
100
AcDbDimension
  2
*D14
 10
77.209984
 20
70.174245
 30
0.0
 11
62.209984
 21
71.924245
 31
0.0
 12
-107.240611
 22
-390.431543
 32
0.0
  3
参考寸法
100
AcDbAlignedDimension
 13
47.209984
 23
83.84275
 33
0.0
 14
77.209984
 24
86.84275
 34
0.0
100
AcDbRotatedDimension
1001
ACAD
1000
DSTYLE
1002
{
1070
   140
1040
1.5
1070
    41
1040
1.0
1002
}
  0
LINE
  5
F1
100
AcDbEntity
  8
外形
  6
CONTINUOUS
100
AcDbLine
 10
58.583537
 20
106.59275
 30
0.0
 11
48.624245
 21
100.84275
 31
0.0
  0
DIMENSION
  5
F2
100
AcDbEntity
  8
参考
  6
CONTINUOUS
100
AcDbDimension
  2
*D9
 10
48.932574
 20
85.735258
 30
0.0
 11
75.27617
 21
110.782115
 31
0.0
 12
-107.240611
 22
-390.431543
 32
0.0
 70
   131
  3
参考寸法
100
AcDbDiametricDimension
 15
55.835518
 25
92.298412
 35
0.0
 40
0.0
1001
ACAD
1000
DSTYLE
1002
{
1070
   140
1040
1.5
1070
    41
1040
1.0
1002
}
  0
DIMENSION
  5
FD
100
AcDbEntity
  8
寸法
  6
CONTINUOUS
100
AcDbDimension
  2
*D19
 10
47.200895
 20
84.573786
 30
0.0
 11
26.965429
 21
105.704159
 31
0.0
 12
-2171.286883
 22
-390.570232
 32
0.0
 70
     2
  3
STANDARD
100
AcDb2LineAngularDimension
 13
48.032783
 23
83.704062
 33
0.0
 14
47.19785
 24
83.704062
 34
0.0
 15
48.624245
 25
100.84275
 35
0.0
 16
34.854792
 26
108.135664
 36
0.0
1001
ACAD
1000
DSTYLE
1002
{
1070
    40
1040
1.0
1002
}
  0
ARC
  5
10C
100
AcDbEntity
  8
外形
  6
CONTINUOUS
100
AcDbCircle
 10
5.215087
 20
96.84275
 30
0.0
 40
9.75
100
AcDbArc
 50
22.619865
 51
90.0
  0
ARC
  5
10D
100
AcDbEntity
  8
外形
  6
CONTINUOUS
100
AcDbCircle
 10
11.498915
 20
102.198384
 30
0.0
 40
4.0
100
AcDbArc
 50
120.948033
 51
173.0
  0
LINE
  5
10E
100
AcDbEntity
  8
外形
  6
CENTER
 62
     1
100
AcDbLine
 10
5.215087
 20
112.549681
 30
0.0
 11
5.215087
 21
83.84275
 31
0.0
  0
ARC
  5
10F
100
AcDbEntity
  8
外形
  6
CONTINUOUS
100
AcDbCircle
 10
5.215087
 20
95.39275
 30
0.0
 40
11.2
100
AcDbArc
 50
90.0
 51
249.822437
  0
CIRCLE
  5
110
100
AcDbEntity
  8
外形
  6
CENTER
 62
     1
100
AcDbCircle
 10
5.215087
 20
96.34275
 30
0.0
 40
12.5
  0
DIMENSION
  5
111
100
AcDbEntity
  8
寸法
  6
CONTINUOUS
100
AcDbDimension
  2
*D17
 10
5.215087
 20
83.84275
 30
0.0
 11
-3.982997
 21
71.240354
 31
0.0
 12
-1075.280861
 22
-377.290078
 32
0.0
 70
     2
  3
STANDARD
100
AcDb2LineAngularDimension
 13
5.215087
 23
100.113667
 33
0.0
 14
5.215087
 24
83.84275
 34
0.0
 15
7.960014
 25
106.198384
 35
0.0
 16
4.502696
 26
66.35942
 36
0.0
1001
ACAD
1000
DSTYLE
1002
{
1070
    40
1040
1.0
1002
}
  0
DIMENSION
  5
124
100
AcDbEntity
  8
参考
  6
CONTINUOUS
100
AcDbDimension
  2
*D10
 10
48.713776
 20
92.687132
 30
0.0
 11
37.459784
 21
112.19366
 31
0.0
 12
-107.240611
 22
-390.431543
 32
0.0
 70
   132
  3
参考寸法
100
AcDbRadialDimension
 15
48.313992
 25
93.380077
 35
0.0
 40
0.0
1001
ACAD
1000
DSTYLE
1002
{
1070
   140
1040
1.5
1070
    41
1040
1.0
1002
}
  0
DIMENSION
  5
12E
100
AcDbEntity
  8
寸法
  6
CONTINUOUS
100
AcDbDimension
  2
*D11
 10
37.104433
 20
100.84275
 30
0.0
 11
34.604433
 21
106.84275
 31
0.0
 12
-2171.274749
 22
-390.431543
 32
0.0
  3
STANDARD
100
AcDbAlignedDimension
 13
48.046208
 23
96.84275
 33
0.0
 14
48.624245
 24
100.84275
 34
0.0
 50
90.0
100
AcDbRotatedDimension
1001
ACAD
1000
DSTYLE
1002
{
1070
    40
1040
1.0
1002
}
  0
LINE
  5
13D
100
AcDbEntity
  8
外形
  6
CONTINUOUS
100
AcDbLine
 10
6.394418
 20
93.447627
 30
0.0
 11
2.424418
 21
93.447627
 31
0.0
  0
LINE
  5
13E
100
AcDbEntity
  8
外形
  6
CONTINUOUS
100
AcDbLine
 10
1.334085
 20
84.810393
 30
0.0
 11
5.215087
 21
83.84275
 31
0.0
  0
LINE
  5
13F
100
AcDbEntity
  8
外形
  6
CENTER
 62
     1
100
AcDbLine
 10
20.002879
 20
96.84275
 30
0.0
 11
-10.142683
 21
96.84275
 31
0.0
  0
LINE
  5
140
100
AcDbEntity
  8
外形
  6
CONTINUOUS
100
AcDbLine
 10
7.302425
 20
100.84275
 30
0.0
 11
-4.569467
 21
100.84275
 31
0.0
  0
LINE
  5
141
100
AcDbEntity
  8
参考
  6
CENTER
 62
     1
100
AcDbLine
 10
20.002879
 20
95.39275
 30
0.0
 11
-10.142683
 21
95.39275
 31
0.0
  0
DIMENSION
  5
142
100
AcDbEntity
  8
参考
  6
CONTINUOUS
100
AcDbDimension
  2
*D18
 10
0.566194
 20
78.556427
 30
0.0
 11
-3.935129
 21
80.872262
 31
0.0
 12
-1075.280861
 22
-377.290078
 32
0.0
 70
     1
  3
参考寸法
100
AcDbAlignedDimension
 13
5.215087
 23
83.84275
 33
0.0
 14
1.274679
 24
84.326572
 34
0.0
1001
ACAD
1000
DSTYLE
1002
{
1070
   140
1040
1.5
1070
    41
1040
1.0
1002
}
  0
LINE
  5
150
100
AcDbEntity
  8
外形
  6
CONTINUOUS
100
AcDbLine
 10
2.394604
 20
93.447627
 30
0.0
 11
1.334085
 21
84.810393
 31
0.0
  0
DIMENSION
  5
151
100
AcDbEntity
  8
参考
  6
CONTINUOUS
100
AcDbDimension
  2
*D16
 10
-14.508533
 20
95.39275
 30
0.0
 11
-16.258533
 21
89.64275
 31
0.0
 12
-1075.280861
 22
-377.290078
 32
0.0
  3
参考寸法
100
AcDbAlignedDimension
 13
-10.142683
 23
96.84275
 33
0.0
 14
-10.142683
 24
95.39275
 34
0.0
 50
90.0
100
AcDbRotatedDimension
1001
ACAD
1000
DSTYLE
1002
{
1070
   140
1040
1.5
1070
    41
1040
1.0
1002
}
  0
LINE
  5
160
100
AcDbEntity
  8
外形
  6
CONTINUOUS
100
AcDbLine
 10
7.52873
 20
102.685861
 30
0.0
 11
5.215087
 21
83.84275
 31
0.0
  0
LINE
  5
161
100
AcDbEntity
  8
外形
  6
CONTINUOUS
100
AcDbLine
 10
14.215087
 20
100.59275
 30
0.0
 11
14.215087
 21
92.483851
 31
0.0
  0
ARC
  5
162
100
AcDbEntity
  8
外形
  6
CONTINUOUS
100
AcDbCircle
 10
5.215087
 20
96.84275
 30
0.0
 40
10.0
100
AcDbArc
 50
272.423645
 51
334.158067
  0
LINE
  5
163
100
AcDbEntity
  8
外形
  6
CONTINUOUS
100
AcDbLine
 10
48.624245
 20
100.84275
 30
0.0
 11
47.213028
 21
84.712475
 31
0.0
  0
DIMENSION
  5
164
100
AcDbEntity
  8
寸法
  6
CONTINUOUS
100
AcDbDimension
  2
*D7
 10
37.104433
 20
83.84275
 30
0.0
 11
34.604433
 21
90.34275
 31
0.0
 12
-107.240611
 22
-390.431543
 32
0.0
  3
STANDARD
100
AcDbAlignedDimension
 13
47.209984
 23
96.84275
 33
0.0
 14
47.209984
 24
83.84275
 34
0.0
 50
90.0
100
AcDbRotatedDimension
1001
ACAD
1000
DSTYLE
1002
{
1070
    40
1040
1.0
1002
}
  0
ARC
  5
171
100
AcDbEntity
  8
外形
  6
CONTINUOUS
100
AcDbCircle
 10
48.009984
 20
84.64275
 30
0.0
 40
0.8
100
AcDbArc
 50
175.0
 51
275.0
  0
LINE
  5
172
100
AcDbEntity
  8
外形
  6
CENTER
 62
     1
100
AcDbLine
 10
48.044917
 20
83.84275
 30
0.0
 11
47.209984
 21
83.84275
 31
0.0
  0
LINE
  5
173
100
AcDbEntity
  8
外形
  6
CONTINUOUS
 62
     1
100
AcDbLine
 10
47.209984
 20
84.64275
 30
0.0
 11
47.209984
 21
83.84275
 31
0.0
  0
ARC
  5
174
100
AcDbEntity
  8
外形
  6
CONTINUOUS
100
AcDbCircle
 10
48.713776
 20
92.687132
 30
0.0
 40
0.8
100
AcDbArc
 50
95.0
 51
175.0
  0
LEADER
  5
175
100
AcDbEntity
  8
寸法
  6
CONTINUOUS
 62
     1
100
AcDbLeader
  3
STANDARD
 73
     0
 74
     0
 75
     1
 40
3.0
 41
26.0
 76
     3
 10
10.966529
 20
107.44099
 30
0.0
 10
18.933854
 20
132.274828
 30
0.0
 10
20.933854
 20
132.274828
 30
0.0
 77
   256
340
176
213
-0.1129475379637483
223
0.5510341987360619
233
0.0
1001
ACAD
1000
DSTYLE
1002
{
1070
   284
1070
    13
1070
   146
1040
0.5
1070
   272
1070
     3
1070
    40
1040
1.0
1070
   287
1070
     0
1002
}
  0
MTEXT
  5
176
102
{ACAD_REACTORS
330
175
102
}
100
AcDbEntity
  8
寸法
  6
CONTINUOUS
 62
     3
100
AcDbMText
 10
22.046802
 20
134.223794
 30
0.0
 40
3.0
 41
0.0
 71
     4
 72
     1
  1
%%c25最小加工径
  0
LINE
  5
177
100
AcDbEntity
  8
外形
  6
CONTINUOUS
100
AcDbLine
 10
72.459984
 20
106.84275
 30
0.0
 11
72.459984
 21
101.201649
 31
0.0
  0
LINE
  5
178
100
AcDbEntity
  8
外形
  6
CONTINUOUS
100
AcDbLine
 10
72.209984
 20
106.59275
 30
0.0
 11
72.209984
 21
100.84275
 31
0.0
  0
LINE
  5
179
100
AcDbEntity
  8
外形
  6
CONTINUOUS
100
AcDbLine
 10
65.484046
 20
106.59275
 30
0.0
 11
65.484046
 21
102.314081
 31
0.0
  0
SPLINE
  5
17A
100
AcDbEntity
  8
外形
  6
CONTINUOUS
100
AcDbSpline
210
0.0
220
0.0
230
1.0
 70
     8
 71
     3
 72
    10
 73
     6
 74
     0
 42
0.0000001
 43
0.0000001
 40
0.0
 40
0.0
 40
0.0
 40
0.0
 40
9.094265528231321
 40
22.16250510536278
 40
30.67324341747497
 40
30.67324341747497
 40
30.67324341747497
 40
30.67324341747497
 10
56.91413385037276
 20
105.6289201990023
 30
0.0
 10
59.39332651085852
 20
104.8567765374425
 30
0.0
 10
65.99088940284445
 20
102.9750811120927
 30
0.0
 10
78.42712884351477
 20
93.35575881721387
 30
0.0
 10
70.6392395981561
 20
89.47147684925431
 30
0.0
 10
65.48404623970646
 20
87.78660230936935
 30
0.0
  0
LINE
  5
17B
100
AcDbEntity
  8
外形
  6
CONTINUOUS
100
AcDbLine
 10
77.209984
 20
106.84275
 30
0.0
 11
77.209984
 21
86.84275
 31
0.0
  0
LINE
  5
17C
100
AcDbEntity
  8
外形
  6
HIDDEN
100
AcDbLine
 10
77.209984
 20
106.84275
 30
0.0
 11
70.209984
 21
99.84275
 31
0.0
  0
LINE
  5
17D
100
AcDbEntity
  8
外形
  6
HIDDEN
100
AcDbLine
 10
77.209984
 20
86.84275
 30
0.0
 11
70.209984
 21
93.84275
 31
0.0
  0
ARC
  5
17E
100
AcDbEntity
  8
外形
  6
CONTINUOUS
100
AcDbCircle
 10
56.527457
 20
93.160264
 30
0.0
 40
1.75
100
AcDbArc
 50
320.0
 51
140.0
  0
LINE
  5
17F
100
AcDbEntity
  8
外形
  6
CENTER
 62
     1
100
AcDbLine
 10
52.384046
 20
82.739571
 30
0.0
 11
52.384046
 21
95.530451
 31
0.0
  0
LINE
  5
180
100
AcDbEntity
  8
外形
  6
CONTINUOUS
100
AcDbLine
 10
57.555064
 20
93.321195
 30
0.0
 11
56.792766
 21
84.608088
 31
0.0
  0
LINE
  5
181
100
AcDbEntity
  8
外形
  6
CONTINUOUS
100
AcDbLine
 10
65.484046
 20
87.786602
 30
0.0
 11
60.547701
 21
84.936602
 31
0.0
  0
LINE
  5
182
100
AcDbEntity
  8
外形
  6
CONTINUOUS
100
AcDbLine
 10
53.270821
 20
88.257094
 30
0.0
 11
53.267013
 21
87.487491
 31
0.0
  0
LINE
  5
183
100
AcDbEntity
  8
外形
  6
CONTINUOUS
100
AcDbLine
 10
51.501079
 20
87.487491
 30
0.0
 11
51.497271
 21
88.257094
 31
0.0
  0
ARC
  5
184
100
AcDbEntity
  8
外形
  6
CONTINUOUS
100
AcDbCircle
 10
52.384046
 20
87.49307
 30
0.0
 40
0.43285
100
AcDbArc
 50
60.283476
 51
119.716524
  0
LINE
  5
185
100
AcDbEntity
  8
外形
  6
CONTINUOUS
100
AcDbLine
 10
53.267013
 20
87.487491
 30
0.0
 11
52.598614
 21
87.868995
 31
0.0
  0
LINE
  5
186
100
AcDbEntity
  8
外形
  6
CONTINUOUS
100
AcDbLine
 10
52.169479
 20
87.868995
 30
0.0
 11
51.501079
 21
87.487491
 31
0.0
  0
LINE
  5
187
100
AcDbEntity
  8
外形
  6
CONTINUOUS
100
AcDbLine
 10
57.853724
 20
92.01833
 30
0.0
 11
57.868035
 21
92.035385
 31
0.0
  0
LINE
  5
188
100
AcDbEntity
  8
外形
  6
CONTINUOUS
100
AcDbLine
 10
57.393046
 20
91.469315
 30
0.0
 11
57.868035
 21
92.035385
 31
0.0
  0
ARC
  5
189
100
AcDbEntity
  8
外形
  6
CONTINUOUS
100
AcDbCircle
 10
52.384046
 20
90.5406
 30
0.0
 40
0.43285
100
AcDbArc
 50
240.283476
 51
299.716524
  0
ARC
  5
18A
100
AcDbEntity
  8
外形
  6
CONTINUOUS
100
AcDbCircle
 10
51.064427
 20
89.778717
 30
0.0
 40
0.43285
100
AcDbArc
 50
300.283476
 51
359.716524
  0
ARC
  5
18B
100
AcDbEntity
  8
外形
  6
CONTINUOUS
100
AcDbCircle
 10
51.064427
 20
88.254953
 30
0.0
 40
0.43285
100
AcDbArc
 50
0.283476
 51
59.716524
  0
ARC
  5
18C
100
AcDbEntity
  8
外形
  6
CONTINUOUS
100
AcDbCircle
 10
53.703665
 20
88.254953
 30
0.0
 40
0.43285
100
AcDbArc
 50
120.283476
 51
179.716524
  0
ARC
  5
18D
100
AcDbEntity
  8
外形
  6
CONTINUOUS
100
AcDbCircle
 10
53.703665
 20
89.778717
 30
0.0
 40
0.43285
100
AcDbArc
 50
180.283476
 51
239.716524
  0
LINE
  5
18E
100
AcDbEntity
  8
外形
  6
CONTINUOUS
100
AcDbLine
 10
50.618112
 20
89.016835
 30
0.0
 11
51.282704
 21
89.404934
 31
0.0
  0
LINE
  5
18F
100
AcDbEntity
  8
外形
  6
CONTINUOUS
100
AcDbLine
 10
51.282704
 20
88.628736
 30
0.0
 11
50.618112
 21
89.016835
 31
0.0
  0
LINE
  5
190
100
AcDbEntity
  8
外形
  6
CONTINUOUS
100
AcDbLine
 10
51.501079
 20
90.546179
 30
0.0
 11
52.169479
 21
90.164675
 31
0.0
  0
LINE
  5
191
100
AcDbEntity
  8
外形
  6
CONTINUOUS
100
AcDbLine
 10
51.497271
 20
89.776576
 30
0.0
 11
51.501079
 21
90.546179
 31
0.0
  0
LINE
  5
192
100
AcDbEntity
  8
外形
  6
CONTINUOUS
100
AcDbLine
 10
53.267013
 20
90.546179
 30
0.0
 11
53.270821
 21
89.776576
 31
0.0
  0
LINE
  5
193
100
AcDbEntity
  8
外形
  6
CONTINUOUS
100
AcDbLine
 10
52.598614
 20
90.164675
 30
0.0
 11
53.267013
 21
90.546179
 31
0.0
  0
LINE
  5
194
100
AcDbEntity
  8
外形
  6
CONTINUOUS
100
AcDbLine
 10
54.14998
 20
89.016835
 30
0.0
 11
53.485389
 21
88.628736
 31
0.0
  0
LINE
  5
195
100
AcDbEntity
  8
外形
  6
CONTINUOUS
100
AcDbLine
 10
53.485389
 20
89.404934
 30
0.0
 11
54.14998
 21
89.016835
 31
0.0
  0
ARC
  5
196
100
AcDbEntity
  8
外形
  6
CONTINUOUS
100
AcDbCircle
 10
56.054316
 20
85.346538
 30
0.0
 40
0.8
100
AcDbArc
 50
275.0
 51
355.0
  0
LINE
  5
197
100
AcDbEntity
  8
外形
  6
CONTINUOUS
100
AcDbLine
 10
72.209984
 20
87.09275
 30
0.0
 11
64.282259
 21
87.09275
 31
0.0
  0
LINE
  5
198
100
AcDbEntity
  8
外形
  6
CONTINUOUS
100
AcDbLine
 10
72.459984
 20
86.84275
 30
0.0
 11
72.459984
 21
90.743079
 31
0.0
  0
LINE
  5
199
100
AcDbEntity
  8
外形
  6
CONTINUOUS
100
AcDbLine
 10
72.209984
 20
87.09275
 30
0.0
 11
72.459984
 21
86.84275
 31
0.0
  0
LINE
  5
19A
100
AcDbEntity
  8
外形
  6
CONTINUOUS
100
AcDbLine
 10
72.209984
 20
90.559476
 30
0.0
 11
72.209984
 21
87.09275
 31
0.0
  0
ARC
  5
19B
100
AcDbEntity
  8
外形
  6
CONTINUOUS
100
AcDbCircle
 10
56.758108
 20
93.39092
 30
0.0
 40
0.8
100
AcDbArc
 50
355.0
 51
95.0
  0
LINE
  5
19C
100
AcDbEntity
  8
外形
  6
CONTINUOUS
100
AcDbLine
 10
54.979836
 20
94.038397
 30
0.0
 11
55.186879
 21
94.285142
 31
0.0
  0
LINE
  5
19D
100
AcDbEntity
  8
外形
  6
CONTINUOUS
100
AcDbLine
 10
72.209984
 20
100.84275
 30
0.0
 11
67.97509
 21
100.84275
 31
0.0
  0
LINE
  5
19E
100
AcDbEntity
  8
外形
  6
HIDDEN
100
AcDbLine
 10
70.209984
 20
99.84275
 30
0.0
 11
70.209984
 21
93.84275
 31
0.0
  0
DIMENSION
  5
19F
100
AcDbEntity
  8
参考
  6
CONTINUOUS
100
AcDbDimension
  2
*D15
 10
66.984815
 20
93.84275
 30
0.0
 11
65.234815
 21
96.84275
 31
0.0
 12
-107.240611
 22
-390.431543
 32
0.0
  3
参考寸法
100
AcDbAlignedDimension
 13
70.209984
 23
99.84275
 33
0.0
 14
70.209984
 24
93.84275
 34
0.0
 50
90.0
100
AcDbRotatedDimension
1001
ACAD
1000
DSTYLE
1002
{
1070
   140
1040
1.5
1070
    41
1040
1.0
1002
}
  0
LINE
  5
1AC
100
AcDbEntity
  8
外形
  6
CONTINUOUS
100
AcDbLine
 10
72.209984
 20
106.59275
 30
0.0
 11
58.583537
 21
106.59275
 31
0.0
  0
LINE
  5
1AD
100
AcDbEntity
  8
外形
  6
CONTINUOUS
100
AcDbLine
 10
72.209984
 20
106.59275
 30
0.0
 11
72.459984
 21
106.84275
 31
0.0
  0
LINE
  5
1AE
100
AcDbEntity
  8
参考
  6
CENTER
 62
     6
100
AcDbLine
 10
298.484046
 20
105.513174
 30
0.0
 11
298.484046
 21
26.576151
 31
0.0
  0
LINE
  5
1AF
100
AcDbEntity
  8
外形
  6
CONTINUOUS
100
AcDbLine
 10
296.209984
 20
36.857576
 30
0.0
 11
296.209984
 21
54.857576
 31
0.0
  0
LINE
  5
1B0
100
AcDbEntity
  8
外形
  6
CONTINUOUS
100
AcDbLine
 10
297.209984
 20
53.857576
 30
0.0
 11
297.209984
 21
37.857576
 31
0.0
  0
LINE
  5
1B1
100
AcDbEntity
  8
外形
  6
CONTINUOUS
100
AcDbLine
 10
296.209984
 20
36.857576
 30
0.0
 11
297.209984
 21
37.857576
 31
0.0
  0
LINE
  5
1B2
100
AcDbEntity
  8
外形
  6
CONTINUOUS
100
AcDbLine
 10
296.209984
 20
54.857576
 30
0.0
 11
297.209984
 21
53.857576
 31
0.0
  0
ARC
  5
1B3
100
AcDbEntity
  8
外形
  6
CONTINUOUS
100
AcDbCircle
 10
237.209984
 20
96.84275
 30
0.0
 40
10.0
100
AcDbArc
 50
205.841933
 51
334.158067
  0
DIMENSION
  5
1B4
100
AcDbEntity
  8
寸法
  6
CONTINUOUS
100
AcDbDimension
  2
*D4
 10
246.209984
 20
75.472756
 30
0.0
 11
237.209984
 21
77.972756
 31
0.0
 12
-107.240611
 22
-390.431543
 32
0.0
  3
STANDARD
100
AcDbAlignedDimension
 13
228.209984
 23
92.483851
 33
0.0
 14
246.209984
 24
92.483851
 34
0.0
100
AcDbRotatedDimension
1001
ACAD
1000
DSTYLE
1002
{
1070
   284
1070
    13
1070
   146
1040
0.5
1070
   272
1070
     3
1070
    40
1040
1.0
1070
   287
1070
     0
1002
}
  0
ARC
  5
1C1
100
AcDbEntity
  8
外形
  6
CONTINUOUS
100
AcDbCircle
 10
237.209984
 20
96.84275
 30
0.0
 40
10.0
100
AcDbArc
 50
25.841933
 51
154.158067
  0
DIMENSION
  5
1C2
100
AcDbEntity
  8
寸法
  6
CONTINUOUS
100
AcDbDimension
  2
*D5
 10
231.079182
 20
88.942543
 30
0.0
 11
250.534096
 21
114.012323
 31
0.0
 12
-107.240611
 22
-390.431543
 32
0.0
 70
   131
  3
STANDARD
100
AcDbDiametricDimension
 15
243.340786
 25
104.742957
 35
0.0
 40
0.0
1001
ACAD
1000
DSTYLE
1002
{
1070
   284
1070
    13
1070
   146
1040
0.5
1070
   272
1070
     3
1070
    40
1040
1.0
1070
   287
1070
     0
1002
}
  0
LINE
  5
1CE
100
AcDbEntity
  8
外形
  6
CENTER
 62
     1
100
AcDbLine
 10
237.209984
 20
109.067331
 30
0.0
 11
237.209984
 21
83.876639
 31
0.0
  0
LINE
  5
1CF
100
AcDbEntity
  8
外形
  6
CONTINUOUS
100
AcDbLine
 10
228.209984
 20
101.201649
 30
0.0
 11
228.209984
 21
92.483851
 31
0.0
  0
LINE
  5
1D0
100
AcDbEntity
  8
外形
  6
CONTINUOUS
100
AcDbLine
 10
296.209984
 20
101.201649
 30
0.0
 11
296.209984
 21
106.84275
 31
0.0
  0
LINE
  5
1D1
100
AcDbEntity
  8
外形
  6
CONTINUOUS
100
AcDbLine
 10
297.209984
 20
105.84275
 30
0.0
 11
297.209984
 21
87.84275
 31
0.0
  0
LINE
  5
1D2
100
AcDbEntity
  8
外形
  6
CONTINUOUS
100
AcDbLine
 10
297.209984
 20
87.84275
 30
0.0
 11
297.209984
 21
105.84275
 31
0.0
  0
LINE
  5
1D3
100
AcDbEntity
  8
外形
  6
CONTINUOUS
100
AcDbLine
 10
296.209984
 20
101.201649
 30
0.0
 11
248.209984
 21
101.201649
 31
0.0
  0
LINE
  5
1D4
100
AcDbEntity
  8
外形
  6
CONTINUOUS
100
AcDbLine
 10
296.209984
 20
92.483851
 30
0.0
 11
248.209984
 21
92.483851
 31
0.0
  0
LINE
  5
1D5
100
AcDbEntity
  8
外形
  6
CONTINUOUS
100
AcDbLine
 10
296.209984
 20
86.84275
 30
0.0
 11
248.209984
 21
86.84275
 31
0.0
  0
LINE
  5
1D6
100
AcDbEntity
  8
外形
  6
CONTINUOUS
100
AcDbLine
 10
246.209984
 20
101.201649
 30
0.0
 11
246.209984
 21
92.483851
 31
0.0
  0
LINE
  5
1D7
100
AcDbEntity
  8
外形
  6
CONTINUOUS
100
AcDbLine
 10
248.209984
 20
86.84275
 30
0.0
 11
257.265804
 21
86.84275
 31
0.0
  0
LINE
  5
1D8
100
AcDbEntity
  8
外形
  6
CONTINUOUS
100
AcDbLine
 10
248.209984
 20
101.201649
 30
0.0
 11
248.232375
 21
101.201649
 31
0.0
  0
ARC
  5
1D9
100
AcDbEntity
  8
外形
  6
CONTINUOUS
100
AcDbCircle
 10
269.110316
 20
96.84275
 30
0.0
 40
27.447988
100
AcDbArc
 50
350.862414
 51
9.137586
  0
LINE
  5
1DA
100
AcDbEntity
  8
外形
  6
CONTINUOUS
100
AcDbLine
 10
296.209984
 20
86.84275
 30
0.0
 11
297.209984
 21
87.84275
 31
0.0
  0
LINE
  5
1DB
100
AcDbEntity
  8
外形
  6
CONTINUOUS
100
AcDbLine
 10
296.209984
 20
92.483851
 30
0.0
 11
296.209984
 21
86.84275
 31
0.0
  0
LINE
  5
1DC
100
AcDbEntity
  8
外形
  6
CONTINUOUS
100
AcDbLine
 10
296.209984
 20
106.84275
 30
0.0
 11
248.209984
 21
106.84275
 31
0.0
  0
LINE
  5
1DD
100
AcDbEntity
  8
外形
  6
CONTINUOUS
100
AcDbLine
 10
248.209984
 20
106.84275
 30
0.0
 11
257.265804
 21
106.84275
 31
0.0
  0
LINE
  5
1DE
100
AcDbEntity
  8
外形
  6
CONTINUOUS
100
AcDbLine
 10
296.209984
 20
106.84275
 30
0.0
 11
297.209984
 21
105.84275
 31
0.0
  0
ENDBLK
  5
1E0
100
AcDbEntity
  8
0
100
AcDbBlockEnd
  0
BLOCK
  5
389
100
AcDbEntity
  8
0
100
AcDbBlockBegin
  2
*D24
 70
     1
 10
0.0
 20
0.0
 30
0.0
  3
*D24
  1

  0
LINE
  5
38A
100
AcDbEntity
  8
0
  6
BYBLOCK
 62
     1
100
AcDbLine
 10
13.82135
 20
344.987964
 30
0.0
 11
13.82135
 21
325.924046
 31
0.0
  0
LINE
  5
38B
100
AcDbEntity
  8
0
  6
BYBLOCK
 62
     1
100
AcDbLine
 10
263.82135
 20
346.987964
 30
0.0
 11
263.82135
 21
325.924046
 31
0.0
  0
LINE
  5
38C
100
AcDbEntity
  8
0
  6
BYBLOCK
 62
     1
100
AcDbLine
 10
15.82135
 20
327.924046
 30
0.0
 11
261.82135
 21
327.924046
 31
0.0
  0
INSERT
  5
38D
100
AcDbEntity
  8
0
  6
BYBLOCK
 62
     1
100
AcDbBlockReference
  2
_OPEN30
 10
13.82135
 20
327.924046
 30
0.0
 41
2.0
 42
2.0
 43
2.0
 50
180.0
  0
INSERT
  5
38E
100
AcDbEntity
  8
0
  6
BYBLOCK
 62
     1
100
AcDbBlockReference
  2
_OPEN30
 10
263.82135
 20
327.924046
 30
0.0
 41
2.0
 42
2.0
 43
2.0
  0
MTEXT
  5
38F
100
AcDbEntity
  8
0
  6
BYBLOCK
 62
     3
100
AcDbMText
 10
138.82135
 20
330.424046
 30
0.0
 40
3.0
 41
0.0
 71
     5
 72
     1
  1
\A1;250
  0
POINT
  5
390
100
AcDbEntity
  8
DEFPOINTS
  6
BYBLOCK
 62
     0
100
AcDbPoint
 10
13.82135
 20
345.987964
 30
0.0
  0
POINT
  5
391
100
AcDbEntity
  8
DEFPOINTS
  6
BYBLOCK
 62
     0
100
AcDbPoint
 10
263.82135
 20
347.987964
 30
0.0
  0
POINT
  5
392
100
AcDbEntity
  8
DEFPOINTS
  6
BYBLOCK
 62
     0
100
AcDbPoint
 10
263.82135
 20
327.924046
 30
0.0
  0
ENDBLK
  5
393
100
AcDbEntity
  8
0
100
AcDbBlockEnd
  0
BLOCK
  5
3AE
100
AcDbEntity
  8
0
100
AcDbBlockBegin
  2
*D27
 70
     1
 10
0.0
 20
0.0
 30
0.0
  3
*D27
  1

  0
LINE
  5
3AF
100
AcDbEntity
  8
0
  6
BYBLOCK
 62
     1
100
AcDbLine
 10
13.82135
 20
294.402789
 30
0.0
 11
13.82135
 21
281.403242
 31
0.0
  0
LINE
  5
3B0
100
AcDbEntity
  8
0
  6
BYBLOCK
 62
     1
100
AcDbLine
 10
48.82135
 20
297.002789
 30
0.0
 11
48.82135
 21
281.403242
 31
0.0
  0
LINE
  5
3B1
100
AcDbEntity
  8
0
  6
BYBLOCK
 62
     1
100
AcDbLine
 10
15.82135
 20
283.403242
 30
0.0
 11
46.82135
 21
283.403242
 31
0.0
  0
INSERT
  5
3B2
100
AcDbEntity
  8
0
  6
BYBLOCK
 62
     1
100
AcDbBlockReference
  2
_OPEN30
 10
13.82135
 20
283.403242
 30
0.0
 41
2.0
 42
2.0
 43
2.0
 50
180.0
  0
INSERT
  5
3B3
100
AcDbEntity
  8
0
  6
BYBLOCK
 62
     1
100
AcDbBlockReference
  2
_OPEN30
 10
48.82135
 20
283.403242
 30
0.0
 41
2.0
 42
2.0
 43
2.0
  0
MTEXT
  5
3B4
100
AcDbEntity
  8
0
  6
BYBLOCK
 62
     3
100
AcDbMText
 10
31.32135
 20
285.903242
 30
0.0
 40
3.0
 41
0.0
 71
     5
 72
     1
  1
\A1;35
  0
POINT
  5
3B5
100
AcDbEntity
  8
DEFPOINTS
  6
BYBLOCK
 62
     0
100
AcDbPoint
 10
13.82135
 20
295.402789
 30
0.0
  0
POINT
  5
3B6
100
AcDbEntity
  8
DEFPOINTS
  6
BYBLOCK
 62
     0
100
AcDbPoint
 10
48.82135
 20
298.002789
 30
0.0
  0
POINT
  5
3B7
100
AcDbEntity
  8
DEFPOINTS
  6
BYBLOCK
 62
     0
100
AcDbPoint
 10
48.82135
 20
283.403242
 30
0.0
  0
ENDBLK
  5
3B8
100
AcDbEntity
  8
0
100
AcDbBlockEnd
  0
BLOCK
  5
40B
100
AcDbEntity
  8
0
100
AcDbBlockBegin
  2
*D35
 70
     1
 10
0.0
 20
0.0
 30
0.0
  3
*D35
  1

  0
LINE
  5
40C
100
AcDbEntity
  8
0
  6
BYBLOCK
 62
     1
100
AcDbLine
 10
15.322766
 20
363.984159
 30
0.0
 11
16.293288
 21
375.077278
 31
0.0
  0
LINE
  5
40D
100
AcDbEntity
  8
0
  6
BYBLOCK
 62
     1
100
AcDbLine
 10
12.736169
 20
345.849275
 30
0.0
 11
-15.60348
 21
345.849275
 31
0.0
  0
ARC
  5
40E
100
AcDbEntity
  8
0
  6
BYBLOCK
 62
     1
100
AcDbCircle
 10
13.736169
 20
345.849275
 30
0.0
 40
27.339649
100
AcDbArc
 50
89.192341
 51
175.807659
  0
INSERT
  5
40F
100
AcDbEntity
  8
0
  6
BYBLOCK
 62
     1
100
AcDbBlockReference
  2
_OPEN30
 10
16.118977
 20
373.084889
 30
0.0
 41
2.0
 42
2.0
 43
2.0
 50
357.09617
  0
INSERT
  5
410
100
AcDbEntity
  8
0
  6
BYBLOCK
 62
     1
100
AcDbBlockReference
  2
_OPEN30
 10
-13.60348
 20
345.849275
 30
0.0
 41
2.0
 42
2.0
 43
2.0
 50
267.90383
  0
MTEXT
  5
411
100
AcDbEntity
  8
0
  6
BYBLOCK
 62
     3
100
AcDbMText
 10
-6.423206
 20
367.849372
 30
0.0
 40
3.0
 41
0.0
 71
     5
 72
     1
  1
\A1;95°
 11
0.737277
 21
0.67559
 31
0.0
  0
POINT
  5
412
100
AcDbEntity
  8
DEFPOINTS
  6
BYBLOCK
 62
     0
100
AcDbPoint
 10
1.466157
 20
370.280878
 30
0.0
  0
POINT
  5
413
100
AcDbEntity
  8
DEFPOINTS
  6
BYBLOCK
 62
     0
100
AcDbPoint
 10
15.23561
 20
362.987964
 30
0.0
  0
POINT
  5
414
100
AcDbEntity
  8
DEFPOINTS
  6
BYBLOCK
 62
     0
100
AcDbPoint
 10
14.644149
 20
345.849275
 30
0.0
  0
POINT
  5
415
100
AcDbEntity
  8
DEFPOINTS
  6
BYBLOCK
 62
     0
100
AcDbPoint
 10
13.809216
 20
345.849275
 30
0.0
  0
POINT
  5
416
100
AcDbEntity
  8
DEFPOINTS
  6
BYBLOCK
 62
     0
100
AcDbPoint
 10
13.81226
 20
346.719
 30
0.0
  0
ENDBLK
  5
417
100
AcDbEntity
  8
0
100
AcDbBlockEnd
  0
BLOCK
  5
418
100
AcDbEntity
  8
0
100
AcDbBlockBegin
  2
*D36
 70
     1
 10
0.0
 20
0.0
 30
0.0
  3
*D36
  1

  0
LINE
  5
419
100
AcDbEntity
  8
0
  6
BYBLOCK
 62
     1
100
AcDbLine
 10
-28.295417
 20
344.995418
 30
0.0
 11
-30.549736
 21
326.63546
 31
0.0
  0
LINE
  5
41A
100
AcDbEntity
  8
0
  6
BYBLOCK
 62
     1
100
AcDbLine
 10
-28.173547
 20
344.987964
 30
0.0
 11
-28.173547
 21
326.490126
 31
0.0
  0
ARC
  5
41B
100
AcDbEntity
  8
0
  6
BYBLOCK
 62
     1
100
AcDbCircle
 10
-28.173547
 20
345.987964
 30
0.0
 40
17.497838
100
AcDbArc
 50
249.873516
 51
263.0
  0
LINE
  5
41C
100
AcDbEntity
  8
0
  6
BYBLOCK
 62
     1
100
AcDbLine
 10
-34.194444
 20
329.558626
 30
0.0
 11
-42.269288
 21
332.517832
 31
0.0
  0
ARC
  5
41D
100
AcDbEntity
  8
0
  6
BYBLOCK
 62
     1
100
AcDbCircle
 10
-28.173547
 20
345.987964
 30
0.0
 40
17.497838
100
AcDbArc
 50
249.895064
 51
256.447532
  0
ARC
  5
41E
100
AcDbEntity
  8
0
  6
BYBLOCK
 62
     1
100
AcDbCircle
 10
-28.173547
 20
345.987964
 30
0.0
 40
17.497838
100
AcDbArc
 50
276.552468
 51
283.104936
  0
ARC
  5
41F
100
AcDbEntity
  8
0
  6
BYBLOCK
 62
     1
100
AcDbCircle
 10
-28.173547
 20
345.987964
 30
0.0
 40
17.497838
100
AcDbArc
 50
263.0
 51
270.0
  0
INSERT
  5
420
100
AcDbEntity
  8
0
  6
BYBLOCK
 62
     1
100
AcDbBlockReference
  2
_OPEN30
 10
-30.305997
 20
328.620552
 30
0.0
 41
2.0
 42
2.0
 43
2.0
 50
349.723766
  0
INSERT
  5
421
100
AcDbEntity
  8
0
  6
BYBLOCK
 62
     1
100
AcDbBlockReference
  2
_OPEN30
 10
-28.173547
 20
328.490126
 30
0.0
 41
2.0
 42
2.0
 43
2.0
 50
183.276234
  0
MTEXT
  5
422
100
AcDbEntity
  8
0
  6
BYBLOCK
 62
     3
100
AcDbMText
 10
-37.371631
 20
333.385567
 30
0.0
 40
3.0
 41
0.0
 71
     5
 72
     1
  1
\A1;7°
 11
0.938935
 21
-0.344094
 31
0.0
  0
POINT
  5
423
100
AcDbEntity
  8
DEFPOINTS
  6
BYBLOCK
 62
     0
100
AcDbPoint
 10
-28.885938
 20
328.504633
 30
0.0
  0
POINT
  5
424
100
AcDbEntity
  8
DEFPOINTS
  6
BYBLOCK
 62
     0
100
AcDbPoint
 10
-25.428621
 20
368.343597
 30
0.0
  0
POINT
  5
425
100
AcDbEntity
  8
DEFPOINTS
  6
BYBLOCK
 62
     0
100
AcDbPoint
 10
-28.173547
 20
362.258881
 30
0.0
  0
POINT
  5
426
100
AcDbEntity
  8
DEFPOINTS
  6
BYBLOCK
 62
     0
100
AcDbPoint
 10
-28.173547
 20
345.987964
 30
0.0
  0
POINT
  5
427
100
AcDbEntity
  8
DEFPOINTS
  6
BYBLOCK
 62
     0
100
AcDbPoint
 10
-28.173547
 20
345.987964
 30
0.0
  0
ENDBLK
  5
428
100
AcDbEntity
  8
0
100
AcDbBlockEnd
  0
BLOCK
  5
457
100
AcDbEntity
  8
0
100
AcDbBlockBegin
  2
*D41
 70
     1
 10
0.0
 20
0.0
 30
0.0
  3
*D41
  1

  0
LINE
  5
458
100
AcDbEntity
  8
0
  6
BYBLOCK
 62
     1
100
AcDbLine
 10
12.82135
 20
358.987964
 30
0.0
 11
1.715798
 21
358.987964
 31
0.0
  0
LINE
  5
459
100
AcDbEntity
  8
0
  6
BYBLOCK
 62
     1
100
AcDbLine
 10
12.82135
 20
345.987964
 30
0.0
 11
1.715798
 21
345.987964
 31
0.0
  0
LINE
  5
45A
100
AcDbEntity
  8
0
  6
BYBLOCK
 62
     1
100
AcDbLine
 10
3.715798
 20
356.987964
 30
0.0
 11
3.715798
 21
347.987964
 31
0.0
  0
INSERT
  5
45B
100
AcDbEntity
  8
0
  6
BYBLOCK
 62
     1
100
AcDbBlockReference
  2
_OPEN30
 10
3.715798
 20
358.987964
 30
0.0
 41
2.0
 42
2.0
 43
2.0
 50
90.0
  0
INSERT
  5
45C
100
AcDbEntity
  8
0
  6
BYBLOCK
 62
     1
100
AcDbBlockReference
  2
_OPEN30
 10
3.715798
 20
345.987964
 30
0.0
 41
2.0
 42
2.0
 43
2.0
 50
270.0
  0
MTEXT
  5
45D
100
AcDbEntity
  8
0
  6
BYBLOCK
 62
     3
100
AcDbMText
 10
1.215798
 20
352.487964
 30
0.0
 40
3.0
 41
0.0
 71
     5
 72
     1
  1
\A1;13
 11
0.0
 21
1.0
 31
0.0
  0
POINT
  5
45E
100
AcDbEntity
  8
DEFPOINTS
  6
BYBLOCK
 62
     0
100
AcDbPoint
 10
13.82135
 20
358.987964
 30
0.0
  0
POINT
  5
45F
100
AcDbEntity
  8
DEFPOINTS
  6
BYBLOCK
 62
     0
100
AcDbPoint
 10
13.82135
 20
345.987964
 30
0.0
  0
POINT
  5
460
100
AcDbEntity
  8
DEFPOINTS
  6
BYBLOCK
 62
     0
100
AcDbPoint
 10
3.715798
 20
345.987964
 30
0.0
  0
ENDBLK
  5
461
100
AcDbEntity
  8
0
100
AcDbBlockEnd
  0
BLOCK
  5
46D
100
AcDbEntity
  8
0
100
AcDbBlockBegin
  2
*D43
 70
     1
 10
0.0
 20
0.0
 30
0.0
  3
*D43
  1

  0
LINE
  5
46E
100
AcDbEntity
  8
0
  6
BYBLOCK
 62
     1
100
AcDbLine
 10
194.82135
 20
353.629065
 30
0.0
 11
194.82135
 21
335.617969
 31
0.0
  0
LINE
  5
46F
100
AcDbEntity
  8
0
  6
BYBLOCK
 62
     1
100
AcDbLine
 10
212.82135
 20
353.629065
 30
0.0
 11
212.82135
 21
335.617969
 31
0.0
  0
LINE
  5
470
100
AcDbEntity
  8
0
  6
BYBLOCK
 62
     1
100
AcDbLine
 10
196.82135
 20
337.617969
 30
0.0
 11
210.82135
 21
337.617969
 31
0.0
  0
INSERT
  5
471
100
AcDbEntity
  8
0
  6
BYBLOCK
 62
     1
100
AcDbBlockReference
  2
_OPEN30
 10
194.82135
 20
337.617969
 30
0.0
 41
2.0
 42
2.0
 43
2.0
 50
180.0
  0
INSERT
  5
472
100
AcDbEntity
  8
0
  6
BYBLOCK
 62
     1
100
AcDbBlockReference
  2
_OPEN30
 10
212.82135
 20
337.617969
 30
0.0
 41
2.0
 42
2.0
 43
2.0
  0
MTEXT
  5
473
100
AcDbEntity
  8
0
  6
BYBLOCK
 62
     3
100
AcDbMText
 10
203.82135
 20
340.117969
 30
0.0
 40
3.0
 41
0.0
 71
     5
 72
     1
  1
\A1;18
  0
POINT
  5
474
100
AcDbEntity
  8
DEFPOINTS
  6
BYBLOCK
 62
     0
100
AcDbPoint
 10
194.82135
 20
354.629065
 30
0.0
  0
POINT
  5
475
100
AcDbEntity
  8
DEFPOINTS
  6
BYBLOCK
 62
     0
100
AcDbPoint
 10
212.82135
 20
354.629065
 30
0.0
  0
POINT
  5
476
100
AcDbEntity
  8
DEFPOINTS
  6
BYBLOCK
 62
     0
100
AcDbPoint
 10
212.82135
 20
337.617969
 30
0.0
  0
ENDBLK
  5
477
100
AcDbEntity
  8
0
100
AcDbBlockEnd
  0
BLOCK
  5
478
100
AcDbEntity
  8
0
100
AcDbBlockBegin
  2
*D44
 70
     1
 10
0.0
 20
0.0
 30
0.0
  3
*D44
  1

  0
LINE
  5
479
100
AcDbEntity
  8
0
  6
BYBLOCK
 62
     1
100
AcDbLine
 10
196.464388
 20
349.507716
 30
0.0
 11
195.238227
 21
347.927674
 31
0.0
  0
LINE
  5
47A
100
AcDbEntity
  8
0
  6
BYBLOCK
 62
     1
100
AcDbLine
 10
211.178312
 20
368.468212
 30
0.0
 11
220.210863
 21
380.10764
 31
0.0
  0
LINE
  5
47B
100
AcDbEntity
  8
0
  6
BYBLOCK
 62
     1
100
AcDbLine
 10
197.690548
 20
351.087757
 30
0.0
 11
209.952151
 21
366.888171
 31
0.0
  0
INSERT
  5
47C
100
AcDbEntity
  8
0
  6
BYBLOCK
 62
     1
100
AcDbBlockReference
  2
_OPEN30
 10
197.690548
 20
351.087757
 30
0.0
 41
2.0
 42
2.0
 43
2.0
 50
52.187446
  0
INSERT
  5
47D
100
AcDbEntity
  8
0
  6
BYBLOCK
 62
     1
100
AcDbBlockReference
  2
_OPEN30
 10
209.952151
 20
366.888171
 30
0.0
 41
2.0
 42
2.0
 43
2.0
 50
232.187446
  0
MTEXT
  5
47E
100
AcDbEntity
  8
0
  6
BYBLOCK
 62
     3
100
AcDbMText
 10
215.17041
 20
377.690237
 30
0.0
 40
3.0
 41
0.0
 71
     5
 72
     1
  1
\A1;\U+220520
 11
0.61308
 21
0.790021
 31
0.0
  0
POINT
  5
47F
100
AcDbEntity
  8
DEFPOINTS
  6
BYBLOCK
 62
     0
100
AcDbPoint
 10
209.952151
 20
366.888171
 30
0.0
  0
POINT
  5
480
100
AcDbEntity
  8
DEFPOINTS
  6
BYBLOCK
 62
     0
100
AcDbPoint
 10
197.690548
 20
351.087757
 30
0.0
  0
ENDBLK
  5
481
100
AcDbEntity
  8
0
100
AcDbBlockEnd
  0
ENDSEC
  0
SECTION
  2
ENTITIES
  0
LINE
  5
1E5
100
AcDbEntity
  8
外形
  6
CONTINUOUS
100
AcDbLine
 10
192.82135
 20
363.346863
 30
0.0
 11
38.82135
 21
363.346863
 31
0.0
  0
LINE
  5
1E6
100
AcDbEntity
  8
外形
  6
CONTINUOUS
100
AcDbLine
 10
192.82135
 20
368.987964
 30
0.0
 11
39.07135
 21
368.987964
 31
0.0
  0
LINE
  5
1E7
100
AcDbEntity
  8
外形
  6
CONTINUOUS
100
AcDbLine
 10
192.82135
 20
354.629065
 30
0.0
 11
40.637688
 21
354.629065
 31
0.0
  0
LINE
  5
1E8
100
AcDbEntity
  8
外形
  6
CONTINUOUS
100
AcDbLine
 10
192.82135
 20
348.987964
 30
0.0
 11
39.07135
 21
348.987964
 31
0.0
  0
TEXT
  5
1E9
100
AcDbEntity
  8
外形
  6
CONTINUOUS
 62
     2
100
AcDbText
 10
99.23842
 20
264.728608
 30
0.0
 40
6.0
  1
C20S-SCLCR09
100
AcDbText
  0
LINE
  5
1EA
100
AcDbEntity
  8
外形
  6
CENTER
 62
     1
100
AcDbLine
 10
8.099511
 20
308.002789
 30
0.0
 11
268.062735
 21
308.002789
 31
0.0
  0
LINE
  5
1EB
100
AcDbEntity
  8
外形
  6
CENTER
 62
     1
100
AcDbLine
 10
268.062735
 20
358.987964
 30
0.0
 11
13.82135
 21
358.987964
 31
0.0
  0
DIMENSION
  5
1EC
100
AcDbEntity
  8
寸法
  6
CONTINUOUS
100
AcDbDimension
  2
*D24
 10
263.82135
 20
327.924046
 30
0.0
 11
138.82135
 21
330.424046
 31
0.0
 70
    32
  3
STANDARD
100
AcDbAlignedDimension
 13
13.82135
 23
345.987964
 33
0.0
 14
263.82135
 24
347.987964
 34
0.0
100
AcDbRotatedDimension
1001
ACAD
1000
DSTYLE
1002
{
1070
    40
1040
1.0
1002
}
  0
LINE
  5
1ED
100
AcDbEntity
  8
外形
  6
CONTINUOUS
100
AcDbLine
 10
262.82135
 20
317.002789
 30
0.0
 11
40.82135
 21
317.002789
 31
0.0
  0
LINE
  5
1EE
100
AcDbEntity
  8
外形
  6
CONTINUOUS
100
AcDbLine
 10
262.82135
 20
299.002789
 30
0.0
 11
48.82135
 21
299.002789
 31
0.0
  0
ARC
  5
1F4
100
AcDbEntity
  8
外形
  6
CONTINUOUS
100
AcDbCircle
 10
35.344964
 20
324.68434
 30
0.0
 40
30.404245
100
AcDbArc
 50
226.690741
 51
254.381229
  0
LINE
  5
1F6
100
AcDbEntity
  8
外形
  6
CONTINUOUS
100
AcDbLine
 10
15.493747
 20
294.382206
 30
0.0
 11
27.159067
 21
295.402789
 31
0.0
  0
LINE
  5
1F7
100
AcDbEntity
  8
外形
  6
CONTINUOUS
100
AcDbLine
 10
13.82135
 20
308.002789
 30
0.0
 11
23.404132
 21
308.002789
 31
0.0
  0
LINE
  5
1F8
100
AcDbEntity
  8
外形
  6
CONTINUOUS
100
AcDbLine
 10
14.308804
 20
304.032789
 30
0.0
 11
22.916677
 21
304.032789
 31
0.0
  0
SPLINE
  5
1F9
100
AcDbEntity
  8
外形
  6
CONTINUOUS
100
AcDbSpline
210
0.0
220
0.0
230
-1.0
 70
     8
 71
     3
 72
    10
 73
     6
 74
     4
 42
0.0000001
 43
0.0000001
 44
0.0000000001
 40
0.0
 40
0.0
 40
0.0
 40
0.0
 40
5.039786751347365
 40
10.72395326214045
 40
28.1485650307029
 40
28.1485650307029
 40
28.1485650307029
 40
28.1485650307029
 10
14.05614972566871
 20
308.502814532276
 30
0.0
 10
15.70649706732054
 20
308.8635209712459
 30
0.0
 10
19.21820274681986
 20
309.6310532466606
 30
0.0
 10
27.4243079182692
 20
314.3815207860469
 30
0.0
 10
35.0621902828874
 20
315.8759507944789
 30
0.0
 10
40.82134956550151
 20
317.0027893662731
 30
0.0
 11
14.05614972566871
 21
308.502814532276
 31
0.0
 11
18.92207963371646
 21
309.8151318068033
 31
0.0
 11
24.05614972566871
 21
312.254613967702
 31
0.0
 11
40.82134956550151
 21
317.0027893662731
 31
0.0
  0
DIMENSION
  5
1FA
100
AcDbEntity
  8
寸法
  6
CONTINUOUS
100
AcDbDimension
  2
*D27
 10
48.82135
 20
283.403242
 30
0.0
 11
31.32135
 21
285.903242
 31
0.0
 70
    32
  3
STANDARD
100
AcDbAlignedDimension
 13
13.82135
 23
295.402789
 33
0.0
 14
48.82135
 24
298.002789
 34
0.0
100
AcDbRotatedDimension
1001
ACAD
1000
DSTYLE
1002
{
1070
    40
1040
1.0
1002
}
  0
LINE
  5
1FC
100
AcDbEntity
  8
外形
  6
CONTINUOUS
100
AcDbLine
 10
13.82135
 20
308.002789
 30
0.0
 11
15.493747
 21
294.382206
 31
0.0
  0
LINE
  5
1FD
100
AcDbEntity
  8
外形
  6
CONTINUOUS
100
AcDbLine
 10
14.05615
 20
308.502815
 30
0.0
 11
14.05615
 21
308.002789
 31
0.0
  0
LINE
  5
1FE
100
AcDbEntity
  8
外形
  6
HIDDEN
100
AcDbLine
 10
42.82135
 20
317.002789
 30
0.0
 11
36.82135
 21
311.002789
 31
0.0
  0
LINE
  5
1FF
100
AcDbEntity
  8
外形
  6
CONTINUOUS
100
AcDbLine
 10
48.82135
 20
298.002789
 30
0.0
 11
39.07135
 21
298.002789
 31
0.0
  0
LINE
  5
200
100
AcDbEntity
  8
外形
  6
HIDDEN
100
AcDbLine
 10
43.82135
 20
298.002789
 30
0.0
 11
36.82135
 21
305.002789
 31
0.0
  0
SPLINE
  5
201
100
AcDbEntity
  8
外形
  6
CONTINUOUS
100
AcDbSpline
210
0.0
220
0.0
230
-1.0
 70
     8
 71
     3
 72
     9
 73
     5
 74
     3
 42
0.0000001
 43
0.0000001
 44
0.0000000001
 40
0.0
 40
0.0
 40
0.0
 40
0.0
 40
10.76232283732139
 40
16.36032595426797
 40
16.36032595426797
 40
16.36032595426797
 40
16.36032595426797
 10
40.82134956550106
 20
317.002789366273
 30
0.0
 10
37.81733385243114
 20
315.0417088492453
 30
0.0
 10
33.25078469938617
 20
312.060575782889
 30
0.0
 10
28.71207468551556
 20
309.0372715864116
 30
0.0
 10
27.15906694743097
 20
308.0027893662733
 30
0.0
 11
40.82134956550106
 21
317.002789366273
 31
0.0
 11
31.82134956550243
 21
311.1012986347075
 31
0.0
 11
27.15906694743097
 21
308.0027893662733
 31
0.0
  0
LINE
  5
202
100
AcDbEntity
  8
外形
  6
CONTINUOUS
100
AcDbLine
 10
38.82135
 20
315.673779
 30
0.0
 11
38.82135
 21
298.252789
 31
0.0
  0
LINE
  5
203
100
AcDbEntity
  8
外形
  6
CONTINUOUS
100
AcDbLine
 10
32.095412
 20
311.282531
 30
0.0
 11
32.095412
 21
298.252789
 31
0.0
  0
LINE
  5
204
100
AcDbEntity
  8
外形
  6
HIDDEN
100
AcDbLine
 10
36.82135
 20
311.002789
 30
0.0
 11
36.82135
 21
305.002789
 31
0.0
  0
LINE
  5
205
100
AcDbEntity
  8
外形
  6
CONTINUOUS
100
AcDbLine
 10
39.07135
 20
315.839716
 30
0.0
 11
39.07135
 21
298.002789
 31
0.0
  0
LINE
  5
206
100
AcDbEntity
  8
外形
  6
CONTINUOUS
100
AcDbLine
 10
27.159067
 20
295.402789
 30
0.0
 11
27.159067
 21
308.002789
 31
0.0
  0
LINE
  5
207
100
AcDbEntity
  8
外形
  6
CONTINUOUS
100
AcDbLine
 10
23.404132
 20
308.002789
 30
0.0
 11
22.916677
 21
304.032789
 31
0.0
  0
LINE
  5
208
100
AcDbEntity
  8
外形
  6
CONTINUOUS
100
AcDbLine
 10
32.095412
 20
298.252789
 30
0.0
 11
27.159067
 21
295.402789
 31
0.0
  0
LINE
  5
209
100
AcDbEntity
  8
外形
  6
CONTINUOUS
100
AcDbLine
 10
38.82135
 20
298.252789
 30
0.0
 11
39.07135
 21
298.002789
 31
0.0
  0
LINE
  5
20A
100
AcDbEntity
  8
外形
  6
CONTINUOUS
100
AcDbLine
 10
38.82135
 20
298.252789
 30
0.0
 11
32.095412
 21
298.252789
 31
0.0
  0
LINE
  5
20B
100
AcDbEntity
  8
外形
  6
CONTINUOUS
100
AcDbLine
 10
27.159067
 20
308.002789
 30
0.0
 11
23.404132
 21
308.002789
 31
0.0
  0
LINE
  5
20C
100
AcDbEntity
  8
外形
  6
CONTINUOUS
100
AcDbLine
 10
43.82135
 20
317.002789
 30
0.0
 11
43.82135
 21
298.002789
 31
0.0
  0
LINE
  5
20D
100
AcDbEntity
  8
外形
  6
CONTINUOUS
100
AcDbLine
 10
48.82135
 20
299.002789
 30
0.0
 11
48.82135
 21
298.002789
 31
0.0
  0
LINE
  5
210
100
AcDbEntity
  8
外形
  6
CONTINUOUS
100
AcDbLine
 10
23.299749
 20
356.333089
 30
0.0
 11
14.586692
 21
355.570796
 31
0.0
  0
CIRCLE
  5
211
100
AcDbEntity
  8
外形
  6
CONTINUOUS
100
AcDbCircle
 10
18.995412
 20
351.162049
 30
0.0
 40
2.800003
  0
LINE
  5
212
100
AcDbEntity
  8
外形
  6
CONTINUOUS
100
AcDbLine
 10
27.159067
 20
347.081816
 30
0.0
 11
14.691074
 21
345.991008
 31
0.0
  0
LINE
  5
213
100
AcDbEntity
  8
外形
  6
CENTER
 62
     1
100
AcDbLine
 10
13.48237
 20
351.162049
 30
0.0
 11
25.378945
 21
351.162049
 31
0.0
  0
CIRCLE
  5
214
100
AcDbEntity
  8
外形
  6
CONTINUOUS
100
AcDbCircle
 10
18.995412
 20
351.162049
 30
0.0
 40
4.7625
  0
LINE
  5
218
100
AcDbEntity
  8
外形
  6
CONTINUOUS
100
AcDbLine
 10
25.194902
 20
368.737964
 30
0.0
 11
15.23561
 21
362.987964
 31
0.0
  0
DIMENSION
  5
21A
100
AcDbEntity
  8
寸法
  6
CONTINUOUS
100
AcDbDimension
  2
*D35
 10
13.81226
 20
346.719
 30
0.0
 11
-6.423206
 21
367.849372
 31
0.0
 70
    34
  3
STANDARD
100
AcDb2LineAngularDimension
 13
14.644149
 23
345.849275
 33
0.0
 14
13.809216
 24
345.849275
 34
0.0
 15
15.23561
 25
362.987964
 35
0.0
 16
1.466157
 26
370.280878
 36
0.0
1001
ACAD
1000
DSTYLE
1002
{
1070
    40
1040
1.0
1002
}
  0
ARC
  5
21B
100
AcDbEntity
  8
外形
  6
CONTINUOUS
100
AcDbCircle
 10
-28.173547
 20
358.987964
 30
0.0
 40
9.75
100
AcDbArc
 50
22.619865
 51
90.0
  0
ARC
  5
21C
100
AcDbEntity
  8
外形
  6
CONTINUOUS
100
AcDbCircle
 10
-21.88972
 20
364.343597
 30
0.0
 40
4.0
100
AcDbArc
 50
120.948033
 51
173.0
  0
LINE
  5
21D
100
AcDbEntity
  8
外形
  6
CENTER
 62
     1
100
AcDbLine
 10
-28.173547
 20
374.694894
 30
0.0
 11
-28.173547
 21
345.987964
 31
0.0
  0
ARC
  5
21E
100
AcDbEntity
  8
外形
  6
CONTINUOUS
100
AcDbCircle
 10
-28.173547
 20
357.537964
 30
0.0
 40
11.2
100
AcDbArc
 50
90.0
 51
249.822437
  0
CIRCLE
  5
21F
100
AcDbEntity
  8
外形
  6
CENTER
 62
     1
100
AcDbCircle
 10
-28.173547
 20
358.487964
 30
0.0
 40
12.5
  0
DIMENSION
  5
220
100
AcDbEntity
  8
寸法
  6
CONTINUOUS
100
AcDbDimension
  2
*D36
 10
-28.173547
 20
345.987964
 30
0.0
 11
-37.371631
 21
333.385567
 31
0.0
 70
    34
  3
STANDARD
100
AcDb2LineAngularDimension
 13
-28.173547
 23
362.258881
 33
0.0
 14
-28.173547
 24
345.987964
 34
0.0
 15
-25.428621
 25
368.343597
 35
0.0
 16
-28.885938
 26
328.504633
 36
0.0
1001
ACAD
1000
DSTYLE
1002
{
1070
    40
1040
1.0
1002
}
  0
LINE
  5
223
100
AcDbEntity
  8
外形
  6
CONTINUOUS
100
AcDbLine
 10
-26.994217
 20
355.592841
 30
0.0
 11
-30.964217
 21
355.592841
 31
0.0
  0
LINE
  5
224
100
AcDbEntity
  8
外形
  6
CONTINUOUS
100
AcDbLine
 10
-32.05455
 20
346.955607
 30
0.0
 11
-28.173547
 21
345.987964
 31
0.0
  0
LINE
  5
225
100
AcDbEntity
  8
外形
  6
CENTER
 62
     1
100
AcDbLine
 10
-13.385756
 20
358.987964
 30
0.0
 11
-43.531317
 21
358.987964
 31
0.0
  0
LINE
  5
226
100
AcDbEntity
  8
外形
  6
CONTINUOUS
100
AcDbLine
 10
-26.08621
 20
362.987964
 30
0.0
 11
-37.958101
 21
362.987964
 31
0.0
  0
LINE
  5
229
100
AcDbEntity
  8
外形
  6
CONTINUOUS
100
AcDbLine
 10
-30.994031
 20
355.592841
 30
0.0
 11
-32.05455
 21
346.955607
 31
0.0
  0
LINE
  5
22B
100
AcDbEntity
  8
外形
  6
CONTINUOUS
100
AcDbLine
 10
-25.859904
 20
364.831075
 30
0.0
 11
-28.173547
 21
345.987964
 31
0.0
  0
LINE
  5
22C
100
AcDbEntity
  8
外形
  6
CONTINUOUS
100
AcDbLine
 10
-19.173547
 20
362.737964
 30
0.0
 11
-19.173547
 21
354.629065
 31
0.0
  0
ARC
  5
22D
100
AcDbEntity
  8
外形
  6
CONTINUOUS
100
AcDbCircle
 10
-28.173547
 20
358.987964
 30
0.0
 40
10.0
100
AcDbArc
 50
272.423645
 51
334.158067
  0
LINE
  5
22E
100
AcDbEntity
  8
外形
  6
CONTINUOUS
100
AcDbLine
 10
15.23561
 20
362.987964
 30
0.0
 11
13.824394
 21
346.857688
 31
0.0
  0
DIMENSION
  5
22F
100
AcDbEntity
  8
寸法
  6
CONTINUOUS
100
AcDbDimension
  2
*D41
 10
3.715798
 20
345.987964
 30
0.0
 11
1.215798
 21
352.487964
 31
0.0
 70
    32
  3
STANDARD
100
AcDbAlignedDimension
 13
13.82135
 23
358.987964
 33
0.0
 14
13.82135
 24
345.987964
 34
0.0
 50
90.0
100
AcDbRotatedDimension
1001
ACAD
1000
DSTYLE
1002
{
1070
    40
1040
1.0
1002
}
  0
ARC
  5
230
100
AcDbEntity
  8
外形
  6
CONTINUOUS
100
AcDbCircle
 10
14.62135
 20
346.787964
 30
0.0
 40
0.8
100
AcDbArc
 50
175.0
 51
275.0
  0
LINE
  5
231
100
AcDbEntity
  8
外形
  6
CENTER
 62
     1
100
AcDbLine
 10
14.656282
 20
345.987964
 30
0.0
 11
13.82135
 21
345.987964
 31
0.0
  0
LINE
  5
232
100
AcDbEntity
  8
外形
  6
CONTINUOUS
 62
     1
100
AcDbLine
 10
13.82135
 20
346.787964
 30
0.0
 11
13.82135
 21
345.987964
 31
0.0
  0
ARC
  5
233
100
AcDbEntity
  8
外形
  6
CONTINUOUS
100
AcDbCircle
 10
15.325142
 20
354.832346
 30
0.0
 40
0.8
100
AcDbArc
 50
95.0
 51
175.0
  0
LEADER
  5
234
100
AcDbEntity
  8
寸法
  6
CONTINUOUS
 62
     1
100
AcDbLeader
  3
STANDARD
 73
     0
 74
     0
 75
     1
 40
3.0
 41
26.0
 76
     3
 10
-22.422105
 20
369.586203
 30
0.0
 10
-14.45478
 20
394.420041
 30
0.0
 10
-12.45478
 20
394.420041
 30
0.0
 77
   256
340
235
213
-0.1129475379637483
223
0.5510341987360619
233
0.0
1001
ACAD
1000
DSTYLE
1002
{
1070
   284
1070
    13
1070
   146
1040
0.5
1070
   272
1070
     3
1070
    40
1040
1.0
1070
   287
1070
     0
1002
}
  0
MTEXT
  5
235
102
{ACAD_REACTORS
330
234
102
}
100
AcDbEntity
  8
寸法
  6
CONTINUOUS
 62
     3
100
AcDbMText
 10
-11.341833
 20
396.369007
 30
0.0
 40
3.0
 41
0.0
 71
     4
 72
     1
  1
%%c25最小加工径
  0
LINE
  5
236
100
AcDbEntity
  8
外形
  6
CONTINUOUS
100
AcDbLine
 10
39.07135
 20
368.987964
 30
0.0
 11
39.07135
 21
363.346863
 31
0.0
  0
LINE
  5
237
100
AcDbEntity
  8
外形
  6
CONTINUOUS
100
AcDbLine
 10
38.82135
 20
368.737964
 30
0.0
 11
38.82135
 21
362.987964
 31
0.0
  0
LINE
  5
238
100
AcDbEntity
  8
外形
  6
CONTINUOUS
100
AcDbLine
 10
32.095412
 20
368.737964
 30
0.0
 11
32.095412
 21
364.459295
 31
0.0
  0
SPLINE
  5
239
100
AcDbEntity
  8
外形
  6
CONTINUOUS
100
AcDbSpline
210
0.0
220
0.0
230
1.0
 70
     8
 71
     3
 72
    10
 73
     6
 74
     0
 42
0.0000001
 43
0.0000001
 40
0.0
 40
0.0
 40
0.0
 40
0.0
 40
9.094265528231321
 40
22.16250510536278
 40
30.67324341747497
 40
30.67324341747497
 40
30.67324341747497
 40
30.67324341747497
 10
23.52549935966834
 20
367.7741337579693
 30
0.0
 10
26.00469202015409
 20
367.0019900964096
 30
0.0
 10
32.60225491214004
 20
365.1202946710597
 30
0.0
 10
45.03849435281034
 20
355.5009723761809
 30
0.0
 10
37.25060510745169
 20
351.6166904082213
 30
0.0
 10
32.09541174900204
 20
349.9318158683363
 30
0.0
  0
LINE
  5
23A
100
AcDbEntity
  8
外形
  6
CONTINUOUS
100
AcDbLine
 10
43.82135
 20
368.987964
 30
0.0
 11
43.82135
 21
348.987964
 31
0.0
  0
LINE
  5
23B
100
AcDbEntity
  8
外形
  6
HIDDEN
100
AcDbLine
 10
43.82135
 20
368.987964
 30
0.0
 11
36.82135
 21
361.987964
 31
0.0
  0
LINE
  5
23C
100
AcDbEntity
  8
外形
  6
HIDDEN
100
AcDbLine
 10
43.82135
 20
348.987964
 30
0.0
 11
36.82135
 21
355.987964
 31
0.0
  0
ARC
  5
23D
100
AcDbEntity
  8
外形
  6
CONTINUOUS
100
AcDbCircle
 10
23.138823
 20
355.305477
 30
0.0
 40
1.75
100
AcDbArc
 50
320.0
 51
140.0
  0
LINE
  5
23E
100
AcDbEntity
  8
外形
  6
CENTER
 62
     1
100
AcDbLine
 10
18.995412
 20
344.884785
 30
0.0
 11
18.995412
 21
357.675664
 31
0.0
  0
LINE
  5
23F
100
AcDbEntity
  8
外形
  6
CONTINUOUS
100
AcDbLine
 10
24.16643
 20
355.466409
 30
0.0
 11
23.404132
 21
346.753302
 31
0.0
  0
LINE
  5
240
100
AcDbEntity
  8
外形
  6
CONTINUOUS
100
AcDbLine
 10
32.095412
 20
349.931816
 30
0.0
 11
27.159067
 21
347.081816
 31
0.0
  0
LINE
  5
241
100
AcDbEntity
  8
外形
  6
CONTINUOUS
100
AcDbLine
 10
19.882187
 20
350.402308
 30
0.0
 11
19.878379
 21
349.632705
 31
0.0
  0
LINE
  5
242
100
AcDbEntity
  8
外形
  6
CONTINUOUS
100
AcDbLine
 10
18.112445
 20
349.632705
 30
0.0
 11
18.108637
 21
350.402308
 31
0.0
  0
ARC
  5
243
100
AcDbEntity
  8
外形
  6
CONTINUOUS
100
AcDbCircle
 10
18.995412
 20
349.638284
 30
0.0
 40
0.43285
100
AcDbArc
 50
60.283476
 51
119.716524
  0
LINE
  5
244
100
AcDbEntity
  8
外形
  6
CONTINUOUS
100
AcDbLine
 10
19.878379
 20
349.632705
 30
0.0
 11
19.209979
 21
350.014209
 31
0.0
  0
LINE
  5
245
100
AcDbEntity
  8
外形
  6
CONTINUOUS
100
AcDbLine
 10
18.780844
 20
350.014209
 30
0.0
 11
18.112445
 21
349.632705
 31
0.0
  0
LINE
  5
246
100
AcDbEntity
  8
外形
  6
CONTINUOUS
100
AcDbLine
 10
24.465089
 20
354.163544
 30
0.0
 11
24.4794
 21
354.180599
 31
0.0
  0
LINE
  5
247
100
AcDbEntity
  8
外形
  6
CONTINUOUS
100
AcDbLine
 10
24.004411
 20
353.614529
 30
0.0
 11
24.4794
 21
354.180599
 31
0.0
  0
ARC
  5
248
100
AcDbEntity
  8
外形
  6
CONTINUOUS
100
AcDbCircle
 10
18.995412
 20
352.685813
 30
0.0
 40
0.43285
100
AcDbArc
 50
240.283476
 51
299.716524
  0
ARC
  5
249
100
AcDbEntity
  8
外形
  6
CONTINUOUS
100
AcDbCircle
 10
17.675793
 20
351.923931
 30
0.0
 40
0.43285
100
AcDbArc
 50
300.283476
 51
359.716524
  0
ARC
  5
24A
100
AcDbEntity
  8
外形
  6
CONTINUOUS
100
AcDbCircle
 10
17.675793
 20
350.400166
 30
0.0
 40
0.43285
100
AcDbArc
 50
0.283476
 51
59.716524
  0
ARC
  5
24B
100
AcDbEntity
  8
外形
  6
CONTINUOUS
100
AcDbCircle
 10
20.315031
 20
350.400166
 30
0.0
 40
0.43285
100
AcDbArc
 50
120.283476
 51
179.716524
  0
ARC
  5
24C
100
AcDbEntity
  8
外形
  6
CONTINUOUS
100
AcDbCircle
 10
20.315031
 20
351.923931
 30
0.0
 40
0.43285
100
AcDbArc
 50
180.283476
 51
239.716524
  0
LINE
  5
24D
100
AcDbEntity
  8
外形
  6
CONTINUOUS
100
AcDbLine
 10
17.229478
 20
351.162049
 30
0.0
 11
17.894069
 21
351.550148
 31
0.0
  0
LINE
  5
24E
100
AcDbEntity
  8
外形
  6
CONTINUOUS
100
AcDbLine
 10
17.894069
 20
350.773949
 30
0.0
 11
17.229478
 21
351.162049
 31
0.0
  0
LINE
  5
24F
100
AcDbEntity
  8
外形
  6
CONTINUOUS
100
AcDbLine
 10
18.112445
 20
352.691392
 30
0.0
 11
18.780844
 21
352.309889
 31
0.0
  0
LINE
  5
250
100
AcDbEntity
  8
外形
  6
CONTINUOUS
100
AcDbLine
 10
18.108637
 20
351.921789
 30
0.0
 11
18.112445
 21
352.691392
 31
0.0
  0
LINE
  5
251
100
AcDbEntity
  8
外形
  6
CONTINUOUS
100
AcDbLine
 10
19.878379
 20
352.691392
 30
0.0
 11
19.882187
 21
351.921789
 31
0.0
  0
LINE
  5
252
100
AcDbEntity
  8
外形
  6
CONTINUOUS
100
AcDbLine
 10
19.209979
 20
352.309889
 30
0.0
 11
19.878379
 21
352.691392
 31
0.0
  0
LINE
  5
253
100
AcDbEntity
  8
外形
  6
CONTINUOUS
100
AcDbLine
 10
20.761346
 20
351.162049
 30
0.0
 11
20.096754
 21
350.773949
 31
0.0
  0
LINE
  5
254
100
AcDbEntity
  8
外形
  6
CONTINUOUS
100
AcDbLine
 10
20.096754
 20
351.550148
 30
0.0
 11
20.761346
 21
351.162049
 31
0.0
  0
ARC
  5
255
100
AcDbEntity
  8
外形
  6
CONTINUOUS
100
AcDbCircle
 10
22.665682
 20
347.491751
 30
0.0
 40
0.8
100
AcDbArc
 50
275.0
 51
355.0
  0
LINE
  5
256
100
AcDbEntity
  8
外形
  6
CONTINUOUS
100
AcDbLine
 10
38.82135
 20
349.237964
 30
0.0
 11
30.893625
 21
349.237964
 31
0.0
  0
LINE
  5
257
100
AcDbEntity
  8
外形
  6
CONTINUOUS
100
AcDbLine
 10
39.07135
 20
348.987964
 30
0.0
 11
39.07135
 21
352.888292
 31
0.0
  0
LINE
  5
258
100
AcDbEntity
  8
外形
  6
CONTINUOUS
100
AcDbLine
 10
38.82135
 20
349.237964
 30
0.0
 11
39.07135
 21
348.987964
 31
0.0
  0
LINE
  5
259
100
AcDbEntity
  8
外形
  6
CONTINUOUS
100
AcDbLine
 10
38.82135
 20
352.704689
 30
0.0
 11
38.82135
 21
349.237964
 31
0.0
  0
ARC
  5
25A
100
AcDbEntity
  8
外形
  6
CONTINUOUS
100
AcDbCircle
 10
23.369474
 20
355.536134
 30
0.0
 40
0.8
100
AcDbArc
 50
355.0
 51
95.0
  0
LINE
  5
25B
100
AcDbEntity
  8
外形
  6
CONTINUOUS
100
AcDbLine
 10
21.591201
 20
356.183611
 30
0.0
 11
21.798245
 21
356.430356
 31
0.0
  0
LINE
  5
25C
100
AcDbEntity
  8
外形
  6
CONTINUOUS
100
AcDbLine
 10
38.82135
 20
362.987964
 30
0.0
 11
34.586455
 21
362.987964
 31
0.0
  0
LINE
  5
25D
100
AcDbEntity
  8
外形
  6
HIDDEN
100
AcDbLine
 10
36.82135
 20
361.987964
 30
0.0
 11
36.82135
 21
355.987964
 31
0.0
  0
LINE
  5
25F
100
AcDbEntity
  8
外形
  6
CONTINUOUS
100
AcDbLine
 10
38.82135
 20
368.737964
 30
0.0
 11
25.194902
 21
368.737964
 31
0.0
  0
LINE
  5
260
100
AcDbEntity
  8
外形
  6
CONTINUOUS
100
AcDbLine
 10
38.82135
 20
368.737964
 30
0.0
 11
39.07135
 21
368.987964
 31
0.0
  0
LINE
  5
262
100
AcDbEntity
  8
外形
  6
CONTINUOUS
100
AcDbLine
 10
262.82135
 20
299.002789
 30
0.0
 11
262.82135
 21
317.002789
 31
0.0
  0
LINE
  5
263
100
AcDbEntity
  8
外形
  6
CONTINUOUS
100
AcDbLine
 10
263.82135
 20
316.002789
 30
0.0
 11
263.82135
 21
300.002789
 31
0.0
  0
LINE
  5
264
100
AcDbEntity
  8
外形
  6
CONTINUOUS
100
AcDbLine
 10
262.82135
 20
299.002789
 30
0.0
 11
263.82135
 21
300.002789
 31
0.0
  0
LINE
  5
265
100
AcDbEntity
  8
外形
  6
CONTINUOUS
100
AcDbLine
 10
262.82135
 20
317.002789
 30
0.0
 11
263.82135
 21
316.002789
 31
0.0
  0
ARC
  5
266
100
AcDbEntity
  8
外形
  6
CONTINUOUS
100
AcDbCircle
 10
203.82135
 20
358.987964
 30
0.0
 40
10.0
100
AcDbArc
 50
205.841933
 51
334.158067
  0
DIMENSION
  5
267
100
AcDbEntity
  8
寸法
  6
CONTINUOUS
100
AcDbDimension
  2
*D43
 10
212.82135
 20
337.617969
 30
0.0
 11
203.82135
 21
340.117969
 31
0.0
 70
    32
  3
STANDARD
100
AcDbAlignedDimension
 13
194.82135
 23
354.629065
 33
0.0
 14
212.82135
 24
354.629065
 34
0.0
100
AcDbRotatedDimension
1001
ACAD
1000
DSTYLE
1002
{
1070
   284
1070
    13
1070
   146
1040
0.5
1070
   272
1070
     3
1070
    40
1040
1.0
1070
   287
1070
     0
1002
}
  0
ARC
  5
268
100
AcDbEntity
  8
外形
  6
CONTINUOUS
100
AcDbCircle
 10
203.82135
 20
358.987964
 30
0.0
 40
10.0
100
AcDbArc
 50
25.841933
 51
154.158067
  0
DIMENSION
  5
269
100
AcDbEntity
  8
寸法
  6
CONTINUOUS
100
AcDbDimension
  2
*D44
 10
197.690548
 20
351.087757
 30
0.0
 11
217.145462
 21
376.157537
 31
0.0
 70
   163
  3
STANDARD
100
AcDbDiametricDimension
 15
209.952151
 25
366.888171
 35
0.0
 40
0.0
1001
ACAD
1000
DSTYLE
1002
{
1070
   284
1070
    13
1070
   146
1040
0.5
1070
   272
1070
     3
1070
    40
1040
1.0
1070
   287
1070
     0
1002
}
  0
LINE
  5
26A
100
AcDbEntity
  8
外形
  6
CENTER
 62
     1
100
AcDbLine
 10
203.82135
 20
371.212545
 30
0.0
 11
203.82135
 21
346.021852
 31
0.0
  0
LINE
  5
26B
100
AcDbEntity
  8
外形
  6
CONTINUOUS
100
AcDbLine
 10
194.82135
 20
363.346863
 30
0.0
 11
194.82135
 21
354.629065
 31
0.0
  0
LINE
  5
26C
100
AcDbEntity
  8
外形
  6
CONTINUOUS
100
AcDbLine
 10
262.82135
 20
363.346863
 30
0.0
 11
262.82135
 21
368.987964
 31
0.0
  0
LINE
  5
26D
100
AcDbEntity
  8
外形
  6
CONTINUOUS
100
AcDbLine
 10
263.82135
 20
367.987964
 30
0.0
 11
263.82135
 21
349.987964
 31
0.0
  0
LINE
  5
26E
100
AcDbEntity
  8
外形
  6
CONTINUOUS
100
AcDbLine
 10
263.82135
 20
349.987964
 30
0.0
 11
263.82135
 21
367.987964
 31
0.0
  0
LINE
  5
26F
100
AcDbEntity
  8
外形
  6
CONTINUOUS
100
AcDbLine
 10
262.82135
 20
363.346863
 30
0.0
 11
214.82135
 21
363.346863
 31
0.0
  0
LINE
  5
270
100
AcDbEntity
  8
外形
  6
CONTINUOUS
100
AcDbLine
 10
262.82135
 20
354.629065
 30
0.0
 11
214.82135
 21
354.629065
 31
0.0
  0
LINE
  5
271
100
AcDbEntity
  8
外形
  6
CONTINUOUS
100
AcDbLine
 10
262.82135
 20
348.987964
 30
0.0
 11
214.82135
 21
348.987964
 31
0.0
  0
LINE
  5
272
100
AcDbEntity
  8
外形
  6
CONTINUOUS
100
AcDbLine
 10
212.82135
 20
363.346863
 30
0.0
 11
212.82135
 21
354.629065
 31
0.0
  0
LINE
  5
273
100
AcDbEntity
  8
外形
  6
CONTINUOUS
100
AcDbLine
 10
214.82135
 20
348.987964
 30
0.0
 11
223.877169
 21
348.987964
 31
0.0
  0
LINE
  5
274
100
AcDbEntity
  8
外形
  6
CONTINUOUS
100
AcDbLine
 10
214.82135
 20
363.346863
 30
0.0
 11
214.84374
 21
363.346863
 31
0.0
  0
ARC
  5
275
100
AcDbEntity
  8
外形
  6
CONTINUOUS
100
AcDbCircle
 10
235.721681
 20
358.987964
 30
0.0
 40
27.447988
100
AcDbArc
 50
350.862414
 51
9.137586
  0
LINE
  5
276
100
AcDbEntity
  8
外形
  6
CONTINUOUS
100
AcDbLine
 10
262.82135
 20
348.987964
 30
0.0
 11
263.82135
 21
349.987964
 31
0.0
  0
LINE
  5
277
100
AcDbEntity
  8
外形
  6
CONTINUOUS
100
AcDbLine
 10
262.82135
 20
354.629065
 30
0.0
 11
262.82135
 21
348.987964
 31
0.0
  0
LINE
  5
278
100
AcDbEntity
  8
外形
  6
CONTINUOUS
100
AcDbLine
 10
262.82135
 20
368.987964
 30
0.0
 11
214.82135
 21
368.987964
 31
0.0
  0
LINE
  5
279
100
AcDbEntity
  8
外形
  6
CONTINUOUS
100
AcDbLine
 10
214.82135
 20
368.987964
 30
0.0
 11
223.877169
 21
368.987964
 31
0.0
  0
LINE
  5
27A
100
AcDbEntity
  8
外形
  6
CONTINUOUS
100
AcDbLine
 10
262.82135
 20
368.987964
 30
0.0
 11
263.82135
 21
367.987964
 31
0.0
  0
ENDSEC
  0
SECTION
  2
OBJECTS
  0
DICTIONARY
  5
1E
100
AcDbDictionary
  3
ACAD_GROUP
350
1C
  3
ACAD_MLINESTYLE
350
1D
  0
DICTIONARY
  5
47
100
AcDbDictionary
280
     1
  3
ACAD_XREC_ROUNDTRIP
360
48
  0
DICTIONARY
  5
36
100
AcDbDictionary
280
     1
  3
ACAD_XREC_ROUNDTRIP
360
37
  0
DICTIONARY
  5
3
100
AcDbDictionary
280
     1
  3
ACAD_LAYOUTSELFREF
360
4
  0
DICTIONARY
  5
A
100
AcDbDictionary
280
     1
  3
ACAD_LAYOUTSELFREF
360
B
  0
DICTIONARY
  5
1C
102
{ACAD_REACTORS
330
1E
102
}
100
AcDbDictionary
  0
DICTIONARY
  5
1D
102
{ACAD_REACTORS
330
1E
102
}
100
AcDbDictionary
  3
STANDARD
350
20
  0
XRECORD
  5
48
102
{ACAD_REACTORS
330
47
102
}
100
AcDbXrecord
102
PLOTBIT
280
     0
  0
XRECORD
  5
37
102
{ACAD_REACTORS
330
36
102
}
100
AcDbXrecord
102
ACADR14ROUNDTRIP
1000
DSTYLE
1002
{
1070
   341
340
0
1070
   343
340
0
1070
   344
340
0
1002
}
  0
XRECORD
  5
4
102
{ACAD_REACTORS
330
3
102
}
100
AcDbXrecord
340
2
  0
XRECORD
  5
B
102
{ACAD_REACTORS
330
A
102
}
100
AcDbXrecord
340
9
  0
MLINESTYLE
  5
20
102
{ACAD_REACTORS
330
1D
102
}
100
AcDbMlineStyle
  2
STANDARD
 70
     0
  3

 62
     0
 51
90.0
 52
90.0
 71
     2
 49
0.5
 62
   256
  6
BYLAYER
 49
-0.5
 62
   256
  6
BYLAYER
  0
ENDSEC
  0
EOF
