  0
SECTION
  2
HEADER
  9
$ACADVER
  1
AC1015
  9
$ACADMAINTVER
 70
     6
  9
$DWGCODEPAGE
  3
ANSI_932
  9
$INSBASE
 10
0.0
 20
0.0
 30
0.0
  9
$EXTMIN
 10
-117.5953152284321
 20
-111.3908175223265
 30
-0.0000000349181948
  9
$EXTMAX
 10
256.4114967345279
 20
36.4906178231397
 30
0.0000000814935746
  9
$LIMMIN
 10
0.0
 20
0.0
  9
$LIMMAX
 10
420.0
 20
297.0
  9
$ORTHOMODE
 70
     0
  9
$REGENMODE
 70
     1
  9
$FILLMODE
 70
     1
  9
$QTEXTMODE
 70
     0
  9
$MIRRTEXT
 70
     1
  9
$LTSCALE
 40
1.0
  9
$ATTMODE
 70
     1
  9
$TEXTSIZE
 40
2.5
  9
$TRACEWID
 40
1.0
  9
$TEXTSTYLE
  7
STANDARD
  9
$CLAYER
  8
0
  9
$CELTYPE
  6
ByLayer
  9
$CECOLOR
 62
   256
  9
$CELTSCALE
 40
1.0
  9
$DISPSILH
 70
     0
  9
$DIMSCALE
 40
1.0
  9
$DIMASZ
 40
2.5
  9
$DIMEXO
 40
0.625
  9
$DIMDLI
 40
3.75
  9
$DIMRND
 40
0.0
  9
$DIMDLE
 40
0.0
  9
$DIMEXE
 40
1.25
  9
$DIMTP
 40
0.0
  9
$DIMTM
 40
0.0
  9
$DIMTXT
 40
2.5
  9
$DIMCEN
 40
2.5
  9
$DIMTSZ
 40
0.0
  9
$DIMTOL
 70
     0
  9
$DIMLIM
 70
     0
  9
$DIMTIH
 70
     0
  9
$DIMTOH
 70
     0
  9
$DIMSE1
 70
     0
  9
$DIMSE2
 70
     0
  9
$DIMTAD
 70
     1
  9
$DIMZIN
 70
     8
  9
$DIMBLK
  1

  9
$DIMASO
 70
     1
  9
$DIMSHO
 70
     1
  9
$DIMPOST
  1

  9
$DIMAPOST
  1

  9
$DIMALT
 70
     0
  9
$DIMALTD
 70
     3
  9
$DIMALTF
 40
0.03937007874016
  9
$DIMLFAC
 40
1.0
  9
$DIMTOFL
 70
     1
  9
$DIMTVP
 40
0.0
  9
$DIMTIX
 70
     0
  9
$DIMSOXD
 70
     0
  9
$DIMSAH
 70
     0
  9
$DIMBLK1
  1

  9
$DIMBLK2
  1

  9
$DIMSTYLE
  2
ISO-25
  9
$DIMCLRD
 70
     0
  9
$DIMCLRE
 70
     0
  9
$DIMCLRT
 70
     0
  9
$DIMTFAC
 40
1.0
  9
$DIMGAP
 40
0.625
  9
$DIMJUST
 70
     0
  9
$DIMSD1
 70
     0
  9
$DIMSD2
 70
     0
  9
$DIMTOLJ
 70
     0
  9
$DIMTZIN
 70
     8
  9
$DIMALTZ
 70
     0
  9
$DIMALTTZ
 70
     0
  9
$DIMUPT
 70
     0
  9
$DIMDEC
 70
     2
  9
$DIMTDEC
 70
     2
  9
$DIMALTU
 70
     2
  9
$DIMALTTD
 70
     3
  9
$DIMTXSTY
  7
STANDARD
  9
$DIMAUNIT
 70
     0
  9
$DIMADEC
 70
     0
  9
$DIMALTRND
 40
0.0
  9
$DIMAZIN
 70
     0
  9
$DIMDSEP
 70
    46
  9
$DIMATFIT
 70
     3
  9
$DIMFRAC
 70
     0
  9
$DIMLDRBLK
  1

  9
$DIMLUNIT
 70
     2
  9
$DIMLWD
 70
    -2
  9
$DIMLWE
 70
    -2
  9
$DIMTMOVE
 70
     0
  9
$LUNITS
 70
     2
  9
$LUPREC
 70
     2
  9
$SKETCHINC
 40
1.0
  9
$FILLETRAD
 40
2.5
  9
$AUNITS
 70
     0
  9
$AUPREC
 70
     0
  9
$MENU
  1
.
  9
$ELEVATION
 40
0.0
  9
$PELEVATION
 40
0.0
  9
$THICKNESS
 40
0.0
  9
$LIMCHECK
 70
     0
  9
$CHAMFERA
 40
2.5
  9
$CHAMFERB
 40
2.5
  9
$CHAMFERC
 40
20.0
  9
$CHAMFERD
 40
0.0
  9
$SKPOLY
 70
     0
  9
$TDCREATE
 40
2453210.379162743
  9
$TDUCREATE
 40
2453210.004162743
  9
$TDUPDATE
 40
2455468.608025706
  9
$TDUUPDATE
 40
2455468.233025706
  9
$TDINDWG
 40
0.0452500463
  9
$TDUSRTIMER
 40
0.0452495833
  9
$USRTIMER
 70
     1
  9
$ANGBASE
 50
0.0
  9
$ANGDIR
 70
     0
  9
$PDMODE
 70
     0
  9
$PDSIZE
 40
0.0
  9
$PLINEWID
 40
0.0
  9
$SPLFRAME
 70
     0
  9
$SPLINETYPE
 70
     6
  9
$SPLINESEGS
 70
     8
  9
$HANDSEED
  5
3002
  9
$SURFTAB1
 70
     6
  9
$SURFTAB2
 70
     6
  9
$SURFTYPE
 70
     6
  9
$SURFU
 70
     6
  9
$SURFV
 70
     6
  9
$UCSBASE
  2

  9
$UCSNAME
  2

  9
$UCSORG
 10
0.0
 20
0.0
 30
0.0
  9
$UCSXDIR
 10
1.0
 20
0.0
 30
0.0
  9
$UCSYDIR
 10
0.0
 20
1.0
 30
0.0
  9
$UCSORTHOREF
  2

  9
$UCSORTHOVIEW
 70
     0
  9
$UCSORGTOP
 10
0.0
 20
0.0
 30
0.0
  9
$UCSORGBOTTOM
 10
0.0
 20
0.0
 30
0.0
  9
$UCSORGLEFT
 10
0.0
 20
0.0
 30
0.0
  9
$UCSORGRIGHT
 10
0.0
 20
0.0
 30
0.0
  9
$UCSORGFRONT
 10
0.0
 20
0.0
 30
0.0
  9
$UCSORGBACK
 10
0.0
 20
0.0
 30
0.0
  9
$PUCSBASE
  2

  9
$PUCSNAME
  2

  9
$PUCSORG
 10
0.0
 20
0.0
 30
0.0
  9
$PUCSXDIR
 10
1.0
 20
0.0
 30
0.0
  9
$PUCSYDIR
 10
0.0
 20
1.0
 30
0.0
  9
$PUCSORTHOREF
  2

  9
$PUCSORTHOVIEW
 70
     0
  9
$PUCSORGTOP
 10
0.0
 20
0.0
 30
0.0
  9
$PUCSORGBOTTOM
 10
0.0
 20
0.0
 30
0.0
  9
$PUCSORGLEFT
 10
0.0
 20
0.0
 30
0.0
  9
$PUCSORGRIGHT
 10
0.0
 20
0.0
 30
0.0
  9
$PUCSORGFRONT
 10
0.0
 20
0.0
 30
0.0
  9
$PUCSORGBACK
 10
0.0
 20
0.0
 30
0.0
  9
$USERI1
 70
     0
  9
$USERI2
 70
     0
  9
$USERI3
 70
     0
  9
$USERI4
 70
     0
  9
$USERI5
 70
     0
  9
$USERR1
 40
0.0
  9
$USERR2
 40
0.0
  9
$USERR3
 40
0.0
  9
$USERR4
 40
0.0
  9
$USERR5
 40
0.0
  9
$WORLDVIEW
 70
     1
  9
$SHADEDGE
 70
     3
  9
$SHADEDIF
 70
    70
  9
$TILEMODE
 70
     1
  9
$MAXACTVP
 70
    64
  9
$PINSBASE
 10
0.0
 20
0.0
 30
0.0
  9
$PLIMCHECK
 70
     0
  9
$PEXTMIN
 10
1.000000000000000E+20
 20
1.000000000000000E+20
 30
1.000000000000000E+20
  9
$PEXTMAX
 10
-1.000000000000000E+20
 20
-1.000000000000000E+20
 30
-1.000000000000000E+20
  9
$PLIMMIN
 10
0.0
 20
0.0
  9
$PLIMMAX
 10
420.0
 20
297.0
  9
$UNITMODE
 70
     0
  9
$VISRETAIN
 70
     1
  9
$PLINEGEN
 70
     0
  9
$PSLTSCALE
 70
     1
  9
$TREEDEPTH
 70
  3020
  9
$CMLSTYLE
  2
Standard
  9
$CMLJUST
 70
     0
  9
$CMLSCALE
 40
20.0
  9
$PROXYGRAPHICS
 70
     1
  9
$MEASUREMENT
 70
     1
  9
$CELWEIGHT
370
    -1
  9
$ENDCAPS
280
     0
  9
$JOINSTYLE
280
     0
  9
$LWDISPLAY
290
     0
  9
$INSUNITS
 70
     4
  9
$HYPERLINKBASE
  1

  9
$STYLESHEET
  1
sei_cad.ctb
  9
$XEDIT
290
     1
  9
$CEPSNTYPE
380
     0
  9
$PSTYLEMODE
290
     1
  9
$FINGERPRINTGUID
  2
{29CAF1BE-B3FE-466B-B149-E572B19B5D3B}
  9
$VERSIONGUID
  2
{96FAF5F6-C05F-4F56-80B3-CB8F9DC6A207}
  9
$EXTNAMES
290
     1
  9
$PSVPSCALE
 40
0.0
  9
$OLESTARTUP
290
     0
  0
ENDSEC
  0
SECTION
  2
CLASSES
  0
CLASS
  1
ACDBDICTIONARYWDFLT
  2
AcDbDictionaryWithDefault
  3
ObjectDBX Classes
 90
        0
280
     0
281
     0
  0
CLASS
  1
ACDBPLACEHOLDER
  2
AcDbPlaceHolder
  3
ObjectDBX Classes
 90
        0
280
     0
281
     0
  0
CLASS
  1
LAYOUT
  2
AcDbLayout
  3
ObjectDBX Classes
 90
        0
280
     0
281
     0
  0
CLASS
  1
AMGSETTINGSOBJ
  2
AmgSettingsObj
  3
"AcadM|Product Description: AutoCAD Mechanical 2000|Company: Autodesk"
 90
        0
280
     1
281
     0
  0
CLASS
  1
ACME_DOCUMENT
  2
AcMeDbDoc
  3
AcMeServices
 90
        0
280
     1
281
     0
  0
CLASS
  1
ACMESCOPE
  2
AcMeScope
  3
AcMeServices
 90
        0
280
     1
281
     0
  0
CLASS
  1
ACMECOMMANDHISTORY
  2
AcMeCommandHistory
  3
AcMeServices
 90
        0
280
     1
281
     0
  0
CLASS
  1
DICTIONARYVAR
  2
AcDbDictionaryVar
  3
ObjectDBX Classes
 90
        0
280
     0
281
     0
  0
CLASS
  1
ACIMSYSVARMAN
  2
AcImSysVarManager
  3
AcMeServices
 90
        0
280
     1
281
     0
  0
CLASS
  1
ACIMREALSYSVAR
  2
AcImRealSysVar
  3
AcMeServices
 90
        0
280
     1
281
     0
  0
CLASS
  1
ACIMINTSYSVAR
  2
AcImIntSysVar
  3
AcMeServices
 90
        0
280
     1
281
     0
  0
CLASS
  1
ACMEDRAWINGMAN
  2
AcMeDrawingMan
  3
AcMeServices
 90
        0
280
     1
281
     0
  0
CLASS
  1
ACMEVIEW
  2
AcMeView
  3
AcMeServices
 90
        0
280
     1
281
     0
  0
CLASS
  1
ACDBENTITYCACHE
  2
AcMeEntityCache
  3
AcMeServices
 90
        0
280
     1
281
     0
  0
CLASS
  1
GSMANAGER
  2
AcMeGSManager
  3
AcMeServices
 90
        0
280
     1
281
     0
  0
CLASS
  1
AMDTINTERNALREACTOR
  2
AmdtInternalReactor
  3
AcMeServices
 90
        0
280
     1
281
     0
  0
CLASS
  1
ACMESTATEMGR
  2
AcMeStateMgr
  3
AcMeServices
 90
        0
280
     1
281
     0
  0
CLASS
  1
ACME_DATABASE
  2
AcMeDbDatabase
  3
AcMeServices
 90
        0
280
     1
281
     0
  0
CLASS
  1
ACRFINSADJUSTERMGR
  2
AcRfInsAdjusterMgr
  3
AcMeServices
 90
        0
280
     1
281
     0
  0
CLASS
  1
ACMDATADICTIONARY
  2
AcmDataDictionary
  3
"AcmSymBB|Product Description: AutoCAD Mechanical 2004 DX|Company: Autodesk"
 90
        0
280
     1
281
     0
  0
CLASS
  1
ACMDATAENTRYBLOCK
  2
AcmDataEntryBlock
  3
"AcmSymBB|Product Description: AutoCAD Mechanical 2004 DX|Company: Autodesk"
 90
        0
280
     1
281
     0
  0
CLASS
  1
AMGOBJPROPCFG
  2
AmgObjPropCfg
  3
"AmgLay|Product Description: AutoCAD Mechanical 2000|Company: Autodesk"
 90
        1
280
     1
281
     0
  0
CLASS
  1
ACMSTANDARDJIS
  2
AcmStandardJIS
  3
"Amdt_StdImp|Product Description: AutoCAD Mechanical 2004 DX|Company: Autodesk"
 90
        0
280
     1
281
     0
  0
CLASS
  1
ACMSURFSTANDARDJIS
  2
AcmSurfTextStdJIS
  3
"Amdt_StdImp|Product Description: AutoCAD Mechanical 2004 DX|Company: Autodesk"
 90
        0
280
     1
281
     0
  0
CLASS
  1
ACMFCFSTANDARDJIS
  2
AcmFCFStdJIS
  3
"Amdt_StdImp|Product Description: AutoCAD Mechanical 2004 DX|Company: Autodesk"
 90
        0
280
     1
281
     0
  0
CLASS
  1
ACMWELDSTANDARDJIS
  2
AcmWeldingStdJIS
  3
"Amdt_StdImp|Product Description: AutoCAD Mechanical 2004 DX|Company: Autodesk"
 90
        0
280
     1
281
     0
  0
CLASS
  1
ACMIDSTANDARDJIS
  2
AcmIdStdJIS
  3
"Amdt_StdImp|Product Description: AutoCAD Mechanical 2004 DX|Company: Autodesk"
 90
        0
280
     1
281
     0
  0
CLASS
  1
ACMDATUMSTANDARDJIS
  2
AcmDatumStdJIS
  3
"Amdt_StdImp|Product Description: AutoCAD Mechanical 2004 DX|Company: Autodesk"
 90
        0
280
     1
281
     0
  0
CLASS
  1
ACMBOMSTANDARDJIS
  2
AcmBOMStdJIS
  3
"Amdt_StdImp|Product Description: AutoCAD Mechanical 2004 DX|Company: Autodesk"
 90
        0
280
     1
281
     0
  0
CLASS
  1
ACAMGFILTERDAT
  2
AcAmgFilterDat
  3
"AcadM|Product Description: AutoCAD Mechanical 2000|Company: Autodesk"
 90
        0
280
     1
281
     0
  0
CLASS
  1
LAYER_INDEX
  2
AcDbLayerIndex
  3
ObjectDBX Classes
 90
        0
280
     0
281
     0
  0
CLASS
  1
IDBUFFER
  2
AcDbIdBuffer
  3
ObjectDBX Classes
 90
        0
280
     0
281
     0
  0
CLASS
  1
AMDTNOTE
  2
AmdtNote
  3
"AcmSymBB|Product Description: AutoCAD Mechanical 2004 DX|Company: Autodesk"
 90
     1023
280
     1
281
     1
  0
CLASS
  1
TABLESTYLE
  2
AcDbTableStyle
  3
ObjectDBX Classes
 90
     2047
280
     0
281
     0
  0
CLASS
  1
ACGREFMASTER
  2
AcGrefMaster
  3
AcAttribServices
 90
        0
280
     1
281
     0
  0
CLASS
  1
AM_DRAWING_MGR
  2
AcDmDwgMgr
  3
AcMechDwgViewMgmt
 90
        0
280
     1
281
     0
  0
CLASS
  1
AM_DWG_DOCUMENT
  2
AcDmDwgDocument
  3
AcMechDwgViewMgmt
 90
        0
280
     1
281
     0
  0
CLASS
  1
AM_DWG_SHEET
  2
AcDmSheet
  3
AcMechDwgViewMgmt
 90
        0
280
     1
281
     0
  0
CLASS
  1
AM_VIEWDIMPARMAP
  2
AcDmViewDimParMap
  3
AcMechDwgViewMgmt
 90
        0
280
     1
281
     0
  0
CLASS
  1
AM_DWGMGR_NAME
  2
AcDmDwgMgrName
  3
AcMechDwgViewMgmt
 90
        0
280
     1
281
     0
  0
CLASS
  1
ACGREFACADMASTER
  2
AcGrefacadMaster
  3
AcGrefServices
 90
        0
280
     1
281
     0
  0
CLASS
  1
AMDTMENUSTATEMGR
  2
AmdtMenuStateMgr
  3
McadcomServices
 90
        0
280
     1
281
     0
  0
CLASS
  1
AMDTMCOMMENUSTATE
  2
AmdtMcomMenuState
  3
McadcomServices
 90
        0
280
     1
281
     0
  0
CLASS
  1
AMIMASTER
  2
AmiMaster
  3
AmiServices
 90
        0
280
     1
281
     0
  0
CLASS
  1
MAPIAMMOUDLE
  2
MApiAmModule
  3
MApiAmServices
 90
        0
280
     1
281
     0
  0
CLASS
  1
AMDTADMENUSTATE
  2
AmdtAdMenuState
  3
DesignerServices
 90
        0
280
     1
281
     0
  0
CLASS
  1
ADAPPL
  2
AcAdAppl
  3
DesignerServices
 90
        0
280
     1
281
     0
  0
CLASS
  1
DEPMGR
  2
AcAdDepMgr
  3
DesignerServices
 90
        0
280
     1
281
     0
  0
CLASS
  1
PARAMMGR
  2
AcAdParamMgr
  3
DesignerServices
 90
        0
280
     1
281
     0
  0
CLASS
  1
PARAMSCOPE
  2
AcAdParamScope
  3
DesignerServices
 90
        0
280
     1
281
     0
  0
CLASS
  1
NAMEDAPPL
  2
AcAdNamedAppl
  3
DesignerServices
 90
        0
280
     1
281
     0
  0
CLASS
  1
AMDTDMMENUSTATE
  2
AmdtDmMenuState
  3
AcMechDwgViewMgmt
 90
        0
280
     1
281
     0
  0
CLASS
  1
AMDTAMMENUSTATE
  2
AmdtAmMenuState
  3
DesignerAssemblies
 90
        0
280
     1
281
     0
  0
CLASS
  1
ACIMSTRSYSVAR
  2
AcImStrSysVar
  3
AcMeServices
 90
        0
280
     1
281
     0
  0
CLASS
  1
ACAMPROJECT
  2
AcAmProject
  3
DesignerAssemblies
 90
        0
280
     1
281
     0
  0
CLASS
  1
ACAMGRCOMPDEF
  2
AcAmGrCompDef
  3
DesignerAssemblies
 90
        0
280
     1
281
     0
  0
CLASS
  1
ACCMCONTEXT
  2
AcCmContext
  3
DesignerAssemblies
 90
        0
280
     1
281
     0
  0
CLASS
  1
ACAMCOMPDEF
  2
AcAmCompDef
  3
DesignerAssemblies
 90
        0
280
     1
281
     0
  0
CLASS
  1
ACAMCOMPDEFMGR
  2
AcAmCompDefMgr
  3
DesignerAssemblies
 90
        0
280
     1
281
     0
  0
CLASS
  1
AMCONTEXTMGR
  2
AcAmContextMgr
  3
DesignerAssemblies
 90
        0
280
     1
281
     0
  0
CLASS
  1
ACAMCONTEXTMODELER
  2
AcAmContextModeler
  3
DesignerAssemblies
 90
        0
280
     1
281
     0
  0
CLASS
  1
ACAMGTITLESTD
  2
AcAmgTitleStd
  3
"TITLEAPP"
 90
        0
280
     1
281
     0
  0
CLASS
  1
ACMDETAILSTANDARDJIS
  2
AmdtDetailSymStdJIS
  3
"Amdt_StdImp|Product Description: AutoCAD Mechanical 2004 DX|Company: Autodesk"
 90
        0
280
     1
281
     0
  0
CLASS
  1
ACMSECTIONSTANDARDJIS
  2
AmdtSectionSymStdJIS
  3
"Amdt_StdImp|Product Description: AutoCAD Mechanical 2004 DX|Company: Autodesk"
 90
        0
280
     1
281
     0
  0
CLASS
  1
ACMCENTERLINESTANDARDJIS
  2
AmdtCenterLineStdJIS
  3
"Amdt_StdImp|Product Description: AutoCAD Mechanical 2004 DX|Company: Autodesk"
 90
        0
280
     1
281
     0
  0
CLASS
  1
ACMTHREADLINESTANDARDJIS
  2
AmdtThreadLineStdJIS
  3
"Amdt_StdImp|Product Description: AutoCAD Mechanical 2004 DX|Company: Autodesk"
 90
        0
280
     1
281
     0
  0
CLASS
  1
ACMNOTESTANDARDJIS
  2
AmdtNoteStdJIS
  3
"Amdt_StdImp|Product Description: AutoCAD Mechanical 2004 DX|Company: Autodesk"
 90
        0
280
     1
281
     0
  0
CLASS
  1
AMDTNOTETEMPLATEDB
  2
AmdtNoteTemplateDB
  3
AMDT_STDIMP_MODULE_NAME
 90
        0
280
     1
281
     0
  0
CLASS
  1
ACAMGLAYSTD
  2
AcAmgLayStd
  3
"AcAmgLayStd|Product Description: AutoCAD Mechanical 2000|Company: Autodesk"
 90
        0
280
     1
281
     0
  0
CLASS
  1
ACAMGDIMSTD
  2
AcAmgDimStd
  3
"AcAmgDimStd|Product Description: AutoCAD Mechanical 2000|Company: Autodesk"
 90
        0
280
     1
281
     0
  0
CLASS
  1
ACAMGHOLECHARTSTDJIS
  2
AcAmgHoleChartStdJIS
  3
ACMSYMBB_MODULE_NAME
 90
        0
280
     1
281
     0
  0
CLASS
  1
CATALOGSTATE
  2
AcAmCatalogState
  3
DesignerAssemblies
 90
        0
280
     1
281
     0
  0
CLASS
  1
ACAMGRCOMPDEFSET
  2
AcAmGrCompDefSet
  3
DesignerAssemblies
 90
        0
280
     1
281
     0
  0
CLASS
  1
AMDTBROWSERDBTAB
  2
AmdtBrowserDbTab
  3
McadcomServices
 90
        0
280
     1
281
     0
  0
CLASS
  1
CBROWSERAPPOBJECT
  2
CBrowserAppObject
  3
McadcomServices
 90
        0
280
     1
281
     0
  0
CLASS
  1
DM_PLACEHOLDER
  2
AcDmSelsetPlaceholder
  3
AcMechDwgViewMgmt
 90
        0
280
     1
281
     0
  0
CLASS
  1
SORTENTSTABLE
  2
AcDbSortentsTable
  3
ObjectDBX Classes
 90
        0
280
     0
281
     0
  0
ENDSEC
  0
SECTION
  2
TABLES
  0
TABLE
  2
VPORT
  5
8
330
0
100
AcDbSymbolTable
 70
     3
  0
VPORT
  5
2FFB
330
8
100
AcDbSymbolTableRecord
100
AcDbViewportTableRecord
  2
*Active
 70
     0
 10
0.0
 20
0.0
 11
1.0
 21
1.0
 12
69.40809075304786
 22
-37.45009984959341
 13
0.0
 23
0.0
 14
2.5
 24
2.5
 15
10.0
 25
10.0
 16
0.0
 26
0.0
 36
1.0
 17
0.0
 27
0.0
 37
0.0
 40
221.5294646386506
 41
1.697058823529412
 42
50.0
 43
0.0
 44
0.0
 50
0.0
 51
0.0
 71
     0
 72
   100
 73
     1
 74
     3
 75
     0
 76
     0
 77
     0
 78
     0
281
     0
 65
     1
110
0.0
120
0.0
130
0.0
111
1.0
121
0.0
131
0.0
112
0.0
122
1.0
132
0.0
 79
     0
146
0.0
  0
ENDTAB
  0
TABLE
  2
LTYPE
  5
5
330
0
100
AcDbSymbolTable
 70
    13
  0
LTYPE
  5
14
330
5
100
AcDbSymbolTableRecord
100
AcDbLinetypeTableRecord
  2
ByBlock
 70
     0
  3

 72
    65
 73
     0
 40
0.0
  0
LTYPE
  5
15
330
5
100
AcDbSymbolTableRecord
100
AcDbLinetypeTableRecord
  2
ByLayer
 70
     0
  3

 72
    65
 73
     0
 40
0.0
  0
LTYPE
  5
16
330
5
100
AcDbSymbolTableRecord
100
AcDbLinetypeTableRecord
  2
Continuous
 70
     0
  3
Solid line
 72
    65
 73
     0
 40
0.0
  0
LTYPE
  5
4B
330
5
100
AcDbSymbolTableRecord
100
AcDbLinetypeTableRecord
  2
AM_ISO02W050
 70
     0
  3
__ __ __ __ __ __ __ __ __ __ __ __ __ __ __
 72
    65
 73
     2
 40
7.5
 49
6.0
 74
     0
 49
-1.5
 74
     0
  0
LTYPE
  5
4C
330
5
100
AcDbSymbolTableRecord
100
AcDbLinetypeTableRecord
  2
AM_ISO08W050
 70
     0
  3
____ . ____ . ____ . ____ . ____ . ____ . ____
 72
    65
 73
     4
 40
18.0
 49
12.0
 74
     0
 49
-1.5
 74
     0
 49
3.0
 74
     0
 49
-1.5
 74
     0
  0
LTYPE
  5
4D
330
5
100
AcDbSymbolTableRecord
100
AcDbLinetypeTableRecord
  2
AM_ISO09W050
 70
     0
  3
_____ . . _____ . . _____ . . ____ .. ____
 72
    65
 73
     6
 40
22.5
 49
12.0
 74
     0
 49
-1.5
 74
     0
 49
3.0
 74
     0
 49
-1.5
 74
     0
 49
3.0
 74
     0
 49
-1.5
 74
     0
  0
LTYPE
  5
4E
330
5
100
AcDbSymbolTableRecord
100
AcDbLinetypeTableRecord
  2
Amconstr
 70
     0
  3
_______________________
 72
    65
 73
     2
 40
9999.0
 49
9999.0
 74
     0
 49
0.0
 74
     0
  0
LTYPE
  5
4F
330
5
100
AcDbSymbolTableRecord
100
AcDbLinetypeTableRecord
  2
AM_ISO02W050x2
 70
     0
  3
 _ _ _ _ _ _ _ _ _ _ _ _
 72
    65
 73
     2
 40
3.75
 49
3.0
 74
     0
 49
-0.75
 74
     0
  0
LTYPE
  5
50
330
5
100
AcDbSymbolTableRecord
100
AcDbLinetypeTableRecord
  2
AM_ISO08W050x2
 70
     0
  3
__ . __ . __ . __ . __ . __
 72
    65
 73
     4
 40
9.0
 49
6.0
 74
     0
 49
-0.75
 74
     0
 49
1.5
 74
     0
 49
-0.75
 74
     0
  0
LTYPE
  5
53
330
5
100
AcDbSymbolTableRecord
100
AcDbLinetypeTableRecord
  2
Amzigzag
 70
     0
  3
/\/-/\/-/\/-/\/-/\/-/\/
 72
    65
 73
     2
 40
11.0001
 49
0.0001
 74
     4
 75
   135
340
52
 46
0.04
 50
0.0
 44
0.0
 45
0.0
 49
-11.0
 74
     0
  0
LTYPE
  5
328
330
5
100
AcDbSymbolTableRecord
100
AcDbLinetypeTableRecord
  2
ACJISTGB
 70
     0
  3
__ . . __ . .
 72
    65
 73
     6
 40
9.0
 49
4.0
 74
     0
 49
-1.0
 74
     0
 49
1.0
 74
     0
 49
-1.0
 74
     0
 49
1.0
 74
     0
 49
-1.0
 74
     0
  0
LTYPE
  5
329
330
5
100
AcDbSymbolTableRecord
100
AcDbLinetypeTableRecord
  2
ACJISTGL
 70
     0
  3
_ _ _ _ _
 72
    65
 73
     2
 40
3.0
 49
2.0
 74
     0
 49
-1.0
 74
     0
  0
LTYPE
  5
39F
330
5
100
AcDbSymbolTableRecord
100
AcDbLinetypeTableRecord
  2
CENTER
 70
     0
  3
____ _ ____ _ ____ _ ____ _ ____ _ ____ _ ____
 72
    65
 73
     4
 40
17.5
 49
13.0
 74
     0
 49
-1.5
 74
     0
 49
1.5
 74
     0
 49
-1.5
 74
     0
  0
LTYPE
  5
2C61
330
5
100
AcDbSymbolTableRecord
100
AcDbLinetypeTableRecord
  2
HIDDEN
 70
     0
  3
Hidden __ __ __ __ __ __ __ __ __ __ __ __ __ _
 72
    65
 73
     2
 40
9.524999999999999
 49
6.35
 74
     0
 49
-3.175
 74
     0
  0
LTYPE
  5
2C62
330
5
100
AcDbSymbolTableRecord
100
AcDbLinetypeTableRecord
  2
PHANTOM2
 70
     0
  3
Phantom (.5x) ___ _ _ ___ _ _ ___ _ _ ___ _ _
 72
    65
 73
     6
 40
31.75
 49
15.875
 74
     0
 49
-3.175
 74
     0
 49
3.175
 74
     0
 49
-3.175
 74
     0
 49
3.175
 74
     0
 49
-3.175
 74
     0
  0
ENDTAB
  0
TABLE
  2
LAYER
  5
2
102
{ACAD_XDICTIONARY
360
2E71
102
}
330
0
100
AcDbSymbolTable
 70
     6
  0
LAYER
  5
10
330
2
100
AcDbSymbolTableRecord
100
AcDbLayerTableRecord
  2
0
 70
     0
 62
     7
  6
Continuous
370
    -3
390
F
  0
LAYER
  5
32E
330
2
100
AcDbSymbolTableRecord
100
AcDbLayerTableRecord
  2
AM_0
 70
     0
 62
     7
  6
Continuous
370
    50
390
F
  0
LAYER
  5
52A
330
2
100
AcDbSymbolTableRecord
100
AcDbLayerTableRecord
  2
AM_5
 70
     0
 62
     3
  6
Continuous
370
    25
390
F
  0
LAYER
  5
52B
330
2
100
AcDbSymbolTableRecord
100
AcDbLayerTableRecord
  2
Defpoints
 70
     0
 62
     7
  6
Continuous
290
     0
370
    -3
390
F
  0
LAYER
  5
52E
330
2
100
AcDbSymbolTableRecord
100
AcDbLayerTableRecord
  2
AM_7
 70
     0
 62
     4
  6
AM_ISO08W050
370
    25
390
F
  0
LAYER
  5
52F
330
2
100
AcDbSymbolTableRecord
100
AcDbLayerTableRecord
  2
AM_6
 70
     0
 62
     2
  6
Continuous
370
    35
390
F
  0
ENDTAB
  0
TABLE
  2
STYLE
  5
3
330
0
100
AcDbSymbolTable
 70
     5
  0
STYLE
  5
11
330
3
100
AcDbSymbolTableRecord
100
AcDbTextStyleTableRecord
  2
STANDARD
 70
     0
 40
0.0
 41
1.0
 50
0.0
 71
     0
 42
2.5
  3
ISOCP.SHX
  4
EXTFONT.SHX
  0
STYLE
  5
52
330
3
100
AcDbSymbolTableRecord
100
AcDbTextStyleTableRecord
  2

 70
     1
 40
0.0
 41
1.0
 50
0.0
 71
     0
 42
2.5
  3
ltypeshp.shx
  4

  0
STYLE
  5
32F
330
3
100
AcDbSymbolTableRecord
100
AcDbTextStyleTableRecord
  2
ACJISTS
 70
     0
 40
1.0
 41
1.0
 50
0.0
 71
     0
 42
2.5
  3
isocp.shx
  4
bigfont.shx
  0
STYLE
  5
330
330
3
100
AcDbSymbolTableRecord
100
AcDbTextStyleTableRecord
  2
ACJISGDT
 70
     0
 40
0.0
 41
1.0
 50
0.0
 71
     0
 42
2.5
  3
amgdt.shx
  4

  0
STYLE
  5
2E70
330
3
100
AcDbSymbolTableRecord
100
AcDbTextStyleTableRecord
  2
ACISOTS
 70
     0
 40
1.0
 41
1.0
 50
0.0
 71
     0
 42
1.0
  3
isocp.shx
  4
extfont.shx
  0
ENDTAB
  0
TABLE
  2
VIEW
  5
6
330
0
100
AcDbSymbolTable
 70
     6
  0
VIEW
  5
35B
330
6
100
AcDbSymbolTableRecord
100
AcDbViewTableRecord
  2
AM_VIEW1
 70
     0
 40
148.5
 10
114.5810387984981
 20
222.75
 41
229.1620775969963
 11
0.0
 21
0.0
 31
1.0
 12
0.0
 22
0.0
 32
0.0
 42
50.0
 43
0.0
 44
0.0
 50
0.0
 71
     0
281
     0
 72
     0
  0
VIEW
  5
35C
330
6
100
AcDbSymbolTableRecord
100
AcDbViewTableRecord
  2
AM_VIEW2
 70
     0
 40
148.5
 10
305.4189612015019
 20
222.75
 41
229.1620775969963
 11
0.0
 21
0.0
 31
1.0
 12
0.0
 22
0.0
 32
0.0
 42
50.0
 43
0.0
 44
0.0
 50
0.0
 71
     0
281
     0
 72
     0
  0
VIEW
  5
35D
330
6
100
AcDbSymbolTableRecord
100
AcDbViewTableRecord
  2
AM_VIEW3
 70
     0
 40
148.5
 10
114.5810387984981
 20
74.25
 41
229.1620775969963
 11
0.0
 21
0.0
 31
1.0
 12
0.0
 22
0.0
 32
0.0
 42
50.0
 43
0.0
 44
0.0
 50
0.0
 71
     0
281
     0
 72
     0
  0
VIEW
  5
35E
330
6
100
AcDbSymbolTableRecord
100
AcDbViewTableRecord
  2
AM_VIEW4
 70
     0
 40
148.5
 10
305.4189612015019
 20
74.25
 41
229.1620775969963
 11
0.0
 21
0.0
 31
1.0
 12
0.0
 22
0.0
 32
0.0
 42
50.0
 43
0.0
 44
0.0
 50
0.0
 71
     0
281
     0
 72
     0
  0
VIEW
  5
35F
330
6
100
AcDbSymbolTableRecord
100
AcDbViewTableRecord
  2
AM_VIEW5
 70
     0
 40
148.5
 10
210.0
 20
148.5
 41
229.1620775969963
 11
0.0
 21
0.0
 31
1.0
 12
0.0
 22
0.0
 32
0.0
 42
50.0
 43
0.0
 44
0.0
 50
0.0
 71
     0
281
     0
 72
     0
  0
VIEW
  5
360
330
6
100
AcDbSymbolTableRecord
100
AcDbViewTableRecord
  2
AM_VIEW6
 70
     0
 40
296.99703
 10
210.0
 20
148.5
 41
458.3195719524406
 11
0.0
 21
0.0
 31
1.0
 12
0.0
 22
0.0
 32
0.0
 42
50.0
 43
0.0
 44
0.0
 50
0.0
 71
     0
281
     0
 72
     0
  0
ENDTAB
  0
TABLE
  2
UCS
  5
7
330
0
100
AcDbSymbolTable
 70
     0
  0
ENDTAB
  0
TABLE
  2
APPID
  5
9
330
0
100
AcDbSymbolTable
 70
    37
  0
APPID
  5
12
330
9
100
AcDbSymbolTableRecord
100
AcDbRegAppTableRecord
  2
ACAD
 70
     0
  0
APPID
  5
30
330
9
100
AcDbSymbolTableRecord
100
AcDbRegAppTableRecord
  2
MCAD_NO_VIS
 70
     0
  0
APPID
  5
31
330
9
100
AcDbSymbolTableRecord
100
AcDbRegAppTableRecord
  2
ACAD_TEMP_GRAPHIC
 70
     0
  0
APPID
  5
338
330
9
100
AcDbSymbolTableRecord
100
AcDbRegAppTableRecord
  2
GENIUS_GENREC_14
 70
     0
  0
APPID
  5
339
330
9
100
AcDbSymbolTableRecord
100
AcDbRegAppTableRecord
  2
GENIUS_GENODEF_13
 70
     0
  0
APPID
  5
33A
330
9
100
AcDbSymbolTableRecord
100
AcDbRegAppTableRecord
  2
GENIUS_GENOBJ-N-REC_13
 70
     0
  0
APPID
  5
33B
330
9
100
AcDbSymbolTableRecord
100
AcDbRegAppTableRecord
  2
GENIUS_GENOBJ-N-HTC_13
 70
     0
  0
APPID
  5
33C
330
9
100
AcDbSymbolTableRecord
100
AcDbRegAppTableRecord
  2
GENIUS_GENHATCH_13
 70
     0
  0
APPID
  5
3B5
330
9
100
AcDbSymbolTableRecord
100
AcDbRegAppTableRecord
  2
GENIUS_GENCFG_13
 70
     0
  0
APPID
  5
3B6
330
9
100
AcDbSymbolTableRecord
100
AcDbRegAppTableRecord
  2
GENIUS_GENCFG0_13
 70
     0
  0
APPID
  5
3B7
330
9
100
AcDbSymbolTableRecord
100
AcDbRegAppTableRecord
  2
GENIUS_GENCFG1_13
 70
     0
  0
APPID
  5
3B8
330
9
100
AcDbSymbolTableRecord
100
AcDbRegAppTableRecord
  2
GENIUS_GENCFG2_13
 70
     0
  0
APPID
  5
3B9
330
9
100
AcDbSymbolTableRecord
100
AcDbRegAppTableRecord
  2
GENIUS_GENCFG3_13
 70
     0
  0
APPID
  5
3BA
330
9
100
AcDbSymbolTableRecord
100
AcDbRegAppTableRecord
  2
GENIUS_GENCFG4_13
 70
     0
  0
APPID
  5
3BB
330
9
100
AcDbSymbolTableRecord
100
AcDbRegAppTableRecord
  2
GENIUS_GENBLLY_14
 70
     0
  0
APPID
  5
3BC
330
9
100
AcDbSymbolTableRecord
100
AcDbRegAppTableRecord
  2
GENIUS_GENOBJ-N-CEN_13
 70
     0
  0
APPID
  5
3C9
330
9
100
AcDbSymbolTableRecord
100
AcDbRegAppTableRecord
  2
GENIUS_GENTRA_14
 70
     0
  0
APPID
  5
3D3
330
9
100
AcDbSymbolTableRecord
100
AcDbRegAppTableRecord
  2
GENIUS_GENOBJ-N-TIT_13
 70
     0
  0
APPID
  5
3D4
330
9
100
AcDbSymbolTableRecord
100
AcDbRegAppTableRecord
  2
GENIUS_GENTITLE_13
 70
     0
  0
APPID
  5
3D5
330
9
100
AcDbSymbolTableRecord
100
AcDbRegAppTableRecord
  2
GENIUS_GENOENT_13
 70
     0
  0
APPID
  5
3D6
330
9
100
AcDbSymbolTableRecord
100
AcDbRegAppTableRecord
  2
GENIUS_GENOREF_13
 70
     0
  0
APPID
  5
3D7
330
9
100
AcDbSymbolTableRecord
100
AcDbRegAppTableRecord
  2
GENIUS_GENOLIS_13
 70
     0
  0
APPID
  5
3D8
330
9
100
AcDbSymbolTableRecord
100
AcDbRegAppTableRecord
  2
GENIUS_GENZVEED_13
 70
     0
  0
APPID
  5
3D9
330
9
100
AcDbSymbolTableRecord
100
AcDbRegAppTableRecord
  2
GENIUS_GENSCREG_15
 70
     0
  0
APPID
  5
3DA
330
9
100
AcDbSymbolTableRecord
100
AcDbRegAppTableRecord
  2
GENIUS_GENOBJ-N-SDF_13
 70
     0
  0
APPID
  5
534
330
9
100
AcDbSymbolTableRecord
100
AcDbRegAppTableRecord
  2
GENIUS_GENOBJ-N-RSBK_13
 70
     0
  0
APPID
  5
535
330
9
100
AcDbSymbolTableRecord
100
AcDbRegAppTableRecord
  2
GENIUS_GENOBJ-N-LIB_13
 70
     0
  0
APPID
  5
536
330
9
100
AcDbSymbolTableRecord
100
AcDbRegAppTableRecord
  2
GENIUS_GENSCALE_13
 70
     0
  0
APPID
  5
AA3
330
9
100
AcDbSymbolTableRecord
100
AcDbRegAppTableRecord
  2
BASE_TYPE
 70
     0
  0
APPID
  5
AB2
330
9
100
AcDbSymbolTableRecord
100
AcDbRegAppTableRecord
  2
GENIUS_GENOBJ-N-FIL_13
 70
     0
  0
APPID
  5
BDE
330
9
100
AcDbSymbolTableRecord
100
AcDbRegAppTableRecord
  2
GENIUS_GENDTOL_13
 70
     0
  0
APPID
  5
BDF
330
9
100
AcDbSymbolTableRecord
100
AcDbRegAppTableRecord
  2
GENIUS_GENSCREG_13
 70
     0
  0
APPID
  5
2C64
330
9
100
AcDbSymbolTableRecord
100
AcDbRegAppTableRecord
  2
AD_DRAW
 70
     0
  0
APPID
  5
2C67
330
9
100
AcDbSymbolTableRecord
100
AcDbRegAppTableRecord
  2
ACATTRIBSERVICES
 70
     0
  0
APPID
  5
2C85
330
9
100
AcDbSymbolTableRecord
100
AcDbRegAppTableRecord
  2
DESIGNERASSEMBLIES
 70
     0
  0
APPID
  5
2C9A
330
9
100
AcDbSymbolTableRecord
100
AcDbRegAppTableRecord
  2
ACADM_DIM_EDIT
 70
     0
  0
APPID
  5
2C9B
330
9
100
AcDbSymbolTableRecord
100
AcDbRegAppTableRecord
  2
AMDT_DM_ADJ
 70
     0
  0
ENDTAB
  0
TABLE
  2
DIMSTYLE
  5
A
330
0
100
AcDbSymbolTable
 70
    11
100
AcDbDimStyleTable
  0
DIMSTYLE
105
27
330
A
100
AcDbSymbolTableRecord
100
AcDbDimStyleTableRecord
  2
ISO-25
 70
     0
 41
2.5
 42
0.625
 43
3.75
 44
1.25
 73
     0
 74
     0
 77
     1
 78
     8
140
2.5
141
2.5
143
0.03937007874016
147
0.625
171
     3
172
     1
271
     2
272
     2
274
     3
283
     0
284
     8
340
11
  0
DIMSTYLE
105
331
330
A
100
AcDbSymbolTableRecord
100
AcDbDimStyleTableRecord
  2
AM_JIS
 70
     0
  4
"
 41
2.5
 42
0.0
 43
10.0
 44
1.0
 47
0.1
 48
0.1000000001
 73
     0
 74
     0
 77
     3
 78
     1
 79
     2
140
3.8
141
0.0
143
0.0393701
146
0.71
147
1.5
172
     1
176
   256
177
   256
178
     2
179
     1
271
     2
272
     2
275
     1
283
     0
284
     8
340
11
341
59
342
59
371
    -1
372
    -1
  0
DIMSTYLE
105
332
102
{ACAD_REACTORS
330
297F
330
2A06
102
}
330
A
100
AcDbSymbolTableRecord
100
AcDbDimStyleTableRecord
  2
AM_JIS$3
 70
     0
  4
"
 41
2.5
 42
0.0
 43
10.0
 44
1.0
 47
0.1
 48
0.1000000001
 73
     0
 77
     3
 78
     1
 79
     2
140
3.8
141
0.0
143
0.0393701
146
0.71
147
1.5
172
     1
176
   256
177
   256
178
     2
179
     1
271
     2
272
     2
275
     1
283
     0
284
     8
288
     1
289
     0
340
11
341
59
342
59
371
    -1
372
    -1
  0
DIMSTYLE
105
333
330
A
100
AcDbSymbolTableRecord
100
AcDbDimStyleTableRecord
  2
AM_JIS$4
 70
     0
  4
"
 41
2.5
 42
0.0
 43
10.0
 44
1.0
 47
0.1
 48
0.1000000001
 73
     0
 77
     3
 78
     1
 79
     2
140
3.8
141
0.0
143
0.0393701
146
0.71
147
1.5
172
     1
176
   256
177
   256
178
     2
179
     1
271
     2
272
     2
275
     1
283
     0
284
     8
288
     1
289
     0
340
11
341
59
342
59
371
    -1
372
    -1
  0
DIMSTYLE
105
334
330
A
100
AcDbSymbolTableRecord
100
AcDbDimStyleTableRecord
  2
AM_JIS$6
 70
     0
  4
"
 41
2.5
 42
0.0
 43
10.0
 44
1.0
 47
0.1
 48
0.1000000001
 73
     0
 74
     0
 78
     1
 79
     2
140
3.8
141
0.0
143
0.0393701
146
0.71
147
1.5
172
     1
176
   256
177
   256
178
     2
179
     1
271
     2
272
     2
275
     1
283
     0
284
     8
340
11
341
59
342
59
371
    -1
372
    -1
  0
DIMSTYLE
105
335
330
A
100
AcDbSymbolTableRecord
100
AcDbDimStyleTableRecord
  2
AM_JIS$7
 70
     0
  4
"
 41
2.5
 42
0.0
 43
10.0
 44
1.0
 47
0.1
 48
0.1000000001
 73
     0
 74
     0
 77
     3
 78
     1
 79
     2
140
5.0
141
0.0
143
0.0393701
146
0.71
147
1.5
172
     1
176
   256
177
   256
178
     2
179
     1
271
     2
272
     2
275
     1
283
     0
284
     8
340
11
341
59
342
59
371
    -1
372
    -1
  0
DIMSTYLE
105
336
330
A
100
AcDbSymbolTableRecord
100
AcDbDimStyleTableRecord
  2
AM_JIS$SF
 70
     0
  4
"
 41
2.5
 42
1.0
 43
10.0
 44
1.0
 47
0.1
 48
0.1
 73
     0
 74
     0
 75
     1
 76
     1
 77
     3
 78
     8
 79
     2
140
3.5
141
0.0
143
0.0393701
146
0.71
147
1.5
176
   256
177
   256
178
     2
271
     2
272
     3
274
     4
340
11
341
59
342
59
343
59
344
59
371
    -1
372
    -1
  0
DIMSTYLE
105
337
330
A
100
AcDbSymbolTableRecord
100
AcDbDimStyleTableRecord
  2
AM_JIS$SH
 70
     0
  4
"
 41
2.5
 42
1.0
 43
10.0
 44
1.0
 47
0.1
 48
0.1
 73
     0
 74
     0
 75
     1
 76
     1
 77
     3
 78
     8
 79
     2
140
3.5
141
0.0
143
0.0393701
144
2.0
146
0.71
147
1.5
173
     1
176
   256
177
   256
178
     2
271
     2
272
     3
274
     4
340
11
341
59
342
59
343
5F
344
59
371
    -1
372
    -1
  0
DIMSTYLE
105
3AD
330
A
100
AcDbSymbolTableRecord
100
AcDbDimStyleTableRecord
  2
STANDARD
 70
     0
340
11
  0
DIMSTYLE
105
532
102
{ACAD_REACTORS
330
2887
330
2983
330
29A4
330
2A0A
330
2DFE
102
}
330
A
100
AcDbSymbolTableRecord
100
AcDbDimStyleTableRecord
  2
AM_JIS$0
 70
     0
  4
"
 41
2.5
 42
0.0
 43
10.0
 44
1.0
 47
0.1
 48
0.1000000001
 73
     0
 74
     0
 77
     3
 78
     1
 79
     2
140
3.8
141
0.0
143
0.0393701
146
0.71
147
1.5
172
     1
176
     3
177
     3
178
     2
271
     3
272
     3
275
     1
283
     0
284
     8
289
     0
340
11
341
59
342
59
371
    13
372
    13
  0
DIMSTYLE
105
533
102
{ACAD_REACTORS
330
2981
330
2DA6
102
}
330
A
100
AcDbSymbolTableRecord
100
AcDbDimStyleTableRecord
  2
AM_JIS$2
 70
     0
  4
"
 41
2.5
 42
0.0
 43
10.0
 44
1.0
 47
0.1
 48
0.1000000001
 73
     0
 74
     0
 77
     3
 78
     1
 79
     2
140
3.8
141
0.0
143
0.0393701
146
0.71
147
1.5
172
     1
176
     3
177
     3
178
     2
271
     3
272
     3
275
     1
283
     0
284
     8
289
     0
340
11
341
59
342
59
371
    13
372
    13
  0
ENDTAB
  0
TABLE
  2
BLOCK_RECORD
  5
1
330
0
100
AcDbSymbolTable
 70
    13
  0
BLOCK_RECORD
  5
1F
102
{ACAD_XDICTIONARY
360
3DB
102
}
330
1
100
AcDbSymbolTableRecord
100
AcDbBlockTableRecord
  2
*Model_Space
340
22
  0
BLOCK_RECORD
  5
1B
330
1
100
AcDbSymbolTableRecord
100
AcDbBlockTableRecord
  2
*Paper_Space
340
1E
  0
BLOCK_RECORD
  5
23
330
1
100
AcDbSymbolTableRecord
100
AcDbBlockTableRecord
  2
*Paper_Space0
340
26
  0
BLOCK_RECORD
  5
59
330
1
100
AcDbSymbolTableRecord
100
AcDbBlockTableRecord
  2
_Open30
340
0
102
{BLKREFS
331
2F88
331
2F89
331
2F93
331
2F94
331
2F9C
331
2F9D
331
2FA7
331
2FA8
331
2FB1
331
2FB2
331
2FBC
331
2FBD
331
2FC3
331
2FC4
331
2FCC
331
2FCD
331
2FD9
331
2FDA
102
}
  0
BLOCK_RECORD
  5
5F
330
1
100
AcDbSymbolTableRecord
100
AcDbBlockTableRecord
  2
GENAXEH
340
0
  0
BLOCK_RECORD
  5
2A2F
330
1
100
AcDbSymbolTableRecord
100
AcDbBlockTableRecord
  2
*D3
340
0
  0
BLOCK_RECORD
  5
2A7F
330
1
100
AcDbSymbolTableRecord
100
AcDbBlockTableRecord
  2
*D4
340
0
  0
BLOCK_RECORD
  5
2A8B
330
1
100
AcDbSymbolTableRecord
100
AcDbBlockTableRecord
  2
*D5
340
0
  0
BLOCK_RECORD
  5
2A9B
330
1
100
AcDbSymbolTableRecord
100
AcDbBlockTableRecord
  2
*D6
340
0
  0
BLOCK_RECORD
  5
2AD1
330
1
100
AcDbSymbolTableRecord
100
AcDbBlockTableRecord
  2
*D7
340
0
  0
BLOCK_RECORD
  5
2ADF
330
1
100
AcDbSymbolTableRecord
100
AcDbBlockTableRecord
  2
*D8
340
0
  0
BLOCK_RECORD
  5
2B01
330
1
100
AcDbSymbolTableRecord
100
AcDbBlockTableRecord
  2
*D9
340
0
  0
BLOCK_RECORD
  5
2C7C
330
1
100
AcDbSymbolTableRecord
100
AcDbBlockTableRecord
  2
*U10
340
0
  0
BLOCK_RECORD
  5
2DA7
330
1
100
AcDbSymbolTableRecord
100
AcDbBlockTableRecord
  2
*D11
340
0
  0
BLOCK_RECORD
  5
2DFF
330
1
100
AcDbSymbolTableRecord
100
AcDbBlockTableRecord
  2
*D12
340
0
  0
ENDTAB
  0
ENDSEC
  0
SECTION
  2
BLOCKS
  0
BLOCK
  5
20
330
1F
100
AcDbEntity
  8
0
100
AcDbBlockBegin
  2
*Model_Space
 70
     0
 71
     0
 10
0.0
 20
0.0
 30
0.0
  3
*Model_Space
  1

  0
ENDBLK
  5
21
330
1F
100
AcDbEntity
  8
0
100
AcDbBlockEnd
  0
BLOCK
  5
1C
330
1B
100
AcDbEntity
 67
     1
  8
0
100
AcDbBlockBegin
  2
*Paper_Space
 70
     0
 71
     0
 10
0.0
 20
0.0
 30
0.0
  3
*Paper_Space
  1

  0
ENDBLK
  5
1D
330
1B
100
AcDbEntity
 67
     1
  8
0
100
AcDbBlockEnd
  0
BLOCK
  5
24
330
23
100
AcDbEntity
  8
0
100
AcDbBlockBegin
  2
*Paper_Space0
 70
     0
 71
     0
 10
0.0
 20
0.0
 30
0.0
  3
*Paper_Space0
  1

  0
ENDBLK
  5
25
330
23
100
AcDbEntity
  8
0
100
AcDbBlockEnd
  0
BLOCK
  5
5D
330
59
100
AcDbEntity
  8
0
100
AcDbBlockBegin
  2
_Open30
 70
     0
 71
     0
 10
0.0
 20
0.0
 30
0.0
  3
_Open30
  1

  0
LINE
  5
5A
330
59
100
AcDbEntity
  8
0
 62
     0
370
    -2
100
AcDbLine
 10
-1.0
 20
0.26794919
 30
0.0
 11
0.0
 21
0.0
 31
0.0
  0
LINE
  5
5B
330
59
100
AcDbEntity
  8
0
 62
     0
370
    -2
100
AcDbLine
 10
0.0
 20
0.0
 30
0.0
 11
-1.0
 21
-0.26794919
 31
0.0
  0
LINE
  5
5C
330
59
100
AcDbEntity
  8
0
 62
     0
370
    -2
100
AcDbLine
 10
0.0
 20
0.0
 30
0.0
 11
-1.0
 21
0.0
 31
0.0
  0
ENDBLK
  5
5E
330
59
100
AcDbEntity
  8
0
100
AcDbBlockEnd
  0
BLOCK
  5
61
330
5F
100
AcDbEntity
  8
0
100
AcDbBlockBegin
  2
GENAXEH
 70
     0
 71
     0
 10
0.0
 20
0.0
 30
0.0
  3
GENAXEH
  1

  0
LINE
  5
60
330
5F
100
AcDbEntity
  8
0
100
AcDbLine
 10
-1.0
 20
0.0
 30
0.0
 11
1.0
 21
0.0
 31
0.0
  0
ENDBLK
  5
62
330
5F
100
AcDbEntity
  8
0
100
AcDbBlockEnd
  0
BLOCK
  5
2A39
330
2A2F
100
AcDbEntity
  8
0
100
AcDbBlockBegin
  2
*D3
 70
     1
 71
     0
 10
0.0
 20
0.0
 30
0.0
  3
*D3
  1

  0
LINE
  5
2F85
330
2A2F
100
AcDbEntity
  8
AM_5
 62
     3
370
    13
100
AcDbLine
 10
0.0
 20
-4.15033830589266
 30
0.0
 11
-0.0000000000000018
 21
-34.23007617527637
 31
0.0
  0
LINE
  5
2F86
330
2A2F
100
AcDbEntity
  8
AM_5
 62
     3
370
    13
100
AcDbLine
 10
250.0
 20
4.500000000000028
 30
0.0
 11
250.0
 21
-34.23007617527637
 31
0.0
  0
LINE
  5
2F87
330
2A2F
100
AcDbEntity
  8
AM_5
 62
     3
370
    13
100
AcDbLine
 10
2.499999999999998
 20
-33.23007617527637
 30
0.0
 11
247.5
 21
-33.23007617527637
 31
0.0
  0
INSERT
  5
2F88
330
2A2F
100
AcDbEntity
  8
AM_5
 62
     3
370
    13
100
AcDbBlockReference
  2
_Open30
 10
-0.0000000000000018
 20
-33.23007617527637
 30
0.0
 41
2.5
 42
2.5
 43
2.5
 50
180.0
  0
INSERT
  5
2F89
330
2A2F
100
AcDbEntity
  8
AM_5
 62
     3
370
    13
100
AcDbBlockReference
  2
_Open30
 10
250.0
 20
-33.23007617527637
 30
0.0
 41
2.5
 42
2.5
 43
2.5
  0
MTEXT
  5
2F8A
330
2A2F
100
AcDbEntity
  8
AM_5
 62
     2
100
AcDbMText
 10
122.1592010106189
 20
-29.82970215952834
 30
0.0
 40
3.8
 41
0.0
 71
     5
 72
     1
  1
250
 73
     1
 44
1.0
  0
POINT
  5
2F8B
330
2A2F
100
AcDbEntity
  8
Defpoints
 62
     0
100
AcDbPoint
 10
0.0
 20
-4.15033830589266
 30
0.0
  0
POINT
  5
2F8C
330
2A2F
100
AcDbEntity
  8
Defpoints
 62
     0
100
AcDbPoint
 10
250.0
 20
4.500000000000028
 30
0.0
  0
POINT
  5
2F8D
330
2A2F
100
AcDbEntity
  8
Defpoints
 62
     0
100
AcDbPoint
 10
250.0
 20
-33.23007617527637
 30
0.0
  0
ENDBLK
  5
2A3A
330
2A2F
100
AcDbEntity
  8
0
100
AcDbBlockEnd
  0
BLOCK
  5
2A89
330
2A7F
100
AcDbEntity
  8
0
100
AcDbBlockBegin
  2
*D4
 70
     1
 71
     0
 10
0.0
 20
0.0
 30
0.0
  3
*D4
  1

  0
LINE
  5
2F8E
330
2A7F
100
AcDbEntity
  8
AM_5
100
AcDbLine
 10
-117.5623646698163
 20
31.18774471494869
 30
0.0
 11
-82.65496351611435
 21
31.18774471494869
 31
0.0
  0
LINE
  5
2F8F
330
2A7F
100
AcDbEntity
  8
AM_5
100
AcDbLine
 10
-82.65496351611435
 20
31.18774471494869
 30
0.0
 11
-73.91016504477277
 21
22.91102823584039
 31
0.0
  0
LINE
  5
2F90
330
2A7F
100
AcDbEntity
  8
AM_5
100
AcDbLine
 10
-52.1218473750004
 20
2.288971764162159
 30
0.0
 11
-50.3061542358527
 21
0.5704670581889744
 31
0.0
  0
MTEXT
  5
2F91
330
2A7F
100
AcDbEntity
  8
AM_5
 62
     2
100
AcDbMText
 10
-101.9986640929654
 20
34.58811873069674
 30
0.0
 40
3.8
 41
0.0
 71
     5
 72
     1
  1
最小加工径\U+220525
 73
     1
 44
1.0
  0
LINE
  5
2F92
330
2A7F
100
AcDbEntity
  8
AM_5
100
AcDbLine
 10
-53.9375405141481
 20
4.007476470135345
 30
0.0
 11
-72.09447190562507
 21
21.19252352986721
 31
0.0
  0
INSERT
  5
2F93
330
2A7F
100
AcDbEntity
  8
AM_5
100
AcDbBlockReference
  2
_Open30
 10
-53.9375405141481
 20
4.007476470135345
 30
0.0
 41
2.5
 42
2.5
 43
2.5
 50
136.5752044039733
  0
INSERT
  5
2F94
330
2A7F
100
AcDbEntity
  8
AM_5
100
AcDbBlockReference
  2
_Open30
 10
-72.09447190562507
 20
21.19252352986721
 30
0.0
 41
2.5
 42
2.5
 43
2.5
 50
316.5752044039733
  0
POINT
  5
2F95
330
2A7F
100
AcDbEntity
  8
Defpoints
 62
     0
100
AcDbPoint
 10
-72.09447190562507
 20
21.19252352986721
 30
0.0
  0
POINT
  5
2F96
330
2A7F
100
AcDbEntity
  8
Defpoints
 62
     0
100
AcDbPoint
 10
-53.9375405141481
 20
4.007476470135345
 30
0.0
  0
ENDBLK
  5
2A8A
330
2A7F
100
AcDbEntity
  8
0
100
AcDbBlockEnd
  0
BLOCK
  5
2A99
330
2A8B
100
AcDbEntity
  8
0
100
AcDbBlockBegin
  2
*D5
 70
     1
 71
     0
 10
0.0
 20
0.0
 30
0.0
  3
*D5
  1

  0
LINE
  5
2F97
330
2A8B
100
AcDbEntity
  8
AM_5
 62
     3
370
    13
100
AcDbLine
 10
-63.01600620988669
 20
0.0997580621934411
 30
0.0
 11
-64.80034893911046
 21
-16.87712897480837
 31
0.0
  0
LINE
  5
2F98
330
2A8B
100
AcDbEntity
  8
AM_5
 62
     3
370
    13
100
AcDbLine
 10
-63.01600620988668
 20
-3.07565964247712
 30
0.0
 11
-63.01600620988669
 21
-16.97064241472724
 31
0.0
  0
ARC
  5
2F99
330
2A8B
100
AcDbEntity
  8
AM_5
 62
     3
370
    13
100
AcDbCircle
 10
-63.01600620988669
 20
0.0997580621934411
 30
0.0
 40
16.07040047692068
100
AcDbArc
 50
246.1554813766559
 51
255.0777406883147
  0
ARC
  5
2F9A
330
2A8B
100
AcDbEntity
  8
AM_5
 62
     3
370
    13
100
AcDbCircle
 10
-63.01600620988669
 20
0.0997580621934411
 30
0.0
 40
16.07040047692068
100
AcDbArc
 50
278.9222593116588
 51
287.8445186233176
  0
ARC
  5
2F9B
330
2A8B
100
AcDbEntity
  8
AM_5
 62
     3
370
    13
100
AcDbCircle
 10
-63.01600620988669
 20
0.0997580621934411
 30
0.0
 40
16.07040047692068
100
AcDbArc
 50
263.9999999999736
 51
270.0
  0
INSERT
  5
2F9C
330
2A8B
100
AcDbEntity
  8
AM_5
 62
     3
370
    13
100
AcDbBlockReference
  2
_Open30
 10
-64.69582047584235
 20
-15.88260707944015
 30
0.0
 41
2.5
 42
2.5
 43
2.5
 50
349.5388703441441
  0
INSERT
  5
2F9D
330
2A8B
100
AcDbEntity
  8
AM_5
 62
     3
370
    13
100
AcDbBlockReference
  2
_Open30
 10
-63.01600620988668
 20
-15.97064241472724
 30
0.0
 41
2.5
 42
2.5
 43
2.5
 50
184.4611296558294
  0
MTEXT
  5
2F9E
330
2A8B
100
AcDbEntity
  8
AM_5
 62
     2
100
AcDbMText
 10
-56.01391601471819
 20
-12.06164980546226
 30
0.0
 40
3.8
 41
0.0
 71
     5
 72
     1
  1
-6°
 73
     1
 44
1.0
  0
POINT
  5
2F9F
330
2A8B
100
AcDbEntity
  8
Defpoints
 62
     0
100
AcDbPoint
 10
-64.13702067881751
 20
-15.93149572686062
 30
0.0
  0
POINT
  5
2FA0
330
2A8B
100
AcDbEntity
  8
Defpoints
 62
     0
100
AcDbPoint
 10
-62.9280057204605
 20
0.9370267907403083
 30
0.0
  0
POINT
  5
2FA1
330
2A8B
100
AcDbEntity
  8
Defpoints
 62
     0
100
AcDbPoint
 10
-63.01600620988668
 20
-3.07565964247712
 30
0.0
  0
POINT
  5
2FA2
330
2A8B
100
AcDbEntity
  8
Defpoints
 62
     0
100
AcDbPoint
 10
-63.01600620988669
 20
29.47866351642748
 30
0.0
  0
POINT
  5
2FA3
330
2A8B
100
AcDbEntity
  8
Defpoints
 62
     0
100
AcDbPoint
 10
-61.87462916712465
 20
10.95923522666596
 30
0.0
  0
ENDBLK
  5
2A9A
330
2A8B
100
AcDbEntity
  8
0
100
AcDbBlockEnd
  0
BLOCK
  5
2AA7
330
2A9B
100
AcDbEntity
  8
0
100
AcDbBlockBegin
  2
*D6
 70
     1
 71
     0
 10
0.0
 20
0.0
 30
0.0
  3
*D6
  1

  0
LINE
  5
2FA4
330
2A9B
100
AcDbEntity
  8
AM_5
 62
     3
370
    13
100
AcDbLine
 10
-4.516423715498405
 20
13.00000000000102
 30
0.0
 11
-15.08289312109175
 21
13.00000000000103
 31
0.0
  0
LINE
  5
2FA5
330
2A9B
100
AcDbEntity
  8
AM_5
 62
     3
370
    13
100
AcDbLine
 10
-6.03951167695638
 20
0.0
 30
0.0
 11
-15.08289312109176
 21
0.0000000000000026
 31
0.0
  0
LINE
  5
2FA6
330
2A9B
100
AcDbEntity
  8
AM_5
 62
     3
370
    13
100
AcDbLine
 10
-14.08289312109176
 20
10.50000000000103
 30
0.0
 11
-14.08289312109176
 21
2.500000000000002
 31
0.0
  0
INSERT
  5
2FA7
330
2A9B
100
AcDbEntity
  8
AM_5
 62
     3
370
    13
100
AcDbBlockReference
  2
_Open30
 10
-14.08289312109175
 20
13.00000000000103
 30
0.0
 41
2.5
 42
2.5
 43
2.5
 50
90.0
  0
INSERT
  5
2FA8
330
2A9B
100
AcDbEntity
  8
AM_5
 62
     3
370
    13
100
AcDbBlockReference
  2
_Open30
 10
-14.08289312109176
 20
0.0000000000000023
 30
0.0
 41
2.5
 42
2.5
 43
2.5
 50
270.0
  0
MTEXT
  5
2FA9
330
2A9B
100
AcDbEntity
  8
AM_5
 62
     2
100
AcDbMText
 10
-17.48289312109176
 20
6.603560422055381
 30
0.0
 40
3.8
 41
0.0
 71
     5
 72
     1
  1
13
 11
6.123031769111886E-17
 21
1.0
 31
0.0
 73
     1
 44
1.0
  0
POINT
  5
2FAA
330
2A9B
100
AcDbEntity
  8
Defpoints
 62
     0
100
AcDbPoint
 10
-4.516423715498405
 20
13.00000000000102
 30
0.0
  0
POINT
  5
2FAB
330
2A9B
100
AcDbEntity
  8
Defpoints
 62
     0
100
AcDbPoint
 10
-6.03951167695638
 20
0.0
 30
0.0
  0
POINT
  5
2FAC
330
2A9B
100
AcDbEntity
  8
Defpoints
 62
     0
100
AcDbPoint
 10
-14.08289312109176
 20
0.0000000000000023
 30
0.0
  0
ENDBLK
  5
2AA8
330
2A9B
100
AcDbEntity
  8
0
100
AcDbBlockEnd
  0
BLOCK
  5
2ADD
330
2AD1
100
AcDbEntity
  8
0
100
AcDbBlockBegin
  2
*D7
 70
     1
 71
     0
 10
0.0
 20
0.0
 30
0.0
  3
*D7
  1

  0
LINE
  5
2FAD
330
2AD1
100
AcDbEntity
  8
AM_5
 62
     3
370
    13
100
AcDbLine
 10
0.7999974762531394
 20
0.0
 30
0.0
 11
35.32173317577824
 21
-0.0000000000000098
 31
0.0
  0
LINE
  5
2FAE
330
2AD1
100
AcDbEntity
  8
AM_5
 62
     3
370
    13
100
AcDbLine
 10
34.32173317577824
 20
6.999999999999995
 30
0.0
 11
34.32173317577824
 21
9.499999999999996
 31
0.0
  0
LINE
  5
2FAF
330
2AD1
100
AcDbEntity
  8
AM_5
 62
     3
370
    13
100
AcDbLine
 10
34.32173317577824
 20
-2.500000000000009
 30
0.0
 11
34.32173317577824
 21
-13.85740115370179
 31
0.0
  0
LINE
  5
2FB0
330
2AD1
100
AcDbEntity
  8
AM_5
 62
     3
370
    13
100
AcDbLine
 10
34.32173317577824
 20
4.499999999999995
 30
0.0
 11
34.32173317577824
 21
-0.0000000000000095
 31
0.0
  0
INSERT
  5
2FB1
330
2AD1
100
AcDbEntity
  8
AM_5
 62
     3
370
    13
100
AcDbBlockReference
  2
_Open30
 10
34.32173317577824
 20
4.499999999999995
 30
0.0
 41
2.5
 42
2.5
 43
2.5
 50
270.0
  0
INSERT
  5
2FB2
330
2AD1
100
AcDbEntity
  8
AM_5
 62
     3
370
    13
100
AcDbBlockReference
  2
_Open30
 10
34.32173317577824
 20
-0.0000000000000095
 30
0.0
 41
2.5
 42
2.5
 43
2.5
 50
90.0
  0
MTEXT
  5
2FB3
330
2AD1
100
AcDbEntity
  8
AM_5
 62
     2
100
AcDbMText
 10
30.92173317577824
 20
-9.428700576850893
 30
0.0
 40
3.8
 41
0.0
 71
     5
 72
     1
  1
4.5
 11
6.123031769111886E-17
 21
1.0
 31
0.0
 73
     1
 44
1.0
  0
POINT
  5
2FB4
330
2AD1
100
AcDbEntity
  8
Defpoints
 62
     0
100
AcDbPoint
 10
0.7999974762531394
 20
0.0
 30
0.0
  0
POINT
  5
2FB5
330
2AD1
100
AcDbEntity
  8
Defpoints
 62
     0
100
AcDbPoint
 10
16.56319292833754
 20
4.5
 30
0.0
  0
POINT
  5
2FB6
330
2AD1
100
AcDbEntity
  8
Defpoints
 62
     0
100
AcDbPoint
 10
34.32173317577824
 20
4.499999999999995
 30
0.0
  0
ENDBLK
  5
2ADE
330
2AD1
100
AcDbEntity
  8
0
100
AcDbBlockEnd
  0
BLOCK
  5
2AE9
330
2ADF
100
AcDbEntity
  8
0
100
AcDbBlockBegin
  2
*D8
 70
     1
 71
     0
 10
0.0
 20
0.0
 30
0.0
  3
*D8
  1

  0
LINE
  5
2FB7
330
2ADF
100
AcDbEntity
  8
AM_5
100
AcDbLine
 10
133.0609449229584
 20
30.5706636927371
 30
0.0
 11
123.9579527969742
 21
30.5706636927371
 31
0.0
  0
LINE
  5
2FB8
330
2ADF
100
AcDbEntity
  8
AM_5
100
AcDbLine
 10
123.9579527969742
 20
30.5706636927371
 30
0.0
 11
118.5754603992327
 21
23.12855517530991
 31
0.0
  0
LINE
  5
2FB9
330
2ADF
100
AcDbEntity
  8
AM_5
100
AcDbLine
 10
103.9245396007673
 20
2.871444824692262
 30
0.0
 11
102.4594475209208
 21
0.8457337896305077
 31
0.0
  0
MTEXT
  5
2FBA
330
2ADF
100
AcDbEntity
  8
AM_5
 62
     2
100
AcDbMText
 10
129.2594488599663
 20
33.97103770848513
 30
0.0
 40
3.8
 41
0.0
 71
     5
 72
     1
  1
\U+220520
 73
     1
 44
1.0
  0
LINE
  5
2FBB
330
2ADF
100
AcDbEntity
  8
AM_5
100
AcDbLine
 10
105.3896316806139
 20
4.897155859754022
 30
0.0
 11
117.1103683193862
 21
21.10284414024815
 31
0.0
  0
INSERT
  5
2FBC
330
2ADF
100
AcDbEntity
  8
AM_5
100
AcDbBlockReference
  2
_Open30
 10
105.3896316806139
 20
4.897155859754022
 30
0.0
 41
2.5
 42
2.5
 43
2.5
 50
54.1237287482633
  0
INSERT
  5
2FBD
330
2ADF
100
AcDbEntity
  8
AM_5
100
AcDbBlockReference
  2
_Open30
 10
117.1103683193862
 20
21.10284414024815
 30
0.0
 41
2.5
 42
2.5
 43
2.5
 50
234.1237287482633
  0
POINT
  5
2FBE
330
2ADF
100
AcDbEntity
  8
Defpoints
 62
     0
100
AcDbPoint
 10
117.1103683193862
 20
21.10284414024815
 30
0.0
  0
POINT
  5
2FBF
330
2ADF
100
AcDbEntity
  8
Defpoints
 62
     0
100
AcDbPoint
 10
105.3896316806139
 20
4.897155859754022
 30
0.0
  0
ENDBLK
  5
2AEA
330
2ADF
100
AcDbEntity
  8
0
100
AcDbBlockEnd
  0
BLOCK
  5
2B0D
330
2B01
100
AcDbEntity
  8
0
100
AcDbBlockBegin
  2
*D9
 70
     1
 71
     0
 10
0.0
 20
0.0
 30
0.0
  3
*D9
  1

  0
LINE
  5
2FC0
330
2B01
100
AcDbEntity
  8
AM_5
 62
     3
370
    13
100
AcDbLine
 10
102.2499999999999
 20
8.641101056460343
 30
0.0
 11
102.2499999999999
 21
-13.57839891022067
 31
0.0
  0
LINE
  5
2FC1
330
2B01
100
AcDbEntity
  8
AM_5
 62
     3
370
    13
100
AcDbLine
 10
120.2499999999999
 20
8.641101056460343
 30
0.0
 11
120.2499999999999
 21
-13.57839891022067
 31
0.0
  0
LINE
  5
2FC2
330
2B01
100
AcDbEntity
  8
AM_5
 62
     3
370
    13
100
AcDbLine
 10
104.7499999999999
 20
-12.57839891022067
 30
0.0
 11
117.7499999999999
 21
-12.57839891022067
 31
0.0
  0
INSERT
  5
2FC3
330
2B01
100
AcDbEntity
  8
AM_5
 62
     3
370
    13
100
AcDbBlockReference
  2
_Open30
 10
102.2499999999999
 20
-12.57839891022067
 30
0.0
 41
2.5
 42
2.5
 43
2.5
 50
180.0
  0
INSERT
  5
2FC4
330
2B01
100
AcDbEntity
  8
AM_5
 62
     3
370
    13
100
AcDbBlockReference
  2
_Open30
 10
120.2499999999999
 20
-12.57839891022067
 30
0.0
 41
2.5
 42
2.5
 43
2.5
  0
MTEXT
  5
2FC5
330
2B01
100
AcDbEntity
  8
AM_5
 62
     2
100
AcDbMText
 10
111.0919298155952
 20
-9.17839891022067
 30
0.0
 40
3.8
 41
0.0
 71
     5
 72
     1
  1
18
 73
     1
 44
1.0
  0
POINT
  5
2FC6
330
2B01
100
AcDbEntity
  8
Defpoints
 62
     0
100
AcDbPoint
 10
102.2499999999999
 20
8.641101056460343
 30
0.0
  0
POINT
  5
2FC7
330
2B01
100
AcDbEntity
  8
Defpoints
 62
     0
100
AcDbPoint
 10
120.2499999999999
 20
8.641101056460343
 30
0.0
  0
POINT
  5
2FC8
330
2B01
100
AcDbEntity
  8
Defpoints
 62
     0
100
AcDbPoint
 10
120.2499999999999
 20
-12.57839891022067
 30
0.0
  0
ENDBLK
  5
2B0E
330
2B01
100
AcDbEntity
  8
0
100
AcDbBlockEnd
  0
BLOCK
  5
2C7D
330
2C7C
100
AcDbEntity
  8
0
100
AcDbBlockBegin
  2
*U10
 70
     1
 71
     0
 10
0.0
 20
0.0
 30
0.0
  3
*U10
  1

  0
ENDBLK
  5
2C7E
330
2C7C
100
AcDbEntity
  8
0
100
AcDbBlockEnd
  0
BLOCK
  5
2DB3
330
2DA7
100
AcDbEntity
  8
0
100
AcDbBlockBegin
  2
*D11
 70
     1
 71
     0
 10
0.0
 20
0.0
 30
0.0
  3
*D11
  1

  0
LINE
  5
2FC9
330
2DA7
100
AcDbEntity
  8
AM_5
 62
     3
370
    13
100
AcDbLine
 10
0.5263261049999253
 20
10.85923522666502
 30
0.0
 11
1.329503822996223
 21
26.18477904828978
 31
0.0
  0
LINE
  5
2FCA
330
2DA7
100
AcDbEntity
  8
AM_5
 62
     3
370
    13
100
AcDbLine
 10
-0.0427822979417772
 20
0.0
 30
0.0
 11
-26.26349592296493
 21
0.0000000000000018
 31
0.0
  0
ARC
  5
2FCB
330
2DA7
100
AcDbEntity
  8
AM_5
 62
     3
370
    13
100
AcDbCircle
 10
-0.0427822979417772
 20
0.0
 30
0.0
 40
25.22071362502315
100
AcDbArc
 50
92.68176455666139
 51
174.3182354433385
  0
INSERT
  5
2FCC
330
2DA7
100
AcDbEntity
  8
AM_5
 62
     3
370
    13
100
AcDbBlockReference
  2
_Open30
 10
1.277167866753279
 20
25.18614951353521
 30
0.0
 41
2.5
 42
2.5
 43
2.5
 50
359.8408822783307
  0
INSERT
  5
2FCD
330
2DA7
100
AcDbEntity
  8
AM_5
 62
     3
370
    13
100
AcDbBlockReference
  2
_Open30
 10
-25.26349592296493
 20
-0.0000000000000018
 30
0.0
 41
2.5
 42
2.5
 43
2.5
 50
267.1591177216693
  0
MTEXT
  5
2FCE
330
2DA7
100
AcDbEntity
  8
AM_5
 62
     2
100
AcDbMText
 10
-18.37989977629555
 20
21.97488045452439
 30
0.0
 40
3.8
 41
0.0
 71
     5
 72
     1
  1
93°
 11
0.7677963848990727
 21
0.6406939295294714
 31
0.0
 73
     1
 44
1.0
  0
POINT
  5
2FCF
330
2DA7
100
AcDbEntity
  8
Defpoints
 62
     0
100
AcDbPoint
 10
-21.66115331768385
 20
12.98962779328971
 30
0.0
  0
POINT
  5
2FD0
330
2DA7
100
AcDbEntity
  8
Defpoints
 62
     0
100
AcDbPoint
 10
0.7999974762531394
 20
0.0
 30
0.0
  0
POINT
  5
2FD1
330
2DA7
100
AcDbEntity
  8
Defpoints
 62
     0
100
AcDbPoint
 10
0.0010844173612838
 20
0.8370267907393439
 30
0.0
  0
POINT
  5
2FD2
330
2DA7
100
AcDbEntity
  8
Defpoints
 62
     0
100
AcDbPoint
 10
0.5263261049999253
 20
10.85923522666502
 30
0.0
  0
POINT
  5
2FD3
330
2DA7
100
AcDbEntity
  8
Defpoints
 62
     0
100
AcDbPoint
 10
0.0000000000000284
 20
0.0
 30
0.0
  0
ENDBLK
  5
2DB4
330
2DA7
100
AcDbEntity
  8
0
100
AcDbBlockEnd
  0
BLOCK
  5
2E0B
330
2DFF
100
AcDbEntity
  8
0
100
AcDbBlockBegin
  2
*D12
 70
     1
 71
     0
 10
0.0
 20
0.0
 30
0.0
  3
*D12
  1

  0
LINE
  5
2FD4
330
2DFF
100
AcDbEntity
  8
AM_5
 62
     3
370
    13
100
AcDbLine
 10
-3.706968095034682
 20
-82.15393550969358
 30
0.0
 11
-11.2832790137852
 21
-82.15393550969358
 31
0.0
  0
LINE
  5
2FD5
330
2DFF
100
AcDbEntity
  8
AM_5
 62
     3
370
    13
100
AcDbLine
 10
-3.706968095034682
 20
-82.15393550969358
 30
0.0
 11
-11.2832790137852
 21
-82.15393550969358
 31
0.0
  0
LINE
  5
2FD6
330
2DFF
100
AcDbEntity
  8
AM_5
 62
     3
370
    13
100
AcDbLine
 10
-10.28327901378521
 20
-84.65393550969358
 30
0.0
 11
-10.28327901378521
 21
-87.15393550969358
 31
0.0
  0
LINE
  5
2FD7
330
2DFF
100
AcDbEntity
  8
AM_5
 62
     3
370
    13
100
AcDbLine
 10
-10.2832790137852
 20
-79.65393550969358
 30
0.0
 11
-10.2832790137852
 21
-77.15393550969358
 31
0.0
  0
MTEXT
  5
2FD8
330
2DFF
100
AcDbEntity
  8
AM_5
 62
     2
100
AcDbMText
 10
-14.49173833731791
 20
-80.60063299983537
 30
0.0
 40
3.8
 41
0.0
 71
     5
 72
     1
  1
0%%d
 11
6.123031769111886E-17
 21
1.0
 31
0.0
 73
     1
 44
1.0
  0
INSERT
  5
2FD9
330
2DFF
100
AcDbEntity
  8
AM_5
 62
     3
370
    13
100
AcDbBlockReference
  2
_Open30
 10
-10.2832790137852
 20
-82.15393550969358
 30
0.0
 41
2.5
 42
2.5
 43
2.5
 50
90.0
  0
INSERT
  5
2FDA
330
2DFF
100
AcDbEntity
  8
AM_5
 62
     3
370
    13
100
AcDbBlockReference
  2
_Open30
 10
-10.2832790137852
 20
-82.15393550969358
 30
0.0
 41
2.5
 42
2.5
 43
2.5
 50
270.0
  0
POINT
  5
2FDB
330
2DFF
100
AcDbEntity
  8
Defpoints
 62
     0
100
AcDbPoint
 10
-3.706968095034682
 20
-82.15393550969358
 30
0.0
  0
POINT
  5
2FDC
330
2DFF
100
AcDbEntity
  8
Defpoints
 62
     0
100
AcDbPoint
 10
-3.706968095034682
 20
-82.15393550969358
 30
0.0
  0
POINT
  5
2FDD
330
2DFF
100
AcDbEntity
  8
Defpoints
 62
     0
100
AcDbPoint
 10
-10.2832790137852
 20
-82.15393550969358
 30
0.0
  0
ENDBLK
  5
2E0C
330
2DFF
100
AcDbEntity
  8
0
100
AcDbBlockEnd
  0
ENDSEC
  0
SECTION
  2
ENTITIES
  0
LINE
  5
287D
330
1F
100
AcDbEntity
  8
AM_0
370
    30
100
AcDbLine
 10
100.7738450699133
 20
17.35889894354071
 30
0.0
 11
26.24999999999974
 21
17.35889894354071
 31
0.0
  0
LINE
  5
287E
330
1F
100
AcDbEntity
  8
AM_0
370
    30
100
AcDbLine
 10
250.0
 20
-91.15393550969453
 30
0.0
 11
26.24999999999986
 21
-91.15393550969446
 31
0.0
  0
LINE
  5
287F
330
1F
100
AcDbEntity
  8
AM_0
370
    30
100
AcDbLine
 10
248.9999999999995
 20
-87.42176238612082
 30
0.0
 11
26.24999999999986
 21
-87.42176238612075
 31
0.0
  0
LINE
  5
2880
330
1F
100
AcDbEntity
  8
AM_7
  6
CENTER
100
AcDbLine
 10
-3.706968095034682
 20
-82.15393550969358
 30
0.0
 11
256.3981138707989
 21
-82.15393550969358
 31
0.0
1001
GENIUS_GENODEF_13
1002
{
1000
HIER
1070
     0
1002
}
1002
{
1000
MANEDIT
1070
     0
1002
}
1002
{
1000
NOSEL
1070
     0
1002
}
1002
{
1000
BEHIND
1070
     0
1002
}
1002
{
1000
OTHER
1070
     0
1002
}
1002
{
1000
REACTOR
1002
}
1001
GENIUS_GENOBJ-N-CEN_13
1002
{
1000
OWNER
1000
GEN
1002
}
  0
LINE
  5
2881
330
1F
100
AcDbEntity
  8
AM_0
370
    30
100
AcDbLine
 10
26.24999999999974
 20
-73.15393550969446
 30
0.0
 11
250.0
 21
-73.15393550969449
 31
0.0
  0
LINE
  5
2882
330
1F
100
AcDbEntity
  8
AM_0
370
    30
100
AcDbLine
 10
26.24999999999974
 20
-76.88610863326807
 30
0.0
 11
249.0000000000004
 21
-76.88610863326807
 31
0.0
  0
LINE
  5
2883
330
1F
100
AcDbEntity
  8
AM_0
370
    30
100
AcDbLine
 10
26.24999999999974
 20
23.00000000000003
 30
0.0
 11
100.7738450699133
 21
23.00000000000003
 31
0.0
  0
LINE
  5
2884
330
1F
100
AcDbEntity
  8
AM_0
370
    30
100
AcDbLine
 10
26.24999999999986
 20
8.641101056459462
 30
0.0
 11
100.7738450699133
 21
8.641101056459462
 31
0.0
  0
LINE
  5
2885
330
1F
100
AcDbEntity
  8
AM_0
370
    30
100
AcDbLine
 10
26.24999999999986
 20
4.500000000000028
 30
0.0
 11
100.7738450699133
 21
4.500000000000028
 31
0.0
  0
LINE
  5
2886
102
{ACAD_REACTORS
330
2EFC
102
}
330
1F
100
AcDbEntity
  8
AM_7
  6
CENTER
100
AcDbLine
 10
256.3981138707989
 20
13.00000000000102
 30
0.0
 11
-4.516423715498405
 21
13.00000000000102
 31
0.0
1001
GENIUS_GENODEF_13
1002
{
1000
HIER
1070
     0
1002
}
1002
{
1000
MANEDIT
1070
     0
1002
}
1002
{
1000
NOSEL
1070
     0
1002
}
1002
{
1000
BEHIND
1070
     0
1002
}
1002
{
1000
REACTOR
1002
}
1001
GENIUS_GENOBJ-N-CEN_13
1002
{
1000
OWNER
1000
GEN
1002
}
  0
DIMENSION
  5
2887
330
1F
100
AcDbEntity
  8
AM_5
100
AcDbDimension
  2
*D3
 10
250.0
 20
-33.23007617527637
 30
0.0
 11
122.1592010106189
 21
-33.23007617527637
 31
0.0
 70
   160
  1
<>
 71
     5
 42
250.0
  3
AM_JIS$0
100
AcDbAlignedDimension
 13
0.0
 23
-4.15033830589266
 33
0.0
 14
250.0
 24
4.500000000000028
 34
0.0
100
AcDbRotatedDimension
1001
ACAD
1000
DSTYLE
1002
{
1070
   271
1070
     0
1002
}
  0
SPLINE
  5
28B5
330
1F
100
AcDbEntity
  8
AM_0
370
    30
100
AcDbSpline
210
0.0
220
0.0
230
1.0
 70
    28
 71
     2
 72
     6
 73
     3
 74
     0
 42
0.0000000001
 43
0.0000000001
 40
0.0
 40
0.0
 40
0.0
 40
0.6582629195149845
 40
0.6582629195149845
 40
0.6582629195149845
 10
25.99999999999986
 20
-73.15393550969446
 30
0.0
 41
1.0
 10
26.11561372345702
 20
-73.15393550969446
 30
0.0
 41
1.000475593576181
 10
26.24999999999986
 20
-73.15393550969446
 30
0.0
 41
1.0
  0
SPLINE
  5
28B6
330
1F
100
AcDbEntity
  8
AM_0
370
    30
100
AcDbSpline
210
0.0
220
0.0
230
1.0
 70
    28
 71
     2
 72
     6
 73
     3
 74
     0
 42
0.0000000001
 43
0.0000000001
 40
0.0
 40
0.0
 40
0.0
 40
0.6582629195149808
 40
0.6582629195149808
 40
0.6582629195149808
 10
26.24999999999986
 20
-91.15393550969446
 30
0.0
 41
1.0
 10
26.11561372345702
 20
-91.15393550969446
 30
0.0
 41
1.000475593577811
 10
25.99999999999986
 20
-91.15393550969446
 30
0.0
 41
1.0
  0
SPLINE
  5
28B7
330
1F
100
AcDbEntity
  8
AM_0
370
    30
100
AcDbSpline
210
0.0
220
0.0
230
1.0
 70
     8
 71
     3
 72
    16
 73
    12
 74
     0
 42
0.0000000001
 43
0.0000000001
 40
2.773616221598966
 40
2.773616221598966
 40
2.773616221598966
 40
2.773616221598966
 40
4.114430806811771
 40
4.114430806811771
 40
6.171646210217656
 40
6.171646210217656
 40
8.228861613623542
 40
8.228861613623542
 40
9.252345757742397
 40
9.252345757742397
 40
9.662586797053043
 40
9.662586797053043
 40
9.662586797053043
 40
9.662586797053043
 10
25.26341389967101
 20
-73.15393550969446
 30
0.0
 10
25.19411683719554
 20
-73.33036657863039
 30
0.0
 10
25.10611464834719
 20
-73.53641773251837
 30
0.0
 10
24.83073173762134
 20
-74.12069157324578
 30
0.0
 10
24.61420704394979
 20
-74.5338396369246
 30
0.0
 10
24.07504577301287
 20
-75.42062426437718
 30
0.0
 10
23.75169216507251
 20
-75.89384411526311
 30
0.0
 10
23.20255841010962
 20
-76.59174417645642
 30
0.0
 10
22.99921076683322
 20
-76.83500895050446
 30
0.0
 10
22.68865743499859
 20
-77.17967298396724
 30
0.0
 10
22.59687447999872
 20
-77.27873881626903
 30
0.0
 10
22.50245169476338
 20
-77.37769221503487
 30
0.0
  0
SPLINE
  5
28B8
330
1F
100
AcDbEntity
  8
AM_0
370
    30
100
AcDbSpline
210
0.0
220
0.0
230
1.0
 70
    12
 71
     2
 72
     6
 73
     3
 74
     0
 42
0.0000000001
 43
0.0000000001
 40
0.0
 40
0.0
 40
0.0
 40
0.5515167900486291
 40
0.5515167900486291
 40
0.5515167900486291
 10
26.24999999999986
 20
-87.42176238612075
 30
0.0
 41
1.0
 10
26.11888216661075
 20
-87.17285930622668
 30
0.0
 41
1.000309907719662
 10
25.99999999999986
 20
-86.93017880333019
 30
0.0
 41
1.0
  0
SPLINE
  5
28B9
330
1F
100
AcDbEntity
  8
AM_0
370
    30
100
AcDbSpline
210
0.0
220
0.0
230
1.0
 70
    12
 71
     2
 72
     6
 73
     3
 74
     0
 42
0.0000000001
 43
0.0000000001
 40
0.0
 40
0.0
 40
0.0
 40
0.5515167900486291
 40
0.5515167900486291
 40
0.5515167900486291
 10
25.99999999999986
 20
-77.37769221605873
 30
0.0
 41
1.0
 10
26.11888216661075
 20
-77.1350117131621
 30
0.0
 41
1.000309907719662
 10
26.24999999999986
 20
-76.88610863326807
 30
0.0
 41
1.0
  0
ELLIPSE
  5
28BB
330
1F
100
AcDbEntity
  8
AM_0
370
    30
100
AcDbEllipse
 10
9.506655916718358
 20
-80.52450435953909
 30
0.0
 11
-0.7999999996357788
 21
2.414030590496059E-5
 31
0.0
210
0.0
220
0.0
230
1.0
 40
0.1045300187979214
 41
3.089522243457424
 42
5.27118380845033
  0
ELLIPSE
  5
28BC
330
1F
100
AcDbEntity
  8
AM_0
370
    30
100
AcDbEllipse
 10
5.153327958179006
 20
-81.2974079283735
 30
0.0
 11
-1.999999999089446
 21
6.035076476240145E-5
 31
0.0
210
0.0
220
0.0
230
1.0
 40
0.1045300187979214
 41
0.0002886767064994
 42
6.283473983886081
  0
ELLIPSE
  5
28BD
330
1F
100
AcDbEntity
  8
AM_0
370
    30
100
AcDbEllipse
 10
12.40101109610222
 20
-59.20332972955129
 30
0.0
 11
-4.997499542379032
 21
-40.4746529597563
 31
0.0
210
0.0
220
0.0
230
1.0
 40
0.0047655257017105
 41
0.9734151807245205
 42
0.9871817029429962
  0
ELLIPSE
  5
28BE
330
1F
100
AcDbEntity
  8
AM_0
370
    30
100
AcDbEllipse
 10
12.40032399706055
 20
-81.97351479855644
 30
0.0
 11
-4.999999997723618
 21
0.0001508769119063518
 31
0.0
210
0.0
220
0.0
230
0.9999999999999999
 40
0.1045300187979214
 41
4.792633043126164
 42
5.257417286231315
  0
SPLINE
  5
28BF
330
1F
100
AcDbEntity
  8
AM_0
370
    30
100
AcDbSpline
210
0.0
220
0.0
230
1.0
 70
     8
 71
     3
 72
    20
 73
    16
 74
     0
 42
0.0000000001
 43
0.0000000001
 40
22.38361295445567
 40
22.38361295445567
 40
22.38361295445567
 40
22.38361295445567
 40
22.78000632284001
 40
22.78000632284001
 40
23.73321841067555
 40
23.73321841067555
 40
24.68643049851109
 40
24.68643049851109
 40
25.63964258634663
 40
25.63964258634663
 40
26.59285467418216
 40
26.59285467418216
 40
27.54323749550747
 40
27.54323749550747
 40
27.56909075184033
 40
27.56909075184033
 40
27.56909075184033
 40
27.56909075184033
 10
11.99954984894166
 20
-81.45253440839218
 30
0.0
 10
12.13433704305552
 20
-81.45140344830014
 30
0.0
 10
12.26824015260806
 20
-81.44904210944793
 30
0.0
 10
12.7179482166126
 20
-81.43709495455636
 30
0.0
 10
13.04533839999394
 20
-81.4213130719283
 30
0.0
 10
13.69454840997875
 20
-81.37550318245116
 30
0.0
 10
14.01637834183916
 20
-81.34549679011678
 30
0.0
 10
14.63199275431063
 20
-81.27628853273728
 30
0.0
 10
14.92630379600641
 20
-81.23709077729865
 30
0.0
 10
15.46974930315329
 20
-81.15749219554317
 30
0.0
 10
15.71888479836454
 20
-81.11718710011559
 30
0.0
 10
16.15906906262077
 20
-81.04413102045913
 30
0.0
 10
16.36574539430873
 20
-81.00869849299949
 30
0.0
 10
16.55331127435224
 20
-80.97846837675473
 30
0.0
 10
16.55826096106964
 20
-80.97767224134537
 30
0.0
 10
16.56319292833743
 20
-80.97688063947732
 30
0.0
  0
SPLINE
  5
28C0
330
1F
100
AcDbEntity
  8
AM_0
370
    30
100
AcDbSpline
210
0.0
220
0.0
230
1.0
 70
     8
 71
     3
 72
    16
 73
    12
 74
     0
 42
0.0000000001
 43
0.0000000001
 40
-20.92575754316229
 40
-20.92575754316229
 40
-20.92575754316229
 40
-20.92575754316229
 40
-20.92553246863419
 40
-20.92553246863419
 40
-18.77484889900038
 40
-18.77484889900038
 40
-16.62416532936656
 40
-16.62416532936656
 40
-14.47348175973276
 40
-14.47348175973276
 40
-12.86694030949101
 40
-12.86694030949101
 40
-12.86694030949101
 40
-12.86694030949101
 10
11.99954984894166
 20
-79.80384102872148
 30
0.0
 10
11.99962487442176
 20
-79.80384102982458
 30
0.0
 10
11.99969989958308
 20
-79.80384103037619
 30
0.0
 10
12.71666944763715
 20
-79.80384103037619
 30
0.0
 10
13.46266485021042
 20
-79.75256049977469
 30
0.0
 10
14.96201784916408
 20
-79.53384787236706
 30
0.0
 10
15.71537446184581
 20
-79.36641754468343
 30
0.0
 10
17.18148941544538
 20
-78.92370496718758
 30
0.0
 10
17.89499676772138
 20
-78.64820835381164
 30
0.0
 10
19.07014838297354
 20
-78.09738526561517
 30
0.0
 10
19.54995849522706
 20
-77.83986041046882
 30
0.0
 10
19.99999999999986
 20
-77.56966940089404
 30
0.0
  0
SPLINE
  5
28C1
330
1F
100
AcDbEntity
  8
AM_0
370
    30
100
AcDbSpline
210
0.0
220
0.0
230
1.0
 70
     8
 71
     3
 72
    10
 73
     6
 74
     0
 42
0.0000000001
 43
0.0000000001
 40
5.220956609736569
 40
5.220956609736569
 40
5.220956609736569
 40
5.220956609736569
 40
5.297247726512397
 40
5.297247726512397
 40
5.373538845416049
 40
5.373538845416049
 40
5.373538845416049
 40
5.373538845416049
 10
11.99954984894166
 20
-80.52635836028986
 30
0.0
 10
12.00068285150118
 20
-80.52905301091045
 30
0.0
 10
12.0012376597733
 20
-80.53173221085996
 30
0.0
 10
12.0012376597733
 20
-80.53704868551694
 30
0.0
 10
12.00068285147208
 20
-80.53972805777602
 30
0.0
 10
11.99954984894166
 20
-80.54242267451235
 30
0.0
  0
ELLIPSE
  5
28C2
330
1F
100
AcDbEntity
  8
AM_0
370
    30
100
AcDbEllipse
 10
10.25123766055762
 20
-80.5343383381657
 30
0.0
 11
-1.749999999203261
 21
5.280691916722296E-5
 31
0.0
210
0.0
220
0.0
230
1.0
 40
0.1045300187979213
 41
2.356483957619797
 42
3.097672729556224
  0
ELLIPSE
  5
28C3
330
1F
100
AcDbEntity
  8
AM_0
370
    30
100
AcDbEllipse
 10
10.25123766055762
 20
-80.5343383381657
 30
0.0
 11
-1.749999999203261
 21
5.280691916722296E-5
 31
0.0
210
0.0
220
0.0
230
1.0
 40
0.1045300187979213
 41
3.185518886089912
 42
5.498076611209607
  0
SPLINE
  5
28C4
330
1F
100
AcDbEntity
  8
AM_0
370
    30
100
AcDbSpline
210
0.0
220
0.0
230
1.0
 70
     8
 71
     3
 72
    20
 73
    16
 74
     0
 42
0.0000000001
 43
0.0000000001
 40
6.553932633965715
 40
6.553932633965715
 40
6.553932633965715
 40
6.553932633965715
 40
6.887225544681391
 40
6.887225544681391
 40
7.268437213134485
 40
7.268437213134485
 40
7.649648881587579
 40
7.649648881587579
 40
8.030860550040673
 40
8.030860550040673
 40
8.946446844655165
 40
8.946446844655165
 40
9.404239991962411
 40
9.404239991962411
 40
9.820942194453336
 40
9.820942194453336
 40
9.820942194453336
 40
9.820942194453336
 10
5.201087219383311
 20
-89.95381900837975
 30
0.0
 10
5.312604718538609
 20
-89.95601148183295
 30
0.0
 10
5.425342447516613
 20
-89.96599423934111
 30
0.0
 10
5.662744004915311
 20
-90.00348325233728
 30
0.0
 10
5.786803708646829
 20
-90.03330488255546
 30
0.0
 10
6.021705877022072
 20
-90.1077446002169
 30
0.0
 10
6.132817208525438
 20
-90.15238210808792
 30
0.0
 10
6.336688183590553
 20
-90.24954734800832
 30
0.0
 10
6.429460892378387
 20
-90.30204104923365
 30
0.0
 10
6.708056192676821
 20
-90.4808121019459
 30
0.0
 10
6.873721407872466
 20
-90.62835104761786
 30
0.0
 10
7.040742115205234
 20
-90.84325471002586
 30
0.0
 10
7.083169374633002
 20
-90.913918891837
 30
0.0
 10
7.136812159444247
 20
-91.04207640904787
 30
0.0
 10
7.150482792335396
 20
-91.10019206664134
 30
0.0
 10
7.152702619785686
 20
-91.1539355096939
 30
0.0
  0
ELLIPSE
  5
28C5
330
1F
100
AcDbEntity
  8
AM_0
370
    30
100
AcDbEllipse
 10
20.72160597548506
 20
-82.15393550969446
 30
0.0
 11
15.55994391157152
 21
1.651304785845503
 31
0.0
210
0.0
220
0.0
230
1.0
 40
0.6175566151688428
 41
3.34837291097944
 42
3.866413965846537
  0
SPLINE
  5
28C6
330
1F
100
AcDbEntity
  8
AM_0
370
    30
100
AcDbSpline
210
0.0
220
0.0
230
1.0
 70
     8
 71
     3
 72
    34
 73
    30
 74
     0
 42
0.0000000001
 43
0.0000000001
 40
3.7969167045717
 40
3.7969167045717
 40
3.7969167045717
 40
3.7969167045717
 40
4.280616853561485
 40
4.280616853561485
 40
5.70748913808198
 40
5.70748913808198
 40
6.216444111055591
 40
6.216444111055591
 40
6.725399084029201
 40
6.725399084029201
 40
7.234354057002811
 40
7.234354057002811
 40
7.743309029976421
 40
7.743309029976421
 40
8.4695476471615
 40
8.4695476471615
 40
9.195786264346578
 40
9.195786264346578
 40
9.922024881531657
 40
9.922024881531657
 40
10.64826349871674
 40
10.64826349871674
 40
11.37449371332791
 40
11.37449371332791
 40
12.10072392793909
 40
12.10072392793909
 40
12.82695414255027
 40
12.82695414255027
 40
13.42303104375951
 40
13.42303104375951
 40
13.42303104375951
 40
13.42303104375951
 10
16.91559493178156
 20
-86.93017880558188
 30
0.0
 10
16.88415409461547
 20
-87.07568802474572
 30
0.0
 10
16.84932210528083
 20
-87.21788344041755
 30
0.0
 10
16.69666559273114
 20
-87.76451753779662
 30
0.0
 10
16.54909742577328
 20
-88.13931255519316
 30
0.0
 10
16.29136035982342
 20
-88.58990026382895
 30
0.0
 10
16.21443892547947
 20
-88.70946185950021
 30
0.0
 10
16.0422575561889
 20
-88.94195008636729
 30
0.0
 10
15.94696370230642
 20
-89.05487113800604
 30
0.0
 10
15.74022650157971
 20
-89.26752445218375
 30
0.0
 10
15.62869878239459
 20
-89.36732237994914
 30
0.0
 10
15.39454260314105
 20
-89.54975547566045
 30
0.0
 10
15.27190333218888
 20
-89.63240798694818
 30
0.0
 10
14.97102718531514
 20
-89.81018839660004
 30
0.0
 10
14.77365849448231
 20
-89.90597843929101
 30
0.0
 10
14.34670186741218
 20
-90.07117616657791
 30
0.0
 10
14.11711087356613
 20
-90.14066796576861
 30
0.0
 10
13.63958818731996
 20
-90.2504580424764
 30
0.0
 10
13.39126161997305
 20
-90.29092150844616
 30
0.0
 10
12.89253484418222
 20
-90.3436763886528
 30
0.0
 10
12.64213482075567
 20
-90.35598355388578
 30
0.0
 10
12.1579785434902
 20
-90.35598355388578
 30
0.0
 10
11.90758130203162
 20
-90.34367666838608
 30
0.0
 10
11.40886045012709
 20
-90.2909224686635
 30
0.0
 10
11.16053702556994
 20
-90.25045940427862
 30
0.0
 10
10.68302136285442
 20
-90.14066985484789
 30
0.0
 10
10.45343422798257
 20
-90.07117817190903
 30
0.0
 10
10.06474462933269
 20
-89.92078322789581
 30
0.0
 10
9.900325377023108
 20
-89.84416224833427
 30
0.0
 10
9.749265383503456
 20
-89.76101201643377
 30
0.0
  0
ELLIPSE
  5
28C7
330
1F
100
AcDbEntity
  8
AM_0
370
    30
100
AcDbEllipse
 10
12.39955455102742
 20
-107.4726459467434
 30
0.0
 11
0.001443383571925716
 21
47.83314932134161
 31
0.0
210
0.0
220
0.0
230
1.0
 40
0.1045300187979214
 41
5.156287868279912
 42
5.299458035639117
  0
SPLINE
  5
28C8
330
1F
100
AcDbEntity
  8
AM_0
370
    30
100
AcDbSpline
210
0.0
220
0.0
230
1.0
 70
     8
 71
     3
 72
    12
 73
     8
 74
     0
 42
0.0000000001
 43
0.0000000001
 40
5.325708555228272
 40
5.325708555228272
 40
5.325708555228272
 40
5.325708555228272
 40
5.785516237128344
 40
5.785516237128344
 40
6.850617543112868
 40
6.850617543112868
 40
7.014537579030257
 40
7.014537579030257
 40
7.014537579030257
 40
7.014537579030257
 10
4.02749621608379
 20
-91.15393550972482
 30
0.0
 10
4.118672171154429
 20
-91.04334854397263
 30
0.0
 10
4.213072353939054
 20
-90.9333786308801
 30
0.0
 10
4.528532976897139
 20
-90.58031231057731
 30
0.0
 10
4.789594278478916
 20
-90.31090754881308
 30
0.0
 10
5.113405580943521
 20
-90.02751434739054
 30
0.0
 10
5.157052273608286
 20
-89.99029245669232
 30
0.0
 10
5.201087219383311
 20
-89.95381900837975
 30
0.0
  0
ELLIPSE
  5
28C9
330
1F
100
AcDbEntity
  8
AM_0
370
    30
100
AcDbEllipse
 10
0.7999999996397662
 20
-82.07031149720791
 30
0.0
 11
-0.7999999996357788
 21
2.414030590496059E-5
 31
0.0
210
0.0
220
0.0
230
1.0
 40
0.1045300187979214
 41
6.231114897047215
 42
8.412776462040132
  0
ELLIPSE
  5
28CA
330
1F
100
AcDbEntity
  8
AM_0
370
    30
100
AcDbEllipse
 10
0.7998808596476863
 20
-86.01856277095106
 30
0.0
 11
0.3125452930731731
 21
-9.431173734221239E-6
 31
0.0
210
0.0
220
0.0
230
1.0
 40
0.1045300187979214
 41
3.154498383390149
 42
5.271183808450356
  0
ELLIPSE
  5
28CB
330
1F
100
AcDbEntity
  8
AM_0
370
    30
100
AcDbEllipse
 10
0.6513699472185124
 20
-81.23484642120633
 30
0.0
 11
1.478089610066298
 21
-12.58233599825132
 31
0.0
210
0.0
220
0.0
230
1.0
 40
0.0636885550977921
 41
5.180645541027373
 42
5.612968729049971
  0
SPLINE
  5
28CC
330
1F
100
AcDbEntity
  8
AM_0
370
    30
100
AcDbSpline
210
0.0
220
0.0
230
1.0
 70
     8
 71
     3
 72
    18
 73
    14
 74
     0
 42
0.0000000001
 43
0.0000000001
 40
0.0444154678232773
 40
0.0444154678232773
 40
0.0444154678232773
 40
0.0444154678232773
 40
0.0557444712903997
 40
0.0557444712903997
 40
0.1114889425807994
 40
0.1114889425807994
 40
0.3161200943214183
 40
0.3161200943214183
 40
0.5207512460620372
 40
0.5207512460620372
 40
0.9511184242096022
 40
0.9511184242096022
 40
1.007744277109782
 40
1.007744277109782
 40
1.007744277109782
 40
1.007744277109782
 10
0.9176457967134581
 20
-86.0488287606118
 30
0.0
 10
0.9149548504468328
 20
-86.05134569638739
 30
0.0
 10
0.9123200846381394
 20
-86.05402413161954
 30
0.0
 10
0.8970315844322556
 20
-86.07061995865598
 30
0.0
 10
0.8856564056070226
 20
-86.08736523280146
 30
0.0
 10
0.8408197260880286
 20
-86.16152735166685
 30
0.0
 10
0.8137987839519099
 20
-86.2300505569587
 30
0.0
 10
0.7638448620911902
 20
-86.36908913773669
 30
0.0
 10
0.7419800031483135
 20
-86.43989427719322
 30
0.0
 10
0.6840868736807977
 20
-86.64036436568455
 30
0.0
 10
0.6474386026783066
 20
-86.78992717915838
 30
0.0
 10
0.6114855440945064
 20
-86.95850737229256
 30
0.0
 10
0.6073906760949228
 20
-86.97809997169355
 30
0.0
 10
0.6033873037514184
 20
-86.99765137364983
 30
0.0
  0
ELLIPSE
  5
28CD
330
1F
100
AcDbEntity
  8
AM_0
370
    30
100
AcDbEllipse
 10
0.7956111125026553
 20
-88.43170337097712
 30
0.0
 11
0.2993128551820421
 21
-2.431760537175443
 31
0.0
210
0.0
220
0.0
230
1.0
 40
0.0078874292871148
 41
3.28854342010942
 42
4.080709374769953
  0
SPLINE
  5
28CE
330
1F
100
AcDbEntity
  8
AM_0
370
    30
100
AcDbSpline
210
0.0
220
0.0
230
1.0
 70
    28
 71
     2
 72
     6
 73
     3
 74
     0
 42
0.0000000001
 43
0.0000000001
 40
2.443331861907977
 40
2.443331861907977
 40
2.443331861907977
 40
6.27599683450032
 40
6.27599683450032
 40
6.27599683450032
 10
4.02749621608379
 20
-91.15393550972479
 30
0.0
 41
1.013930135306876
 10
2.952741010928405
 20
-91.15393550970251
 30
0.0
 41
1.019764444461336
 10
1.311966147605943
 20
-91.15393550969662
 30
0.0
 41
1.009626251331852
  0
SPLINE
  5
28CF
330
1F
100
AcDbEntity
  8
AM_0
370
    30
100
AcDbSpline
210
0.0
220
0.0
230
1.0
 70
     8
 71
     3
 72
    20
 73
    16
 74
     0
 42
0.0000000001
 43
0.0000000001
 40
-12.86694030949101
 40
-12.86694030949101
 40
-12.86694030949101
 40
-12.86694030949101
 40
-12.32279819009895
 40
-12.32279819009895
 40
-11.2993140459801
 40
-11.2993140459801
 40
-10.27582990186124
 40
-10.27582990186124
 40
-9.25234575774239
 40
-9.25234575774239
 40
-8.228861613623536
 40
-8.228861613623536
 40
-6.171646210217645
 40
-6.171646210217645
 40
-4.78438566513478
 40
-4.78438566513478
 40
-4.78438566513478
 40
-4.78438566513478
 10
19.99999999999986
 20
-77.56966940089404
 30
0.0
 10
20.15243088697432
 20
-77.47815460769112
 30
0.0
 10
20.30146516411023
 20
-77.38520675237822
 30
0.0
 10
20.720406228732
 20
-77.11450960336123
 30
0.0
 10
20.99823444604735
 20
-76.92289010080395
 30
0.0
 10
21.542663407748
 20
-76.52086569058787
 30
0.0
 10
21.80924832551315
 20
-76.31049259615264
 30
0.0
 10
22.31575325805372
 20
-75.88521032909745
 30
0.0
 10
22.55582536116467
 20
-75.67023515254306
 30
0.0
 10
22.99921076683322
 20
-75.25123668904683
 30
0.0
 10
23.20255841010962
 20
-75.04728103896417
 30
0.0
 10
23.75169216507251
 20
-74.47184668962535
 30
0.0
 10
24.07504577301287
 20
-74.09532477060219
 30
0.0
 10
24.52641514031981
 20
-73.53700509790764
 30
0.0
 10
24.68427102670145
 20
-73.33159961917983
 30
0.0
 10
24.81872007371109
 20
-73.15393550969446
 30
0.0
  0
ELLIPSE
  5
28D0
330
1F
100
AcDbEntity
  8
AM_0
370
    30
100
AcDbEllipse
 10
11.99977492442585
 20
-66.60918119959177
 30
0.0
 11
2.800581544779770E-16
 21
-15.08262667133251
 31
0.0
210
0.0
220
0.0
230
1.0
 40
0.9945217318692768
 41
0.309127770382763
 42
0.7756474092158145
  0
LINE
  5
293E
330
1F
100
AcDbEntity
  8
AM_0
370
    30
100
AcDbLine
 10
25.99999999999986
 20
-91.15393550969446
 30
0.0
 11
7.152702619785686
 21
-91.15393550969446
 31
0.0
  0
LINE
  5
293F
330
1F
100
AcDbEntity
  8
AM_0
370
    30
100
AcDbLine
 10
25.99999999999997
 20
-86.93017880333031
 30
0.0
 11
16.91559493178156
 21
-86.93017880333019
 31
0.0
  0
LINE
  5
2940
330
1F
100
AcDbEntity
  8
AM_0
370
    30
100
AcDbLine
 10
5.201087219383311
 20
-89.95381900837975
 30
0.0
 11
5.201087219383311
 21
-85.76956576767367
 31
0.0
  0
LINE
  5
2941
330
1F
100
AcDbEntity
  8
AM_0
370
    30
100
AcDbLine
 10
7.152702619785686
 20
-91.15393550969446
 30
0.0
 11
4.027496216083108
 21
-91.15393550969446
 31
0.0
  0
LINE
  5
2942
330
1F
100
AcDbEntity
  8
AM_0
370
    30
100
AcDbLine
 10
9.494116995013627
 20
-85.49521098440079
 30
0.0
 11
5.702504715270237
 21
-85.74291466810331
 31
0.0
  0
LINE
  5
2943
330
1F
100
AcDbEntity
  8
AM_0
370
    30
100
AcDbLine
 10
0.5263261049999244
 20
-81.01255846693249
 30
0.0
 11
9.082526277014125
 21
-80.45358720491032
 31
0.0
  0
LINE
  5
2944
330
1F
100
AcDbEntity
  8
AM_0
370
    30
100
AcDbLine
 10
9.7803298113582
 20
-81.58225738981463
 30
0.0
 11
1.224129639343886
 21
-82.14122865183668
 31
0.0
  0
LINE
  5
2945
330
1F
100
AcDbEntity
  8
AM_0
370
    30
100
AcDbLine
 10
0.9655805129011412
 20
-86.04626879956032
 30
0.0
 11
9.306624564986549
 21
-85.50135355369849
 31
0.0
  0
LINE
  5
2946
330
1F
100
AcDbEntity
  8
AM_0
370
    30
100
AcDbLine
 10
0.5263261049999244
 20
-81.01255846693249
 30
0.0
 11
7.659633063593304
 21
-80.5465439379505
 31
0.0
  0
LINE
  5
2947
330
1F
100
AcDbEntity
  8
AM_0
370
    30
100
AcDbLine
 10
8.624610444191688
 20
-79.80374177984658
 30
0.0
 11
0.8953169512246575
 21
-80.27254426974224
 31
0.0
  0
LINE
  5
2948
330
1F
100
AcDbEntity
  8
AM_0
370
    30
100
AcDbLine
 10
0.4873615819285249
 20
-86.0189749637662
 30
0.0
 11
0.000066589658644
 21
-82.07136655789606
 31
0.0
  0
LINE
  5
2949
330
1F
100
AcDbEntity
  8
AM_0
370
    30
100
AcDbLine
 10
5.702504715270237
 20
-85.74291466808626
 30
0.0
 11
5.609078320256657
 21
-85.74291196153496
 31
0.0
  0
LINE
  5
294A
330
1F
100
AcDbEntity
  8
AM_0
370
    30
100
AcDbLine
 10
0.0010844173612838
 20
-82.06593502026823
 30
0.0
 11
0.5263261049999244
 21
-81.01255846693249
 31
0.0
  0
LINE
  5
294B
330
1F
100
AcDbEntity
  8
AM_0
370
    30
100
AcDbLine
 10
0.5263261049999244
 20
-81.01255846693249
 30
0.0
 11
0.8953169512246575
 21
-80.27254426974224
 31
0.0
  0
LINE
  5
294C
330
1F
100
AcDbEntity
  8
AM_0
370
    30
100
AcDbLine
 10
9.7803298113582
 20
-81.58225738981463
 30
0.0
 11
9.306624564986549
 21
-85.50135355369849
 31
0.0
  0
LINE
  5
294D
330
1F
100
AcDbEntity
  8
AM_0
370
    30
100
AcDbLine
 10
9.494162010124086
 20
-84.0034283837843
 30
0.0
 11
9.749499901885059
 21
-81.9891674542933
 31
0.0
  0
LINE
  5
294E
330
1F
100
AcDbEntity
  8
AM_0
370
    30
100
AcDbLine
 10
9.306624564986549
 20
-85.50135355369849
 30
0.0
 11
9.494128156810206
 21
-85.12531354784647
 31
0.0
  0
LINE
  5
294F
330
1F
100
AcDbEntity
  8
AM_0
370
    30
100
AcDbLine
 10
9.494162010124086
 20
-84.0034283837843
 30
0.0
 11
9.494116995013627
 21
-85.49521098440079
 31
0.0
  0
LINE
  5
2950
330
1F
100
AcDbEntity
  8
AM_0
370
    30
100
AcDbLine
 10
10.30557149899673
 20
-80.52888083647878
 30
0.0
 11
9.7803298113582
 21
-81.58225738981463
 31
0.0
  0
LINE
  5
2951
330
1F
100
AcDbEntity
  8
AM_0
370
    30
100
AcDbLine
 10
10.16956092949769
 20
-80.80165115971846
 30
0.0
 11
9.808126007370191
 21
-81.52651188857175
 31
0.0
  0
LINE
  5
2952
330
1F
100
AcDbEntity
  8
AM_0
370
    30
100
AcDbLine
 10
8.624610444191688
 20
-79.80374177984658
 30
0.0
 11
11.99954984894166
 21
-79.80384102903059
 31
0.0
  0
LINE
  5
2953
330
1F
100
AcDbEntity
  8
AM_0
370
    30
100
AcDbLine
 10
7.659633063593304
 20
-80.5465439379505
 30
0.0
 11
9.013446550261023
 21
-80.40498913613743
 31
0.0
  0
LINE
  5
2954
330
1F
100
AcDbEntity
  8
AM_0
370
    30
100
AcDbLine
 10
10.27384403349115
 20
-80.79074731346231
 30
0.0
 11
10.30658926156897
 21
-80.52560769681833
 31
0.0
  0
LINE
  5
2955
330
1F
100
AcDbEntity
  8
AM_0
370
    30
100
AcDbLine
 10
11.48902877085433
 20
-80.66368754019385
 30
0.0
 11
10.16956092949769
 21
-80.80165115971846
 31
0.0
  0
LINE
  5
2957
330
1F
100
AcDbEntity
  8
AM_0
370
    30
100
AcDbLine
 10
26.24999999999986
 20
-91.15393550969446
 30
0.0
 11
26.24999999999986
 21
-87.42176238612075
 31
0.0
  0
LINE
  5
2958
330
1F
100
AcDbEntity
  8
AM_0
370
    30
100
AcDbLine
 10
25.99999999999986
 20
-91.15393550969446
 30
0.0
 11
25.99999999999986
 21
-86.93017880333019
 31
0.0
  0
LINE
  5
295B
330
1F
100
AcDbEntity
  8
AM_0
370
    30
100
AcDbLine
 10
24.81872007371109
 20
-73.15393550969446
 30
0.0
 11
25.26341389967101
 21
-73.15393550969446
 31
0.0
  0
LINE
  5
295C
330
1F
100
AcDbEntity
  8
AM_0
370
    30
100
AcDbLine
 10
26.24999999999986
 20
-76.88610863326807
 30
0.0
 11
26.24999999999986
 21
-73.15393550969446
 31
0.0
  0
LINE
  5
295D
330
1F
100
AcDbEntity
  8
AM_0
370
    30
100
AcDbLine
 10
25.26341389967101
 20
-73.15393550969446
 30
0.0
 11
25.99999999999986
 21
-73.15393550969446
 31
0.0
  0
LINE
  5
295E
330
1F
100
AcDbEntity
  8
AM_0
370
    30
100
AcDbLine
 10
25.99999999999986
 20
-77.37769221605873
 30
0.0
 11
25.99999999999986
 21
-73.15393550969446
 31
0.0
  0
LINE
  5
295F
330
1F
100
AcDbEntity
  8
AM_0
370
    30
100
AcDbLine
 10
22.50245169476338
 20
-77.37769221605873
 30
0.0
 11
25.99999999999986
 21
-77.37769221605873
 31
0.0
  0
SPLINE
  5
2961
330
1F
100
AcDbEntity
  8
AM_0
370
    30
100
AcDbSpline
210
0.0
220
0.0
230
1.0
 70
    12
 71
     2
 72
     6
 73
     3
 74
     0
 42
0.0000000001
 43
0.0000000001
 40
0.0
 40
0.0
 40
0.0
 40
0.6582629195149845
 40
0.6582629195149845
 40
0.6582629195149845
 10
26.24999999999986
 20
17.35889894354071
 30
0.0
 41
1.0
 10
26.11561372345702
 20
17.05059568098855
 30
0.0
 41
1.000475593576181
 10
25.99999999999986
 20
16.75000000000003
 30
0.0
 41
1.0
  0
ELLIPSE
  5
2962
330
1F
100
AcDbEntity
  8
AM_0
370
    30
100
AcDbEllipse
 10
11.99977492442585
 20
-57.76824086575843
 30
0.0
 11
-2.535097811604300E-14
 21
143.4994479485842
 31
0.0
210
0.0
220
0.0
230
1.0
 40
0.1045300188449914
 41
5.198315542420851
 42
5.258412285274069
  0
SPLINE
  5
2963
330
1F
100
AcDbEntity
  8
AM_0
370
    30
100
AcDbSpline
210
0.0
220
0.0
230
1.0
 70
    12
 71
     2
 72
     6
 73
     3
 74
     0
 42
0.0000000001
 43
0.0000000001
 40
0.0
 40
0.0
 40
0.0
 40
0.6582629195149845
 40
0.6582629195149845
 40
0.6582629195149845
 10
25.99999999999986
 20
9.250000000000028
 30
0.0
 41
1.0
 10
26.11561372345702
 20
8.949404319011507
 30
0.0
 41
1.000475593576181
 10
26.24999999999986
 20
8.641101056459348
 30
0.0
 41
1.0
  0
SPLINE
  5
2964
330
1F
100
AcDbEntity
  8
AM_0
370
    30
100
AcDbSpline
210
0.0
220
0.0
230
1.0
 70
     8
 71
     3
 72
    16
 73
    12
 74
     0
 42
0.0000000001
 43
0.0000000001
 40
2.773616221598966
 40
2.773616221598966
 40
2.773616221598966
 40
2.773616221598966
 40
4.114430806811771
 40
4.114430806811771
 40
6.171646210217656
 40
6.171646210217656
 40
8.228861613623542
 40
8.228861613623542
 40
9.252345757742397
 40
9.252345757742397
 40
9.662586797053043
 40
9.662586797053043
 40
9.662586797053043
 40
9.662586797053043
 10
25.26341389967101
 20
9.250000000000028
 30
0.0
 10
25.19411683719554
 20
8.826565434553601
 30
0.0
 10
25.10611464834719
 20
8.41684874835201
 30
0.0
 10
24.83073173762134
 20
7.431280344320982
 30
0.0
 10
24.61420704394979
 20
6.88234485899514
 30
0.0
 10
24.07504577301287
 20
5.918045142885859
 30
0.0
 10
23.75169216507251
 20
5.502698782700492
 30
0.0
 10
23.20255841010962
 20
4.987033267097473
 30
0.0
 10
22.99921076683322
 20
4.82353814878357
 30
0.0
 10
22.68865743499859
 20
4.613549698292928
 30
0.0
 10
22.59687447999872
 20
4.55560300115306
 30
0.0
 10
22.50245169476338
 20
4.500000000287656
 30
0.0
  0
SPLINE
  5
2965
330
1F
100
AcDbEntity
  8
AM_0
370
    30
100
AcDbSpline
210
0.0
220
0.0
230
1.0
 70
    28
 71
     2
 72
     6
 73
     3
 74
     0
 42
0.0000000001
 43
0.0000000001
 40
0.0
 40
0.0
 40
0.0
 40
0.5515167900486291
 40
0.5515167900486291
 40
0.5515167900486291
 10
25.99999999999986
 20
4.500000000000028
 30
0.0
 41
1.0
 10
26.11888216661075
 20
4.500000000000028
 30
0.0
 41
1.000309907719662
 10
26.24999999999986
 20
4.500000000000028
 30
0.0
 41
1.0
  0
ELLIPSE
  5
2967
330
1F
100
AcDbEntity
  8
AM_0
370
    30
100
AcDbEllipse
 10
9.506655916718358
 20
15.50526822135061
 30
0.0
 11
-0.7999999670305257
 21
-0.0002296762032882609
 31
0.0
210
0.0
220
0.0
230
0.9999999999999999
 40
0.9945217314214417
 41
3.089233566750926
 42
5.27089513174383
  0
ELLIPSE
  5
2968
330
1F
100
AcDbEntity
  8
AM_0
370
    30
100
AcDbEllipse
 10
12.40032399706055
 20
1.719892995760858
 30
0.0
 11
-4.999999793940786
 21
-0.001435476270555422
 31
0.0
210
0.0
220
0.0
230
1.0
 40
0.9945217314214412
 41
4.792344366419673
 42
5.257128609524824
  0
SPLINE
  5
2969
330
1F
100
AcDbEntity
  8
AM_0
370
    30
100
AcDbSpline
210
0.0
220
0.0
230
1.0
 70
     8
 71
     3
 72
    18
 73
    14
 74
     0
 42
0.0000000001
 43
0.0000000001
 40
22.38361295445567
 40
22.38361295445567
 40
22.38361295445567
 40
22.38361295445567
 40
22.78000632284001
 40
22.78000632284001
 40
23.73321841067555
 40
23.73321841067555
 40
24.68643049851109
 40
24.68643049851109
 40
25.63964258634663
 40
25.63964258634663
 40
26.59285467418216
 40
26.59285467418216
 40
27.45363920385748
 40
27.45363920385748
 40
27.45363920385748
 40
27.45363920385748
 10
11.99954984894166
 20
6.676500657787813
 30
0.0
 10
12.13433704305552
 20
6.687280210762708
 30
0.0
 10
12.26824015260806
 20
6.692310089783575
 30
0.0
 10
12.7179482166126
 20
6.691054374311477
 30
0.0
 10
13.04533839999394
 20
6.658475948529315
 30
0.0
 10
13.69454840997875
 20
6.524621225457452
 30
0.0
 10
14.01637834183916
 20
6.42338654680276
 30
0.0
 10
14.63199275431063
 20
6.158071920809732
 30
0.0
 10
14.92630379600641
 20
5.993793109094952
 30
0.0
 10
15.46974930315329
 20
5.61651995031508
 30
0.0
 10
15.71888479836454
 20
5.403506895198632
 30
0.0
 10
16.13835049592427
 20
4.973597196255156
 30
0.0
 10
16.32665982652742
 20
4.746070921977577
 30
0.0
 10
16.49606723636913
 20
4.500000000000028
 30
0.0
  0
SPLINE
  5
296A
330
1F
100
AcDbEntity
  8
AM_0
370
    30
100
AcDbSpline
210
0.0
220
0.0
230
1.0
 70
     8
 71
     3
 72
    16
 73
    12
 74
     0
 42
0.0000000001
 43
0.0000000001
 40
-20.92575754316229
 40
-20.92575754316229
 40
-20.92575754316229
 40
-20.92575754316229
 40
-20.92553246863419
 40
-20.92553246863419
 40
-18.77484889900038
 40
-18.77484889900038
 40
-16.62416532936656
 40
-16.62416532936656
 40
-14.47348175973276
 40
-14.47348175973276
 40
-12.86694030949101
 40
-12.86694030949101
 40
-12.86694030949101
 40
-12.86694030949101
 10
11.99954984894166
 20
22.46253432915844
 30
0.0
 10
11.99962487442176
 20
22.46253432943243
 30
0.0
 10
11.99969989958308
 20
22.46253432956931
 30
0.0
 10
12.71666944763715
 20
22.46253432956931
 30
0.0
 10
13.46266485021042
 20
22.45032836393605
 30
0.0
 10
14.96201784916408
 20
22.39204178640071
 30
0.0
 10
15.71537446184581
 20
22.3459292360142
 30
0.0
 10
17.18148941544538
 20
22.20229717248745
 30
0.0
 10
17.89499676772138
 20
22.10438514699231
 30
0.0
 10
19.07014838297354
 20
21.86974846227034
 30
0.0
 10
19.54995849522706
 20
21.74899871215715
 30
0.0
 10
19.99999999999986
 20
21.60505689950426
 30
0.0
  0
SPLINE
  5
296B
330
1F
100
AcDbEntity
  8
AM_0
370
    30
100
AcDbSpline
210
0.0
220
0.0
230
1.0
 70
     8
 71
     3
 72
    10
 73
     6
 74
     0
 42
0.0000000001
 43
0.0000000001
 40
5.220956609736569
 40
5.220956609736569
 40
5.220956609736569
 40
5.220956609736569
 40
5.297247726512397
 40
5.297247726512397
 40
5.373538845416049
 40
5.373538845416049
 40
5.373538845416049
 40
5.373538845416049
 10
11.99954984894166
 20
15.48834454294484
 30
0.0
 10
12.00068285150118
 20
15.4627072032518
 30
0.0
 10
12.0012376597733
 20
15.43721587324768
 30
0.0
 10
12.0012376597733
 20
15.38663375682091
 30
0.0
 10
12.00068285147208
 20
15.36114244497611
 30
0.0
 10
11.99954984894166
 20
15.33550510238621
 30
0.0
  0
ELLIPSE
  5
296C
330
1F
100
AcDbEntity
  8
AM_0
370
    30
100
AcDbEllipse
 10
10.25123766055762
 20
15.41191933832437
 30
0.0
 11
-1.74999992787927
 21
-0.0005024166946943961
 31
0.0
210
0.0
220
0.0
230
1.0
 40
0.9945217314214412
 41
2.356195280913306
 42
3.097384052849733
  0
ELLIPSE
  5
296D
330
1F
100
AcDbEntity
  8
AM_0
370
    30
100
AcDbEllipse
 10
10.25111852056566
 20
15.82690351295213
 30
0.0
 11
1.74999992787927
 21
0.0005024166946930696
 31
0.0
210
0.0
220
0.0
230
0.9999999999999999
 40
0.9945217314214413
 41
5.4977879345031
 42
6.163681033453392
  0
ELLIPSE
  5
296E
330
1F
100
AcDbEntity
  8
AM_0
370
    30
100
AcDbEllipse
 10
10.25123766055762
 20
15.41191933832437
 30
0.0
 11
-1.74999992787927
 21
-0.0005024166946943961
 31
0.0
210
0.0
220
0.0
230
1.0
 40
0.9945217314214412
 41
3.185230209383421
 42
5.497787934503116
  0
ELLIPSE
  5
296F
330
1F
100
AcDbEntity
  8
AM_0
370
    30
100
AcDbEllipse
 10
0.7999999996397662
 20
0.7956173854993835
 30
0.0
 11
-0.7999999670305257
 21
-0.0002296762032882609
 31
0.0
210
0.0
220
0.0
230
0.9999999999999999
 40
0.9945217314214417
 41
6.230826220340716
 42
8.412487785333633
  0
SPLINE
  5
2970
330
1F
100
AcDbEntity
  8
AM_0
370
    30
100
AcDbSpline
210
0.0
220
0.0
230
1.0
 70
    28
 71
     2
 72
     6
 73
     3
 74
     0
 42
0.0000000001
 43
0.0000000001
 40
0.0
 40
0.0
 40
0.0
 40
0.6582629195149845
 40
0.6582629195149845
 40
0.6582629195149845
 10
-54.01600620988668
 20
17.35889894354168
 30
0.0
 41
1.0
 10
-54.01600620988668
 20
17.05059568098952
 30
0.0
 41
1.000475593576181
 10
-54.01600620988668
 20
16.750000000001
 30
0.0
 41
1.0
  0
SPLINE
  5
2971
330
1F
100
AcDbEntity
  8
AM_0
370
    30
100
AcDbSpline
210
0.0
220
0.0
230
1.0
 70
     8
 71
     3
 72
    14
 73
    10
 74
     0
 42
0.0000000001
 43
0.0000000001
 40
-20.87046672221043
 40
-20.87046672221043
 40
-20.87046672221043
 40
-20.87046672221043
 40
-18.77484889900038
 40
-18.77484889900038
 40
-16.62416532936656
 40
-16.62416532936656
 40
-14.47348175973276
 40
-14.47348175973276
 40
-12.86694030949101
 40
-12.86694030949101
 40
-12.86694030949101
 40
-12.86694030949101
 10
-60.66581247998138
 20
22.46250967935745
 30
0.0
 10
-60.66324770217128
 20
22.4618981871499
 30
0.0
 10
-60.61183125899677
 20
22.44958218399128
 30
0.0
 10
-60.39591857255917
 20
22.39204178640168
 30
0.0
 10
-60.22848824487565
 20
22.34592923601517
 30
0.0
 10
-59.7857756673798
 20
22.20229717248841
 30
0.0
 10
-59.51027905400386
 20
22.10438514699328
 30
0.0
 10
-58.95945596580739
 20
21.8697484622713
 30
0.0
 10
-58.70193111066104
 20
21.74899871215811
 30
0.0
 10
-58.43174010108626
 20
21.60505689950523
 30
0.0
  0
SPLINE
  5
2972
330
1F
100
AcDbEntity
  8
AM_0
370
    30
100
AcDbSpline
210
0.0
220
0.0
230
1.0
 70
     8
 71
     3
 72
    20
 73
    16
 74
     0
 42
0.0000000001
 43
0.0000000001
 40
-12.86694030949101
 40
-12.86694030949101
 40
-12.86694030949101
 40
-12.86694030949101
 40
-12.32279819009895
 40
-12.32279819009895
 40
-11.2993140459801
 40
-11.2993140459801
 40
-10.27582990186124
 40
-10.27582990186124
 40
-9.25234575774239
 40
-9.25234575774239
 40
-8.228861613623536
 40
-8.228861613623536
 40
-6.171646210217645
 40
-6.171646210217645
 40
-4.78438566513478
 40
-4.78438566513478
 40
-4.78438566513478
 40
-4.78438566513478
 10
-58.43174010108626
 20
21.60505689950523
 30
0.0
 10
-58.34022530788334
 20
21.55630322247166
 30
0.0
 10
-58.24727745257044
 20
21.50490906237846
 30
0.0
 10
-57.97658030355345
 20
21.34914747709908
 30
0.0
 10
-57.78496080099617
 20
21.23147963885103
 30
0.0
 10
-57.38293639078009
 20
20.96175970085082
 30
0.0
 10
-57.17256329634486
 20
20.80962824369939
 30
0.0
 10
-56.74728102928967
 20
20.47256348587277
 30
0.0
 10
-56.53230585273528
 20
20.28746442972883
 30
0.0
 10
-56.11330738923905
 20
19.8918979343791
 30
0.0
 10
-55.90935173915639
 20
19.68139734814608
 30
0.0
 10
-55.33391738981757
 20
19.0318969794034
 30
0.0
 10
-54.95739547079441
 20
18.52723781651534
 30
0.0
 10
-54.39907579809986
 20
17.58324346191111
 30
0.0
 10
-54.19367031937193
 20
17.17639386276582
 30
0.0
 10
-54.01600620988668
 20
16.750000000001
 30
0.0
  0
SPLINE
  5
2973
330
1F
100
AcDbEntity
  8
AM_0
370
    30
100
AcDbSpline
210
0.0
220
0.0
230
1.0
 70
    28
 71
     2
 72
     6
 73
     3
 74
     0
 42
0.0000000001
 43
0.0000000001
 40
0.0
 40
0.0
 40
0.0
 40
0.6582629195149845
 40
0.6582629195149845
 40
0.6582629195149845
 10
-54.01600620988668
 20
9.250000000000995
 30
0.0
 41
1.0
 10
-54.01600620988668
 20
8.949404319012473
 30
0.0
 41
1.000475593576181
 10
-54.01600620988668
 20
8.641101056460315
 30
0.0
 41
1.0
  0
SPLINE
  5
2974
330
1F
100
AcDbEntity
  8
AM_0
370
    30
100
AcDbSpline
210
0.0
220
0.0
230
1.0
 70
     8
 71
     3
 72
    16
 73
    12
 74
     0
 42
0.0000000001
 43
0.0000000001
 40
2.773616221598966
 40
2.773616221598966
 40
2.773616221598966
 40
2.773616221598966
 40
4.114430806811771
 40
4.114430806811771
 40
6.171646210217656
 40
6.171646210217656
 40
8.228861613623542
 40
8.228861613623542
 40
9.252345757742397
 40
9.252345757742397
 40
9.662586797053043
 40
9.662586797053043
 40
9.662586797053043
 40
9.662586797053043
 10
-54.01600620988668
 20
9.250000000000995
 30
0.0
 10
-54.19243727882261
 20
8.826565434554567
 30
0.0
 10
-54.39848843271059
 20
8.416848748352976
 30
0.0
 10
-54.982762273438
 20
7.431280344321948
 30
0.0
 10
-55.39591033711682
 20
6.882344858996106
 30
0.0
 10
-56.2826949645694
 20
5.918045142886825
 30
0.0
 10
-56.75591481545533
 20
5.502698782701458
 30
0.0
 10
-57.45381487664864
 20
4.98703326709844
 30
0.0
 10
-57.69707965069668
 20
4.823538148784536
 30
0.0
 10
-58.04174368415946
 20
4.613549698293895
 30
0.0
 10
-58.14080951646125
 20
4.555603001154026
 30
0.0
 10
-58.23976291522709
 20
4.500000000288623
 30
0.0
  0
SPLINE
  5
2975
330
1F
100
AcDbEntity
  8
AM_0
370
    30
100
AcDbSpline
210
0.0
220
0.0
230
1.0
 70
    28
 71
     2
 72
     6
 73
     3
 74
     0
 42
0.0000000001
 43
0.0000000001
 40
0.0
 40
0.0
 40
0.0
 40
0.5515167900486291
 40
0.5515167900486291
 40
0.5515167900486291
 10
-58.23976291625095
 20
4.500000000000995
 30
0.0
 41
1.0
 10
-57.99708241335432
 20
4.500000000000995
 30
0.0
 41
1.000309907719662
 10
-57.74817933346029
 20
4.500000000000995
 30
0.0
 41
1.0
  0
ELLIPSE
  5
2976
330
1F
100
AcDbEntity
  8
AM_0
370
    30
100
AcDbEllipse
 10
-62.93238219740013
 20
0.8956173855003442
 30
0.0
 11
0.08362401507599321
 21
0.7956173854954216
 31
0.0
210
0.0
220
0.0
230
1.0
 40
0.0000300100735457
 41
3.141588968823346
 42
4.764462544750301
  0
ELLIPSE
  5
2977
330
1F
100
AcDbEntity
  8
AM_0
370
    30
100
AcDbEllipse
 10
-66.88063347114328
 20
1.310601560128106
 30
0.0
 11
0.03267036538972624
 21
0.310833086296238
 31
0.0
210
0.0
220
0.0
230
1.0
 40
0.0000300100735457
 41
2.582800979756578
 42
4.764462544750301
  0
SPLINE
  5
2978
330
1F
100
AcDbEntity
  8
AM_0
370
    30
100
AcDbSpline
210
0.0
220
0.0
230
1.0
 70
    28
 71
     2
 72
     6
 73
     3
 74
     0
 42
0.0000000001
 43
0.0000000001
 40
0.0
 40
0.0
 40
0.0
 40
0.6582629195149808
 40
0.6582629195149808
 40
0.6582629195149808
 10
-72.01600620988668
 20
16.750000000001
 30
0.0
 41
1.0
 10
-72.01600620988668
 20
17.05059568098952
 30
0.0
 41
1.000475593577811
 10
-72.01600620988668
 20
17.35889894354168
 30
0.0
 41
1.0
  0
ELLIPSE
  5
2979
330
1F
100
AcDbEntity
  8
AM_0
370
    30
100
AcDbEllipse
 10
-62.09691712139855
 20
12.49100478189925
 30
0.0
 11
-11.01642586869879
 21
6.100940766217718
 31
0.0
210
0.0
220
0.0
230
1.0
 40
0.9965137262393113
 41
1.167015309146837
 42
1.599338497169434
  0
SPLINE
  5
297A
330
1F
100
AcDbEntity
  8
AM_0
370
    30
100
AcDbSpline
210
0.0
220
0.0
230
1.0
 70
     8
 71
     3
 72
    14
 73
    10
 74
     0
 42
0.0000000001
 43
0.0000000001
 40
0.2976182142145351
 40
0.2976182142145351
 40
0.2976182142145351
 40
0.2976182142145351
 40
0.3161200943214183
 40
0.3161200943214183
 40
0.5207512460620372
 40
0.5207512460620372
 40
0.9511184242096022
 40
0.9511184242096022
 40
1.007744277109782
 40
1.007744277109782
 40
1.007744277109782
 40
1.007744277109782
 10
-67.14282228529308
 20
1.197900897589733
 30
0.0
 10
-67.14907741227162
 20
1.198551590775509
 30
0.0
 10
-67.15535490840355
 20
1.199244968021475
 30
0.0
 10
-67.23115983792891
 20
1.207838800474377
 30
0.0
 10
-67.30196497738533
 20
1.218869576574519
 30
0.0
 10
-67.50243506587665
 20
1.254403662850763
 30
0.0
 10
-67.6519978793506
 20
1.287786491512151
 30
0.0
 10
-67.82057807248478
 20
1.33261253956934
 30
0.0
 10
-67.84017067188577
 20
1.337930810939582
 30
0.0
 10
-67.85972207384205
 20
1.343346089501523
 30
0.0
  0
ELLIPSE
  5
297B
330
1F
100
AcDbEntity
  8
AM_0
370
    30
100
AcDbEllipse
 10
-69.29377407116934
 20
1.725630975167604
 30
0.0
 11
-2.431584170902966
 21
0.2396330196837232
 31
0.0
210
0.0
220
0.0
230
0.9999999999999999
 40
0.1226125894704484
 41
2.213588012536206
 42
3.140797280655857
  0
ELLIPSE
  5
297C
330
1F
100
AcDbEntity
  8
AM_0
370
    30
100
AcDbEllipse
 10
-66.86385521791559
 20
1.470232369603735
 30
0.0
 11
0.03135900565349745
 21
0.2983565195607831
 31
0.0
210
0.0
220
0.0
230
0.9999999999999999
 40
0.0000300100735457
 41
3.141592653593874
 42
4.764462544748657
  0
SPLINE
  5
297D
330
1F
100
AcDbEntity
  8
AM_0
370
    30
100
AcDbSpline
210
0.0
220
0.0
230
1.0
 70
     8
 71
     3
 72
    20
 73
    16
 74
     0
 42
0.0000000001
 43
0.0000000001
 40
22.48459358891212
 40
22.48459358891212
 40
22.48459358891212
 40
22.48459358891212
 40
22.78000632284001
 40
22.78000632284001
 40
23.73321841067555
 40
23.73321841067555
 40
24.68643049851109
 40
24.68643049851109
 40
25.63964258634663
 40
25.63964258634663
 40
26.59285467418216
 40
26.59285467418216
 40
27.54323749550747
 40
27.54323749550747
 40
27.56909075184033
 40
27.56909075184033
 40
27.56909075184033
 40
27.56909075184033
 10
-62.31350327615112
 20
6.783627003883765
 30
0.0
 10
-62.31219657329316
 20
6.789492561295987
 30
0.0
 10
-62.31021889558886
 20
6.792216134218137
 30
0.0
 10
-62.29916565474858
 20
6.791054374312438
 30
0.0
 10
-62.28338377212052
 20
6.758475948530275
 30
0.0
 10
-62.23757388264338
 20
6.624621225458412
 30
0.0
 10
-62.207567490309
 20
6.523386546803721
 30
0.0
 10
-62.13835923292962
 20
6.258071920810693
 30
0.0
 10
-62.09916147749087
 20
6.093793109095913
 30
0.0
 10
-62.01956289573539
 20
5.716519950316041
 30
0.0
 10
-61.97925780030781
 20
5.503506895199593
 30
0.0
 10
-61.90620172065135
 20
5.052362771551401
 30
0.0
 10
-61.87076919319182
 20
4.798450038609275
 30
0.0
 10
-61.84053907694695
 20
4.515057986161054
 30
0.0
 10
-61.83974294153759
 20
4.507536950883008
 30
0.0
 10
-61.83895133966954
 20
4.500000000000995
 30
0.0
  0
SPLINE
  5
297E
330
1F
100
AcDbEntity
  8
AM_0
370
    30
100
AcDbSpline
210
0.0
220
0.0
230
1.0
 70
     8
 71
     3
 72
    20
 73
    16
 74
     0
 42
0.0000000001
 43
0.0000000001
 40
-12.86694030949101
 40
-12.86694030949101
 40
-12.86694030949101
 40
-12.86694030949101
 40
-12.32279819009895
 40
-12.32279819009895
 40
-11.2993140459801
 40
-11.2993140459801
 40
-10.27582990186124
 40
-10.27582990186124
 40
-9.25234575774239
 40
-9.25234575774239
 40
-8.228861613623536
 40
-8.228861613623536
 40
-6.171646210217645
 40
-6.171646210217645
 40
-4.78438566513478
 40
-4.78438566513478
 40
-4.78438566513478
 40
-4.78438566513478
 10
19.99999999999986
 20
21.60505689950426
 30
0.0
 10
20.15243088697432
 20
21.55630322247069
 30
0.0
 10
20.30146516411023
 20
21.50490906237749
 30
0.0
 10
20.720406228732
 20
21.34914747709811
 30
0.0
 10
20.99823444604735
 20
21.23147963885006
 30
0.0
 10
21.542663407748
 20
20.96175970084985
 30
0.0
 10
21.80924832551315
 20
20.80962824369843
 30
0.0
 10
22.31575325805372
 20
20.4725634858718
 30
0.0
 10
22.55582536116467
 20
20.28746442972786
 30
0.0
 10
22.99921076683322
 20
19.89189793437814
 30
0.0
 10
23.20255841010962
 20
19.68139734814511
 30
0.0
 10
23.75169216507251
 20
19.03189697940243
 30
0.0
 10
24.07504577301287
 20
18.52723781651437
 30
0.0
 10
24.52641514031981
 20
17.58324346191014
 30
0.0
 10
24.68427102670145
 20
17.17639386276485
 30
0.0
 10
24.81872007371109
 20
16.75000000000003
 30
0.0
  0
DIMENSION
  5
297F
330
1F
100
AcDbEntity
  8
AM_5
100
AcDbDimension
  2
*D4
 10
-53.9375405141481
 20
4.007476470135345
 30
0.0
 11
-101.9986640929654
 21
31.18774471494871
 31
0.0
 70
   163
  1
最小加工径<>
 71
     5
 42
25.00000000000001
  3
AM_JIS$3
100
AcDbDiametricDimension
 15
-72.09447190562507
 25
21.19252352986721
 35
0.0
 40
0.0
1001
GENIUS_GENDTOL_13
1000

1000
h7
1000

1040
0.0
1001
ACAD
1000
DSTYLE
1002
{
1070
   287
1070
     3
1070
   271
1070
     0
1070
   288
1070
     1
1070
   289
1070
     3
1070
   172
1070
     1
1070
    74
1070
     1
1002
}
  0
LINE
  5
2980
330
1F
100
AcDbEntity
  8
AM_7
  6
CENTER
100
AcDbLine
 10
-47.40940589959192
 20
13.000000000001
 30
0.0
 11
-78.71940548730973
 21
13.000000000001
 31
0.0
1001
GENIUS_GENODEF_13
1002
{
1000
HIER
1070
     0
1002
}
1002
{
1000
MANEDIT
1070
     0
1002
}
1002
{
1000
NOSEL
1070
     0
1002
}
1002
{
1000
BEHIND
1070
     0
1002
}
1002
{
1000
REACTOR
1002
}
1001
GENIUS_GENOBJ-N-CEN_13
1002
{
1000
OWNER
1000
GEN
1002
}
  0
DIMENSION
  5
2981
330
1F
100
AcDbEntity
  8
AM_5
100
AcDbDimension
  2
*D5
 10
-61.87462916712465
 20
10.95923522666595
 30
0.0
 11
-53.01129706202649
 21
-17.27667456764446
 31
0.0
 70
   162
  1
-<>
 71
     5
 42
0.1047197551201213
  3
AM_JIS$2
100
AcDb2LineAngularDimension
 13
-63.01600620988668
 23
-3.07565964247712
 33
0.0
 14
-63.01600620988668
 24
29.47866351642747
 34
0.0
 15
-62.9280057204605
 25
0.9370267907403047
 35
0.0
 16
-64.13702067881751
 26
-15.93149572686062
 36
0.0
1001
GENIUS_GENDTOL_13
1000

1000
h7
1000

1040
0.0
1001
ACAD
1000
DSTYLE
1002
{
1070
   271
1070
     0
1070
   279
1070
     1
1070
   289
1070
     3
1002
}
  0
LINE
  5
2982
330
1F
100
AcDbEntity
  8
AM_7
  6
CENTER
100
AcDbLine
 10
-63.01600620988668
 20
-3.07565964247712
 30
0.0
 11
-63.01600620988668
 21
29.47866351642747
 31
0.0
1001
GENIUS_GENODEF_13
1002
{
1000
HIER
1070
     0
1002
}
1002
{
1000
MANEDIT
1070
     0
1002
}
1002
{
1000
NOSEL
1070
     0
1002
}
1002
{
1000
BEHIND
1070
     0
1002
}
1002
{
1000
REACTOR
1002
}
1001
GENIUS_GENOBJ-N-CEN_13
1002
{
1000
OWNER
1000
GEN
1002
}
  0
DIMENSION
  5
2983
330
1F
100
AcDbEntity
  8
AM_5
100
AcDbDimension
  2
*D6
 10
-14.08289312109176
 20
0.0000000000000023
 30
0.0
 11
-14.08289312109176
 21
6.603560422055381
 31
0.0
 70
   160
  1
<>
 71
     5
 42
13.00000000000102
  3
AM_JIS$0
100
AcDbAlignedDimension
 13
-4.516423715498405
 23
13.00000000000102
 33
0.0
 14
-6.03951167695638
 24
0.0
 34
0.0
 50
270.0
100
AcDbRotatedDimension
1001
ACAD
1000
DSTYLE
1002
{
1070
   271
1070
     0
1002
}
  0
LINE
  5
2987
330
1F
100
AcDbEntity
  8
AM_0
370
    30
100
AcDbLine
 10
-65.85203555072692
 20
11.09696719837288
 30
0.0
 11
-66.87892366205782
 21
1.326779453506418
 31
0.0
  0
LINE
  5
2988
330
1F
100
AcDbEntity
  8
AM_0
370
    30
100
AcDbLine
 10
-66.86221403906328
 20
1.485760896568166
 30
0.0
 11
-65.82856539491402
 21
11.3202708145744
 31
0.0
  0
LINE
  5
2989
330
1F
100
AcDbEntity
  8
AM_0
370
    30
100
AcDbLine
 10
-62.92800572046056
 20
0.9370267907403047
 30
0.0
 11
-61.8746291671246
 21
10.95923522666598
 31
0.0
  0
CIRCLE
  5
298A
330
1F
100
AcDbEntity
  8
AM_5
  6
AM_ISO09W050
100
AcDbCircle
 10
-63.01600620988668
 20
12.60000000000099
 30
0.0
 40
12.5
  0
LINE
  5
298B
330
1F
100
AcDbEntity
  8
AM_0
370
    30
100
AcDbLine
 10
-66.91330383656717
 20
0.9997684738376336
 30
0.0
 11
-63.01600621256355
 21
0.1000000000195485
 31
0.0
  0
LINE
  5
298C
330
1F
100
AcDbEntity
  8
AM_0
370
    30
100
AcDbLine
 10
-67.14282228529308
 20
1.197900897589733
 30
0.0
 11
-66.89521422356907
 21
1.171875850042937
 31
0.0
  0
LINE
  5
298D
330
1F
100
AcDbEntity
  8
AM_0
370
    30
100
AcDbLine
 10
-66.90833949975266
 20
1.047047844158186
 30
0.0
 11
-66.89522528544867
 21
1.171877012710837
 31
0.0
  0
LINE
  5
298E
330
1F
100
AcDbEntity
  8
AM_0
370
    30
100
AcDbLine
 10
-61.83895133966954
 20
4.500000000000995
 30
0.0
 11
-58.23976291525779
 21
4.500000000000995
 31
0.0
  0
ARC
  5
298F
330
1F
100
AcDbEntity
  8
AM_0
370
    30
100
AcDbCircle
 10
-63.01600620988668
 20
13.000000000001
 30
0.0
 40
10.0
100
AcDbArc
 50
25.84193276316492
 51
154.1580672368351
  0
LINE
  5
2990
330
1F
100
AcDbEntity
  8
AM_0
370
    30
100
AcDbLine
 10
-61.8746291671246
 20
10.95923522666598
 30
0.0
 11
-61.13461496993446
 21
18.000000000001
 31
0.0
  0
LINE
  5
2991
330
1F
100
AcDbEntity
  8
AM_0
370
    30
100
AcDbLine
 10
-72.01600620988668
 20
16.750000000001
 30
0.0
 11
-72.01600620988668
 21
4.792863417323332
 31
0.0
  0
LINE
  5
2992
330
1F
100
AcDbEntity
  8
AM_0
370
    30
100
AcDbLine
 10
-62.55352214602752
 20
4.500000000000995
 30
0.0
 11
-61.83895133966954
 21
4.500000000000995
 31
0.0
  0
LINE
  5
2993
330
1F
100
AcDbEntity
  8
AM_0
370
    30
100
AcDbLine
 10
-61.8746291671246
 20
10.95923522666598
 30
0.0
 11
-65.85203555072692
 21
11.09696719837288
 31
0.0
  0
LINE
  5
2994
330
1F
100
AcDbEntity
  8
AM_0
370
    30
100
AcDbLine
 10
-61.8746291671246
 20
10.95923522666598
 30
0.0
 11
-64.34923716550318
 21
11.04492741045269
 31
0.0
  0
LINE
  5
2995
330
1F
100
AcDbEntity
  8
AM_0
370
    30
100
AcDbLine
 10
-65.82856539491402
 20
11.32027081457451
 30
0.0
 11
-64.34923716550318
 21
11.04492741045269
 31
0.0
  0
ARC
  5
2996
330
1F
100
AcDbEntity
  8
AM_0
370
    30
100
AcDbCircle
 10
-63.01600620988668
 20
13.000000000001
 30
0.0
 40
9.75
100
AcDbArc
 50
76.05174453839356
 51
144.3212967208718
  0
LINE
  5
2997
330
1F
100
AcDbEntity
  8
AM_0
370
    30
100
AcDbLine
 10
-61.13461496993446
 20
18.000000000001
 30
0.0
 11
-70.93593483523628
 21
18.6865833827861
 31
0.0
  0
ARC
  5
2998
330
1F
100
AcDbEntity
  8
AM_0
370
    30
100
AcDbCircle
 10
-63.01600620988668
 20
13.000000000001
 30
0.0
 40
9.749999999999998
100
AcDbArc
 50
144.3212967208718
 51
157.3801350519598
  0
LINE
  5
2999
330
1F
100
AcDbEntity
  8
AM_0
370
    30
100
AcDbLine
 10
-60.6658124800388
 20
22.46250967881119
 30
0.0
 11
-61.13461496993446
 21
18.000000000001
 31
0.0
  0
LINE
  5
299A
330
1F
100
AcDbEntity
  8
AM_0
370
    30
100
AcDbLine
 10
-54.01600620988668
 20
16.750000000001
 30
0.0
 11
-54.01600620988668
 21
9.250000000000995
 31
0.0
  0
ARC
  5
299B
330
1F
100
AcDbEntity
  8
AM_0
370
    30
100
AcDbCircle
 10
-63.01600620988668
 20
13.000000000001
 30
0.0
 40
10.0
100
AcDbArc
 50
301.7883306170527
 51
334.1580672368351
  0
LINE
  5
29A2
330
1F
100
AcDbEntity
  8
AM_0
370
    30
100
AcDbLine
 10
9.122558287176815
 20
22.75000000000003
 30
0.0
 11
25.99999999999986
 21
22.75000000000003
 31
0.0
  0
LINE
  5
29A3
330
1F
100
AcDbEntity
  8
AM_0
370
    30
100
AcDbLine
 10
16.4960672363691
 20
4.500000000000028
 30
0.0
 11
22.50245169479362
 21
4.500000000000028
 31
0.0
  0
DIMENSION
  5
29A4
330
1F
100
AcDbEntity
  8
AM_5
100
AcDbDimension
  2
*D7
 10
34.32173317577824
 20
4.499999999999995
 30
0.0
 11
34.32173317577824
 21
-9.428700576850893
 31
0.0
 70
   160
  1
<>
 71
     5
 42
4.500000000000004
  3
AM_JIS$0
100
AcDbAlignedDimension
 13
0.7999974762531394
 23
0.0
 33
0.0
 14
16.56319292833754
 24
4.5
 34
0.0
 50
90.0
100
AcDbRotatedDimension
1001
ACAD
1000
DSTYLE
1002
{
1070
    76
1070
     1
1070
   271
1070
     1
1002
}
  0
LINE
  5
29A5
330
1F
100
AcDbEntity
  8
AM_0
370
    30
100
AcDbLine
 10
0.0010844173612838
 20
0.8370267907393441
 30
0.0
 11
0.5263261049999244
 21
10.85923522666502
 31
0.0
  0
LINE
  5
29A6
330
1F
100
AcDbEntity
  8
AM_0
370
    30
100
AcDbLine
 10
9.7803298113582
 20
5.441650380185081
 30
0.0
 11
1.224129639343886
 21
0.121017647948463
 31
0.0
  0
LINE
  5
29A7
330
1F
100
AcDbEntity
  8
AM_7
  6
CENTER
100
AcDbLine
 10
5.153327958179006
 20
13.50044280342505
 30
0.0
 11
5.153327958179006
 21
2.800442803425057
 31
0.0
1001
GENIUS_GENODEF_13
1002
{
1000
HIER
1070
     0
1002
}
1002
{
1000
MANEDIT
1070
     0
1002
}
1002
{
1000
NOSEL
1070
     0
1002
}
1002
{
1000
BEHIND
1070
     0
1002
}
1002
{
1000
REACTOR
1002
}
1001
GENIUS_GENOBJ-N-CEN_13
1002
{
1000
OWNER
1000
GEN
1002
}
  0
LINE
  5
29A8
330
1F
100
AcDbEntity
  8
AM_0
370
    30
100
AcDbLine
 10
-6.03951167695638
 20
0.0
 30
0.0
 11
0.7999974762531394
 21
0.0
 31
0.0
  0
LINE
  5
29A9
330
1F
100
AcDbEntity
  8
AM_5
370
    13
100
AcDbLine
 10
0.0
 20
-4.15033830589266
 30
0.0
 11
0.0
 21
0.8956148759365306
 31
0.0
  0
LINE
  5
29AA
330
1F
100
AcDbEntity
  8
AM_5
370
    13
100
AcDbLine
 10
0.0000000000000284
 20
0.7956148759365362
 30
0.0
 11
0.0000000000000284
 21
0.0
 31
0.0
  0
LINE
  5
29AB
330
1F
100
AcDbEntity
  8
AM_5
370
    13
100
AcDbLine
 10
0.7999974762531394
 20
0.0
 30
0.0
 11
0.0000000000000284
 21
0.0
 31
0.0
  0
LINE
  5
29AC
330
1F
100
AcDbEntity
  8
AM_0
370
    30
100
AcDbLine
 10
0.5263261049999244
 20
10.85923522666502
 30
0.0
 11
9.082526277014125
 21
16.17986795890153
 31
0.0
  0
LINE
  5
29AD
330
1F
100
AcDbEntity
  8
AM_0
370
    30
100
AcDbLine
 10
0.5263261049999244
 20
10.85923522666502
 30
0.0
 11
7.659633063593304
 21
15.29504852345093
 31
0.0
  0
LINE
  5
29AE
330
1F
100
AcDbEntity
  8
AM_0
370
    30
100
AcDbLine
 10
8.624610444191688
 20
22.46250967881022
 30
0.0
 11
0.8953169512246575
 21
18.00000000000003
 31
0.0
  0
LINE
  5
29AF
330
1F
100
AcDbEntity
  8
AM_7
  6
CENTER
100
AcDbLine
 10
10.50332795817903
 20
8.150442803425051
 30
0.0
 11
-0.1966720418210173
 21
8.150442803425051
 31
0.0
1001
GENIUS_GENODEF_13
1002
{
1000
HIER
1070
     0
1002
}
1002
{
1000
MANEDIT
1070
     0
1002
}
1002
{
1000
NOSEL
1070
     0
1002
}
1002
{
1000
BEHIND
1070
     0
1002
}
1002
{
1000
REACTOR
1002
}
1001
GENIUS_GENOBJ-N-CEN_13
1002
{
1000
OWNER
1000
GEN
1002
}
  0
ARC
  5
29B0
330
1F
100
AcDbEntity
  8
AM_0
370
    30
100
AcDbCircle
 10
6.13703310702121
 20
9.854270100886595
 30
0.0
 40
0.726
100
AcDbArc
 50
196.9722150900658
 51
283.0277849099352
  0
ARC
  5
29B1
330
1F
100
AcDbEntity
  8
AM_0
370
    30
100
AcDbCircle
 10
6.13703310702121
 20
6.446615505963507
 30
0.0
 40
0.726
100
AcDbArc
 50
76.97221509006495
 51
163.0277849099383
  0
CIRCLE
  5
29B2
330
1F
100
AcDbEntity
  8
AM_0
370
    30
100
AcDbCircle
 10
5.153327958179006
 20
8.150442803425051
 30
0.0
 40
2.8
  0
CIRCLE
  5
29B3
330
1F
100
AcDbEntity
  8
AM_0
370
    30
100
AcDbCircle
 10
5.153327958179006
 20
8.150442803425051
 30
0.0
 40
2.35
  0
CIRCLE
  5
29B4
330
1F
100
AcDbEntity
  8
AM_0
370
    30
100
AcDbCircle
 10
5.153327958179006
 20
8.150442803425051
 30
0.0
 40
1.706099999999583
  0
LINE
  5
29B5
330
1F
100
AcDbEntity
  8
AM_0
370
    30
100
AcDbLine
 10
0.5263261049999244
 20
10.95923522666502
 30
0.0
 11
0.8953169512246575
 21
18.00000000000003
 31
0.0
  0
ARC
  5
29B6
330
1F
100
AcDbEntity
  8
AM_0
370
    30
100
AcDbCircle
 10
4.169622809336971
 20
9.854270100886708
 30
0.0
 40
0.726
100
AcDbArc
 50
256.9722150900649
 51
343.0277849099383
  0
ARC
  5
29B7
330
1F
100
AcDbEntity
  8
AM_0
370
    30
100
AcDbCircle
 10
3.18591766049488
 20
8.150442803425051
 30
0.0
 40
0.726
100
AcDbArc
 50
316.9722150900635
 51
43.0277849099365
  0
ARC
  5
29B8
330
1F
100
AcDbEntity
  8
AM_0
370
    30
100
AcDbCircle
 10
3.937774701427458
 20
7.44864280342523
 30
0.0
 40
0.3024999999998347
100
AcDbArc
 50
136.9722150900635
 51
283.0277849099384
  0
ARC
  5
29B9
330
1F
100
AcDbEntity
  8
AM_0
370
    30
100
AcDbCircle
 10
3.937774701427458
 20
8.852242803424986
 30
0.0
 40
0.3024999999998347
100
AcDbArc
 50
76.97221509006822
 51
223.0277849099414
  0
ARC
  5
29BA
330
1F
100
AcDbEntity
  8
AM_0
370
    30
100
AcDbCircle
 10
5.153327958179062
 20
6.746842803425352
 30
0.0
 40
0.3024999999998347
100
AcDbArc
 50
196.9722150900682
 51
343.0277849099327
  0
ARC
  5
29BB
330
1F
100
AcDbEntity
  8
AM_0
370
    30
100
AcDbCircle
 10
4.169622809337028
 20
6.446615505963393
 30
0.0
 40
0.726
100
AcDbArc
 50
16.97221509006581
 51
103.0277849099351
  0
ARC
  5
29BC
330
1F
100
AcDbEntity
  8
AM_0
370
    30
100
AcDbCircle
 10
5.153327958179062
 20
9.554042803424807
 30
0.0
 40
0.3024999999998347
100
AcDbArc
 50
16.97221509006814
 51
163.0277849099319
  0
LINE
  5
29BE
330
1F
100
AcDbEntity
  8
AM_0
370
    30
100
AcDbLine
 10
10.30557149899673
 20
15.46385881611076
 30
0.0
 11
9.7803298113582
 21
5.441650380185081
 31
0.0
  0
LINE
  5
29BF
330
1F
100
AcDbEntity
  8
AM_0
370
    30
100
AcDbLine
 10
10.16956092949769
 20
12.86862254852298
 30
0.0
 11
9.808126007370191
 21
5.972033395690175
 31
0.0
  0
ARC
  5
29C0
330
1F
100
AcDbEntity
  8
AM_0
370
    30
100
AcDbCircle
 10
7.120738255863245
 20
8.150442803425051
 30
0.0
 40
0.726
100
AcDbArc
 50
136.9722150900635
 51
223.0277849099365
  0
ARC
  5
29C1
330
1F
100
AcDbEntity
  8
AM_0
370
    30
100
AcDbCircle
 10
6.368881214930667
 20
7.44864280342523
 30
0.0
 40
0.3024999999998347
100
AcDbArc
 50
256.9722150900616
 51
43.0277849099365
  0
ARC
  5
29C2
330
1F
100
AcDbEntity
  8
AM_0
370
    30
100
AcDbCircle
 10
6.368881214930667
 20
8.852242803424986
 30
0.0
 40
0.3024999999998347
100
AcDbArc
 50
316.9722150900681
 51
103.0277849099418
  0
LINE
  5
29C3
330
1F
100
AcDbEntity
  8
AM_0
370
    30
100
AcDbLine
 10
10.19251248110706
 20
13.30656424197667
 30
0.0
 11
11.48890963086237
 21
14.59660194374027
 31
0.0
  0
LINE
  5
29C4
330
1F
100
AcDbEntity
  8
AM_0
370
    30
100
AcDbLine
 10
11.48902877085433
 20
14.18161776911251
 30
0.0
 11
10.16956092949769
 21
12.86862254852298
 31
0.0
  0
LINE
  5
29C5
330
1F
100
AcDbEntity
  8
AM_0
370
    30
100
AcDbLine
 10
7.659633063593304
 20
15.29504852345093
 30
0.0
 11
9.013446550261023
 21
16.64222090753623
 31
0.0
  0
LINE
  5
29C6
330
1F
100
AcDbEntity
  8
AM_0
370
    30
100
AcDbLine
 10
8.624610444191688
 20
22.46250967881022
 30
0.0
 11
11.99954984894166
 21
22.46253432923518
 31
0.0
  0
LINE
  5
29C7
330
1F
100
AcDbEntity
  8
AM_0
370
    30
100
AcDbLine
 10
8.624610444970443
 20
22.46250967925974
 30
0.0
 11
9.122558287176815
 21
22.75000000000003
 31
0.0
  0
LINE
  5
29C9
330
1F
100
AcDbEntity
  8
AM_0
370
    30
100
AcDbLine
 10
26.24999999999986
 20
4.500000000000028
 30
0.0
 11
26.24999999999986
 21
8.641101056459348
 31
0.0
  0
LINE
  5
29CA
330
1F
100
AcDbEntity
  8
AM_0
370
    30
100
AcDbLine
 10
25.26341389967101
 20
9.250000000000028
 30
0.0
 11
25.99999999999997
 21
9.250000000000028
 31
0.0
  0
LINE
  5
29CB
330
1F
100
AcDbEntity
  8
AM_0
370
    30
100
AcDbLine
 10
25.99999999999986
 20
4.500000000000028
 30
0.0
 11
25.99999999999986
 21
9.250000000000028
 31
0.0
  0
LINE
  5
29CC
330
1F
100
AcDbEntity
  8
AM_0
370
    30
100
AcDbLine
 10
22.50245169476338
 20
4.500000000000028
 30
0.0
 11
25.99999999999986
 21
4.500000000000028
 31
0.0
  0
LINE
  5
29CE
330
1F
100
AcDbEntity
  8
AM_0
370
    30
100
AcDbLine
 10
26.24999999999986
 20
17.35889894354071
 30
0.0
 11
26.24999999999986
 21
23.00000000000003
 31
0.0
  0
LINE
  5
29CF
330
1F
100
AcDbEntity
  8
AM_0
370
    30
100
AcDbLine
 10
25.99999999999986
 20
16.75000000000003
 30
0.0
 11
25.99999999999986
 21
22.75000000000003
 31
0.0
  0
LINE
  5
29D1
330
1F
100
AcDbEntity
  8
AM_0
370
    30
100
AcDbLine
 10
25.99999999999986
 20
16.75000000000014
 30
0.0
 11
24.81872007371109
 21
16.75000000000003
 31
0.0
  0
LINE
  5
29D2
330
1F
100
AcDbEntity
  8
AM_0
370
    30
100
AcDbLine
 10
25.99999999999986
 20
22.75000000000003
 30
0.0
 11
26.24999999999986
 21
23.00000000000003
 31
0.0
  0
SPLINE
  5
29D5
330
1F
100
AcDbEntity
  8
AM_0
370
    30
100
AcDbSpline
210
0.0
220
0.0
230
1.0
 70
    12
 71
     2
 72
     6
 73
     3
 74
     0
 42
0.0000000001
 43
0.0000000001
 40
0.0
 40
0.0
 40
0.0
 40
2.519162529224027
 40
2.519162529224027
 40
2.519162529224027
 10
249.0
 20
-76.88610863326724
 30
0.0
 41
1.0
 10
249.6403977872501
 20
-78.10178599372867
 30
0.0
 41
1.007472283039057
 10
250.0
 20
-79.19589561814374
 30
0.0
 41
1.0
  0
SPLINE
  5
29D6
330
1F
100
AcDbEntity
  8
AM_0
370
    30
100
AcDbSpline
210
0.0
220
0.0
230
1.0
 70
    12
 71
     2
 72
     6
 73
     3
 74
     0
 42
0.0000000001
 43
0.0000000001
 40
0.0
 40
0.0
 40
0.0
 40
2.519162529224027
 40
2.519162529224027
 40
2.519162529224027
 10
250.0
 20
-85.11197540124343
 30
0.0
 41
1.0
 10
249.6403977872501
 20
-86.20608502565861
 30
0.0
 41
1.007472283039057
 10
249.0
 20
-87.42176238611992
 30
0.0
 41
1.0
  0
LINE
  5
29F9
330
1F
100
AcDbEntity
  8
AM_0
370
    30
100
AcDbLine
 10
249.0
 20
-91.15393550969444
 30
0.0
 11
249.0
 21
-87.42176238612078
 31
0.0
  0
LINE
  5
29FA
330
1F
100
AcDbEntity
  8
AM_0
370
    30
100
AcDbLine
 10
250.0
 20
-91.15393550969267
 30
0.0
 11
250.0
 21
-82.15393550969455
 31
0.0
  0
LINE
  5
29FB
330
1F
100
AcDbEntity
  8
AM_0
370
    30
100
AcDbLine
 10
250.0
 20
-82.15393550969455
 30
0.0
 11
250.0
 21
-73.15393550969455
 31
0.0
  0
LINE
  5
29FE
330
1F
100
AcDbEntity
  8
AM_0
370
    30
100
AcDbLine
 10
249.0
 20
-76.88610863326827
 30
0.0
 11
249.0
 21
-73.15393550969449
 31
0.0
  0
SPLINE
  5
2A04
330
1F
100
AcDbEntity
  8
AM_0
370
    30
100
AcDbSpline
210
0.0
220
0.0
230
1.0
 70
    12
 71
     2
 72
     6
 73
     3
 74
     0
 42
0.0000000001
 43
0.0000000001
 40
4.496611670767367
 40
4.496611670767367
 40
4.496611670767367
 40
8.993223341534733
 40
8.993223341534733
 40
8.993223341534733
 10
250.0
 20
13.00000000000003
 30
0.0
 41
1.0
 10
250.0000000000002
 20
15.06474160483506
 30
0.0
 41
1.027402333828208
 10
249.0
 20
17.35889894354071
 30
0.0
 41
1.0
  0
SPLINE
  5
2A05
330
1F
100
AcDbEntity
  8
AM_0
370
    30
100
AcDbSpline
210
0.0
220
0.0
230
1.0
 70
    12
 71
     2
 72
     6
 73
     3
 74
     0
 42
0.0000000001
 43
0.0000000001
 40
0.0
 40
0.0
 40
0.0
 40
4.496611670767367
 40
4.496611670767367
 40
4.496611670767367
 10
249.0
 20
8.641101056459348
 30
0.0
 41
1.0
 10
250.0000000000002
 20
10.935258395165
 30
0.0
 41
1.027402333828208
 10
250.0
 20
13.00000000000003
 30
0.0
 41
1.0
  0
DIMENSION
  5
2A06
330
1F
100
AcDbEntity
  8
AM_5
100
AcDbDimension
  2
*D8
 10
105.3896316806139
 20
4.897155859754022
 30
0.0
 11
129.2594488599663
 21
30.5706636927371
 31
0.0
 70
   163
  1
<>
 71
     5
 42
20.00000000000011
  3
AM_JIS$3
100
AcDbDiametricDimension
 15
117.1103683193862
 25
21.10284414024815
 35
0.0
 40
0.0
1001
GENIUS_GENDTOL_13
1000

1000
h7
1000

1040
0.0
1001
ACAD
1000
DSTYLE
1002
{
1070
   271
1070
     0
1070
   289
1070
     3
1002
}
  0
LINE
  5
2A07
102
{ACAD_REACTORS
330
2EFC
102
}
330
1F
100
AcDbEntity
  8
AM_7
  6
CENTER
100
AcDbLine
 10
111.2499999999999
 20
26.00000000000102
 30
0.0
 11
111.2499999999999
 21
0.0000000000010232
 31
0.0
1001
GENIUS_GENODEF_13
1002
{
1000
HIER
1070
     0
1002
}
1002
{
1000
MANEDIT
1070
     0
1002
}
1002
{
1000
NOSEL
1070
     0
1002
}
1002
{
1000
BEHIND
1070
     0
1002
}
1002
{
1000
REACTOR
1002
}
1001
GENIUS_GENOBJ-N-CEN_13
1002
{
1000
OWNER
1000
GEN
1002
}
  0
DIMENSION
  5
2A0A
330
1F
100
AcDbEntity
  8
AM_5
100
AcDbDimension
  2
*D9
 10
120.2499999999999
 20
-12.57839891022067
 30
0.0
 11
111.0919298155952
 21
-12.57839891022067
 31
0.0
 70
   160
  1
<>
 71
     5
 42
18.0
  3
AM_JIS$0
100
AcDbAlignedDimension
 13
102.2499999999999
 23
8.641101056460343
 33
0.0
 14
120.2499999999999
 24
8.641101056460343
 34
0.0
100
AcDbRotatedDimension
1001
GENIUS_GENDTOL_13
1000

1000
h7
1000

1040
0.0
1001
ACAD
1000
DSTYLE
1002
{
1070
   271
1070
     0
1002
}
  0
ARC
  5
2A0D
102
{ACAD_REACTORS
330
2EFC
102
}
330
1F
100
AcDbEntity
  8
AM_0
370
    30
100
AcDbCircle
 10
111.25
 20
13.00000000000102
 30
0.0
 40
9.999999999999005
100
AcDbArc
 50
205.8419327631762
 51
238.2116693829667
  0
ARC
  5
2A0E
102
{ACAD_REACTORS
330
2EFC
102
}
330
1F
100
AcDbEntity
  8
AM_0
370
    30
100
AcDbCircle
 10
111.25
 20
13.00000000000102
 30
0.0
 40
9.999999999999005
100
AcDbArc
 50
25.84193276316309
 51
154.1580672368369
  0
LINE
  5
2A0F
102
{ACAD_REACTORS
330
2EFC
102
}
330
1F
100
AcDbEntity
  8
AM_0
370
    30
100
AcDbLine
 10
102.2500000000015
 20
8.641101056459434
 30
0.0
 11
102.2500000000006
 21
17.35889894354071
 31
0.0
  0
LINE
  5
2A10
102
{ACAD_REACTORS
330
2EFC
102
}
330
1F
100
AcDbEntity
  8
AM_0
370
    30
100
AcDbLine
 10
120.2499999999994
 20
17.35889894354071
 30
0.0
 11
120.2499999999999
 21
8.641101056462532
 31
0.0
  0
LINE
  5
2A11
102
{ACAD_REACTORS
330
2EFC
102
}
330
1F
100
AcDbEntity
  8
AM_0
370
    30
100
AcDbLine
 10
105.9821731235771
 20
4.500000000000028
 30
0.0
 11
116.5178268764228
 21
4.500000000000028
 31
0.0
  0
ARC
  5
2A12
102
{ACAD_REACTORS
330
2EFC
102
}
330
1F
100
AcDbEntity
  8
AM_0
370
    30
100
AcDbCircle
 10
111.25
 20
13.00000000000102
 30
0.0
 40
9.999999999999005
100
AcDbArc
 50
301.7883306170333
 51
334.1580672368442
  0
LINE
  5
2A13
330
1F
100
AcDbEntity
  8
AM_0
370
    30
100
AcDbLine
 10
121.7636919134025
 20
23.0
 30
0.0
 11
249.0
 21
23.00000000000011
 31
0.0
  0
LINE
  5
2A14
330
1F
100
AcDbEntity
  8
AM_0
370
    30
100
AcDbLine
 10
121.7636919134025
 20
4.500000000000028
 30
0.0
 11
250.0
 21
4.499999999999972
 31
0.0
  0
LINE
  5
2A15
330
1F
100
AcDbEntity
  8
AM_0
370
    30
100
AcDbLine
 10
121.7636919134025
 20
8.641101056459434
 30
0.0
 11
249.0
 21
8.641101056459348
 31
0.0
  0
LINE
  5
2A16
330
1F
100
AcDbEntity
  8
AM_0
370
    30
100
AcDbLine
 10
249.0
 20
17.35889894354074
 30
0.0
 11
121.7636919134025
 21
17.35889894354071
 31
0.0
  0
LINE
  5
2A1A
330
1F
100
AcDbEntity
  8
AM_0
370
    30
100
AcDbLine
 10
250.0
 20
13.00000000000003
 30
0.0
 11
250.0
 21
22.00000000000003
 31
0.0
  0
LINE
  5
2A1B
330
1F
100
AcDbEntity
  8
AM_0
370
    30
100
AcDbLine
 10
250.0
 20
4.500000000000028
 30
0.0
 11
250.0
 21
13.00000000000003
 31
0.0
  0
LINE
  5
2A1C
330
1F
100
AcDbEntity
  8
AM_0
370
    30
100
AcDbLine
 10
249.0
 20
4.500000000000028
 30
0.0
 11
249.0
 21
8.641101056459348
 31
0.0
  0
LINE
  5
2A1F
330
1F
100
AcDbEntity
  8
AM_0
370
    30
100
AcDbLine
 10
249.0
 20
17.35889894354071
 30
0.0
 11
249.0
 21
23.00000000000003
 31
0.0
  0
LINE
  5
2A20
330
1F
100
AcDbEntity
  8
AM_0
370
    30
100
AcDbLine
 10
250.0
 20
22.00000000000003
 30
0.0
 11
249.0
 21
23.00000000000003
 31
0.0
  0
DIMENSION
  5
2DA6
330
1F
100
AcDbEntity
  8
AM_5
100
AcDbDimension
  2
*D11
 10
0.0000000000000284
 20
0.0
 30
0.0
 11
-16.20154041589535
 21
19.36437274586754
 31
0.0
 70
   162
 71
     5
 42
1.623156204354728
  3
AM_JIS$2
100
AcDb2LineAngularDimension
 13
0.0010844173612838
 23
0.8370267907393441
 33
0.0
 14
0.5263261049999244
 24
10.85923522666502
 34
0.0
 15
0.7999974762531394
 25
0.0
 35
0.0
 16
-21.66115331768385
 26
12.98962779328971
 36
0.0
1001
ACAD
1000
DSTYLE
1002
{
1070
   271
1070
     1
1002
}
  0
DIMENSION
  5
2DFE
330
1F
100
AcDbEntity
  8
AM_5
100
AcDbDimension
  2
*D12
 10
-10.2832790137852
 20
-82.15393550969358
 30
0.0
 11
-14.49173833731791
 21
-80.60063299983537
 31
0.0
 70
   160
  1
0%%d
 71
     5
 42
-1.0
  3
AM_JIS$0
100
AcDbAlignedDimension
 13
-3.706968095034682
 23
-82.15393550969358
 33
0.0
 14
-3.706968095034682
 24
-82.15393550969358
 34
0.0
 50
90.0
100
AcDbRotatedDimension
1001
ACAD
1000
DSTYLE
1002
{
1070
   271
1070
     0
1070
   279
1070
     2
1070
   289
1070
     3
1002
}
  0
TEXT
  5
2E7A
330
1F
100
AcDbEntity
  8
AM_6
  6
Continuous
 62
     0
370
    30
100
AcDbText
 10
98.03473994566681
 20
-111.3584717620499
 30
0.0
 40
3.8
  1
C20S-SDUCR11T3-25
  7
ACISOTS
100
AcDbText
  0
HATCH
  5
2EFC
330
1F
100
AcDbEntity
  8
AM_5
370
    13
100
AcDbHatch
 10
0.0
 20
0.0
 30
0.0
210
0.0
220
0.0
230
1.0
  2
LINE
 70
     0
 71
     1
 91
        4
 92
        7
 72
     1
 73
     1
 93
        4
 10
111.2499999999999
 20
23.00000000000003
 42
0.2874919409686738
 10
102.2500000000006
 20
17.35889894354071
 42
0.0
 10
102.2500000000011
 20
13.00000000000102
 42
0.0
 10
111.2499999999999
 20
13.00000000000102
 42
0.0
 97
        4
330
2A0E
330
2A0F
330
2886
330
2A07
 92
        7
 72
     1
 73
     1
 93
        4
 10
111.2499999999999
 20
23.00000000000004
 42
0.0
 10
111.2499999999999
 20
13.00000000000102
 42
0.0
 10
120.2499999999996
 20
13.00000000000102
 42
0.0
 10
120.2499999999994
 20
17.35889894354071
 42
0.2874919409686769
 97
        4
330
2A07
330
2886
330
2A10
330
2A0E
 92
        7
 72
     1
 73
     1
 93
        5
 10
111.2499999999999
 20
13.00000000000102
 42
0.0
 10
102.2500000000011
 20
13.00000000000102
 42
0.0
 10
102.2500000000015
 20
8.641101056459434
 42
0.1421863546384529
 10
105.9821731235771
 20
4.500000000000028
 42
0.0
 10
111.2499999999999
 20
4.500000000000027
 42
0.0
 97
        5
330
2886
330
2A0F
330
2A0D
330
2A11
330
2A07
 92
        7
 72
     1
 73
     1
 93
        5
 10
120.2499999999996
 20
13.00000000000102
 42
0.0
 10
111.2499999999999
 20
13.00000000000102
 42
0.0
 10
111.2499999999999
 20
4.50000000000003
 42
0.0
 10
116.5178268764228
 20
4.500000000000028
 42
0.1421863546385404
 10
120.2499999999999
 20
8.641101056462532
 42
0.0
 97
        5
330
2886
330
2A07
330
2A11
330
2A12
330
2A10
 75
     0
 76
     1
 52
45.0
 41
0.5
 77
     0
 78
     1
 53
45.0
 43
0.0000000000000284
 44
13.00000000000102
 45
-1.122532015133644
 46
1.122532015133644
 79
     0
 47
0.12426376335343
 98
        4
 10
110.1869877744028
 20
17.96154970452494
 10
113.7922791041133
 20
18.0858130984285
 10
108.5708220240825
 20
11.62409797053999
 10
115.159803969769
 20
10.0086689432402
  0
ENDSEC
  0
SECTION
  2
OBJECTS
  0
DICTIONARY
  5
C
330
0
100
AcDbDictionary
281
     1
  3
ACAD_COLOR
350
2C2B
  3
ACAD_GROUP
350
D
  3
ACAD_LAYOUT
350
1A
  3
ACAD_MATERIAL
350
2C2A
  3
ACAD_MLINESTYLE
350
17
  3
ACAD_PLOTSETTINGS
350
19
  3
ACAD_PLOTSTYLENAME
350
E
  3
ACAD_TABLESTYLE
350
2C2C
  3
AcAmCatalogState
350
2C97
  3
ACDBHEADERROUNDTRIPXREC
350
2FFE
  3
AcDbVariableDictionary
350
34
  3
ACDMSYSVARMGR
350
2C46
  3
ACGREF_MASTER
350
2C3E
  3
ACGREFACAD_MASTER
350
2C68
  3
AcmDictionary
350
43
  3
ACME_BOM_MANAGER_NAME
350
3A
  3
ACME_COMMAND_HISTORY
350
33
  3
ACME_SCOPE_NAME
350
32
  3
ACMESTATEMGR
350
3F
  3
AcmeSysVarManager
350
36
  3
AcmSystemVariableManager
350
2C86
  3
AD_APPL
350
2C73
  3
ADSYSVARMGR
350
2C72
  3
AmdtNamedDwgMgr
350
2C63
  3
AMG
350
2B
  3
AMGSNAPSETTINGS
350
350
  3
AMI_MASTER
350
2C6B
  3
AUTOCAD_ASSEMBLIES_PROJECT
350
2C7B
  3
Designer_Assemblies_SysVars
350
2C76
  3
DWGPROPS
350
3001
  3
GREFAM_MODULE
350
2C6C
  3
table_dic_data
350
AA4
  0
DICTIONARY
  5
2E71
330
2
100
AcDbDictionary
280
     1
281
     1
  3
ACAD_LAYERSTATES
360
2E72
  0
DICTIONARY
  5
3DB
330
1F
100
AcDbDictionary
280
     1
281
     1
  3
ACAD_SORTENTS
360
2D1B
  0
DICTIONARY
  5
2C2B
102
{ACAD_REACTORS
330
C
102
}
330
C
100
AcDbDictionary
281
     1
  0
DICTIONARY
  5
D
102
{ACAD_REACTORS
330
C
102
}
330
C
100
AcDbDictionary
281
     1
  0
DICTIONARY
  5
1A
102
{ACAD_REACTORS
330
C
102
}
330
C
100
AcDbDictionary
281
     1
  3
Model
350
22
  3
ﾚｲｱｳﾄ1
350
1E
  3
ﾚｲｱｳﾄ2
350
26
  0
DICTIONARY
  5
2C2A
102
{ACAD_REACTORS
330
C
102
}
330
C
100
AcDbDictionary
281
     1
  0
DICTIONARY
  5
17
102
{ACAD_REACTORS
330
C
102
}
330
C
100
AcDbDictionary
281
     1
  3
Standard
350
18
  0
DICTIONARY
  5
19
102
{ACAD_REACTORS
330
C
102
}
330
C
100
AcDbDictionary
281
     1
  0
ACDBDICTIONARYWDFLT
  5
E
102
{ACAD_REACTORS
330
C
102
}
330
C
100
AcDbDictionary
281
     1
  3
Normal
350
F
100
AcDbDictionaryWithDefault
340
F
  0
DICTIONARY
  5
2C2C
102
{ACAD_REACTORS
330
C
102
}
330
C
100
AcDbDictionary
281
     1
  3
Standard
350
2C2D
  0
ACAD_PROXY_OBJECT
  5
2C97
102
{ACAD_REACTORS
330
C
102
}
330
C
100
AcDbProxyObject
 90
      499
 91
      571
 95
       25
 70
     0
 93
      160
310
3FFFFFFFE00A028140283A19D2E3A32B6B8400AA
  0
DICTIONARY
  5
2FFE
102
{ACAD_REACTORS
330
C
102
}
330
C
100
AcDbDictionary
281
     1
  3
COLORDICT
350
2FFF
  3
MATERIALDICT
350
3000
  0
DICTIONARY
  5
34
102
{ACAD_REACTORS
330
C
102
}
330
C
100
AcDbDictionary
281
     1
  3
CTABLESTYLE
350
2CA2
  3
DIMASSOC
350
2FFC
  3
HIDETEXT
350
2FFD
  3
INDEXCTL
350
35
  0
ACAD_PROXY_OBJECT
  5
2C46
102
{ACAD_REACTORS
330
C
102
}
330
C
100
AcDbProxyObject
 90
      499
 91
      508
 95
       25
 70
     0
 93
      240
310
4C51A47A0000000000000000000000000000000000000000000000000000
330
2C47
330
2C48
330
2C49
330
2C4A
330
2C4B
330
2C4C
330
2C4D
330
2C4E
330
2C4F
330
2C50
330
2C51
330
2C52
330
2C53
330
2C54
330
2C55
330
2C56
330
2C57
330
2C58
330
2C59
330
2C5A
330
2C5B
330
2C5C
330
2C5D
330
2C5E
330
2C5F
330
2C60
 94
        0
  0
ACAD_PROXY_OBJECT
  5
2C3E
102
{ACAD_REACTORS
330
C
102
}
330
C
100
AcDbProxyObject
 90
      499
 91
      534
 95
       25
 70
     0
 93
       34
310
0400004280
  0
ACAD_PROXY_OBJECT
  5
2C68
102
{ACAD_REACTORS
330
C
102
}
330
C
100
AcDbProxyObject
 90
      499
 91
      540
 95
       25
 70
     0
 93
      114
310
04000041C080000000000000000000
  0
DICTIONARY
  5
43
102
{ACAD_REACTORS
330
C
102
}
330
C
100
AcDbDictionary
281
     1
  3
AcmBOMDATA
350
44
  3
AcmStdDictionary
350
342
  3
AMDTSECTSYM_ARROWCOLOR
350
2C8B
  0
ACAD_PROXY_OBJECT
  5
3A
102
{ACAD_REACTORS
330
C
102
}
330
C
100
AcDbProxyObject
 90
      499
 91
      511
 95
       25
 70
     0
 93
       50
310
00010040400000
330
0
330
0
330
3B
 94
        0
  0
ACAD_PROXY_OBJECT
  5
33
102
{ACAD_REACTORS
330
C
102
}
330
C
100
AcDbProxyObject
 90
      499
 91
      506
 95
       25
 70
     0
 93
     4832
310
47805055153415645404052D4D5347202D205050413A2020206465736B746F702E6172782046696C6556657273696F6E3A20392E322E302E3401415454D05591501014B5354D1C80B481414104E88080819195CDADD1BDC0B985C9E08119A5B1955995C9CDA5BDB8E880E4B8C8B8C0B8D005055153415645404052D4D53472
310
02D205050413A2020206465736B746F702E6172782046696C6556657273696F6E3A20392E322E302E3401415454D05591501014B5354D1C80B481414104E88080819195CDADD1BDC0B985C9E08119A5B1955995C9CDA5BDB8E880E4B8C8B8C0B8D0050E414D4454524553455444424D4F4440805084E202D20554E444F0142
310
13880B4815539113C0504554E444F80504554E444F80508524547454E414C4C8050545524153458050545524153458050545524153458050545524153458050545524153458050545524153458050545524153458050A50524F50455254494553805044D4F564540405184D5347202D20436F6D6D616E642043414E43454C4
310
C45442E01411693D3D3601411693D3D36014154155491D1601415454D05591501014B5354D1C80B481414104E88080819195CDADD1BDC0B985C9E08119A5B1955995C9CDA5BDB8E880E4B8C8B8C0B8D0050E414D4454524553455444424D4F4440805084E202D20554E444F014213880B4815539113C0504554E444F805045
310
54E444F805054552415345805054552415345805054552415345805054552415345805045A4F4F4D805055153415645404052D4D5347202D205050413A2020206465736B746F702E6172782046696C6556657273696F6E3A20392E322E302E34
  0
ACAD_PROXY_OBJECT
  5
32
102
{ACAD_REACTORS
330
C
102
}
330
C
100
AcDbProxyObject
 90
      499
 91
      505
 95
       25
 70
     0
 93
      578
310
09000046408000000000000000001334DE000000000000000000000000000000000000000000000000000000000000000000000000000000000000000000000000000000AAA406AA80
360
37
360
38
360
39
360
3B
360
2C3F
360
2C40
360
2C41
360
2C42
360
2C43
360
2C44
360
2C47
360
2C48
360
2C49
360
2C4A
360
2C4B
360
2C4C
360
2C4D
360
2C4E
360
2C4F
360
2C50
360
2C51
360
2C52
360
2C53
360
2C54
360
2C55
360
2C56
360
2C57
360
2C58
360
2C59
360
2C5A
360
2C5B
360
2C5C
360
2C5D
360
2C5E
360
2C5F
360
2C60
360
2C6E
360
2C6F
360
2C70
360
2C71
360
2C77
360
2C78
360
2C79
360
2C7A
360
2C7F
360
2C80
360
2C81
360
2C82
360
2C83
360
2C84
360
2C87
 94
        0
  0
ACAD_PROXY_OBJECT
  5
3F
102
{ACAD_REACTORS
330
C
102
}
330
C
100
AcDbProxyObject
 90
      499
 91
      516
 95
       25
 70
     0
 93
       50
310
09000042641280
  0
ACAD_PROXY_OBJECT
  5
36
102
{ACAD_REACTORS
330
C
102
}
330
C
100
AcDbProxyObject
 90
      499
 91
      508
 95
       25
 70
     0
 93
       48
310
903412000000
330
37
330
38
330
39
 94
        0
  0
ACAD_PROXY_OBJECT
  5
2C86
102
{ACAD_REACTORS
330
C
102
}
330
C
100
AcDbProxyObject
 90
      499
 91
      508
 95
       25
 70
     0
 93
       32
310
90140A00
330
2C87
 94
        0
  0
ACAD_PROXY_OBJECT
  5
2C73
102
{ACAD_REACTORS
330
C
102
}
330
C
100
AcDbProxyObject
 90
      499
 91
      550
 95
       25
 70
     0
 93
       42
310
000900004040
330
2C6E
 94
        0
  0
ACAD_PROXY_OBJECT
  5
2C72
102
{ACAD_REACTORS
330
C
102
}
330
C
100
AcDbProxyObject
 90
      499
 91
      508
 95
       25
 70
     0
 93
        8
310
AA
  0
ACAD_PROXY_OBJECT
  5
2C63
102
{ACAD_REACTORS
330
C
102
}
330
C
100
AcDbProxyObject
 90
      499
 91
      539
 95
       25
 70
     0
 93
       42
310
000100005E80
330
2C3F
 94
        0
  0
DICTIONARY
  5
2B
102
{ACAD_REACTORS
330
C
102
}
330
C
100
AcDbDictionary
281
     1
  3
AcMgSettings
350
2C
  3
AMGLAYCFG
350
4A
  0
DICTIONARY
  5
350
102
{ACAD_REACTORS
330
C
102
}
330
C
100
AcDbDictionary
281
     1
  3
DIMENSION
350
355
  3
FEA
350
354
  3
HATCH (1)
350
351
  3
HATCH (2)
350
352
  3
SYMBOLS
350
353
  0
ACAD_PROXY_OBJECT
  5
2C6B
102
{ACAD_REACTORS
330
C
102
}
330
C
100
AcDbProxyObject
 90
      499
 91
      543
 95
       25
 70
     0
 93
       34
310
0500004280
  0
ACAD_PROXY_OBJECT
  5
2C7B
102
{ACAD_REACTORS
330
C
102
}
330
C
100
AcDbProxyObject
 90
      499
 91
      554
 95
       25
 70
     0
 93
       98
310
0900004E400000000000000000
330
2C82
330
0
330
2C83
330
0
330
0
330
0
330
0
330
0
 94
        0
  0
ACAD_PROXY_OBJECT
  5
2C76
102
{ACAD_REACTORS
330
C
102
}
330
C
100
AcDbProxyObject
 90
      499
 91
      508
 95
       25
 70
     0
 93
       56
310
90441600000000
330
2C77
330
2C78
330
2C79
330
2C7A
 94
        0
  0
XRECORD
  5
3001
102
{ACAD_REACTORS
330
C
102
}
330
C
100
AcDbXrecord
280
     1
  1
DWGPROPS COOKIE
  2

  3

  4

  6

  7

  8

  9

300
AmdtFileType=82
301
=
302
=
303
=
304
=
305
=
306
=
307
=
308
=
309
=
 40
0.0
 41
2453210.004162743
 42
2455468.233025706
  1

 90
        1
  0
ACAD_PROXY_OBJECT
  5
2C6C
102
{ACAD_REACTORS
330
C
102
}
330
C
100
AcDbProxyObject
 90
      499
 91
      544
 95
       25
 70
     0
 93
        8
310
05
  0
DICTIONARY
  5
AA4
102
{ACAD_REACTORS
330
C
102
}
330
C
100
AcDbDictionary
281
     1
  3
input_data
350
AA6
  3
table_data
350
AA5
  0
DICTIONARY
  5
2E72
102
{ACAD_REACTORS
330
2E71
102
}
330
2E71
100
AcDbDictionary
281
     1
  0
SORTENTSTABLE
  5
2D1B
102
{ACAD_REACTORS
330
3DB
102
}
330
3DB
100
AcDbSortentsTable
330
1F
331
0
  5
2967
331
287D
  5
287D
331
287E
  5
287E
331
287F
  5
287F
331
2880
  5
2880
331
2881
  5
2881
331
2882
  5
2882
331
2883
  5
2883
331
2884
  5
2884
331
2885
  5
2885
331
2886
  5
2887
331
2887
  5
28B5
331
28B5
  5
28B6
331
28B6
  5
28B7
331
28B7
  5
28B8
331
28B8
  5
28B9
331
28B9
  5
28BA
331
28BB
  5
28BC
331
28BC
  5
28BD
331
28BD
  5
28BE
331
28BE
  5
28BF
331
28BF
  5
28C0
331
28C0
  5
28C1
331
28C1
  5
28C2
331
28C2
  5
28C3
331
28C3
  5
28C4
331
28C4
  5
28C5
331
28C5
  5
28C6
331
28C6
  5
28C7
331
28C7
  5
28C8
331
28C8
  5
28C9
331
28C9
  5
28CA
331
28CA
  5
28CB
331
28CB
  5
28CC
331
28CC
  5
28CD
331
28CD
  5
28CE
331
28CE
  5
28CF
331
28CF
  5
28D0
331
28D0
  5
293C
331
293E
  5
293F
331
293F
  5
2940
331
2940
  5
2941
331
2941
  5
2942
331
2942
  5
2943
331
2943
  5
2944
331
2944
  5
2945
331
2945
  5
2946
331
2946
  5
2947
331
2947
  5
2948
331
2948
  5
2949
331
2949
  5
294A
331
294A
  5
294B
331
294B
  5
294C
331
294C
  5
294D
331
294D
  5
294E
331
294E
  5
294F
331
294F
  5
2950
331
2950
  5
2951
331
2951
  5
2952
331
2952
  5
2953
331
2953
  5
2954
331
2954
  5
2955
331
2955
  5
2956
331
2957
  5
2958
331
2958
  5
2959
331
295B
  5
295C
331
295C
  5
295D
331
295D
  5
295E
331
295E
  5
295F
331
295F
  5
2960
331
2961
  5
2962
331
2962
  5
2963
331
2963
  5
2964
331
2964
  5
2965
331
2965
  5
2966
331
2967
  5
2968
331
2968
  5
2969
331
2969
  5
296A
331
296A
  5
296B
331
296B
  5
296C
331
296C
  5
296D
331
296D
  5
296E
331
296E
  5
296F
331
296F
  5
2970
331
2970
  5
2971
331
2971
  5
2972
331
2972
  5
2973
331
2973
  5
2974
331
2974
  5
2975
331
2975
  5
2976
331
2976
  5
2977
331
2977
  5
2978
331
2978
  5
2979
331
2979
  5
297A
331
297A
  5
297B
331
297B
  5
297C
331
297C
  5
297D
331
297D
  5
297E
331
297E
  5
297F
331
297F
  5
2980
331
2980
  5
2981
331
2981
  5
2982
331
2982
  5
2983
331
2983
  5
2987
331
2987
  5
2988
331
2988
  5
2989
331
2989
  5
298A
331
298A
  5
298B
331
298B
  5
298C
331
298C
  5
298D
331
298D
  5
298E
331
298E
  5
298F
331
298F
  5
2990
331
2990
  5
2991
331
2991
  5
2992
331
2992
  5
2993
331
2993
  5
2994
331
2994
  5
2995
331
2995
  5
2996
331
2996
  5
2997
331
2997
  5
2998
331
2998
  5
2999
331
2999
  5
299A
331
299A
  5
299B
331
299B
  5
29A0
331
29A2
  5
29A3
331
29A3
  5
29A4
331
29A4
  5
29A5
331
29A5
  5
29A6
331
29A6
  5
29A7
331
29A7
  5
29A8
331
29A8
  5
29A9
331
29A9
  5
29AA
331
29AA
  5
29AB
331
29AB
  5
29AC
331
29AC
  5
29AD
331
29AD
  5
29AE
331
29AE
  5
29AF
331
29AF
  5
29B0
331
29B0
  5
29B1
331
29B1
  5
29B2
331
29B2
  5
29B3
331
29B3
  5
29B4
331
29B4
  5
29B5
331
29B5
  5
29B6
331
29B6
  5
29B7
331
29B7
  5
29B8
331
29B8
  5
29B9
331
29B9
  5
29BA
331
29BA
  5
29BB
331
29BB
  5
29BC
331
29BC
  5
29BD
331
29BE
  5
29BF
331
29BF
  5
29C0
331
29C0
  5
29C1
331
29C1
  5
29C2
331
29C2
  5
29C3
331
29C3
  5
29C4
331
29C4
  5
29C5
331
29C5
  5
29C6
331
29C6
  5
29C7
331
29C7
  5
29C8
331
29C9
  5
29CA
331
29CA
  5
29CB
331
29CB
  5
29CC
331
29CC
  5
29CD
331
29CE
  5
29CF
331
29CF
  5
29D0
331
29D1
  5
29D2
331
29D2
  5
29D5
331
29D5
  5
29D6
331
29D6
  5
29F9
331
29F9
  5
29FA
331
29FA
  5
29FB
331
29FB
  5
29FC
331
29FE
  5
2A04
331
2A04
  5
2A05
331
2A05
  5
2A06
331
2A06
  5
2A07
331
2A07
  5
2A0A
331
2A0A
  5
2A0D
331
2A0D
  5
2A0E
331
2A0E
  5
2A0F
331
2A0F
  5
2A10
331
2A10
  5
2A11
331
2A11
  5
2A12
331
2A12
  5
2A13
331
2A13
  5
2A14
331
2A14
  5
2A15
331
2A15
  5
2A16
331
2A16
  5
2A1A
331
2A1A
  5
2A1B
331
2A1B
  5
2A1C
331
2A1C
  5
2A1D
331
2A1F
  5
2A20
331
2A20
  5
2DA6
331
2DA6
  5
2DFE
331
2DFE
  5
2E7A
331
2E7A
  5
2EE7
331
2EFC
  5
2886
  0
LAYOUT
  5
22
102
{ACAD_REACTORS
330
1A
102
}
330
1A
100
AcDbPlotSettings
  1

  2
SII LP-2150 (D-SCAN C2)
  4
User120
  6
AM_VIEW1
 40
3.174999952316284
 41
3.174999952316284
 42
3.17498779296875
 43
3.17498779296875
 44
296.9259948730469
 45
419.9889831542969
 46
0.0
 47
0.0
 48
0.0
 49
0.0
140
420.0
141
297.0
142
1.0
143
1.022107788374329
 70
 11952
 72
     1
 73
     1
 74
     4
  7
sei_cad.ctb
 75
     0
147
0.9783703943695685
148
0.0
149
0.0
100
AcDbLayout
  1
Model
 70
     1
 71
     0
 10
0.0
 20
0.0
 11
12.0
 21
9.0
 12
0.0
 22
0.0
 32
0.0
 14
0.0
 24
0.0
 34
0.0
 15
0.0
 25
0.0
 35
0.0
146
0.0
 13
0.0
 23
0.0
 33
0.0
 16
1.0
 26
0.0
 36
0.0
 17
0.0
 27
1.0
 37
0.0
 76
     0
330
1F
  0
LAYOUT
  5
1E
102
{ACAD_REACTORS
330
1A
102
}
330
1A
100
AcDbPlotSettings
  1

  2
C:\ACADM2000\plotters\DWF Classic.pc3
  4

  6

 40
0.0
 41
0.0
 42
0.0
 43
0.0
 44
0.0
 45
0.0
 46
0.0
 47
0.0
 48
0.0
 49
0.0
140
0.0
141
0.0
142
1.0
143
1.0
 70
   688
 72
     0
 73
     0
 74
     5
  7
sei_cad.ctb
 75
    16
147
1.0
148
0.0
149
0.0
100
AcDbLayout
  1
ﾚｲｱｳﾄ1
 70
     1
 71
     1
 10
0.0
 20
0.0
 11
420.0
 21
297.0
 12
0.0
 22
0.0
 32
0.0
 14
1.000000000000000E+20
 24
1.000000000000000E+20
 34
1.000000000000000E+20
 15
-1.000000000000000E+20
 25
-1.000000000000000E+20
 35
-1.000000000000000E+20
146
0.0
 13
0.0
 23
0.0
 33
0.0
 16
1.0
 26
0.0
 36
0.0
 17
0.0
 27
1.0
 37
0.0
 76
     0
330
1B
  0
LAYOUT
  5
26
102
{ACAD_REACTORS
330
1A
102
}
330
1A
100
AcDbPlotSettings
  1

  2
C:\ACADM2000\plotters\DWF Classic.pc3
  4

  6

 40
0.0
 41
0.0
 42
0.0
 43
0.0
 44
0.0
 45
0.0
 46
0.0
 47
0.0
 48
0.0
 49
0.0
140
0.0
141
0.0
142
1.0
143
1.0
 70
   688
 72
     0
 73
     0
 74
     5
  7
sei_cad.ctb
 75
    16
147
1.0
148
0.0
149
0.0
100
AcDbLayout
  1
ﾚｲｱｳﾄ2
 70
     1
 71
     2
 10
0.0
 20
0.0
 11
12.0
 21
9.0
 12
0.0
 22
0.0
 32
0.0
 14
0.0
 24
0.0
 34
0.0
 15
0.0
 25
0.0
 35
0.0
146
0.0
 13
0.0
 23
0.0
 33
0.0
 16
1.0
 26
0.0
 36
0.0
 17
0.0
 27
1.0
 37
0.0
 76
     0
330
23
  0
MLINESTYLE
  5
18
102
{ACAD_REACTORS
330
17
102
}
330
17
100
AcDbMlineStyle
  2
STANDARD
 70
     0
  3

 62
   256
 51
90.0
 52
90.0
 71
     2
 49
0.5
 62
   256
  6
BYLAYER
 49
-0.5
 62
   256
  6
BYLAYER
  0
ACDBPLACEHOLDER
  5
F
102
{ACAD_REACTORS
330
E
102
}
330
E
  0
TABLESTYLE
  5
2C2D
102
{ACAD_REACTORS
330
2C2C
102
}
330
2C2C
100
AcDbTableStyle
  3
Standard
 70
     0
 71
     8
 40
1.5
 41
1.5
280
     0
281
     0
  7
STANDARD
140
4.5
170
     2
 62
     0
 63
     7
283
     0
274
    -2
284
     1
 64
     0
275
    -2
285
     1
 65
     0
276
    -2
286
     1
 66
     0
277
    -2
287
     1
 67
     0
278
    -2
288
     1
 68
     0
279
    -2
289
     1
 69
     0
  7
STANDARD
140
6.0
170
     5
 62
     0
 63
     7
283
     0
274
    -2
284
     1
 64
     0
275
    -2
285
     1
 65
     0
276
    -2
286
     1
 66
     0
277
    -2
287
     1
 67
     0
278
    -2
288
     1
 68
     0
279
    -2
289
     1
 69
     0
  7
STANDARD
140
4.5
170
     5
 62
     0
 63
     7
283
     0
274
    -2
284
     1
 64
     0
275
    -2
285
     1
 65
     0
276
    -2
286
     1
 66
     0
277
    -2
287
     1
 67
     0
278
    -2
288
     1
 68
     0
279
    -2
289
     1
 69
     0
  0
XRECORD
  5
2FFF
102
{ACAD_REACTORS
330
2FFE
102
}
330
2FFE
100
AcDbXrecord
280
     1
340
2C2B
  0
XRECORD
  5
3000
102
{ACAD_REACTORS
330
2FFE
102
}
330
2FFE
100
AcDbXrecord
280
     1
340
2C2A
  0
DICTIONARYVAR
  5
2CA2
102
{ACAD_REACTORS
330
34
102
}
330
34
100
DictionaryVariables
280
     0
  1
STANDARD
  0
DICTIONARYVAR
  5
2FFC
102
{ACAD_REACTORS
330
34
102
}
330
34
100
DictionaryVariables
280
     0
  1
1
  0
DICTIONARYVAR
  5
2FFD
102
{ACAD_REACTORS
330
34
102
}
330
34
100
DictionaryVariables
280
     0
  1
0
  0
DICTIONARYVAR
  5
35
102
{ACAD_REACTORS
330
34
102
}
330
34
100
DictionaryVariables
280
     0
  1
1
  0
ACAD_PROXY_OBJECT
  5
44
102
{ACAD_REACTORS
330
43
102
}
330
43
100
AcDbProxyObject
 90
      499
 91
      519
 95
       25
 70
     0
 93
      118
310
405010040CA904C415CD5B075DD058
350
45
 94
        0
  0
DICTIONARY
  5
342
102
{ACAD_REACTORS
330
43
102
}
330
43
100
AcDbDictionary
281
     1
  3
JIS
350
343
  0
XRECORD
  5
2C8B
102
{ACAD_REACTORS
330
43
102
}
330
43
100
AcDbXrecord
280
     1
 90
-1023410169
  0
ACAD_PROXY_OBJECT
  5
37
330
32
100
AcDbProxyObject
 90
      499
 91
      509
 95
       25
 70
     0
 93
      156
310
00010143D050D351505391D5531054925390D490
330
32
 94
        0
  0
ACAD_PROXY_OBJECT
  5
38
330
32
100
AcDbProxyObject
 90
      499
 91
      509
 95
       25
 70
     0
 93
      148
310
000101439050D351531253915054925390D490
330
32
 94
        0
  0
ACAD_PROXY_OBJECT
  5
39
330
32
100
AcDbProxyObject
 90
      499
 91
      510
 95
       25
 70
     0
 93
      156
310
000101439050D35154D6535093D314D256915080
330
32
 94
        0
  0
ACAD_PROXY_OBJECT
  5
3B
330
32
100
AcDbProxyObject
 90
      499
 91
      512
 95
       25
 70
     0
 93
       88
310
000101411093D34C402B00
330
32
330
0
330
0
 94
        0
  0
ACAD_PROXY_OBJECT
  5
2C3F
330
32
100
AcDbProxyObject
 90
      499
 91
      535
 95
       25
 70
     0
 93
      478
310
0001014124FEA55D00507392E322E302E32014124FEA55D00507392E322E302E3240501000041131253914182D4454FB21E93F000000000000380FD8
330
32
330
2C40
330
2C46
 94
        0
  0
ACAD_PROXY_OBJECT
  5
2C40
330
32
100
AcDbProxyObject
 90
      499
 91
      536
 95
       25
 70
     0
 93
       56
310
000190240E0000
330
32
330
2C41
330
2C43
 94
        0
  0
ACAD_PROXY_OBJECT
  5
2C41
330
32
100
AcDbProxyObject
 90
      499
 91
      537
 95
       25
 70
     0
 93
       48
310
0001AA000000
330
32
330
1E
330
2C42
330
0
 94
        0
  0
ACAD_PROXY_OBJECT
  5
2C42
330
32
100
AcDbProxyObject
 90
      499
 91
      538
 95
       25
 70
     0
 93
       28
310
0001AAA0
330
32
 94
        0
  0
ACAD_PROXY_OBJECT
  5
2C43
330
32
100
AcDbProxyObject
 90
      499
 91
      537
 95
       25
 70
     0
 93
       48
310
0001AA000000
330
32
330
26
330
2C44
330
0
 94
        0
  0
ACAD_PROXY_OBJECT
  5
2C44
330
32
100
AcDbProxyObject
 90
      499
 91
      538
 95
       25
 70
     0
 93
       28
310
0001AAA0
330
32
 94
        0
  0
ACAD_PROXY_OBJECT
  5
2C47
330
32
100
AcDbProxyObject
 90
      499
 91
      510
 95
       25
 70
     0
 93
      108
310
000101421053521310D05310D010
330
32
 94
        0
  0
ACAD_PROXY_OBJECT
  5
2C48
330
32
100
AcDbProxyObject
 90
      499
 91
      510
 95
       25
 70
     0
 93
      124
310
00010142905354915554D15112535010
330
32
 94
        0
  0
ACAD_PROXY_OBJECT
  5
2C49
330
32
100
AcDbProxyObject
 90
      499
 91
      510
 95
       25
 70
     0
 93
      132
310
00010143105354D150D51253D391125360
330
32
 94
        0
  0
ACAD_PROXY_OBJECT
  5
2C4A
330
32
100
AcDbProxyObject
 90
      499
 91
      510
 95
       25
 70
     0
 93
      124
310
00010142905355941093D49111549010
330
32
 94
        0
  0
ACAD_PROXY_OBJECT
  5
2C4B
330
32
100
AcDbProxyObject
 90
      499
 91
      510
 95
       25
 70
     0
 93
      116
310
0001014290535115D1D0D3D313D4A0
330
32
 94
        0
  0
ACAD_PROXY_OBJECT
  5
2C4C
330
32
100
AcDbProxyObject
 90
      499
 91
      510
 95
       25
 70
     0
 93
      148
310
00010143505355925155D49151949154D21010
330
32
 94
        0
  0
ACAD_PROXY_OBJECT
  5
2C4D
330
32
100
AcDbProxyObject
 90
      499
 91
      510
 95
       25
 70
     0
 93
      172
310
00010144105350539393D51154149154D15495915010
330
32
 94
        0
  0
ACAD_PROXY_OBJECT
  5
2C4E
330
32
100
AcDbProxyObject
 90
      499
 91
      510
 95
       25
 70
     0
 93
      172
310
00010144105350555513D11253505494905391D15010
330
32
 94
        0
  0
ACAD_PROXY_OBJECT
  5
2C4F
330
32
100
AcDbProxyObject
 90
      499
 91
      510
 95
       25
 70
     0
 93
      124
310
00010142D05351561514915191125360
330
32
 94
        0
  0
ACAD_PROXY_OBJECT
  5
2C50
330
32
100
AcDbProxyObject
 90
      499
 91
      510
 95
       25
 70
     0
 93
      132
310
00010142D05355105410539393D5115010
330
32
 94
        0
  0
ACAD_PROXY_OBJECT
  5
2C51
330
32
100
AcDbProxyObject
 90
      499
 91
      510
 95
       25
 70
     0
 93
      108
310
00010142105350555513D0D31010
330
32
 94
        0
  0
ACAD_PROXY_OBJECT
  5
2C52
330
32
100
AcDbProxyObject
 90
      499
 91
      510
 95
       25
 70
     0
 93
      108
310
00010142105350D3119150551050
330
32
 94
        0
  0
ACAD_PROXY_OBJECT
  5
2C53
330
32
100
AcDbProxyObject
 90
      499
 91
      510
 95
       25
 70
     0
 93
      108
310
00010142105350D315925155D3F0
330
32
 94
        0
  0
ACAD_PROXY_OBJECT
  5
2C54
330
32
100
AcDbProxyObject
 90
      499
 91
      510
 95
       25
 70
     0
 93
      148
310
0001014350535212511156915493D112535010
330
32
 94
        0
  0
ACAD_PROXY_OBJECT
  5
2C55
330
32
100
AcDbProxyObject
 90
      499
 91
      510
 95
       25
 70
     0
 93
      124
310
00010142905352105510D21254D3D010
330
32
 94
        0
  0
ACAD_PROXY_OBJECT
  5
2C56
330
32
100
AcDbProxyObject
 90
      499
 91
      510
 95
       25
 70
     0
 93
      148
310
00010143905354D25391D31152105513105660
330
32
 94
        0
  0
ACAD_PROXY_OBJECT
  5
2C57
330
32
100
AcDbProxyObject
 90
      499
 91
      510
 95
       25
 70
     0
 93
      124
310
00010142D0535115D1D193111254D420
330
32
 94
        0
  0
ACAD_PROXY_OBJECT
  5
2C58
330
32
100
AcDbProxyObject
 90
      499
 91
      510
 95
       25
 70
     0
 93
      100
310
00010142105350555513D213A0
330
32
 94
        0
  0
ACAD_PROXY_OBJECT
  5
2C59
330
32
100
AcDbProxyObject
 90
      499
 91
      510
 95
       25
 70
     0
 93
      116
310
000101425053521390D3D553951010
330
32
 94
        0
  0
ACAD_PROXY_OBJECT
  5
2C5A
330
32
100
AcDbProxyObject
 90
      499
 91
      510
 95
       25
 70
     0
 93
      108
310
0001014210535213941493D29010
330
32
 94
        0
  0
ACAD_PROXY_OBJECT
  5
2C5B
330
32
100
AcDbProxyObject
 90
      499
 91
      510
 95
       25
 70
     0
 93
      108
310
0001014210535213951654115070
330
32
 94
        0
  0
ACAD_PROXY_OBJECT
  5
2C5C
330
32
100
AcDbProxyObject
 90
      499
 91
      510
 95
       25
 70
     0
 93
      108
310
000101421053521395925155D0F0
330
32
 94
        0
  0
ACAD_PROXY_OBJECT
  5
2C5D
330
32
100
AcDbProxyObject
 90
      499
 91
      510
 95
       25
 70
     0
 93
      140
310
00010143505354D150D51253D390D3D41660
330
32
 94
        0
  0
ACAD_PROXY_OBJECT
  5
2C5E
330
32
100
AcDbProxyObject
 90
      499
 91
      510
 95
       25
 70
     0
 93
      108
310
00010142105350D3141493D29030
330
32
 94
        0
  0
ACAD_PROXY_OBJECT
  5
2C5F
330
32
100
AcDbProxyObject
 90
      499
 91
      509
 95
       25
 70
     0
 93
      212
310
00010143905350555513D2105510D21493D500000000000002E400
330
32
 94
        0
  0
ACAD_PROXY_OBJECT
  5
2C60
330
32
100
AcDbProxyObject
 90
      499
 91
      510
 95
       25
 70
     0
 93
      156
310
00010143905350555513D2105510D21111551010
330
32
 94
        0
  0
ACAD_PROXY_OBJECT
  5
2C6E
330
32
100
AcDbProxyObject
 90
      499
 91
      546
 95
       25
 70
     0
 93
      698
310
0001000000009AA6A9AA4051E547565204175672032342030323A35363A333820323031302028555443290141CE4B8C8B8C0B8C80518547565205365702032382031343A33353A333320323031300141CE4B8C8B8C0B8C80
330
32
330
2C6F
330
2C70
330
2C72
330
0
 94
        0
  0
ACAD_PROXY_OBJECT
  5
2C6F
330
32
100
AcDbProxyObject
 90
      499
 91
      547
 95
       25
 70
     0
 93
       70
310
0001AAA80820000000
330
32
330
2C6F
330
2C6F
 94
        0
  0
ACAD_PROXY_OBJECT
  5
2C70
330
32
100
AcDbProxyObject
 90
      499
 91
      548
 95
       25
 70
     0
 93
       48
310
000100000000
330
32
330
0
330
2C71
330
0
330
0
 94
        0
  0
ACAD_PROXY_OBJECT
  5
2C71
330
32
100
AcDbProxyObject
 90
      499
 91
      549
 95
       25
 70
     0
 93
       40
310
000100AAAA
330
32
330
0
 94
        0
  0
ACAD_PROXY_OBJECT
  5
2C77
330
32
100
AcDbProxyObject
 90
      499
 91
      553
 95
       25
 70
     0
 93
      180
310
00010143105050D3D35411119390535140504434F4D500
330
32
 94
        0
  0
ACAD_PROXY_OBJECT
  5
2C78
330
32
100
AcDbProxyObject
 90
      499
 91
      553
 95
       25
 70
     0
 93
      212
310
0001014390505193D311115491119390535140506466F6C6465720
330
32
 94
        0
  0
ACAD_PROXY_OBJECT
  5
2C79
330
32
100
AcDbProxyObject
 90
      499
 91
      553
 95
       25
 70
     0
 93
      180
310
00010143105050539393D1119390535140504284156290
330
32
 94
        0
  0
ACAD_PROXY_OBJECT
  5
2C7A
330
32
100
AcDbProxyObject
 90
      499
 91
      553
 95
       25
 70
     0
 93
      436
310
00010143905050D3D35415925155D31254D50052295BD96CA0A90B396CA0A894591A496CA0A8DB691A496CA0A89BA96CA0A95E28F95310
330
32
 94
        0
  0
ACAD_PROXY_OBJECT
  5
2C7F
330
32
100
AcDbProxyObject
 90
      499
 91
      555
 95
       25
 70
     0
 93
       32
310
00010000
330
32
340
2C7C
330
2C81
330
2C7C
 94
        0
  0
ACAD_PROXY_OBJECT
  5
2C80
330
32
100
AcDbProxyObject
 90
      499
 91
      556
 95
       25
 70
     0
 93
       18
310
000180
330
32
 94
        0
  0
ACAD_PROXY_OBJECT
  5
2C81
330
32
100
AcDbProxyObject
 90
      499
 91
      557
 95
       25
 70
     0
 93
      226
310
0001014450CC8C14CB54D11550D48C4C550CCB4C8D5050055401550000
330
32
330
2C7F
330
2C80
 94
        0
  0
ACAD_PROXY_OBJECT
  5
2C82
330
32
100
AcDbProxyObject
 90
      499
 91
      558
 95
       25
 70
     0
 93
      178
310
000100AAAAAAAD611BF5183C6F106029F9A5AA78A59B80
330
32
330
2C81
 94
        0
  0
ACAD_PROXY_OBJECT
  5
2C83
330
32
100
AcDbProxyObject
 90
      499
 91
      559
 95
       25
 70
     0
 93
      108
310
000190140A000000000000AAAAA0
330
32
330
2C84
330
2C84
330
2C84
330
2C84
330
2C84
330
0
 94
        0
  0
ACAD_PROXY_OBJECT
  5
2C84
330
32
100
AcDbProxyObject
 90
      499
 91
      560
 95
       25
 70
     0
 93
       51
310
00010000AAAA80
330
32
330
2C83
330
2C81
 94
        0
  0
ACAD_PROXY_OBJECT
  5
2C87
330
32
100
AcDbProxyObject
 90
      499
 91
      553
 95
       25
 70
     0
 93
      140
310
00010142105350D55494D511005034A49530
330
32
 94
        0
  0
DICTIONARY
  5
2C
102
{ACAD_REACTORS
330
2B
102
}
330
2B
100
AcDbDictionary
281
     1
  3
DWGSETTINGS
350
2D
  3
TRANSSETTINGS
350
2E
  0
ACAD_PROXY_OBJECT
  5
4A
102
{ACAD_REACTORS
330
2B
102
}
330
2B
100
AcDbProxyObject
 90
      499
 91
      521
 95
       25
 70
     0
 93
    23256
310
41502491013041105357CC201C00030C0132441013141105357CC603800030C0132441013241105357CCA01400030C0132441013341105357CCE01800030C01199013441105357CD200C00030C01199013541105357CD600C00030C01199013641105357CDA00800030C01239013741105357CDE01000030C0119901384110
310
5357CE200400030C01199013941105357CE63F400030C0241102324141505357CC4C201C00030C0132902344141505357CC4C600C00030C0119902495041505357CC4CA01C00030C013240902304E41505357CC13A01C00030C0132902314E41505357CC53A03800030C0132902324E41505357CC93A01400030C013290233
310
4E41505357CCD3A01800030C0119902344E41505357CD13A00C00030C0119902354E41505357CD53A00C00030C0119902364E41505357CD93A00800030C0123902374E41505357CDD3A01000030C0119902384E41505357CE13A00400030C0119902394E41505357CE53A3F400030C024110332414E41905357CC4C13A01C0
310
0030C013290334414E41905357CC4C53A00C00030C011990349504E41905357CC4C93A01C00030C0132409044B4C494E41505357D0D3200400030C011942504494E464F42105357D410549151A01000030C011942D055241484D3541905357D093D4A01C00030C0132425045649455742105357D5925155D4E00400030C011
310
942D06424548494E4441905357D25395A3F400030C0243505545241494C41505357D514A00C00030C01194250348494441905357D21251201C00030C01194250356495341905357D59254E01C00030C01324250650415244494D42505357D41054911253600C00030C01194250652454644494D42505357D49151911253601
310
000030C0119425774110531514901348070000C3004C9034110915312501348000000C0003FFFFFFFD034110921395901398000000C0003FFFFFFFE415092139594D06424548494E448000000C0003FFFFFFFE411093125110234418000000C0003FFFFFFFD03411093D05410234418000000C0003FFFFFFFD03411093D48C
310
9055241484D358010000C300466411093D48CD055241484D358020000C30048E411093D48D5055241484D358000000C0003FFFFFFFE411093D48DD055241484D3581E0000C30051903411094105410234418000000C0003FFFFFFFD03411094115610234418000000C0003FFFFFFFD034110951112501358000000C0003FFF
310
FFFFD034110D0530C901348000000C0003FFFFFFFE4110D0530CD01348020000C30048E4110D0530D501348070000C3004CA4110D0530DD013481E0000C30051A4110D15393901378000000C0003FFFFFFFE4110D15395D01378000000C0003FFFFFFFE4110D312539044B4C494E8000000C0003FFFFFFFE4110D3D38C5013
310
08000000C0003FFFFFFFD034110D3D38C901318000000C0003FFFFFFFD034110D3D38CD01328000000C0003FFFFFFFD034110D3D38D101328000000C0003FFFFFFFD034111115494101348000000C0003FFFFFFFD034111115510501348000000C0003FFFFFFFE4111125051D01358000000C0003FFFFFFFE4111125312501
310
358000000C0003FFFFFFFE411112535410650415244494D8000000C0003FFFFFFFE411112535490652454644494D8000000C0003FFFFFFFE411156135410234418000000C0003FFFFFFFD034111915353901388000000C0003FFFFFFFE415191535413901388030000C3003FFFFFFFE4151915354D410234418000000C0003
310
FFFFFFFE4151915354D510234418030000C300466415191535593901328000000C0003FFFFFFFE415191535595101328030000C3004664111931055101308000000C0003FFFFFFFD03411194905490234418000000C0003FFFFFFFD034111D49312501358000000C0003FFFFFFFD034111D5931250234418000000C0003FFF
310
FFFFD034112105510D01388000000C0003FFFFFFFD014112125113901338000000C0003FFFFFFFD034112125115D01338000000C0003FFFFFFFD034112131253901348000000C0003FFFFFFFD01411213D0D3901378000000C0003FFFFFFFE411213D0D5D01378000000C0003FFFFFFFE4112539193D04494E464F8000000C
310
0003FFFFFFFE4113105112501348000000C0003FFFFFFFD034113115051101358000000C0003FFFFFFFE419397D0921395902394E8000000C0003FFFFFFFE419397D0D3D38C502304E8000000C0003FFFFFFFD03419397D0D3D38C902314E8000000C0003FFFFFFFD03419397D0D3D38CD02324E8000000C0003FFFFFFFD03
310
419397D0D3D38D102324E8000000C0003FFFFFFFD03419397D0D15393902374E8000000C0003FFFFFFFE419397D0D15395D02374E8000000C0003FFFFFFFE419397D1125312502354E8000000C0003FFFFFFFE419397D2105510D02384E8000000C0003FFFFFFFD01419397D2125113902334E8000000C0003FFFFFFFD0341
310
9397D2125115D02334E8000000C0003FFFFFFFD03419397D3115051102354E8000000C0003FFFFFFFE419397D391D25410349504E8000000C0003FFFFFFFE419397D412105390334414E8000000C0003FFFFFFFE419397D510D3D3902304E8000000C0003FFFFFFFD03419397D5121312502344E8000000C0003FFFFFFFD01
310
419397D5131153902304E8000000C0003FFFFFFFD03419397D516150CD02364E8000000C0003FFFFFFFD03419397D594131250332414E8000000C0003FFFFFFFE411391D25410249508000000C0003FFFFFFFE411410530C9055241484D358010000C300466411410530CD055241484D358020000C30048E411410530D5055
310
241484D358000000C0003FFFFFFFE411410530DD055241484D3581E0000C30051903411412105390234418000000C0003FFFFFFFE411413D4D3901368070000C3004CA419413D4D49151901368050000C3004C903411413D4D6101368000000C0003FFFFFFFD03411414D150D0234418000000C0003FFFFFFFD03411490D1D
310
3901378000000C0003FFFFFFFE411490D1D5D01378000000C0003FFFFFFFE4114919112501348000000C0003FFFFFFFD034114945514901348070000C3004C903411494D093D01348000000C0003FFFFFFFD034114D09492D01348000000C0003FFFFFFFD014114D0D153901378000000C0003FFFFFFFD034114D150D51013
310
48000000C0003FFFFFFFD014114D15313901378000000C0003FFFFFFFD034114D15315D01378000000C0003FFFFFFFD034114D4D654D01308000000C0003FFFFFFFD034114D51312501348070000C3004C9034114D6508C501358000000C0003FFFFFFFD034114D6508C901358000000C0003FFFFFFFD034114D6508CD0135
310
8020000C30048E4114D6508D501358070000C3004C9034114D65353901378000000C0003FFFFFFFD034114D65355D01378000000C0003FFFFFFFD03411510D3D3901308000000C0003FFFFFFFD034115121312501348000000C0003FFFFFFFD01411512550C9055241484D358010000C300466411512550CD055241484D358
310
020000C30048E411512550D5055241484D358000000C0003FFFFFFFE411512550DD055241484D3581E0000C300519034115131153901308000000C0003FFFFFFFD03415514905253105545241494C8000000C0003FFFFFFFE41151492D3901378000000C0003FFFFFFFD0341151492D5D01378000000C0003FFFFFFFD03411
310
5149312501348000000C0003FFFFFFFD01411516150C501368030000C300466411516150C901368030000C300466411516150CD01368000000C0003FFFFFFFE411516150D501368070000C3004CA411516150DD013681E0000C30051A4115925155D04564945578000000C0003FFFFFFFE41159151121034849448000000C0
310
003FFFFFFFD0241159151159035649538000000C0003FFFFFFFD02411594131250232418000000C0003FFFFFFFE4116925690501348000000C0003FFFFFFFD01411354D653501358020000C30048EAAA3F400030C01013F90A4393241D3241919415324111940D194092340519479467F6
340
16
340
16
340
16
340
4B
340
16
340
16
340
16
340
4C
340
16
340
16
340
4C
340
4D
340
16
340
16
340
16
340
16
340
4B
340
16
340
16
340
16
340
4C
340
16
340
16
340
4C
340
4D
340
16
340
4E
340
16
340
16
340
16
340
16
340
16
340
4B
340
16
340
16
340
16
340
4F
340
15
340
15
340
15
340
15
340
15
340
15
340
15
340
15
340
15
340
15
340
15
340
15
340
15
340
15
340
15
340
15
340
50
340
15
340
15
340
15
340
15
340
15
340
15
340
15
340
15
340
15
340
15
340
15
340
15
340
15
340
15
340
15
340
16
340
15
340
15
340
15
340
15
340
15
340
15
340
15
340
15
340
4F
340
15
340
15
340
50
340
15
340
15
340
15
340
15
340
15
340
15
340
15
340
15
340
15
340
50
340
15
340
15
340
15
340
4F
340
15
340
15
340
15
340
15
340
15
340
15
340
15
340
15
340
15
340
15
340
15
340
15
340
15
340
15
340
15
340
15
340
15
340
15
340
15
340
50
340
15
340
15
340
50
340
15
340
15
340
16
340
15
340
50
340
15
340
15
340
4F
340
15
340
15
340
16
340
15
340
50
340
15
340
15
340
15
340
15
340
15
340
15
340
15
340
15
340
15
340
50
340
15
340
15
340
15
340
15
340
15
340
15
340
15
340
15
340
15
340
15
340
15
340
53
340
16
 94
        0
  0
ACAD_PROXY_OBJECT
  5
355
102
{ACAD_REACTORS
330
350
102
}
330
350
100
AcDbProxyObject
 90
      499
 91
      529
 95
       25
 70
     0
 93
      253
310
43D1444494D454E53494F4E2C414D44545F2A5F44494D404A9012A404A9012A8
  0
ACAD_PROXY_OBJECT
  5
354
102
{ACAD_REACTORS
330
350
102
}
330
350
100
AcDbProxyObject
 90
      499
 91
      529
 95
       25
 70
     0
 93
      181
310
43D012A42D05357D191504B505357CA9012A404A9012A8
  0
ACAD_PROXY_OBJECT
  5
351
102
{ACAD_REACTORS
330
350
102
}
330
350
100
AcDbProxyObject
 90
      499
 91
      529
 95
       25
 70
     0
 93
      133
310
43D054841544348404A9012A404A9012A8
  0
ACAD_PROXY_OBJECT
  5
352
102
{ACAD_REACTORS
330
350
102
}
330
350
100
AcDbProxyObject
 90
      499
 91
      529
 95
       25
 70
     0
 93
      549
310
43D044C494E4549CE0B0E138B0A8B4E0B0A8B4E138B105357CE0B105357CE138B0A8B505357CE0B0A8B505357CE139012A404A910494E534552542C5354445041525432448
  0
ACAD_PROXY_OBJECT
  5
353
102
{ACAD_REACTORS
330
350
102
}
330
350
100
AcDbProxyObject
 90
      499
 91
      529
 95
       25
 70
     0
 93
      909
310
43D6641434D46434652414D452C41434D444154554D5441524745542C41434D444154554D49442C41434D57454C4453594D2C41434D5355524653594D2C41434D4645415449442C41434D504152545245462C41434D42414C4C4F4F4E2C414D44544544474553594D404A9012A404A9012A8
  0
XRECORD
  5
AA6
102
{ACAD_REACTORS
330
AA4
102
}
330
AA4
100
AcDbXrecord
280
     1
  1
1,,,,,,,,,^M^J2,,,,,,,,,^M^J3,,,,,,,,,^M^J4,,,,,,,,,^M^J5,,,,,,,,,
  0

  0
XRECORD
  5
AA5
102
{ACAD_REACTORS
330
AA4
102
}
330
AA4
100
AcDbXrecord
280
     1
  1
5,10
  0

  0
ACAD_PROXY_OBJECT
  5
45
102
{ACAD_REACTORS
330
44
102
}
330
44
100
AcDbProxyObject
 90
      499
 91
      520
 95
       25
 70
     0
 93
      157
310
057356C1D77406406AA8FFFFFFFF05DD01009010
330
1F
330
0
330
2C81
 94
        0
  0
ACAD_PROXY_OBJECT
  5
343
102
{ACAD_REACTORS
330
342
102
}
330
342
100
AcDbProxyObject
 90
      499
 91
      522
 95
       25
 70
     0
 93
     2379
310
5DC33333333333309408000000C00040D29254D01640600800030C0200800030C003333333333330940C8121E8720B1B6A9BAB9332A32BC3A29BA3220480A1282C6DA8C868CA6E8C88120286A0B1B6ABB2B63234B733A9BA3220480A1082C6DA92C8A6E8C88120285A0B1B6A230BA3AB6A9BA3220480A1282C6DA849E9AA6E
310
8C88120286A0B1A0B6B3AA34BA3632A9BA3220480A2082DAC8E888CAE8C2D2D8A6F2DAA6E8C88120288A0B6B23A29B2B1BA34B7B729BCB6A9BA3220480A2282DAC8E886CADCE8CAE498D2DCCAA6E8C88120288A0B6B23A2A343932B0B22634B732A9BA3220480A1682DAC8E89CDEE8CAA6E8C88120285A0B1A0B6B3A630BCA
310
9BA3220480A1682C682DACE88D2DAA6E8C88120288A0B1A0B6B3A437B632A1B430B93A29BA3220480C812020
340
32F
360
344
360
345
360
346
360
347
360
348
360
349
360
2C88
360
2C89
360
2C8A
360
2C8C
360
2C8D
360
2C8E
360
2C94
360
2C95
360
2C96
340
0
340
0
 94
        0
  0
ACAD_PROXY_OBJECT
  5
2D
102
{ACAD_REACTORS
330
2C
102
}
330
2C
100
AcDbProxyObject
 90
      499
 91
      503
 95
       25
 70
     0
 93
     2584
310
4050B44574753455454494E4753A0E8482A68AA6A88882A069492A684A1A0A723A0A92920ACA0A8419983E1A1ABE1B1820C868A9C829C8E82A12686AF87260F862666A8321A2A72224A0A50000000000000122020E868A9C889282A682A106260F86460F8666083A1A2A72224A9AA250000000000000042020C868A9C988A9
310
C94000000000000048808321A2A727A32325000000000000012202128698929C82A4A482B282A06646A608421A624A722AA2CA820A82AC2624A722A1288AE8EAAA68682988A94283A620A9AA27A12520A80982109A82968AAC928AAE9FA04832829A1A0A622830020000419491559254D2505404C1055343414C4541503313
310
A314214D510539110549110540D29254D0954494D455354414D504A06A6C4B02742B734141D5915494D253D3905414C4D4B8C0C1107B44574753455454494E4753454E447D
  0
ACAD_PROXY_OBJECT
  5
2E
102
{ACAD_REACTORS
330
2C
102
}
330
2C
100
AcDbProxyObject
 90
      499
 91
      503
 95
       25
 70
     0
 93
      852
310
4050D5452414E5353455454494E4753A2488A482AE929C8EA8A4829CA69882A8929E9C0C00800050D4F524947494E414C4C595F4F4E0600400028529A7AAA921A2A620A723A0A81A52827212AAA0A48AA68AA4AC8A0C0080001107B44574753455454494E4753454E447D0
  0
ACAD_PROXY_OBJECT
  5
344
330
343
100
AcDbProxyObject
 90
      499
 91
      523
 95
       25
 70
     0
 93
       86
310
5DEA0C80A0280A0280A034
  0
ACAD_PROXY_OBJECT
  5
345
330
343
100
AcDbProxyObject
 90
      499
 91
      524
 95
       25
 70
     0
 93
      282
310
5DD0E4050140501405014050140501405014050141101405014048000000000000001000
340
330
 94
        0
  0
ACAD_PROXY_OBJECT
  5
346
330
343
100
AcDbProxyObject
 90
      499
 91
      525
 95
       25
 70
     0
 93
      323
310
5DCC199999999999E99F91740501405014050140501405014050140501405014050140501405014040
340
0
 94
        0
  0
ACAD_PROXY_OBJECT
  5
347
330
343
100
AcDbProxyObject
 90
      499
 91
      526
 95
       25
 70
     0
 93
       10
310
5DC0
  0
ACAD_PROXY_OBJECT
  5
348
330
343
100
AcDbProxyObject
 90
      499
 91
      527
 95
       25
 70
     0
 93
      257
310
5DE0C16A22A7D90F49F80000000000001081400000000000004204010000618000
340
328
340
329
 94
        0
  0
ACAD_PROXY_OBJECT
  5
349
330
343
100
AcDbProxyObject
 90
      499
 91
      528
 95
       25
 70
     0
 93
     5277
310
5DD06411255115350141236025B6901405014069010000000000000910240690120281A8AA2CA0282484A4BE52028120280A032020000000000001220480D202405044E414D454050496BC914F4051C40640A80000000000004E4090193C3D3C4946284953424C414E4B28504152543A4E414D45292C424C4F434B3A4E414D
310
452C504152543A4E414D45293E3C41435F44455343524950544E3E40480A109A82A88AA492829880A091BBD2F7E80A3A80C81D0E27A15AF46E08A81203480901411393D5115014124A363B7D0147501904A0000000000000F902406428F4F1050D7D393D5114F901202832B22A72227A92028366EF6EE06F582028EA0320B4
310
0000000000001F20480C879E9E20A1AFAB27222FA620A122A61F20240506445020000000000000490201C00030C00010180000000000003E400000000000000F901073D3C4954454D3E4050180000000000003E400000000000000F901073D3C4954454D3E40501800000000000034400000000000000D101073D3C4954454
310
D3E40501800000000000034400000000000000D101073D3C4954454D3E405029010000000000000F9000000000000003E4041CF4F125511534F901418F4F1455164F9014060000000000000F9000000000000003E4041CF4F125511534F901800000000000034400000000000000D101073D3C4954454D3E40640400000000
310
0000003E400000000000000F90288800000000000020810000001800120881A068120480A032208521122080D21480D211480A1485214852050000000000003C2FC000000000000F0BF40600800030C0200400030C00CDCCCCCCCCCCEC3F3373333333333B0FC3333333333330940C80D069014090341504901A1999999999
310
9984A040100006180400800061804010000618008098A02808
340
0
340
0
 94
        0
  0
ACAD_PROXY_OBJECT
  5
2C88
330
343
100
AcDbProxyObject
 90
      499
 91
      561
 95
       25
 70
     0
 93
     3042
310
5DD9740D29254D064A49535F413342929254D7D512551311505134A49535F42525F5265766973696F6E6C6973744190F4134522028323937783231306D6D2941D29254D7D04D1490E41312028353934783834316D6D2941929254D7D04C50E41332028323937783432306D6D2941929254D7D04CD0F41344C2028323130783
310
239376D6D2941D29254D7D04D1310E41322028343230783539346D6D2941929254D7D04C90F4130202838343178313138396D6D2941929254D7D04C10243129254C82557247A25E4C81050A4A49535F5449544C454143129254C82557247A25E4C81090A4A49535F5449544C45424110E979A97F0838A835883675F42525F4
310
4D29254D7D09497D4995D9A5CDA5BDB9B1A5CDD10E979A97F0838A835883675F54525F44D29254D7D51497D4995D9A5CDA5BDB9B1A5CDD10E979A97F0838A835883675F424C5F44D29254D7D09317D4995D9A5CDA5BDB9B1A5CDD10E979A97F0838A835883675F544C5F44D29254D7D51317D4995D9A5CDA5BDB9B1A5CDD00
  0
ACAD_PROXY_OBJECT
  5
2C89
330
343
100
AcDbProxyObject
 90
      499
 91
      562
 95
       25
 70
     0
 93
      898
310
5DC4000000000000124048CF4F11115510525317D3105091530F880A0F11115510525317D05094D4D0D053114F8A50241C9A9999999999B93F26A666666666724FC000000000000E03F400000000000000400000000000000510000000000000024408070000C300000000000000049000
340
16
340
32F
 94
        0
  0
ACAD_PROXY_OBJECT
  5
2C8A
330
343
100
AcDbProxyObject
 90
      499
 91
      563
 95
       25
 70
     0
 93
      823
310
5DC0B00000000000002480959E9E29A2A1AA24A7A72FA620A122A62FA324A929AA1F169E29A2A1AA24A7A72FA620A122A62FA620A9AA1F000000000000048803FFFE01C00030C008140380006180000000000000048800000000000000A2000000000000002480
340
39F
340
32F
 94
        0
  0
ACAD_PROXY_OBJECT
  5
2C8C
330
343
100
AcDbProxyObject
 90
      499
 91
      564
 95
       25
 70
     0
 93
      152
310
5DE8273108AC1C5A0640A3D0A5723F0BD1F200
  0
ACAD_PROXY_OBJECT
  5
2C8D
330
343
100
AcDbProxyObject
 90
      499
 91
      565
 95
       25
 70
     0
 93
       14
310
5DE0
340
0
 94
        0
  0
ACAD_PROXY_OBJECT
  5
2C8E
330
343
100
AcDbProxyObject
 90
      499
 91
      566
 95
       25
 70
     0
 93
     6059
310
5DD084050BA4050AA405024050E836583938376838C815B83672031405983D3C486F6C653A6469613E3C696628657175616C28486F6C653A7465726D696E6174696F6E2C223022292C2220905B82B320222C22208368838A838B22293E3C696628657175616C28486F6C653A7465726D696E6174696F6E2C223022292C486F
310
6C653A64657074682C2222293E2C203C486F6C653A63746469613E2082B482AE82E882CC905B82B3203C486F6C653A637464657074683E406901405034050E836583938376838C815B83672031405EF3D3C486F6C653A6374616E676C653E252564202525633C486F6C653A63746469613E208E4D8C8A2C203C69662865717
310
5616C28486F6C653A7461707065642C223022292C22252563222C486F6C653A6E6F6D696E616C202220782022293E3C696628657175616C28486F6C653A7461707065642C223022292C486F6C653A6469612C486F6C653A706974636864657363293E203C696628657175616C28486F6C653A7465726D696E6174696F6E2C2
310
23022292C22905B82B320222C222022293E3C696628657175616C28486F6C653A7465726D696E6174696F6E2C223022292C486F6C653A64657074682C2222293E406901405014050E836583938376838C815B83672031405C73D3C696628657175616C28486F6C653A7461707065642C223022292C22252563222C486F6C65
310
3A6E6F6D696E616C202220782022293E3C696628657175616C28486F6C653A7461707065642C223022292C486F6C653A6469612C486F6C653A706974636864657363293E203C696628657175616C28486F6C653A7465726D696E6174696F6E2C223022292C22905B82B320222C222022293E3C696628657175616C28486F6C
310
653A7465726D696E6174696F6E2C223022292C486F6C653A64657074682C2222293E4069014051E4090E836583938376838C815B83672032405173D3C535444503A444553433E203C535444503A5354443E40690E836583938376838C815B836720314050C3D3C535444503A444553433E40690240515AAABBA120
360
2C92
330
2C92
360
2C93
330
2C93
360
2C91
330
2C91
360
2C90
360
2C8F
330
2C90
330
2C8F
 94
        0
  0
ACAD_PROXY_OBJECT
  5
2C94
330
343
100
AcDbProxyObject
 90
      499
 91
      568
 95
       25
 70
     0
 93
       26
310
5DD02A80
340
4A
 94
        0
  0
ACAD_PROXY_OBJECT
  5
2C95
330
343
100
AcDbProxyObject
 90
      499
 91
      569
 95
       25
 70
     0
 93
      250
310
5DD020000000000000A1000000000000002440408F0F9023C3E409A0DCFFFF80
340
331
340
532
340
533
340
332
340
333
340
334
340
335
340
336
340
337
340
0
 94
        0
  0
ACAD_PROXY_OBJECT
  5
2C96
330
343
100
AcDbProxyObject
 90
      499
 91
      570
 95
       25
 70
     0
 93
    13889
310
5DD1D003FFFFFFFD030300030CCCCCCCCCCCC250200800030C01030300030CCCCCCCCCCCC250200800030C00050C8DC0955782CC838A83588367014ED1D15395149050D3CB1294138B0C0B23702555E0B320E2A0D620D9CB11D15395149055160B095CCB0A11D1539354D1C819D95B991A5B5E880CCC0A78000C0000000000
310
00000000000000000000010CCCCCCCCCCCC250200800030C010CCCCCCCCCCCC250200800030C020143CF4F111959985D5B1D151A5D1B194F8050A8C8A8365815B8375838B014E51D15395149050D3CB1294138B0C0B2322A0D96056E0DD60E2CB11D15395149055160B095CCB0A11D1539354D1C819D95B991A5B5E880CCC4
310
A78000C000000000000000000000000000000010CCCCCCCCCCCC250200800030C010CCCCCCCCCCCC250200800030C020143CF4F111959985D5B1D151A5D1B194F90D44111409034110541D0C4350F4050E44D03449074510F000141232D24D7C053247454E545241434F2C4A504E2C302C8CB4935F2C47454E54524154582C
310
25732C2847454E4D53472067656E64696D7A20312900010104002214000281464500A608E8A9CA8A482869E5894A09C5860591914588E8A9CA8A482A8B0584AE658508E8A9C9AA68E40CECADCC8D2DAF4406452029E9E9E27B934B3B4B71F1E24A31427A91424A9A12620A7259427B934B3B4B7149624A9A12620A7259424B
310
A32B6949496111116111711149F1E24BA32B69F00808200111A000140560052F47454E545241434F2C4A504E2C302C582C47454E54524154582C25732C2847454E4D53472067656E64696D7A20332900010100002054000280AC80A5E8E8A9CA8A482869E5894A09C586058B2588E8A9CA8A482A8B0584AE658508E8A9C9AA
310
68E40CECADCC8D2DAF4406852000202000040E800050152014BD1D15395149050D3CB1294138B0C0B148B11D15395149055160B095CCB0A11D1539354D1C819D95B991A5B5E880D8A400040400008250000A0507A6029823A2A72A2920A1A79625282716181641E99623A2A72A2920AA2C1612B9961423A2A726A9A39033B2
310
B73234B6BD101B948000808180105A000140A0F4C053047454E545241434F2C4A504E2C302C83D32C47454E54524154582C25732C2847454E4D53472067656E64696D7A203829000101010020F400028248704B5F00A668E8A9CA8A482869E5894A09C58605921C12D7C588E8A9CA8A482A8B0584AE658508E8A9C9AA68E40
310
CECADCC8D2DAF440646052000200080043280005048B4B8A69014CD1D15395149050D3CB1294138B0C0B22D2E29A4B11D15395149055160B095CCB0A11D1539354D1C819D95B991A5B5E880C8C4A4000400100086D0000A09196926BE029923A2A72A2920A1A796252827161816465A49AF9623A2A72A2920AA2C1612B9961
310
423A2A726A9A39033B2B73234B6BD10189480A02620202080043E80005048D8096DA014CD1D15395149050D3CB1294138B0C0B236025B68B11D15395149055160B095CCB0A11D1539354D1C819D95B991A5B5E880C4D0A4000404140280D0000A190687072706CD06C5069D06B0029DA3A2A72A2920A1A7962528271618164
310
1A1C1C9C1B341B141A741AC1623A2A72A2920AA2C1612B9961423A2A726A9A39033B2B73234B6BD10189A94800080820050EA000143A322A0D0E0E4E0D9A0D8A0D3A0D60053D47454E545241434F2C4A504E2C302C8C8A8343839383668362834E83582C47454E54524154582C25732C2847454E4D53472067656E64696D7A
310
2031372900010105002274000281464500A628E8A9CA8A482869E5894A09C5860591914588E8A9CA8A482A8B0584AE658508E8A9C9AA68E40CECADCC8D2DAF440626C52000202080044A8000504909497CA014CD1D15395149050D3CB1294138B0C0B242525F28B11D15395149055160B095CCB0A11D1539354D1C819D95B9
310
91A5B5E880C4E4A400040418008A521E000000000000001CA040C00000000000034408080000000000006881010000000000000D102040000000000001A204080000000000003440818000000000000728103000000000000125020600000000004028A040000000000000034408000000000000004881000000000000000D
310
102000000000000001A204000000000000003440818000000000000508143C0000000000000039408180000000000006881030000000000000D102060000000000001A2040C00000000000034408180000000000006881030000000000000E5020600000000000024A040C0000000000805140800000000000000688100000
310
00000000009102000000000000001A2040000000000000034408180000000000006881030000000000000A10284220000000878000002020000008380000020400000081800000208000000828000002028900000000
340
0
340
0
340
0
340
0
340
32F
340
32F
 94
        0
  0
ACAD_PROXY_OBJECT
  5
2C92
330
2C8E
100
AcDbProxyObject
 90
      499
 91
      567
 95
       25
 70
     0
 93
     1376
310
5DE0143A0D960E4E0DDA0E32056E0D9C80C405983D3C486F6C653A6469613E3C696628657175616C28486F6C653A7465726D696E6174696F6E2C223022292C2220905B82B320222C22208368838A838B22293E3C696628657175616C28486F6C653A7465726D696E6174696F6E2C223022292C486F6C653A64657074682C22
310
22293E2C203C486F6C653A63746469613E2082B482AE82E882CC905B82B3203C486F6C653A637464657074683E
  0
ACAD_PROXY_OBJECT
  5
2C93
330
2C8E
100
AcDbProxyObject
 90
      499
 91
      567
 95
       25
 70
     0
 93
     2072
310
5DE0143A0D960E4E0DDA0E32056E0D9C80C405EF3D3C486F6C653A6374616E676C653E252564202525633C486F6C653A63746469613E208E4D8C8A2C203C696628657175616C28486F6C653A7461707065642C223022292C22252563222C486F6C653A6E6F6D696E616C202220782022293E3C696628657175616C28486F6C
310
653A7461707065642C223022292C486F6C653A6469612C486F6C653A706974636864657363293E203C696628657175616C28486F6C653A7465726D696E6174696F6E2C223022292C22905B82B320222C222022293E3C696628657175616C28486F6C653A7465726D696E6174696F6E2C223022292C486F6C653A6465707468
310
2C2222293E
  0
ACAD_PROXY_OBJECT
  5
2C91
330
2C8E
100
AcDbProxyObject
 90
      499
 91
      567
 95
       25
 70
     0
 93
     1752
310
5DE0143A0D960E4E0DDA0E32056E0D9C80C405C73D3C696628657175616C28486F6C653A7461707065642C223022292C22252563222C486F6C653A6E6F6D696E616C202220782022293E3C696628657175616C28486F6C653A7461707065642C223022292C486F6C653A6469612C486F6C653A706974636864657363293E20
310
3C696628657175616C28486F6C653A7465726D696E6174696F6E2C223022292C22905B82B320222C222022293E3C696628657175616C28486F6C653A7465726D696E6174696F6E2C223022292C486F6C653A64657074682C2222293E
  0
ACAD_PROXY_OBJECT
  5
2C90
330
2C8E
100
AcDbProxyObject
 90
      499
 91
      567
 95
       25
 70
     0
 93
      344
310
5DE0143A0D960E4E0DDA0E32056E0D9C80C805173D3C535444503A444553433E203C535444503A5354443E
  0
ACAD_PROXY_OBJECT
  5
2C8F
330
2C8E
100
AcDbProxyObject
 90
      499
 91
      567
 95
       25
 70
     0
 93
      256
310
5DE0143A0D960E4E0DDA0E32056E0D9C80C4050C3D3C535444503A444553433E
  0
ENDSEC
  0
EOF
