  0
SECTION
  2
HEADER
  9
$ACADVER
  1
AC1014
  9
$ACADMAINTVER
 70
     0
  9
$DWGCODEPAGE
  3
ANSI_932
  9
$INSBASE
 10
130.894335
 20
630.491411
 30
0.0
  9
$EXTMIN
 10
133.533935
 20
647.374393
 30
0.0
  9
$EXTMAX
 10
287.758932
 20
753.393305
 30
0.0
  9
$LIMMIN
 10
-587.250952
 20
327.890188
  9
$LIMMAX
 10
600.749048
 20
957.890188
  9
$ORTHOMODE
 70
     0
  9
$REGENMODE
 70
     1
  9
$FILLMODE
 70
     1
  9
$QTEXTMODE
 70
     0
  9
$MIRRTEXT
 70
     1
  9
$DRAGMODE
 70
     2
  9
$LTSCALE
 40
5.0
  9
$OSMODE
 70
   303
  9
$ATTMODE
 70
     1
  9
$TEXTSIZE
 40
5.0
  9
$TRACEWID
 40
0.05
  9
$TEXTSTYLE
  7
STANDARD
  9
$CLAYER
  8
寸法
  9
$CELTYPE
  6
CONTINUOUS
  9
$CECOLOR
 62
   256
  9
$CELTSCALE
 40
1.0
  9
$DELOBJ
 70
     1
  9
$DISPSILH
 70
     0
  9
$DIMSCALE
 40
1.0
  9
$DIMASZ
 40
2.0
  9
$DIMEXO
 40
1.0
  9
$DIMDLI
 40
8.0
  9
$DIMRND
 40
0.0
  9
$DIMDLE
 40
0.0
  9
$DIMEXE
 40
2.0
  9
$DIMTP
 40
0.0
  9
$DIMTM
 40
0.0
  9
$DIMTXT
 40
3.0
  9
$DIMCEN
 40
-1.0
  9
$DIMTSZ
 40
0.0
  9
$DIMTOL
 70
     0
  9
$DIMLIM
 70
     0
  9
$DIMTIH
 70
     0
  9
$DIMTOH
 70
     0
  9
$DIMSE1
 70
     0
  9
$DIMSE2
 70
     0
  9
$DIMTAD
 70
     1
  9
$DIMZIN
 70
     8
  9
$DIMBLK
  1

  9
$DIMASO
 70
     1
  9
$DIMSHO
 70
     1
  9
$DIMPOST
  1

  9
$DIMAPOST
  1

  9
$DIMALT
 70
     0
  9
$DIMALTD
 70
     2
  9
$DIMALTF
 40
25.4
  9
$DIMLFAC
 40
1.0
  9
$DIMTOFL
 70
     1
  9
$DIMTVP
 40
0.0
  9
$DIMTIX
 70
     0
  9
$DIMSOXD
 70
     0
  9
$DIMSAH
 70
     1
  9
$DIMBLK1
  1
_OPEN30
  9
$DIMBLK2
  1
_OPEN30
  9
$DIMSTYLE
  2
STANDARD
  9
$DIMCLRD
 70
     1
  9
$DIMCLRE
 70
     1
  9
$DIMCLRT
 70
     3
  9
$DIMTFAC
 40
1.0
  9
$DIMGAP
 40
1.0
  9
$DIMJUST
 70
     0
  9
$DIMSD1
 70
     0
  9
$DIMSD2
 70
     0
  9
$DIMTOLJ
 70
     1
  9
$DIMTZIN
 70
     8
  9
$DIMALTZ
 70
     0
  9
$DIMALTTZ
 70
     0
  9
$DIMFIT
 70
     3
  9
$DIMUPT
 70
     0
  9
$DIMUNIT
 70
     2
  9
$DIMDEC
 70
     2
  9
$DIMTDEC
 70
     2
  9
$DIMALTU
 70
     2
  9
$DIMALTTD
 70
     2
  9
$DIMTXSTY
  7
STANDARD
  9
$DIMAUNIT
 70
     0
  9
$LUNITS
 70
     2
  9
$LUPREC
 70
     3
  9
$SKETCHINC
 40
0.1
  9
$FILLETRAD
 40
4.0
  9
$AUNITS
 70
     0
  9
$AUPREC
 70
     3
  9
$MENU
  1
acad
  9
$ELEVATION
 40
0.0
  9
$PELEVATION
 40
0.0
  9
$THICKNESS
 40
0.0
  9
$LIMCHECK
 70
     0
  9
$BLIPMODE
 70
     0
  9
$CHAMFERA
 40
0.0
  9
$CHAMFERB
 40
0.0
  9
$CHAMFERC
 40
0.0
  9
$CHAMFERD
 40
0.0
  9
$SKPOLY
 70
     0
  9
$TDCREATE
 40
2450751.535399305
  9
$TDUPDATE
 40
2451997.704363425
  9
$TDINDWG
 40
3.2534256944
  9
$TDUSRTIMER
 40
3.2534256944
  9
$USRTIMER
 70
     1
  9
$ANGBASE
 50
0.0
  9
$ANGDIR
 70
     0
  9
$PDMODE
 70
    32
  9
$PDSIZE
 40
0.0
  9
$PLINEWID
 40
0.0
  9
$COORDS
 70
     2
  9
$SPLFRAME
 70
     0
  9
$SPLINETYPE
 70
     5
  9
$SPLINESEGS
 70
     8
  9
$ATTDIA
 70
     0
  9
$ATTREQ
 70
     1
  9
$HANDLING
 70
     1
  9
$HANDSEED
  5
529
  9
$SURFTAB1
 70
     6
  9
$SURFTAB2
 70
     6
  9
$SURFTYPE
 70
     6
  9
$SURFU
 70
     6
  9
$SURFV
 70
     6
  9
$UCSNAME
  2

  9
$UCSORG
 10
0.0
 20
0.0
 30
0.0
  9
$UCSXDIR
 10
1.0
 20
0.0
 30
0.0
  9
$UCSYDIR
 10
0.0
 20
1.0
 30
0.0
  9
$PUCSNAME
  2

  9
$PUCSORG
 10
0.0
 20
0.0
 30
0.0
  9
$PUCSXDIR
 10
1.0
 20
0.0
 30
0.0
  9
$PUCSYDIR
 10
0.0
 20
1.0
 30
0.0
  9
$USERI1
 70
     0
  9
$USERI2
 70
     0
  9
$USERI3
 70
     0
  9
$USERI4
 70
     0
  9
$USERI5
 70
     0
  9
$USERR1
 40
0.0
  9
$USERR2
 40
0.0
  9
$USERR3
 40
0.0
  9
$USERR4
 40
0.0
  9
$USERR5
 40
0.0
  9
$WORLDVIEW
 70
     1
  9
$SHADEDGE
 70
     3
  9
$SHADEDIF
 70
    70
  9
$TILEMODE
 70
     1
  9
$MAXACTVP
 70
    16
  9
$PINSBASE
 10
0.0
 20
0.0
 30
0.0
  9
$PLIMCHECK
 70
     0
  9
$PEXTMIN
 10
1.000000E+20
 20
1.000000E+20
 30
1.000000E+20
  9
$PEXTMAX
 10
-1.000000E+20
 20
-1.000000E+20
 30
-1.000000E+20
  9
$PLIMMIN
 10
0.0
 20
0.0
  9
$PLIMMAX
 10
12.0
 20
9.0
  9
$UNITMODE
 70
     0
  9
$VISRETAIN
 70
     0
  9
$PLINEGEN
 70
     0
  9
$PSLTSCALE
 70
     1
  9
$TREEDEPTH
 70
  3020
  9
$PICKSTYLE
 70
     1
  9
$CMLSTYLE
  2
STANDARD
  9
$CMLJUST
 70
     0
  9
$CMLSCALE
 40
1.0
  9
$PROXYGRAPHICS
 70
     1
  9
$MEASUREMENT
 70
     0
  0
ENDSEC
  0
SECTION
  2
CLASSES
  0
CLASS
  1
LWPOLYLINE
  2
AcDbPolyline
  3
"AutoCAD"
 90
        0
280
     0
281
     1
  0
CLASS
  1
ACDBDICTIONARYWDFLT
  2
AcDbDictionaryWithDefault
  3
AutoCAD 2000
 90
        0
280
     1
281
     0
  0
CLASS
  1
ACDBPLACEHOLDER
  2
AcDbPlaceHolder
  3
AutoCAD 2000
 90
        0
280
     1
281
     0
  0
CLASS
  1
LAYOUT
  2
AcDbLayout
  3
AutoCAD 2000
 90
        0
280
     1
281
     0
  0
CLASS
  1
LONG_TRANSACTION
  2
AcDbLongTransaction
  3
AutoCAD 2000
 90
        0
280
     1
281
     0
  0
CLASS
  1
LWPOLYLINE
  2
AcDbPolyline
  3
"AutoCAD"
 90
        0
280
     0
281
     1
  0
CLASS
  1
HATCH
  2
AcDbHatch
  3
"ACAD_SEDONA"
 90
        0
280
     0
281
     1
  0
CLASS
  1
XRECORD
  2
AcDbXrecord
  3
"<Built In>"
 90
        0
280
     0
281
     0
  0
CLASS
  1
DICTIONARYVAR
  2
AcDbDictionaryVar
  3
"AutoCAD"
 90
        0
280
     0
281
     0
  0
ENDSEC
  0
SECTION
  2
TABLES
  0
TABLE
  2
VPORT
  5
16
100
AcDbSymbolTable
 70
     1
  0
VPORT
  5
524
100
AcDbSymbolTableRecord
100
AcDbViewportTableRecord
  2
*ACTIVE
 70
     0
 10
0.0
 20
0.0
 11
1.0
 21
1.0
 12
227.316539
 22
701.431389
 13
0.0
 23
0.0
 14
1.0
 24
1.0
 15
10.0
 25
10.0
 16
0.0
 26
0.0
 36
1.0
 17
0.0
 27
0.0
 37
0.0
 40
146.318435
 41
1.710425
 42
50.0
 43
0.0
 44
0.0
 50
0.0
 51
0.0
 71
     0
 72
   100
 73
     1
 74
     1
 75
     0
 76
     0
 77
     0
 78
     2
  0
ENDTAB
  0
TABLE
  2
LTYPE
  5
11
100
AcDbSymbolTable
 70
     3
  0
LTYPE
  5
12
100
AcDbSymbolTableRecord
100
AcDbLinetypeTableRecord
  2
BYBLOCK
 70
     0
  3

 72
    65
 73
     0
 40
0.0
  0
LTYPE
  5
13
100
AcDbSymbolTableRecord
100
AcDbLinetypeTableRecord
  2
BYLAYER
 70
     0
  3

 72
    65
 73
     0
 40
0.0
  0
LTYPE
  5
7
100
AcDbSymbolTableRecord
100
AcDbLinetypeTableRecord
  2
CONTINUOUS
 70
     0
  3
Solid line
 72
    65
 73
     0
 40
0.0
  0
LTYPE
  5
40
100
AcDbSymbolTableRecord
100
AcDbLinetypeTableRecord
  2
CENTER
 70
     0
  3
Center ____ _ ____ _ ____ _ ____ _ ____ _ ____
 72
    65
 73
     4
 40
2.0
 49
1.25
 74
     0
 49
-0.25
 74
     0
 49
0.25
 74
     0
 49
-0.25
 74
     0
  0
LTYPE
  5
55
100
AcDbSymbolTableRecord
100
AcDbLinetypeTableRecord
  2
HIDDEN
 70
     0
  3
Hidden __ __ __ __ __ __ __ __ __ __ __ __ __ _
 72
    65
 73
     2
 40
0.375
 49
0.25
 74
     0
 49
-0.125
 74
     0
  0
ENDTAB
  0
TABLE
  2
LAYER
  5
E
100
AcDbSymbolTable
 70
     4
  0
LAYER
  5
6
100
AcDbSymbolTableRecord
100
AcDbLayerTableRecord
  2
0
 70
     0
 62
     7
  6
CONTINUOUS
  0
LAYER
  5
46
100
AcDbSymbolTableRecord
100
AcDbLayerTableRecord
  2
外形
 70
     0
 62
     4
  6
CONTINUOUS
  0
LAYER
  5
36
102
{ACAD_XDICTIONARY
360
37
102
}
100
AcDbSymbolTableRecord
100
AcDbLayerTableRecord
  2
DEFPOINTS
 70
     0
 62
     7
  6
CONTINUOUS
  0
LAYER
  5
82
100
AcDbSymbolTableRecord
100
AcDbLayerTableRecord
  2
寸法
 70
     0
 62
     1
  6
CONTINUOUS
  0
ENDTAB
  0
TABLE
  2
STYLE
  5
F
100
AcDbSymbolTable
 70
     1
  0
STYLE
  5
10
100
AcDbSymbolTableRecord
100
AcDbTextStyleTableRecord
  2
STANDARD
 70
     0
 40
0.0
 41
1.0
 50
0.0
 71
     0
 42
5.0
  3
MONOTXT
  4
BIGFONT
  0
ENDTAB
  0
TABLE
  2
VIEW
  5
14
100
AcDbSymbolTable
 70
     0
  0
ENDTAB
  0
TABLE
  2
UCS
  5
15
100
AcDbSymbolTable
 70
     0
  0
ENDTAB
  0
TABLE
  2
APPID
  5
18
100
AcDbSymbolTable
 70
     1
  0
APPID
  5
19
100
AcDbSymbolTableRecord
100
AcDbRegAppTableRecord
  2
ACAD
 70
     0
  0
ENDTAB
  0
TABLE
  2
DIMSTYLE
  5
1A
100
AcDbSymbolTable
 70
     2
  0
DIMSTYLE
105
83
102
{ACAD_XDICTIONARY
360
84
102
}
102
{ACAD_REACTORS
330
521
102
}
100
AcDbSymbolTableRecord
100
AcDbDimStyleTableRecord
  2
STANDARD
 70
     0
  3

  4

  5

  6
_OPEN30
  7
_OPEN30
 40
0.0
 41
2.0
 42
1.0
 43
8.0
 44
2.0
 45
0.0
 46
0.0
 47
0.0
 48
0.0
140
3.0
141
-1.0
142
0.0
143
25.4
144
1.0
145
0.0
146
1.0
147
1.0
 71
     0
 72
     0
 73
     0
 74
     0
 75
     0
 76
     0
 77
     1
 78
     8
170
     0
171
     2
172
     1
173
     1
174
     0
175
     0
176
     1
177
     1
178
     3
270
     2
271
     2
272
     2
273
     2
274
     2
340
10
275
     0
280
     0
281
     0
282
     0
283
     1
284
     8
285
     0
286
     0
287
     3
288
     0
  0
DIMSTYLE
105
21
100
AcDbSymbolTableRecord
100
AcDbDimStyleTableRecord
  2
参考寸法
 70
     0
  3

  4

  5

  6
_DOTSMALL
  7
_DOTSMALL
 40
1.0
 41
2.0
 42
1.0
 43
8.0
 44
2.0
 45
0.0
 46
0.0
 47
0.0
 48
0.0
140
2.0
141
-1.0
142
0.0
143
25.4
144
1.0
145
0.0
146
1.0
147
1.0
 71
     0
 72
     0
 73
     0
 74
     0
 75
     0
 76
     0
 77
     1
 78
     8
170
     0
171
     2
172
     1
173
     1
174
     0
175
     0
176
     2
177
     2
178
     2
270
     2
271
     3
272
     2
273
     2
274
     2
340
10
275
     0
280
     0
281
     0
282
     0
283
     1
284
     8
285
     0
286
     0
287
     3
288
     0
  0
ENDTAB
  0
TABLE
  2
BLOCK_RECORD
  5
1
100
AcDbSymbolTable
 70
     9
  0
BLOCK_RECORD
  5
2
102
{ACAD_XDICTIONARY
360
3
102
}
100
AcDbSymbolTableRecord
100
AcDbBlockTableRecord
  2
*MODEL_SPACE
  0
BLOCK_RECORD
  5
9
102
{ACAD_XDICTIONARY
360
A
102
}
100
AcDbSymbolTableRecord
100
AcDbBlockTableRecord
  2
*PAPER_SPACE
  0
BLOCK_RECORD
  5
22
100
AcDbSymbolTableRecord
100
AcDbBlockTableRecord
  2
_DOTSMALL
  0
BLOCK_RECORD
  5
86
100
AcDbSymbolTableRecord
100
AcDbBlockTableRecord
  2
_OPEN30
  0
BLOCK_RECORD
  5
2E4
100
AcDbSymbolTableRecord
100
AcDbBlockTableRecord
  2
*D2
  0
BLOCK_RECORD
  5
2F0
100
AcDbSymbolTableRecord
100
AcDbBlockTableRecord
  2
*D3
  0
BLOCK_RECORD
  5
315
100
AcDbSymbolTableRecord
100
AcDbBlockTableRecord
  2
*D4
  0
BLOCK_RECORD
  5
34E
100
AcDbSymbolTableRecord
100
AcDbBlockTableRecord
  2
*D5
  0
BLOCK_RECORD
  5
3CA
100
AcDbSymbolTableRecord
100
AcDbBlockTableRecord
  2
*D6
  0
BLOCK_RECORD
  5
3D5
100
AcDbSymbolTableRecord
100
AcDbBlockTableRecord
  2
*D7
  0
BLOCK_RECORD
  5
515
100
AcDbSymbolTableRecord
100
AcDbBlockTableRecord
  2
*D8
  0
ENDTAB
  0
ENDSEC
  0
SECTION
  2
BLOCKS
  0
BLOCK
  5
5
100
AcDbEntity
  8
0
100
AcDbBlockBegin
  2
*MODEL_SPACE
 70
     0
 10
0.0
 20
0.0
 30
0.0
  3
*MODEL_SPACE
  1

  0
ENDBLK
  5
8
100
AcDbEntity
  8
0
100
AcDbBlockEnd
  0
BLOCK
  5
C
100
AcDbEntity
 67
     1
  8
0
100
AcDbBlockBegin
  2
*PAPER_SPACE
 70
     0
 10
0.0
 20
0.0
 30
0.0
  3
*PAPER_SPACE
  1

  0
ENDBLK
  5
D
100
AcDbEntity
 67
     1
  8
0
100
AcDbBlockEnd
  0
BLOCK
  5
27
100
AcDbEntity
  8
0
100
AcDbBlockBegin
  2
_DOTSMALL
 70
     0
 10
0.0
 20
0.0
 30
0.0
  3
_DOTSMALL
  1

  0
POLYLINE
  5
23
100
AcDbEntity
  8
0
  6
BYBLOCK
 62
     0
100
AcDb2dPolyline
 66
     1
 10
0.0
 20
0.0
 30
0.0
 70
     1
 40
0.5
 41
0.5
  0
VERTEX
  5
24
100
AcDbEntity
  8
0
  6
BYBLOCK
 62
     0
100
AcDbVertex
100
AcDb2dVertex
 10
-0.0625
 20
0.0
 30
0.0
 42
1.0
  0
VERTEX
  5
25
100
AcDbEntity
  8
0
  6
BYBLOCK
 62
     0
100
AcDbVertex
100
AcDb2dVertex
 10
0.0625
 20
0.0
 30
0.0
 42
1.0
  0
SEQEND
  5
26
100
AcDbEntity
  8
0
  6
BYBLOCK
 62
     0
  0
ENDBLK
  5
28
100
AcDbEntity
  8
0
100
AcDbBlockEnd
  0
BLOCK
  5
8A
100
AcDbEntity
  8
0
100
AcDbBlockBegin
  2
_OPEN30
 70
     0
 10
0.0
 20
0.0
 30
0.0
  3
_OPEN30
  1

  0
LINE
  5
87
100
AcDbEntity
  8
0
  6
BYBLOCK
 62
     0
100
AcDbLine
 10
-1.0
 20
0.267949
 30
0.0
 11
0.0
 21
0.0
 31
0.0
  0
LINE
  5
88
100
AcDbEntity
  8
0
  6
BYBLOCK
 62
     0
100
AcDbLine
 10
0.0
 20
0.0
 30
0.0
 11
-1.0
 21
-0.267949
 31
0.0
  0
LINE
  5
89
100
AcDbEntity
  8
0
  6
BYBLOCK
 62
     0
100
AcDbLine
 10
0.0
 20
0.0
 30
0.0
 11
-1.0
 21
0.0
 31
0.0
  0
ENDBLK
  5
8B
100
AcDbEntity
  8
0
100
AcDbBlockEnd
  0
BLOCK
  5
412
100
AcDbEntity
  8
0
100
AcDbBlockBegin
  2
*D2
 70
     1
 10
0.0
 20
0.0
 30
0.0
  3
*D2
  1

  0
LINE
  5
413
100
AcDbEntity
  8
0
  6
BYBLOCK
 62
     1
100
AcDbLine
 10
183.517547
 20
718.044015
 30
0.0
 11
183.517547
 21
697.415286
 31
0.0
  0
LINE
  5
414
100
AcDbEntity
  8
0
  6
BYBLOCK
 62
     1
100
AcDbLine
 10
283.517547
 20
720.161405
 30
0.0
 11
283.517547
 21
697.415286
 31
0.0
  0
LINE
  5
415
100
AcDbEntity
  8
0
  6
BYBLOCK
 62
     1
100
AcDbLine
 10
185.517547
 20
699.415286
 30
0.0
 11
281.517547
 21
699.415286
 31
0.0
  0
INSERT
  5
416
100
AcDbEntity
  8
0
  6
BYBLOCK
 62
     1
100
AcDbBlockReference
  2
_OPEN30
 10
183.517547
 20
699.415286
 30
0.0
 41
2.0
 42
2.0
 43
2.0
 50
180.0
  0
INSERT
  5
417
100
AcDbEntity
  8
0
  6
BYBLOCK
 62
     1
100
AcDbBlockReference
  2
_OPEN30
 10
283.517547
 20
699.415286
 30
0.0
 41
2.0
 42
2.0
 43
2.0
  0
MTEXT
  5
418
100
AcDbEntity
  8
0
  6
BYBLOCK
 62
     3
100
AcDbMText
 10
233.517547
 20
701.915286
 30
0.0
 40
3.0
 41
0.0
 71
     5
 72
     1
  1
\A1;100
  0
POINT
  5
419
100
AcDbEntity
  8
DEFPOINTS
  6
BYBLOCK
 62
     0
100
AcDbPoint
 10
183.517547
 20
719.044015
 30
0.0
  0
POINT
  5
41A
100
AcDbEntity
  8
DEFPOINTS
  6
BYBLOCK
 62
     0
100
AcDbPoint
 10
283.517547
 20
721.161405
 30
0.0
  0
POINT
  5
41B
100
AcDbEntity
  8
DEFPOINTS
  6
BYBLOCK
 62
     0
100
AcDbPoint
 10
283.517547
 20
699.415286
 30
0.0
  0
ENDBLK
  5
41C
100
AcDbEntity
  8
0
100
AcDbBlockEnd
  0
BLOCK
  5
41D
100
AcDbEntity
  8
0
100
AcDbBlockBegin
  2
*D3
 70
     1
 10
0.0
 20
0.0
 30
0.0
  3
*D3
  1

  0
LINE
  5
41E
100
AcDbEntity
  8
0
  6
BYBLOCK
 62
     1
100
AcDbLine
 10
184.377105
 20
728.9076
 30
0.0
 11
185.33924
 21
739.904855
 31
0.0
  0
LINE
  5
41F
100
AcDbEntity
  8
0
  6
BYBLOCK
 62
     1
100
AcDbLine
 10
182.480679
 20
718.661405
 30
0.0
 11
162.156083
 21
718.661405
 31
0.0
  0
ARC
  5
420
100
AcDbEntity
  8
0
  6
BYBLOCK
 62
     1
100
AcDbCircle
 10
183.480679
 20
718.661405
 30
0.0
 40
19.324596
100
AcDbArc
 50
90.932479
 51
174.067521
  0
INSERT
  5
421
100
AcDbEntity
  8
0
  6
BYBLOCK
 62
     1
100
AcDbBlockReference
  2
_OPEN30
 10
185.164929
 20
737.912466
 30
0.0
 41
2.0
 42
2.0
 43
2.0
 50
357.96624
  0
INSERT
  5
422
100
AcDbEntity
  8
0
  6
BYBLOCK
 62
     1
100
AcDbBlockReference
  2
_OPEN30
 10
164.156083
 20
718.661405
 30
0.0
 41
2.0
 42
2.0
 43
2.0
 50
267.03376
  0
MTEXT
  5
423
100
AcDbEntity
  8
0
  6
BYBLOCK
 62
     3
100
AcDbMText
 10
168.736196
 20
734.752186
 30
0.0
 40
3.0
 41
0.0
 71
     5
 72
     1
  1
\A1;95°
 11
0.737277
 21
0.67559
 31
0.0
  0
POINT
  5
424
100
AcDbEntity
  8
DEFPOINTS
  6
BYBLOCK
 62
     0
100
AcDbPoint
 10
174.807816
 20
735.930496
 30
0.0
  0
POINT
  5
425
100
AcDbEntity
  8
DEFPOINTS
  6
BYBLOCK
 62
     0
100
AcDbPoint
 10
183.902781
 20
718.661405
 30
0.0
  0
POINT
  5
426
100
AcDbEntity
  8
DEFPOINTS
  6
BYBLOCK
 62
     0
100
AcDbPoint
 10
184.289949
 20
727.911405
 30
0.0
  0
POINT
  5
427
100
AcDbEntity
  8
DEFPOINTS
  6
BYBLOCK
 62
     0
100
AcDbPoint
 10
183.518702
 20
719.096008
 30
0.0
  0
POINT
  5
428
100
AcDbEntity
  8
DEFPOINTS
  6
BYBLOCK
 62
     0
100
AcDbPoint
 10
183.517547
 20
718.661405
 30
0.0
  0
ENDBLK
  5
429
100
AcDbEntity
  8
0
100
AcDbBlockEnd
  0
BLOCK
  5
43F
100
AcDbEntity
  8
0
100
AcDbBlockBegin
  2
*D4
 70
     1
 10
0.0
 20
0.0
 30
0.0
  3
*D4
  1

  0
LINE
  5
440
100
AcDbEntity
  8
0
  6
BYBLOCK
 62
     1
100
AcDbLine
 10
150.224106
 20
713.566144
 30
0.0
 11
147.262145
 21
700.736483
 31
0.0
  0
LINE
  5
441
100
AcDbEntity
  8
0
  6
BYBLOCK
 62
     1
100
AcDbLine
 10
151.631308
 20
713.405813
 30
0.0
 11
151.631308
 21
700.23868
 31
0.0
  0
ARC
  5
442
100
AcDbEntity
  8
0
  6
BYBLOCK
 62
     1
100
AcDbCircle
 10
151.631308
 20
719.661405
 30
0.0
 40
17.422725
100
AcDbArc
 50
243.816674
 51
257.0
  0
LINE
  5
443
100
AcDbEntity
  8
0
  6
BYBLOCK
 62
     1
100
AcDbLine
 10
143.943622
 20
704.026482
 30
0.0
 11
133.533935
 21
709.14492
 31
0.0
  0
ARC
  5
444
100
AcDbEntity
  8
0
  6
BYBLOCK
 62
     1
100
AcDbCircle
 10
151.631308
 20
719.661405
 30
0.0
 40
17.422725
100
AcDbArc
 50
243.838503
 51
250.419252
  0
ARC
  5
445
100
AcDbEntity
  8
0
  6
BYBLOCK
 62
     1
100
AcDbCircle
 10
151.631308
 20
719.661405
 30
0.0
 40
17.422725
100
AcDbArc
 50
276.580748
 51
283.161497
  0
ARC
  5
446
100
AcDbEntity
  8
0
  6
BYBLOCK
 62
     1
100
AcDbCircle
 10
151.631308
 20
719.661405
 30
0.0
 40
17.422725
100
AcDbArc
 50
257.0
 51
270.0
  0
INSERT
  5
447
100
AcDbEntity
  8
0
  6
BYBLOCK
 62
     1
100
AcDbBlockReference
  2
_OPEN30
 10
147.712048
 20
702.685224
 30
0.0
 41
2.0
 42
2.0
 43
2.0
 50
343.709626
  0
INSERT
  5
448
100
AcDbEntity
  8
0
  6
BYBLOCK
 62
     1
100
AcDbBlockReference
  2
_OPEN30
 10
151.631308
 20
702.23868
 30
0.0
 41
2.0
 42
2.0
 43
2.0
 50
183.290374
  0
MTEXT
  5
449
100
AcDbEntity
  8
0
  6
BYBLOCK
 62
     3
100
AcDbMText
 10
139.841891
 20
708.829168
 30
0.0
 40
3.0
 41
0.0
 71
     5
 72
     1
  1
\A1;13°
 11
0.897387
 21
-0.441245
 31
0.0
  0
POINT
  5
44A
100
AcDbEntity
  8
DEFPOINTS
  6
BYBLOCK
 62
     0
100
AcDbPoint
 10
150.314867
 20
702.288486
 30
0.0
  0
POINT
  5
44B
100
AcDbEntity
  8
DEFPOINTS
  6
BYBLOCK
 62
     0
100
AcDbPoint
 10
153.379384
 20
727.233154
 30
0.0
  0
POINT
  5
44C
100
AcDbEntity
  8
DEFPOINTS
  6
BYBLOCK
 62
     0
100
AcDbPoint
 10
151.631308
 20
727.432323
 30
0.0
  0
POINT
  5
44D
100
AcDbEntity
  8
DEFPOINTS
  6
BYBLOCK
 62
     0
100
AcDbPoint
 10
151.631308
 20
714.405813
 30
0.0
  0
POINT
  5
44E
100
AcDbEntity
  8
DEFPOINTS
  6
BYBLOCK
 62
     0
100
AcDbPoint
 10
150.449057
 20
714.540514
 30
0.0
  0
ENDBLK
  5
44F
100
AcDbEntity
  8
0
100
AcDbBlockEnd
  0
BLOCK
  5
474
100
AcDbEntity
  8
0
100
AcDbBlockBegin
  2
*D5
 70
     1
 10
0.0
 20
0.0
 30
0.0
  3
*D5
  1

  0
LINE
  5
475
100
AcDbEntity
  8
0
  6
BYBLOCK
 62
     1
100
AcDbLine
 10
182.517547
 20
724.161405
 30
0.0
 11
173.188813
 21
724.161405
 31
0.0
  0
LINE
  5
476
100
AcDbEntity
  8
0
  6
BYBLOCK
 62
     1
100
AcDbLine
 10
182.517547
 20
718.661405
 30
0.0
 11
173.188813
 21
718.661405
 31
0.0
  0
LINE
  5
477
100
AcDbEntity
  8
0
  6
BYBLOCK
 62
     1
100
AcDbLine
 10
175.188813
 20
726.161405
 30
0.0
 11
175.188813
 21
728.161405
 31
0.0
  0
LINE
  5
478
100
AcDbEntity
  8
0
  6
BYBLOCK
 62
     1
100
AcDbLine
 10
175.188813
 20
716.661405
 30
0.0
 11
175.188813
 21
704.661405
 31
0.0
  0
LINE
  5
479
100
AcDbEntity
  8
0
  6
BYBLOCK
 62
     1
100
AcDbLine
 10
175.188813
 20
724.161405
 30
0.0
 11
175.188813
 21
718.661405
 31
0.0
  0
INSERT
  5
47A
100
AcDbEntity
  8
0
  6
BYBLOCK
 62
     1
100
AcDbBlockReference
  2
_OPEN30
 10
175.188813
 20
724.161405
 30
0.0
 41
2.0
 42
2.0
 43
2.0
 50
270.0
  0
INSERT
  5
47B
100
AcDbEntity
  8
0
  6
BYBLOCK
 62
     1
100
AcDbBlockReference
  2
_OPEN30
 10
175.188813
 20
718.661405
 30
0.0
 41
2.0
 42
2.0
 43
2.0
 50
90.0
  0
MTEXT
  5
47C
100
AcDbEntity
  8
0
  6
BYBLOCK
 62
     3
100
AcDbMText
 10
172.688813
 20
709.661405
 30
0.0
 40
3.0
 41
0.0
 71
     5
 72
     1
  1
\A1;5.5
 11
0.0
 21
1.0
 31
0.0
  0
POINT
  5
47D
100
AcDbEntity
  8
DEFPOINTS
  6
BYBLOCK
 62
     0
100
AcDbPoint
 10
183.517547
 20
724.161405
 30
0.0
  0
POINT
  5
47E
100
AcDbEntity
  8
DEFPOINTS
  6
BYBLOCK
 62
     0
100
AcDbPoint
 10
183.517547
 20
718.661405
 30
0.0
  0
POINT
  5
47F
100
AcDbEntity
  8
DEFPOINTS
  6
BYBLOCK
 62
     0
100
AcDbPoint
 10
175.188813
 20
718.661405
 30
0.0
  0
ENDBLK
  5
480
100
AcDbEntity
  8
0
100
AcDbBlockEnd
  0
BLOCK
  5
4E6
100
AcDbEntity
  8
0
100
AcDbBlockBegin
  2
*D6
 70
     1
 10
0.0
 20
0.0
 30
0.0
  3
*D6
  1

  0
LINE
  5
4E7
100
AcDbEntity
  8
0
  6
BYBLOCK
 62
     1
100
AcDbLine
 10
250.21827
 20
719.149941
 30
0.0
 11
249.118511
 21
717.479453
 31
0.0
  0
LINE
  5
4E8
100
AcDbEntity
  8
0
  6
BYBLOCK
 62
     1
100
AcDbLine
 10
256.816824
 20
729.17287
 30
0.0
 11
261.765739
 21
736.690066
 31
0.0
  0
LINE
  5
4E9
100
AcDbEntity
  8
0
  6
BYBLOCK
 62
     1
100
AcDbLine
 10
251.318029
 20
720.820429
 30
0.0
 11
255.717065
 21
727.502382
 31
0.0
  0
INSERT
  5
4EA
100
AcDbEntity
  8
0
  6
BYBLOCK
 62
     1
100
AcDbBlockReference
  2
_OPEN30
 10
251.318029
 20
720.820429
 30
0.0
 41
2.0
 42
2.0
 43
2.0
 50
56.641256
  0
INSERT
  5
4EB
100
AcDbEntity
  8
0
  6
BYBLOCK
 62
     1
100
AcDbBlockReference
  2
_OPEN30
 10
255.717065
 20
727.502382
 30
0.0
 41
2.0
 42
2.0
 43
2.0
 50
236.641256
  0
MTEXT
  5
4EC
100
AcDbEntity
  8
0
  6
BYBLOCK
 62
     3
100
AcDbMText
 10
257.753051
 20
735.14141
 30
0.0
 40
3.0
 41
0.0
 71
     5
 72
     1
  1
\A1;\U+22058
 11
0.549879
 21
0.835244
 31
0.0
  0
POINT
  5
4ED
100
AcDbEntity
  8
DEFPOINTS
  6
BYBLOCK
 62
     0
100
AcDbPoint
 10
255.717065
 20
727.502382
 30
0.0
  0
POINT
  5
4EE
100
AcDbEntity
  8
DEFPOINTS
  6
BYBLOCK
 62
     0
100
AcDbPoint
 10
251.318029
 20
720.820429
 30
0.0
  0
ENDBLK
  5
4EF
100
AcDbEntity
  8
0
100
AcDbBlockEnd
  0
BLOCK
  5
4F0
100
AcDbEntity
  8
0
100
AcDbBlockBegin
  2
*D7
 70
     1
 10
0.0
 20
0.0
 30
0.0
  3
*D7
  1

  0
LINE
  5
4F1
100
AcDbEntity
  8
0
  6
BYBLOCK
 62
     1
100
AcDbLine
 10
250.017547
 20
721.224914
 30
0.0
 11
250.017547
 21
706.182949
 31
0.0
  0
LINE
  5
4F2
100
AcDbEntity
  8
0
  6
BYBLOCK
 62
     1
100
AcDbLine
 10
253.517547
 20
716.98658
 30
0.0
 11
253.517547
 21
706.182949
 31
0.0
  0
LINE
  5
4F3
100
AcDbEntity
  8
0
  6
BYBLOCK
 62
     1
100
AcDbLine
 10
248.017547
 20
708.182949
 30
0.0
 11
246.017547
 21
708.182949
 31
0.0
  0
LINE
  5
4F4
100
AcDbEntity
  8
0
  6
BYBLOCK
 62
     1
100
AcDbLine
 10
255.517547
 20
708.182949
 30
0.0
 11
267.517547
 21
708.182949
 31
0.0
  0
LINE
  5
4F5
100
AcDbEntity
  8
0
  6
BYBLOCK
 62
     1
100
AcDbLine
 10
250.017547
 20
708.182949
 30
0.0
 11
253.517547
 21
708.182949
 31
0.0
  0
INSERT
  5
4F6
100
AcDbEntity
  8
0
  6
BYBLOCK
 62
     1
100
AcDbBlockReference
  2
_OPEN30
 10
250.017547
 20
708.182949
 30
0.0
 41
2.0
 42
2.0
 43
2.0
  0
INSERT
  5
4F7
100
AcDbEntity
  8
0
  6
BYBLOCK
 62
     1
100
AcDbBlockReference
  2
_OPEN30
 10
253.517547
 20
708.182949
 30
0.0
 41
2.0
 42
2.0
 43
2.0
 50
180.0
  0
MTEXT
  5
4F8
100
AcDbEntity
  8
0
  6
BYBLOCK
 62
     3
100
AcDbMText
 10
262.517547
 20
710.682949
 30
0.0
 40
3.0
 41
0.0
 71
     5
 72
     1
  1
\A1;3.5
  0
POINT
  5
4F9
100
AcDbEntity
  8
DEFPOINTS
  6
BYBLOCK
 62
     0
100
AcDbPoint
 10
250.017547
 20
722.224914
 30
0.0
  0
POINT
  5
4FA
100
AcDbEntity
  8
DEFPOINTS
  6
BYBLOCK
 62
     0
100
AcDbPoint
 10
253.517547
 20
717.98658
 30
0.0
  0
POINT
  5
4FB
100
AcDbEntity
  8
DEFPOINTS
  6
BYBLOCK
 62
     0
100
AcDbPoint
 10
253.517547
 20
708.182949
 30
0.0
  0
ENDBLK
  5
4FC
100
AcDbEntity
  8
0
100
AcDbBlockEnd
  0
BLOCK
  5
516
100
AcDbEntity
  8
0
100
AcDbBlockBegin
  2
*D8
 70
     1
 10
0.0
 20
0.0
 30
0.0
  3
*D8
  1

  0
LINE
  5
517
100
AcDbEntity
  8
0
  6
BYBLOCK
 62
     1
100
AcDbLine
 10
183.517547
 20
717.661405
 30
0.0
 11
183.517547
 21
706.374555
 31
0.0
  0
LINE
  5
518
100
AcDbEntity
  8
0
  6
BYBLOCK
 62
     1
100
AcDbLine
 10
201.517547
 20
721.224914
 30
0.0
 11
201.517547
 21
706.374555
 31
0.0
  0
LINE
  5
519
100
AcDbEntity
  8
0
  6
BYBLOCK
 62
     1
100
AcDbLine
 10
185.517547
 20
708.374555
 30
0.0
 11
199.517547
 21
708.374555
 31
0.0
  0
INSERT
  5
51A
100
AcDbEntity
  8
0
  6
BYBLOCK
 62
     1
100
AcDbBlockReference
  2
_OPEN30
 10
183.517547
 20
708.374555
 30
0.0
 41
2.0
 42
2.0
 43
2.0
 50
180.0
  0
INSERT
  5
51B
100
AcDbEntity
  8
0
  6
BYBLOCK
 62
     1
100
AcDbBlockReference
  2
_OPEN30
 10
201.517547
 20
708.374555
 30
0.0
 41
2.0
 42
2.0
 43
2.0
  0
MTEXT
  5
51C
100
AcDbEntity
  8
0
  6
BYBLOCK
 62
     3
100
AcDbMText
 10
192.517547
 20
710.874555
 30
0.0
 40
3.0
 41
0.0
 71
     5
 72
     1
  1
\A1;18
  0
POINT
  5
51D
100
AcDbEntity
  8
DEFPOINTS
  6
BYBLOCK
 62
     0
100
AcDbPoint
 10
183.517547
 20
718.661405
 30
0.0
  0
POINT
  5
51E
100
AcDbEntity
  8
DEFPOINTS
  6
BYBLOCK
 62
     0
100
AcDbPoint
 10
201.517547
 20
722.224914
 30
0.0
  0
POINT
  5
51F
100
AcDbEntity
  8
DEFPOINTS
  6
BYBLOCK
 62
     0
100
AcDbPoint
 10
201.517547
 20
708.374555
 30
0.0
  0
ENDBLK
  5
520
100
AcDbEntity
  8
0
100
AcDbBlockEnd
  0
ENDSEC
  0
SECTION
  2
ENTITIES
  0
LINE
  5
220
100
AcDbEntity
  8
外形
  6
CONTINUOUS
100
AcDbLine
 10
195.767921
 20
677.494253
 30
0.0
 11
195.767921
 21
674.994253
 31
0.0
  0
LINE
  5
222
100
AcDbEntity
  8
外形
  6
HIDDEN
100
AcDbLine
 10
195.017547
 20
677.494253
 30
0.0
 11
195.017547
 21
674.994253
 31
0.0
  0
LINE
  5
223
100
AcDbEntity
  8
外形
  6
CONTINUOUS
100
AcDbLine
 10
198.517547
 20
680.244253
 30
0.0
 11
198.517547
 21
672.244253
 31
0.0
  0
LINE
  5
224
100
AcDbEntity
  8
外形
  6
CONTINUOUS
100
AcDbLine
 10
193.738578
 20
676.974522
 30
0.0
 11
193.738578
 21
672.494253
 31
0.0
  0
LINE
  5
225
100
AcDbEntity
  8
外形
  6
CONTINUOUS
100
AcDbLine
 10
189.853569
 20
676.244253
 30
0.0
 11
189.56352
 21
673.881993
 31
0.0
  0
LINE
  5
226
100
AcDbEntity
  8
外形
  6
CONTINUOUS
100
AcDbLine
 10
193.738578
 20
677.070557
 30
0.0
 11
193.738578
 21
672.494253
 31
0.0
  0
LINE
  5
227
100
AcDbEntity
  8
外形
  6
CONTINUOUS
100
AcDbLine
 10
196.517547
 20
679.281273
 30
0.0
 11
196.517547
 21
672.494253
 31
0.0
  0
LINE
  5
228
100
AcDbEntity
  8
外形
  6
CONTINUOUS
100
AcDbLine
 10
196.767547
 20
679.517497
 30
0.0
 11
196.767547
 21
672.244253
 31
0.0
  0
LINE
  5
229
100
AcDbEntity
  8
外形
  6
CONTINUOUS
100
AcDbLine
 10
191.313707
 20
676.244253
 30
0.0
 11
191.313707
 21
671.094253
 31
0.0
  0
LINE
  5
22A
100
AcDbEntity
  8
外形
  6
CONTINUOUS
100
AcDbLine
 10
183.517547
 20
676.244253
 30
0.0
 11
184.226025
 21
670.474161
 31
0.0
  0
LINE
  5
22B
100
AcDbEntity
  8
外形
  6
CONTINUOUS
100
AcDbLine
 10
282.517547
 20
672.244253
 30
0.0
 11
282.517547
 21
680.244253
 31
0.0
  0
LINE
  5
22C
100
AcDbEntity
  8
外形
  6
CONTINUOUS
100
AcDbLine
 10
283.517547
 20
679.244253
 30
0.0
 11
283.517547
 21
673.244253
 31
0.0
  0
LINE
  5
22D
100
AcDbEntity
  8
外形
  6
CONTINUOUS
100
AcDbLine
 10
282.517547
 20
672.244253
 30
0.0
 11
196.767547
 21
672.244253
 31
0.0
  0
LINE
  5
22E
100
AcDbEntity
  8
外形
  6
CONTINUOUS
100
AcDbLine
 10
214.65951
 20
672.244253
 30
0.0
 11
200.202191
 21
672.244253
 31
0.0
  0
LINE
  5
22F
100
AcDbEntity
  8
外形
  6
HIDDEN
100
AcDbLine
 10
195.017547
 20
674.994253
 30
0.0
 11
283.517547
 21
674.994253
 31
0.0
  0
TEXT
  5
230
100
AcDbEntity
  8
外形
  6
CONTINUOUS
 62
     2
100
AcDbText
 10
197.390836
 20
647.374393
 30
0.0
 40
6.0
  1
E08H-SCLCR06
100
AcDbText
  0
ARC
  5
231
100
AcDbEntity
  8
外形
  6
CONTINUOUS
100
AcDbCircle
 10
192.452793
 20
688.00477
 30
0.0
 40
16.948838
100
AcDbArc
 50
239.564882
 51
266.146399
  0
LINE
  5
232
100
AcDbEntity
  8
外形
  6
CONTINUOUS
100
AcDbLine
 10
191.313707
 20
671.094253
 30
0.0
 11
184.226025
 21
670.474161
 31
0.0
  0
LINE
  5
233
100
AcDbEntity
  8
外形
  6
CONTINUOUS
100
AcDbLine
 10
183.809774
 20
673.864253
 30
0.0
 11
189.561342
 21
673.864253
 31
0.0
  0
LINE
  5
234
100
AcDbEntity
  8
外形
  6
HIDDEN
100
AcDbLine
 10
195.767921
 20
674.994253
 30
0.0
 11
198.517921
 21
672.244253
 31
0.0
  0
LINE
  5
235
100
AcDbEntity
  8
外形
  6
CONTINUOUS
100
AcDbLine
 10
191.313707
 20
671.094253
 30
0.0
 11
193.738578
 21
672.494253
 31
0.0
  0
LINE
  5
236
100
AcDbEntity
  8
外形
  6
CONTINUOUS
100
AcDbLine
 10
193.738578
 20
672.494253
 30
0.0
 11
196.517547
 21
672.494253
 31
0.0
  0
LINE
  5
237
100
AcDbEntity
  8
外形
  6
CONTINUOUS
100
AcDbLine
 10
196.517547
 20
672.494253
 30
0.0
 11
196.767547
 21
672.244253
 31
0.0
  0
LINE
  5
238
100
AcDbEntity
  8
外形
  6
CONTINUOUS
100
AcDbLine
 10
282.517547
 20
672.244253
 30
0.0
 11
283.517547
 21
673.244253
 31
0.0
  0
LINE
  5
239
100
AcDbEntity
  8
外形
  6
HIDDEN
100
AcDbLine
 10
248.017547
 20
722.911405
 30
0.0
 11
195.017547
 21
722.911405
 31
0.0
  0
LINE
  5
23A
100
AcDbEntity
  8
外形
  6
HIDDEN
100
AcDbLine
 10
248.017547
 20
725.411405
 30
0.0
 11
195.017547
 21
725.411405
 31
0.0
  0
LINE
  5
23C
100
AcDbEntity
  8
外形
  6
HIDDEN
100
AcDbLine
 10
195.017547
 20
677.494253
 30
0.0
 11
283.517547
 21
677.494253
 31
0.0
  0
LINE
  5
23D
100
AcDbEntity
  8
外形
  6
CONTINUOUS
100
AcDbLine
 10
248.017547
 20
720.161405
 30
0.0
 11
196.767547
 21
720.161405
 31
0.0
  0
LINE
  5
23E
100
AcDbEntity
  8
外形
  6
CONTINUOUS
100
AcDbLine
 10
248.017547
 20
722.224914
 30
0.0
 11
201.517547
 21
722.224914
 31
0.0
  0
LINE
  5
23F
100
AcDbEntity
  8
外形
  6
CONTINUOUS
100
AcDbLine
 10
248.017547
 20
726.097897
 30
0.0
 11
201.517547
 21
726.097897
 31
0.0
  0
LINE
  5
240
100
AcDbEntity
  8
外形
  6
CONTINUOUS
100
AcDbLine
 10
248.017547
 20
728.161405
 30
0.0
 11
196.767547
 21
728.161405
 31
0.0
  0
LINE
  5
241
100
AcDbEntity
  8
外形
  6
CENTER
 62
     1
100
AcDbLine
 10
181.213945
 20
676.244253
 30
0.0
 11
287.758932
 21
676.244253
 31
0.0
  0
LINE
  5
242
100
AcDbEntity
  8
外形
  6
CONTINUOUS
100
AcDbLine
 10
201.517547
 20
679.744253
 30
0.0
 11
273.517547
 21
679.744253
 31
0.0
  0
DIMENSION
  5
243
100
AcDbEntity
  8
寸法
  6
CONTINUOUS
100
AcDbDimension
  2
*D2
 10
283.517547
 20
699.415286
 30
0.0
 11
233.517547
 21
701.915286
 31
0.0
 70
    32
  3
STANDARD
100
AcDbAlignedDimension
 13
183.517547
 23
719.044015
 33
0.0
 14
283.517547
 24
721.161405
 34
0.0
100
AcDbRotatedDimension
1001
ACAD
1000
DSTYLE
1002
{
1070
    40
1040
1.0
1002
}
  0
LINE
  5
244
100
AcDbEntity
  8
外形
  6
CENTER
 62
     1
100
AcDbLine
 10
287.758932
 20
724.161405
 30
0.0
 11
183.517547
 21
724.161405
 31
0.0
  0
DIMENSION
  5
245
100
AcDbEntity
  8
寸法
  6
CONTINUOUS
 62
     1
100
AcDbDimension
  2
*D3
 10
183.517547
 20
718.661405
 30
0.0
 11
168.736196
 21
734.752186
 31
0.0
 70
    34
  3
STANDARD
100
AcDb2LineAngularDimension
 13
184.289949
 23
727.911405
 33
0.0
 14
183.518702
 24
719.096008
 34
0.0
 15
183.902781
 25
718.661405
 35
0.0
 16
174.807816
 26
735.930496
 36
0.0
1001
ACAD
1000
DSTYLE
1002
{
1070
   284
1070
    13
1070
   146
1040
0.5
1070
   272
1070
     3
1070
    40
1040
1.0
1070
   287
1070
     0
1002
}
  0
LINE
  5
246
100
AcDbEntity
  8
外形
  6
CONTINUOUS
100
AcDbLine
 10
155.131308
 20
724.330447
 30
0.0
 11
150.73199
 21
725.34611
 31
0.0
  0
LINE
  5
247
100
AcDbEntity
  8
外形
  6
CONTINUOUS
100
AcDbLine
 10
153.285254
 20
725.825432
 30
0.0
 11
151.631308
 21
718.661405
 31
0.0
  0
LINE
  5
248
100
AcDbEntity
  8
外形
  6
CONTINUOUS
100
AcDbLine
 10
150.73199
 20
725.34611
 30
0.0
 11
149.378044
 21
719.481526
 31
0.0
  0
LINE
  5
249
100
AcDbEntity
  8
外形
  6
CONTINUOUS
100
AcDbLine
 10
155.131308
 20
725.699619
 30
0.0
 11
155.131308
 21
722.224914
 31
0.0
  0
CIRCLE
  5
24A
100
AcDbEntity
  8
外形
  6
CENTER
 62
     1
100
AcDbCircle
 10
151.631308
 20
723.661405
 30
0.0
 40
5.0
  0
ARC
  5
24B
100
AcDbEntity
  8
外形
  6
CONTINUOUS
100
AcDbCircle
 10
151.711308
 20
723.411405
 30
0.0
 40
4.5
100
AcDbArc
 50
90.0
 51
239.01532
  0
LINE
  5
24C
100
AcDbEntity
  8
外形
  6
CENTER
 62
     1
100
AcDbLine
 10
151.711308
 20
730.655874
 30
0.0
 11
151.711308
 21
714.405813
 31
0.0
  0
LINE
  5
24D
100
AcDbEntity
  8
外形
  6
CENTER
 62
     1
100
AcDbLine
 10
151.631308
 20
730.655874
 30
0.0
 11
151.631308
 21
714.405813
 31
0.0
  0
DIMENSION
  5
250
100
AcDbEntity
  8
寸法
  6
CONTINUOUS
100
AcDbDimension
  2
*D4
 10
150.449057
 20
714.540514
 30
0.0
 11
139.841891
 21
708.829168
 31
0.0
 70
    34
  3
STANDARD
100
AcDb2LineAngularDimension
 13
151.631308
 23
727.432323
 33
0.0
 14
151.631308
 24
714.405813
 34
0.0
 15
153.379384
 25
727.233154
 35
0.0
 16
150.314867
 26
702.288486
 36
0.0
1001
ACAD
1000
DSTYLE
1002
{
1070
    40
1040
1.0
1002
}
  0
LINE
  5
252
100
AcDbEntity
  8
外形
  6
HIDDEN
100
AcDbLine
 10
195.017547
 20
724.750759
 30
0.0
 11
191.34685
 21
722.960441
 31
0.0
  0
LINE
  5
253
100
AcDbEntity
  8
外形
  6
CONTINUOUS
100
AcDbLine
 10
195.767547
 20
725.411405
 30
0.0
 11
195.767547
 21
722.911405
 31
0.0
  0
LINE
  5
254
100
AcDbEntity
  8
外形
  6
HIDDEN
100
AcDbLine
 10
195.017547
 20
725.411405
 30
0.0
 11
195.017547
 21
722.911405
 31
0.0
  0
LINE
  5
255
100
AcDbEntity
  8
外形
  6
CONTINUOUS
100
AcDbLine
 10
201.517547
 20
726.097897
 30
0.0
 11
201.517547
 21
722.224914
 31
0.0
  0
LINE
  5
256
100
AcDbEntity
  8
外形
  6
CONTINUOUS
100
AcDbLine
 10
198.517547
 20
728.161405
 30
0.0
 11
198.517547
 21
720.161405
 31
0.0
  0
SPLINE
  5
257
100
AcDbEntity
  8
外形
  6
CONTINUOUS
100
AcDbSpline
210
0.0
220
0.0
230
1.0
 70
     8
 71
     3
 72
    10
 73
     6
 74
     0
 42
0.0000001
 43
0.0000001
 40
0.2252892812779717
 40
0.2252892812779717
 40
0.2252892812779717
 40
0.2252892812779717
 40
9.635686510679173
 40
13.66681538482827
 40
16.71711922570651
 40
16.71711922570651
 40
16.71711922570651
 40
16.71711922570651
 10
184.2139461608881
 20
727.0426844104806
 30
0.0
 10
187.1393759570617
 20
727.1335811210361
 30
0.0
 10
191.3347947498158
 20
727.2057423214366
 30
0.0
 10
197.7433028552314
 20
722.9713825046149
 30
0.0
 10
195.5362672881166
 20
721.448093267609
 30
0.0
 10
193.7385778454706
 20
720.7067304590091
 30
0.0
  0
LINE
  5
259
100
AcDbEntity
  8
外形
  6
CONTINUOUS
100
AcDbLine
 10
196.517547
 20
727.911405
 30
0.0
 11
196.517547
 21
720.411405
 31
0.0
  0
LINE
  5
25A
100
AcDbEntity
  8
外形
  6
CONTINUOUS
100
AcDbLine
 10
196.767547
 20
728.161405
 30
0.0
 11
196.767547
 21
720.161405
 31
0.0
  0
LINE
  5
25C
100
AcDbEntity
  8
外形
  6
CENTER
 62
     1
100
AcDbLine
 10
186.948578
 20
718.176795
 30
0.0
 11
186.948578
 21
726.340753
 31
0.0
  0
ARC
  5
25D
100
AcDbEntity
  8
外形
  6
CONTINUOUS
100
AcDbCircle
 10
189.691482
 20
724.866201
 30
0.0
 40
1.25
100
AcDbArc
 50
315.0
 51
135.0
  0
DIMENSION
  5
25E
100
AcDbEntity
  8
寸法
  6
CONTINUOUS
100
AcDbDimension
  2
*D5
 10
175.188813
 20
718.661405
 30
0.0
 11
172.688813
 21
709.661405
 31
0.0
 70
    32
  3
STANDARD
100
AcDbAlignedDimension
 13
183.517547
 23
724.161405
 33
0.0
 14
183.517547
 24
718.661405
 34
0.0
 50
90.0
100
AcDbRotatedDimension
1001
ACAD
1000
DSTYLE
1002
{
1070
   284
1070
    13
1070
   146
1040
0.5
1070
   272
1070
     3
1070
    40
1040
1.0
1070
   287
1070
     0
1002
}
  0
LINE
  5
25F
100
AcDbEntity
  8
外形
  6
CONTINUOUS
100
AcDbLine
 10
190.378454
 20
725.17844
 30
0.0
 11
189.853569
 21
719.178985
 31
0.0
  0
LINE
  5
260
100
AcDbEntity
  8
外形
  6
CONTINUOUS
100
AcDbLine
 10
184.289949
 20
727.911405
 30
0.0
 11
183.518702
 21
719.096008
 31
0.0
  0
ARC
  5
264
100
AcDbEntity
  8
外形
  6
CONTINUOUS
100
AcDbCircle
 10
151.631308
 20
724.161405
 30
0.0
 40
4.0
100
AcDbArc
 50
275.017514
 51
331.044976
  0
LINE
  5
265
100
AcDbEntity
  8
外形
  6
CENTER
 62
     1
100
AcDbLine
 10
156.726404
 20
723.411405
 30
0.0
 11
146.687878
 21
723.411405
 31
0.0
  0
LINE
  5
266
100
AcDbEntity
  8
外形
  6
CENTER
 62
     1
100
AcDbLine
 10
156.781308
 20
724.161405
 30
0.0
 11
146.481308
 21
724.161405
 31
0.0
  0
LINE
  5
267
100
AcDbEntity
  8
外形
  6
CONTINUOUS
100
AcDbLine
 10
151.631308
 20
718.661405
 30
0.0
 11
149.378044
 21
719.481526
 31
0.0
  0
SPLINE
  5
26A
100
AcDbEntity
  8
外形
  6
CONTINUOUS
100
AcDbSpline
210
0.0
220
0.0
230
-1.0
 70
     8
 71
     3
 72
    10
 73
     6
 74
     4
 42
0.0000001
 43
0.0000001
 44
0.0000000001
 40
0.0
 40
0.0
 40
0.0
 40
0.0
 40
5.039786751347365
 40
10.52733561462428
 40
14.30082601926091
 40
14.30082601926091
 40
14.30082601926091
 40
14.30082601926091
 10
183.7523471730127
 20
676.7442780152078
 30
0.0
 10
185.3953936741418
 20
677.1042835962951
 30
0.0
 10
188.8274638789369
 20
677.856279615617
 30
0.0
 10
193.1150880537688
 20
680.2547359927447
 30
0.0
 10
196.2430371489523
 20
680.2472877144865
 30
0.0
 10
197.5175470128465
 20
680.2442528492058
 30
0.0
 11
183.7523471730127
 21
676.7442780152078
 31
0.0
 11
188.6182770810604
 21
678.0565952897352
 31
0.0
 11
193.7523471730127
 21
679.9942528492057
 31
0.0
 11
197.5175470128465
 21
680.2442528492058
 31
0.0
  0
LINE
  5
26B
100
AcDbEntity
  8
外形
  6
CONTINUOUS
100
AcDbLine
 10
183.517547
 20
676.244253
 30
0.0
 11
189.853569
 21
676.244253
 31
0.0
  0
LINE
  5
26C
100
AcDbEntity
  8
外形
  6
CONTINUOUS
100
AcDbLine
 10
183.752347
 20
676.744278
 30
0.0
 11
183.752347
 21
676.244253
 31
0.0
  0
LINE
  5
26D
100
AcDbEntity
  8
外形
  6
CONTINUOUS
100
AcDbLine
 10
201.517547
 20
680.244253
 30
0.0
 11
197.517547
 21
680.244253
 31
0.0
  0
ELLIPSE
  5
26E
100
AcDbEntity
  8
外形
  6
CONTINUOUS
100
AcDbEllipse
 10
191.74957
 20
677.464253
 30
0.0
 11
-1.123492557873958
 21
-0.5479639334863468
 31
0.0
210
0.0
220
0.0
230
1.0
 40
0.64
 41
0.0
 42
6.283185307179586
  0
LINE
  5
26F
100
AcDbEntity
  8
外形
  6
HIDDEN
100
AcDbLine
 10
195.767921
 20
677.494253
 30
0.0
 11
198.517921
 21
680.244253
 31
0.0
  0
LINE
  5
270
100
AcDbEntity
  8
外形
  6
CONTINUOUS
100
AcDbLine
 10
191.313707
 20
676.244253
 30
0.0
 11
189.853569
 21
676.244253
 31
0.0
  0
SPLINE
  5
271
100
AcDbEntity
  8
外形
  6
CONTINUOUS
100
AcDbSpline
210
0.0
220
0.0
230
1.0
 70
     8
 71
     3
 72
     9
 73
     5
 74
     3
 42
0.0000001
 43
0.0000001
 44
0.0000000001
 40
0.0
 40
0.0
 40
0.0
 40
0.0
 40
5.10610888682587
 40
7.45976347622965
 40
7.45976347622965
 40
7.45976347622965
 40
7.45976347622965
 10
197.5175470128465
 20
680.2442528492058
 30
0.0
 10
196.2733219828663
 20
679.0287988188703
 30
0.0
 10
194.4555729609439
 20
677.2530827533696
 30
0.0
 10
192.0672533242099
 20
676.4862110658011
 30
0.0
 10
191.3137067148738
 20
676.244252849206
 30
0.0
 11
197.5175470128465
 21
680.2442528492058
 31
0.0
 11
193.5175470128467
 21
677.070556587097
 31
0.0
 11
191.3137067148738
 21
676.244252849206
 31
0.0
  0
LINE
  5
272
100
AcDbEntity
  8
外形
  6
CONTINUOUS
100
AcDbLine
 10
201.517547
 20
680.244253
 30
0.0
 11
201.517547
 21
679.744253
 31
0.0
  0
LINE
  5
276
100
AcDbEntity
  8
外形
  6
CENTER
 62
     1
100
AcDbLine
 10
182.522821
 20
722.137224
 30
0.0
 11
191.018574
 21
722.137224
 31
0.0
  0
LINE
  5
277
100
AcDbEntity
  8
外形
  6
CONTINUOUS
100
AcDbLine
 10
191.313707
 20
719.30673
 30
0.0
 11
183.952042
 21
718.662668
 31
0.0
  0
LINE
  5
278
100
AcDbEntity
  8
外形
  6
CONTINUOUS
100
AcDbLine
 10
187.627083
 20
722.376321
 30
0.0
 11
188.036518
 21
722.137224
 31
0.0
  0
LINE
  5
279
100
AcDbEntity
  8
外形
  6
CONTINUOUS
100
AcDbLine
 10
188.036518
 20
722.137224
 30
0.0
 11
187.627083
 21
721.898128
 31
0.0
  0
LINE
  5
27A
100
AcDbEntity
  8
外形
  6
CONTINUOUS
100
AcDbLine
 10
187.080767
 20
722.844375
 30
0.0
 11
187.492548
 21
723.079408
 31
0.0
  0
LINE
  5
27B
100
AcDbEntity
  8
外形
  6
CONTINUOUS
100
AcDbLine
 10
187.492548
 20
723.079408
 30
0.0
 11
187.494894
 21
722.605279
 31
0.0
  0
LINE
  5
27C
100
AcDbEntity
  8
外形
  6
CONTINUOUS
100
AcDbLine
 10
186.402262
 20
722.605279
 30
0.0
 11
186.404608
 21
723.079408
 31
0.0
  0
LINE
  5
27D
100
AcDbEntity
  8
外形
  6
CONTINUOUS
100
AcDbLine
 10
186.404608
 20
723.079408
 30
0.0
 11
186.816389
 21
722.844375
 31
0.0
  0
LINE
  5
27E
100
AcDbEntity
  8
外形
  6
CONTINUOUS
100
AcDbLine
 10
186.270073
 20
721.898128
 30
0.0
 11
185.860637
 21
722.137224
 31
0.0
  0
LINE
  5
27F
100
AcDbEntity
  8
外形
  6
CONTINUOUS
100
AcDbLine
 10
185.860637
 20
722.137224
 30
0.0
 11
186.270073
 21
722.376321
 31
0.0
  0
LINE
  5
280
100
AcDbEntity
  8
外形
  6
CONTINUOUS
100
AcDbLine
 10
186.816389
 20
721.430074
 30
0.0
 11
186.404608
 21
721.19504
 31
0.0
  0
LINE
  5
281
100
AcDbEntity
  8
外形
  6
CONTINUOUS
100
AcDbLine
 10
186.404608
 20
721.19504
 30
0.0
 11
186.402262
 21
721.66917
 31
0.0
  0
LINE
  5
282
100
AcDbEntity
  8
外形
  6
CONTINUOUS
100
AcDbLine
 10
187.494894
 20
721.66917
 30
0.0
 11
187.492548
 21
721.19504
 31
0.0
  0
LINE
  5
283
100
AcDbEntity
  8
外形
  6
CONTINUOUS
100
AcDbLine
 10
187.492548
 20
721.19504
 30
0.0
 11
187.080767
 21
721.430074
 31
0.0
  0
ARC
  5
284
100
AcDbEntity
  8
外形
  6
CONTINUOUS
100
AcDbCircle
 10
187.761557
 20
722.606598
 30
0.0
 40
0.266666
100
AcDbArc
 50
180.283476
 51
239.716524
  0
ARC
  5
285
100
AcDbEntity
  8
外形
  6
CONTINUOUS
100
AcDbCircle
 10
187.761557
 20
721.667851
 30
0.0
 40
0.266666
100
AcDbArc
 50
120.283476
 51
179.716524
  0
ARC
  5
286
100
AcDbEntity
  8
外形
  6
CONTINUOUS
100
AcDbCircle
 10
186.948578
 20
721.198477
 30
0.0
 40
0.266666
100
AcDbArc
 50
60.283476
 51
119.716524
  0
ARC
  5
287
100
AcDbEntity
  8
外形
  6
CONTINUOUS
100
AcDbCircle
 10
186.135599
 20
721.667851
 30
0.0
 40
0.266666
100
AcDbArc
 50
0.283476
 51
59.716524
  0
ARC
  5
288
100
AcDbEntity
  8
外形
  6
CONTINUOUS
100
AcDbCircle
 10
186.135599
 20
722.606598
 30
0.0
 40
0.266666
100
AcDbArc
 50
300.283476
 51
359.716524
  0
ARC
  5
289
100
AcDbEntity
  8
外形
  6
CONTINUOUS
100
AcDbCircle
 10
186.948578
 20
723.075971
 30
0.0
 40
0.266666
100
AcDbArc
 50
240.283476
 51
299.716524
  0
CIRCLE
  5
28A
100
AcDbEntity
  8
外形
  6
CONTINUOUS
100
AcDbCircle
 10
186.948578
 20
722.137224
 30
0.0
 40
1.725
  0
LINE
  5
28B
100
AcDbEntity
  8
外形
  6
CONTINUOUS
 62
     1
100
AcDbLine
 10
183.902781
 20
718.661405
 30
0.0
 11
183.517547
 21
718.661405
 31
0.0
  0
LINE
  5
28C
100
AcDbEntity
  8
外形
  6
CONTINUOUS
 62
     1
100
AcDbLine
 10
183.517547
 20
719.082806
 30
0.0
 11
183.517547
 21
718.661405
 31
0.0
  0
ARC
  5
28D
100
AcDbEntity
  8
外形
  6
CONTINUOUS
100
AcDbCircle
 10
183.91718
 20
719.061146
 30
0.0
 40
0.4
100
AcDbArc
 50
175.0
 51
275.0
  0
LINE
  5
28E
100
AcDbEntity
  8
外形
  6
CONTINUOUS
100
AcDbLine
 10
191.313707
 20
719.30673
 30
0.0
 11
193.738578
 21
720.70673
 31
0.0
  0
ELLIPSE
  5
28F
100
AcDbEntity
  8
外形
  6
CONTINUOUS
100
AcDbEllipse
 10
191.697547
 20
722.241405
 30
0.0
 11
-1.123492557873958
 21
-0.5479639334863468
 31
0.0
210
0.0
220
0.0
230
1.0
 40
0.64
 41
0.0
 42
6.283185307179586
  0
LINE
  5
290
100
AcDbEntity
  8
外形
  6
HIDDEN
100
AcDbLine
 10
195.017547
 20
722.970596
 30
0.0
 11
192.048244
 21
721.52237
 31
0.0
  0
LINE
  5
291
100
AcDbEntity
  8
外形
  6
HIDDEN
100
AcDbLine
 10
195.767547
 20
722.911405
 30
0.0
 11
198.517547
 21
720.161405
 31
0.0
  0
LINE
  5
292
100
AcDbEntity
  8
外形
  6
CONTINUOUS
100
AcDbLine
 10
196.517547
 20
722.815114
 30
0.0
 11
196.517547
 21
722.815114
 31
0.0
  0
LINE
  5
293
100
AcDbEntity
  8
外形
  6
CONTINUOUS
100
AcDbLine
 10
196.517547
 20
720.411405
 30
0.0
 11
193.22706
 21
720.411405
 31
0.0
  0
LINE
  5
294
100
AcDbEntity
  8
外形
  6
CONTINUOUS
100
AcDbLine
 10
196.517547
 20
720.411405
 30
0.0
 11
194.017547
 21
720.411405
 31
0.0
  0
LINE
  5
295
100
AcDbEntity
  8
外形
  6
CONTINUOUS
100
AcDbLine
 10
196.517547
 20
720.411405
 30
0.0
 11
196.767547
 21
720.161405
 31
0.0
  0
LINE
  5
296
100
AcDbEntity
  8
外形
  6
CONTINUOUS
100
AcDbLine
 10
190.244894
 20
723.651845
 30
0.0
 11
190.575366
 21
723.982318
 31
0.0
  0
ARC
  5
297
100
AcDbEntity
  8
外形
  6
CONTINUOUS
100
AcDbCircle
 10
189.484344
 20
719.54821
 30
0.0
 40
0.4
100
AcDbArc
 50
275.0
 51
355.0
  0
LEADER
  5
298
100
AcDbEntity
  8
寸法
  6
CONTINUOUS
 62
     1
100
AcDbLeader
  3
STANDARD
 73
     0
 74
     0
 75
     1
 40
3.0
 41
26.0
 76
     3
 10
154.265221
 20
727.911405
 30
0.0
 10
156.760843
 20
749.944339
 30
0.0
 10
158.760843
 20
749.944339
 30
0.0
 77
   256
340
299
213
-0.1129475379637483
223
0.5510341987360619
233
0.0
1001
ACAD
1000
DSTYLE
1002
{
1070
   284
1070
    13
1070
   146
1040
0.5
1070
   272
1070
     3
1070
    40
1040
1.0
1070
   287
1070
     0
1002
}
  0
MTEXT
  5
299
102
{ACAD_REACTORS
330
298
102
}
100
AcDbEntity
  8
寸法
  6
CONTINUOUS
 62
     3
100
AcDbMText
 10
159.873791
 20
751.893305
 30
0.0
 40
3.0
 41
0.0
 71
     4
 72
     1
  1
%%c10最小加工径
  0
ARC
  5
29A
100
AcDbEntity
  8
外形
  6
CONTINUOUS
100
AcDbCircle
 10
151.711308
 20
724.161405
 30
0.0
 40
3.75
100
AcDbArc
 50
24.216783
 51
90.0
  0
ARC
  5
29B
100
AcDbEntity
  8
外形
  6
CONTINUOUS
100
AcDbCircle
 10
155.233994
 20
725.37553
 30
0.0
 40
2.0
100
AcDbArc
 50
123.871451
 51
167.0
  0
LINE
  5
29C
100
AcDbEntity
  8
外形
  6
CONTINUOUS
100
AcDbLine
 10
196.517547
 20
727.911405
 30
0.0
 11
184.289949
 21
727.911405
 31
0.0
  0
LINE
  5
29D
100
AcDbEntity
  8
外形
  6
CONTINUOUS
100
AcDbLine
 10
189.945113
 20
725.61178
 30
0.0
 11
184.043586
 21
725.095464
 31
0.0
  0
LINE
  5
29F
100
AcDbEntity
  8
外形
  6
CONTINUOUS
100
AcDbLine
 10
188.546974
 20
725.489459
 30
0.0
 11
188.807599
 21
725.750084
 31
0.0
  0
ARC
  5
2A0
100
AcDbEntity
  8
外形
  6
CONTINUOUS
100
AcDbCircle
 10
184.412811
 20
724.726239
 30
0.0
 40
0.4
100
AcDbArc
 50
95.0
 51
175.0
  0
LINE
  5
2A2
100
AcDbEntity
  8
外形
  6
HIDDEN
100
AcDbLine
 10
195.767547
 20
725.411405
 30
0.0
 11
198.517547
 21
728.161405
 31
0.0
  0
LINE
  5
2A3
100
AcDbEntity
  8
外形
  6
CONTINUOUS
100
AcDbLine
 10
196.517547
 20
725.507697
 30
0.0
 11
193.517547
 21
725.507697
 31
0.0
  0
LINE
  5
2A4
100
AcDbEntity
  8
外形
  6
CONTINUOUS
100
AcDbLine
 10
193.738578
 20
727.911405
 30
0.0
 11
193.738578
 21
725.507697
 31
0.0
  0
LINE
  5
2A5
100
AcDbEntity
  8
外形
  6
CONTINUOUS
100
AcDbLine
 10
196.517547
 20
727.911405
 30
0.0
 11
196.767547
 21
728.161405
 31
0.0
  0
ARC
  5
2A6
100
AcDbEntity
  8
外形
  6
CONTINUOUS
100
AcDbCircle
 10
189.979976
 20
725.213303
 30
0.0
 40
0.4
100
AcDbArc
 50
355.0
 51
95.0
  0
LINE
  5
2A7
100
AcDbEntity
  8
外形
  6
CONTINUOUS
100
AcDbLine
 10
273.517547
 20
726.097897
 30
0.0
 11
273.517547
 21
722.224914
 31
0.0
  0
ARC
  5
2A8
100
AcDbEntity
  8
外形
  6
CONTINUOUS
100
AcDbCircle
 10
253.517547
 20
724.161405
 30
0.0
 40
4.0
100
AcDbArc
 50
208.955024
 51
151.044976
  0
CIRCLE
  5
2A9
100
AcDbEntity
  8
外形
  6
CONTINUOUS
100
AcDbCircle
 10
253.517547
 20
724.161405
 30
0.0
 40
1.25
  0
DIMENSION
  5
2AA
100
AcDbEntity
  8
寸法
  6
CONTINUOUS
100
AcDbDimension
  2
*D6
 10
251.318029
 20
720.820429
 30
0.0
 11
259.841161
 21
733.766712
 31
0.0
 70
   163
  3
STANDARD
100
AcDbDiametricDimension
 15
255.717065
 25
727.502382
 35
0.0
 40
0.0
1001
ACAD
1000
DSTYLE
1002
{
1070
   284
1070
    13
1070
   146
1040
0.5
1070
   272
1070
     3
1070
    40
1040
1.0
1070
   287
1070
     0
1002
}
  0
LINE
  5
2AB
100
AcDbEntity
  8
外形
  6
CONTINUOUS
100
AcDbLine
 10
283.517547
 20
721.161405
 30
0.0
 11
283.517547
 21
727.161405
 31
0.0
  0
LINE
  5
2AC
100
AcDbEntity
  8
外形
  6
CONTINUOUS
100
AcDbLine
 10
282.517547
 20
720.161405
 30
0.0
 11
282.517547
 21
728.161405
 31
0.0
  0
LINE
  5
2AD
100
AcDbEntity
  8
外形
  6
CONTINUOUS
100
AcDbLine
 10
250.017547
 20
726.097897
 30
0.0
 11
250.017547
 21
722.224914
 31
0.0
  0
LINE
  5
2AE
100
AcDbEntity
  8
外形
  6
CENTER
 62
     1
100
AcDbLine
 10
253.517547
 20
729.852219
 30
0.0
 11
253.517547
 21
717.98658
 31
0.0
  0
LINE
  5
2AF
100
AcDbEntity
  8
外形
  6
CONTINUOUS
100
AcDbLine
 10
283.517547
 20
727.161405
 30
0.0
 11
283.517547
 21
721.161405
 31
0.0
  0
DIMENSION
  5
2B0
100
AcDbEntity
  8
寸法
  6
CONTINUOUS
100
AcDbDimension
  2
*D7
 10
253.517547
 20
708.182949
 30
0.0
 11
262.517547
 21
710.682949
 31
0.0
 70
    32
  3
STANDARD
100
AcDbAlignedDimension
 13
250.017547
 23
722.224914
 33
0.0
 14
253.517547
 24
717.98658
 34
0.0
100
AcDbRotatedDimension
1001
ACAD
1000
DSTYLE
1002
{
1070
   284
1070
    13
1070
   146
1040
0.5
1070
   272
1070
     3
1070
    40
1040
1.0
1070
   287
1070
     0
1002
}
  0
LINE
  5
2B2
100
AcDbEntity
  8
外形
  6
CONTINUOUS
100
AcDbLine
 10
273.517547
 20
680.244253
 30
0.0
 11
282.517547
 21
680.244253
 31
0.0
  0
LINE
  5
2B3
100
AcDbEntity
  8
外形
  6
CONTINUOUS
100
AcDbLine
 10
273.517547
 20
680.244253
 30
0.0
 11
273.517547
 21
679.744253
 31
0.0
  0
LINE
  5
2B4
100
AcDbEntity
  8
外形
  6
CONTINUOUS
100
AcDbLine
 10
282.517547
 20
680.244253
 30
0.0
 11
283.517547
 21
679.244253
 31
0.0
  0
LINE
  5
2B5
100
AcDbEntity
  8
外形
  6
HIDDEN
100
AcDbLine
 10
283.517547
 20
722.911405
 30
0.0
 11
259.017547
 21
722.911405
 31
0.0
  0
LINE
  5
2B6
100
AcDbEntity
  8
外形
  6
CONTINUOUS
100
AcDbLine
 10
282.517547
 20
720.161405
 30
0.0
 11
259.017547
 21
720.161405
 31
0.0
  0
LINE
  5
2B7
100
AcDbEntity
  8
外形
  6
CONTINUOUS
100
AcDbLine
 10
273.517547
 20
722.224914
 30
0.0
 11
259.017547
 21
722.224914
 31
0.0
  0
LINE
  5
2B8
100
AcDbEntity
  8
外形
  6
CONTINUOUS
100
AcDbLine
 10
282.517547
 20
720.161405
 30
0.0
 11
283.517547
 21
721.161405
 31
0.0
  0
LINE
  5
2B9
100
AcDbEntity
  8
外形
  6
HIDDEN
100
AcDbLine
 10
283.517547
 20
725.411405
 30
0.0
 11
259.017547
 21
725.411405
 31
0.0
  0
LINE
  5
2BA
100
AcDbEntity
  8
外形
  6
CONTINUOUS
100
AcDbLine
 10
282.517547
 20
728.161405
 30
0.0
 11
259.017547
 21
728.161405
 31
0.0
  0
LINE
  5
2BB
100
AcDbEntity
  8
外形
  6
CONTINUOUS
100
AcDbLine
 10
273.517547
 20
726.097897
 30
0.0
 11
259.017547
 21
726.097897
 31
0.0
  0
LINE
  5
2BC
100
AcDbEntity
  8
外形
  6
CONTINUOUS
100
AcDbLine
 10
282.517547
 20
728.161405
 30
0.0
 11
283.517547
 21
727.161405
 31
0.0
  0
LEADER
  5
513
100
AcDbEntity
  8
寸法
  6
CONTINUOUS
 62
     1
100
AcDbLeader
  3
STANDARD
 73
     0
 75
     1
 40
3.0
 41
9.8
 76
     3
 10
252.479353
 20
724.857576
 30
0.0
 10
244.719145
 20
737.456825
 30
0.0
 10
242.719145
 20
737.456825
 30
0.0
 77
   256
340
514
1001
ACAD
1000
DSTYLE
1002
{
1070
    40
1040
1.0
1002
}
  0
MTEXT
  5
514
102
{ACAD_REACTORS
330
513
102
}
100
AcDbEntity
  8
寸法
  6
CONTINUOUS
 62
     3
100
AcDbMText
 10
241.719145
 20
739.956825
 30
0.0
 40
3.0
 41
0.0
 71
     6
 72
     1
  1
\A1;油穴付
  0
DIMENSION
  5
521
100
AcDbEntity
  8
寸法
  6
CONTINUOUS
100
AcDbDimension
  2
*D8
 10
201.517547
 20
708.374555
 30
0.0
 11
192.517547
 21
710.874555
 31
0.0
 70
    32
  3
STANDARD
100
AcDbAlignedDimension
 13
183.517547
 23
718.661405
 33
0.0
 14
201.517547
 24
722.224914
 34
0.0
100
AcDbRotatedDimension
1001
ACAD
1000
DSTYLE
1002
{
1070
    40
1040
1.0
1002
}
  0
ENDSEC
  0
SECTION
  2
OBJECTS
  0
DICTIONARY
  5
1E
100
AcDbDictionary
  3
ACAD_GROUP
350
1C
  3
ACAD_MLINESTYLE
350
1D
  0
DICTIONARY
  5
37
100
AcDbDictionary
280
     1
  3
ACAD_XREC_ROUNDTRIP
360
38
  0
DICTIONARY
  5
84
100
AcDbDictionary
280
     1
  3
ACAD_XREC_ROUNDTRIP
360
85
  0
DICTIONARY
  5
3
100
AcDbDictionary
280
     1
  3
ACAD_LAYOUTSELFREF
360
4
  0
DICTIONARY
  5
A
100
AcDbDictionary
280
     1
  3
ACAD_LAYOUTSELFREF
360
B
  0
DICTIONARY
  5
1C
102
{ACAD_REACTORS
330
1E
102
}
100
AcDbDictionary
  0
DICTIONARY
  5
1D
102
{ACAD_REACTORS
330
1E
102
}
100
AcDbDictionary
  3
STANDARD
350
20
  0
XRECORD
  5
38
102
{ACAD_REACTORS
330
37
102
}
100
AcDbXrecord
102
PLOTBIT
280
     0
  0
XRECORD
  5
85
102
{ACAD_REACTORS
330
84
102
}
100
AcDbXrecord
102
ACADR14ROUNDTRIP
1000
DSTYLE
1002
{
1070
   341
340
0
1070
   343
340
0
1070
   344
340
0
1002
}
  0
XRECORD
  5
4
102
{ACAD_REACTORS
330
3
102
}
100
AcDbXrecord
340
2
  0
XRECORD
  5
B
102
{ACAD_REACTORS
330
A
102
}
100
AcDbXrecord
340
9
  0
MLINESTYLE
  5
20
102
{ACAD_REACTORS
330
1D
102
}
100
AcDbMlineStyle
  2
STANDARD
 70
     0
  3

 62
     0
 51
90.0
 52
90.0
 71
     2
 49
0.5
 62
   256
  6
BYLAYER
 49
-0.5
 62
   256
  6
BYLAYER
  0
ENDSEC
  0
EOF
