  0
SECTION
  2
HEADER
  9
$ACADVER
  1
AC1014
  9
$ACADMAINTVER
 70
     0
  9
$DWGCODEPAGE
  3
ANSI_932
  9
$INSBASE
 10
101.707448
 20
155.173135
 30
0.0
  9
$EXTMIN
 10
104.396901
 20
153.267831
 30
0.0
  9
$EXTMAX
 10
282.586978
 20
263.168771
 30
0.0
  9
$LIMMIN
 10
-587.250952
 20
327.890188
  9
$LIMMAX
 10
600.749048
 20
957.890188
  9
$ORTHOMODE
 70
     1
  9
$REGENMODE
 70
     1
  9
$FILLMODE
 70
     1
  9
$QTEXTMODE
 70
     0
  9
$MIRRTEXT
 70
     1
  9
$DRAGMODE
 70
     2
  9
$LTSCALE
 40
5.0
  9
$OSMODE
 70
   303
  9
$ATTMODE
 70
     1
  9
$TEXTSIZE
 40
5.0
  9
$TRACEWID
 40
0.05
  9
$TEXTSTYLE
  7
STANDARD
  9
$CLAYER
  8
外形
  9
$CELTYPE
  6
CONTINUOUS
  9
$CECOLOR
 62
     3
  9
$CELTSCALE
 40
1.0
  9
$DELOBJ
 70
     1
  9
$DISPSILH
 70
     0
  9
$DIMSCALE
 40
1.0
  9
$DIMASZ
 40
2.0
  9
$DIMEXO
 40
1.0
  9
$DIMDLI
 40
8.0
  9
$DIMRND
 40
0.0
  9
$DIMDLE
 40
0.0
  9
$DIMEXE
 40
2.0
  9
$DIMTP
 40
0.0
  9
$DIMTM
 40
0.0
  9
$DIMTXT
 40
2.0
  9
$DIMCEN
 40
-1.0
  9
$DIMTSZ
 40
0.0
  9
$DIMTOL
 70
     0
  9
$DIMLIM
 70
     0
  9
$DIMTIH
 70
     0
  9
$DIMTOH
 70
     0
  9
$DIMSE1
 70
     0
  9
$DIMSE2
 70
     0
  9
$DIMTAD
 70
     1
  9
$DIMZIN
 70
     8
  9
$DIMBLK
  1

  9
$DIMASO
 70
     1
  9
$DIMSHO
 70
     1
  9
$DIMPOST
  1

  9
$DIMAPOST
  1

  9
$DIMALT
 70
     0
  9
$DIMALTD
 70
     2
  9
$DIMALTF
 40
25.4
  9
$DIMLFAC
 40
1.0
  9
$DIMTOFL
 70
     1
  9
$DIMTVP
 40
0.0
  9
$DIMTIX
 70
     0
  9
$DIMSOXD
 70
     0
  9
$DIMSAH
 70
     1
  9
$DIMBLK1
  1
_DOTSMALL
  9
$DIMBLK2
  1
_DOTSMALL
  9
$DIMSTYLE
  2
参考寸法
  9
$DIMCLRD
 70
     2
  9
$DIMCLRE
 70
     2
  9
$DIMCLRT
 70
     2
  9
$DIMTFAC
 40
1.0
  9
$DIMGAP
 40
1.0
  9
$DIMJUST
 70
     0
  9
$DIMSD1
 70
     0
  9
$DIMSD2
 70
     0
  9
$DIMTOLJ
 70
     1
  9
$DIMTZIN
 70
     8
  9
$DIMALTZ
 70
     0
  9
$DIMALTTZ
 70
     0
  9
$DIMFIT
 70
     3
  9
$DIMUPT
 70
     0
  9
$DIMUNIT
 70
     2
  9
$DIMDEC
 70
     3
  9
$DIMTDEC
 70
     2
  9
$DIMALTU
 70
     2
  9
$DIMALTTD
 70
     2
  9
$DIMTXSTY
  7
STANDARD
  9
$DIMAUNIT
 70
     0
  9
$LUNITS
 70
     2
  9
$LUPREC
 70
     3
  9
$SKETCHINC
 40
0.1
  9
$FILLETRAD
 40
4.0
  9
$AUNITS
 70
     0
  9
$AUPREC
 70
     3
  9
$MENU
  1
acad
  9
$ELEVATION
 40
0.0
  9
$PELEVATION
 40
0.0
  9
$THICKNESS
 40
0.0
  9
$LIMCHECK
 70
     0
  9
$BLIPMODE
 70
     0
  9
$CHAMFERA
 40
0.0
  9
$CHAMFERB
 40
0.0
  9
$CHAMFERC
 40
0.0
  9
$CHAMFERD
 40
0.0
  9
$SKPOLY
 70
     0
  9
$TDCREATE
 40
2450751.535399305
  9
$TDUPDATE
 40
2451993.456655092
  9
$TDINDWG
 40
3.2923675926
  9
$TDUSRTIMER
 40
3.2923675926
  9
$USRTIMER
 70
     1
  9
$ANGBASE
 50
0.0
  9
$ANGDIR
 70
     0
  9
$PDMODE
 70
    32
  9
$PDSIZE
 40
0.0
  9
$PLINEWID
 40
0.0
  9
$COORDS
 70
     2
  9
$SPLFRAME
 70
     0
  9
$SPLINETYPE
 70
     5
  9
$SPLINESEGS
 70
     8
  9
$ATTDIA
 70
     0
  9
$ATTREQ
 70
     1
  9
$HANDLING
 70
     1
  9
$HANDSEED
  5
3C0
  9
$SURFTAB1
 70
     6
  9
$SURFTAB2
 70
     6
  9
$SURFTYPE
 70
     6
  9
$SURFU
 70
     6
  9
$SURFV
 70
     6
  9
$UCSNAME
  2

  9
$UCSORG
 10
0.0
 20
0.0
 30
0.0
  9
$UCSXDIR
 10
1.0
 20
0.0
 30
0.0
  9
$UCSYDIR
 10
0.0
 20
1.0
 30
0.0
  9
$PUCSNAME
  2

  9
$PUCSORG
 10
0.0
 20
0.0
 30
0.0
  9
$PUCSXDIR
 10
1.0
 20
0.0
 30
0.0
  9
$PUCSYDIR
 10
0.0
 20
1.0
 30
0.0
  9
$USERI1
 70
     0
  9
$USERI2
 70
     0
  9
$USERI3
 70
     0
  9
$USERI4
 70
     0
  9
$USERI5
 70
     0
  9
$USERR1
 40
0.0
  9
$USERR2
 40
0.0
  9
$USERR3
 40
0.0
  9
$USERR4
 40
0.0
  9
$USERR5
 40
0.0
  9
$WORLDVIEW
 70
     1
  9
$SHADEDGE
 70
     3
  9
$SHADEDIF
 70
    70
  9
$TILEMODE
 70
     1
  9
$MAXACTVP
 70
    16
  9
$PINSBASE
 10
0.0
 20
0.0
 30
0.0
  9
$PLIMCHECK
 70
     0
  9
$PEXTMIN
 10
1.000000E+20
 20
1.000000E+20
 30
1.000000E+20
  9
$PEXTMAX
 10
-1.000000E+20
 20
-1.000000E+20
 30
-1.000000E+20
  9
$PLIMMIN
 10
0.0
 20
0.0
  9
$PLIMMAX
 10
12.0
 20
9.0
  9
$UNITMODE
 70
     0
  9
$VISRETAIN
 70
     0
  9
$PLINEGEN
 70
     0
  9
$PSLTSCALE
 70
     1
  9
$TREEDEPTH
 70
  3020
  9
$PICKSTYLE
 70
     1
  9
$CMLSTYLE
  2
STANDARD
  9
$CMLJUST
 70
     0
  9
$CMLSCALE
 40
1.0
  9
$PROXYGRAPHICS
 70
     1
  9
$MEASUREMENT
 70
     0
  0
ENDSEC
  0
SECTION
  2
CLASSES
  0
CLASS
  1
LWPOLYLINE
  2
AcDbPolyline
  3
"AutoCAD"
 90
        0
280
     0
281
     1
  0
CLASS
  1
ACDBDICTIONARYWDFLT
  2
AcDbDictionaryWithDefault
  3
AutoCAD 2000
 90
        0
280
     1
281
     0
  0
CLASS
  1
ACDBPLACEHOLDER
  2
AcDbPlaceHolder
  3
AutoCAD 2000
 90
        0
280
     1
281
     0
  0
CLASS
  1
LAYOUT
  2
AcDbLayout
  3
AutoCAD 2000
 90
        0
280
     1
281
     0
  0
CLASS
  1
LONG_TRANSACTION
  2
AcDbLongTransaction
  3
AutoCAD 2000
 90
        0
280
     1
281
     0
  0
CLASS
  1
LWPOLYLINE
  2
AcDbPolyline
  3
"AutoCAD"
 90
        0
280
     0
281
     1
  0
CLASS
  1
HATCH
  2
AcDbHatch
  3
"ACAD_SEDONA"
 90
        0
280
     0
281
     1
  0
CLASS
  1
XRECORD
  2
AcDbXrecord
  3
"<Built In>"
 90
        0
280
     0
281
     0
  0
CLASS
  1
DICTIONARYVAR
  2
AcDbDictionaryVar
  3
"AutoCAD"
 90
        0
280
     0
281
     0
  0
ENDSEC
  0
SECTION
  2
TABLES
  0
TABLE
  2
VPORT
  5
16
100
AcDbSymbolTable
 70
     1
  0
VPORT
  5
3BB
100
AcDbSymbolTableRecord
100
AcDbViewportTableRecord
  2
*ACTIVE
 70
     0
 10
0.0
 20
0.0
 11
1.0
 21
1.0
 12
193.02526
 22
211.56424
 13
0.0
 23
0.0
 14
1.0
 24
1.0
 15
10.0
 25
10.0
 16
0.0
 26
0.0
 36
1.0
 17
0.0
 27
0.0
 37
0.0
 40
162.4259
 41
1.710425
 42
50.0
 43
0.0
 44
0.0
 50
0.0
 51
0.0
 71
     0
 72
   100
 73
     1
 74
     1
 75
     0
 76
     0
 77
     0
 78
     2
  0
ENDTAB
  0
TABLE
  2
LTYPE
  5
11
100
AcDbSymbolTable
 70
     2
  0
LTYPE
  5
12
100
AcDbSymbolTableRecord
100
AcDbLinetypeTableRecord
  2
BYBLOCK
 70
     0
  3

 72
    65
 73
     0
 40
0.0
  0
LTYPE
  5
13
100
AcDbSymbolTableRecord
100
AcDbLinetypeTableRecord
  2
BYLAYER
 70
     0
  3

 72
    65
 73
     0
 40
0.0
  0
LTYPE
  5
7
100
AcDbSymbolTableRecord
100
AcDbLinetypeTableRecord
  2
CONTINUOUS
 70
     0
  3
Solid line
 72
    65
 73
     0
 40
0.0
  0
LTYPE
  5
4E
100
AcDbSymbolTableRecord
100
AcDbLinetypeTableRecord
  2
CENTER
 70
     0
  3
Center ____ _ ____ _ ____ _ ____ _ ____ _ ____
 72
    65
 73
     4
 40
2.0
 49
1.25
 74
     0
 49
-0.25
 74
     0
 49
0.25
 74
     0
 49
-0.25
 74
     0
  0
ENDTAB
  0
TABLE
  2
LAYER
  5
E
100
AcDbSymbolTable
 70
     5
  0
LAYER
  5
6
100
AcDbSymbolTableRecord
100
AcDbLayerTableRecord
  2
0
 70
     0
 62
     7
  6
CONTINUOUS
  0
LAYER
  5
2C
100
AcDbSymbolTableRecord
100
AcDbLayerTableRecord
  2
外形
 70
     0
 62
     4
  6
CONTINUOUS
  0
LAYER
  5
44
102
{ACAD_XDICTIONARY
360
45
102
}
100
AcDbSymbolTableRecord
100
AcDbLayerTableRecord
  2
DEFPOINTS
 70
     0
 62
     7
  6
CONTINUOUS
  0
LAYER
  5
2E
100
AcDbSymbolTableRecord
100
AcDbLayerTableRecord
  2
寸法
 70
     0
 62
     1
  6
CONTINUOUS
  0
LAYER
  5
1F
100
AcDbSymbolTableRecord
100
AcDbLayerTableRecord
  2
参考
 70
     0
 62
     2
  6
CONTINUOUS
  0
ENDTAB
  0
TABLE
  2
STYLE
  5
F
100
AcDbSymbolTable
 70
     1
  0
STYLE
  5
10
100
AcDbSymbolTableRecord
100
AcDbTextStyleTableRecord
  2
STANDARD
 70
     0
 40
0.0
 41
1.0
 50
0.0
 71
     0
 42
5.0
  3
MONOTXT
  4
BIGFONT
  0
ENDTAB
  0
TABLE
  2
VIEW
  5
14
100
AcDbSymbolTable
 70
     0
  0
ENDTAB
  0
TABLE
  2
UCS
  5
15
100
AcDbSymbolTable
 70
     0
  0
ENDTAB
  0
TABLE
  2
APPID
  5
18
100
AcDbSymbolTable
 70
     1
  0
APPID
  5
19
100
AcDbSymbolTableRecord
100
AcDbRegAppTableRecord
  2
ACAD
 70
     0
  0
ENDTAB
  0
TABLE
  2
DIMSTYLE
  5
1A
100
AcDbSymbolTable
 70
     2
  0
DIMSTYLE
105
2F
102
{ACAD_XDICTIONARY
360
30
102
}
102
{ACAD_REACTORS
330
98
330
C5
330
166
330
179
330
2D
330
51
330
B6
102
}
100
AcDbSymbolTableRecord
100
AcDbDimStyleTableRecord
  2
STANDARD
 70
     0
  3

  4

  5

  6
_OPEN30
  7
_OPEN30
 40
0.0
 41
2.0
 42
1.0
 43
8.0
 44
2.0
 45
0.0
 46
0.0
 47
0.0
 48
0.0
140
3.0
141
-1.0
142
0.0
143
25.4
144
1.0
145
0.0
146
1.0
147
1.0
 71
     0
 72
     0
 73
     0
 74
     0
 75
     0
 76
     0
 77
     1
 78
     8
170
     0
171
     2
172
     1
173
     1
174
     0
175
     0
176
     1
177
     1
178
     3
270
     2
271
     2
272
     2
273
     2
274
     2
340
10
275
     0
280
     0
281
     0
282
     0
283
     1
284
     8
285
     0
286
     0
287
     3
288
     0
  0
DIMSTYLE
105
21
102
{ACAD_REACTORS
330
DC
330
D2
330
109
330
72
330
EF
330
128
330
80
330
63
330
11A
102
}
100
AcDbSymbolTableRecord
100
AcDbDimStyleTableRecord
  2
参考寸法
 70
     0
  3

  4

  5

  6
_DOTSMALL
  7
_DOTSMALL
 40
1.0
 41
2.0
 42
1.0
 43
8.0
 44
2.0
 45
0.0
 46
0.0
 47
0.0
 48
0.0
140
2.0
141
-1.0
142
0.0
143
25.4
144
1.0
145
0.0
146
1.0
147
1.0
 71
     0
 72
     0
 73
     0
 74
     0
 75
     0
 76
     0
 77
     1
 78
     8
170
     0
171
     2
172
     1
173
     1
174
     0
175
     0
176
     2
177
     2
178
     2
270
     2
271
     3
272
     2
273
     2
274
     2
340
10
275
     0
280
     0
281
     0
282
     0
283
     1
284
     8
285
     0
286
     0
287
     3
288
     0
  0
ENDTAB
  0
TABLE
  2
BLOCK_RECORD
  5
1
100
AcDbSymbolTable
 70
    26
  0
BLOCK_RECORD
  5
2
102
{ACAD_XDICTIONARY
360
3
102
}
100
AcDbSymbolTableRecord
100
AcDbBlockTableRecord
  2
*MODEL_SPACE
  0
BLOCK_RECORD
  5
9
102
{ACAD_XDICTIONARY
360
A
102
}
100
AcDbSymbolTableRecord
100
AcDbBlockTableRecord
  2
*PAPER_SPACE
  0
BLOCK_RECORD
  5
22
100
AcDbSymbolTableRecord
100
AcDbBlockTableRecord
  2
_DOTSMALL
  0
BLOCK_RECORD
  5
32
100
AcDbSymbolTableRecord
100
AcDbBlockTableRecord
  2
_OPEN30
  0
BLOCK_RECORD
  5
52
100
AcDbSymbolTableRecord
100
AcDbBlockTableRecord
  2
*D2
  0
BLOCK_RECORD
  5
167
100
AcDbSymbolTableRecord
100
AcDbBlockTableRecord
  2
*D3
  0
BLOCK_RECORD
  5
17A
100
AcDbSymbolTableRecord
100
AcDbBlockTableRecord
  2
*D4
  0
BLOCK_RECORD
  5
73
100
AcDbSymbolTableRecord
100
AcDbBlockTableRecord
  2
*D5
  0
BLOCK_RECORD
  5
C6
100
AcDbSymbolTableRecord
100
AcDbBlockTableRecord
  2
*D6
  0
BLOCK_RECORD
  5
99
100
AcDbSymbolTableRecord
100
AcDbBlockTableRecord
  2
*D7
  0
BLOCK_RECORD
  5
F0
100
AcDbSymbolTableRecord
100
AcDbBlockTableRecord
  2
*D8
  0
BLOCK_RECORD
  5
10A
100
AcDbSymbolTableRecord
100
AcDbBlockTableRecord
  2
*D9
  0
BLOCK_RECORD
  5
D3
100
AcDbSymbolTableRecord
100
AcDbBlockTableRecord
  2
*D10
  0
BLOCK_RECORD
  5
DD
100
AcDbSymbolTableRecord
100
AcDbBlockTableRecord
  2
*D11
  0
BLOCK_RECORD
  5
129
100
AcDbSymbolTableRecord
100
AcDbBlockTableRecord
  2
*D12
  0
BLOCK_RECORD
  5
81
100
AcDbSymbolTableRecord
100
AcDbBlockTableRecord
  2
*D13
  0
BLOCK_RECORD
  5
38
100
AcDbSymbolTableRecord
100
AcDbBlockTableRecord
  2
*D14
  0
BLOCK_RECORD
  5
64
100
AcDbSymbolTableRecord
100
AcDbBlockTableRecord
  2
*D15
  0
BLOCK_RECORD
  5
11B
100
AcDbSymbolTableRecord
100
AcDbBlockTableRecord
  2
*D16
  0
BLOCK_RECORD
  5
B7
100
AcDbSymbolTableRecord
100
AcDbBlockTableRecord
  2
*D17
  0
BLOCK_RECORD
  5
2A
100
AcDbSymbolTableRecord
100
AcDbBlockTableRecord
  2
4
  0
BLOCK_RECORD
  5
220
100
AcDbSymbolTableRecord
100
AcDbBlockTableRecord
  2
*D19
  0
BLOCK_RECORD
  5
232
100
AcDbSymbolTableRecord
100
AcDbBlockTableRecord
  2
*D20
  0
BLOCK_RECORD
  5
269
100
AcDbSymbolTableRecord
100
AcDbBlockTableRecord
  2
*D21
  0
BLOCK_RECORD
  5
275
100
AcDbSymbolTableRecord
100
AcDbBlockTableRecord
  2
*D22
  0
BLOCK_RECORD
  5
283
100
AcDbSymbolTableRecord
100
AcDbBlockTableRecord
  2
*D23
  0
BLOCK_RECORD
  5
2DB
100
AcDbSymbolTableRecord
100
AcDbBlockTableRecord
  2
*D24
  0
BLOCK_RECORD
  5
2E7
100
AcDbSymbolTableRecord
100
AcDbBlockTableRecord
  2
*D25
  0
ENDTAB
  0
ENDSEC
  0
SECTION
  2
BLOCKS
  0
BLOCK
  5
5
100
AcDbEntity
  8
0
100
AcDbBlockBegin
  2
*MODEL_SPACE
 70
     0
 10
0.0
 20
0.0
 30
0.0
  3
*MODEL_SPACE
  1

  0
ENDBLK
  5
8
100
AcDbEntity
  8
0
100
AcDbBlockEnd
  0
BLOCK
  5
C
100
AcDbEntity
 67
     1
  8
0
100
AcDbBlockBegin
  2
*PAPER_SPACE
 70
     0
 10
0.0
 20
0.0
 30
0.0
  3
*PAPER_SPACE
  1

  0
ENDBLK
  5
D
100
AcDbEntity
 67
     1
  8
0
100
AcDbBlockEnd
  0
BLOCK
  5
27
100
AcDbEntity
  8
0
100
AcDbBlockBegin
  2
_DOTSMALL
 70
     0
 10
0.0
 20
0.0
 30
0.0
  3
_DOTSMALL
  1

  0
POLYLINE
  5
23
100
AcDbEntity
  8
0
  6
BYBLOCK
 62
     0
100
AcDb2dPolyline
 66
     1
 10
0.0
 20
0.0
 30
0.0
 70
     1
 40
0.5
 41
0.5
  0
VERTEX
  5
24
100
AcDbEntity
  8
0
  6
BYBLOCK
 62
     0
100
AcDbVertex
100
AcDb2dVertex
 10
-0.0625
 20
0.0
 30
0.0
 42
1.0
  0
VERTEX
  5
25
100
AcDbEntity
  8
0
  6
BYBLOCK
 62
     0
100
AcDbVertex
100
AcDb2dVertex
 10
0.0625
 20
0.0
 30
0.0
 42
1.0
  0
SEQEND
  5
26
100
AcDbEntity
  8
0
  6
BYBLOCK
 62
     0
  0
ENDBLK
  5
28
100
AcDbEntity
  8
0
100
AcDbBlockEnd
  0
BLOCK
  5
36
100
AcDbEntity
  8
0
100
AcDbBlockBegin
  2
_OPEN30
 70
     0
 10
0.0
 20
0.0
 30
0.0
  3
_OPEN30
  1

  0
LINE
  5
33
100
AcDbEntity
  8
0
  6
BYBLOCK
 62
     0
100
AcDbLine
 10
-1.0
 20
0.267949
 30
0.0
 11
0.0
 21
0.0
 31
0.0
  0
LINE
  5
34
100
AcDbEntity
  8
0
  6
BYBLOCK
 62
     0
100
AcDbLine
 10
0.0
 20
0.0
 30
0.0
 11
-1.0
 21
-0.267949
 31
0.0
  0
LINE
  5
35
100
AcDbEntity
  8
0
  6
BYBLOCK
 62
     0
100
AcDbLine
 10
0.0
 20
0.0
 30
0.0
 11
-1.0
 21
0.0
 31
0.0
  0
ENDBLK
  5
37
100
AcDbEntity
  8
0
100
AcDbBlockEnd
  0
BLOCK
  5
5C
100
AcDbEntity
  8
0
100
AcDbBlockBegin
  2
*D2
 70
     1
 10
0.0
 20
0.0
 30
0.0
  3
*D2
  1

  0
LINE
  5
53
100
AcDbEntity
  8
0
  6
BYBLOCK
 62
     1
100
AcDbLine
 10
-132.140118
 20
632.893281
 30
0.0
 11
-132.140118
 21
611.264553
 31
0.0
  0
LINE
  5
54
100
AcDbEntity
  8
0
  6
BYBLOCK
 62
     1
100
AcDbLine
 10
-7.140118
 20
634.893281
 30
0.0
 11
-7.140118
 21
611.264553
 31
0.0
  0
LINE
  5
55
100
AcDbEntity
  8
0
  6
BYBLOCK
 62
     1
100
AcDbLine
 10
-130.140118
 20
613.264553
 30
0.0
 11
-9.140118
 21
613.264553
 31
0.0
  0
INSERT
  5
56
100
AcDbEntity
  8
0
  6
BYBLOCK
 62
     1
100
AcDbBlockReference
  2
_OPEN30
 10
-132.140118
 20
613.264553
 30
0.0
 41
2.0
 42
2.0
 43
2.0
 50
180.0
  0
INSERT
  5
57
100
AcDbEntity
  8
0
  6
BYBLOCK
 62
     1
100
AcDbBlockReference
  2
_OPEN30
 10
-7.140118
 20
613.264553
 30
0.0
 41
2.0
 42
2.0
 43
2.0
  0
MTEXT
  5
58
100
AcDbEntity
  8
0
  6
BYBLOCK
 62
     3
100
AcDbMText
 10
-69.640118
 20
615.764553
 30
0.0
 40
3.0
 41
0.0
 71
     5
 72
     1
  1
\A1;125
  0
POINT
  5
59
100
AcDbEntity
  8
DEFPOINTS
  6
BYBLOCK
 62
     0
100
AcDbPoint
 10
-132.140118
 20
633.893281
 30
0.0
  0
POINT
  5
5A
100
AcDbEntity
  8
DEFPOINTS
  6
BYBLOCK
 62
     0
100
AcDbPoint
 10
-7.140118
 20
635.893281
 30
0.0
  0
POINT
  5
5B
100
AcDbEntity
  8
DEFPOINTS
  6
BYBLOCK
 62
     0
100
AcDbPoint
 10
-7.140118
 20
613.264553
 30
0.0
  0
ENDBLK
  5
5D
100
AcDbEntity
  8
0
100
AcDbBlockEnd
  0
BLOCK
  5
171
100
AcDbEntity
  8
0
100
AcDbBlockBegin
  2
*D3
 70
     1
 10
0.0
 20
0.0
 30
0.0
  3
*D3
  1

  0
LINE
  5
168
100
AcDbEntity
  8
0
  6
BYBLOCK
 62
     1
100
AcDbLine
 10
-41.640118
 20
787.178178
 30
0.0
 11
-41.640118
 21
772.136213
 31
0.0
  0
LINE
  5
169
100
AcDbEntity
  8
0
  6
BYBLOCK
 62
     1
100
AcDbLine
 10
-32.640118
 20
787.178178
 30
0.0
 11
-32.640118
 21
772.136213
 31
0.0
  0
LINE
  5
16A
100
AcDbEntity
  8
0
  6
BYBLOCK
 62
     1
100
AcDbLine
 10
-39.640118
 20
774.136213
 30
0.0
 11
-34.640118
 21
774.136213
 31
0.0
  0
INSERT
  5
16B
100
AcDbEntity
  8
0
  6
BYBLOCK
 62
     1
100
AcDbBlockReference
  2
_OPEN30
 10
-41.640118
 20
774.136213
 30
0.0
 41
2.0
 42
2.0
 43
2.0
 50
180.0
  0
INSERT
  5
16C
100
AcDbEntity
  8
0
  6
BYBLOCK
 62
     1
100
AcDbBlockReference
  2
_OPEN30
 10
-32.640118
 20
774.136213
 30
0.0
 41
2.0
 42
2.0
 43
2.0
  0
MTEXT
  5
16D
100
AcDbEntity
  8
0
  6
BYBLOCK
 62
     3
100
AcDbMText
 10
-37.140118
 20
776.636213
 30
0.0
 40
3.0
 41
0.0
 71
     5
 72
     1
  1
\A1;9
  0
POINT
  5
16E
100
AcDbEntity
  8
DEFPOINTS
  6
BYBLOCK
 62
     0
100
AcDbPoint
 10
-41.640118
 20
788.178178
 30
0.0
  0
POINT
  5
16F
100
AcDbEntity
  8
DEFPOINTS
  6
BYBLOCK
 62
     0
100
AcDbPoint
 10
-32.640118
 20
788.178178
 30
0.0
  0
POINT
  5
170
100
AcDbEntity
  8
DEFPOINTS
  6
BYBLOCK
 62
     0
100
AcDbPoint
 10
-32.640118
 20
774.136213
 30
0.0
  0
ENDBLK
  5
172
100
AcDbEntity
  8
0
100
AcDbBlockEnd
  0
BLOCK
  5
183
100
AcDbEntity
  8
0
100
AcDbBlockBegin
  2
*D4
 70
     1
 10
0.0
 20
0.0
 30
0.0
  3
*D4
  1

  0
LINE
  5
17B
100
AcDbEntity
  8
0
  6
BYBLOCK
 62
     1
100
AcDbLine
 10
-41.311512
 20
784.493328
 30
0.0
 11
-42.503338
 21
782.887231
 31
0.0
  0
LINE
  5
17C
100
AcDbEntity
  8
0
  6
BYBLOCK
 62
     1
100
AcDbLine
 10
-32.968725
 20
795.736011
 30
0.0
 11
-25.817765
 21
805.372596
 31
0.0
  0
LINE
  5
17D
100
AcDbEntity
  8
0
  6
BYBLOCK
 62
     1
100
AcDbLine
 10
-40.119685
 20
786.099426
 30
0.0
 11
-34.160552
 21
794.129913
 31
0.0
  0
INSERT
  5
17E
100
AcDbEntity
  8
0
  6
BYBLOCK
 62
     1
100
AcDbBlockReference
  2
_OPEN30
 10
-40.119685
 20
786.099426
 30
0.0
 41
2.0
 42
2.0
 43
2.0
 50
53.422231
  0
INSERT
  5
17F
100
AcDbEntity
  8
0
  6
BYBLOCK
 62
     1
100
AcDbBlockReference
  2
_OPEN30
 10
-34.160552
 20
794.129913
 30
0.0
 41
2.0
 42
2.0
 43
2.0
 50
233.422231
  0
MTEXT
  5
180
100
AcDbEntity
  8
0
  6
BYBLOCK
 62
     3
100
AcDbMText
 10
-30.804954
 20
802.847135
 30
0.0
 40
3.0
 41
0.0
 71
     5
 72
     1
  1
\A1;\U+220510
 11
0.595913
 21
0.803049
 31
0.0
  0
POINT
  5
181
100
AcDbEntity
  8
DEFPOINTS
  6
BYBLOCK
 62
     0
100
AcDbPoint
 10
-34.160552
 20
794.129913
 30
0.0
  0
POINT
  5
182
100
AcDbEntity
  8
DEFPOINTS
  6
BYBLOCK
 62
     0
100
AcDbPoint
 10
-40.119685
 20
786.099426
 30
0.0
  0
ENDBLK
  5
184
100
AcDbEntity
  8
0
100
AcDbBlockEnd
  0
BLOCK
  5
7E
100
AcDbEntity
  8
0
100
AcDbBlockBegin
  2
*D5
 70
     1
 10
0.0
 20
0.0
 30
0.0
  3
*D5
  1

  0
LINE
  5
74
100
AcDbEntity
  8
0
  6
BYBLOCK
 62
     2
100
AcDbLine
 10
-163.542505
 20
782.140192
 30
0.0
 11
-165.855109
 21
772.123202
 31
0.0
  0
LINE
  5
75
100
AcDbEntity
  8
0
  6
BYBLOCK
 62
     2
100
AcDbLine
 10
-165.861506
 20
782.675575
 30
0.0
 11
-168.17411
 21
772.658586
 31
0.0
  0
LINE
  5
76
100
AcDbEntity
  8
0
  6
BYBLOCK
 62
     2
100
AcDbLine
 10
-165.405207
 20
774.071942
 30
0.0
 11
-167.724208
 21
774.607326
 31
0.0
  0
LINE
  5
77
100
AcDbEntity
  8
0
  6
BYBLOCK
 62
     2
100
AcDbLine
 10
-167.724208
 20
774.607326
 30
0.0
 11
-176.006354
 21
776.51941
 31
0.0
  0
INSERT
  5
78
100
AcDbEntity
  8
0
  6
BYBLOCK
 62
     2
100
AcDbBlockReference
  2
_DOTSMALL
 10
-165.405207
 20
774.071942
 30
0.0
 50
347.0
  0
INSERT
  5
79
100
AcDbEntity
  8
0
  6
BYBLOCK
 62
     2
100
AcDbBlockReference
  2
_DOTSMALL
 10
-167.724208
 20
774.607326
 30
0.0
 50
167.0
  0
MTEXT
  5
7A
100
AcDbEntity
  8
0
  6
BYBLOCK
 62
     2
100
AcDbMText
 10
-171.958801
 20
777.380991
 30
0.0
 40
1.5
 41
0.0
 71
     5
 72
     1
  1
\A1;2.38
 11
0.97437
 21
-0.224951
 31
0.0
  0
POINT
  5
7B
100
AcDbEntity
  8
DEFPOINTS
  6
BYBLOCK
 62
     0
100
AcDbPoint
 10
-163.317554
 20
783.114562
 30
0.0
  0
POINT
  5
7C
100
AcDbEntity
  8
DEFPOINTS
  6
BYBLOCK
 62
     0
100
AcDbPoint
 10
-165.636555
 20
783.649945
 30
0.0
  0
POINT
  5
7D
100
AcDbEntity
  8
DEFPOINTS
  6
BYBLOCK
 62
     0
100
AcDbPoint
 10
-167.724208
 20
774.607326
 30
0.0
  0
ENDBLK
  5
7F
100
AcDbEntity
  8
0
100
AcDbBlockEnd
  0
BLOCK
  5
D0
100
AcDbEntity
  8
0
100
AcDbBlockBegin
  2
*D6
 70
     1
 10
0.0
 20
0.0
 30
0.0
  3
*D6
  1

  0
LINE
  5
C7
100
AcDbEntity
  8
0
  6
BYBLOCK
 62
     1
100
AcDbLine
 10
-133.140118
 20
639.893281
 30
0.0
 11
-143.765009
 21
639.893281
 31
0.0
  0
LINE
  5
C8
100
AcDbEntity
  8
0
  6
BYBLOCK
 62
     1
100
AcDbLine
 10
-133.140118
 20
633.893173
 30
0.0
 11
-143.765009
 21
633.893173
 31
0.0
  0
LINE
  5
C9
100
AcDbEntity
  8
0
  6
BYBLOCK
 62
     1
100
AcDbLine
 10
-141.765009
 20
637.893281
 30
0.0
 11
-141.765009
 21
635.893173
 31
0.0
  0
INSERT
  5
CA
100
AcDbEntity
  8
0
  6
BYBLOCK
 62
     1
100
AcDbBlockReference
  2
_OPEN30
 10
-141.765009
 20
639.893281
 30
0.0
 41
2.0
 42
2.0
 43
2.0
 50
90.0
  0
INSERT
  5
CB
100
AcDbEntity
  8
0
  6
BYBLOCK
 62
     1
100
AcDbBlockReference
  2
_OPEN30
 10
-141.765009
 20
633.893173
 30
0.0
 41
2.0
 42
2.0
 43
2.0
 50
270.0
  0
MTEXT
  5
CC
100
AcDbEntity
  8
0
  6
BYBLOCK
 62
     3
100
AcDbMText
 10
-144.265009
 20
636.893227
 30
0.0
 40
3.0
 41
0.0
 71
     5
 72
     1
  1
\A1;6
 11
0.0
 21
1.0
 31
0.0
  0
POINT
  5
CD
100
AcDbEntity
  8
DEFPOINTS
  6
BYBLOCK
 62
     0
100
AcDbPoint
 10
-132.140118
 20
639.893281
 30
0.0
  0
POINT
  5
CE
100
AcDbEntity
  8
DEFPOINTS
  6
BYBLOCK
 62
     0
100
AcDbPoint
 10
-132.140118
 20
633.893173
 30
0.0
  0
POINT
  5
CF
100
AcDbEntity
  8
DEFPOINTS
  6
BYBLOCK
 62
     0
100
AcDbPoint
 10
-141.765009
 20
633.893173
 30
0.0
  0
ENDBLK
  5
D1
100
AcDbEntity
  8
0
100
AcDbBlockEnd
  0
BLOCK
  5
A3
100
AcDbEntity
  8
0
100
AcDbBlockBegin
  2
*D7
 70
     1
 10
0.0
 20
0.0
 30
0.0
  3
*D7
  1

  0
LINE
  5
9A
100
AcDbEntity
  8
0
  6
BYBLOCK
 62
     1
100
AcDbLine
 10
-132.140118
 20
594.45893
 30
0.0
 11
-132.140118
 21
582.699331
 31
0.0
  0
LINE
  5
9B
100
AcDbEntity
  8
0
  6
BYBLOCK
 62
     1
100
AcDbLine
 10
-111.140118
 20
595.329184
 30
0.0
 11
-111.140118
 21
582.699331
 31
0.0
  0
LINE
  5
9C
100
AcDbEntity
  8
0
  6
BYBLOCK
 62
     1
100
AcDbLine
 10
-130.140118
 20
584.699331
 30
0.0
 11
-113.140118
 21
584.699331
 31
0.0
  0
INSERT
  5
9D
100
AcDbEntity
  8
0
  6
BYBLOCK
 62
     1
100
AcDbBlockReference
  2
_OPEN30
 10
-132.140118
 20
584.699331
 30
0.0
 41
2.0
 42
2.0
 43
2.0
 50
180.0
  0
INSERT
  5
9E
100
AcDbEntity
  8
0
  6
BYBLOCK
 62
     1
100
AcDbBlockReference
  2
_OPEN30
 10
-111.140118
 20
584.699331
 30
0.0
 41
2.0
 42
2.0
 43
2.0
  0
MTEXT
  5
9F
100
AcDbEntity
  8
0
  6
BYBLOCK
 62
     3
100
AcDbMText
 10
-121.640118
 20
587.199331
 30
0.0
 40
3.0
 41
0.0
 71
     5
 72
     1
  1
\A1;21
  0
POINT
  5
A0
100
AcDbEntity
  8
DEFPOINTS
  6
BYBLOCK
 62
     0
100
AcDbPoint
 10
-132.140118
 20
595.45893
 30
0.0
  0
POINT
  5
A1
100
AcDbEntity
  8
DEFPOINTS
  6
BYBLOCK
 62
     0
100
AcDbPoint
 10
-111.140118
 20
596.329184
 30
0.0
  0
POINT
  5
A2
100
AcDbEntity
  8
DEFPOINTS
  6
BYBLOCK
 62
     0
100
AcDbPoint
 10
-111.140118
 20
584.699331
 30
0.0
  0
ENDBLK
  5
A4
100
AcDbEntity
  8
0
100
AcDbBlockEnd
  0
BLOCK
  5
FC
100
AcDbEntity
  8
0
100
AcDbBlockBegin
  2
*D8
 70
     1
 10
0.0
 20
0.0
 30
0.0
  3
*D8
  1

  0
LINE
  5
F1
100
AcDbEntity
  8
0
  6
BYBLOCK
 62
     2
100
AcDbLine
 10
-171.138166
 20
639.243281
 30
0.0
 11
-177.056986
 21
639.243281
 31
0.0
  0
LINE
  5
F2
100
AcDbEntity
  8
0
  6
BYBLOCK
 62
     2
100
AcDbLine
 10
-171.138166
 20
639.893281
 30
0.0
 11
-177.056986
 21
639.893281
 31
0.0
  0
LINE
  5
F3
100
AcDbEntity
  8
0
  6
BYBLOCK
 62
     2
100
AcDbLine
 10
-175.056986
 20
639.243281
 30
0.0
 11
-175.056986
 21
638.243281
 31
0.0
  0
LINE
  5
F4
100
AcDbEntity
  8
0
  6
BYBLOCK
 62
     2
100
AcDbLine
 10
-175.056986
 20
639.893281
 30
0.0
 11
-175.056986
 21
649.393281
 31
0.0
  0
LINE
  5
F5
100
AcDbEntity
  8
0
  6
BYBLOCK
 62
     2
100
AcDbLine
 10
-175.056986
 20
639.243281
 30
0.0
 11
-175.056986
 21
639.893281
 31
0.0
  0
INSERT
  5
F6
100
AcDbEntity
  8
0
  6
BYBLOCK
 62
     2
100
AcDbBlockReference
  2
_DOTSMALL
 10
-175.056986
 20
639.243281
 30
0.0
 50
90.0
  0
INSERT
  5
F7
100
AcDbEntity
  8
0
  6
BYBLOCK
 62
     2
100
AcDbBlockReference
  2
_DOTSMALL
 10
-175.056986
 20
639.893281
 30
0.0
 50
270.0
  0
MTEXT
  5
F8
100
AcDbEntity
  8
0
  6
BYBLOCK
 62
     2
100
AcDbMText
 10
-176.806986
 20
645.643281
 30
0.0
 40
1.5
 41
0.0
 71
     5
 72
     1
  1
\A1;0.65
 11
0.0
 21
1.0
 31
0.0
  0
POINT
  5
F9
100
AcDbEntity
  8
DEFPOINTS
  6
BYBLOCK
 62
     0
100
AcDbPoint
 10
-170.138166
 20
639.243281
 30
0.0
  0
POINT
  5
FA
100
AcDbEntity
  8
DEFPOINTS
  6
BYBLOCK
 62
     0
100
AcDbPoint
 10
-170.138166
 20
639.893281
 30
0.0
  0
POINT
  5
FB
100
AcDbEntity
  8
DEFPOINTS
  6
BYBLOCK
 62
     0
100
AcDbPoint
 10
-175.056986
 20
639.893281
 30
0.0
  0
ENDBLK
  5
FD
100
AcDbEntity
  8
0
100
AcDbBlockEnd
  0
BLOCK
  5
118
100
AcDbEntity
  8
0
100
AcDbBlockBegin
  2
*D9
 70
     1
 10
0.0
 20
0.0
 30
0.0
  3
*D9
  1

  0
LINE
  5
10B
100
AcDbEntity
  8
0
  6
BYBLOCK
 62
     2
100
AcDbLine
 10
-131.526923
 20
626.115397
 30
0.0
 11
-129.503968
 21
649.237885
 31
0.0
  0
LINE
  5
10C
100
AcDbEntity
  8
0
  6
BYBLOCK
 62
     2
100
AcDbLine
 10
-132.140118
 20
620.685144
 30
0.0
 11
-132.140118
 21
649.352982
 31
0.0
  0
ARC
  5
10D
100
AcDbEntity
  8
0
  6
BYBLOCK
 62
     2
100
AcDbCircle
 10
-132.140118
 20
619.106545
 30
0.0
 40
28.246437
100
AcDbArc
 50
82.971469
 51
85.0
  0
LINE
  5
10E
100
AcDbEntity
  8
0
  6
BYBLOCK
 62
     2
100
AcDbLine
 10
-128.683783
 20
647.140719
 30
0.0
 11
-123.423611
 21
646.492192
 31
0.0
  0
ARC
  5
10F
100
AcDbEntity
  8
0
  6
BYBLOCK
 62
     2
100
AcDbCircle
 10
-132.140118
 20
619.106545
 30
0.0
 40
28.246437
100
AcDbArc
 50
85.0
 51
90.0
  0
INSERT
  5
110
100
AcDbEntity
  8
0
  6
BYBLOCK
 62
     2
100
AcDbBlockReference
  2
_DOTSMALL
 10
-129.678279
 20
647.245495
 30
0.0
 50
355.0
  0
INSERT
  5
111
100
AcDbEntity
  8
0
  6
BYBLOCK
 62
     2
100
AcDbBlockReference
  2
_DOTSMALL
 10
-132.140118
 20
647.352982
 30
0.0
 50
180.0
  0
MTEXT
  5
112
100
AcDbEntity
  8
0
  6
BYBLOCK
 62
     2
100
AcDbMText
 10
-125.839561
 20
648.553305
 30
0.0
 40
1.5
 41
0.0
 71
     5
 72
     1
  1
\A1;5°
 11
0.992485
 21
-0.122364
 31
0.0
  0
POINT
  5
113
100
AcDbEntity
  8
DEFPOINTS
  6
BYBLOCK
 62
     0
100
AcDbPoint
 10
-131.318579
 20
647.341032
 30
0.0
  0
POINT
  5
114
100
AcDbEntity
  8
DEFPOINTS
  6
BYBLOCK
 62
     0
100
AcDbPoint
 10
-132.140118
 20
619.106545
 30
0.0
  0
POINT
  5
115
100
AcDbEntity
  8
DEFPOINTS
  6
BYBLOCK
 62
     0
100
AcDbPoint
 10
-131.614079
 20
625.119203
 30
0.0
  0
POINT
  5
116
100
AcDbEntity
  8
DEFPOINTS
  6
BYBLOCK
 62
     0
100
AcDbPoint
 10
-132.138963
 20
619.119747
 30
0.0
  0
POINT
  5
117
100
AcDbEntity
  8
DEFPOINTS
  6
BYBLOCK
 62
     0
100
AcDbPoint
 10
-132.140118
 20
619.685144
 30
0.0
  0
ENDBLK
  5
119
100
AcDbEntity
  8
0
100
AcDbBlockEnd
  0
BLOCK
  5
DA
100
AcDbEntity
  8
0
100
AcDbBlockBegin
  2
*D10
 70
     1
 10
0.0
 20
0.0
 30
0.0
  3
*D10
  1

  0
LINE
  5
D4
100
AcDbEntity
  8
0
  6
BYBLOCK
 62
     2
100
AcDbLine
 10
-149.892292
 20
655.972872
 30
0.0
 11
-131.540335
 21
639.227618
 31
0.0
  0
MTEXT
  5
D5
100
AcDbEntity
  8
0
  6
BYBLOCK
 62
     2
100
AcDbMText
 10
-145.9426
 20
654.737989
 30
0.0
 40
1.5
 41
0.0
 71
     5
 72
     1
  1
\A1;R0.4
 11
0.738704
 21
-0.67403
 31
0.0
  0
LINE
  5
D6
100
AcDbEntity
  8
0
  6
BYBLOCK
 62
     2
100
AcDbLine
 10
-131.244854
 20
638.958006
 30
0.0
 11
-131.540335
 21
639.227618
 31
0.0
  0
INSERT
  5
D7
100
AcDbEntity
  8
0
  6
BYBLOCK
 62
     2
100
AcDbBlockReference
  2
_DOTSMALL
 10
-131.540335
 20
639.227618
 30
0.0
 50
317.621094
  0
POINT
  5
D8
100
AcDbEntity
  8
DEFPOINTS
  6
BYBLOCK
 62
     0
100
AcDbPoint
 10
-131.540335
 20
639.227618
 30
0.0
  0
POINT
  5
D9
100
AcDbEntity
  8
DEFPOINTS
  6
BYBLOCK
 62
     0
100
AcDbPoint
 10
-131.244854
 20
638.958006
 30
0.0
  0
ENDBLK
  5
DB
100
AcDbEntity
  8
0
100
AcDbBlockEnd
  0
BLOCK
  5
E8
100
AcDbEntity
  8
0
100
AcDbBlockBegin
  2
*D11
 70
     1
 10
0.0
 20
0.0
 30
0.0
  3
*D11
  1

  0
LINE
  5
DE
100
AcDbEntity
  8
0
  6
BYBLOCK
 62
     2
100
AcDbLine
 10
-133.140118
 20
625.685252
 30
0.0
 11
-143.790012
 21
625.685252
 31
0.0
  0
LINE
  5
DF
100
AcDbEntity
  8
0
  6
BYBLOCK
 62
     2
100
AcDbLine
 10
-133.140118
 20
627.685252
 30
0.0
 11
-143.790012
 21
627.685252
 31
0.0
  0
LINE
  5
E0
100
AcDbEntity
  8
0
  6
BYBLOCK
 62
     2
100
AcDbLine
 10
-141.790012
 20
625.685252
 30
0.0
 11
-141.790012
 21
627.685252
 31
0.0
  0
LINE
  5
E1
100
AcDbEntity
  8
0
  6
BYBLOCK
 62
     2
100
AcDbLine
 10
-141.790012
 20
627.685252
 30
0.0
 11
-141.790012
 21
631.685252
 31
0.0
  0
INSERT
  5
E2
100
AcDbEntity
  8
0
  6
BYBLOCK
 62
     2
100
AcDbBlockReference
  2
_DOTSMALL
 10
-141.790012
 20
625.685252
 30
0.0
 50
270.0
  0
INSERT
  5
E3
100
AcDbEntity
  8
0
  6
BYBLOCK
 62
     2
100
AcDbBlockReference
  2
_DOTSMALL
 10
-141.790012
 20
627.685252
 30
0.0
 50
90.0
  0
MTEXT
  5
E4
100
AcDbEntity
  8
0
  6
BYBLOCK
 62
     2
100
AcDbMText
 10
-143.540012
 20
630.185252
 30
0.0
 40
1.5
 41
0.0
 71
     5
 72
     1
  1
\A1;2
 11
0.0
 21
1.0
 31
0.0
  0
POINT
  5
E5
100
AcDbEntity
  8
DEFPOINTS
  6
BYBLOCK
 62
     0
100
AcDbPoint
 10
-132.140118
 20
625.685252
 30
0.0
  0
POINT
  5
E6
100
AcDbEntity
  8
DEFPOINTS
  6
BYBLOCK
 62
     0
100
AcDbPoint
 10
-132.140118
 20
627.685252
 30
0.0
  0
POINT
  5
E7
100
AcDbEntity
  8
DEFPOINTS
  6
BYBLOCK
 62
     0
100
AcDbPoint
 10
-141.790012
 20
627.685252
 30
0.0
  0
ENDBLK
  5
E9
100
AcDbEntity
  8
0
100
AcDbBlockEnd
  0
BLOCK
  5
135
100
AcDbEntity
  8
0
100
AcDbBlockBegin
  2
*D12
 70
     1
 10
0.0
 20
0.0
 30
0.0
  3
*D12
  1

  0
LINE
  5
12A
100
AcDbEntity
  8
0
  6
BYBLOCK
 62
     2
100
AcDbLine
 10
-124.207123
 20
645.065899
 30
0.0
 11
-119.8749
 21
647.086048
 31
0.0
  0
LINE
  5
12B
100
AcDbEntity
  8
0
  6
BYBLOCK
 62
     2
100
AcDbLine
 10
-131.536963
 20
642.603492
 30
0.0
 11
-130.494247
 21
654.521795
 31
0.0
  0
ARC
  5
12C
100
AcDbEntity
  8
0
  6
BYBLOCK
 62
     2
100
AcDbCircle
 10
-131.624119
 20
641.607297
 30
0.0
 40
10.963829
100
AcDbArc
 50
25.0
 51
85.0
  0
INSERT
  5
12D
100
AcDbEntity
  8
0
  6
BYBLOCK
 62
     2
100
AcDbBlockReference
  2
_DOTSMALL
 10
-121.687515
 20
646.240811
 30
0.0
 50
295.0
  0
INSERT
  5
12E
100
AcDbEntity
  8
0
  6
BYBLOCK
 62
     2
100
AcDbBlockReference
  2
_DOTSMALL
 10
-130.668558
 20
652.529405
 30
0.0
 50
175.0
  0
MTEXT
  5
12F
100
AcDbEntity
  8
0
  6
BYBLOCK
 62
     2
100
AcDbMText
 10
-124.331766
 20
652.021856
 30
0.0
 40
1.5
 41
0.0
 71
     5
 72
     1
  1
\A1;60°
 11
0.819152
 21
-0.573576
 31
0.0
  0
POINT
  5
130
100
AcDbEntity
  8
DEFPOINTS
  6
BYBLOCK
 62
     0
100
AcDbPoint
 10
-123.871521
 20
649.359895
 30
0.0
  0
POINT
  5
131
100
AcDbEntity
  8
DEFPOINTS
  6
BYBLOCK
 62
     0
100
AcDbPoint
 10
-125.113431
 20
644.643281
 30
0.0
  0
POINT
  5
132
100
AcDbEntity
  8
DEFPOINTS
  6
BYBLOCK
 62
     0
100
AcDbPoint
 10
-131.624119
 20
641.607297
 30
0.0
  0
POINT
  5
133
100
AcDbEntity
  8
DEFPOINTS
  6
BYBLOCK
 62
     0
100
AcDbPoint
 10
-132.410118
 20
632.623281
 30
0.0
  0
POINT
  5
134
100
AcDbEntity
  8
DEFPOINTS
  6
BYBLOCK
 62
     0
100
AcDbPoint
 10
-131.624119
 20
641.607297
 30
0.0
  0
ENDBLK
  5
136
100
AcDbEntity
  8
0
100
AcDbBlockEnd
  0
BLOCK
  5
8F
100
AcDbEntity
  8
0
100
AcDbBlockBegin
  2
*D13
 70
     1
 10
0.0
 20
0.0
 30
0.0
  3
*D13
  1

  0
LINE
  5
82
100
AcDbEntity
  8
0
  6
BYBLOCK
 62
     2
100
AcDbLine
 10
-124.344412
 20
582.020426
 30
0.0
 11
-146.914016
 21
582.020426
 31
0.0
  0
LINE
  5
83
100
AcDbEntity
  8
0
  6
BYBLOCK
 62
     2
100
AcDbLine
 10
-133.476313
 20
581.134
 30
0.0
 11
-146.824326
 21
579.9662
 31
0.0
  0
ARC
  5
84
100
AcDbEntity
  8
0
  6
BYBLOCK
 62
     2
100
AcDbCircle
 10
-123.344412
 20
582.020426
 30
0.0
 40
21.569603
100
AcDbArc
 50
177.343442
 51
180.0
  0
LINE
  5
85
100
AcDbEntity
  8
0
  6
BYBLOCK
 62
     2
100
AcDbLine
 10
-144.890835
 20
583.020157
 30
0.0
 11
-144.645185
 21
588.314461
 31
0.0
  0
ARC
  5
86
100
AcDbEntity
  8
0
  6
BYBLOCK
 62
     2
100
AcDbCircle
 10
-123.344412
 20
582.020426
 30
0.0
 40
21.569603
100
AcDbArc
 50
180.0
 51
185.0
  0
INSERT
  5
87
100
AcDbEntity
  8
0
  6
BYBLOCK
 62
     2
100
AcDbBlockReference
  2
_DOTSMALL
 10
-144.914016
 20
582.020426
 30
0.0
 50
90.0
  0
INSERT
  5
88
100
AcDbEntity
  8
0
  6
BYBLOCK
 62
     2
100
AcDbBlockReference
  2
_DOTSMALL
 10
-144.831937
 20
580.140511
 30
0.0
 50
275.0
  0
MTEXT
  5
89
100
AcDbEntity
  8
0
  6
BYBLOCK
 62
     2
100
AcDbMText
 10
-143.01989
 20
585.586198
 30
0.0
 40
1.5
 41
0.0
 71
     5
 72
     1
  1
\A1;5°
 11
-0.046349
 21
-0.998925
 31
0.0
  0
POINT
  5
8A
100
AcDbEntity
  8
DEFPOINTS
  6
BYBLOCK
 62
     0
100
AcDbPoint
 10
-144.877523
 20
580.766265
 30
0.0
  0
POINT
  5
8B
100
AcDbEntity
  8
DEFPOINTS
  6
BYBLOCK
 62
     0
100
AcDbPoint
 10
-113.257124
 20
582.020426
 30
0.0
  0
POINT
  5
8C
100
AcDbEntity
  8
DEFPOINTS
  6
BYBLOCK
 62
     0
100
AcDbPoint
 10
-123.344412
 20
582.020426
 30
0.0
  0
POINT
  5
8D
100
AcDbEntity
  8
DEFPOINTS
  6
BYBLOCK
 62
     0
100
AcDbPoint
 10
-132.480118
 20
581.221155
 30
0.0
  0
POINT
  5
8E
100
AcDbEntity
  8
DEFPOINTS
  6
BYBLOCK
 62
     0
100
AcDbPoint
 10
-123.344412
 20
582.020426
 30
0.0
  0
ENDBLK
  5
90
100
AcDbEntity
  8
0
100
AcDbBlockEnd
  0
BLOCK
  5
4B
100
AcDbEntity
  8
0
100
AcDbBlockBegin
  2
*D14
 70
     1
 10
0.0
 20
0.0
 30
0.0
  3
*D14
  1

  0
LINE
  5
39
100
AcDbEntity
  8
0
  6
BYBLOCK
 62
     1
100
AcDbLine
 10
-163.525466
 20
632.915133
 30
0.0
 11
-167.253595
 21
615.375663
 31
0.0
  0
LINE
  5
3A
100
AcDbEntity
  8
0
  6
BYBLOCK
 62
     1
100
AcDbLine
 10
-163.317554
 20
627.637581
 30
0.0
 11
-163.317554
 21
614.961968
 31
0.0
  0
ARC
  5
3B
100
AcDbEntity
  8
0
  6
BYBLOCK
 62
     1
100
AcDbCircle
 10
-163.317554
 20
633.893281
 30
0.0
 40
16.931313
100
AcDbArc
 50
244.43227
 51
258.0
  0
LINE
  5
3C
100
AcDbEntity
  8
0
  6
BYBLOCK
 62
     1
100
AcDbLine
 10
-170.624732
 20
618.619954
 30
0.0
 11
-181.08881
 21
623.626256
 31
0.0
  0
ARC
  5
3D
100
AcDbEntity
  8
0
  6
BYBLOCK
 62
     1
100
AcDbCircle
 10
-163.317554
 20
633.893281
 30
0.0
 40
16.931313
100
AcDbArc
 50
244.456067
 51
251.228033
  0
ARC
  5
3E
100
AcDbEntity
  8
0
  6
BYBLOCK
 62
     1
100
AcDbCircle
 10
-163.317554
 20
633.893281
 30
0.0
 40
16.931313
100
AcDbArc
 50
276.771967
 51
283.543933
  0
ARC
  5
3F
100
AcDbEntity
  8
0
  6
BYBLOCK
 62
     1
100
AcDbCircle
 10
-163.317554
 20
633.893281
 30
0.0
 40
16.931313
100
AcDbArc
 50
258.0
 51
270.0
  0
INSERT
  5
40
100
AcDbEntity
  8
0
  6
BYBLOCK
 62
     1
100
AcDbBlockReference
  2
_OPEN30
 10
-166.837772
 20
617.331958
 30
0.0
 41
2.0
 42
2.0
 43
2.0
 50
344.614017
  0
INSERT
  5
41
100
AcDbEntity
  8
0
  6
BYBLOCK
 62
     1
100
AcDbBlockReference
  2
_OPEN30
 10
-163.317554
 20
616.961968
 30
0.0
 41
2.0
 42
2.0
 43
2.0
 50
183.385983
  0
MTEXT
  5
42
100
AcDbEntity
  8
0
  6
BYBLOCK
 62
     3
100
AcDbMText
 10
-174.777827
 20
623.378294
 30
0.0
 40
3.0
 41
0.0
 71
     5
 72
     1
  1
\A1;12°
 11
0.902076
 21
-0.431578
 31
0.0
  0
POINT
  5
43
100
AcDbEntity
  8
DEFPOINTS
  6
BYBLOCK
 62
     0
100
AcDbPoint
 10
-164.498623
 20
617.003212
 30
0.0
  0
POINT
  5
47
100
AcDbEntity
  8
DEFPOINTS
  6
BYBLOCK
 62
     0
100
AcDbPoint
 10
-161.134804
 20
644.162315
 30
0.0
  0
POINT
  5
48
100
AcDbEntity
  8
DEFPOINTS
  6
BYBLOCK
 62
     0
100
AcDbPoint
 10
-163.317554
 20
647.552744
 30
0.0
  0
POINT
  5
49
100
AcDbEntity
  8
DEFPOINTS
  6
BYBLOCK
 62
     0
100
AcDbPoint
 10
-163.317554
 20
628.637581
 30
0.0
  0
POINT
  5
4A
100
AcDbEntity
  8
DEFPOINTS
  6
BYBLOCK
 62
     0
100
AcDbPoint
 10
-163.317554
 20
633.893281
 30
0.0
  0
ENDBLK
  5
4C
100
AcDbEntity
  8
0
100
AcDbBlockEnd
  0
BLOCK
  5
70
100
AcDbEntity
  8
0
100
AcDbBlockBegin
  2
*D15
 70
     1
 10
0.0
 20
0.0
 30
0.0
  3
*D15
  1

  0
LINE
  5
65
100
AcDbEntity
  8
0
  6
BYBLOCK
 62
     2
100
AcDbLine
 10
-163.317554
 20
632.160192
 30
0.0
 11
-163.317554
 21
626.637581
 31
0.0
  0
LINE
  5
66
100
AcDbEntity
  8
0
  6
BYBLOCK
 62
     2
100
AcDbLine
 10
-163.217554
 20
632.160192
 30
0.0
 11
-163.217554
 21
626.637581
 31
0.0
  0
LINE
  5
67
100
AcDbEntity
  8
0
  6
BYBLOCK
 62
     2
100
AcDbLine
 10
-163.317554
 20
628.637581
 30
0.0
 11
-164.317554
 21
628.637581
 31
0.0
  0
LINE
  5
68
100
AcDbEntity
  8
0
  6
BYBLOCK
 62
     2
100
AcDbLine
 10
-163.217554
 20
628.637581
 30
0.0
 11
-155.467554
 21
628.637581
 31
0.0
  0
LINE
  5
69
100
AcDbEntity
  8
0
  6
BYBLOCK
 62
     2
100
AcDbLine
 10
-163.317554
 20
628.637581
 30
0.0
 11
-163.217554
 21
628.637581
 31
0.0
  0
INSERT
  5
6A
100
AcDbEntity
  8
0
  6
BYBLOCK
 62
     2
100
AcDbBlockReference
  2
_DOTSMALL
 10
-163.317554
 20
628.637581
 30
0.0
  0
INSERT
  5
6B
100
AcDbEntity
  8
0
  6
BYBLOCK
 62
     2
100
AcDbBlockReference
  2
_DOTSMALL
 10
-163.217554
 20
628.637581
 30
0.0
 50
180.0
  0
MTEXT
  5
6C
100
AcDbEntity
  8
0
  6
BYBLOCK
 62
     2
100
AcDbMText
 10
-158.342554
 20
630.387581
 30
0.0
 40
1.5
 41
0.0
 71
     5
 72
     1
  1
\A1;0.1
  0
POINT
  5
6D
100
AcDbEntity
  8
DEFPOINTS
  6
BYBLOCK
 62
     0
100
AcDbPoint
 10
-163.317554
 20
633.160192
 30
0.0
  0
POINT
  5
6E
100
AcDbEntity
  8
DEFPOINTS
  6
BYBLOCK
 62
     0
100
AcDbPoint
 10
-163.217554
 20
633.160192
 30
0.0
  0
POINT
  5
6F
100
AcDbEntity
  8
DEFPOINTS
  6
BYBLOCK
 62
     0
100
AcDbPoint
 10
-163.217554
 20
628.637581
 30
0.0
  0
ENDBLK
  5
71
100
AcDbEntity
  8
0
100
AcDbBlockEnd
  0
BLOCK
  5
123
100
AcDbEntity
  8
0
100
AcDbBlockBegin
  2
*D16
 70
     1
 10
0.0
 20
0.0
 30
0.0
  3
*D16
  1

  0
LINE
  5
11C
100
AcDbEntity
  8
0
  6
BYBLOCK
 62
     2
100
AcDbLine
 10
-107.152223
 20
650.004324
 30
0.0
 11
-125.969894
 21
638.974819
 31
0.0
  0
MTEXT
  5
11D
100
AcDbEntity
  8
0
  6
BYBLOCK
 62
     2
100
AcDbMText
 10
-111.91942
 20
649.238599
 30
0.0
 40
1.5
 41
0.0
 71
     5
 72
     1
  1
\A1;\U+22056.35
 11
0.862729
 21
0.505667
 31
0.0
  0
LINE
  5
11E
100
AcDbEntity
  8
0
  6
BYBLOCK
 62
     2
100
AcDbLine
 10
-131.448222
 20
635.763834
 30
0.0
 11
-125.969894
 21
638.974819
 31
0.0
  0
INSERT
  5
11F
100
AcDbEntity
  8
0
  6
BYBLOCK
 62
     2
100
AcDbBlockReference
  2
_DOTSMALL
 10
-131.448222
 20
635.763834
 30
0.0
 50
30.37563
  0
INSERT
  5
120
100
AcDbEntity
  8
0
  6
BYBLOCK
 62
     2
100
AcDbBlockReference
  2
_DOTSMALL
 10
-125.969894
 20
638.974819
 30
0.0
 50
210.37563
  0
POINT
  5
121
100
AcDbEntity
  8
DEFPOINTS
  6
BYBLOCK
 62
     0
100
AcDbPoint
 10
-125.969894
 20
638.974819
 30
0.0
  0
POINT
  5
122
100
AcDbEntity
  8
DEFPOINTS
  6
BYBLOCK
 62
     0
100
AcDbPoint
 10
-131.448222
 20
635.763834
 30
0.0
  0
ENDBLK
  5
124
100
AcDbEntity
  8
0
100
AcDbBlockEnd
  0
BLOCK
  5
C3
100
AcDbEntity
  8
0
100
AcDbBlockBegin
  2
*D17
 70
     1
 10
0.0
 20
0.0
 30
0.0
  3
*D17
  1

  0
LINE
  5
B8
100
AcDbEntity
  8
0
  6
BYBLOCK
 62
     1
100
AcDbLine
 10
-131.556176
 20
626.781035
 30
0.0
 11
-130.363025
 21
640.418819
 31
0.0
  0
LINE
  5
B9
100
AcDbEntity
  8
0
  6
BYBLOCK
 62
     1
100
AcDbLine
 10
-133.176977
 20
619.685252
 30
0.0
 11
-152.989742
 21
619.685252
 31
0.0
  0
ARC
  5
BA
100
AcDbEntity
  8
0
  6
BYBLOCK
 62
     1
100
AcDbCircle
 10
-132.176977
 20
619.685252
 30
0.0
 40
18.812765
100
AcDbArc
 50
91.094032
 51
173.905968
  0
INSERT
  5
BB
100
AcDbEntity
  8
0
  6
BYBLOCK
 62
     1
100
AcDbBlockReference
  2
_OPEN30
 10
-130.537336
 20
638.426429
 30
0.0
 41
2.0
 42
2.0
 43
2.0
 50
358.047016
  0
INSERT
  5
BC
100
AcDbEntity
  8
0
  6
BYBLOCK
 62
     1
100
AcDbBlockReference
  2
_OPEN30
 10
-150.989742
 20
619.685252
 30
0.0
 41
2.0
 42
2.0
 43
2.0
 50
266.952984
  0
MTEXT
  5
BD
100
AcDbEntity
  8
0
  6
BYBLOCK
 62
     3
100
AcDbMText
 10
-146.575672
 20
635.398671
 30
0.0
 40
3.0
 41
0.0
 71
     5
 72
     1
  1
\A1;95°
 11
0.737277
 21
0.67559
 31
0.0
  0
POINT
  5
BE
100
AcDbEntity
  8
DEFPOINTS
  6
BYBLOCK
 62
     0
100
AcDbPoint
 10
-140.62013
 20
636.496953
 30
0.0
 50
0.0
  0
POINT
  5
BF
100
AcDbEntity
  8
DEFPOINTS
  6
BYBLOCK
 62
     0
100
AcDbPoint
 10
-131.726086
 20
619.685252
 30
0.0
 50
0.0
  0
POINT
  5
C0
100
AcDbEntity
  8
DEFPOINTS
  6
BYBLOCK
 62
     0
100
AcDbPoint
 10
-131.643332
 20
625.78484
 30
0.0
 50
0.0
  0
POINT
  5
C1
100
AcDbEntity
  8
DEFPOINTS
  6
BYBLOCK
 62
     0
100
AcDbPoint
 10
-132.138963
 20
620.119747
 30
0.0
 50
0.0
  0
POINT
  5
C2
100
AcDbEntity
  8
DEFPOINTS
  6
BYBLOCK
 62
     0
100
AcDbPoint
 10
-132.140118
 20
619.685252
 30
0.0
 50
0.0
  0
ENDBLK
  5
C4
100
AcDbEntity
  8
0
100
AcDbBlockEnd
  0
BLOCK
  5
193
100
AcDbEntity
  8
0
100
AcDbBlockBegin
  2
4
 70
     0
 10
0.0
 20
0.0
 30
0.0
  3
4
  1

  0
TEXT
  5
2B
100
AcDbEntity
  8
外形
  6
CONTINUOUS
 62
     2
100
AcDbText
 10
67.509107
 20
2.754003
 30
0.0
 40
6.0
  1
S10K-SCLCR06-12
100
AcDbText
  0
DIMENSION
  5
2D
100
AcDbEntity
  8
寸法
  6
CONTINUOUS
100
AcDbDimension
  2
*D14
 10
18.308539
 20
80.069655
 30
0.0
 11
6.848266
 21
69.554669
 31
0.0
 12
181.626093
 22
-553.823625
 32
0.0
 70
     2
  3
STANDARD
100
AcDb2LineAngularDimension
 13
18.308539
 23
93.729118
 33
0.0
 14
18.308539
 24
74.813955
 34
0.0
 15
20.491289
 25
90.338689
 35
0.0
 16
17.12747
 26
63.179586
 36
0.0
1001
ACAD
1000
DSTYLE
1002
{
1070
    40
1040
1.0
1002
}
  0
LINE
  5
4D
100
AcDbEntity
  8
外形
  6
CENTER
 62
     1
100
AcDbLine
 10
46.159831
 20
47.005558
 30
0.0
 11
178.72736
 21
47.005558
 31
0.0
  0
LINE
  5
4F
100
AcDbEntity
  8
外形
  6
CONTINUOUS
100
AcDbLine
 10
70.485975
 20
42.505558
 30
0.0
 11
173.485975
 21
42.505558
 31
0.0
  0
LINE
  5
50
100
AcDbEntity
  8
外形
  6
CONTINUOUS
100
AcDbLine
 10
68.610975
 20
51.505558
 30
0.0
 11
173.485975
 21
51.505558
 31
0.0
  0
DIMENSION
  5
51
100
AcDbEntity
  8
寸法
  6
CONTINUOUS
100
AcDbDimension
  2
*D2
 10
174.485975
 20
59.440927
 30
0.0
 11
111.985975
 21
61.940927
 31
0.0
 12
181.626093
 22
-553.823625
 32
0.0
  3
STANDARD
100
AcDbAlignedDimension
 13
49.485975
 23
80.069655
 33
0.0
 14
174.485975
 24
82.069655
 34
0.0
100
AcDbRotatedDimension
1001
ACAD
1000
DSTYLE
1002
{
1070
    40
1040
1.0
1002
}
  0
LINE
  5
5E
100
AcDbEntity
  8
外形
  6
CENTER
 62
     1
100
AcDbLine
 10
178.72736
 20
86.069655
 30
0.0
 11
49.485975
 21
86.069655
 31
0.0
  0
LINE
  5
5F
100
AcDbEntity
  8
外形
  6
CONTINUOUS
100
AcDbLine
 10
137.985975
 20
91.069655
 30
0.0
 11
68.860975
 21
91.069655
 31
0.0
  0
LINE
  5
60
100
AcDbEntity
  8
外形
  6
CONTINUOUS
100
AcDbLine
 10
137.985975
 20
88.249105
 30
0.0
 11
68.610975
 21
88.249105
 31
0.0
  0
LINE
  5
61
100
AcDbEntity
  8
外形
  6
CONTINUOUS
100
AcDbLine
 10
137.985975
 20
81.069655
 30
0.0
 11
68.860975
 21
81.069655
 31
0.0
  0
LINE
  5
62
100
AcDbEntity
  8
外形
  6
CONTINUOUS
100
AcDbLine
 10
137.985975
 20
83.890206
 30
0.0
 11
68.610975
 21
83.890206
 31
0.0
  0
DIMENSION
  5
63
100
AcDbEntity
  8
参考
  6
CONTINUOUS
100
AcDbDimension
  2
*D15
 10
18.408539
 20
74.813955
 30
0.0
 11
23.283539
 21
76.563955
 31
0.0
 12
181.626093
 22
-553.823625
 32
0.0
  3
参考寸法
100
AcDbAlignedDimension
 13
18.308539
 23
79.336567
 33
0.0
 14
18.408539
 24
79.336567
 34
0.0
100
AcDbRotatedDimension
1001
ACAD
1000
DSTYLE
1002
{
1070
   140
1040
1.5
1070
    41
1040
1.0
1002
}
  0
DIMENSION
  5
72
100
AcDbEntity
  8
参考
  6
CONTINUOUS
100
AcDbDimension
  2
*D5
 10
13.948419
 20
71.783087
 30
0.0
 11
9.713825
 21
74.556752
 31
0.0
 12
181.672627
 22
-702.824239
 32
0.0
 70
     1
  3
参考寸法
100
AcDbAlignedDimension
 13
18.355073
 23
80.290323
 33
0.0
 14
16.036072
 24
80.825706
 34
0.0
1001
ACAD
1000
DSTYLE
1002
{
1070
   140
1040
1.5
1070
    41
1040
1.0
1002
}
  0
DIMENSION
  5
80
100
AcDbEntity
  8
参考
  6
CONTINUOUS
100
AcDbDimension
  2
*D13
 10
58.281681
 20
42.404829
 30
0.0
 11
38.606203
 21
45.970602
 31
0.0
 12
181.626093
 22
-539.615597
 32
0.0
 70
     2
  3
参考寸法
100
AcDb2LineAngularDimension
 13
58.281681
 23
42.404829
 33
0.0
 14
49.145975
 24
41.605558
 34
0.0
 15
68.368969
 25
42.404829
 35
0.0
 16
36.74857
 26
41.150668
 36
0.0
1001
ACAD
1000
DSTYLE
1002
{
1070
   288
1070
     1
1070
   140
1040
1.5
1070
    41
1040
1.0
1002
}
  0
LINE
  5
91
100
AcDbEntity
  8
外形
  6
CONTINUOUS
100
AcDbLine
 10
70.485975
 20
42.505558
 30
0.0
 11
70.485975
 21
51.505558
 31
0.0
  0
LINE
  5
92
100
AcDbEntity
  8
外形
  6
CONTINUOUS
100
AcDbLine
 10
68.610975
 20
51.505558
 30
0.0
 11
68.610975
 21
42.505558
 31
0.0
  0
LINE
  5
93
100
AcDbEntity
  8
外形
  6
CONTINUOUS
100
AcDbLine
 10
68.610975
 20
51.505558
 30
0.0
 11
68.610975
 21
41.855558
 31
0.0
  0
LINE
  5
94
100
AcDbEntity
  8
外形
  6
CONTINUOUS
100
AcDbLine
 10
68.360975
 20
51.755558
 30
0.0
 11
68.360975
 21
42.105558
 31
0.0
  0
LINE
  5
95
100
AcDbEntity
  8
外形
  6
CONTINUOUS
100
AcDbLine
 10
58.281681
 20
47.005558
 30
0.0
 11
58.281681
 21
42.255558
 31
0.0
  0
LINE
  5
96
100
AcDbEntity
  8
外形
  6
CONTINUOUS
100
AcDbLine
 10
49.485975
 20
47.005558
 30
0.0
 11
50.138351
 21
41.69238
 31
0.0
  0
LINE
  5
97
100
AcDbEntity
  8
外形
  6
CONTINUOUS
100
AcDbLine
 10
68.368969
 20
42.255558
 30
0.0
 11
58.281681
 21
42.255558
 31
0.0
  0
DIMENSION
  5
98
100
AcDbEntity
  8
寸法
  6
CONTINUOUS
100
AcDbDimension
  2
*D7
 10
70.485975
 20
30.875706
 30
0.0
 11
59.985975
 21
33.375706
 31
0.0
 12
181.626093
 22
-553.823625
 32
0.0
  3
STANDARD
100
AcDbAlignedDimension
 13
49.485975
 23
41.635305
 33
0.0
 14
70.485975
 24
42.505558
 34
0.0
100
AcDbRotatedDimension
1001
ACAD
1000
DSTYLE
1002
{
1070
    40
1040
1.0
1002
}
  0
LINE
  5
A5
100
AcDbEntity
  8
外形
  6
CONTINUOUS
100
AcDbLine
 10
58.281681
 20
42.404829
 30
0.0
 11
50.138351
 21
41.69238
 31
0.0
  0
LINE
  5
A6
100
AcDbEntity
  8
外形
  6
CONTINUOUS
100
AcDbLine
 10
70.485975
 20
42.505558
 30
0.0
 11
70.485975
 21
42.005558
 31
0.0
  0
LINE
  5
A7
100
AcDbEntity
  8
外形
  6
CONTINUOUS
100
AcDbLine
 10
70.485975
 20
42.505558
 30
0.0
 11
70.485975
 21
41.855558
 31
0.0
  0
LINE
  5
A8
100
AcDbEntity
  8
外形
  6
CONTINUOUS
100
AcDbLine
 10
68.360975
 20
42.105558
 30
0.0
 11
68.610975
 21
41.855558
 31
0.0
  0
LINE
  5
A9
100
AcDbEntity
  8
外形
  6
CONTINUOUS
100
AcDbLine
 10
70.485975
 20
41.855558
 30
0.0
 11
68.610975
 21
41.855558
 31
0.0
  0
LINE
  5
AA
100
AcDbEntity
  8
外形
  6
CONTINUOUS
100
AcDbLine
 10
61.485975
 20
42.255558
 30
0.0
 11
68.360975
 21
42.255558
 31
0.0
  0
SPLINE
  5
AB
100
AcDbEntity
  8
外形
  6
CONTINUOUS
100
AcDbSpline
210
0.0
220
0.0
230
-1.0
 70
     8
 71
     3
 72
    10
 73
     6
 74
     4
 42
0.0000001
 43
0.0000001
 44
0.0000000001
 40
0.0
 40
0.0
 40
0.0
 40
0.0
 40
5.039786751347351
 40
10.72395326214038
 40
15.51512308184992
 40
15.51512308184992
 40
15.51512308184992
 40
15.51512308184992
 10
49.72077483368218
 20
47.50558358518685
 30
0.0
 10
51.37978327087099
 20
47.83370929366728
 30
0.0
 10
54.90991853644606
 20
48.53191438357711
 30
0.0
 10
59.28947246747066
 20
51.69028663018284
 30
0.0
 10
62.85512840832048
 20
51.73507382222013
 30
0.0
 10
64.48597467351605
 20
51.7555584191847
 30
0.0
 11
49.72077483368218
 21
47.50558358518685
 31
0.0
 11
54.58670474172992
 21
48.8179008597142
 31
0.0
 11
59.72077483368211
 21
51.2573830206129
 31
0.0
 11
64.48597467351605
 21
51.7555584191847
 31
0.0
  0
SPLINE
  5
AC
100
AcDbEntity
  8
外形
  6
CONTINUOUS
100
AcDbSpline
210
0.0
220
0.0
230
1.0
 70
     8
 71
     3
 72
    10
 73
     6
 74
     0
 42
0.0000001
 43
0.0000001
 40
13.89981797992278
 40
13.89981797992278
 40
13.89981797992278
 40
13.89981797992278
 40
16.4739693930951
 40
18.79214044533354
 40
18.99658082466461
 40
18.99658082466461
 40
18.99658082466461
 40
18.99658082466461
 10
64.48597467351605
 20
51.7555584191847
 30
0.0
 10
61.94175815999749
 20
48.81057004038007
 30
0.0
 10
59.55878949259242
 20
47.62863374749213
 30
0.0
 10
59.70691857549461
 20
47.30328975182078
 30
0.0
 10
58.3945103832402
 20
47.01475097426828
 30
0.0
 10
58.28168067951333
 20
47.00555841918469
 30
0.0
  0
LINE
  5
AD
100
AcDbEntity
  8
外形
  6
CONTINUOUS
100
AcDbLine
 10
55.821997
 20
47.005558
 30
0.0
 11
58.281681
 21
47.005558
 31
0.0
  0
LINE
  5
AE
100
AcDbEntity
  8
外形
  6
CONTINUOUS
100
AcDbLine
 10
49.778202
 20
44.625558
 30
0.0
 11
55.52977
 21
44.625558
 31
0.0
  0
LINE
  5
AF
100
AcDbEntity
  8
外形
  6
CONTINUOUS
100
AcDbLine
 10
55.821997
 20
47.005558
 30
0.0
 11
55.531948
 21
44.643299
 31
0.0
  0
LINE
  5
B0
100
AcDbEntity
  8
外形
  6
CONTINUOUS
100
AcDbLine
 10
49.485975
 20
47.005558
 30
0.0
 11
55.821997
 21
47.005558
 31
0.0
  0
LINE
  5
B1
100
AcDbEntity
  8
外形
  6
CONTINUOUS
100
AcDbLine
 10
49.720775
 20
47.505584
 30
0.0
 11
49.720775
 21
47.005558
 31
0.0
  0
LINE
  5
B2
100
AcDbEntity
  8
外形
  6
CONTINUOUS
100
AcDbLine
 10
68.360975
 20
51.755558
 30
0.0
 11
68.610975
 21
51.505558
 31
0.0
  0
LINE
  5
B3
100
AcDbEntity
  8
外形
  6
CONTINUOUS
100
AcDbLine
 10
68.360975
 20
51.755558
 30
0.0
 11
64.485975
 21
51.755558
 31
0.0
  0
LEADER
  5
B4
100
AcDbEntity
  8
寸法
  6
CONTINUOUS
 62
     1
100
AcDbLeader
  3
STANDARD
 73
     0
 74
     0
 75
     1
 40
3.0
 41
26.0
 76
     3
 10
22.113256
 20
90.709065
 30
0.0
 10
30.080581
 20
109.205977
 30
0.0
 10
32.080581
 20
109.205977
 30
0.0
 77
   256
340
B5
213
-0.1129475379637483
223
0.5510341987360618
233
0.0
1001
ACAD
1000
DSTYLE
1002
{
1070
   284
1070
    13
1070
   146
1040
0.5
1070
   272
1070
     3
1070
    40
1040
1.0
1070
   287
1070
     0
1002
}
  0
DIMENSION
  5
B6
100
AcDbEntity
  8
寸法
  6
CONTINUOUS
 62
     3
100
AcDbDimension
  2
*D17
 10
49.485975
 20
80.069655
 30
0.0
 11
35.050421
 21
95.783074
 31
0.0
 12
181.626093
 22
-539.615597
 32
0.0
 70
     2
 51
0.0
  3
STANDARD
100
AcDb2LineAngularDimension
 13
49.982761
 23
86.169243
 33
0.0
 14
49.48713
 24
80.504151
 34
0.0
 15
49.900007
 25
80.069655
 35
0.0
 16
41.005963
 26
96.881356
 36
0.0
1001
ACAD
1000
DSTYLE
1002
{
1070
    40
1040
1.0
1002
}
  0
DIMENSION
  5
C5
100
AcDbEntity
  8
寸法
  6
CONTINUOUS
100
AcDbDimension
  2
*D6
 10
39.861084
 20
80.069548
 30
0.0
 11
37.361084
 21
83.069601
 31
0.0
 12
181.626093
 22
-553.823625
 32
0.0
  3
STANDARD
100
AcDbAlignedDimension
 13
49.485975
 23
86.069655
 33
0.0
 14
49.485975
 24
80.069548
 34
0.0
 50
90.0
100
AcDbRotatedDimension
1001
ACAD
1000
DSTYLE
1002
{
1070
   284
1070
    13
1070
   146
1040
0.5
1070
   272
1070
     3
1070
    40
1040
1.0
1070
   287
1070
     0
1002
}
  0
DIMENSION
  5
D2
100
AcDbEntity
  8
参考
  6
CONTINUOUS
100
AcDbDimension
  2
*D10
 10
50.381239
 20
85.134381
 30
0.0
 11
34.503939
 21
99.621632
 31
0.0
 12
181.626093
 22
-553.823625
 32
0.0
 70
   132
  3
参考寸法
100
AcDbRadialDimension
 15
50.085758
 25
85.403993
 35
0.0
 40
0.0
1001
ACAD
1000
DSTYLE
1002
{
1070
   140
1040
1.5
1070
    41
1040
1.0
1002
}
  0
DIMENSION
  5
DC
100
AcDbEntity
  8
参考
  6
CONTINUOUS
100
AcDbDimension
  2
*D11
 10
39.836081
 20
88.069655
 30
0.0
 11
38.086081
 21
90.569655
 31
0.0
 12
181.626093
 22
-539.615597
 32
0.0
  3
参考寸法
100
AcDbAlignedDimension
 13
49.485975
 23
86.069655
 33
0.0
 14
49.485975
 24
88.069655
 34
0.0
 50
90.0
100
AcDbRotatedDimension
1001
ACAD
1000
DSTYLE
1002
{
1070
   288
1070
     1
1070
   140
1040
1.5
1070
    41
1040
1.0
1002
}
  0
MTEXT
  5
B5
102
{ACAD_REACTORS
330
B4
102
}
100
AcDbEntity
  8
寸法
  6
CONTINUOUS
 62
     3
100
AcDbMText
 10
33.193529
 20
111.154943
 30
0.0
 40
3.0
 41
0.0
 71
     4
 72
     1
  1
%%c12最小加工径
  0
CIRCLE
  5
EA
100
AcDbEntity
  8
外形
  6
CENTER
 62
     1
100
AcDbCircle
 10
18.308539
 20
86.069655
 30
0.0
 40
6.0
  0
ARC
  5
EB
100
AcDbEntity
  8
外形
  6
CONTINUOUS
100
AcDbCircle
 10
18.408539
 20
86.069655
 30
0.0
 40
4.75
100
AcDbArc
 50
22.132391
 51
91.206316
  0
ARC
  5
EC
100
AcDbEntity
  8
外形
  6
CONTINUOUS
100
AcDbCircle
 10
18.408539
 20
85.419655
 30
0.0
 40
5.4
100
AcDbArc
 50
91.061094
 51
180.0
  0
LINE
  5
ED
100
AcDbEntity
  8
外形
  6
CENTER
 62
     1
100
AcDbLine
 10
18.408539
 20
92.966879
 30
0.0
 11
18.408539
 21
79.336567
 31
0.0
  0
LINE
  5
EE
100
AcDbEntity
  8
外形
  6
CENTER
 62
     1
100
AcDbLine
 10
18.308539
 20
92.966879
 30
0.0
 11
18.308539
 21
79.336567
 31
0.0
  0
DIMENSION
  5
EF
100
AcDbEntity
  8
参考
  6
CONTINUOUS
100
AcDbDimension
  2
*D8
 10
6.569107
 20
86.069655
 30
0.0
 11
4.819107
 21
91.819655
 31
0.0
 12
181.626093
 22
-553.823625
 32
0.0
  3
参考寸法
100
AcDbAlignedDimension
 13
11.487927
 23
85.419655
 33
0.0
 14
11.487927
 24
86.069655
 34
0.0
 50
90.0
100
AcDbRotatedDimension
1001
ACAD
1000
DSTYLE
1002
{
1070
   140
1040
1.5
1070
    41
1040
1.0
1002
}
  0
ARC
  5
FE
100
AcDbEntity
  8
外形
  6
CONTINUOUS
100
AcDbCircle
 10
18.308539
 20
86.069655
 30
0.0
 40
5.353079
100
AcDbArc
 50
186.974376
 51
245.785857
  0
LINE
  5
FF
100
AcDbEntity
  8
外形
  6
CONTINUOUS
100
AcDbLine
 10
20.008991
 20
88.069655
 30
0.0
 11
13.703488
 21
88.069655
 31
0.0
  0
LINE
  5
100
100
AcDbEntity
  8
外形
  6
CENTER
 62
     1
100
AcDbLine
 10
25.397429
 20
86.069655
 30
0.0
 11
11.487927
 21
86.069655
 31
0.0
  0
LINE
  5
101
100
AcDbEntity
  8
参考
  6
CENTER
 62
     1
100
AcDbLine
 10
25.397429
 20
85.419655
 30
0.0
 11
11.487927
 21
85.419655
 31
0.0
  0
ARC
  5
102
100
AcDbEntity
  8
外形
  6
CONTINUOUS
100
AcDbCircle
 10
22.110857
 20
88.338689
 30
0.0
 40
2.0
100
AcDbArc
 50
122.469962
 51
168.0
  0
LINE
  5
103
100
AcDbEntity
  8
外形
  6
CONTINUOUS
100
AcDbLine
 10
22.808539
 20
83.890206
 30
0.0
 11
22.808539
 21
87.824393
 31
0.0
  0
LINE
  5
104
100
AcDbEntity
  8
外形
  6
CONTINUOUS
100
AcDbLine
 10
17.292693
 20
86.737646
 30
0.0
 11
16.036072
 21
80.825706
 31
0.0
  0
LINE
  5
105
100
AcDbEntity
  8
外形
  6
CONTINUOUS
100
AcDbLine
 10
18.308539
 20
80.069655
 30
0.0
 11
16.041305
 21
80.850326
 31
0.0
  0
LINE
  5
106
100
AcDbEntity
  8
外形
  6
CONTINUOUS
100
AcDbLine
 10
20.154562
 20
88.754513
 30
0.0
 11
18.308539
 21
80.069655
 31
0.0
  0
LINE
  5
107
100
AcDbEntity
  8
外形
  6
CONTINUOUS
100
AcDbLine
 10
19.681442
 20
86.528658
 30
0.0
 11
17.292693
 21
86.737646
 31
0.0
  0
ARC
  5
108
100
AcDbEntity
  8
外形
  6
CONTINUOUS
100
AcDbCircle
 10
18.308539
 20
86.069655
 30
0.0
 40
5.0
100
AcDbArc
 50
272.447573
 51
334.158067
  0
DIMENSION
  5
109
100
AcDbEntity
  8
参考
  6
CONTINUOUS
100
AcDbDimension
  2
*D9
 10
49.485975
 20
80.069548
 30
0.0
 11
55.786532
 21
108.937708
 31
0.0
 12
181.626093
 22
-539.615597
 32
0.0
 70
     2
  3
参考寸法
100
AcDb2LineAngularDimension
 13
50.012014
 23
85.503606
 33
0.0
 14
49.48713
 24
79.504151
 34
0.0
 15
49.485975
 25
79.490948
 35
0.0
 16
50.307514
 26
107.725435
 36
0.0
1001
ACAD
1000
DSTYLE
1002
{
1070
   288
1070
     1
1070
   140
1040
1.5
1070
    41
1040
1.0
1002
}
  0
DIMENSION
  5
11A
100
AcDbEntity
  8
参考
  6
CONTINUOUS
100
AcDbDimension
  2
*D16
 10
50.177871
 20
81.940209
 30
0.0
 11
70.59159
 21
93.905198
 31
0.0
 12
181.626093
 22
-553.823625
 32
0.0
 70
   131
  3
参考寸法
100
AcDbDiametricDimension
 15
55.656199
 25
85.151193
 35
0.0
 40
0.0
1001
ACAD
1000
DSTYLE
1002
{
1070
   288
1070
     1
1070
   140
1040
1.5
1070
    41
1040
1.0
1002
}
  0
LINE
  5
125
100
AcDbEntity
  8
外形
  6
CONTINUOUS
100
AcDbLine
 10
68.610975
 20
90.819655
 30
0.0
 11
68.610975
 21
87.590346
 31
0.0
  0
LINE
  5
126
100
AcDbEntity
  8
外形
  6
CONTINUOUS
100
AcDbLine
 10
68.860975
 20
91.069655
 30
0.0
 11
68.860975
 21
88.249105
 31
0.0
  0
LINE
  5
127
100
AcDbEntity
  8
外形
  6
CONTINUOUS
100
AcDbLine
 10
55.773024
 20
90.819655
 30
0.0
 11
50.160654
 21
88.202564
 31
0.0
  0
DIMENSION
  5
128
100
AcDbEntity
  8
参考
  6
CONTINUOUS
100
AcDbDimension
  2
*D12
 10
50.001974
 20
87.783672
 30
0.0
 11
57.294327
 21
98.198231
 31
0.0
 12
181.626093
 22
-553.823625
 32
0.0
 70
     2
  3
参考寸法
100
AcDb2LineAngularDimension
 13
50.001974
 23
87.783672
 33
0.0
 14
49.215975
 24
78.799655
 34
0.0
 15
56.512662
 25
90.819655
 35
0.0
 16
57.754572
 26
95.536269
 36
0.0
1001
ACAD
1000
DSTYLE
1002
{
1070
   288
1070
     1
1070
   140
1040
1.5
1070
    41
1040
1.0
1002
}
  0
LINE
  5
137
100
AcDbEntity
  8
外形
  6
CONTINUOUS
100
AcDbLine
 10
57.188421
 20
81.09218
 30
0.0
 11
61.485975
 21
81.319655
 31
0.0
  0
SPLINE
  5
138
100
AcDbEntity
  8
外形
  6
CONTINUOUS
100
AcDbSpline
210
0.0
220
0.0
230
1.0
 70
     8
 71
     3
 72
    10
 73
     6
 74
     4
 42
0.0000001
 43
0.0000001
 44
0.0000000001
 40
0.0
 40
0.0
 40
0.0
 40
0.0
 40
4.40777029693501
 40
8.679772169593595
 40
16.463234125257
 40
16.463234125257
 40
16.463234125257
 40
16.463234125257
 10
61.48597467351605
 20
81.31965528588967
 30
0.0
 10
63.00831349683297
 20
82.37670193850894
 30
0.0
 10
66.00609996508571
 20
84.45823602474453
 30
0.0
 10
60.16662574305437
 20
88.83419498830745
 30
0.0
 10
56.47861632989533
 20
89.56591729162928
 30
0.0
 10
54.09749840956997
 20
90.03834479762337
 30
0.0
 11
61.48597467351605
 21
81.31965528588967
 31
0.0
 11
64.48597467351605
 21
84.54896465331524
 31
0.0
 11
61.48597467351605
 21
87.59034591846409
 31
0.0
 11
54.09749840956997
 21
90.03834479762337
 31
0.0
  0
LINE
  5
139
100
AcDbEntity
  8
外形
  6
CONTINUOUS
 62
     1
100
AcDbLine
 10
49.485975
 20
80.486528
 30
0.0
 11
49.485975
 21
80.069655
 31
0.0
  0
LINE
  5
13A
100
AcDbEntity
  8
外形
  6
CENTER
 62
     1
100
AcDbLine
 10
49.900007
 20
80.069655
 30
0.0
 11
49.485975
 21
80.069655
 31
0.0
  0
LINE
  5
13B
100
AcDbEntity
  8
外形
  6
CONTINUOUS
100
AcDbLine
 10
57.188421
 20
81.09218
 30
0.0
 11
55.487634
 21
80.557874
 31
0.0
  0
LINE
  5
13C
100
AcDbEntity
  8
外形
  6
CONTINUOUS
100
AcDbLine
 10
56.346881
 20
86.586582
 30
0.0
 11
55.85125
 21
80.92149
 31
0.0
  0
LINE
  5
13D
100
AcDbEntity
  8
外形
  6
CONTINUOUS
100
AcDbLine
 10
55.487634
 20
80.557874
 30
0.0
 11
49.92047
 21
80.07081
 31
0.0
  0
ARC
  5
13E
100
AcDbEntity
  8
外形
  6
CONTINUOUS
100
AcDbCircle
 10
55.452772
 20
80.956352
 30
0.0
 40
0.4
100
AcDbArc
 50
275.0
 51
355.0
  0
LINE
  5
13F
100
AcDbEntity
  8
外形
  6
CONTINUOUS
100
AcDbLine
 10
49.982761
 20
86.169243
 30
0.0
 11
49.48713
 21
80.504151
 31
0.0
  0
LINE
  5
140
100
AcDbEntity
  8
外形
  6
CONTINUOUS
100
AcDbLine
 10
55.913541
 20
87.019923
 30
0.0
 11
50.012014
 21
86.503606
 31
0.0
  0
ARC
  5
141
100
AcDbEntity
  8
外形
  6
CONTINUOUS
100
AcDbCircle
 10
50.381239
 20
86.134381
 30
0.0
 40
0.4
100
AcDbArc
 50
95.0
 51
175.0
  0
LINE
  5
142
100
AcDbEntity
  8
外形
  6
CONTINUOUS
100
AcDbLine
 10
50.160654
 20
88.202564
 30
0.0
 11
49.982761
 21
86.169243
 31
0.0
  0
ARC
  5
143
100
AcDbEntity
  8
外形
  6
CONTINUOUS
100
AcDbCircle
 10
49.885608
 20
80.469288
 30
0.0
 40
0.4
100
AcDbArc
 50
175.0
 51
275.0
  0
LINE
  5
144
100
AcDbEntity
  8
外形
  6
CENTER
 62
     1
100
AcDbLine
 10
52.917006
 20
79.370701
 30
0.0
 11
52.917006
 21
87.783672
 31
0.0
  0
LINE
  5
145
100
AcDbEntity
  8
外形
  6
CONTINUOUS
100
AcDbLine
 10
56.213322
 20
85.059988
 30
0.0
 11
56.543794
 21
85.39046
 31
0.0
  0
LINE
  5
146
100
AcDbEntity
  8
外形
  6
CONTINUOUS
100
AcDbLine
 10
54.515401
 20
86.897601
 30
0.0
 11
54.776027
 21
87.158227
 31
0.0
  0
LINE
  5
147
100
AcDbEntity
  8
外形
  6
CONTINUOUS
100
AcDbLine
 10
53.59551
 20
83.784463
 30
0.0
 11
54.004946
 21
83.545366
 31
0.0
  0
LINE
  5
148
100
AcDbEntity
  8
外形
  6
CONTINUOUS
100
AcDbLine
 10
54.004946
 20
83.545366
 30
0.0
 11
53.59551
 21
83.30627
 31
0.0
  0
LINE
  5
149
100
AcDbEntity
  8
外形
  6
CONTINUOUS
100
AcDbLine
 10
53.049194
 20
84.252517
 30
0.0
 11
53.460976
 21
84.487551
 31
0.0
  0
LINE
  5
14A
100
AcDbEntity
  8
外形
  6
CONTINUOUS
100
AcDbLine
 10
53.460976
 20
84.487551
 30
0.0
 11
53.463322
 21
84.013421
 31
0.0
  0
LINE
  5
14B
100
AcDbEntity
  8
外形
  6
CONTINUOUS
100
AcDbLine
 10
52.370689
 20
84.013421
 30
0.0
 11
52.373035
 21
84.487551
 31
0.0
  0
LINE
  5
14C
100
AcDbEntity
  8
外形
  6
CONTINUOUS
100
AcDbLine
 10
52.373035
 20
84.487551
 30
0.0
 11
52.784817
 21
84.252517
 31
0.0
  0
LINE
  5
14D
100
AcDbEntity
  8
外形
  6
CONTINUOUS
100
AcDbLine
 10
52.238501
 20
83.30627
 30
0.0
 11
51.829065
 21
83.545366
 31
0.0
  0
LINE
  5
14E
100
AcDbEntity
  8
外形
  6
CONTINUOUS
100
AcDbLine
 10
51.829065
 20
83.545366
 30
0.0
 11
52.238501
 21
83.784463
 31
0.0
  0
LINE
  5
14F
100
AcDbEntity
  8
外形
  6
CONTINUOUS
100
AcDbLine
 10
52.784817
 20
82.838216
 30
0.0
 11
52.373035
 21
82.603182
 31
0.0
  0
LINE
  5
150
100
AcDbEntity
  8
外形
  6
CONTINUOUS
100
AcDbLine
 10
52.373035
 20
82.603182
 30
0.0
 11
52.370689
 21
83.077312
 31
0.0
  0
LINE
  5
151
100
AcDbEntity
  8
外形
  6
CONTINUOUS
100
AcDbLine
 10
53.463322
 20
83.077312
 30
0.0
 11
53.460976
 21
82.603182
 31
0.0
  0
LINE
  5
152
100
AcDbEntity
  8
外形
  6
CONTINUOUS
100
AcDbLine
 10
53.460976
 20
82.603182
 30
0.0
 11
53.049194
 21
82.838216
 31
0.0
  0
ARC
  5
153
100
AcDbEntity
  8
外形
  6
CONTINUOUS
100
AcDbCircle
 10
53.729984
 20
84.01474
 30
0.0
 40
0.266666
100
AcDbArc
 50
180.283476
 51
239.716524
  0
ARC
  5
154
100
AcDbEntity
  8
外形
  6
CONTINUOUS
100
AcDbCircle
 10
53.729984
 20
83.075993
 30
0.0
 40
0.266666
100
AcDbArc
 50
120.283476
 51
179.716524
  0
ARC
  5
155
100
AcDbEntity
  8
外形
  6
CONTINUOUS
100
AcDbCircle
 10
52.917006
 20
82.606619
 30
0.0
 40
0.266666
100
AcDbArc
 50
60.283476
 51
119.716524
  0
ARC
  5
156
100
AcDbEntity
  8
外形
  6
CONTINUOUS
100
AcDbCircle
 10
52.104027
 20
83.075993
 30
0.0
 40
0.266666
100
AcDbArc
 50
0.283476
 51
59.716524
  0
ARC
  5
157
100
AcDbEntity
  8
外形
  6
CONTINUOUS
100
AcDbCircle
 10
52.104027
 20
84.01474
 30
0.0
 40
0.266666
100
AcDbArc
 50
300.283476
 51
359.716524
  0
ARC
  5
158
100
AcDbEntity
  8
外形
  6
CONTINUOUS
100
AcDbCircle
 10
52.917006
 20
84.484114
 30
0.0
 40
0.266666
100
AcDbArc
 50
240.283476
 51
299.716524
  0
CIRCLE
  5
159
100
AcDbEntity
  8
外形
  6
CONTINUOUS
100
AcDbCircle
 10
52.917006
 20
83.545366
 30
0.0
 40
1.725
  0
LINE
  5
15A
100
AcDbEntity
  8
外形
  6
CENTER
 62
     1
100
AcDbLine
 10
49.491951
 20
83.545366
 30
0.0
 11
56.251459
 21
83.545366
 31
0.0
  0
ARC
  5
15B
100
AcDbEntity
  8
外形
  6
CONTINUOUS
100
AcDbCircle
 10
55.65991
 20
86.274343
 30
0.0
 40
1.25
100
AcDbArc
 50
315.0
 51
135.0
  0
ARC
  5
15C
100
AcDbEntity
  8
外形
  6
CONTINUOUS
100
AcDbCircle
 10
55.948403
 20
86.621445
 30
0.0
 40
0.4
100
AcDbArc
 50
355.0
 51
95.0
  0
CIRCLE
  5
15D
100
AcDbEntity
  8
参考
  6
CONTINUOUS
100
AcDbCircle
 10
52.917035
 20
83.545701
 30
0.0
 40
3.175
  0
LINE
  5
15E
100
AcDbEntity
  8
外形
  6
CONTINUOUS
100
AcDbLine
 10
68.610975
 20
81.319655
 30
0.0
 11
68.610975
 21
84.548965
 31
0.0
  0
LINE
  5
15F
100
AcDbEntity
  8
外形
  6
CONTINUOUS
100
AcDbLine
 10
68.610975
 20
81.319655
 30
0.0
 11
68.860975
 21
81.069655
 31
0.0
  0
LINE
  5
160
100
AcDbEntity
  8
外形
  6
CONTINUOUS
100
AcDbLine
 10
68.610975
 20
84.548965
 30
0.0
 11
64.485975
 21
84.548965
 31
0.0
  0
LINE
  5
161
100
AcDbEntity
  8
外形
  6
CONTINUOUS
100
AcDbLine
 10
68.860975
 20
83.890206
 30
0.0
 11
68.860975
 21
81.069655
 31
0.0
  0
LINE
  5
162
100
AcDbEntity
  8
外形
  6
CONTINUOUS
100
AcDbLine
 10
68.610975
 20
87.590346
 30
0.0
 11
61.485975
 21
87.590346
 31
0.0
  0
LINE
  5
163
100
AcDbEntity
  8
外形
  6
CONTINUOUS
100
AcDbLine
 10
68.610975
 20
81.319655
 30
0.0
 11
61.485975
 21
81.319655
 31
0.0
  0
LINE
  5
164
100
AcDbEntity
  8
外形
  6
CONTINUOUS
100
AcDbLine
 10
68.610975
 20
90.819655
 30
0.0
 11
55.773024
 21
90.819655
 31
0.0
  0
LINE
  5
165
100
AcDbEntity
  8
外形
  6
CONTINUOUS
100
AcDbLine
 10
68.610975
 20
90.819655
 30
0.0
 11
68.860975
 21
91.069655
 31
0.0
  0
DIMENSION
  5
166
100
AcDbEntity
  8
寸法
  6
CONTINUOUS
100
AcDbDimension
  2
*D3
 10
148.985975
 20
70.091198
 30
0.0
 11
144.485975
 21
72.591198
 31
0.0
 12
181.626093
 22
-704.045014
 32
0.0
  3
STANDARD
100
AcDbAlignedDimension
 13
139.985975
 23
84.133164
 33
0.0
 14
148.985975
 24
84.133164
 34
0.0
100
AcDbRotatedDimension
1001
ACAD
1000
DSTYLE
1002
{
1070
   284
1070
    13
1070
   146
1040
0.5
1070
   272
1070
     3
1070
    40
1040
1.0
1070
   287
1070
     0
1002
}
  0
LINE
  5
173
100
AcDbEntity
  8
外形
  6
CONTINUOUS
100
AcDbLine
 10
173.485975
 20
42.505558
 30
0.0
 11
173.485975
 21
51.505558
 31
0.0
  0
LINE
  5
174
100
AcDbEntity
  8
外形
  6
CONTINUOUS
100
AcDbLine
 10
173.485975
 20
42.505558
 30
0.0
 11
174.485975
 21
43.505558
 31
0.0
  0
LINE
  5
175
100
AcDbEntity
  8
外形
  6
CONTINUOUS
100
AcDbLine
 10
174.485975
 20
50.505558
 30
0.0
 11
174.485975
 21
43.505558
 31
0.0
  0
LINE
  5
176
100
AcDbEntity
  8
外形
  6
CONTINUOUS
100
AcDbLine
 10
173.485975
 20
51.505558
 30
0.0
 11
174.485975
 21
50.505558
 31
0.0
  0
ARC
  5
177
100
AcDbEntity
  8
外形
  6
CONTINUOUS
100
AcDbCircle
 10
144.485975
 20
86.069655
 30
0.0
 40
5.0
100
AcDbArc
 50
25.841933
 51
154.158067
  0
ARC
  5
178
100
AcDbEntity
  8
外形
  6
CONTINUOUS
100
AcDbCircle
 10
144.485975
 20
86.069655
 30
0.0
 40
5.0
100
AcDbArc
 50
205.841933
 51
334.158067
  0
DIMENSION
  5
179
100
AcDbEntity
  8
寸法
  6
CONTINUOUS
100
AcDbDimension
  2
*D4
 10
141.506408
 20
82.054412
 30
0.0
 11
152.828761
 21
97.312338
 31
0.0
 12
181.626093
 22
-704.045014
 32
0.0
 70
   131
  3
STANDARD
100
AcDbDiametricDimension
 15
147.465541
 25
90.084899
 35
0.0
 40
0.0
1001
ACAD
1000
DSTYLE
1002
{
1070
   284
1070
    13
1070
   146
1040
0.5
1070
   272
1070
     3
1070
    40
1040
1.0
1070
   287
1070
     0
1002
}
  0
LINE
  5
185
100
AcDbEntity
  8
外形
  6
CONTINUOUS
100
AcDbLine
 10
139.985975
 20
88.249105
 30
0.0
 11
139.985975
 21
83.890206
 31
0.0
  0
LINE
  5
186
100
AcDbEntity
  8
外形
  6
CONTINUOUS
100
AcDbLine
 10
173.485975
 20
88.249105
 30
0.0
 11
150.985975
 21
88.249105
 31
0.0
  0
LINE
  5
187
100
AcDbEntity
  8
外形
  6
CONTINUOUS
100
AcDbLine
 10
173.485975
 20
91.069655
 30
0.0
 11
150.985975
 21
91.069655
 31
0.0
  0
LINE
  5
188
100
AcDbEntity
  8
外形
  6
CONTINUOUS
100
AcDbLine
 10
173.485975
 20
81.069655
 30
0.0
 11
150.985975
 21
81.069655
 31
0.0
  0
LINE
  5
189
100
AcDbEntity
  8
外形
  6
CONTINUOUS
100
AcDbLine
 10
173.485975
 20
83.890206
 30
0.0
 11
150.985975
 21
83.890206
 31
0.0
  0
LINE
  5
18A
100
AcDbEntity
  8
外形
  6
CENTER
 62
     1
100
AcDbLine
 10
144.485975
 20
92.215906
 30
0.0
 11
144.485975
 21
79.89483
 31
0.0
  0
LINE
  5
18B
100
AcDbEntity
  8
外形
  6
CONTINUOUS
100
AcDbLine
 10
148.985975
 20
88.249105
 30
0.0
 11
148.985975
 21
83.890206
 31
0.0
  0
LINE
  5
18C
100
AcDbEntity
  8
外形
  6
CONTINUOUS
100
AcDbLine
 10
173.485975
 20
88.249105
 30
0.0
 11
173.485975
 21
91.069655
 31
0.0
  0
LINE
  5
18D
100
AcDbEntity
  8
外形
  6
CONTINUOUS
100
AcDbLine
 10
173.485975
 20
91.069655
 30
0.0
 11
174.485975
 21
90.069655
 31
0.0
  0
LINE
  5
18E
100
AcDbEntity
  8
外形
  6
CONTINUOUS
100
AcDbLine
 10
174.485975
 20
82.069655
 30
0.0
 11
174.485975
 21
90.069655
 31
0.0
  0
LINE
  5
18F
100
AcDbEntity
  8
外形
  6
CONTINUOUS
100
AcDbLine
 10
174.485975
 20
90.069655
 30
0.0
 11
174.485975
 21
82.069655
 31
0.0
  0
ARC
  5
190
100
AcDbEntity
  8
外形
  6
CONTINUOUS
100
AcDbCircle
 10
168.985975
 20
86.069655
 30
0.0
 40
5.0
100
AcDbArc
 50
334.158067
 51
25.841933
  0
LINE
  5
191
100
AcDbEntity
  8
外形
  6
CONTINUOUS
100
AcDbLine
 10
173.485975
 20
81.069655
 30
0.0
 11
174.485975
 21
82.069655
 31
0.0
  0
LINE
  5
192
100
AcDbEntity
  8
外形
  6
CONTINUOUS
100
AcDbLine
 10
173.485975
 20
83.890206
 30
0.0
 11
173.485975
 21
81.069655
 31
0.0
  0
ENDBLK
  5
194
100
AcDbEntity
  8
0
100
AcDbBlockEnd
  0
BLOCK
  5
2F2
100
AcDbEntity
  8
0
100
AcDbBlockBegin
  2
*D19
 70
     1
 10
0.0
 20
0.0
 30
0.0
  3
*D19
  1

  0
LINE
  5
2F3
100
AcDbEntity
  8
0
  6
BYBLOCK
 62
     1
100
AcDbLine
 10
121.960245
 20
229.605336
 30
0.0
 11
118.232116
 21
212.065865
 31
0.0
  0
LINE
  5
2F4
100
AcDbEntity
  8
0
  6
BYBLOCK
 62
     1
100
AcDbLine
 10
122.168157
 20
224.327784
 30
0.0
 11
122.168157
 21
211.652171
 31
0.0
  0
ARC
  5
2F5
100
AcDbEntity
  8
0
  6
BYBLOCK
 62
     1
100
AcDbCircle
 10
122.168157
 20
230.583484
 30
0.0
 40
16.931313
100
AcDbArc
 50
244.43227
 51
258.0
  0
LINE
  5
2F6
100
AcDbEntity
  8
0
  6
BYBLOCK
 62
     1
100
AcDbLine
 10
114.860979
 20
215.310157
 30
0.0
 11
104.396901
 21
220.316459
 31
0.0
  0
ARC
  5
2F7
100
AcDbEntity
  8
0
  6
BYBLOCK
 62
     1
100
AcDbCircle
 10
122.168157
 20
230.583484
 30
0.0
 40
16.931313
100
AcDbArc
 50
244.456067
 51
251.228033
  0
ARC
  5
2F8
100
AcDbEntity
  8
0
  6
BYBLOCK
 62
     1
100
AcDbCircle
 10
122.168157
 20
230.583484
 30
0.0
 40
16.931313
100
AcDbArc
 50
276.771967
 51
283.543933
  0
ARC
  5
2F9
100
AcDbEntity
  8
0
  6
BYBLOCK
 62
     1
100
AcDbCircle
 10
122.168157
 20
230.583484
 30
0.0
 40
16.931313
100
AcDbArc
 50
258.0
 51
270.0
  0
INSERT
  5
2FA
100
AcDbEntity
  8
0
  6
BYBLOCK
 62
     1
100
AcDbBlockReference
  2
_OPEN30
 10
118.647939
 20
214.022161
 30
0.0
 41
2.0
 42
2.0
 43
2.0
 50
344.614017
  0
INSERT
  5
2FB
100
AcDbEntity
  8
0
  6
BYBLOCK
 62
     1
100
AcDbBlockReference
  2
_OPEN30
 10
122.168157
 20
213.652171
 30
0.0
 41
2.0
 42
2.0
 43
2.0
 50
183.385983
  0
MTEXT
  5
2FC
100
AcDbEntity
  8
0
  6
BYBLOCK
 62
     3
100
AcDbMText
 10
110.707884
 20
220.068497
 30
0.0
 40
3.0
 41
0.0
 71
     5
 72
     1
  1
\A1;12°
 11
0.902076
 21
-0.431578
 31
0.0
  0
POINT
  5
2FD
100
AcDbEntity
  8
DEFPOINTS
  6
BYBLOCK
 62
     0
100
AcDbPoint
 10
120.987088
 20
213.693415
 30
0.0
  0
POINT
  5
2FE
100
AcDbEntity
  8
DEFPOINTS
  6
BYBLOCK
 62
     0
100
AcDbPoint
 10
124.350908
 20
240.852517
 30
0.0
  0
POINT
  5
2FF
100
AcDbEntity
  8
DEFPOINTS
  6
BYBLOCK
 62
     0
100
AcDbPoint
 10
122.168157
 20
244.242947
 30
0.0
  0
POINT
  5
300
100
AcDbEntity
  8
DEFPOINTS
  6
BYBLOCK
 62
     0
100
AcDbPoint
 10
122.168157
 20
225.327784
 30
0.0
  0
POINT
  5
301
100
AcDbEntity
  8
DEFPOINTS
  6
BYBLOCK
 62
     0
100
AcDbPoint
 10
122.168157
 20
230.583484
 30
0.0
  0
ENDBLK
  5
302
100
AcDbEntity
  8
0
100
AcDbBlockEnd
  0
BLOCK
  5
303
100
AcDbEntity
  8
0
100
AcDbBlockBegin
  2
*D20
 70
     1
 10
0.0
 20
0.0
 30
0.0
  3
*D20
  1

  0
LINE
  5
304
100
AcDbEntity
  8
0
  6
BYBLOCK
 62
     1
100
AcDbLine
 10
153.345593
 20
229.583484
 30
0.0
 11
153.345593
 21
207.954755
 31
0.0
  0
LINE
  5
305
100
AcDbEntity
  8
0
  6
BYBLOCK
 62
     1
100
AcDbLine
 10
278.345593
 20
231.583484
 30
0.0
 11
278.345593
 21
207.954755
 31
0.0
  0
LINE
  5
306
100
AcDbEntity
  8
0
  6
BYBLOCK
 62
     1
100
AcDbLine
 10
155.345593
 20
209.954755
 30
0.0
 11
276.345593
 21
209.954755
 31
0.0
  0
INSERT
  5
307
100
AcDbEntity
  8
0
  6
BYBLOCK
 62
     1
100
AcDbBlockReference
  2
_OPEN30
 10
153.345593
 20
209.954755
 30
0.0
 41
2.0
 42
2.0
 43
2.0
 50
180.0
  0
INSERT
  5
308
100
AcDbEntity
  8
0
  6
BYBLOCK
 62
     1
100
AcDbBlockReference
  2
_OPEN30
 10
278.345593
 20
209.954755
 30
0.0
 41
2.0
 42
2.0
 43
2.0
  0
MTEXT
  5
309
100
AcDbEntity
  8
0
  6
BYBLOCK
 62
     3
100
AcDbMText
 10
215.845593
 20
212.454755
 30
0.0
 40
3.0
 41
0.0
 71
     5
 72
     1
  1
\A1;125
  0
POINT
  5
30A
100
AcDbEntity
  8
DEFPOINTS
  6
BYBLOCK
 62
     0
100
AcDbPoint
 10
153.345593
 20
230.583484
 30
0.0
  0
POINT
  5
30B
100
AcDbEntity
  8
DEFPOINTS
  6
BYBLOCK
 62
     0
100
AcDbPoint
 10
278.345593
 20
232.583484
 30
0.0
  0
POINT
  5
30C
100
AcDbEntity
  8
DEFPOINTS
  6
BYBLOCK
 62
     0
100
AcDbPoint
 10
278.345593
 20
209.954755
 30
0.0
  0
ENDBLK
  5
30D
100
AcDbEntity
  8
0
100
AcDbBlockEnd
  0
BLOCK
  5
336
100
AcDbEntity
  8
0
100
AcDbBlockBegin
  2
*D21
 70
     1
 10
0.0
 20
0.0
 30
0.0
  3
*D21
  1

  0
LINE
  5
337
100
AcDbEntity
  8
0
  6
BYBLOCK
 62
     1
100
AcDbLine
 10
153.345593
 20
191.149133
 30
0.0
 11
153.345593
 21
179.389534
 31
0.0
  0
LINE
  5
338
100
AcDbEntity
  8
0
  6
BYBLOCK
 62
     1
100
AcDbLine
 10
174.345593
 20
192.019387
 30
0.0
 11
174.345593
 21
179.389534
 31
0.0
  0
LINE
  5
339
100
AcDbEntity
  8
0
  6
BYBLOCK
 62
     1
100
AcDbLine
 10
155.345593
 20
181.389534
 30
0.0
 11
172.345593
 21
181.389534
 31
0.0
  0
INSERT
  5
33A
100
AcDbEntity
  8
0
  6
BYBLOCK
 62
     1
100
AcDbBlockReference
  2
_OPEN30
 10
153.345593
 20
181.389534
 30
0.0
 41
2.0
 42
2.0
 43
2.0
 50
180.0
  0
INSERT
  5
33B
100
AcDbEntity
  8
0
  6
BYBLOCK
 62
     1
100
AcDbBlockReference
  2
_OPEN30
 10
174.345593
 20
181.389534
 30
0.0
 41
2.0
 42
2.0
 43
2.0
  0
MTEXT
  5
33C
100
AcDbEntity
  8
0
  6
BYBLOCK
 62
     3
100
AcDbMText
 10
163.845593
 20
183.889534
 30
0.0
 40
3.0
 41
0.0
 71
     5
 72
     1
  1
\A1;21
  0
POINT
  5
33D
100
AcDbEntity
  8
DEFPOINTS
  6
BYBLOCK
 62
     0
100
AcDbPoint
 10
153.345593
 20
192.149133
 30
0.0
  0
POINT
  5
33E
100
AcDbEntity
  8
DEFPOINTS
  6
BYBLOCK
 62
     0
100
AcDbPoint
 10
174.345593
 20
193.019387
 30
0.0
  0
POINT
  5
33F
100
AcDbEntity
  8
DEFPOINTS
  6
BYBLOCK
 62
     0
100
AcDbPoint
 10
174.345593
 20
181.389534
 30
0.0
  0
ENDBLK
  5
340
100
AcDbEntity
  8
0
100
AcDbBlockEnd
  0
BLOCK
  5
341
100
AcDbEntity
  8
0
100
AcDbBlockBegin
  2
*D22
 70
     1
 10
0.0
 20
0.0
 30
0.0
  3
*D22
  1

  0
LINE
  5
342
100
AcDbEntity
  8
0
  6
BYBLOCK
 62
     1
100
AcDbLine
 10
153.929535
 20
237.679266
 30
0.0
 11
155.122687
 21
251.31705
 31
0.0
  0
LINE
  5
343
100
AcDbEntity
  8
0
  6
BYBLOCK
 62
     1
100
AcDbLine
 10
152.308734
 20
230.583484
 30
0.0
 11
132.495969
 21
230.583484
 31
0.0
  0
ARC
  5
344
100
AcDbEntity
  8
0
  6
BYBLOCK
 62
     1
100
AcDbCircle
 10
153.308734
 20
230.583484
 30
0.0
 40
18.812765
100
AcDbArc
 50
91.094032
 51
173.905968
  0
INSERT
  5
345
100
AcDbEntity
  8
0
  6
BYBLOCK
 62
     1
100
AcDbBlockReference
  2
_OPEN30
 10
154.948375
 20
249.324661
 30
0.0
 41
2.0
 42
2.0
 43
2.0
 50
358.047016
  0
INSERT
  5
346
100
AcDbEntity
  8
0
  6
BYBLOCK
 62
     1
100
AcDbBlockReference
  2
_OPEN30
 10
134.495969
 20
230.583484
 30
0.0
 41
2.0
 42
2.0
 43
2.0
 50
266.952984
  0
MTEXT
  5
347
100
AcDbEntity
  8
0
  6
BYBLOCK
 62
     3
100
AcDbMText
 10
138.910039
 20
246.296902
 30
0.0
 40
3.0
 41
0.0
 71
     5
 72
     1
  1
\A1;95°
 11
0.737277
 21
0.67559
 31
0.0
  0
POINT
  5
348
100
AcDbEntity
  8
DEFPOINTS
  6
BYBLOCK
 62
     0
100
AcDbPoint
 10
144.865581
 20
247.395185
 30
0.0
 50
0.0
  0
POINT
  5
349
100
AcDbEntity
  8
DEFPOINTS
  6
BYBLOCK
 62
     0
100
AcDbPoint
 10
153.759625
 20
230.583484
 30
0.0
 50
0.0
  0
POINT
  5
34A
100
AcDbEntity
  8
DEFPOINTS
  6
BYBLOCK
 62
     0
100
AcDbPoint
 10
153.842379
 20
236.683071
 30
0.0
 50
0.0
  0
POINT
  5
34B
100
AcDbEntity
  8
DEFPOINTS
  6
BYBLOCK
 62
     0
100
AcDbPoint
 10
153.346748
 20
231.017979
 30
0.0
 50
0.0
  0
POINT
  5
34C
100
AcDbEntity
  8
DEFPOINTS
  6
BYBLOCK
 62
     0
100
AcDbPoint
 10
153.345593
 20
230.583484
 30
0.0
 50
0.0
  0
ENDBLK
  5
34D
100
AcDbEntity
  8
0
100
AcDbBlockEnd
  0
BLOCK
  5
34E
100
AcDbEntity
  8
0
100
AcDbBlockBegin
  2
*D23
 70
     1
 10
0.0
 20
0.0
 30
0.0
  3
*D23
  1

  0
LINE
  5
34F
100
AcDbEntity
  8
0
  6
BYBLOCK
 62
     1
100
AcDbLine
 10
152.345593
 20
236.583484
 30
0.0
 11
141.720703
 21
236.583484
 31
0.0
  0
LINE
  5
350
100
AcDbEntity
  8
0
  6
BYBLOCK
 62
     1
100
AcDbLine
 10
152.345593
 20
230.583376
 30
0.0
 11
141.720703
 21
230.583376
 31
0.0
  0
LINE
  5
351
100
AcDbEntity
  8
0
  6
BYBLOCK
 62
     1
100
AcDbLine
 10
143.720703
 20
234.583484
 30
0.0
 11
143.720703
 21
232.583376
 31
0.0
  0
INSERT
  5
352
100
AcDbEntity
  8
0
  6
BYBLOCK
 62
     1
100
AcDbBlockReference
  2
_OPEN30
 10
143.720703
 20
236.583484
 30
0.0
 41
2.0
 42
2.0
 43
2.0
 50
90.0
  0
INSERT
  5
353
100
AcDbEntity
  8
0
  6
BYBLOCK
 62
     1
100
AcDbBlockReference
  2
_OPEN30
 10
143.720703
 20
230.583376
 30
0.0
 41
2.0
 42
2.0
 43
2.0
 50
270.0
  0
MTEXT
  5
354
100
AcDbEntity
  8
0
  6
BYBLOCK
 62
     3
100
AcDbMText
 10
141.220703
 20
233.58343
 30
0.0
 40
3.0
 41
0.0
 71
     5
 72
     1
  1
\A1;6
 11
0.0
 21
1.0
 31
0.0
  0
POINT
  5
355
100
AcDbEntity
  8
DEFPOINTS
  6
BYBLOCK
 62
     0
100
AcDbPoint
 10
153.345593
 20
236.583484
 30
0.0
  0
POINT
  5
356
100
AcDbEntity
  8
DEFPOINTS
  6
BYBLOCK
 62
     0
100
AcDbPoint
 10
153.345593
 20
230.583376
 30
0.0
  0
POINT
  5
357
100
AcDbEntity
  8
DEFPOINTS
  6
BYBLOCK
 62
     0
100
AcDbPoint
 10
143.720703
 20
230.583376
 30
0.0
  0
ENDBLK
  5
358
100
AcDbEntity
  8
0
100
AcDbBlockEnd
  0
BLOCK
  5
39F
100
AcDbEntity
  8
0
100
AcDbBlockBegin
  2
*D24
 70
     1
 10
0.0
 20
0.0
 30
0.0
  3
*D24
  1

  0
LINE
  5
3A0
100
AcDbEntity
  8
0
  6
BYBLOCK
 62
     1
100
AcDbLine
 10
243.845593
 20
233.646992
 30
0.0
 11
243.845593
 21
218.605027
 31
0.0
  0
LINE
  5
3A1
100
AcDbEntity
  8
0
  6
BYBLOCK
 62
     1
100
AcDbLine
 10
252.845593
 20
233.646992
 30
0.0
 11
252.845593
 21
218.605027
 31
0.0
  0
LINE
  5
3A2
100
AcDbEntity
  8
0
  6
BYBLOCK
 62
     1
100
AcDbLine
 10
245.845593
 20
220.605027
 30
0.0
 11
250.845593
 21
220.605027
 31
0.0
  0
INSERT
  5
3A3
100
AcDbEntity
  8
0
  6
BYBLOCK
 62
     1
100
AcDbBlockReference
  2
_OPEN30
 10
243.845593
 20
220.605027
 30
0.0
 41
2.0
 42
2.0
 43
2.0
 50
180.0
  0
INSERT
  5
3A4
100
AcDbEntity
  8
0
  6
BYBLOCK
 62
     1
100
AcDbBlockReference
  2
_OPEN30
 10
252.845593
 20
220.605027
 30
0.0
 41
2.0
 42
2.0
 43
2.0
  0
MTEXT
  5
3A5
100
AcDbEntity
  8
0
  6
BYBLOCK
 62
     3
100
AcDbMText
 10
248.345593
 20
223.105027
 30
0.0
 40
3.0
 41
0.0
 71
     5
 72
     1
  1
\A1;9
  0
POINT
  5
3A6
100
AcDbEntity
  8
DEFPOINTS
  6
BYBLOCK
 62
     0
100
AcDbPoint
 10
243.845593
 20
234.646992
 30
0.0
  0
POINT
  5
3A7
100
AcDbEntity
  8
DEFPOINTS
  6
BYBLOCK
 62
     0
100
AcDbPoint
 10
252.845593
 20
234.646992
 30
0.0
  0
POINT
  5
3A8
100
AcDbEntity
  8
DEFPOINTS
  6
BYBLOCK
 62
     0
100
AcDbPoint
 10
252.845593
 20
220.605027
 30
0.0
  0
ENDBLK
  5
3A9
100
AcDbEntity
  8
0
100
AcDbBlockEnd
  0
BLOCK
  5
3AA
100
AcDbEntity
  8
0
100
AcDbBlockBegin
  2
*D25
 70
     1
 10
0.0
 20
0.0
 30
0.0
  3
*D25
  1

  0
LINE
  5
3AB
100
AcDbEntity
  8
0
  6
BYBLOCK
 62
     1
100
AcDbLine
 10
244.174199
 20
230.962142
 30
0.0
 11
242.982373
 21
229.356045
 31
0.0
  0
LINE
  5
3AC
100
AcDbEntity
  8
0
  6
BYBLOCK
 62
     1
100
AcDbLine
 10
252.516986
 20
242.204825
 30
0.0
 11
259.667946
 21
251.84141
 31
0.0
  0
LINE
  5
3AD
100
AcDbEntity
  8
0
  6
BYBLOCK
 62
     1
100
AcDbLine
 10
245.366026
 20
232.56824
 30
0.0
 11
251.325159
 21
240.598727
 31
0.0
  0
INSERT
  5
3AE
100
AcDbEntity
  8
0
  6
BYBLOCK
 62
     1
100
AcDbBlockReference
  2
_OPEN30
 10
245.366026
 20
232.56824
 30
0.0
 41
2.0
 42
2.0
 43
2.0
 50
53.422231
  0
INSERT
  5
3AF
100
AcDbEntity
  8
0
  6
BYBLOCK
 62
     1
100
AcDbBlockReference
  2
_OPEN30
 10
251.325159
 20
240.598727
 30
0.0
 41
2.0
 42
2.0
 43
2.0
 50
233.422231
  0
MTEXT
  5
3B0
100
AcDbEntity
  8
0
  6
BYBLOCK
 62
     3
100
AcDbMText
 10
254.680758
 20
249.315949
 30
0.0
 40
3.0
 41
0.0
 71
     5
 72
     1
  1
\A1;\U+220510
 11
0.595913
 21
0.803049
 31
0.0
  0
POINT
  5
3B1
100
AcDbEntity
  8
DEFPOINTS
  6
BYBLOCK
 62
     0
100
AcDbPoint
 10
251.325159
 20
240.598727
 30
0.0
  0
POINT
  5
3B2
100
AcDbEntity
  8
DEFPOINTS
  6
BYBLOCK
 62
     0
100
AcDbPoint
 10
245.366026
 20
232.56824
 30
0.0
  0
ENDBLK
  5
3B3
100
AcDbEntity
  8
0
100
AcDbBlockEnd
  0
ENDSEC
  0
SECTION
  2
ENTITIES
  0
TEXT
  5
199
100
AcDbEntity
  8
外形
  6
CONTINUOUS
 62
     2
100
AcDbText
 10
171.368725
 20
153.267831
 30
0.0
 40
6.0
  1
S10K-SCLCR06-12
100
AcDbText
  0
DIMENSION
  5
19A
100
AcDbEntity
  8
寸法
  6
CONTINUOUS
100
AcDbDimension
  2
*D19
 10
122.168157
 20
230.583484
 30
0.0
 11
110.707884
 21
220.068497
 31
0.0
 70
    34
  3
STANDARD
100
AcDb2LineAngularDimension
 13
122.168157
 23
244.242947
 33
0.0
 14
122.168157
 24
225.327784
 34
0.0
 15
124.350908
 25
240.852517
 35
0.0
 16
120.987088
 26
213.693415
 36
0.0
1001
ACAD
1000
DSTYLE
1002
{
1070
    40
1040
1.0
1002
}
  0
LINE
  5
19B
100
AcDbEntity
  8
外形
  6
CENTER
 62
     1
100
AcDbLine
 10
150.019449
 20
197.519387
 30
0.0
 11
282.586978
 21
197.519387
 31
0.0
  0
LINE
  5
19C
100
AcDbEntity
  8
外形
  6
CONTINUOUS
100
AcDbLine
 10
174.345593
 20
193.019387
 30
0.0
 11
277.345593
 21
193.019387
 31
0.0
  0
LINE
  5
19D
100
AcDbEntity
  8
外形
  6
CONTINUOUS
100
AcDbLine
 10
172.470593
 20
202.019387
 30
0.0
 11
277.345593
 21
202.019387
 31
0.0
  0
DIMENSION
  5
19E
100
AcDbEntity
  8
寸法
  6
CONTINUOUS
100
AcDbDimension
  2
*D20
 10
278.345593
 20
209.954755
 30
0.0
 11
215.845593
 21
212.454755
 31
0.0
 70
    32
  3
STANDARD
100
AcDbAlignedDimension
 13
153.345593
 23
230.583484
 33
0.0
 14
278.345593
 24
232.583484
 34
0.0
100
AcDbRotatedDimension
1001
ACAD
1000
DSTYLE
1002
{
1070
    40
1040
1.0
1002
}
  0
LINE
  5
19F
100
AcDbEntity
  8
外形
  6
CENTER
 62
     1
100
AcDbLine
 10
282.586978
 20
236.583484
 30
0.0
 11
153.345593
 21
236.583484
 31
0.0
  0
LINE
  5
1A0
100
AcDbEntity
  8
外形
  6
CONTINUOUS
100
AcDbLine
 10
241.845593
 20
241.583484
 30
0.0
 11
172.720593
 21
241.583484
 31
0.0
  0
LINE
  5
1A1
100
AcDbEntity
  8
外形
  6
CONTINUOUS
100
AcDbLine
 10
241.845593
 20
238.762933
 30
0.0
 11
172.470593
 21
238.762933
 31
0.0
  0
LINE
  5
1A2
100
AcDbEntity
  8
外形
  6
CONTINUOUS
100
AcDbLine
 10
241.845593
 20
231.583484
 30
0.0
 11
172.720593
 21
231.583484
 31
0.0
  0
LINE
  5
1A3
100
AcDbEntity
  8
外形
  6
CONTINUOUS
100
AcDbLine
 10
241.845593
 20
234.404034
 30
0.0
 11
172.470593
 21
234.404034
 31
0.0
  0
LINE
  5
1A8
100
AcDbEntity
  8
外形
  6
CONTINUOUS
100
AcDbLine
 10
172.470593
 20
202.019387
 30
0.0
 11
172.470593
 21
193.019387
 31
0.0
  0
LINE
  5
1A9
100
AcDbEntity
  8
外形
  6
CONTINUOUS
100
AcDbLine
 10
172.470593
 20
202.019387
 30
0.0
 11
172.470593
 21
192.369387
 31
0.0
  0
LINE
  5
1AA
100
AcDbEntity
  8
外形
  6
CONTINUOUS
100
AcDbLine
 10
172.220593
 20
202.269387
 30
0.0
 11
172.220593
 21
192.619387
 31
0.0
  0
LINE
  5
1AB
100
AcDbEntity
  8
外形
  6
CONTINUOUS
100
AcDbLine
 10
162.141299
 20
197.519387
 30
0.0
 11
162.141299
 21
192.769387
 31
0.0
  0
LINE
  5
1AC
100
AcDbEntity
  8
外形
  6
CONTINUOUS
100
AcDbLine
 10
153.345593
 20
197.519387
 30
0.0
 11
153.997969
 21
192.206208
 31
0.0
  0
LINE
  5
1AD
100
AcDbEntity
  8
外形
  6
CONTINUOUS
100
AcDbLine
 10
172.228587
 20
192.769387
 30
0.0
 11
162.141299
 21
192.769387
 31
0.0
  0
DIMENSION
  5
1AE
100
AcDbEntity
  8
寸法
  6
CONTINUOUS
100
AcDbDimension
  2
*D21
 10
174.345593
 20
181.389534
 30
0.0
 11
163.845593
 21
183.889534
 31
0.0
 70
    32
  3
STANDARD
100
AcDbAlignedDimension
 13
153.345593
 23
192.149133
 33
0.0
 14
174.345593
 24
193.019387
 34
0.0
100
AcDbRotatedDimension
1001
ACAD
1000
DSTYLE
1002
{
1070
    40
1040
1.0
1002
}
  0
LINE
  5
1AF
100
AcDbEntity
  8
外形
  6
CONTINUOUS
100
AcDbLine
 10
162.141299
 20
192.918657
 30
0.0
 11
153.997969
 21
192.206208
 31
0.0
  0
LINE
  5
1B0
100
AcDbEntity
  8
外形
  6
CONTINUOUS
100
AcDbLine
 10
174.345593
 20
193.019387
 30
0.0
 11
174.345593
 21
192.519387
 31
0.0
  0
LINE
  5
1B1
100
AcDbEntity
  8
外形
  6
CONTINUOUS
100
AcDbLine
 10
174.345593
 20
193.019387
 30
0.0
 11
174.345593
 21
192.369387
 31
0.0
  0
LINE
  5
1B2
100
AcDbEntity
  8
外形
  6
CONTINUOUS
100
AcDbLine
 10
172.220593
 20
192.619387
 30
0.0
 11
172.470593
 21
192.369387
 31
0.0
  0
LINE
  5
1B3
100
AcDbEntity
  8
外形
  6
CONTINUOUS
100
AcDbLine
 10
174.345593
 20
192.369387
 30
0.0
 11
172.470593
 21
192.369387
 31
0.0
  0
LINE
  5
1B4
100
AcDbEntity
  8
外形
  6
CONTINUOUS
100
AcDbLine
 10
165.345593
 20
192.769387
 30
0.0
 11
172.220593
 21
192.769387
 31
0.0
  0
SPLINE
  5
1B5
100
AcDbEntity
  8
外形
  6
CONTINUOUS
100
AcDbSpline
210
0.0
220
0.0
230
-1.0
 70
     8
 71
     3
 72
    10
 73
     6
 74
     4
 42
0.0000001
 43
0.0000001
 44
0.0000000001
 40
0.0
 40
0.0
 40
0.0
 40
0.0
 40
5.039786751347365
 40
10.72395326214039
 40
15.51512308184993
 40
15.51512308184993
 40
15.51512308184993
 40
15.51512308184993
 10
153.580392971444
 20
198.0194118137337
 30
0.0
 10
155.2394014086328
 20
198.3475375222141
 30
0.0
 10
158.7695366742079
 20
199.0457426121239
 30
0.0
 10
163.1490906052325
 20
202.2041148587297
 30
0.0
 10
166.7147465460823
 20
202.248902050767
 30
0.0
 10
168.3455928112779
 20
202.2693866477315
 30
0.0
 11
153.580392971444
 21
198.0194118137337
 31
0.0
 11
158.4463228794917
 21
199.3317290882611
 31
0.0
 11
163.5803929714439
 21
201.7712112491598
 31
0.0
 11
168.3455928112779
 21
202.2693866477315
 31
0.0
  0
SPLINE
  5
1B6
100
AcDbEntity
  8
外形
  6
CONTINUOUS
100
AcDbSpline
210
0.0
220
0.0
230
1.0
 70
     8
 71
     3
 72
    10
 73
     6
 74
     0
 42
0.0000001
 43
0.0000001
 40
13.89981797992278
 40
13.89981797992278
 40
13.89981797992278
 40
13.89981797992278
 40
16.4739693930951
 40
18.79214044533354
 40
18.99658082466461
 40
18.99658082466461
 40
18.99658082466461
 40
18.99658082466461
 10
168.3455928112779
 20
202.2693866477315
 30
0.0
 10
165.8013762977593
 20
199.3243982689269
 30
0.0
 10
163.4184076303542
 20
198.142461976039
 30
0.0
 10
163.5665367132564
 20
197.8171179803677
 30
0.0
 10
162.254128521002
 20
197.5285792028151
 30
0.0
 10
162.1412988172751
 20
197.5193866477316
 30
0.0
  0
LINE
  5
1B7
100
AcDbEntity
  8
外形
  6
CONTINUOUS
100
AcDbLine
 10
159.681615
 20
197.519387
 30
0.0
 11
162.141299
 21
197.519387
 31
0.0
  0
LINE
  5
1B8
100
AcDbEntity
  8
外形
  6
CONTINUOUS
100
AcDbLine
 10
153.63782
 20
195.139387
 30
0.0
 11
159.389388
 21
195.139387
 31
0.0
  0
LINE
  5
1B9
100
AcDbEntity
  8
外形
  6
CONTINUOUS
100
AcDbLine
 10
159.681615
 20
197.519387
 30
0.0
 11
159.391566
 21
195.157127
 31
0.0
  0
LINE
  5
1BA
100
AcDbEntity
  8
外形
  6
CONTINUOUS
100
AcDbLine
 10
153.345593
 20
197.519387
 30
0.0
 11
159.681615
 21
197.519387
 31
0.0
  0
LINE
  5
1BB
100
AcDbEntity
  8
外形
  6
CONTINUOUS
100
AcDbLine
 10
153.580393
 20
198.019412
 30
0.0
 11
153.580393
 21
197.519387
 31
0.0
  0
LINE
  5
1BC
100
AcDbEntity
  8
外形
  6
CONTINUOUS
100
AcDbLine
 10
172.220593
 20
202.269387
 30
0.0
 11
172.470593
 21
202.019387
 31
0.0
  0
LINE
  5
1BD
100
AcDbEntity
  8
外形
  6
CONTINUOUS
100
AcDbLine
 10
172.220593
 20
202.269387
 30
0.0
 11
168.345593
 21
202.269387
 31
0.0
  0
LEADER
  5
1BE
100
AcDbEntity
  8
寸法
  6
CONTINUOUS
 62
     1
100
AcDbLeader
  3
STANDARD
 73
     0
 74
     0
 75
     1
 40
3.0
 41
26.0
 76
     3
 10
125.972874
 20
241.222894
 30
0.0
 10
133.9402
 20
259.719805
 30
0.0
 10
135.9402
 20
259.719805
 30
0.0
 77
   256
340
1C3
213
-0.1129475379637483
223
0.5510341987360618
233
0.0
1001
ACAD
1000
DSTYLE
1002
{
1070
   284
1070
    13
1070
   146
1040
0.5
1070
   272
1070
     3
1070
    40
1040
1.0
1070
   287
1070
     0
1002
}
  0
DIMENSION
  5
1BF
100
AcDbEntity
  8
寸法
  6
CONTINUOUS
 62
     3
100
AcDbDimension
  2
*D22
 10
153.345593
 20
230.583484
 30
0.0
 11
138.910039
 21
246.296902
 31
0.0
 70
    34
 51
0.0
  3
STANDARD
100
AcDb2LineAngularDimension
 13
153.842379
 23
236.683071
 33
0.0
 14
153.346748
 24
231.017979
 34
0.0
 15
153.759625
 25
230.583484
 35
0.0
 16
144.865581
 26
247.395185
 36
0.0
1001
ACAD
1000
DSTYLE
1002
{
1070
    40
1040
1.0
1002
}
  0
DIMENSION
  5
1C0
100
AcDbEntity
  8
寸法
  6
CONTINUOUS
100
AcDbDimension
  2
*D23
 10
143.720703
 20
230.583376
 30
0.0
 11
141.220703
 21
233.58343
 31
0.0
 70
    32
  3
STANDARD
100
AcDbAlignedDimension
 13
153.345593
 23
236.583484
 33
0.0
 14
153.345593
 24
230.583376
 34
0.0
 50
90.0
100
AcDbRotatedDimension
1001
ACAD
1000
DSTYLE
1002
{
1070
   284
1070
    13
1070
   146
1040
0.5
1070
   272
1070
     3
1070
    40
1040
1.0
1070
   287
1070
     0
1002
}
  0
MTEXT
  5
1C3
102
{ACAD_REACTORS
330
1BE
102
}
100
AcDbEntity
  8
寸法
  6
CONTINUOUS
 62
     3
100
AcDbMText
 10
137.053147
 20
261.668771
 30
0.0
 40
3.0
 41
0.0
 71
     4
 72
     1
  1
%%c12最小加工径
  0
CIRCLE
  5
1C4
100
AcDbEntity
  8
外形
  6
CENTER
 62
     1
100
AcDbCircle
 10
122.168157
 20
236.583484
 30
0.0
 40
6.0
  0
ARC
  5
1C5
100
AcDbEntity
  8
外形
  6
CONTINUOUS
100
AcDbCircle
 10
122.268157
 20
236.583484
 30
0.0
 40
4.75
100
AcDbArc
 50
22.132391
 51
91.206316
  0
ARC
  5
1C6
100
AcDbEntity
  8
外形
  6
CONTINUOUS
100
AcDbCircle
 10
122.268157
 20
235.933484
 30
0.0
 40
5.4
100
AcDbArc
 50
91.061094
 51
180.0
  0
LINE
  5
1C7
100
AcDbEntity
  8
外形
  6
CENTER
 62
     1
100
AcDbLine
 10
122.268157
 20
243.480707
 30
0.0
 11
122.268157
 21
229.850395
 31
0.0
  0
LINE
  5
1C8
100
AcDbEntity
  8
外形
  6
CENTER
 62
     1
100
AcDbLine
 10
122.168157
 20
243.480707
 30
0.0
 11
122.168157
 21
229.850395
 31
0.0
  0
ARC
  5
1CA
100
AcDbEntity
  8
外形
  6
CONTINUOUS
100
AcDbCircle
 10
122.168157
 20
236.583484
 30
0.0
 40
5.353079
100
AcDbArc
 50
186.974376
 51
245.785857
  0
LINE
  5
1CB
100
AcDbEntity
  8
外形
  6
CONTINUOUS
100
AcDbLine
 10
123.868609
 20
238.583484
 30
0.0
 11
117.563107
 21
238.583484
 31
0.0
  0
LINE
  5
1CC
100
AcDbEntity
  8
外形
  6
CENTER
 62
     1
100
AcDbLine
 10
129.257047
 20
236.583484
 30
0.0
 11
115.347545
 21
236.583484
 31
0.0
  0
ARC
  5
1CE
100
AcDbEntity
  8
外形
  6
CONTINUOUS
100
AcDbCircle
 10
125.970476
 20
238.852517
 30
0.0
 40
2.0
100
AcDbArc
 50
122.469962
 51
168.0
  0
LINE
  5
1CF
100
AcDbEntity
  8
外形
  6
CONTINUOUS
100
AcDbLine
 10
126.668157
 20
234.404034
 30
0.0
 11
126.668157
 21
238.338221
 31
0.0
  0
LINE
  5
1D0
100
AcDbEntity
  8
外形
  6
CONTINUOUS
100
AcDbLine
 10
121.152312
 20
237.251474
 30
0.0
 11
119.89569
 21
231.339534
 31
0.0
  0
LINE
  5
1D1
100
AcDbEntity
  8
外形
  6
CONTINUOUS
100
AcDbLine
 10
122.168157
 20
230.583484
 30
0.0
 11
119.900923
 21
231.364155
 31
0.0
  0
LINE
  5
1D2
100
AcDbEntity
  8
外形
  6
CONTINUOUS
100
AcDbLine
 10
124.01418
 20
239.268341
 30
0.0
 11
122.168157
 21
230.583484
 31
0.0
  0
LINE
  5
1D3
100
AcDbEntity
  8
外形
  6
CONTINUOUS
100
AcDbLine
 10
123.54106
 20
237.042486
 30
0.0
 11
121.152312
 21
237.251474
 31
0.0
  0
ARC
  5
1D4
100
AcDbEntity
  8
外形
  6
CONTINUOUS
100
AcDbCircle
 10
122.168157
 20
236.583484
 30
0.0
 40
5.0
100
AcDbArc
 50
272.447573
 51
334.158067
  0
LINE
  5
1D7
100
AcDbEntity
  8
外形
  6
CONTINUOUS
100
AcDbLine
 10
172.470593
 20
241.333484
 30
0.0
 11
172.470593
 21
238.104174
 31
0.0
  0
LINE
  5
1D8
100
AcDbEntity
  8
外形
  6
CONTINUOUS
100
AcDbLine
 10
172.720593
 20
241.583484
 30
0.0
 11
172.720593
 21
238.762933
 31
0.0
  0
LINE
  5
1D9
100
AcDbEntity
  8
外形
  6
CONTINUOUS
100
AcDbLine
 10
159.632642
 20
241.333484
 30
0.0
 11
154.020272
 21
238.716392
 31
0.0
  0
LINE
  5
1DB
100
AcDbEntity
  8
外形
  6
CONTINUOUS
100
AcDbLine
 10
161.04804
 20
231.606008
 30
0.0
 11
165.345593
 21
231.833484
 31
0.0
  0
SPLINE
  5
1DC
100
AcDbEntity
  8
外形
  6
CONTINUOUS
100
AcDbSpline
210
0.0
220
0.0
230
1.0
 70
     8
 71
     3
 72
    10
 73
     6
 74
     4
 42
0.0000001
 43
0.0000001
 44
0.0000000001
 40
0.0
 40
0.0
 40
0.0
 40
0.0
 40
4.40777029693501
 40
8.679772169593595
 40
16.463234125257
 40
16.463234125257
 40
16.463234125257
 40
16.463234125257
 10
165.3455928112779
 20
231.8334835144365
 30
0.0
 10
166.8679316345948
 20
232.8905301670558
 30
0.0
 10
169.8657181028476
 20
234.9720642532914
 30
0.0
 10
164.0262438808161
 20
239.3480232168543
 30
0.0
 10
160.3382344676571
 20
240.0797455201761
 30
0.0
 10
157.9571165473318
 20
240.5521730261702
 30
0.0
 11
165.3455928112779
 21
231.8334835144365
 31
0.0
 11
168.3455928112779
 21
235.0627928818621
 31
0.0
 11
165.3455928112779
 21
238.1041741470109
 31
0.0
 11
157.9571165473318
 21
240.5521730261702
 31
0.0
  0
LINE
  5
1DD
100
AcDbEntity
  8
外形
  6
CONTINUOUS
 62
     1
100
AcDbLine
 10
153.345593
 20
231.000356
 30
0.0
 11
153.345593
 21
230.583484
 31
0.0
  0
LINE
  5
1DE
100
AcDbEntity
  8
外形
  6
CENTER
 62
     1
100
AcDbLine
 10
153.759625
 20
230.583484
 30
0.0
 11
153.345593
 21
230.583484
 31
0.0
  0
LINE
  5
1DF
100
AcDbEntity
  8
外形
  6
CONTINUOUS
100
AcDbLine
 10
161.04804
 20
231.606008
 30
0.0
 11
159.347252
 21
231.071702
 31
0.0
  0
LINE
  5
1E0
100
AcDbEntity
  8
外形
  6
CONTINUOUS
100
AcDbLine
 10
160.206499
 20
237.100411
 30
0.0
 11
159.710868
 21
231.435318
 31
0.0
  0
LINE
  5
1E1
100
AcDbEntity
  8
外形
  6
CONTINUOUS
100
AcDbLine
 10
159.347252
 20
231.071702
 30
0.0
 11
153.780088
 21
230.584639
 31
0.0
  0
ARC
  5
1E2
100
AcDbEntity
  8
外形
  6
CONTINUOUS
100
AcDbCircle
 10
159.31239
 20
231.47018
 30
0.0
 40
0.4
100
AcDbArc
 50
275.0
 51
355.0
  0
LINE
  5
1E3
100
AcDbEntity
  8
外形
  6
CONTINUOUS
100
AcDbLine
 10
153.842379
 20
236.683071
 30
0.0
 11
153.346748
 21
231.017979
 31
0.0
  0
LINE
  5
1E4
100
AcDbEntity
  8
外形
  6
CONTINUOUS
100
AcDbLine
 10
159.773159
 20
237.533751
 30
0.0
 11
153.871632
 21
237.017434
 31
0.0
  0
ARC
  5
1E5
100
AcDbEntity
  8
外形
  6
CONTINUOUS
100
AcDbCircle
 10
154.240857
 20
236.648209
 30
0.0
 40
0.4
100
AcDbArc
 50
95.0
 51
175.0
  0
LINE
  5
1E6
100
AcDbEntity
  8
外形
  6
CONTINUOUS
100
AcDbLine
 10
154.020272
 20
238.716392
 30
0.0
 11
153.842379
 21
236.683071
 31
0.0
  0
ARC
  5
1E7
100
AcDbEntity
  8
外形
  6
CONTINUOUS
100
AcDbCircle
 10
153.745226
 20
230.983116
 30
0.0
 40
0.4
100
AcDbArc
 50
175.0
 51
275.0
  0
LINE
  5
1E8
100
AcDbEntity
  8
外形
  6
CENTER
 62
     1
100
AcDbLine
 10
156.776624
 20
229.884529
 30
0.0
 11
156.776624
 21
238.2975
 31
0.0
  0
LINE
  5
1E9
100
AcDbEntity
  8
外形
  6
CONTINUOUS
100
AcDbLine
 10
160.07294
 20
235.573816
 30
0.0
 11
160.403412
 21
235.904288
 31
0.0
  0
LINE
  5
1EA
100
AcDbEntity
  8
外形
  6
CONTINUOUS
100
AcDbLine
 10
158.375019
 20
237.411429
 30
0.0
 11
158.635645
 21
237.672055
 31
0.0
  0
LINE
  5
1EB
100
AcDbEntity
  8
外形
  6
CONTINUOUS
100
AcDbLine
 10
157.455129
 20
234.298291
 30
0.0
 11
157.864564
 21
234.059195
 31
0.0
  0
LINE
  5
1EC
100
AcDbEntity
  8
外形
  6
CONTINUOUS
100
AcDbLine
 10
157.864564
 20
234.059195
 30
0.0
 11
157.455129
 21
233.820098
 31
0.0
  0
LINE
  5
1ED
100
AcDbEntity
  8
外形
  6
CONTINUOUS
100
AcDbLine
 10
156.908812
 20
234.766345
 30
0.0
 11
157.320594
 21
235.001379
 31
0.0
  0
LINE
  5
1EE
100
AcDbEntity
  8
外形
  6
CONTINUOUS
100
AcDbLine
 10
157.320594
 20
235.001379
 30
0.0
 11
157.32294
 21
234.527249
 31
0.0
  0
LINE
  5
1EF
100
AcDbEntity
  8
外形
  6
CONTINUOUS
100
AcDbLine
 10
156.230308
 20
234.527249
 30
0.0
 11
156.232653
 21
235.001379
 31
0.0
  0
LINE
  5
1F0
100
AcDbEntity
  8
外形
  6
CONTINUOUS
100
AcDbLine
 10
156.232653
 20
235.001379
 30
0.0
 11
156.644435
 21
234.766345
 31
0.0
  0
LINE
  5
1F1
100
AcDbEntity
  8
外形
  6
CONTINUOUS
100
AcDbLine
 10
156.098119
 20
233.820098
 30
0.0
 11
155.688683
 21
234.059195
 31
0.0
  0
LINE
  5
1F2
100
AcDbEntity
  8
外形
  6
CONTINUOUS
100
AcDbLine
 10
155.688683
 20
234.059195
 30
0.0
 11
156.098119
 21
234.298291
 31
0.0
  0
LINE
  5
1F3
100
AcDbEntity
  8
外形
  6
CONTINUOUS
100
AcDbLine
 10
156.644435
 20
233.352044
 30
0.0
 11
156.232653
 21
233.117011
 31
0.0
  0
LINE
  5
1F4
100
AcDbEntity
  8
外形
  6
CONTINUOUS
100
AcDbLine
 10
156.232653
 20
233.117011
 30
0.0
 11
156.230308
 21
233.59114
 31
0.0
  0
LINE
  5
1F5
100
AcDbEntity
  8
外形
  6
CONTINUOUS
100
AcDbLine
 10
157.32294
 20
233.59114
 30
0.0
 11
157.320594
 21
233.117011
 31
0.0
  0
LINE
  5
1F6
100
AcDbEntity
  8
外形
  6
CONTINUOUS
100
AcDbLine
 10
157.320594
 20
233.117011
 30
0.0
 11
156.908812
 21
233.352044
 31
0.0
  0
ARC
  5
1F7
100
AcDbEntity
  8
外形
  6
CONTINUOUS
100
AcDbCircle
 10
157.589602
 20
234.528568
 30
0.0
 40
0.266666
100
AcDbArc
 50
180.283476
 51
239.716524
  0
ARC
  5
1F8
100
AcDbEntity
  8
外形
  6
CONTINUOUS
100
AcDbCircle
 10
157.589602
 20
233.589821
 30
0.0
 40
0.266666
100
AcDbArc
 50
120.283476
 51
179.716524
  0
ARC
  5
1F9
100
AcDbEntity
  8
外形
  6
CONTINUOUS
100
AcDbCircle
 10
156.776624
 20
233.120448
 30
0.0
 40
0.266666
100
AcDbArc
 50
60.283476
 51
119.716524
  0
ARC
  5
1FA
100
AcDbEntity
  8
外形
  6
CONTINUOUS
100
AcDbCircle
 10
155.963645
 20
233.589821
 30
0.0
 40
0.266666
100
AcDbArc
 50
0.283476
 51
59.716524
  0
ARC
  5
1FB
100
AcDbEntity
  8
外形
  6
CONTINUOUS
100
AcDbCircle
 10
155.963645
 20
234.528568
 30
0.0
 40
0.266666
100
AcDbArc
 50
300.283476
 51
359.716524
  0
ARC
  5
1FC
100
AcDbEntity
  8
外形
  6
CONTINUOUS
100
AcDbCircle
 10
156.776624
 20
234.997942
 30
0.0
 40
0.266666
100
AcDbArc
 50
240.283476
 51
299.716524
  0
CIRCLE
  5
1FD
100
AcDbEntity
  8
外形
  6
CONTINUOUS
100
AcDbCircle
 10
156.776624
 20
234.059195
 30
0.0
 40
1.725
  0
LINE
  5
1FE
100
AcDbEntity
  8
外形
  6
CENTER
 62
     1
100
AcDbLine
 10
153.351569
 20
234.059195
 30
0.0
 11
160.111077
 21
234.059195
 31
0.0
  0
ARC
  5
1FF
100
AcDbEntity
  8
外形
  6
CONTINUOUS
100
AcDbCircle
 10
159.519528
 20
236.788171
 30
0.0
 40
1.25
100
AcDbArc
 50
315.0
 51
135.0
  0
ARC
  5
200
100
AcDbEntity
  8
外形
  6
CONTINUOUS
100
AcDbCircle
 10
159.808022
 20
237.135273
 30
0.0
 40
0.4
100
AcDbArc
 50
355.0
 51
95.0
  0
LINE
  5
202
100
AcDbEntity
  8
外形
  6
CONTINUOUS
100
AcDbLine
 10
172.470593
 20
231.833484
 30
0.0
 11
172.470593
 21
235.062793
 31
0.0
  0
LINE
  5
203
100
AcDbEntity
  8
外形
  6
CONTINUOUS
100
AcDbLine
 10
172.470593
 20
231.833484
 30
0.0
 11
172.720593
 21
231.583484
 31
0.0
  0
LINE
  5
204
100
AcDbEntity
  8
外形
  6
CONTINUOUS
100
AcDbLine
 10
172.470593
 20
235.062793
 30
0.0
 11
168.345593
 21
235.062793
 31
0.0
  0
LINE
  5
205
100
AcDbEntity
  8
外形
  6
CONTINUOUS
100
AcDbLine
 10
172.720593
 20
234.404034
 30
0.0
 11
172.720593
 21
231.583484
 31
0.0
  0
LINE
  5
206
100
AcDbEntity
  8
外形
  6
CONTINUOUS
100
AcDbLine
 10
172.470593
 20
238.104174
 30
0.0
 11
165.345593
 21
238.104174
 31
0.0
  0
LINE
  5
207
100
AcDbEntity
  8
外形
  6
CONTINUOUS
100
AcDbLine
 10
172.470593
 20
231.833484
 30
0.0
 11
165.345593
 21
231.833484
 31
0.0
  0
LINE
  5
208
100
AcDbEntity
  8
外形
  6
CONTINUOUS
100
AcDbLine
 10
172.470593
 20
241.333484
 30
0.0
 11
159.632642
 21
241.333484
 31
0.0
  0
LINE
  5
209
100
AcDbEntity
  8
外形
  6
CONTINUOUS
100
AcDbLine
 10
172.470593
 20
241.333484
 30
0.0
 11
172.720593
 21
241.583484
 31
0.0
  0
DIMENSION
  5
20A
100
AcDbEntity
  8
寸法
  6
CONTINUOUS
100
AcDbDimension
  2
*D24
 10
252.845593
 20
220.605027
 30
0.0
 11
248.345593
 21
223.105027
 31
0.0
 70
    32
  3
STANDARD
100
AcDbAlignedDimension
 13
243.845593
 23
234.646992
 33
0.0
 14
252.845593
 24
234.646992
 34
0.0
100
AcDbRotatedDimension
1001
ACAD
1000
DSTYLE
1002
{
1070
   284
1070
    13
1070
   146
1040
0.5
1070
   272
1070
     3
1070
    40
1040
1.0
1070
   287
1070
     0
1002
}
  0
LINE
  5
20B
100
AcDbEntity
  8
外形
  6
CONTINUOUS
100
AcDbLine
 10
277.345593
 20
193.019387
 30
0.0
 11
277.345593
 21
202.019387
 31
0.0
  0
LINE
  5
20C
100
AcDbEntity
  8
外形
  6
CONTINUOUS
100
AcDbLine
 10
277.345593
 20
193.019387
 30
0.0
 11
278.345593
 21
194.019387
 31
0.0
  0
LINE
  5
20D
100
AcDbEntity
  8
外形
  6
CONTINUOUS
100
AcDbLine
 10
278.345593
 20
201.019387
 30
0.0
 11
278.345593
 21
194.019387
 31
0.0
  0
LINE
  5
20E
100
AcDbEntity
  8
外形
  6
CONTINUOUS
100
AcDbLine
 10
277.345593
 20
202.019387
 30
0.0
 11
278.345593
 21
201.019387
 31
0.0
  0
ARC
  5
20F
100
AcDbEntity
  8
外形
  6
CONTINUOUS
100
AcDbCircle
 10
248.345593
 20
236.583484
 30
0.0
 40
5.0
100
AcDbArc
 50
25.841933
 51
154.158067
  0
ARC
  5
210
100
AcDbEntity
  8
外形
  6
CONTINUOUS
100
AcDbCircle
 10
248.345593
 20
236.583484
 30
0.0
 40
5.0
100
AcDbArc
 50
205.841933
 51
334.158067
  0
DIMENSION
  5
211
100
AcDbEntity
  8
寸法
  6
CONTINUOUS
100
AcDbDimension
  2
*D25
 10
245.366026
 20
232.56824
 30
0.0
 11
256.688379
 21
247.826166
 31
0.0
 70
   163
  3
STANDARD
100
AcDbDiametricDimension
 15
251.325159
 25
240.598727
 35
0.0
 40
0.0
1001
ACAD
1000
DSTYLE
1002
{
1070
   284
1070
    13
1070
   146
1040
0.5
1070
   272
1070
     3
1070
    40
1040
1.0
1070
   287
1070
     0
1002
}
  0
LINE
  5
212
100
AcDbEntity
  8
外形
  6
CONTINUOUS
100
AcDbLine
 10
243.845593
 20
238.762933
 30
0.0
 11
243.845593
 21
234.404034
 31
0.0
  0
LINE
  5
213
100
AcDbEntity
  8
外形
  6
CONTINUOUS
100
AcDbLine
 10
277.345593
 20
238.762933
 30
0.0
 11
254.845593
 21
238.762933
 31
0.0
  0
LINE
  5
214
100
AcDbEntity
  8
外形
  6
CONTINUOUS
100
AcDbLine
 10
277.345593
 20
241.583484
 30
0.0
 11
254.845593
 21
241.583484
 31
0.0
  0
LINE
  5
215
100
AcDbEntity
  8
外形
  6
CONTINUOUS
100
AcDbLine
 10
277.345593
 20
231.583484
 30
0.0
 11
254.845593
 21
231.583484
 31
0.0
  0
LINE
  5
216
100
AcDbEntity
  8
外形
  6
CONTINUOUS
100
AcDbLine
 10
277.345593
 20
234.404034
 30
0.0
 11
254.845593
 21
234.404034
 31
0.0
  0
LINE
  5
217
100
AcDbEntity
  8
外形
  6
CENTER
 62
     1
100
AcDbLine
 10
248.345593
 20
242.729734
 30
0.0
 11
248.345593
 21
230.408658
 31
0.0
  0
LINE
  5
218
100
AcDbEntity
  8
外形
  6
CONTINUOUS
100
AcDbLine
 10
252.845593
 20
238.762933
 30
0.0
 11
252.845593
 21
234.404034
 31
0.0
  0
LINE
  5
219
100
AcDbEntity
  8
外形
  6
CONTINUOUS
100
AcDbLine
 10
277.345593
 20
238.762933
 30
0.0
 11
277.345593
 21
241.583484
 31
0.0
  0
LINE
  5
21A
100
AcDbEntity
  8
外形
  6
CONTINUOUS
100
AcDbLine
 10
277.345593
 20
241.583484
 30
0.0
 11
278.345593
 21
240.583484
 31
0.0
  0
LINE
  5
21B
100
AcDbEntity
  8
外形
  6
CONTINUOUS
100
AcDbLine
 10
278.345593
 20
232.583484
 30
0.0
 11
278.345593
 21
240.583484
 31
0.0
  0
LINE
  5
21C
100
AcDbEntity
  8
外形
  6
CONTINUOUS
100
AcDbLine
 10
278.345593
 20
240.583484
 30
0.0
 11
278.345593
 21
232.583484
 31
0.0
  0
ARC
  5
21D
100
AcDbEntity
  8
外形
  6
CONTINUOUS
100
AcDbCircle
 10
272.845593
 20
236.583484
 30
0.0
 40
5.0
100
AcDbArc
 50
334.158067
 51
25.841933
  0
LINE
  5
21E
100
AcDbEntity
  8
外形
  6
CONTINUOUS
100
AcDbLine
 10
277.345593
 20
231.583484
 30
0.0
 11
278.345593
 21
232.583484
 31
0.0
  0
LINE
  5
21F
100
AcDbEntity
  8
外形
  6
CONTINUOUS
100
AcDbLine
 10
277.345593
 20
234.404034
 30
0.0
 11
277.345593
 21
231.583484
 31
0.0
  0
ENDSEC
  0
SECTION
  2
OBJECTS
  0
DICTIONARY
  5
1E
100
AcDbDictionary
  3
ACAD_GROUP
350
1C
  3
ACAD_MLINESTYLE
350
1D
  0
DICTIONARY
  5
45
100
AcDbDictionary
280
     1
  3
ACAD_XREC_ROUNDTRIP
360
46
  0
DICTIONARY
  5
30
100
AcDbDictionary
280
     1
  3
ACAD_XREC_ROUNDTRIP
360
31
  0
DICTIONARY
  5
3
100
AcDbDictionary
280
     1
  3
ACAD_LAYOUTSELFREF
360
4
  0
DICTIONARY
  5
A
100
AcDbDictionary
280
     1
  3
ACAD_LAYOUTSELFREF
360
B
  0
DICTIONARY
  5
1C
102
{ACAD_REACTORS
330
1E
102
}
100
AcDbDictionary
  0
DICTIONARY
  5
1D
102
{ACAD_REACTORS
330
1E
102
}
100
AcDbDictionary
  3
STANDARD
350
20
  0
XRECORD
  5
46
102
{ACAD_REACTORS
330
45
102
}
100
AcDbXrecord
102
PLOTBIT
280
     0
  0
XRECORD
  5
31
102
{ACAD_REACTORS
330
30
102
}
100
AcDbXrecord
102
ACADR14ROUNDTRIP
1000
DSTYLE
1002
{
1070
   341
340
0
1070
   343
340
0
1070
   344
340
0
1002
}
  0
XRECORD
  5
4
102
{ACAD_REACTORS
330
3
102
}
100
AcDbXrecord
340
2
  0
XRECORD
  5
B
102
{ACAD_REACTORS
330
A
102
}
100
AcDbXrecord
340
9
  0
MLINESTYLE
  5
20
102
{ACAD_REACTORS
330
1D
102
}
100
AcDbMlineStyle
  2
STANDARD
 70
     0
  3

 62
     0
 51
90.0
 52
90.0
 71
     2
 49
0.5
 62
   256
  6
BYLAYER
 49
-0.5
 62
   256
  6
BYLAYER
  0
ENDSEC
  0
EOF
