  0
SECTION
  2
HEADER
  9
$ACADVER
  1
AC1015
  9
$ACADMAINTVER
 70
     6
  9
$DWGCODEPAGE
  3
ANSI_932
  9
$INSBASE
 10
0.0
 20
0.0
 30
0.0
  9
$EXTMIN
 10
-54.89967921598066
 20
-90.43180557191806
 30
-0.0015258207003583
  9
$EXTMAX
 10
155.1512144969521
 20
28.76337091614641
 30
0.0000000349246037
  9
$LIMMIN
 10
0.0
 20
0.0
  9
$LIMMAX
 10
297.0
 20
210.0
  9
$ORTHOMODE
 70
     0
  9
$REGENMODE
 70
     1
  9
$FILLMODE
 70
     1
  9
$QTEXTMODE
 70
     0
  9
$MIRRTEXT
 70
     1
  9
$LTSCALE
 40
1.0
  9
$ATTMODE
 70
     1
  9
$TEXTSIZE
 40
3.15
  9
$TRACEWID
 40
1.0
  9
$TEXTSTYLE
  7
STANDARD
  9
$CLAYER
  8
AM_0
  9
$CELTYPE
  6
ByLayer
  9
$CECOLOR
 62
   256
  9
$CELTSCALE
 40
1.0
  9
$DISPSILH
 70
     0
  9
$DIMSCALE
 40
1.0
  9
$DIMASZ
 40
2.5
  9
$DIMEXO
 40
0.0
  9
$DIMDLI
 40
10.0
  9
$DIMRND
 40
0.0
  9
$DIMDLE
 40
0.0
  9
$DIMEXE
 40
1.0
  9
$DIMTP
 40
0.1
  9
$DIMTM
 40
0.1000000001
  9
$DIMTXT
 40
3.8
  9
$DIMCEN
 40
0.0
  9
$DIMTSZ
 40
0.0
  9
$DIMTOL
 70
     0
  9
$DIMLIM
 70
     0
  9
$DIMTIH
 70
     0
  9
$DIMTOH
 70
     0
  9
$DIMSE1
 70
     0
  9
$DIMSE2
 70
     0
  9
$DIMTAD
 70
     3
  9
$DIMZIN
 70
     1
  9
$DIMBLK
  1
Open30
  9
$DIMASO
 70
     1
  9
$DIMSHO
 70
     1
  9
$DIMPOST
  1

  9
$DIMAPOST
  1
"
  9
$DIMALT
 70
     0
  9
$DIMALTD
 70
     2
  9
$DIMALTF
 40
0.0393701
  9
$DIMLFAC
 40
1.0
  9
$DIMTOFL
 70
     1
  9
$DIMTVP
 40
0.0
  9
$DIMTIX
 70
     0
  9
$DIMSOXD
 70
     0
  9
$DIMSAH
 70
     0
  9
$DIMBLK1
  1

  9
$DIMBLK2
  1

  9
$DIMSTYLE
  2
AM_JIS
  9
$DIMCLRD
 70
   256
  9
$DIMCLRE
 70
   256
  9
$DIMCLRT
 70
     2
  9
$DIMTFAC
 40
0.71
  9
$DIMGAP
 40
1.5
  9
$DIMJUST
 70
     0
  9
$DIMSD1
 70
     0
  9
$DIMSD2
 70
     0
  9
$DIMTOLJ
 70
     0
  9
$DIMTZIN
 70
     8
  9
$DIMALTZ
 70
     0
  9
$DIMALTTZ
 70
     0
  9
$DIMUPT
 70
     0
  9
$DIMDEC
 70
     0
  9
$DIMTDEC
 70
     2
  9
$DIMALTU
 70
     2
  9
$DIMALTTD
 70
     2
  9
$DIMTXSTY
  7
STANDARD
  9
$DIMAUNIT
 70
     1
  9
$DIMADEC
 70
     0
  9
$DIMALTRND
 40
0.0
  9
$DIMAZIN
 70
     2
  9
$DIMDSEP
 70
    46
  9
$DIMATFIT
 70
     3
  9
$DIMFRAC
 70
     0
  9
$DIMLDRBLK
  1
Open30
  9
$DIMLUNIT
 70
     2
  9
$DIMLWD
 70
    -1
  9
$DIMLWE
 70
    -1
  9
$DIMTMOVE
 70
     0
  9
$LUNITS
 70
     2
  9
$LUPREC
 70
     2
  9
$SKETCHINC
 40
1.0
  9
$FILLETRAD
 40
1.2
  9
$AUNITS
 70
     1
  9
$AUPREC
 70
     5
  9
$MENU
  1
.
  9
$ELEVATION
 40
0.0
  9
$PELEVATION
 40
0.0
  9
$THICKNESS
 40
0.0
  9
$LIMCHECK
 70
     0
  9
$CHAMFERA
 40
10.0
  9
$CHAMFERB
 40
10.0
  9
$CHAMFERC
 40
20.0
  9
$CHAMFERD
 40
0.0
  9
$SKPOLY
 70
     0
  9
$TDCREATE
 40
2451943.610431667
  9
$TDUCREATE
 40
2451943.235431667
  9
$TDUPDATE
 40
2455468.577936736
  9
$TDUUPDATE
 40
2455468.202936736
  9
$TDINDWG
 40
2.0570331366
  9
$TDUSRTIMER
 40
2.057032963
  9
$USRTIMER
 70
     1
  9
$ANGBASE
 50
0.0
  9
$ANGDIR
 70
     0
  9
$PDMODE
 70
     0
  9
$PDSIZE
 40
0.0
  9
$PLINEWID
 40
0.0
  9
$SPLFRAME
 70
     0
  9
$SPLINETYPE
 70
     6
  9
$SPLINESEGS
 70
     8
  9
$HANDSEED
  5
1E220
  9
$SURFTAB1
 70
     6
  9
$SURFTAB2
 70
     6
  9
$SURFTYPE
 70
     6
  9
$SURFU
 70
     6
  9
$SURFV
 70
     6
  9
$UCSBASE
  2

  9
$UCSNAME
  2

  9
$UCSORG
 10
0.0
 20
0.0
 30
0.0
  9
$UCSXDIR
 10
1.0
 20
0.0
 30
0.0
  9
$UCSYDIR
 10
0.0
 20
1.0
 30
0.0
  9
$UCSORTHOREF
  2

  9
$UCSORTHOVIEW
 70
     0
  9
$UCSORGTOP
 10
0.0
 20
0.0
 30
0.0
  9
$UCSORGBOTTOM
 10
0.0
 20
0.0
 30
0.0
  9
$UCSORGLEFT
 10
0.0
 20
0.0
 30
0.0
  9
$UCSORGRIGHT
 10
0.0
 20
0.0
 30
0.0
  9
$UCSORGFRONT
 10
0.0
 20
0.0
 30
0.0
  9
$UCSORGBACK
 10
0.0
 20
0.0
 30
0.0
  9
$PUCSBASE
  2

  9
$PUCSNAME
  2

  9
$PUCSORG
 10
0.0
 20
0.0
 30
0.0
  9
$PUCSXDIR
 10
1.0
 20
0.0
 30
0.0
  9
$PUCSYDIR
 10
0.0
 20
1.0
 30
0.0
  9
$PUCSORTHOREF
  2

  9
$PUCSORTHOVIEW
 70
     0
  9
$PUCSORGTOP
 10
0.0
 20
0.0
 30
0.0
  9
$PUCSORGBOTTOM
 10
0.0
 20
0.0
 30
0.0
  9
$PUCSORGLEFT
 10
0.0
 20
0.0
 30
0.0
  9
$PUCSORGRIGHT
 10
0.0
 20
0.0
 30
0.0
  9
$PUCSORGFRONT
 10
0.0
 20
0.0
 30
0.0
  9
$PUCSORGBACK
 10
0.0
 20
0.0
 30
0.0
  9
$USERI1
 70
     0
  9
$USERI2
 70
     0
  9
$USERI3
 70
     0
  9
$USERI4
 70
     0
  9
$USERI5
 70
     0
  9
$USERR1
 40
0.0
  9
$USERR2
 40
0.0
  9
$USERR3
 40
0.0
  9
$USERR4
 40
0.0
  9
$USERR5
 40
0.0
  9
$WORLDVIEW
 70
     1
  9
$SHADEDGE
 70
     3
  9
$SHADEDIF
 70
    70
  9
$TILEMODE
 70
     1
  9
$MAXACTVP
 70
    64
  9
$PINSBASE
 10
0.0
 20
0.0
 30
0.0
  9
$PLIMCHECK
 70
     0
  9
$PEXTMIN
 10
1.000000000000000E+20
 20
1.000000000000000E+20
 30
1.000000000000000E+20
  9
$PEXTMAX
 10
-1.000000000000000E+20
 20
-1.000000000000000E+20
 30
-1.000000000000000E+20
  9
$PLIMMIN
 10
0.0
 20
0.0
  9
$PLIMMAX
 10
420.0
 20
297.0
  9
$UNITMODE
 70
     0
  9
$VISRETAIN
 70
     1
  9
$PLINEGEN
 70
     0
  9
$PSLTSCALE
 70
     1
  9
$TREEDEPTH
 70
  3020
  9
$CMLSTYLE
  2
Standard
  9
$CMLJUST
 70
     0
  9
$CMLSCALE
 40
20.0
  9
$PROXYGRAPHICS
 70
     1
  9
$MEASUREMENT
 70
     1
  9
$CELWEIGHT
370
    -1
  9
$ENDCAPS
280
     0
  9
$JOINSTYLE
280
     0
  9
$LWDISPLAY
290
     0
  9
$INSUNITS
 70
     4
  9
$HYPERLINKBASE
  1

  9
$STYLESHEET
  1
sei_cad.ctb
  9
$XEDIT
290
     1
  9
$CEPSNTYPE
380
     0
  9
$PSTYLEMODE
290
     1
  9
$FINGERPRINTGUID
  2
{C77AB3BE-9CA2-11D3-BAF3-006094EB760E}
  9
$VERSIONGUID
  2
{FEA5ADD9-43DA-4CD4-9341-A20530C6CF49}
  9
$EXTNAMES
290
     1
  9
$PSVPSCALE
 40
0.0
  9
$OLESTARTUP
290
     0
  0
ENDSEC
  0
SECTION
  2
CLASSES
  0
CLASS
  1
ACDBDICTIONARYWDFLT
  2
AcDbDictionaryWithDefault
  3
ObjectDBX Classes
 90
        0
280
     0
281
     0
  0
CLASS
  1
ACDBPLACEHOLDER
  2
AcDbPlaceHolder
  3
ObjectDBX Classes
 90
        0
280
     0
281
     0
  0
CLASS
  1
LAYOUT
  2
AcDbLayout
  3
ObjectDBX Classes
 90
        0
280
     0
281
     0
  0
CLASS
  1
ACME_DOCUMENT
  2
AcMeDbDoc
  3
AcMeServices
 90
        0
280
     1
281
     0
  0
CLASS
  1
ACMESCOPE
  2
AcMeScope
  3
AcMeServices
 90
        0
280
     1
281
     0
  0
CLASS
  1
ACMECOMMANDHISTORY
  2
AcMeCommandHistory
  3
AcMeServices
 90
        0
280
     1
281
     0
  0
CLASS
  1
DICTIONARYVAR
  2
AcDbDictionaryVar
  3
ObjectDBX Classes
 90
        0
280
     0
281
     0
  0
CLASS
  1
ACIMSYSVARMAN
  2
AcImSysVarManager
  3
AcMeServices
 90
        0
280
     1
281
     0
  0
CLASS
  1
ACIMREALSYSVAR
  2
AcImRealSysVar
  3
AcMeServices
 90
        0
280
     1
281
     0
  0
CLASS
  1
ACIMINTSYSVAR
  2
AcImIntSysVar
  3
AcMeServices
 90
        0
280
     1
281
     0
  0
CLASS
  1
ACMEDRAWINGMAN
  2
AcMeDrawingMan
  3
AcMeServices
 90
        0
280
     1
281
     0
  0
CLASS
  1
ACMEVIEW
  2
AcMeView
  3
AcMeServices
 90
        0
280
     1
281
     0
  0
CLASS
  1
ACDBENTITYCACHE
  2
AcMeEntityCache
  3
AcMeServices
 90
        0
280
     1
281
     0
  0
CLASS
  1
GSMANAGER
  2
AcMeGSManager
  3
AcMeServices
 90
        0
280
     1
281
     0
  0
CLASS
  1
AMDTINTERNALREACTOR
  2
AmdtInternalReactor
  3
AcMeServices
 90
        0
280
     1
281
     0
  0
CLASS
  1
ACMESTATEMGR
  2
AcMeStateMgr
  3
AcMeServices
 90
        0
280
     1
281
     0
  0
CLASS
  1
ACME_DATABASE
  2
AcMeDbDatabase
  3
AcMeServices
 90
        0
280
     1
281
     0
  0
CLASS
  1
ACRFINSADJUSTERMGR
  2
AcRfInsAdjusterMgr
  3
AcMeServices
 90
        0
280
     1
281
     0
  0
CLASS
  1
AMGSETTINGSOBJ
  2
AmgSettingsObj
  3
"AcadM|Product Description: AutoCAD Mechanical 2000|Company: Autodesk"
 90
        0
280
     1
281
     0
  0
CLASS
  1
AMGOBJPROPCFG
  2
AmgObjPropCfg
  3
"AmgLay|Product Description: AutoCAD Mechanical 2000|Company: Autodesk"
 90
        1
280
     1
281
     0
  0
CLASS
  1
ACMDATADICTIONARY
  2
AcmDataDictionary
  3
"AcmSymBB|Product Description: AutoCAD Mechanical 2004 DX|Company: Autodesk"
 90
        0
280
     1
281
     0
  0
CLASS
  1
ACMDATAENTRYBLOCK
  2
AcmDataEntryBlock
  3
"AcmSymBB|Product Description: AutoCAD Mechanical 2004 DX|Company: Autodesk"
 90
        0
280
     1
281
     0
  0
CLASS
  1
ACIMSTRSYSVAR
  2
AcImStrSysVar
  3
AcMeServices
 90
        0
280
     1
281
     0
  0
CLASS
  1
ACAMGFILTERDAT
  2
AcAmgFilterDat
  3
"AcadM|Product Description: AutoCAD Mechanical 2000|Company: Autodesk"
 90
        0
280
     1
281
     0
  0
CLASS
  1
LAYER_INDEX
  2
AcDbLayerIndex
  3
ObjectDBX Classes
 90
        0
280
     0
281
     0
  0
CLASS
  1
IDBUFFER
  2
AcDbIdBuffer
  3
ObjectDBX Classes
 90
        0
280
     0
281
     0
  0
CLASS
  1
ACMSTANDARDJIS
  2
AcmStandardJIS
  3
"Amdt_StdImp|Product Description: AutoCAD Mechanical 2004 DX|Company: Autodesk"
 90
        0
280
     1
281
     0
  0
CLASS
  1
ACMSURFSTANDARDJIS
  2
AcmSurfTextStdJIS
  3
"Amdt_StdImp|Product Description: AutoCAD Mechanical 2004 DX|Company: Autodesk"
 90
        0
280
     1
281
     0
  0
CLASS
  1
ACMFCFSTANDARDJIS
  2
AcmFCFStdJIS
  3
"Amdt_StdImp|Product Description: AutoCAD Mechanical 2004 DX|Company: Autodesk"
 90
        0
280
     1
281
     0
  0
CLASS
  1
ACMWELDSTANDARDJIS
  2
AcmWeldingStdJIS
  3
"Amdt_StdImp|Product Description: AutoCAD Mechanical 2004 DX|Company: Autodesk"
 90
        0
280
     1
281
     0
  0
CLASS
  1
ACMIDSTANDARDJIS
  2
AcmIdStdJIS
  3
"Amdt_StdImp|Product Description: AutoCAD Mechanical 2004 DX|Company: Autodesk"
 90
        0
280
     1
281
     0
  0
CLASS
  1
ACMDATUMSTANDARDJIS
  2
AcmDatumStdJIS
  3
"Amdt_StdImp|Product Description: AutoCAD Mechanical 2004 DX|Company: Autodesk"
 90
        0
280
     1
281
     0
  0
CLASS
  1
ACMBOMSTANDARDJIS
  2
AcmBOMStdJIS
  3
"Amdt_StdImp|Product Description: AutoCAD Mechanical 2004 DX|Company: Autodesk"
 90
        0
280
     1
281
     0
  0
CLASS
  1
AMDTNOTE
  2
AmdtNote
  3
"AcmSymBB|Product Description: AutoCAD Mechanical 2004 DX|Company: Autodesk"
 90
     1023
280
     1
281
     1
  0
CLASS
  1
TABLESTYLE
  2
AcDbTableStyle
  3
ObjectDBX Classes
 90
     2047
280
     0
281
     0
  0
CLASS
  1
ACGREFMASTER
  2
AcGrefMaster
  3
AcAttribServices
 90
        0
280
     1
281
     0
  0
CLASS
  1
AM_DRAWING_MGR
  2
AcDmDwgMgr
  3
AcMechDwgViewMgmt
 90
        0
280
     1
281
     0
  0
CLASS
  1
AM_DWG_DOCUMENT
  2
AcDmDwgDocument
  3
AcMechDwgViewMgmt
 90
        0
280
     1
281
     0
  0
CLASS
  1
AM_DWG_SHEET
  2
AcDmSheet
  3
AcMechDwgViewMgmt
 90
        0
280
     1
281
     0
  0
CLASS
  1
AM_VIEWDIMPARMAP
  2
AcDmViewDimParMap
  3
AcMechDwgViewMgmt
 90
        0
280
     1
281
     0
  0
CLASS
  1
AM_DWGMGR_NAME
  2
AcDmDwgMgrName
  3
AcMechDwgViewMgmt
 90
        0
280
     1
281
     0
  0
CLASS
  1
ACGREFACADMASTER
  2
AcGrefacadMaster
  3
AcGrefServices
 90
        0
280
     1
281
     0
  0
CLASS
  1
AMDTMENUSTATEMGR
  2
AmdtMenuStateMgr
  3
McadcomServices
 90
        0
280
     1
281
     0
  0
CLASS
  1
AMDTMCOMMENUSTATE
  2
AmdtMcomMenuState
  3
McadcomServices
 90
        0
280
     1
281
     0
  0
CLASS
  1
AMIMASTER
  2
AmiMaster
  3
AmiServices
 90
        0
280
     1
281
     0
  0
CLASS
  1
MAPIAMMOUDLE
  2
MApiAmModule
  3
MApiAmServices
 90
        0
280
     1
281
     0
  0
CLASS
  1
AMDTADMENUSTATE
  2
AmdtAdMenuState
  3
DesignerServices
 90
        0
280
     1
281
     0
  0
CLASS
  1
ADAPPL
  2
AcAdAppl
  3
DesignerServices
 90
        0
280
     1
281
     0
  0
CLASS
  1
DEPMGR
  2
AcAdDepMgr
  3
DesignerServices
 90
        0
280
     1
281
     0
  0
CLASS
  1
PARAMMGR
  2
AcAdParamMgr
  3
DesignerServices
 90
        0
280
     1
281
     0
  0
CLASS
  1
PARAMSCOPE
  2
AcAdParamScope
  3
DesignerServices
 90
        0
280
     1
281
     0
  0
CLASS
  1
NAMEDAPPL
  2
AcAdNamedAppl
  3
DesignerServices
 90
        0
280
     1
281
     0
  0
CLASS
  1
AMDTDMMENUSTATE
  2
AmdtDmMenuState
  3
AcMechDwgViewMgmt
 90
        0
280
     1
281
     0
  0
CLASS
  1
AMDTAMMENUSTATE
  2
AmdtAmMenuState
  3
DesignerAssemblies
 90
        0
280
     1
281
     0
  0
CLASS
  1
ACAMPROJECT
  2
AcAmProject
  3
DesignerAssemblies
 90
        0
280
     1
281
     0
  0
CLASS
  1
ACAMGRCOMPDEF
  2
AcAmGrCompDef
  3
DesignerAssemblies
 90
        0
280
     1
281
     0
  0
CLASS
  1
ACCMCONTEXT
  2
AcCmContext
  3
DesignerAssemblies
 90
        0
280
     1
281
     0
  0
CLASS
  1
ACAMCOMPDEF
  2
AcAmCompDef
  3
DesignerAssemblies
 90
        0
280
     1
281
     0
  0
CLASS
  1
ACAMCOMPDEFMGR
  2
AcAmCompDefMgr
  3
DesignerAssemblies
 90
        0
280
     1
281
     0
  0
CLASS
  1
AMCONTEXTMGR
  2
AcAmContextMgr
  3
DesignerAssemblies
 90
        0
280
     1
281
     0
  0
CLASS
  1
ACAMCONTEXTMODELER
  2
AcAmContextModeler
  3
DesignerAssemblies
 90
        0
280
     1
281
     0
  0
CLASS
  1
ACAMGTITLESTD
  2
AcAmgTitleStd
  3
"TITLEAPP"
 90
        0
280
     1
281
     0
  0
CLASS
  1
ACMDETAILSTANDARDJIS
  2
AmdtDetailSymStdJIS
  3
"Amdt_StdImp|Product Description: AutoCAD Mechanical 2004 DX|Company: Autodesk"
 90
        0
280
     1
281
     0
  0
CLASS
  1
ACMSECTIONSTANDARDJIS
  2
AmdtSectionSymStdJIS
  3
"Amdt_StdImp|Product Description: AutoCAD Mechanical 2004 DX|Company: Autodesk"
 90
        0
280
     1
281
     0
  0
CLASS
  1
ACMCENTERLINESTANDARDJIS
  2
AmdtCenterLineStdJIS
  3
"Amdt_StdImp|Product Description: AutoCAD Mechanical 2004 DX|Company: Autodesk"
 90
        0
280
     1
281
     0
  0
CLASS
  1
ACMTHREADLINESTANDARDJIS
  2
AmdtThreadLineStdJIS
  3
"Amdt_StdImp|Product Description: AutoCAD Mechanical 2004 DX|Company: Autodesk"
 90
        0
280
     1
281
     0
  0
CLASS
  1
ACMNOTESTANDARDJIS
  2
AmdtNoteStdJIS
  3
"Amdt_StdImp|Product Description: AutoCAD Mechanical 2004 DX|Company: Autodesk"
 90
        0
280
     1
281
     0
  0
CLASS
  1
AMDTNOTETEMPLATEDB
  2
AmdtNoteTemplateDB
  3
AMDT_STDIMP_MODULE_NAME
 90
        0
280
     1
281
     0
  0
CLASS
  1
ACAMGLAYSTD
  2
AcAmgLayStd
  3
"AcAmgLayStd|Product Description: AutoCAD Mechanical 2000|Company: Autodesk"
 90
        0
280
     1
281
     0
  0
CLASS
  1
ACAMGDIMSTD
  2
AcAmgDimStd
  3
"AcAmgDimStd|Product Description: AutoCAD Mechanical 2000|Company: Autodesk"
 90
        0
280
     1
281
     0
  0
CLASS
  1
ACAMGHOLECHARTSTDJIS
  2
AcAmgHoleChartStdJIS
  3
ACMSYMBB_MODULE_NAME
 90
        0
280
     1
281
     0
  0
CLASS
  1
CATALOGSTATE
  2
AcAmCatalogState
  3
DesignerAssemblies
 90
        0
280
     1
281
     0
  0
CLASS
  1
ACAMGRCOMPDEFSET
  2
AcAmGrCompDefSet
  3
DesignerAssemblies
 90
        0
280
     1
281
     0
  0
CLASS
  1
AMDTBROWSERDBTAB
  2
AmdtBrowserDbTab
  3
McadcomServices
 90
        0
280
     1
281
     0
  0
CLASS
  1
CBROWSERAPPOBJECT
  2
CBrowserAppObject
  3
McadcomServices
 90
        0
280
     1
281
     0
  0
CLASS
  1
DM_PLACEHOLDER
  2
AcDmSelsetPlaceholder
  3
AcMechDwgViewMgmt
 90
        0
280
     1
281
     0
  0
CLASS
  1
SORTENTSTABLE
  2
AcDbSortentsTable
  3
ObjectDBX Classes
 90
        0
280
     0
281
     0
  0
CLASS
  1
ACMSTANDARDISO
  2
AcmStandardISO
  3
"Amdt_StdImp|Product Description: AutoCAD Mechanical 2004 DX|Company: Autodesk"
 90
        0
280
     1
281
     0
  0
CLASS
  1
AMDTEDGESTANDARDISO13715
  2
AmdtEdgeStdISO13715
  3
"Amdt_StdImp|Product Description: AutoCAD Mechanical 2004 DX|Company: Autodesk"
 90
        0
280
     1
281
     0
  0
CLASS
  1
ACMSURFSTANDARDISO
  2
AcmSurfTextStdISO
  3
"Amdt_StdImp|Product Description: AutoCAD Mechanical 2004 DX|Company: Autodesk"
 90
        0
280
     1
281
     0
  0
CLASS
  1
ACMFCFSTANDARDISO
  2
AcmFCFStdISO
  3
"Amdt_StdImp|Product Description: AutoCAD Mechanical 2004 DX|Company: Autodesk"
 90
        0
280
     1
281
     0
  0
CLASS
  1
ACMWELDSTANDARDISO
  2
AcmWeldingStdISO
  3
"Amdt_StdImp|Product Description: AutoCAD Mechanical 2004 DX|Company: Autodesk"
 90
        0
280
     1
281
     0
  0
CLASS
  1
ACMIDSTANDARDISO
  2
AcmIdStdISO
  3
"Amdt_StdImp|Product Description: AutoCAD Mechanical 2004 DX|Company: Autodesk"
 90
        0
280
     1
281
     0
  0
CLASS
  1
ACMDATUMSTANDARDISO
  2
AcmDatumStdISO
  3
"Amdt_StdImp|Product Description: AutoCAD Mechanical 2004 DX|Company: Autodesk"
 90
        0
280
     1
281
     0
  0
CLASS
  1
ACMBOMSTANDARDISO
  2
AcmBOMStdISO
  3
"Amdt_StdImp|Product Description: AutoCAD Mechanical 2004 DX|Company: Autodesk"
 90
        0
280
     1
281
     0
  0
CLASS
  1
ACMDETAILSTANDARDISO
  2
AmdtDetailSymStdISO
  3
"Amdt_StdImp|Product Description: AutoCAD Mechanical 2004 DX|Company: Autodesk"
 90
        0
280
     1
281
     0
  0
CLASS
  1
ACMSECTIONSTANDARDISO
  2
AmdtSectionSymStdISO
  3
"Amdt_StdImp|Product Description: AutoCAD Mechanical 2004 DX|Company: Autodesk"
 90
        0
280
     1
281
     0
  0
CLASS
  1
ACMCENTERLINESTANDARDISO
  2
AmdtCenterLineStdISO
  3
"Amdt_StdImp|Product Description: AutoCAD Mechanical 2004 DX|Company: Autodesk"
 90
        0
280
     1
281
     0
  0
CLASS
  1
ACMTHREADLINESTANDARDISO
  2
AmdtThreadLineStdISO
  3
"Amdt_StdImp|Product Description: AutoCAD Mechanical 2004 DX|Company: Autodesk"
 90
        0
280
     1
281
     0
  0
CLASS
  1
ACMNOTESTANDARDISO
  2
AmdtNoteStdISO
  3
"Amdt_StdImp|Product Description: AutoCAD Mechanical 2004 DX|Company: Autodesk"
 90
        0
280
     1
281
     0
  0
CLASS
  1
ACAMGHOLECHARTSTDISO
  2
AcAmgHoleChartStdISO
  3
ACMSYMBB_MODULE_NAME
 90
        0
280
     1
281
     0
  0
CLASS
  1
AMDTFORMULAUPDATEDISPATCHER
  2
AmdtFormulaUpdateDispatcher
  3
AcMeServices
 90
        0
280
     1
281
     0
  0
CLASS
  1
DIMASSOC
  2
AcDbDimAssoc
  3
"AcDbDimAssoc|Product Desc:     AcDim ARX App For Dimension|Company:          Autodesk, Inc.|WEB Address:      www.autodesk.com"
 90
        0
280
     0
281
     0
  0
CLASS
  1
ACRFATTGENMGR
  2
AcRfAttGeneralMgr
  3
AcAttribServices
 90
        0
280
     1
281
     0
  0
CLASS
  1
ACMSTANDARDANSI
  2
AcmStandardANSI
  3
"Amdt_StdImp|Product Description: AutoCAD Mechanical 2004 DX|Company: Autodesk"
 90
        0
280
     1
281
     0
  0
CLASS
  1
ACMSURFSTANDARDANSI
  2
AcmSurfTextStdANSI
  3
"Amdt_StdImp|Product Description: AutoCAD Mechanical 2004 DX|Company: Autodesk"
 90
        0
280
     1
281
     0
  0
CLASS
  1
ACMFCFSTANDARDANSI
  2
AcmFCFStdANSI
  3
"Amdt_StdImp|Product Description: AutoCAD Mechanical 2004 DX|Company: Autodesk"
 90
        0
280
     1
281
     0
  0
CLASS
  1
ACMWELDSTANDARDANSI
  2
AcmWeldingStdANSI
  3
"Amdt_StdImp|Product Description: AutoCAD Mechanical 2004 DX|Company: Autodesk"
 90
        0
280
     1
281
     0
  0
CLASS
  1
ACMIDSTANDARDANSI
  2
AcmIdStdANSI
  3
"Amdt_StdImp|Product Description: AutoCAD Mechanical 2004 DX|Company: Autodesk"
 90
        0
280
     1
281
     0
  0
CLASS
  1
ACMDATUMSTANDARDANSI
  2
AcmDatumStdANSI
  3
"Amdt_StdImp|Product Description: AutoCAD Mechanical 2004 DX|Company: Autodesk"
 90
        0
280
     1
281
     0
  0
CLASS
  1
ACMBOMSTANDARDANSI
  2
AcmBOMStdANSI
  3
"Amdt_StdImp|Product Description: AutoCAD Mechanical 2004 DX|Company: Autodesk"
 90
        0
280
     1
281
     0
  0
CLASS
  1
ACMDETAILSTANDARDANSI
  2
AmdtDetailSymStdANSI
  3
"Amdt_StdImp|Product Description: AutoCAD Mechanical 2004 DX|Company: Autodesk"
 90
        0
280
     1
281
     0
  0
CLASS
  1
ACMSECTIONSTANDARDANSI
  2
AmdtSectionSymStdANSI
  3
"Amdt_StdImp|Product Description: AutoCAD Mechanical 2004 DX|Company: Autodesk"
 90
        0
280
     1
281
     0
  0
CLASS
  1
ACMCENTERLINESTANDARDANSI
  2
AmdtCenterLineStdANSI
  3
"Amdt_StdImp|Product Description: AutoCAD Mechanical 2004 DX|Company: Autodesk"
 90
        0
280
     1
281
     0
  0
CLASS
  1
ACMNOTESTANDARDANSI
  2
AmdtNoteStdANSI
  3
"Amdt_StdImp|Product Description: AutoCAD Mechanical 2004 DX|Company: Autodesk"
 90
        0
280
     1
281
     0
  0
CLASS
  1
ACAMGHOLECHARTSTDANSI
  2
AcAmgHoleChartStdANSI
  3
ACMSYMBB_MODULE_NAME
 90
        0
280
     1
281
     0
  0
CLASS
  1
ACMTHREADLINESTANDARDANSI
  2
AmdtThreadLineStdANSI
  3
"Amdt_StdImp|Product Description: AutoCAD Mechanical 2004 DX|Company: Autodesk"
 90
        0
280
     1
281
     0
  0
ENDSEC
  0
SECTION
  2
TABLES
  0
TABLE
  2
VPORT
  5
8
330
0
100
AcDbSymbolTable
 70
    15
  0
VPORT
  5
1E219
330
8
100
AcDbSymbolTableRecord
100
AcDbViewportTableRecord
  2
*Active
 70
     0
 10
0.0
 20
0.0
 11
1.0
 21
1.0
 12
50.12576764048572
 22
-30.83421732788582
 13
0.0
 23
0.0
 14
2.5
 24
2.5
 15
10.0
 25
10.0
 16
0.0
 26
0.0
 36
1.0
 17
0.0
 27
0.0
 37
0.0
 40
124.4160815865153
 41
1.697058823529412
 42
50.0
 43
0.0
 44
0.0
 50
0.0
 51
0.0
 71
     0
 72
 20000
 73
     1
 74
     3
 75
     0
 76
     0
 77
     0
 78
     0
281
     0
 65
     1
110
0.0
120
0.0
130
0.0
111
1.0
121
0.0
131
0.0
112
0.0
122
1.0
132
0.0
 79
     0
146
0.0
  0
ENDTAB
  0
TABLE
  2
LTYPE
  5
5
330
0
100
AcDbSymbolTable
 70
    18
  0
LTYPE
  5
14
330
5
100
AcDbSymbolTableRecord
100
AcDbLinetypeTableRecord
  2
ByBlock
 70
     0
  3

 72
    65
 73
     0
 40
0.0
  0
LTYPE
  5
15
330
5
100
AcDbSymbolTableRecord
100
AcDbLinetypeTableRecord
  2
ByLayer
 70
     0
  3

 72
    65
 73
     0
 40
0.0
  0
LTYPE
  5
16
330
5
100
AcDbSymbolTableRecord
100
AcDbLinetypeTableRecord
  2
Continuous
 70
     0
  3
Solid line
 72
    65
 73
     0
 40
0.0
  0
LTYPE
  5
43
330
5
100
AcDbSymbolTableRecord
100
AcDbLinetypeTableRecord
  2
AM_ISO02W050
 70
     0
  3
__ __ __ __ __ __ __ __ __ __ __ __ __ __ __
 72
    65
 73
     2
 40
7.5
 49
6.0
 74
     0
 49
-1.5
 74
     0
  0
LTYPE
  5
44
330
5
100
AcDbSymbolTableRecord
100
AcDbLinetypeTableRecord
  2
AM_ISO08W050
 70
     0
  3
____ . ____ . ____ . ____ . ____ . ____ . ____
 72
    65
 73
     4
 40
18.0
 49
12.0
 74
     0
 49
-1.5
 74
     0
 49
3.0
 74
     0
 49
-1.5
 74
     0
  0
LTYPE
  5
45
330
5
100
AcDbSymbolTableRecord
100
AcDbLinetypeTableRecord
  2
AM_ISO09W050
 70
     0
  3
_____ . . _____ . . _____ . . ____ .. ____
 72
    65
 73
     6
 40
22.5
 49
12.0
 74
     0
 49
-1.5
 74
     0
 49
3.0
 74
     0
 49
-1.5
 74
     0
 49
3.0
 74
     0
 49
-1.5
 74
     0
  0
LTYPE
  5
46
330
5
100
AcDbSymbolTableRecord
100
AcDbLinetypeTableRecord
  2
Amconstr
 70
     0
  3
_______________________
 72
    65
 73
     2
 40
9999.0
 49
9999.0
 74
     0
 49
0.0
 74
     0
  0
LTYPE
  5
47
330
5
100
AcDbSymbolTableRecord
100
AcDbLinetypeTableRecord
  2
AM_ISO02W050x2
 70
     0
  3
 _ _ _ _ _ _ _ _ _ _ _ _
 72
    65
 73
     2
 40
3.75
 49
3.0
 74
     0
 49
-0.75
 74
     0
  0
LTYPE
  5
48
330
5
100
AcDbSymbolTableRecord
100
AcDbLinetypeTableRecord
  2
AM_ISO08W050x2
 70
     0
  3
__ . __ . __ . __ . __ . __
 72
    65
 73
     4
 40
9.0
 49
6.0
 74
     0
 49
-0.75
 74
     0
 49
1.5
 74
     0
 49
-0.75
 74
     0
  0
LTYPE
  5
4B
330
5
100
AcDbSymbolTableRecord
100
AcDbLinetypeTableRecord
  2
Amzigzag
 70
     0
  3
/\/-/\/-/\/-/\/-/\/-/\/
 72
    65
 73
     2
 40
11.0001
 49
0.0001
 74
     4
 75
   135
340
4A
 46
0.04
 50
0.0
 44
0.0
 45
0.0
 49
-11.0
 74
     0
  0
LTYPE
  5
188
330
5
100
AcDbSymbolTableRecord
100
AcDbLinetypeTableRecord
  2
ACJISTGB
 70
     0
  3
__ . . __ . .
 72
    65
 73
     6
 40
9.0
 49
4.0
 74
     0
 49
-1.0
 74
     0
 49
1.0
 74
     0
 49
-1.0
 74
     0
 49
1.0
 74
     0
 49
-1.0
 74
     0
  0
LTYPE
  5
189
330
5
100
AcDbSymbolTableRecord
100
AcDbLinetypeTableRecord
  2
ACJISTGL
 70
     0
  3
_ _ _ _ _
 72
    65
 73
     2
 40
3.0
 49
2.0
 74
     0
 49
-1.0
 74
     0
  0
LTYPE
  5
652
330
5
100
AcDbSymbolTableRecord
100
AcDbLinetypeTableRecord
  2
CENTER
 70
     0
  3
____ _ ____ _ ____ _ ____ _ ____ _ ____ _ ____
 72
    65
 73
     4
 40
17.5
 49
13.0
 74
     0
 49
-1.5
 74
     0
 49
1.5
 74
     0
 49
-1.5
 74
     0
  0
LTYPE
  5
12AC
330
5
100
AcDbSymbolTableRecord
100
AcDbLinetypeTableRecord
  2
PHANTOM2
 70
     0
  3
Phantom (.5x) ___ _ _ ___ _ _ ___ _ _ ___ _ _
 72
    65
 73
     6
 40
1.25
 49
0.625
 74
     0
 49
-0.125
 74
     0
 49
0.125
 74
     0
 49
-0.125
 74
     0
 49
0.125
 74
     0
 49
-0.125
 74
     0
  0
LTYPE
  5
F5A5
330
5
100
AcDbSymbolTableRecord
100
AcDbLinetypeTableRecord
  2
ACISOWELD
 70
     0
  3
_ _ _ _ _
 72
    65
 73
     2
 40
2.0
 49
2.0
 74
     0
 49
-1.0
 74
     0
  0
LTYPE
  5
F5A6
330
5
100
AcDbSymbolTableRecord
100
AcDbLinetypeTableRecord
  2
ACISOTGB
 70
     0
  3
__ . . __ . .
 72
    65
 73
     6
 40
9.0
 49
4.0
 74
     0
 49
-1.0
 74
     0
 49
1.0
 74
     0
 49
-1.0
 74
     0
 49
1.0
 74
     0
 49
-1.0
 74
     0
  0
LTYPE
  5
F5A7
330
5
100
AcDbSymbolTableRecord
100
AcDbLinetypeTableRecord
  2
ACISOTGL
 70
     0
  3
_ _ _ _ _
 72
    65
 73
     2
 40
3.0
 49
2.0
 74
     0
 49
-1.0
 74
     0
  0
LTYPE
  5
1B4D3
330
5
100
AcDbSymbolTableRecord
100
AcDbLinetypeTableRecord
  2
ACANSTGB
 70
     0
  3
__ . . __ . .
 72
    65
 73
     6
 40
0.35433070866
 49
0.15748031496
 74
     0
 49
-0.03937007874
 74
     0
 49
0.03937007874
 74
     0
 49
-0.03937007874
 74
     0
 49
0.03937007874
 74
     0
 49
-0.03937007874
 74
     0
  0
LTYPE
  5
1B4D4
330
5
100
AcDbSymbolTableRecord
100
AcDbLinetypeTableRecord
  2
ACANSTGL
 70
     0
  3
_ _ _ _ _
 72
    65
 73
     2
 40
0.11811023622
 49
0.07874015748
 74
     0
 49
-0.03937007874
 74
     0
  0
LTYPE
  5
1DDEB
330
5
100
AcDbSymbolTableRecord
100
AcDbLinetypeTableRecord
  2
HIDDEN
 70
     0
  3
Hidden __ __ __ __ __ __ __ __ __ __ __ __ __ _
 72
    65
 73
     2
 40
9.524999999999999
 49
6.35
 74
     0
 49
-3.175
 74
     0
  0
ENDTAB
  0
TABLE
  2
LAYER
  5
2
102
{ACAD_XDICTIONARY
360
EDC8
102
}
330
0
100
AcDbSymbolTable
 70
     7
  0
LAYER
  5
10
330
2
100
AcDbSymbolTableRecord
100
AcDbLayerTableRecord
  2
0
 70
     0
 62
     7
  6
Continuous
370
    -3
390
F
  0
LAYER
  5
7D
330
2
100
AcDbSymbolTableRecord
100
AcDbLayerTableRecord
  2
AM_5
 70
     0
 62
     3
  6
Continuous
370
    13
390
F
  0
LAYER
  5
7F
330
2
100
AcDbSymbolTableRecord
100
AcDbLayerTableRecord
  2
Defpoints
 70
     0
 62
     7
  6
Continuous
290
     0
370
    -3
390
F
  0
LAYER
  5
12B1
330
2
100
AcDbSymbolTableRecord
100
AcDbLayerTableRecord
  2
AM_0
 70
     0
 62
     7
  6
Continuous
370
    30
390
F
  0
LAYER
  5
18A4
330
2
100
AcDbSymbolTableRecord
100
AcDbLayerTableRecord
  2
AM_7
 70
     0
 62
     4
  6
AM_ISO08W050
370
    13
390
F
  0
LAYER
  5
18A5
330
2
100
AcDbSymbolTableRecord
100
AcDbLayerTableRecord
  2
AM_6
 70
     0
 62
     2
  6
Continuous
370
    30
390
F
  0
LAYER
  5
18A6
330
2
100
AcDbSymbolTableRecord
100
AcDbLayerTableRecord
  2
AM_11
 70
     0
 62
     3
  6
AM_ISO09W050
370
    13
390
F
  0
ENDTAB
  0
TABLE
  2
STYLE
  5
3
330
0
100
AcDbSymbolTable
 70
     8
  0
STYLE
  5
11
330
3
100
AcDbSymbolTableRecord
100
AcDbTextStyleTableRecord
  2
STANDARD
 70
     0
 40
0.0
 41
1.0
 50
0.0
 71
     0
 42
3.15
  3
ISOCP.SHX
  4
EXTFONT.SHX
  0
STYLE
  5
4A
330
3
100
AcDbSymbolTableRecord
100
AcDbTextStyleTableRecord
  2

 70
     1
 40
0.0
 41
1.0
 50
0.0
 71
     0
 42
2.5
  3
ltypeshp.shx
  4

  0
STYLE
  5
180
330
3
100
AcDbSymbolTableRecord
100
AcDbTextStyleTableRecord
  2
ACJISTS
 70
     0
 40
1.0
 41
1.0
 50
0.0
 71
     0
 42
2.5
  3
isocp.shx
  4
bigfont.shx
  0
STYLE
  5
187
330
3
100
AcDbSymbolTableRecord
100
AcDbTextStyleTableRecord
  2
ACJISGDT
 70
     0
 40
0.0
 41
1.0
 50
0.0
 71
     0
 42
2.5
  3
amgdt.shx
  4

  0
STYLE
  5
F5A9
330
3
100
AcDbSymbolTableRecord
100
AcDbTextStyleTableRecord
  2
ACISOTS
 70
     0
 40
1.0
 41
1.0
 50
0.0
 71
     0
 42
1.0
  3
isocp.shx
  4
extfont.shx
  0
STYLE
  5
F5AA
330
3
100
AcDbSymbolTableRecord
100
AcDbTextStyleTableRecord
  2
ACISOGDT
 70
     0
 40
0.0
 41
1.0
 50
0.0
 71
     0
 42
1.0
  3
amgdt.shx
  4

  0
STYLE
  5
1B4E3
330
3
100
AcDbSymbolTableRecord
100
AcDbTextStyleTableRecord
  2
ACANSTS
 70
     0
 40
1.0
 41
1.0
 50
0.0
 71
     0
 42
2.5
  3
romans.shx
  4
extfont.shx
  0
STYLE
  5
1B4E4
330
3
100
AcDbSymbolTableRecord
100
AcDbTextStyleTableRecord
  2
ACANSGDT
 70
     0
 40
0.0
 41
1.0
 50
0.0
 71
     0
 42
2.5
  3
amgdtans.shx
  4

  0
ENDTAB
  0
TABLE
  2
VIEW
  5
6
330
0
100
AcDbSymbolTable
 70
     6
  0
VIEW
  5
A30
330
6
100
AcDbSymbolTableRecord
100
AcDbViewTableRecord
  2
AM_VIEW1
 70
     0
 40
105.1875
 10
74.25
 20
157.40625
 41
148.5
 11
0.0
 21
0.0
 31
1.0
 12
0.0
 22
0.0
 32
0.0
 42
50.0
 43
0.0
 44
0.0
 50
0.0
 71
     0
281
     0
 72
     0
  0
VIEW
  5
A31
330
6
100
AcDbSymbolTableRecord
100
AcDbViewTableRecord
  2
AM_VIEW2
 70
     0
 40
105.1875
 10
222.75
 20
157.40625
 41
148.5
 11
0.0
 21
0.0
 31
1.0
 12
0.0
 22
0.0
 32
0.0
 42
50.0
 43
0.0
 44
0.0
 50
0.0
 71
     0
281
     0
 72
     0
  0
VIEW
  5
A32
330
6
100
AcDbSymbolTableRecord
100
AcDbViewTableRecord
  2
AM_VIEW3
 70
     0
 40
105.1875
 10
74.25
 20
52.59375
 41
148.5
 11
0.0
 21
0.0
 31
1.0
 12
0.0
 22
0.0
 32
0.0
 42
50.0
 43
0.0
 44
0.0
 50
0.0
 71
     0
281
     0
 72
     0
  0
VIEW
  5
A33
330
6
100
AcDbSymbolTableRecord
100
AcDbViewTableRecord
  2
AM_VIEW4
 70
     0
 40
105.1875
 10
222.75
 20
52.59375
 41
148.5
 11
0.0
 21
0.0
 31
1.0
 12
0.0
 22
0.0
 32
0.0
 42
50.0
 43
0.0
 44
0.0
 50
0.0
 71
     0
281
     0
 72
     0
  0
VIEW
  5
A34
330
6
100
AcDbSymbolTableRecord
100
AcDbViewTableRecord
  2
AM_VIEW5
 70
     0
 40
105.1875
 10
148.5
 20
105.0
 41
148.5
 11
0.0
 21
0.0
 31
1.0
 12
0.0
 22
0.0
 32
0.0
 42
50.0
 43
0.0
 44
0.0
 50
0.0
 71
     0
281
     0
 72
     0
  0
VIEW
  5
A35
330
6
100
AcDbSymbolTableRecord
100
AcDbViewTableRecord
  2
AM_VIEW6
 70
     0
 40
210.37289625
 10
148.5
 20
105.0
 41
296.99703
 11
0.0
 21
0.0
 31
1.0
 12
0.0
 22
0.0
 32
0.0
 42
50.0
 43
0.0
 44
0.0
 50
0.0
 71
     0
281
     0
 72
     0
  0
ENDTAB
  0
TABLE
  2
UCS
  5
7
330
0
100
AcDbSymbolTable
 70
     0
  0
ENDTAB
  0
TABLE
  2
APPID
  5
9
330
0
100
AcDbSymbolTable
 70
    52
  0
APPID
  5
12
330
9
100
AcDbSymbolTableRecord
100
AcDbRegAppTableRecord
  2
ACAD
 70
     0
  0
APPID
  5
2C
330
9
100
AcDbSymbolTableRecord
100
AcDbRegAppTableRecord
  2
MCAD_NO_VIS
 70
     0
  0
APPID
  5
2D
330
9
100
AcDbSymbolTableRecord
100
AcDbRegAppTableRecord
  2
ACAD_TEMP_GRAPHIC
 70
     0
  0
APPID
  5
B9
330
9
100
AcDbSymbolTableRecord
100
AcDbRegAppTableRecord
  2
GENIUS_GENDTOL_13
 70
     0
  0
APPID
  5
359
330
9
100
AcDbSymbolTableRecord
100
AcDbRegAppTableRecord
  2
GENIUS_GENREC_14
 70
     0
  0
APPID
  5
35A
330
9
100
AcDbSymbolTableRecord
100
AcDbRegAppTableRecord
  2
GENIUS_GENODEF_13
 70
     0
  0
APPID
  5
35B
330
9
100
AcDbSymbolTableRecord
100
AcDbRegAppTableRecord
  2
GENIUS_GENOBJ-N-REC_13
 70
     0
  0
APPID
  5
667
330
9
100
AcDbSymbolTableRecord
100
AcDbRegAppTableRecord
  2
GENIUS_GENCFG_13
 70
     0
  0
APPID
  5
668
330
9
100
AcDbSymbolTableRecord
100
AcDbRegAppTableRecord
  2
GENIUS_GENCFG0_13
 70
     0
  0
APPID
  5
669
330
9
100
AcDbSymbolTableRecord
100
AcDbRegAppTableRecord
  2
GENIUS_GENCFG1_13
 70
     0
  0
APPID
  5
66A
330
9
100
AcDbSymbolTableRecord
100
AcDbRegAppTableRecord
  2
GENIUS_GENCFG2_13
 70
     0
  0
APPID
  5
66B
330
9
100
AcDbSymbolTableRecord
100
AcDbRegAppTableRecord
  2
GENIUS_GENCFG3_13
 70
     0
  0
APPID
  5
66C
330
9
100
AcDbSymbolTableRecord
100
AcDbRegAppTableRecord
  2
GENIUS_GENCFG4_13
 70
     0
  0
APPID
  5
A76
330
9
100
AcDbSymbolTableRecord
100
AcDbRegAppTableRecord
  2
GENIUS_GENBLLY_14
 70
     0
  0
APPID
  5
A77
330
9
100
AcDbSymbolTableRecord
100
AcDbRegAppTableRecord
  2
GENIUS_GENOBJ-N-CEN_13
 70
     0
  0
APPID
  5
A83
330
9
100
AcDbSymbolTableRecord
100
AcDbRegAppTableRecord
  2
GENIUS_GENTRA_14
 70
     0
  0
APPID
  5
A8D
330
9
100
AcDbSymbolTableRecord
100
AcDbRegAppTableRecord
  2
GENIUS_GENOBJ-N-TIT_13
 70
     0
  0
APPID
  5
A8E
330
9
100
AcDbSymbolTableRecord
100
AcDbRegAppTableRecord
  2
GENIUS_GENTITLE_13
 70
     0
  0
APPID
  5
A8F
330
9
100
AcDbSymbolTableRecord
100
AcDbRegAppTableRecord
  2
GENIUS_GENOENT_13
 70
     0
  0
APPID
  5
A90
330
9
100
AcDbSymbolTableRecord
100
AcDbRegAppTableRecord
  2
GENIUS_GENOREF_13
 70
     0
  0
APPID
  5
A91
330
9
100
AcDbSymbolTableRecord
100
AcDbRegAppTableRecord
  2
GENIUS_GENOLIS_13
 70
     0
  0
APPID
  5
A92
330
9
100
AcDbSymbolTableRecord
100
AcDbRegAppTableRecord
  2
GENIUS_GENZVEED_13
 70
     0
  0
APPID
  5
A93
330
9
100
AcDbSymbolTableRecord
100
AcDbRegAppTableRecord
  2
GENIUS_GENSCREG_15
 70
     0
  0
APPID
  5
A94
330
9
100
AcDbSymbolTableRecord
100
AcDbRegAppTableRecord
  2
GENIUS_GENOBJ-N-SDF_13
 70
     0
  0
APPID
  5
12B5
330
9
100
AcDbSymbolTableRecord
100
AcDbRegAppTableRecord
  2
GENIUS_GENOBJ-N-RSBK_13
 70
     0
  0
APPID
  5
12B6
330
9
100
AcDbSymbolTableRecord
100
AcDbRegAppTableRecord
  2
GENIUS_GENOBJ-N-LIB_13
 70
     0
  0
APPID
  5
12B7
330
9
100
AcDbSymbolTableRecord
100
AcDbRegAppTableRecord
  2
GENIUS_GENSCALE_13
 70
     0
  0
APPID
  5
12B8
330
9
100
AcDbSymbolTableRecord
100
AcDbRegAppTableRecord
  2
GENIUS_GENOBJ-N-HTC_13
 70
     0
  0
APPID
  5
12B9
330
9
100
AcDbSymbolTableRecord
100
AcDbRegAppTableRecord
  2
GENIUS_GENHATCH_13
 70
     0
  0
APPID
  5
18AA
330
9
100
AcDbSymbolTableRecord
100
AcDbRegAppTableRecord
  2
BASE_TYPE
 70
     0
  0
APPID
  5
18AB
330
9
100
AcDbSymbolTableRecord
100
AcDbRegAppTableRecord
  2
GENIUS_GENOBJ-N-FIL_13
 70
     0
  0
APPID
  5
1E91
330
9
100
AcDbSymbolTableRecord
100
AcDbRegAppTableRecord
  2
GENIUS_GENOBJ-N-CRS_13
 70
     0
  0
APPID
  5
3B24
330
9
100
AcDbSymbolTableRecord
100
AcDbRegAppTableRecord
  2
GENIUS_GENDIMSH_14
 70
     0
  0
APPID
  5
4D78
330
9
100
AcDbSymbolTableRecord
100
AcDbRegAppTableRecord
  2
GENIUS_GENOBJ-N-DIM_13
 70
     0
  0
APPID
  5
4D79
330
9
100
AcDbSymbolTableRecord
100
AcDbRegAppTableRecord
  2
GENIUS_GENDIM_13
 70
     0
  0
APPID
  5
517C
330
9
100
AcDbSymbolTableRecord
100
AcDbRegAppTableRecord
  2
GENIUS_GENFIL_13
 70
     0
  0
APPID
  5
517D
330
9
100
AcDbSymbolTableRecord
100
AcDbRegAppTableRecord
  2
GENIUS_GENOBJ-N-CHA_13
 70
     0
  0
APPID
  5
ED83
330
9
100
AcDbSymbolTableRecord
100
AcDbRegAppTableRecord
  2
AD_DRAW
 70
     0
  0
APPID
  5
ED86
330
9
100
AcDbSymbolTableRecord
100
AcDbRegAppTableRecord
  2
ACATTRIBSERVICES
 70
     0
  0
APPID
  5
EDA4
330
9
100
AcDbSymbolTableRecord
100
AcDbRegAppTableRecord
  2
DESIGNERASSEMBLIES
 70
     0
  0
APPID
  5
EDB7
330
9
100
AcDbSymbolTableRecord
100
AcDbRegAppTableRecord
  2
ACADM_DIM_EDIT
 70
     0
  0
APPID
  5
EDB8
330
9
100
AcDbSymbolTableRecord
100
AcDbRegAppTableRecord
  2
AMDT_DM_ADJ
 70
     0
  0
APPID
  5
F08C
330
9
100
AcDbSymbolTableRecord
100
AcDbRegAppTableRecord
  2
ACAD_PSEXT
 70
     0
  0
APPID
  5
F2B1
330
9
100
AcDbSymbolTableRecord
100
AcDbRegAppTableRecord
  2
GENIUS_GENCEN_19
 70
     0
  0
APPID
  5
10513
330
9
100
AcDbSymbolTableRecord
100
AcDbRegAppTableRecord
  2
ACAD_DSTYLE_DIMTEXT_FILL
 70
     0
  0
APPID
  5
11AB4
330
9
100
AcDbSymbolTableRecord
100
AcDbRegAppTableRecord
  2
ACAD_DSTYLE_DIMARC_LENGTH_SYMBOL
 70
     0
  0
APPID
  5
11AB5
330
9
100
AcDbSymbolTableRecord
100
AcDbRegAppTableRecord
  2
ACAD_DSTYLE_DIMJOGGED_JOGANGLE_SYMBOL
 70
     0
  0
APPID
  5
11AB6
330
9
100
AcDbSymbolTableRecord
100
AcDbRegAppTableRecord
  2
AcAecLayerStandard
 70
     0
  0
APPID
  5
1813B
330
9
100
AcDbSymbolTableRecord
100
AcDbRegAppTableRecord
  2
ACAD_DIMASSOC_DIMLFAC
 70
     0
  0
APPID
  5
1813C
330
9
100
AcDbSymbolTableRecord
100
AcDbRegAppTableRecord
  2
ACAD_DIMASSOC_CALC_DIMLFAC
 70
     0
  0
APPID
  5
1813D
330
9
100
AcDbSymbolTableRecord
100
AcDbRegAppTableRecord
  2
ACAD_DIMASSOC_OVERRIDDEN_DIMLFAC
 70
     0
  0
APPID
  5
1BA90
330
9
100
AcDbSymbolTableRecord
100
AcDbRegAppTableRecord
  2
CONTENTBLOCKICON
 70
     0
  0
ENDTAB
  0
TABLE
  2
DIMSTYLE
  5
A
330
0
100
AcDbSymbolTable
 70
    23
100
AcDbDimStyleTable
  0
DIMSTYLE
105
58
330
A
100
AcDbSymbolTableRecord
100
AcDbDimStyleTableRecord
  2
AM_JIS
 70
     0
  4
"
 41
2.5
 42
0.0
 43
10.0
 44
1.0
 47
0.1
 48
0.1000000001
 73
     0
 74
     0
 77
     3
 78
     1
 79
     2
140
3.8
141
0.0
143
0.0393701
146
0.71
147
1.5
172
     1
176
   256
177
   256
178
     2
179
     1
271
     2
272
     2
275
     1
283
     0
284
     8
340
11
341
59
342
59
371
    -1
372
    -1
  0
DIMSTYLE
105
5F
102
{ACAD_REACTORS
330
1D6BA
330
1D864
102
}
330
A
100
AcDbSymbolTableRecord
100
AcDbDimStyleTableRecord
  2
AM_JIS$3
 70
     0
  4
"
 41
2.5
 42
0.0
 43
10.0
 44
1.0
 47
0.1
 48
0.1000000001
 73
     0
 77
     3
 78
     1
 79
     2
140
3.8
141
0.0
143
0.0393701
146
0.71
147
1.5
172
     1
176
   256
177
   256
178
     2
179
     1
271
     2
272
     2
275
     1
283
     0
284
     8
288
     1
289
     0
340
11
341
59
342
59
371
    -1
372
    -1
  0
DIMSTYLE
105
60
330
A
100
AcDbSymbolTableRecord
100
AcDbDimStyleTableRecord
  2
AM_JIS$4
 70
     0
  4
"
 41
2.5
 42
0.0
 43
10.0
 44
1.0
 47
0.1
 48
0.1000000001
 73
     0
 77
     3
 78
     1
 79
     2
140
3.8
141
0.0
143
0.0393701
146
0.71
147
1.5
172
     1
176
   256
177
   256
178
     2
179
     1
271
     2
272
     2
275
     1
283
     0
284
     8
288
     1
289
     0
340
11
341
59
342
59
371
    -1
372
    -1
  0
DIMSTYLE
105
61
330
A
100
AcDbSymbolTableRecord
100
AcDbDimStyleTableRecord
  2
AM_JIS$6
 70
     0
  4
"
 41
2.5
 42
0.0
 43
10.0
 44
1.0
 47
0.1
 48
0.1000000001
 73
     0
 74
     0
 78
     1
 79
     2
140
3.8
141
0.0
143
0.0393701
146
0.71
147
1.5
172
     1
176
   256
177
   256
178
     2
179
     1
271
     2
272
     2
275
     1
283
     0
284
     8
340
11
341
59
342
59
371
    -1
372
    -1
  0
DIMSTYLE
105
62
330
A
100
AcDbSymbolTableRecord
100
AcDbDimStyleTableRecord
  2
AM_JIS$7
 70
     0
  4
"
 41
2.5
 42
0.0
 43
10.0
 44
1.0
 47
0.1
 48
0.1000000001
 73
     0
 74
     0
 77
     3
 78
     1
 79
     2
140
5.0
141
0.0
143
0.0393701
146
0.71
147
1.5
172
     1
176
   256
177
   256
178
     2
179
     1
271
     2
272
     2
275
     1
283
     0
284
     8
340
11
341
59
342
59
371
    -1
372
    -1
  0
DIMSTYLE
105
63
330
A
100
AcDbSymbolTableRecord
100
AcDbDimStyleTableRecord
  2
AM_JIS$SF
 70
     0
  4
"
 41
2.5
 42
1.0
 43
10.0
 44
1.0
 47
0.1
 48
0.1
 73
     0
 74
     0
 75
     1
 76
     1
 77
     3
 78
     8
 79
     2
140
3.5
141
0.0
143
0.0393701
146
0.71
147
1.5
176
   256
177
   256
178
     2
271
     2
272
     3
274
     4
340
11
341
59
342
59
343
59
344
59
371
    -1
372
    -1
  0
DIMSTYLE
105
68
330
A
100
AcDbSymbolTableRecord
100
AcDbDimStyleTableRecord
  2
AM_JIS$SH
 70
     0
  4
"
 41
2.5
 42
1.0
 43
10.0
 44
1.0
 47
0.1
 48
0.1
 73
     0
 74
     0
 75
     1
 76
     1
 77
     3
 78
     8
 79
     2
140
3.5
141
0.0
143
0.0393701
144
2.0
146
0.71
147
1.5
173
     1
176
   256
177
   256
178
     2
271
     2
272
     3
274
     4
340
11
341
59
342
59
343
64
344
59
371
    -1
372
    -1
  0
DIMSTYLE
105
65F
330
A
100
AcDbSymbolTableRecord
100
AcDbDimStyleTableRecord
  2
STANDARD
 70
     0
340
11
  0
DIMSTYLE
105
18A8
102
{ACAD_REACTORS
330
1D675
330
1D73F
330
1D8F8
330
1D9B3
330
1D9D7
102
}
330
A
100
AcDbSymbolTableRecord
100
AcDbDimStyleTableRecord
  2
AM_JIS$0
 70
     0
  4
"
 41
2.5
 42
0.0
 43
10.0
 44
1.0
 47
0.1
 48
0.1000000001
 73
     0
 74
     0
 77
     3
 78
     1
 79
     2
140
3.8
141
0.0
143
0.0393701
146
0.71
147
1.5
172
     1
176
     3
177
     3
178
     2
271
     2
272
     2
275
     1
283
     0
284
     8
289
     0
340
11
341
59
342
59
371
    13
372
    13
  0
DIMSTYLE
105
18A9
102
{ACAD_REACTORS
330
1E003
102
}
330
A
100
AcDbSymbolTableRecord
100
AcDbDimStyleTableRecord
  2
AM_JIS$2
 70
     0
  4
"
 41
2.5
 42
0.0
 43
10.0
 44
1.0
 47
0.1
 48
0.1000000001
 73
     0
 74
     0
 77
     3
 78
     1
 79
     2
140
3.8
141
0.0
143
0.0393701
146
0.71
147
1.5
172
     1
176
     3
177
     3
178
     2
271
     2
272
     2
275
     1
283
     0
284
     8
289
     0
340
11
341
59
342
59
371
    13
372
    13
  0
DIMSTYLE
105
F5AE
330
A
100
AcDbSymbolTableRecord
100
AcDbDimStyleTableRecord
  2
AM_ISO
 70
     0
  4
"
 41
2.5
 42
1.0
 43
10.0
 44
1.0
 47
0.1
 48
0.1
 73
     0
 74
     0
 77
     1
 78
     8
 79
     2
140
3.5
141
0.0
143
0.0393701
146
0.71
147
1.5
172
     1
176
   256
177
   256
178
     2
271
     2
272
     3
274
     4
283
     0
284
     8
340
11
371
    -1
372
    -1
  0
DIMSTYLE
105
F5AF
330
A
100
AcDbSymbolTableRecord
100
AcDbDimStyleTableRecord
  2
AM_ISO$3
 70
     0
  4
"
 41
2.5
 42
1.0
 43
10.0
 44
1.0
 47
0.1
 48
0.1
 73
     0
 77
     1
 78
     8
 79
     2
140
3.5
141
0.0
143
0.0393701
146
0.71
147
1.5
176
   256
177
   256
178
     2
271
     2
272
     3
274
     4
283
     0
284
     8
288
     1
289
     0
340
11
371
    -1
372
    -1
  0
DIMSTYLE
105
F5B0
330
A
100
AcDbSymbolTableRecord
100
AcDbDimStyleTableRecord
  2
AM_ISO$4
 70
     0
  4
"
 41
2.5
 42
1.0
 43
10.0
 44
1.0
 47
0.1
 48
0.1
 73
     0
 77
     1
 78
     8
 79
     2
140
3.5
141
0.0
143
0.0393701
146
0.71
147
1.5
176
   256
177
   256
178
     2
271
     2
272
     3
274
     4
283
     0
284
     8
288
     1
289
     0
340
11
371
    -1
372
    -1
  0
DIMSTYLE
105
F5B1
330
A
100
AcDbSymbolTableRecord
100
AcDbDimStyleTableRecord
  2
AM_ISO$6
 70
     0
  4
"
 41
2.5
 42
1.0
 43
10.0
 44
1.0
 47
0.1
 48
0.1
 73
     0
 74
     0
 78
     8
 79
     2
140
3.5
141
0.0
143
0.0393701
146
0.71
147
1.5
172
     1
176
   256
177
   256
178
     2
271
     2
272
     3
274
     4
283
     0
284
     8
340
11
371
    -1
372
    -1
  0
DIMSTYLE
105
F5B2
330
A
100
AcDbSymbolTableRecord
100
AcDbDimStyleTableRecord
  2
AM_ISO$7
 70
     0
  4
"
 41
2.5
 42
1.0
 43
10.0
 44
1.0
 47
0.1
 48
0.1
 73
     0
 74
     0
 77
     1
 78
     8
 79
     2
140
5.0
141
0.0
143
0.0393701
146
0.71
147
1.5
172
     1
176
   256
177
   256
178
     2
271
     2
272
     3
274
     4
283
     0
284
     8
340
11
371
    -1
372
    -1
  0
DIMSTYLE
105
F5B3
330
A
100
AcDbSymbolTableRecord
100
AcDbDimStyleTableRecord
  2
AM_ISO$SF
 70
     0
  4
"
 41
2.5
 42
1.0
 43
10.0
 44
1.0
 47
0.1
 48
0.1
 73
     0
 74
     0
 75
     1
 76
     1
 77
     1
 78
     8
 79
     2
140
3.5
141
0.0
143
0.0393701
146
0.71
147
1.5
172
     1
176
   256
177
   256
178
     2
271
     2
272
     3
274
     4
283
     0
284
     8
340
11
371
    -1
372
    -1
  0
DIMSTYLE
105
F5B4
330
A
100
AcDbSymbolTableRecord
100
AcDbDimStyleTableRecord
  2
AM_ISO$SH
 70
     0
  4
"
 41
2.5
 42
1.0
 43
10.0
 44
1.0
 47
0.1
 48
0.1
 73
     0
 74
     0
 75
     1
 76
     1
 77
     1
 78
     8
 79
     2
140
3.5
141
0.0
143
0.0393701
144
2.0
146
0.71
147
1.5
172
     1
173
     1
176
   256
177
   256
178
     2
271
     2
272
     3
274
     4
283
     0
284
     8
340
11
343
64
371
    -1
372
    -1
  0
DIMSTYLE
105
1B4EC
330
A
100
AcDbSymbolTableRecord
100
AcDbDimStyleTableRecord
  2
AM_ANSI
 70
     0
  4
mm
 41
0.1
 42
0.05
 43
0.5
 44
0.1
 47
0.1
 48
0.1
 78
     7
 79
     2
140
0.12
141
0.0
146
0.71
147
0.06
176
   256
177
   256
178
     2
274
     4
284
     7
340
11
371
    -1
372
    -1
  0
DIMSTYLE
105
1B4ED
330
A
100
AcDbSymbolTableRecord
100
AcDbDimStyleTableRecord
  2
AM_ANSI$3
 70
     0
  4
mm
 41
0.1
 42
0.05
 43
0.5
 44
0.1
 47
0.1
 48
0.1
 78
     7
 79
     2
140
0.12
141
0.0
146
0.71
147
0.06
176
   256
177
   256
178
     2
274
     4
284
     7
288
     1
289
     0
340
11
371
    -1
372
    -1
  0
DIMSTYLE
105
1B4EE
330
A
100
AcDbSymbolTableRecord
100
AcDbDimStyleTableRecord
  2
AM_ANSI$4
 70
     0
  4
mm
 41
0.1
 42
0.05
 43
0.5
 44
0.1
 47
0.1
 48
0.1
 78
     7
 79
     2
140
0.12
141
0.0
146
0.71
147
0.06
176
   256
177
   256
178
     2
274
     4
284
     7
288
     1
289
     0
340
11
371
    -1
372
    -1
  0
DIMSTYLE
105
1B4EF
330
A
100
AcDbSymbolTableRecord
100
AcDbDimStyleTableRecord
  2
AM_ANSI$7
 70
     0
  4
mm
 41
0.1
 42
0.05
 43
0.5
 44
0.1
 47
0.1
 48
0.1
 78
     7
 79
     2
140
0.24
141
0.0
146
0.71
147
0.06
176
   256
177
   256
178
     2
274
     4
284
     7
340
11
371
    -1
372
    -1
  0
DIMSTYLE
105
1B4F0
330
A
100
AcDbSymbolTableRecord
100
AcDbDimStyleTableRecord
  2
AM_ANSI$SF
 70
     0
  4
mm
 41
0.1
 42
0.05
 43
0.5
 44
0.1
 47
0.1
 48
0.1
 75
     1
 76
     1
 78
     7
 79
     2
140
0.12
141
0.0
146
0.71
147
0.06
176
   256
177
   256
178
     2
274
     4
284
     7
340
11
371
    -1
372
    -1
  0
DIMSTYLE
105
1B4F1
330
A
100
AcDbSymbolTableRecord
100
AcDbDimStyleTableRecord
  2
AM_ANSI$SH
 70
     0
  4
mm
 41
0.1
 42
0.05
 43
0.5
 44
0.1
 47
0.1
 48
0.1
 75
     1
 76
     1
 78
     7
 79
     2
140
0.12
141
0.0
146
0.71
147
0.06
173
     1
176
   256
177
   256
178
     2
274
     4
284
     7
340
11
343
64
371
    -1
372
    -1
  0
ENDTAB
  0
TABLE
  2
BLOCK_RECORD
  5
1
330
0
100
AcDbSymbolTable
 70
    12
  0
BLOCK_RECORD
  5
1F
102
{ACAD_XDICTIONARY
360
165
102
}
330
1
100
AcDbSymbolTableRecord
100
AcDbBlockTableRecord
  2
*Model_Space
340
22
  0
BLOCK_RECORD
  5
1B
330
1
100
AcDbSymbolTableRecord
100
AcDbBlockTableRecord
  2
*Paper_Space
340
1E
  0
BLOCK_RECORD
  5
23
330
1
100
AcDbSymbolTableRecord
100
AcDbBlockTableRecord
  2
*Paper_Space0
340
26
  0
BLOCK_RECORD
  5
59
330
1
100
AcDbSymbolTableRecord
100
AcDbBlockTableRecord
  2
_Open30
340
0
102
{BLKREFS
331
1E15A
331
1E15B
331
1E164
331
1E165
331
1E16C
331
1E16D
331
1E176
331
1E177
331
1E210
331
1E211
331
1E189
331
1E18A
331
1E192
331
1E193
331
1E19D
331
1E19E
102
}
  0
BLOCK_RECORD
  5
64
330
1
100
AcDbSymbolTableRecord
100
AcDbBlockTableRecord
  2
GENAXEH
340
0
  0
BLOCK_RECORD
  5
1D676
330
1
100
AcDbSymbolTableRecord
100
AcDbBlockTableRecord
  2
*D3
340
0
  0
BLOCK_RECORD
  5
1D6BB
330
1
100
AcDbSymbolTableRecord
100
AcDbBlockTableRecord
  2
*D4
340
0
  0
BLOCK_RECORD
  5
1D740
330
1
100
AcDbSymbolTableRecord
100
AcDbBlockTableRecord
  2
*D5
340
0
  0
BLOCK_RECORD
  5
1D865
330
1
100
AcDbSymbolTableRecord
100
AcDbBlockTableRecord
  2
*D6
340
0
  0
BLOCK_RECORD
  5
1D8F9
330
1
100
AcDbSymbolTableRecord
100
AcDbBlockTableRecord
  2
*D7
340
0
  0
BLOCK_RECORD
  5
1D9B4
330
1
100
AcDbSymbolTableRecord
100
AcDbBlockTableRecord
  2
*D8
340
0
  0
BLOCK_RECORD
  5
1D9D8
330
1
100
AcDbSymbolTableRecord
100
AcDbBlockTableRecord
  2
*D9
340
0
  0
BLOCK_RECORD
  5
1DDFB
330
1
100
AcDbSymbolTableRecord
100
AcDbBlockTableRecord
  2
*U10
340
0
  0
BLOCK_RECORD
  5
1E004
330
1
100
AcDbSymbolTableRecord
100
AcDbBlockTableRecord
  2
*D11
340
0
  0
ENDTAB
  0
ENDSEC
  0
SECTION
  2
BLOCKS
  0
BLOCK
  5
20
330
1F
100
AcDbEntity
  8
0
100
AcDbBlockBegin
  2
*Model_Space
 70
     0
 71
     0
 10
0.0
 20
0.0
 30
0.0
  3
*Model_Space
  1

  0
ENDBLK
  5
21
330
1F
100
AcDbEntity
  8
0
100
AcDbBlockEnd
  0
BLOCK
  5
1C
330
1B
100
AcDbEntity
 67
     1
  8
0
100
AcDbBlockBegin
  2
*Paper_Space
 70
     0
 71
     0
 10
0.0
 20
0.0
 30
0.0
  3
*Paper_Space
  1

  0
ENDBLK
  5
1D
330
1B
100
AcDbEntity
 67
     1
  8
0
100
AcDbBlockEnd
  0
BLOCK
  5
24
330
23
100
AcDbEntity
  8
0
100
AcDbBlockBegin
  2
*Paper_Space0
 70
     0
 71
     0
 10
0.0
 20
0.0
 30
0.0
  3
*Paper_Space0
  1

  0
ENDBLK
  5
25
330
23
100
AcDbEntity
  8
0
100
AcDbBlockEnd
  0
BLOCK
  5
5D
330
59
100
AcDbEntity
  8
0
100
AcDbBlockBegin
  2
_Open30
 70
     0
 71
     0
 10
0.0
 20
0.0
 30
0.0
  3
_Open30
  1

  0
LINE
  5
5A
330
59
100
AcDbEntity
  8
0
 62
     0
370
    -2
100
AcDbLine
 10
-1.0
 20
0.26794919
 30
0.0
 11
0.0
 21
0.0
 31
0.0
  0
LINE
  5
5B
330
59
100
AcDbEntity
  8
0
 62
     0
370
    -2
100
AcDbLine
 10
0.0
 20
0.0
 30
0.0
 11
-1.0
 21
-0.26794919
 31
0.0
  0
LINE
  5
5C
330
59
100
AcDbEntity
  8
0
 62
     0
370
    -2
100
AcDbLine
 10
0.0
 20
0.0
 30
0.0
 11
-1.0
 21
0.0
 31
0.0
  0
ENDBLK
  5
5E
330
59
100
AcDbEntity
  8
0
100
AcDbBlockEnd
  0
BLOCK
  5
66
330
64
100
AcDbEntity
  8
0
100
AcDbBlockBegin
  2
GENAXEH
 70
     0
 71
     0
 10
0.0
 20
0.0
 30
0.0
  3
GENAXEH
  1

  0
LINE
  5
65
330
64
100
AcDbEntity
  8
0
100
AcDbLine
 10
-1.0
 20
0.0
 30
0.0
 11
1.0
 21
0.0
 31
0.0
  0
ENDBLK
  5
67
330
64
100
AcDbEntity
  8
0
100
AcDbBlockEnd
  0
BLOCK
  5
1D680
330
1D676
100
AcDbEntity
  8
0
100
AcDbBlockBegin
  2
*D3
 70
     1
 71
     0
 10
0.0
 20
0.0
 30
0.0
  3
*D3
  1

  0
LINE
  5
1E157
330
1D676
100
AcDbEntity
  8
AM_5
 62
     3
370
    13
100
AcDbLine
 10
-0.0000000000000007
 20
-1.875
 30
0.0
 11
-0.0000000000000035
 21
-46.7647604778137
 31
0.0
  0
LINE
  5
1E158
330
1D676
100
AcDbEntity
  8
AM_5
 62
     3
370
    13
100
AcDbLine
 10
150.0
 20
-5.0
 30
0.0
 11
150.0
 21
-46.7647604778137
 31
0.0
  0
LINE
  5
1E159
330
1D676
100
AcDbEntity
  8
AM_5
 62
     3
370
    13
100
AcDbLine
 10
2.499999999999996
 20
-45.7647604778137
 30
0.0
 11
147.5
 21
-45.7647604778137
 31
0.0
  0
INSERT
  5
1E15A
330
1D676
100
AcDbEntity
  8
AM_5
 62
     3
370
    13
100
AcDbBlockReference
  2
_Open30
 10
-0.0000000000000034
 20
-45.7647604778137
 30
0.0
 41
2.5
 42
2.5
 43
2.5
 50
180.0
  0
INSERT
  5
1E15B
330
1D676
100
AcDbEntity
  8
AM_5
 62
     3
370
    13
100
AcDbBlockReference
  2
_Open30
 10
150.0
 20
-45.7647604778137
 30
0.0
 41
2.5
 42
2.5
 43
2.5
  0
MTEXT
  5
1E15C
330
1D676
100
AcDbEntity
  8
AM_5
 62
     2
100
AcDbMText
 10
75.0
 20
-42.3647604778137
 30
0.0
 40
3.8
 41
0.0
 71
     5
 72
     1
  1
150
 73
     1
 44
1.0
  0
POINT
  5
1E15D
330
1D676
100
AcDbEntity
  8
Defpoints
 62
     0
100
AcDbPoint
 10
-0.0000000000000007
 20
-1.875
 30
0.0
  0
POINT
  5
1E15E
330
1D676
100
AcDbEntity
  8
Defpoints
 62
     0
100
AcDbPoint
 10
150.0
 20
-5.0
 30
0.0
  0
POINT
  5
1E15F
330
1D676
100
AcDbEntity
  8
Defpoints
 62
     0
100
AcDbPoint
 10
150.0
 20
-45.7647604778137
 30
0.0
  0
ENDBLK
  5
1D681
330
1D676
100
AcDbEntity
  8
0
100
AcDbBlockEnd
  0
BLOCK
  5
1D6C1
330
1D6BB
100
AcDbEntity
  8
0
100
AcDbBlockBegin
  2
*D4
 70
     1
 71
     0
 10
0.0
 20
0.0
 30
0.0
  3
*D4
  1

  0
LINE
  5
1E160
330
1D6BB
100
AcDbEntity
  8
AM_5
100
AcDbLine
 10
98.92817793773176
 20
-7.532848775177406
 30
0.0
 11
97.77000443647086
 21
-9.748392532582585
 31
0.0
  0
LINE
  5
1E161
330
1D6BB
100
AcDbEntity
  8
AM_5
100
AcDbLine
 10
106.803757746306
 20
7.532848775177769
 30
0.0
 11
109.3695447222034
 21
12.44110588095006
 31
0.0
  0
LINE
  5
1E162
330
1D6BB
100
AcDbEntity
  8
AM_5
100
AcDbLine
 10
109.3695447222034
 20
12.44110588095006
 30
0.0
 11
117.9377691316522
 21
12.44110588095005
 31
0.0
  0
LINE
  5
1E163
330
1D6BB
100
AcDbEntity
  8
AM_5
100
AcDbLine
 10
100.0863514389927
 20
-5.317305017772235
 30
0.0
 11
105.6455842450451
 21
5.317305017772597
 31
0.0
  0
INSERT
  5
1E164
330
1D6BB
100
AcDbEntity
  8
AM_5
100
AcDbBlockReference
  2
_Open30
 10
100.0863514389927
 20
-5.317305017772235
 30
0.0
 41
2.5
 42
2.5
 43
2.5
 50
62.40172199605623
  0
INSERT
  5
1E165
330
1D6BB
100
AcDbEntity
  8
AM_5
100
AcDbBlockReference
  2
_Open30
 10
105.6455842450451
 20
5.317305017772597
 30
0.0
 41
2.5
 42
2.5
 43
2.5
 50
242.4017219960562
  0
MTEXT
  5
1E166
330
1D6BB
100
AcDbEntity
  8
AM_5
 62
     2
100
AcDbMText
 10
114.4036569269278
 20
15.84147989669807
 30
0.0
 40
3.8
 41
0.0
 71
     5
 72
     1
  1
\U+220512
 73
     1
 44
1.0
  0
POINT
  5
1E167
330
1D6BB
100
AcDbEntity
  8
Defpoints
 62
     0
100
AcDbPoint
 10
105.6455842450451
 20
5.317305017772597
 30
0.0
  0
POINT
  5
1E168
330
1D6BB
100
AcDbEntity
  8
Defpoints
 62
     0
100
AcDbPoint
 10
100.0863514389927
 20
-5.317305017772235
 30
0.0
  0
ENDBLK
  5
1D6C2
330
1D6BB
100
AcDbEntity
  8
0
100
AcDbBlockEnd
  0
BLOCK
  5
1D74A
330
1D740
100
AcDbEntity
  8
0
100
AcDbBlockBegin
  2
*D5
 70
     1
 71
     0
 10
0.0
 20
0.0
 30
0.0
  3
*D5
  1

  0
LINE
  5
1E169
330
1D740
100
AcDbEntity
  8
AM_5
 62
     3
370
    13
100
AcDbLine
 10
97.36596784201879
 20
-2.39791576165635
 30
0.0
 11
97.36596784201879
 21
-20.03921358174301
 31
0.0
  0
LINE
  5
1E16A
330
1D740
100
AcDbEntity
  8
AM_5
 62
     3
370
    13
100
AcDbLine
 10
108.3659678420188
 20
-2.39791576165635
 30
0.0
 11
108.3659678420188
 21
-20.03921358174301
 31
0.0
  0
LINE
  5
1E16B
330
1D740
100
AcDbEntity
  8
AM_5
 62
     3
370
    13
100
AcDbLine
 10
99.86596784201879
 20
-19.03921358174301
 30
0.0
 11
105.8659678420188
 21
-19.03921358174301
 31
0.0
  0
INSERT
  5
1E16C
330
1D740
100
AcDbEntity
  8
AM_5
 62
     3
370
    13
100
AcDbBlockReference
  2
_Open30
 10
97.36596784201879
 20
-19.03921358174301
 30
0.0
 41
2.5
 42
2.5
 43
2.5
 50
180.0
  0
INSERT
  5
1E16D
330
1D740
100
AcDbEntity
  8
AM_5
 62
     3
370
    13
100
AcDbBlockReference
  2
_Open30
 10
108.3659678420188
 20
-19.03921358174301
 30
0.0
 41
2.5
 42
2.5
 43
2.5
  0
MTEXT
  5
1E16E
330
1D740
100
AcDbEntity
  8
AM_5
 62
     2
100
AcDbMText
 10
102.5159670465117
 20
-15.63921358174301
 30
0.0
 40
3.8
 41
0.0
 71
     5
 72
     1
  1
11
 73
     1
 44
1.0
  0
POINT
  5
1E16F
330
1D740
100
AcDbEntity
  8
Defpoints
 62
     0
100
AcDbPoint
 10
97.36596784201879
 20
-2.39791576165635
 30
0.0
  0
POINT
  5
1E170
330
1D740
100
AcDbEntity
  8
Defpoints
 62
     0
100
AcDbPoint
 10
108.3659678420188
 20
-2.39791576165635
 30
0.0
  0
POINT
  5
1E171
330
1D740
100
AcDbEntity
  8
Defpoints
 62
     0
100
AcDbPoint
 10
108.3659678420188
 20
-19.03921358174301
 30
0.0
  0
ENDBLK
  5
1D74B
330
1D740
100
AcDbEntity
  8
0
100
AcDbBlockEnd
  0
BLOCK
  5
1D86B
330
1D865
100
AcDbEntity
  8
0
100
AcDbBlockBegin
  2
*D6
 70
     1
 71
     0
 10
0.0
 20
0.0
 30
0.0
  3
*D6
  1

  0
LINE
  5
1E172
330
1D865
100
AcDbEntity
  8
AM_5
100
AcDbLine
 10
-48.75459212389026
 20
-3.409444915215342
 30
0.0
 11
-49.8640328112408
 21
-5.649788942647547
 31
0.0
  0
LINE
  5
1E173
330
1D865
100
AcDbEntity
  8
AM_5
100
AcDbLine
 10
-39.43529035014564
 20
15.40944491521523
 30
0.0
 11
-35.44862093312999
 21
23.45990774715532
 31
0.0
  0
LINE
  5
1E174
330
1D865
100
AcDbEntity
  8
AM_5
100
AcDbLine
 10
-35.44862093312999
 20
23.45990774715532
 30
0.0
 11
-3.550116996122114
 21
23.45990774715532
 31
0.0
  0
LINE
  5
1E175
330
1D865
100
AcDbEntity
  8
AM_5
100
AcDbLine
 10
-47.64515143653971
 20
-1.169100887783138
 30
0.0
 11
-40.54473103749618
 21
13.16910088778303
 31
0.0
  0
INSERT
  5
1E176
330
1D865
100
AcDbEntity
  8
AM_5
100
AcDbBlockReference
  2
_Open30
 10
-47.64515143653971
 20
-1.169100887783138
 30
0.0
 41
2.5
 42
2.5
 43
2.5
 50
63.65492826043218
  0
INSERT
  5
1E177
330
1D865
100
AcDbEntity
  8
AM_5
100
AcDbBlockReference
  2
_Open30
 10
-40.54473103749618
 20
13.16910088778303
 30
0.0
 41
2.5
 42
2.5
 43
2.5
 50
243.6549282604322
  0
MTEXT
  5
1E178
330
1D865
100
AcDbEntity
  8
AM_5
 62
     2
370
    13
100
AcDbMText
 10
-18.74936896462606
 20
26.85990774715533
 30
0.0
 40
3.8
 41
0.0
 71
     5
 72
     1
  1
最小加工径\U+220516
 73
     1
 44
1.0
  0
POINT
  5
1E179
330
1D865
100
AcDbEntity
  8
Defpoints
 62
     0
100
AcDbPoint
 10
-40.54473103749618
 20
13.16910088778303
 30
0.0
  0
POINT
  5
1E17A
330
1D865
100
AcDbEntity
  8
Defpoints
 62
     0
100
AcDbPoint
 10
-47.64515143653971
 20
-1.169100887783138
 30
0.0
  0
ENDBLK
  5
1D86C
330
1D865
100
AcDbEntity
  8
0
100
AcDbBlockEnd
  0
BLOCK
  5
1D905
330
1D8F9
100
AcDbEntity
  8
0
100
AcDbBlockBegin
  2
*D7
 70
     1
 71
     0
 10
0.0
 20
0.0
 30
0.0
  3
*D7
  1

  0
LINE
  5
1E20B
330
1D8F9
100
AcDbEntity
  8
AM_5
 62
     3
370
    13
100
AcDbLine
 10
-0.5103671736264922
 20
-2.0
 30
0.0
 11
-8.58126491595408
 21
-1.999999999999998
 31
0.0
  0
LINE
  5
1E20C
330
1D8F9
100
AcDbEntity
  8
AM_5
 62
     3
370
    13
100
AcDbLine
 10
-1.27973005934382
 20
0.0
 30
0.0
 11
-8.58126491595408
 21
0.0000000000000021
 31
0.0
  0
LINE
  5
1E20D
330
1D8F9
100
AcDbEntity
  8
AM_5
 62
     3
370
    13
100
AcDbLine
 10
-7.581264915954082
 20
-4.499999999999998
 30
0.0
 11
-7.581264915954082
 21
-6.999999999999998
 31
0.0
  0
LINE
  5
1E20E
330
1D8F9
100
AcDbEntity
  8
AM_5
 62
     3
370
    13
100
AcDbLine
 10
-7.58126491595408
 20
2.500000000000002
 30
0.0
 11
-7.58126491595408
 21
5.000000000000002
 31
0.0
  0
LINE
  5
1E20F
330
1D8F9
100
AcDbEntity
  8
AM_5
 62
     3
370
    13
100
AcDbLine
 10
-7.581264915954081
 20
-1.999999999999998
 30
0.0
 11
-7.581264915954081
 21
0.0000000000000018
 31
0.0
  0
INSERT
  5
1E210
330
1D8F9
100
AcDbEntity
  8
AM_5
 62
     3
370
    13
100
AcDbBlockReference
  2
_Open30
 10
-7.581264915954081
 20
-1.999999999999998
 30
0.0
 41
2.5
 42
2.5
 43
2.5
 50
90.0
  0
INSERT
  5
1E211
330
1D8F9
100
AcDbEntity
  8
AM_5
 62
     3
370
    13
100
AcDbBlockReference
  2
_Open30
 10
-7.581264915954081
 20
0.0000000000000018
 30
0.0
 41
2.5
 42
2.5
 43
2.5
 50
270.0
  0
MTEXT
  5
1E212
330
1D8F9
100
AcDbEntity
  8
AM_5
 62
     2
100
AcDbMText
 10
-10.98163893170211
 20
-0.9999999999999989
 30
0.0
 40
3.8
 41
0.0
 71
     5
 72
     1
  1
2
 11
6.123031769111886E-17
 21
1.0
 31
0.0
 73
     1
 44
1.0
  0
POINT
  5
1E213
330
1D8F9
100
AcDbEntity
  8
Defpoints
 62
     0
100
AcDbPoint
 10
-0.5103671736264922
 20
-2.0
 30
0.0
  0
POINT
  5
1E214
330
1D8F9
100
AcDbEntity
  8
Defpoints
 62
     0
100
AcDbPoint
 10
-1.27973005934382
 20
0.0
 30
0.0
  0
POINT
  5
1E215
330
1D8F9
100
AcDbEntity
  8
Defpoints
 62
     0
100
AcDbPoint
 10
-7.581264915954081
 20
0.0000000000000018
 30
0.0
  0
ENDBLK
  5
1D906
330
1D8F9
100
AcDbEntity
  8
0
100
AcDbBlockEnd
  0
BLOCK
  5
1D9BE
330
1D9B4
100
AcDbEntity
  8
0
100
AcDbBlockBegin
  2
*D8
 70
     1
 71
     0
 10
0.0
 20
0.0
 30
0.0
  3
*D8
  1

  0
LINE
  5
1E186
330
1D9B4
100
AcDbEntity
  8
AM_5
 62
     3
370
    13
100
AcDbLine
 10
-0.0000000000000007
 20
-1.875
 30
0.0
 11
-0.0000000000000022
 21
-26.76476047781398
 31
0.0
  0
LINE
  5
1E187
330
1D9B4
100
AcDbEntity
  8
AM_5
 62
     3
370
    13
100
AcDbLine
 10
21.00000000000003
 20
-20.16899999999998
 30
0.0
 11
21.00000000000003
 21
-26.76476047781398
 31
0.0
  0
LINE
  5
1E188
330
1D9B4
100
AcDbEntity
  8
AM_5
 62
     3
370
    13
100
AcDbLine
 10
2.499999999999998
 20
-25.76476047781398
 30
0.0
 11
18.50000000000003
 21
-25.76476047781398
 31
0.0
  0
INSERT
  5
1E189
330
1D9B4
100
AcDbEntity
  8
AM_5
 62
     3
370
    13
100
AcDbBlockReference
  2
_Open30
 10
-0.0000000000000022
 20
-25.76476047781398
 30
0.0
 41
2.5
 42
2.5
 43
2.5
 50
180.0
  0
INSERT
  5
1E18A
330
1D9B4
100
AcDbEntity
  8
AM_5
 62
     3
370
    13
100
AcDbBlockReference
  2
_Open30
 10
21.00000000000003
 20
-25.76476047781398
 30
0.0
 41
2.5
 42
2.5
 43
2.5
  0
MTEXT
  5
1E18B
330
1D9B4
100
AcDbEntity
  8
AM_5
 62
     2
100
AcDbMText
 10
10.50000000000001
 20
-22.36438646206595
 30
0.0
 40
3.8
 41
0.0
 71
     5
 72
     1
  1
21
 73
     1
 44
1.0
  0
POINT
  5
1E18C
330
1D9B4
100
AcDbEntity
  8
Defpoints
 62
     0
100
AcDbPoint
 10
-0.0000000000000007
 20
-1.875
 30
0.0
  0
POINT
  5
1E18D
330
1D9B4
100
AcDbEntity
  8
Defpoints
 62
     0
100
AcDbPoint
 10
21.00000000000003
 20
-20.16899999999998
 30
0.0
  0
POINT
  5
1E18E
330
1D9B4
100
AcDbEntity
  8
Defpoints
 62
     0
100
AcDbPoint
 10
21.00000000000003
 20
-25.76476047781398
 30
0.0
  0
ENDBLK
  5
1D9BF
330
1D9B4
100
AcDbEntity
  8
0
100
AcDbBlockEnd
  0
BLOCK
  5
1D9E2
330
1D9D8
100
AcDbEntity
  8
0
100
AcDbBlockBegin
  2
*D9
 70
     1
 71
     0
 10
0.0
 20
0.0
 30
0.0
  3
*D9
  1

  0
LINE
  5
1E18F
330
1D9D8
100
AcDbEntity
  8
AM_5
 62
     3
370
    13
100
AcDbLine
 10
-0.0000000000000007
 20
-1.875
 30
0.0
 11
-0.0000000000000029
 21
-36.76476047781392
 31
0.0
  0
LINE
  5
1E190
330
1D9D8
100
AcDbEntity
  8
AM_5
 62
     3
370
    13
100
AcDbLine
 10
30.00000000000003
 20
-5.5
 30
0.0
 11
30.00000000000003
 21
-36.76476047781392
 31
0.0
  0
LINE
  5
1E191
330
1D9D8
100
AcDbEntity
  8
AM_5
 62
     3
370
    13
100
AcDbLine
 10
2.499999999999997
 20
-35.76476047781392
 30
0.0
 11
27.50000000000003
 21
-35.76476047781392
 31
0.0
  0
INSERT
  5
1E192
330
1D9D8
100
AcDbEntity
  8
AM_5
 62
     3
370
    13
100
AcDbBlockReference
  2
_Open30
 10
-0.0000000000000028
 20
-35.76476047781392
 30
0.0
 41
2.5
 42
2.5
 43
2.5
 50
180.0
  0
INSERT
  5
1E193
330
1D9D8
100
AcDbEntity
  8
AM_5
 62
     3
370
    13
100
AcDbBlockReference
  2
_Open30
 10
30.00000000000003
 20
-35.76476047781392
 30
0.0
 41
2.5
 42
2.5
 43
2.5
  0
MTEXT
  5
1E194
330
1D9D8
100
AcDbEntity
  8
AM_5
 62
     2
100
AcDbMText
 10
15.00000000000001
 20
-32.36476047781392
 30
0.0
 40
3.8
 41
0.0
 71
     5
 72
     1
  1
30
 73
     1
 44
1.0
  0
POINT
  5
1E195
330
1D9D8
100
AcDbEntity
  8
Defpoints
 62
     0
100
AcDbPoint
 10
-0.0000000000000007
 20
-1.875
 30
0.0
  0
POINT
  5
1E196
330
1D9D8
100
AcDbEntity
  8
Defpoints
 62
     0
100
AcDbPoint
 10
30.00000000000003
 20
-5.5
 30
0.0
  0
POINT
  5
1E197
330
1D9D8
100
AcDbEntity
  8
Defpoints
 62
     0
100
AcDbPoint
 10
30.00000000000003
 20
-35.76476047781392
 30
0.0
  0
ENDBLK
  5
1D9E3
330
1D9D8
100
AcDbEntity
  8
0
100
AcDbBlockEnd
  0
BLOCK
  5
1DDFC
330
1DDFB
100
AcDbEntity
  8
0
100
AcDbBlockBegin
  2
*U10
 70
     1
 71
     0
 10
0.0
 20
0.0
 30
0.0
  3
*U10
  1

  0
ENDBLK
  5
1DDFD
330
1DDFB
100
AcDbEntity
  8
0
100
AcDbBlockEnd
  0
BLOCK
  5
1E014
330
1E004
100
AcDbEntity
  8
0
100
AcDbBlockBegin
  2
*D11
 70
     1
 71
     0
 10
0.0
 20
0.0
 30
0.0
  3
*D11
  1

  0
LINE
  5
1E198
330
1E004
100
AcDbEntity
  8
AM_6
 62
     3
370
    13
100
AcDbLine
 10
5.65021751404683
 20
3.008645935393929
 30
0.0
 11
13.67070412816024
 21
9.274936844590242
 31
0.0
  0
LINE
  5
1E199
330
1E004
100
AcDbEntity
  8
AM_6
 62
     3
370
    13
100
AcDbLine
 10
-0.0000000000000008
 20
-0.7572511197138283
 30
0.0
 11
0.000000000000016
 21
15.94258475653586
 31
0.0
  0
ARC
  5
1E19A
330
1E004
100
AcDbEntity
  8
AM_6
 62
     3
370
    13
100
AcDbCircle
 10
-0.0000000000000009
 20
-1.405787794967357
 30
0.0
 40
16.34837255150322
100
AcDbArc
 50
20.45949146791319
 51
29.22974573395654
  0
ARC
  5
1E19B
330
1E004
100
AcDbEntity
  8
AM_6
 62
     3
370
    13
100
AcDbCircle
 10
-0.0000000000000009
 20
-1.405787794967357
 30
0.0
 40
16.34837255150322
100
AcDbArc
 50
98.7702542660433
 51
107.5405085320866
  0
ARC
  5
1E19C
330
1E004
100
AcDbEntity
  8
AM_6
 62
     3
370
    13
100
AcDbCircle
 10
-0.0000000000000009
 20
-1.405787794967357
 30
0.0
 40
16.34837255150322
100
AcDbArc
 50
37.99999999999989
 51
89.99999999999994
  0
INSERT
  5
1E19D
330
1E004
100
AcDbEntity
  8
AM_6
 62
     3
370
    13
100
AcDbBlockReference
  2
_Open30
 10
12.88269337455352
 20
8.659275369264586
 30
0.0
 41
2.5
 42
2.5
 43
2.5
 50
123.6148728669782
  0
INSERT
  5
1E19E
330
1E004
100
AcDbEntity
  8
AM_6
 62
     3
370
    13
100
AcDbBlockReference
  2
_Open30
 10
0.0000000000000133
 20
14.94258475653586
 30
0.0
 41
2.5
 42
2.5
 43
2.5
 50
4.385127133021624
  0
MTEXT
  5
1E19F
330
1E004
100
AcDbEntity
  8
AM_6
 62
     2
100
AcDbMText
 10
10.80238127139138
 20
15.12665152429254
 30
0.0
 40
3.8
 41
0.0
 71
     5
 72
     1
  1
52°
 11
0.8371386641152784
 21
-0.5469907284801884
 31
0.0
 73
     1
 44
1.0
  0
POINT
  5
1E1A0
330
1E004
100
AcDbEntity
  8
Defpoints
 62
     0
100
AcDbPoint
 10
4.870675228791179
 20
14.20016645007591
 30
0.0
  0
POINT
  5
1E1A1
330
1E004
100
AcDbEntity
  8
Defpoints
 62
     0
100
AcDbPoint
 10
-0.0000000000000009
 20
-1.875
 30
0.0
  0
POINT
  5
1E1A2
330
1E004
100
AcDbEntity
  8
Defpoints
 62
     0
100
AcDbPoint
 10
0.1516759372796052
 20
-1.287285565283867
 30
0.0
  0
POINT
  5
1E1A3
330
1E004
100
AcDbEntity
  8
Defpoints
 62
     0
100
AcDbPoint
 10
5.65021751404683
 20
3.008645935393929
 30
0.0
  0
POINT
  5
1E1A4
330
1E004
100
AcDbEntity
  8
Defpoints
 62
     0
100
AcDbPoint
 10
-0.0000000000000008
 20
-0.7572511197138283
 30
0.0
  0
ENDBLK
  5
1E015
330
1E004
100
AcDbEntity
  8
0
100
AcDbBlockEnd
  0
ENDSEC
  0
SECTION
  2
ENTITIES
  0
TEXT
  5
17604
330
1F
100
AcDbEntity
  8
AM_6
100
AcDbText
 10
217.362835492669
 20
-5.649660075781441
 30
0.0
 40
3.0
  1

 41
0.8947931617610168
100
AcDbText
  0
ARC
  5
1CD19
330
1F
100
AcDbEntity
  8
AM_0
370
    30
100
AcDbCircle
 10
-44.09494123701791
 20
0.0
 30
0.0
 40
5.999999999999998
100
AcDbArc
 50
23.55646430910136
 51
156.4435356908986
  0
ELLIPSE
  5
1CD1A
330
1F
100
AcDbEntity
  8
AM_0
370
    30
100
AcDbEllipse
 10
-42.78089531328581
 20
3.201801824635709
 30
0.0
 11
0.08724398930677041
 21
0.996186973579679
 31
0.0
210
0.0
220
0.0
230
1.0
 40
0.0867572354295557
 41
4.869597175233741
 42
6.645699063990254
  0
LINE
  5
1CD1B
330
1F
100
AcDbEntity
  8
AM_0
370
    30
100
AcDbLine
 10
-43.42995047792329
 20
3.016440466264839
 30
0.0
 11
-42.95824296212928
 21
5.381256083096695
 31
0.0
  0
LINE
  5
1CD1C
330
1F
100
AcDbEntity
  8
AM_0
370
    30
100
AcDbLine
 10
-43.01985601431477
 20
3.23786406421857
 30
0.0
 11
-42.72997049149114
 21
4.135929128020848
 31
0.0
  0
ARC
  5
1CD1D
330
1F
100
AcDbEntity
  8
AM_0
370
    30
100
AcDbCircle
 10
-44.09494304558268
 20
-0.0000015843301071
 30
0.0
 40
5.500002040235064
100
AcDbArc
 50
9.274683949012497
 51
73.16433228274669
  0
ARC
  5
1CD1E
330
1F
100
AcDbEntity
  8
AM_0
370
    30
100
AcDbCircle
 10
-44.09494123701791
 20
0.0
 30
0.0
 40
5.499999999999999
100
AcDbArc
 50
78.32731846768468
 51
170.158780843736
  0
LINE
  5
1CD1F
330
1F
100
AcDbEntity
  8
AM_0
100
AcDbLine
 10
30.50000000000003
 20
6.0
 30
0.0
 11
30.50000000000003
 21
2.39791576165635
 31
0.0
  0
LINE
  5
1CD20
330
1F
100
AcDbEntity
  8
AM_0
100
AcDbLine
 10
149.0
 20
6.0
 30
0.0
 11
149.0
 21
2.39791576165635
 31
0.0
  0
LINE
  5
1CD21
330
1F
100
AcDbEntity
  8
AM_0
100
AcDbLine
 10
150.0
 20
5.0
 30
0.0
 11
150.0
 21
-5.0
 31
0.0
  0
ELLIPSE
  5
1CD22
330
1F
100
AcDbEntity
  8
AM_0
100
AcDbEllipse
 10
13.27825744126452
 20
3.20131405869904
 30
0.0
 11
-0.7077489673944286
 21
0.7064640112221713
 31
0.0
210
0.0
220
0.0
230
1.0
 40
0.9924308333117199
 41
2.714000735600419
 42
5.855593389190214
  0
LINE
  5
1CD23
330
1F
100
AcDbEntity
  8
AM_0
100
AcDbLine
 10
30.00000000000003
 20
5.5
 30
0.0
 11
30.00000000000003
 21
0.0
 31
0.0
  0
LINE
  5
1CD24
330
1F
100
AcDbEntity
  8
AM_0
100
AcDbLine
 10
5.884169220985611
 20
3.020236623702544
 30
0.0
 11
8.912536732853823
 21
5.386256632505081
 31
0.0
  0
LINE
  5
1CD25
330
1F
100
AcDbEntity
  8
AM_0
100
AcDbLine
 10
10.54577674167649
 20
3.25118702152804
 30
0.0
 11
12.92496882894358
 21
4.13544136208418
 31
0.0
  0
SPLINE
  5
1CD26
330
1F
100
AcDbEntity
  8
AM_0
100
AcDbSpline
210
0.0
220
0.0
230
1.0
 70
     8
 71
     3
 72
    28
 73
    24
 74
     0
 42
0.0000000001
 43
0.0000000001
 40
12.8430367360234
 40
12.8430367360234
 40
12.8430367360234
 40
12.8430367360234
 40
13.27644532677704
 40
13.27644532677704
 40
14.55783204251215
 40
14.55783204251215
 40
15.83921875824727
 40
15.83921875824727
 40
17.12060547398239
 40
17.12060547398239
 40
17.71373922433713
 40
17.71373922433713
 40
18.30687297469187
 40
18.30687297469187
 40
18.90000672504661
 40
18.90000672504661
 40
19.49314047540134
 40
19.49314047540134
 40
20.61738466207196
 40
20.61738466207196
 40
21.74162884874259
 40
21.74162884874259
 40
22.6394886555603
 40
22.6394886555603
 40
22.6394886555603
 40
22.6394886555603
 10
14.52771203691958
 20
5.264266981744981
 30
0.0
 10
14.67813889711476
 20
5.260390514834626
 30
0.0
 10
14.8295382079325
 20
5.255425601802244
 30
0.0
 10
15.43020661442503
 20
5.230958889844828
 30
0.0
 10
15.88267343173422
 20
5.202148033639844
 30
0.0
 10
16.76723620596155
 20
5.114152388940795
 30
0.0
 10
17.19970023542106
 20
5.054769504015894
 30
0.0
 10
18.02002674091941
 20
4.894437466752265
 30
0.0
 10
18.40786152868606
 20
4.79321172984595
 30
0.0
 10
18.92803023654165
 20
4.610140971837154
 30
0.0
 10
19.09626536572807
 20
4.543399151545088
 30
0.0
 10
19.42848311954944
 20
4.390993333701204
 30
0.0
 10
19.59245567627403
 20
4.305287319650461
 30
0.0
 10
19.906697918877
 20
4.115719682499503
 30
0.0
 10
20.05704303852826
 20
4.011772609173704
 30
0.0
 10
20.33723344398769
 20
3.789600465984051
 30
0.0
 10
20.46709029442306
 20
3.671352447914387
 30
0.0
 10
20.80742167283884
 20
3.319763772239412
 30
0.0
 10
21.01101629959319
 20
3.051831700834441
 30
0.0
 10
21.3595942377911
 20
2.450866135732213
 30
0.0
 10
21.5048624216621
 20
2.11784312475254
 30
0.0
 10
21.7100689377088
 20
1.482731403473167
 30
0.0
 10
21.78176855930292
 20
1.187324916873877
 30
0.0
 10
21.83475647918129
 20
0.8864214502327741
 30
0.0
  0
SPLINE
  5
1CD27
330
1F
100
AcDbEntity
  8
AM_0
370
    30
100
AcDbSpline
210
0.0
220
0.0
230
1.0
 70
     8
 71
     3
 72
    10
 73
     6
 74
     0
 42
0.0000000001
 43
0.0000000001
 40
0.8386361268885436
 40
0.8386361268885436
 40
0.8386361268885436
 40
0.8386361268885436
 40
1.911032255745024
 40
1.911032255745024
 40
3.567563902382511
 40
3.567563902382511
 40
3.567563902382511
 40
3.567563902382511
 10
21.83475647918129
 20
-62.95628439842947
 30
0.0
 10
22.18812351706478
 20
-62.94882777546899
 30
0.0
 10
22.53734988582426
 20
-62.93698007656711
 30
0.0
 10
23.40562678353865
 20
-62.90490752735467
 30
0.0
 10
23.89456419680292
 20
-62.88438323800402
 30
0.0
 10
24.34305254288847
 20
-62.88438323800914
 30
0.0
  0
SPLINE
  5
1CD28
330
1F
100
AcDbEntity
  8
AM_0
370
    30
100
AcDbSpline
210
0.0
220
0.0
230
1.0
 70
     8
 71
     3
 72
    10
 73
     6
 74
     0
 42
0.0000000001
 43
0.0000000001
 40
8.232059167308258
 40
8.232059167308258
 40
8.232059167308258
 40
8.232059167308258
 40
9.678222138569879
 40
9.678222138569879
 40
11.74507053850427
 40
11.74507053850427
 40
11.74507053850427
 40
11.74507053850427
 10
24.34305254330948
 20
-73.88438323800914
 30
0.0
 10
23.93559623128778
 20
-73.88438323802568
 30
0.0
 10
23.50041890684537
 20
-73.86758716978834
 30
0.0
 10
22.38407580238408
 20
-73.82590417121411
 30
0.0
 10
21.69446804788402
 20
-73.80345179995122
 30
0.0
 10
21.00000000000003
 20
-73.80345179995122
 30
0.0
  0
ARC
  5
1CD29
330
1F
100
AcDbEntity
  8
AM_0
100
AcDbCircle
 10
21.00000000000003
 20
-9.375
 30
0.0
 40
8.0
100
AcDbArc
 50
29.99999999999973
 51
90.0
  0
ARC
  5
1CD2A
330
1F
100
AcDbEntity
  8
AM_0
100
AcDbCircle
 10
21.04216545952534
 20
-5.348422029763015
 30
0.0
 40
6.285019788710723
100
AcDbArc
 50
58.31834875027012
 51
82.75525647538352
  0
ELLIPSE
  5
1CD2B
330
1F
100
AcDbEntity
  8
AM_0
370
    30
100
AcDbEllipse
 10
6.525539660312886
 20
-67.50666694714805
 30
0.0
 11
1.344870982511046
 21
0.1175671739890685
 31
0.0
210
0.0
220
0.0
230
1.0
 40
0.0869150343313857
 41
2.809942717264478
 42
6.614835243504999
  0
LINE
  5
1CD2C
330
1F
100
AcDbEntity
  8
AM_0
370
    30
100
AcDbLine
 10
7.336515981801369
 20
-67.28363769009961
 30
0.0
 11
7.793796657024529
 21
-67.35744679868627
 31
0.0
  0
ELLIPSE
  5
1CD2D
330
1F
100
AcDbEntity
  8
AM_0
370
    30
100
AcDbEllipse
 10
-4.556626000053371
 20
-68.38438323800914
 30
0.0
 11
86.12214858872724
 21
7.471828791834295
 31
0.0
210
0.0
220
0.0
230
1.0
 40
0.0075409368923475
 41
4.852848819516232
 42
4.93518572033914
  0
SPLINE
  5
1CD2E
330
1F
100
AcDbEntity
  8
AM_0
370
    30
100
AcDbSpline
210
0.0
220
0.0
230
1.0
 70
     8
 71
     3
 72
    26
 73
    22
 74
     0
 42
0.0000000001
 43
0.0000000001
 40
2.337258838983956
 40
2.337258838983956
 40
2.337258838983956
 40
2.337258838983956
 40
2.819406641905137
 40
2.819406641905137
 40
3.062810325994746
 40
3.062810325994746
 40
3.306214010084355
 40
3.306214010084355
 40
3.480953443359903
 40
3.480953443359903
 40
3.655692876635452
 40
3.655692876635452
 40
3.855035253012513
 40
3.855035253012513
 40
4.054377629389574
 40
4.054377629389574
 40
4.453062382143695
 40
4.453062382143695
 40
5.048502599216245
 40
5.048502599216245
 40
5.067485753963221
 40
5.067485753963221
 40
5.067485753963221
 40
5.067485753963221
 10
6.155811186333493
 20
-73.80345179995122
 30
0.0
 10
6.194521806785274
 20
-73.68664055951921
 30
0.0
 10
6.254493457755074
 20
-73.56967948327518
 30
0.0
 10
6.370087959969538
 20
-73.41343270973987
 30
0.0
 10
6.41834086256
 20
-73.35759971161785
 30
0.0
 10
6.530550229491666
 20
-73.255165011156
 30
0.0
 10
6.594696240401503
 20
-73.20872021482323
 30
0.0
 10
6.709495599665615
 20
-73.14788665477828
 30
0.0
 10
6.765792768518195
 20
-73.12460165900608
 30
0.0
 10
6.884705250397217
 20
-73.09346713357432
 30
0.0
 10
6.947387752922452
 20
-73.08579472205229
 30
0.0
 10
7.072081689473349
 20
-73.08579472205229
 30
0.0
 10
7.137787876102407
 20
-73.09507240374875
 30
0.0
 10
7.264781690653194
 20
-73.12862208841055
 30
0.0
 10
7.326076339580225
 20
-73.15286863977455
 30
0.0
 10
7.499675696697863
 20
-73.24077203813145
 30
0.0
 10
7.601663301593077
 20
-73.31971198071504
 30
0.0
 10
7.805752751495674
 20
-73.51388911672977
 30
0.0
 10
7.908794410513052
 20
-73.651328349639
 30
0.0
 10
7.985340542682279
 20
-73.79459459512337
 30
0.0
 10
7.987676464253837
 20
-73.79902263726221
 30
0.0
 10
7.989983097934895
 20
-73.80345179995122
 30
0.0
  0
LINE
  5
1CD2F
330
1F
100
AcDbEntity
  8
AM_0
370
    30
100
AcDbLine
 10
11.21519456323756
 20
-67.41114765889527
 30
0.0
 11
7.556130138846441
 21
-67.98138467031127
 31
0.0
  0
ARC
  5
1CD30
330
1F
100
AcDbEntity
  8
AM_0
370
    30
100
AcDbCircle
 10
7.056965021403811
 20
-75.47824223540742
 30
0.0
 40
2.10460159688401
100
AcDbArc
 50
69.77260372237561
 51
111.1912408806426
  0
ELLIPSE
  5
1CD31
330
1F
100
AcDbEntity
  8
AM_0
370
    30
100
AcDbEllipse
 10
6.531849005092624
 20
-67.57884061965386
 30
0.0
 11
1.394681018900343
 21
0.1219215137664414
 31
0.0
210
0.0
220
0.0
230
1.0
 40
0.0869150343313857
 41
2.873529530767415
 42
6.275587434619101
  0
LINE
  5
1CD32
330
1F
100
AcDbEntity
  8
AM_0
370
    30
100
AcDbLine
 10
7.38940221845226
 20
-67.29217399218975
 30
0.0
 11
12.64247220244423
 21
-66.81016382563233
 31
0.0
  0
LINE
  5
1CD33
330
1F
100
AcDbEntity
  8
AM_0
370
    30
100
AcDbLine
 10
12.91202207290564
 20
-66.84901811823987
 30
0.0
 11
7.413480496138418
 21
-67.7059234777032
 31
0.0
  0
ELLIPSE
  5
1CD34
330
1F
100
AcDbEntity
  8
AM_0
370
    30
100
AcDbEllipse
 10
10.08021211704988
 20
-68.38438323800914
 30
0.0
 11
-9.824729176495968
 21
2.166338558924378
 31
0.0
210
0.0
220
0.0
230
1.0
 40
0.7308413915338885
 41
0.5989323169661033
 42
1.100493304668941
  0
LINE
  5
1CD35
330
1F
100
AcDbEntity
  8
AM_0
370
    30
100
AcDbLine
 10
6.155811186333493
 20
-73.80345179995122
 30
0.0
 11
4.216714872550312
 21
-73.80345179995122
 31
0.0
  0
LINE
  5
1CD36
330
1F
100
AcDbEntity
  8
AM_0
370
    30
100
AcDbLine
 10
7.413480496138418
 20
-67.7059234777032
 30
0.0
 11
0.4212258077410517
 21
-68.34751741367528
 31
0.0
  0
LINE
  5
1CD37
330
1F
100
AcDbEntity
  8
AM_0
370
    30
100
AcDbLine
 10
0.6110992813028126
 20
-70.6854901163819
 30
0.0
 11
7.511711980954543
 21
-70.05230504806126
 31
0.0
  0
LINE
  5
1CD38
330
1F
100
AcDbEntity
  8
AM_0
370
    30
100
AcDbLine
 10
0.1516759372796052
 20
-68.3086631210678
 30
0.0
 11
5.593666887787804
 21
-67.46057074120022
 31
0.0
  0
LINE
  5
1CD39
330
1F
100
AcDbEntity
  8
AM_0
370
    30
100
AcDbLine
 10
-0.0000000000000007
 20
-68.38438323800914
 30
0.0
 11
-0.0000000000000007
 21
-68.28649310900157
 31
0.0
  0
LINE
  5
1CD3A
330
1F
100
AcDbEntity
  8
AM_0
370
    30
100
AcDbLine
 10
1.219445852530839
 20
-68.27778059390487
 30
0.0
 11
-0.0000000000000007
 21
-68.38438323800914
 31
0.0
  0
ELLIPSE
  5
1CD3B
330
1F
100
AcDbEntity
  8
AM_0
370
    30
100
AcDbEllipse
 10
0.3984917930599458
 20
-68.3146489112771
 30
0.0
 11
0.3984802911143839
 21
0.03483471821898328
 31
0.0
210
0.0
220
0.0
230
0.9999999999999999
 40
0.0869150343313857
 41
2.23114483014409
 42
4.761872245535869
  0
ELLIPSE
  5
1CD3C
330
1F
100
AcDbEntity
  8
AM_0
370
    30
100
AcDbEllipse
 10
0.6049740133822744
 20
-70.67663429455898
 30
0.0
 11
0.1073632870553836
 21
0.009385583013853317
 31
0.0
210
0.0
220
0.0
230
1.0
 40
0.0869150343313857
 41
3.152305221303156
 42
4.761872245535812
  0
LINE
  5
1CD3D
330
1F
100
AcDbEntity
  8
AM_0
370
    30
100
AcDbLine
 10
0.4976256253169133
 20
-70.68611930127734
 30
0.0
 11
0.0000667997483099
 21
-68.34985264191919
 31
0.0
  0
ELLIPSE
  5
1CD3E
330
1F
100
AcDbEntity
  8
AM_0
370
    30
100
AcDbEllipse
 10
6.514497558006723
 20
-67.38035445299151
 30
0.0
 11
0.8716756368127931
 21
0.0762009461040406
 31
0.0
210
0.0
220
0.0
230
1.0
 40
0.0869150343313856
 41
5.755787569075402
 42
6.802985120271906
  0
ELLIPSE
  5
1CD3F
330
1F
100
AcDbEntity
  8
AM_0
370
    30
100
AcDbEllipse
 10
6.514497558006723
 20
-67.38035445299151
 30
0.0
 11
0.8716756368127931
 21
0.0762009461040406
 31
0.0
210
0.0
220
0.0
230
1.0
 40
0.0869150343313856
 41
0.5197998130923192
 42
1.566997364289016
  0
ELLIPSE
  5
1CD40
330
1F
100
AcDbEntity
  8
AM_0
370
    30
100
AcDbEllipse
 10
6.514497558006723
 20
-67.38035445299151
 30
0.0
 11
0.8716756368127931
 21
0.0762009461040406
 31
0.0
210
0.0
220
0.0
230
1.0
 40
0.0869150343313856
 41
1.566997364289016
 42
2.614194915485404
  0
ELLIPSE
  5
1CD41
330
1F
100
AcDbEntity
  8
AM_0
370
    30
100
AcDbEllipse
 10
6.514497558006723
 20
-67.38035445299151
 30
0.0
 11
0.8716756368127931
 21
0.0762009461040406
 31
0.0
210
0.0
220
0.0
230
1.0
 40
0.0869150343313856
 41
2.614194915485404
 42
3.661392466682201
  0
ELLIPSE
  5
1CD42
330
1F
100
AcDbEntity
  8
AM_0
370
    30
100
AcDbEllipse
 10
6.514497558006723
 20
-67.38035445299151
 30
0.0
 11
0.8716756368127931
 21
0.0762009461040406
 31
0.0
210
0.0
220
0.0
230
1.0
 40
0.0869150343313856
 41
3.661392466682203
 42
4.708590017878809
  0
ELLIPSE
  5
1CD43
330
1F
100
AcDbEntity
  8
AM_0
370
    30
100
AcDbEllipse
 10
6.514497558006723
 20
-67.38035445299151
 30
0.0
 11
0.8716756368127931
 21
0.0762009461040406
 31
0.0
210
0.0
220
0.0
230
1.0
 40
0.0869150343313856
 41
4.708590017878809
 42
5.755787569075402
  0
ELLIPSE
  5
1CD44
330
1F
100
AcDbEntity
  8
AM_0
370
    30
100
AcDbEllipse
 10
7.483067560956157
 20
-67.29600535110795
 30
0.0
 11
0.3486702547250854
 21
0.03048037844161347
 31
0.0
210
0.0
220
0.0
230
1.0
 40
0.0869150343313857
 41
2.326759296796238
 42
3.948828085371656
  0
ELLIPSE
  5
1CD45
330
1F
100
AcDbEntity
  8
AM_0
370
    30
100
AcDbEllipse
 10
7.141365982663188
 20
-67.35738902479965
 30
0.0
 11
0.1494301091678713
 21
0.01306301933211673
 31
0.0
210
0.0
220
0.0
230
0.9999999999999999
 40
0.0869150343313856
 41
5.755787569075446
 42
7.090420738961514
  0
ELLIPSE
  5
1CD46
330
1F
100
AcDbEntity
  8
AM_0
370
    30
100
AcDbEllipse
 10
7.141365982663188
 20
-67.35738902479965
 30
0.0
 11
0.1494301091678713
 21
0.01306301933211673
 31
0.0
210
0.0
220
0.0
230
0.9999999999999999
 40
0.0869150343313856
 41
4.421154399189267
 42
5.755787569075446
  0
ELLIPSE
  5
1CD47
330
1F
100
AcDbEntity
  8
AM_0
370
    30
100
AcDbEllipse
 10
7.001969124223677
 20
-67.4113612316924
 30
0.0
 11
0.3486702547250854
 21
0.03048037844161347
 31
0.0
210
0.0
220
0.0
230
1.0
 40
0.0869150343313857
 41
1.279561745599435
 42
2.901630534175021
  0
ELLIPSE
  5
1CD48
330
1F
100
AcDbEntity
  8
AM_0
370
    30
100
AcDbEllipse
 10
6.517241376400846
 20
-67.44336785288174
 30
0.0
 11
0.1494301091678713
 21
0.01306301933211673
 31
0.0
210
0.0
220
0.0
230
0.9999999999999999
 40
0.0869150343313856
 41
4.708590017878853
 42
6.043223187764712
  0
ELLIPSE
  5
1CD49
330
1F
100
AcDbEntity
  8
AM_0
370
    30
100
AcDbEllipse
 10
6.517241376400846
 20
-67.44336785288174
 30
0.0
 11
0.1494301091678713
 21
0.01306301933211673
 31
0.0
210
0.0
220
0.0
230
0.9999999999999999
 40
0.0869150343313856
 41
3.373956847992815
 42
4.708590017878853
  0
ELLIPSE
  5
1CD4A
330
1F
100
AcDbEntity
  8
AM_0
370
    30
100
AcDbEllipse
 10
6.033399121274271
 20
-67.49571033357596
 30
0.0
 11
0.3486702547250854
 21
0.03048037844161347
 31
0.0
210
0.0
220
0.0
230
1.0
 40
0.0869150343313857
 41
0.2323641944028805
 42
1.854432982978188
  0
ELLIPSE
  5
1CD4B
330
1F
100
AcDbEntity
  8
AM_0
370
    30
100
AcDbEllipse
 10
5.890372951744552
 20
-67.4663332810736
 30
0.0
 11
0.1494301091678713
 21
0.01306301933211673
 31
0.0
210
0.0
220
0.0
230
0.9999999999999999
 40
0.0869150343313856
 41
3.66139246668225
 42
4.996025636568026
  0
ELLIPSE
  5
1CD4C
330
1F
100
AcDbEntity
  8
AM_0
370
    30
100
AcDbEllipse
 10
5.890372951744552
 20
-67.4663332810736
 30
0.0
 11
0.1494301091678713
 21
0.01306301933211673
 31
0.0
210
0.0
220
0.0
230
0.9999999999999999
 40
0.0869150343313856
 41
2.32675929679618
 42
3.661392466682247
  0
ELLIPSE
  5
1CD4D
330
1F
100
AcDbEntity
  8
AM_0
370
    30
100
AcDbEllipse
 10
5.545927555057459
 20
-67.46470355487502
 30
0.0
 11
0.3486702547250854
 21
0.03048037844161347
 31
0.0
210
0.0
220
0.0
230
1.0
 40
0.0869150343313857
 41
5.468351950385888
 42
7.090420738961246
  0
ELLIPSE
  5
1CD4E
330
1F
100
AcDbEntity
  8
AM_0
370
    30
100
AcDbEllipse
 10
5.887629133350486
 20
-67.40331988118332
 30
0.0
 11
0.1494301091678713
 21
0.01306301933211673
 31
0.0
210
0.0
220
0.0
230
0.9999999999999999
 40
0.0869150343313856
 41
2.614194915485435
 42
3.94882808537172
  0
ELLIPSE
  5
1CD4F
330
1F
100
AcDbEntity
  8
AM_0
370
    30
100
AcDbEllipse
 10
5.887629133350486
 20
-67.40331988118332
 30
0.0
 11
0.1494301091678713
 21
0.01306301933211673
 31
0.0
210
0.0
220
0.0
230
0.9999999999999999
 40
0.0869150343313856
 41
1.279561745599889
 42
2.61419491548545
  0
ELLIPSE
  5
1CD50
330
1F
100
AcDbEntity
  8
AM_0
370
    30
100
AcDbEllipse
 10
6.027025991789855
 20
-67.34934767429057
 30
0.0
 11
0.3486702547250854
 21
0.03048037844161347
 31
0.0
210
0.0
220
0.0
230
1.0
 40
0.0869150343313857
 41
4.421154399189485
 42
6.043223187764576
  0
ELLIPSE
  5
1CD51
330
1F
100
AcDbEntity
  8
AM_0
370
    30
100
AcDbEllipse
 10
6.511753739612657
 20
-67.31734105310123
 30
0.0
 11
0.1494301091678713
 21
0.01306301933211673
 31
0.0
210
0.0
220
0.0
230
0.9999999999999999
 40
0.0869150343313856
 41
1.56699736428906
 42
2.901630534175103
  0
ELLIPSE
  5
1CD52
330
1F
100
AcDbEntity
  8
AM_0
370
    30
100
AcDbEllipse
 10
6.511753739612657
 20
-67.31734105310123
 30
0.0
 11
0.1494301091678713
 21
0.01306301933211673
 31
0.0
210
0.0
220
0.0
230
0.9999999999999999
 40
0.0869150343313856
 41
0.2323641944030209
 42
1.56699736428906
  0
ELLIPSE
  5
1CD53
330
1F
100
AcDbEntity
  8
AM_0
370
    30
100
AcDbEllipse
 10
6.995595994739232
 20
-67.26499857240707
 30
0.0
 11
0.3486702547250854
 21
0.03048037844161347
 31
0.0
210
0.0
220
0.0
230
1.0
 40
0.0869150343313857
 41
3.373956847992675
 42
4.996025636568137
  0
ELLIPSE
  5
1CD54
330
1F
100
AcDbEntity
  8
AM_0
370
    30
100
AcDbEllipse
 10
7.138622164269008
 20
-67.29437562490936
 30
0.0
 11
0.1494301091678713
 21
0.01306301933211673
 31
0.0
210
0.0
220
0.0
230
0.9999999999999999
 40
0.0869150343313856
 41
0.5197998130923611
 42
1.854432982978413
  0
ELLIPSE
  5
1CD55
330
1F
100
AcDbEntity
  8
AM_0
370
    30
100
AcDbEllipse
 10
7.138622164269008
 20
-67.29437562490936
 30
0.0
 11
0.1494301091678713
 21
0.01306301933211673
 31
0.0
210
0.0
220
0.0
230
0.9999999999999999
 40
0.0869150343313856
 41
5.468351950385989
 42
6.802985120271948
  0
LINE
  5
1CD56
330
1F
100
AcDbEntity
  8
AM_0
370
    30
100
AcDbLine
 10
5.180668677801832
 20
-67.62423412113712
 30
0.0
 11
5.189784739197164
 21
-67.72851430436661
 31
0.0
  0
LINE
  5
1CD57
330
1F
100
AcDbEntity
  8
AM_0
370
    30
100
AcDbLine
 10
5.688166185190936
 20
-67.4277346554242
 30
0.0
 11
5.250628399397271
 21
-67.57976783090133
 31
0.0
  0
LINE
  5
1CD58
330
1F
100
AcDbEntity
  8
AM_0
370
    30
100
AcDbLine
 10
7.134397306231079
 20
-67.3264857295495
 30
0.0
 11
7.13826611828756
 21
-67.37074173141637
 31
0.0
  0
LINE
  5
1CD59
330
1F
100
AcDbEntity
  8
AM_0
370
    30
100
AcDbLine
 10
5.894597809782538
 20
-67.43422317643341
 30
0.0
 11
5.898485643931593
 21
-67.47869677526613
 31
0.0
  0
ELLIPSE
  5
1CD5A
330
1F
100
AcDbEntity
  8
AM_0
370
    30
100
AcDbEllipse
 10
19.41831960190626
 20
-68.38438323800914
 30
0.0
 11
86.12214858872915
 21
7.471828791834295
 31
0.0
210
0.0
220
0.0
230
0.9999999999999999
 40
0.0075409368923474
 41
4.548132416300832
 42
4.573134824797148
  0
ELLIPSE
  5
1CD5B
330
1F
100
AcDbEntity
  8
AM_0
370
    30
100
AcDbEllipse
 10
16.72836179100392
 20
-68.38438323800914
 30
0.0
 11
-9.131943652553437
 21
-3.064667956392383
 31
0.0
210
0.0
220
0.0
230
1.0
 40
0.7495968828983668
 41
5.808482091375698
 42
5.955974544981029
  0
ELLIPSE
  5
1CD5C
330
1F
100
AcDbEntity
  8
AM_0
370
    30
100
AcDbEllipse
 10
16.880912635573
 20
-68.38438323800914
 30
0.0
 11
-9.560626677244587
 21
-0.3695550695196858
 31
0.0
210
0.0
220
0.0
230
1.0
 40
0.783514511108613
 41
0.0444394507086027
 42
0.1766609918218562
  0
LINE
  5
1CD5D
330
1F
100
AcDbEntity
  8
AM_0
370
    30
100
AcDbLine
 10
7.510780641097624
 20
-70.0300588336214
 30
0.0
 11
7.511711980954515
 21
-70.05230504806126
 31
0.0
  0
LINE
  5
1CD5E
330
1F
100
AcDbEntity
  8
AM_0
370
    30
100
AcDbLine
 10
7.413480496138418
 20
-67.7059234777032
 30
0.0
 11
7.444014205244314
 21
-68.43525921415163
 31
0.0
  0
LINE
  5
1CD5F
330
1F
100
AcDbEntity
  8
AM_0
370
    30
100
AcDbLine
 10
7.511711980954515
 20
-70.0523050480612
 30
0.0
 11
7.516468573718668
 21
-70.05156376971034
 31
0.0
  0
ARC
  5
1CD60
330
1F
100
AcDbEntity
  8
AM_0
370
    30
100
AcDbCircle
 10
13.69924718902905
 20
-57.73767423731219
 30
0.0
 40
9.664711281367408
100
AcDbArc
 50
274.9174634421595
 51
319.0606037652038
  0
ARC
  5
1CD61
330
1F
100
AcDbEntity
  8
AM_0
370
    30
100
AcDbCircle
 10
13.42112581829332
 20
-55.80450134456423
 30
0.0
 40
11.04251700235903
100
AcDbArc
 50
275.7513446342728
 51
319.6346846307921
  0
LINE
  5
1CD62
330
1F
100
AcDbEntity
  8
AM_0
370
    30
100
AcDbLine
 10
21.00000000000003
 20
-73.80345179995122
 30
0.0
 11
7.989983097934895
 21
-73.80345179995122
 31
0.0
  0
LINE
  5
1CD63
330
1F
100
AcDbEntity
  8
AM_0
370
    30
100
AcDbLine
 10
13.63154605358542
 20
-67.12126213607165
 30
0.0
 11
11.21519456323756
 21
-67.41114765889527
 31
0.0
  0
LINE
  5
1CD64
330
1F
100
AcDbEntity
  8
AM_0
370
    30
100
AcDbLine
 10
7.870410642823912
 20
-67.38909977315892
 30
0.0
 11
7.879526704219244
 21
-67.49337995638847
 31
0.0
  0
ELLIPSE
  5
1CD65
330
1F
100
AcDbEntity
  8
AM_0
370
    30
100
AcDbEllipse
 10
6.531849005092624
 20
-67.57884061965386
 30
0.0
 11
1.394681018900343
 21
0.1219215137664414
 31
0.0
210
0.0
220
0.0
230
1.0
 40
0.0869150343313857
 41
6.275587434619101
 42
6.551248430002081
  0
ELLIPSE
  5
1CD66
330
1F
100
AcDbEntity
  8
AM_0
370
    30
100
AcDbEllipse
 10
13.27825744126452
 20
-67.07033731427701
 30
0.0
 11
0.9962007277859595
 21
0.08708679554745918
 31
0.0
210
0.0
220
0.0
230
1.0
 40
0.0869150343313856
 41
5.067304864634874
 42
8.070604413054957
  0
ELLIPSE
  5
1CD67
330
1F
100
AcDbEntity
  8
AM_0
370
    30
100
AcDbEllipse
 10
1.579514491790518
 20
-68.38438323800914
 30
0.0
 11
63.15624229839997
 21
5.479341114011816
 31
0.0
210
0.0
220
0.0
230
1.0
 40
0.0075409368923475
 41
1.363659530941253
 42
1.387348871502373
  0
ELLIPSE
  5
1CD68
330
1F
100
AcDbEntity
  8
AM_0
370
    30
100
AcDbEllipse
 10
12.66520621712527
 20
-66.84303232803062
 30
0.0
 11
0.3984802911143839
 21
0.03483471821898328
 31
0.0
210
0.0
220
0.0
230
0.9999999999999999
 40
0.0869150343313857
 41
5.37273748373388
 42
7.903464899125663
  0
LINE
  5
1CD69
330
1F
100
AcDbEntity
  8
AM_0
370
    30
100
AcDbLine
 10
13.05013579307746
 20
-67.19101292274966
 30
0.0
 11
13.06369607723738
 21
-66.80857061979764
 31
0.0
  0
SPLINE
  5
1CD6A
330
1F
100
AcDbEntity
  8
AM_0
370
    30
100
AcDbSpline
210
0.0
220
0.0
230
1.0
 70
     8
 71
     3
 72
     8
 73
     4
 74
     0
 42
0.0000000001
 43
0.0000000001
 40
-1.674789034037981
 40
-1.674789034037981
 40
-1.674789034037981
 40
-1.674789034037981
 40
-0.0011662437865618
 40
-0.0011662437865618
 40
-0.0011662437865618
 40
-0.0011662437865618
 10
21.83475647918129
 20
-62.95628439842947
 30
0.0
 10
21.59881582397182
 20
-63.32253831859474
 30
0.0
 10
21.3222339830221
 20
-63.69806056111297
 30
0.0
 10
21.00000000000003
 20
-64.07057661657636
 30
0.0
  0
ARC
  5
1CD6B
330
1F
100
AcDbEntity
  8
AM_0
370
    30
100
AcDbCircle
 10
-44.09482089959795
 20
0.0000892985330552
 30
0.0
 40
5.500120338144806
100
AcDbArc
 50
180.0009302432431
 51
253.1549155649896
  0
ARC
  5
1CD6C
330
1F
100
AcDbEntity
  8
AM_0
370
    30
100
AcDbCircle
 10
-44.09494123701791
 20
0.0
 30
0.0
 40
5.999999999999998
100
AcDbArc
 50
203.5564643091014
 51
336.4435356908987
  0
ARC
  5
1CD6D
330
1F
100
AcDbEntity
  8
AM_0
370
    30
100
AcDbCircle
 10
-44.09544764706914
 20
6.126288578407355
 30
0.0
 40
7.501345378134745
100
AcDbArc
 50
277.8002194773012
 51
305.1093367053368
  0
ARC
  5
1CD6E
330
1F
100
AcDbEntity
  8
AM_0
370
    30
100
AcDbCircle
 10
-44.09539887496413
 20
0.0003395984167582
 30
0.0
 40
5.500457648429674
100
AcDbArc
 50
286.8476916386395
 51
359.9964625558263
  0
LINE
  5
1CD70
330
1F
100
AcDbEntity
  8
AM_0
370
    30
100
AcDbLine
 10
-49.59494123701791
 20
0.0
 30
0.0
 11
-49.59494123701791
 21
-2.39791576165635
 31
0.0
  0
ELLIPSE
  5
1CD71
330
1F
100
AcDbEntity
  8
AM_0
370
    30
100
AcDbEllipse
 10
-44.02520691028585
 20
-1.601513708781397
 30
0.0
 11
0.03489759572270819
 21
0.3984747894318718
 31
0.0
210
0.0
220
0.0
230
1.0
 40
0.0867572354295547
 41
0.6679463759096711
 42
3.198673791301451
  0
LINE
  5
1CD72
330
1F
100
AcDbEntity
  8
AM_0
370
    30
100
AcDbLine
 10
-46.39669387709472
 20
-1.50200287151938
 30
0.0
 11
-44.06047216597733
 21
-1.999933344082706
 31
0.0
  0
LINE
  5
1CD73
330
1F
100
AcDbEntity
  8
AM_0
370
    30
100
AcDbLine
 10
-43.41648147671197
 20
-1.653094395406811
 30
0.0
 11
-44.05807541268405
 21
-1.999512234063332
 31
0.0
  0
ARC
  5
1CD74
330
1F
100
AcDbEntity
  8
AM_0
370
    30
100
AcDbCircle
 10
-44.09494123701791
 20
0.0
 30
0.0
 40
5.49999999999997
100
AcDbArc
 50
253.1558458044671
 51
286.844154195533
  0
LINE
  5
1CD76
330
1F
100
AcDbEntity
  8
AM_0
370
    30
100
AcDbLine
 10
-45.53990495681899
 20
2.929766668195782
 30
0.0
 11
-46.38557953096233
 21
-1.309861433395213
 31
0.0
  0
ARC
  5
1CD77
330
1F
100
AcDbEntity
  8
AM_0
370
    30
100
AcDbCircle
 10
-44.09494123701791
 20
6.125
 30
0.0
 40
7.500000000000004
100
AcDbArc
 50
223.7352072014031
 51
252.4696185124051
  0
ARC
  5
1CD78
330
1F
100
AcDbEntity
  8
AM_0
370
    30
100
AcDbCircle
 10
-44.15068304354224
 20
0.0047989571440894
 30
0.0
 40
5.444260308546975
100
AcDbArc
 50
170.1082762736638
 51
180.0505045738356
  0
LINE
  5
1CD79
330
1F
100
AcDbEntity
  8
AM_0
370
    30
100
AcDbLine
 10
-49.59494123701791
 20
2.39791576165635
 30
0.0
 11
-49.59494123701791
 21
0.0
 31
0.0
  0
ELLIPSE
  5
1CD7A
330
1F
100
AcDbEntity
  8
AM_0
370
    30
100
AcDbEllipse
 10
-46.38719229356774
 20
-1.394655927072677
 30
0.0
 11
0.009402524216797381
 21
0.1073618047268169
 31
0.0
210
0.0
220
0.0
230
1.0
 40
0.0867572354295547
 41
0.6679463759096308
 42
3.130899683500944
  0
ELLIPSE
  5
1CD7B
330
1F
100
AcDbEntity
  8
AM_0
370
    30
100
AcDbEllipse
 10
-43.21722494615679
 20
0.6716988323937585
 30
0.0
 11
0.1177793855641401
 21
1.344852414332567
 31
0.0
210
0.0
220
0.0
230
1.0
 40
0.0867572354295547
 41
0.0037989100546479
 42
3.472612691090982
  0
ELLIPSE
  5
1CD7C
330
1F
100
AcDbEntity
  8
AM_0
370
    30
100
AcDbEllipse
 10
-43.21722494615679
 20
0.6716988323937585
 30
0.0
 11
0.1177793855641401
 21
1.344852414332567
 31
0.0
210
0.0
220
0.0
230
1.0
 40
0.0867572354295547
 41
5.952165269678395
 42
6.286984217234234
  0
ELLIPSE
  5
1CD7D
330
1F
100
AcDbEntity
  8
AM_0
370
    30
100
AcDbEllipse
 10
-43.09091245200025
 20
0.6606366460956679
 30
0.0
 11
0.07633849064342327
 21
0.8716636018822991
 31
0.0
210
0.0
220
0.0
230
1.0
 40
0.0867572354295546
 41
4.192589114840981
 42
5.239786666037486
  0
ELLIPSE
  5
1CD7E
330
1F
100
AcDbEntity
  8
AM_0
370
    30
100
AcDbEllipse
 10
-43.09091245200025
 20
0.6606366460956679
 30
0.0
 11
0.07633849064342327
 21
0.8716636018822991
 31
0.0
210
0.0
220
0.0
230
1.0
 40
0.0867572354295546
 41
5.239786666037486
 42
6.286984217234183
  0
ELLIPSE
  5
1CD7F
330
1F
100
AcDbEntity
  8
AM_0
370
    30
100
AcDbEllipse
 10
-43.09091245200025
 20
0.6606366460956679
 30
0.0
 11
0.07633849064342327
 21
0.8716636018822991
 31
0.0
210
0.0
220
0.0
230
1.0
 40
0.0867572354295546
 41
0.0037989100545968
 42
1.050996461250985
  0
ELLIPSE
  5
1CD80
330
1F
100
AcDbEntity
  8
AM_0
370
    30
100
AcDbEllipse
 10
-43.09091245200025
 20
0.6606366460956679
 30
0.0
 11
0.07633849064342327
 21
0.8716636018822991
 31
0.0
210
0.0
220
0.0
230
1.0
 40
0.0867572354295546
 41
1.050996461250986
 42
2.098194012447785
  0
ELLIPSE
  5
1CD81
330
1F
100
AcDbEntity
  8
AM_0
370
    30
100
AcDbEllipse
 10
-43.09091245200025
 20
0.6606366460956679
 30
0.0
 11
0.07633849064342327
 21
0.8716636018822991
 31
0.0
210
0.0
220
0.0
230
1.0
 40
0.0867572354295546
 41
2.098194012447785
 42
3.145391563644389
  0
ELLIPSE
  5
1CD82
330
1F
100
AcDbEntity
  8
AM_0
370
    30
100
AcDbEllipse
 10
-43.09091245200025
 20
0.6606366460956679
 30
0.0
 11
0.07633849064342327
 21
0.8716636018822991
 31
0.0
210
0.0
220
0.0
230
1.0
 40
0.0867572354295546
 41
3.145391563644392
 42
4.192589114840981
  0
ELLIPSE
  5
1CD83
330
1F
100
AcDbEntity
  8
AM_0
370
    30
100
AcDbEllipse
 10
-43.00656335011669
 20
0.6569571180721141
 30
0.0
 11
0.03053539625736653
 21
0.348665440752888
 31
0.0
210
0.0
220
0.0
230
1.0
 40
0.0867572354295547
 41
0.7635608425618172
 42
2.385629631137236
  0
ELLIPSE
  5
1CD84
330
1F
100
AcDbEntity
  8
AM_0
370
    30
100
AcDbEllipse
 10
-43.06794702380842
 20
0.2971348341649218
 30
0.0
 11
0.01308659839601358
 21
0.1494280460369292
 31
0.0
210
0.0
220
0.0
230
0.9999999999999999
 40
0.0867572354295547
 41
4.192589114841031
 42
5.527222284727099
  0
ELLIPSE
  5
1CD85
330
1F
100
AcDbEntity
  8
AM_0
370
    30
100
AcDbEllipse
 10
-43.06794702380842
 20
0.2971348341649218
 30
0.0
 11
0.01308659839601358
 21
0.1494280460369292
 31
0.0
210
0.0
220
0.0
230
0.9999999999999999
 40
0.0867572354295547
 41
2.85795594495485
 42
4.19258911484103
  0
ELLIPSE
  5
1CD86
330
1F
100
AcDbEntity
  8
AM_0
370
    30
100
AcDbEllipse
 10
-43.12191923070114
 20
-0.1799977645330273
 30
0.0
 11
0.03053539625736653
 21
0.348665440752888
 31
0.0
210
0.0
220
0.0
230
1.0
 40
0.0867572354295547
 41
5.9995485985446
 42
7.621617387120184
  0
ELLIPSE
  5
1CD87
330
1F
100
AcDbEntity
  8
AM_0
370
    30
100
AcDbEllipse
 10
-43.15392585189051
 20
-0.0616145449002943
 30
0.0
 11
0.01308659839601358
 21
0.1494280460369292
 31
0.0
210
0.0
220
0.0
230
0.9999999999999999
 40
0.0867572354295547
 41
3.145391563644438
 42
4.480024733530296
  0
ELLIPSE
  5
1CD88
330
1F
100
AcDbEntity
  8
AM_0
370
    30
100
AcDbEllipse
 10
-43.15392585189051
 20
-0.0616145449002943
 30
0.0
 11
0.01308659839601358
 21
0.1494280460369292
 31
0.0
210
0.0
220
0.0
230
0.9999999999999999
 40
0.0867572354295547
 41
1.810758393758399
 42
3.145391563644436
  0
ELLIPSE
  5
1CD89
330
1F
100
AcDbEntity
  8
AM_0
370
    30
100
AcDbEllipse
 10
-43.2062683325847
 20
-0.1763182365094735
 30
0.0
 11
0.03053539625736653
 21
0.348665440752888
 31
0.0
210
0.0
220
0.0
230
1.0
 40
0.0867572354295547
 41
4.952351047348046
 42
6.574419835923353
  0
ELLIPSE
  5
1CD8A
330
1F
100
AcDbEntity
  8
AM_0
370
    30
100
AcDbEllipse
 10
-43.17689128008234
 20
0.3018872670304518
 30
0.0
 11
0.01308659839601358
 21
0.1494280460369292
 31
0.0
210
0.0
220
0.0
230
0.9999999999999999
 40
0.0867572354295547
 41
2.098194012447835
 42
3.432827182333608
  0
ELLIPSE
  5
1CD8B
330
1F
100
AcDbEntity
  8
AM_0
370
    30
100
AcDbEllipse
 10
-43.17689128008234
 20
0.3018872670304518
 30
0.0
 11
0.01308659839601358
 21
0.1494280460369292
 31
0.0
210
0.0
220
0.0
230
0.9999999999999999
 40
0.0867572354295547
 41
0.7635608425617652
 42
2.098194012447835
  0
ELLIPSE
  5
1CD8C
330
1F
100
AcDbEntity
  8
AM_0
370
    30
100
AcDbEllipse
 10
-43.17526155388379
 20
0.6643161741192216
 30
0.0
 11
0.03053539625736653
 21
0.348665440752888
 31
0.0
210
0.0
220
0.0
230
1.0
 40
0.0867572354295547
 41
3.905153496151467
 42
5.527222284726825
  0
ELLIPSE
  5
1CD8D
330
1F
100
AcDbEntity
  8
AM_0
370
    30
100
AcDbEllipse
 10
-43.11387788019209
 20
1.024138458026357
 30
0.0
 11
0.01308659839601358
 21
0.1494280460369292
 31
0.0
210
0.0
220
0.0
230
0.9999999999999999
 40
0.0867572354295547
 41
1.050996461251021
 42
2.385629631137304
  0
ELLIPSE
  5
1CD8E
330
1F
100
AcDbEntity
  8
AM_0
370
    30
100
AcDbEllipse
 10
-43.11387788019209
 20
1.024138458026357
 30
0.0
 11
0.01308659839601358
 21
0.1494280460369292
 31
0.0
210
0.0
220
0.0
230
0.9999999999999999
 40
0.0867572354295547
 41
5.999548598545061
 42
7.334181768430621
  0
ELLIPSE
  5
1CD8F
330
1F
100
AcDbEntity
  8
AM_0
370
    30
100
AcDbEllipse
 10
-43.05990567329934
 20
1.501271056724363
 30
0.0
 11
0.03053539625736653
 21
0.348665440752888
 31
0.0
210
0.0
220
0.0
230
1.0
 40
0.0867572354295547
 41
2.857955944955062
 42
4.480024733530154
  0
ELLIPSE
  5
1CD90
330
1F
100
AcDbEntity
  8
AM_0
370
    30
100
AcDbEllipse
 10
-43.02789905211
 20
1.382887837091516
 30
0.0
 11
0.01308659839601358
 21
0.1494280460369292
 31
0.0
210
0.0
220
0.0
230
0.9999999999999999
 40
0.0867572354295547
 41
0.0037989100546441
 42
1.338432079940686
  0
ELLIPSE
  5
1CD91
330
1F
100
AcDbEntity
  8
AM_0
370
    30
100
AcDbEllipse
 10
-43.02789905211
 20
1.382887837091516
 30
0.0
 11
0.01308659839601358
 21
0.1494280460369292
 31
0.0
210
0.0
220
0.0
230
0.9999999999999999
 40
0.0867572354295547
 41
4.952351047348191
 42
6.28698421723423
  0
ELLIPSE
  5
1CD92
330
1F
100
AcDbEntity
  8
AM_0
370
    30
100
AcDbEllipse
 10
-42.97555657141578
 20
1.497591528700809
 30
0.0
 11
0.03053539625736653
 21
0.348665440752888
 31
0.0
210
0.0
220
0.0
230
1.0
 40
0.0867572354295547
 41
1.810758393758251
 42
3.432827182333716
  0
ELLIPSE
  5
1CD93
330
1F
100
AcDbEntity
  8
AM_0
370
    30
100
AcDbEllipse
 10
-43.00493362391813
 20
1.019386025160827
 30
0.0
 11
0.01308659839601358
 21
0.1494280460369292
 31
0.0
210
0.0
220
0.0
230
0.9999999999999999
 40
0.0867572354295547
 41
5.239786666037532
 42
6.574419835923585
  0
ELLIPSE
  5
1CD94
330
1F
100
AcDbEntity
  8
AM_0
370
    30
100
AcDbEllipse
 10
-43.00493362391813
 20
1.019386025160827
 30
0.0
 11
0.01308659839601358
 21
0.1494280460369292
 31
0.0
210
0.0
220
0.0
230
0.9999999999999999
 40
0.0867572354295547
 41
3.905153496151574
 42
5.239786666037532
  0
LINE
  5
1CD95
330
1F
100
AcDbEntity
  8
AM_0
370
    30
100
AcDbLine
 10
-43.09944556059264
 20
2.016551246726294
 30
0.0
 11
-43.20366701025273
 21
2.025678745158643
 31
0.0
  0
LINE
  5
1CD96
330
1F
100
AcDbEntity
  8
AM_0
370
    30
100
AcDbLine
 10
-43.33500433172094
 20
-0.6731535819387773
 30
0.0
 11
-43.43922578138103
 21
-0.6640260835064282
 31
0.0
  0
LINE
  5
1CD97
330
1F
100
AcDbEntity
  8
AM_0
370
    30
100
AcDbLine
 10
-42.99414016792423
 20
1.482826277721699
 30
0.0
 11
-43.06791913643957
 21
1.940219978331015
 31
0.0
  0
LINE
  5
1CD98
330
1F
100
AcDbEntity
  8
AM_0
370
    30
100
AcDbLine
 10
-43.13852851672493
 20
-0.165857985283651
 30
0.0
 11
-43.29068973173196
 21
-0.6034643131628172
 31
0.0
  0
LINE
  5
1CD99
330
1F
100
AcDbEntity
  8
AM_0
370
    30
100
AcDbLine
 10
-43.09138383444378
 20
0.1686676762197976
 30
0.0
 11
-43.19495193958176
 21
0.1777379560937789
 31
0.0
  0
LINE
  5
1CD9A
330
1F
100
AcDbEntity
  8
AM_0
370
    30
100
AcDbLine
 10
-43.17573293632734
 20
0.1723472042433514
 30
0.0
 11
-43.19476439054392
 21
0.1740139395372466
 31
0.0
  0
LINE
  5
1CD9B
330
1F
100
AcDbEntity
  8
AM_0
370
    30
100
AcDbLine
 10
-43.09044106955673
 20
1.152605615971481
 30
0.0
 11
-43.10899849249802
 21
1.15423083658925
 31
0.0
  0
LINE
  5
1CD9C
330
1F
100
AcDbEntity
  8
AM_0
370
    30
100
AcDbLine
 10
-43.00609196767317
 20
1.148926087947871
 30
0.0
 11
-43.08573592170239
 21
1.155901140280378
 31
0.0
  0
LINE
  5
1CD9D
330
1F
100
AcDbEntity
  8
AM_0
370
    30
100
AcDbLine
 10
-44.5088565341058
 20
2.980425172770424
 30
0.0
 11
-43.42995047792329
 21
3.016440466264839
 31
0.0
  0
LINE
  5
1CD9E
330
1F
100
AcDbEntity
  8
AM_0
370
    30
100
AcDbLine
 10
-43.42995047792329
 20
3.016440466264839
 30
0.0
 11
-43.01985601431477
 21
3.23786406421857
 31
0.0
  0
LINE
  5
1CD9F
330
1F
100
AcDbEntity
  8
AM_0
370
    30
100
AcDbLine
 10
-45.50784355696021
 20
2.947077681004089
 30
0.0
 11
-45.48175082519333
 21
3.077888612571314
 31
0.0
  0
ARC
  5
1CDA0
330
1F
100
AcDbEntity
  8
AM_0
370
    30
100
AcDbCircle
 10
-44.09494123701791
 20
6.125
 30
0.0
 40
7.500000000000004
100
AcDbArc
 50
275.6720355617363
 51
277.7977226085527
  0
LINE
  5
1CDA1
330
1F
100
AcDbEntity
  8
AM_0
370
    30
100
AcDbLine
 10
-45.48175082519333
 20
3.077888612571314
 30
0.0
 11
-44.5088565341058
 21
2.980425172770424
 31
0.0
  0
ELLIPSE
  5
1CDA2
330
1F
100
AcDbEntity
  8
AM_0
370
    30
100
AcDbEllipse
 10
-42.55359032703936
 20
2.957553014705184
 30
0.0
 11
0.03489759572270819
 21
0.3984747894318718
 31
0.0
210
0.0
220
0.0
230
1.0
 40
0.0867572354295547
 41
3.809539029499463
 42
6.340266444891245
  0
ELLIPSE
  5
1CDA3
330
1F
100
AcDbEntity
  8
AM_0
370
    30
100
AcDbEllipse
 10
-43.2893986186626
 20
0.6780196529618934
 30
0.0
 11
0.1221415850294787
 21
1.394661763011551
 31
0.0
210
0.0
220
0.0
230
1.0
 40
0.0867572354295547
 41
6.015122184357138
 42
9.692841083591802
  0
LINE
  5
1CDA4
330
1F
100
AcDbEntity
  8
AM_0
370
    30
100
AcDbLine
 10
-42.98704292496655
 20
3.339518982656955
 30
0.0
 11
-42.51906438142487
 21
3.356037397249963
 31
0.0
  0
LINE
  5
1CDA5
330
1F
100
AcDbEntity
  8
AM_0
370
    30
100
AcDbLine
 10
-44.01922112007657
 20
-1.286797799347198
 30
0.0
 11
-43.16231576061324
 21
3.009133701330597
 31
0.0
  0
LINE
  5
1CDA6
330
1F
100
AcDbEntity
  8
AM_0
370
    30
100
AcDbLine
 10
-43.16231576061324
 20
3.009133701330597
 30
0.0
 11
-42.5207218246411
 21
3.355551539987118
 31
0.0
  0
LINE
  5
1CDA7
330
1F
100
AcDbEntity
  8
AM_0
370
    30
100
AcDbLine
 10
-43.16231576061324
 20
3.009133701330597
 30
0.0
 11
-45.53990495681899
 21
2.929766668195782
 31
0.0
  0
LINE
  5
1CDA8
330
1F
100
AcDbEntity
  8
AM_0
370
    30
100
AcDbLine
 10
-45.29940367675687
 20
3.059621283338004
 30
0.0
 11
-45.53990495681899
 21
2.929766668195782
 31
0.0
  0
LINE
  5
1CDA9
330
1F
100
AcDbEntity
  8
AM_0
370
    30
100
AcDbLine
 10
-42.55957611724864
 20
2.642837105271042
 30
0.0
 11
-43.41648147671197
 21
-1.653094395406811
 31
0.0
  0
LINE
  5
1CDAA
330
1F
100
AcDbEntity
  8
AM_0
370
    30
100
AcDbLine
 10
-38.59494123701791
 20
0.0
 30
0.0
 11
-38.59494123701791
 21
-2.39791576165635
 31
0.0
  0
SPLINE
  5
1CDAB
330
1F
100
AcDbEntity
  8
AM_0
370
    30
100
AcDbSpline
210
0.0
220
0.0
230
1.0
 70
     8
 71
     3
 72
     8
 73
     4
 74
     0
 42
0.0000000001
 43
0.0000000001
 40
-1.674789034037981
 40
-1.674789034037981
 40
-1.674789034037981
 40
-1.674789034037981
 40
-0.0011662437865618
 40
-0.0011662437865618
 40
-0.0011662437865618
 40
-0.0011662437865618
 10
-38.66684239743822
 20
0.8864214502327741
 30
0.0
 10
-39.03309631760351
 20
0.5425639430794718
 30
0.0
 10
-39.40861856012174
 20
0.2516915656194669
 30
0.0
 10
-39.78113461558513
 20
-0.0102320602306918
 30
0.0
  0
ARC
  5
1CDAC
330
1F
100
AcDbEntity
  8
AM_0
370
    30
100
AcDbCircle
 10
-44.08448354544282
 20
0.0008482646698553
 30
0.0
 40
5.489542373963521
100
AcDbArc
 50
359.9911464402368
 51
9.283524259107443
  0
LINE
  5
1CDAD
330
1F
100
AcDbEntity
  8
AM_0
370
    30
100
AcDbLine
 10
-38.59494123701791
 20
2.39791576165635
 30
0.0
 11
-38.59494123701791
 21
0.0
 31
0.0
  0
ELLIPSE
  5
1CDAE
330
1F
100
AcDbEntity
  8
AM_0
100
AcDbEllipse
 10
6.531849005092624
 20
0.6775318870252249
 30
0.0
 11
-0.9908485543522062
 21
0.9890496157110336
 31
0.0
210
0.0
220
0.0
230
1.0
 40
0.99243083331172
 41
0.0000000000000002
 42
6.283185307179586
  0
LINE
  5
1CDAF
330
1F
100
AcDbEntity
  8
AM_0
100
AcDbLine
 10
5.6502175140468
 20
3.008645935393929
 30
0.0
 11
12.6424722024442
 21
3.35506377405045
 31
0.0
  0
LINE
  5
1CDB0
330
1F
100
AcDbEntity
  8
AM_0
100
AcDbLine
 10
12.91202207290564
 20
2.642349339334373
 30
0.0
 11
7.413480496138418
 21
-1.653582161343479
 31
0.0
  0
ELLIPSE
  5
1CDB1
330
1F
100
AcDbEntity
  8
AM_0
100
AcDbEllipse
 10
6.525539660312886
 20
0.6712110664570901
 30
0.0
 11
-0.9554611059824848
 21
0.9537264151499253
 31
0.0
210
0.0
220
0.0
230
1.0
 40
0.99243083331172
 41
0.0000000000000002
 42
6.283185307179586
  0
LINE
  5
1CDB2
330
1F
100
AcDbEntity
  8
AM_5
100
AcDbLine
 10
-0.0000000000000007
 20
-1.875
 30
0.0
 11
-0.0000000000000007
 21
-0.7572511197138283
 31
0.0
  0
ELLIPSE
  5
1CDB3
330
1F
100
AcDbEntity
  8
AM_0
100
AcDbEllipse
 10
0.3984917930599458
 20
-1.602001474718065
 30
0.0
 11
-0.2830995869577733
 21
0.2825856044888668
 31
0.0
210
0.0
220
0.0
230
1.0
 40
0.9924308333117201
 41
6.161026008289214
 42
8.691753423680995
  0
LINE
  5
1CDB4
330
1F
100
AcDbEntity
  8
AM_0
100
AcDbLine
 10
7.413480496138418
 20
-1.653582161343479
 30
0.0
 11
0.4212258077410517
 21
-2.0
 31
0.0
  0
LINE
  5
1CDB6
330
1F
100
AcDbEntity
  8
AM_0
100
AcDbLine
 10
0.1516759372796052
 20
-1.287285565283867
 30
0.0
 11
5.650217514046829
 21
3.008645935393929
 31
0.0
  0
ELLIPSE
  5
1CDB7
330
1F
100
AcDbEntity
  8
AM_0
100
AcDbEllipse
 10
6.540524728635574
 20
0.6862233904583945
 30
0.0
 11
0.9908485543522062
 21
-0.9890496157110337
 31
0.0
210
0.0
220
0.0
230
1.0
 40
0.9924308333117199
 41
3.146012007634642
 42
6.278765953134724
  0
ELLIPSE
  5
1CDB8
330
1F
100
AcDbEntity
  8
AM_0
100
AcDbEllipse
 10
6.514497558006723
 20
0.6601488801589994
 30
0.0
 11
0.6192803464701853
 21
-0.6181560098194522
 31
0.0
210
0.0
220
0.0
230
1.0
 40
0.99243083331172
 41
0.2608907864511906
 42
1.308088337647695
  0
ELLIPSE
  5
1CDB9
330
1F
100
AcDbEntity
  8
AM_0
100
AcDbEllipse
 10
6.514497558006723
 20
0.6601488801589994
 30
0.0
 11
0.6192803464701853
 21
-0.6181560098194522
 31
0.0
210
0.0
220
0.0
230
1.0
 40
0.99243083331172
 41
1.308088337647695
 42
2.355285888844392
  0
ELLIPSE
  5
1CDBA
330
1F
100
AcDbEntity
  8
AM_0
100
AcDbEllipse
 10
6.514497558006723
 20
0.6601488801589994
 30
0.0
 11
0.6192803464701853
 21
-0.6181560098194522
 31
0.0
210
0.0
220
0.0
230
1.0
 40
0.99243083331172
 41
2.355285888844392
 42
3.40248344004078
  0
ELLIPSE
  5
1CDBB
330
1F
100
AcDbEntity
  8
AM_0
100
AcDbEllipse
 10
6.514497558006723
 20
0.6601488801589994
 30
0.0
 11
0.6192803464701853
 21
-0.6181560098194522
 31
0.0
210
0.0
220
0.0
230
1.0
 40
0.99243083331172
 41
3.402483440040781
 42
4.449680991237581
  0
ELLIPSE
  5
1CDBC
330
1F
100
AcDbEntity
  8
AM_0
100
AcDbEllipse
 10
6.514497558006723
 20
0.6601488801589994
 30
0.0
 11
0.6192803464701853
 21
-0.6181560098194522
 31
0.0
210
0.0
220
0.0
230
1.0
 40
0.99243083331172
 41
4.449680991237581
 42
5.496878542434185
  0
ELLIPSE
  5
1CDBD
330
1F
100
AcDbEntity
  8
AM_0
100
AcDbEllipse
 10
6.514497558006723
 20
0.6601488801589994
 30
0.0
 11
0.6192803464701853
 21
-0.6181560098194522
 31
0.0
210
0.0
220
0.0
230
1.0
 40
0.99243083331172
 41
5.496878542434185
 42
6.544076093630777
  0
ELLIPSE
  5
1CDBE
330
1F
100
AcDbEntity
  8
AM_0
100
AcDbEllipse
 10
7.483067560956157
 20
0.6564693521354457
 30
0.0
 11
0.2477121385880516
 21
-0.2472624039277584
 31
0.0
210
0.0
220
0.0
230
1.0
 40
0.9924308333117199
 41
3.115047821351611
 42
4.737116609927028
  0
ELLIPSE
  5
1CDBF
330
1F
100
AcDbEntity
  8
AM_0
100
AcDbEllipse
 10
7.141365982663188
 20
0.2966470682282534
 30
0.0
 11
-0.1061623451091489
 21
0.105969601683309
 31
0.0
210
0.0
220
0.0
230
1.0
 40
0.9924308333117201
 41
3.402483440040984
 42
4.737116609927051
  0
ELLIPSE
  5
1CDC0
330
1F
100
AcDbEntity
  8
AM_0
100
AcDbEllipse
 10
7.141365982663188
 20
0.2966470682282534
 30
0.0
 11
-0.1061623451091489
 21
0.105969601683309
 31
0.0
210
0.0
220
0.0
230
1.0
 40
0.9924308333117201
 41
2.067850270154804
 42
3.402483440040983
  0
ELLIPSE
  5
1CDC1
330
1F
100
AcDbEntity
  8
AM_0
100
AcDbEllipse
 10
7.210771771006818
 20
0.3661790956933828
 30
0.0
 11
0.1061623451091489
 21
-0.105969601683309
 31
0.0
210
0.0
220
0.0
230
1.0
 40
0.9924308333117201
 41
5.209442923744597
 42
5.946905714154786
  0
ELLIPSE
  5
1CDC2
330
1F
100
AcDbEntity
  8
AM_0
100
AcDbEllipse
 10
7.001969124223677
 20
-0.1804855304696957
 30
0.0
 11
0.2477121385880516
 21
-0.2472624039277584
 31
0.0
210
0.0
220
0.0
230
1.0
 40
0.9924308333117199
 41
2.067850270154808
 42
3.689919058730392
  0
ELLIPSE
  5
1CDC3
330
1F
100
AcDbEntity
  8
AM_0
100
AcDbEllipse
 10
7.071374912567307
 20
-0.1109535030046231
 30
0.0
 11
-0.2477121385880516
 21
0.2472624039277584
 31
0.0
210
0.0
220
0.0
230
1.0
 40
0.9924308333117199
 41
5.2094429237446
 42
6.283185307179585
  0
ELLIPSE
  5
1CDC4
330
1F
100
AcDbEntity
  8
AM_0
100
AcDbEllipse
 10
6.517241376400846
 20
-0.0621023108369627
 30
0.0
 11
-0.1061623451091489
 21
0.105969601683309
 31
0.0
210
0.0
220
0.0
230
1.0
 40
0.9924308333117201
 41
2.355285888844391
 42
3.689919058730249
  0
ELLIPSE
  5
1CDC5
330
1F
100
AcDbEntity
  8
AM_0
100
AcDbEllipse
 10
6.517241376400846
 20
-0.0621023108369627
 30
0.0
 11
-0.1061623451091489
 21
0.105969601683309
 31
0.0
210
0.0
220
0.0
230
1.0
 40
0.9924308333117201
 41
1.020652718958352
 42
2.355285888844391
  0
ELLIPSE
  5
1CDC6
330
1F
100
AcDbEntity
  8
AM_0
100
AcDbEllipse
 10
6.586647164744504
 20
0.0074297166281667
 30
0.0
 11
0.1061623451091489
 21
-0.105969601683309
 31
0.0
210
0.0
220
0.0
230
1.0
 40
0.9924308333117201
 41
4.162245372548145
 42
5.946905714154786
  0
ELLIPSE
  5
1CDC7
330
1F
100
AcDbEntity
  8
AM_0
100
AcDbEllipse
 10
6.033399121274271
 20
-0.176806002446142
 30
0.0
 11
0.2477121385880516
 21
-0.2472624039277584
 31
0.0
210
0.0
220
0.0
230
1.0
 40
0.9924308333117199
 41
1.020652718958254
 42
2.642721507533561
  0
ELLIPSE
  5
1CDC8
330
1F
100
AcDbEntity
  8
AM_0
100
AcDbEllipse
 10
6.102804909617929
 20
-0.1072739749810125
 30
0.0
 11
-0.2477121385880516
 21
0.2472624039277584
 31
0.0
210
0.0
220
0.0
230
1.0
 40
0.9924308333117199
 41
4.162245372548046
 42
5.784314161123354
  0
ELLIPSE
  5
1CDC9
330
1F
100
AcDbEntity
  8
AM_0
100
AcDbEllipse
 10
5.890372951744552
 20
0.3013995010937833
 30
0.0
 11
-0.1061623451091489
 21
0.105969601683309
 31
0.0
210
0.0
220
0.0
230
1.0
 40
0.9924308333117201
 41
1.308088337647788
 42
2.642721507533564
  0
ELLIPSE
  5
1CDCA
330
1F
100
AcDbEntity
  8
AM_0
100
AcDbEllipse
 10
5.890372951744552
 20
0.3013995010937833
 30
0.0
 11
-0.1061623451091489
 21
0.105969601683309
 31
0.0
210
0.0
220
0.0
230
1.0
 40
0.9924308333117201
 41
6.256640474941304
 42
7.591273644827375
  0
ELLIPSE
  5
1CDCB
330
1F
100
AcDbEntity
  8
AM_0
100
AcDbEllipse
 10
5.95977874008821
 20
0.3709315285589128
 30
0.0
 11
0.1061623451091489
 21
-0.105969601683309
 31
0.0
210
0.0
220
0.0
230
1.0
 40
0.9924308333117201
 41
3.19005998582876
 42
5.78431416112335
  0
ELLIPSE
  5
1CDCC
330
1F
100
AcDbEntity
  8
AM_0
100
AcDbEllipse
 10
5.545927555057459
 20
0.6638284081825532
 30
0.0
 11
0.2477121385880516
 21
-0.2472624039277584
 31
0.0
210
0.0
220
0.0
230
1.0
 40
0.9924308333117199
 41
6.256640474941261
 42
7.878709263516619
  0
ELLIPSE
  5
1CDCD
330
1F
100
AcDbEntity
  8
AM_0
100
AcDbEllipse
 10
5.61533334340109
 20
0.7333604356476826
 30
0.0
 11
-0.2477121385880516
 21
0.2472624039277584
 31
0.0
210
0.0
220
0.0
230
1.0
 40
0.9924308333117199
 41
3.141592653589791
 42
4.737116609926829
  0
ELLIPSE
  5
1CDCE
330
1F
100
AcDbEntity
  8
AM_0
100
AcDbEllipse
 10
5.887629133350486
 20
1.023650692089689
 30
0.0
 11
-0.1061623451091489
 21
0.105969601683309
 31
0.0
210
0.0
220
0.0
230
1.0
 40
0.9924308333117201
 41
0.2608907864509739
 42
1.595523956337259
  0
ELLIPSE
  5
1CDCF
330
1F
100
AcDbEntity
  8
AM_0
100
AcDbEllipse
 10
5.887629133350486
 20
1.023650692089689
 30
0.0
 11
-0.1061623451091489
 21
0.105969601683309
 31
0.0
210
0.0
220
0.0
230
1.0
 40
0.9924308333117201
 41
5.209442923745013
 42
6.544076093630573
  0
ELLIPSE
  5
1CDD0
330
1F
100
AcDbEntity
  8
AM_0
100
AcDbEllipse
 10
5.957034921694116
 20
1.093182719554761
 30
0.0
 11
0.1061623451091489
 21
-0.105969601683309
 31
0.0
210
0.0
220
0.0
230
1.0
 40
0.9924308333117201
 41
3.477872246614589
 42
4.737116609927043
  0
ELLIPSE
  5
1CDD1
330
1F
100
AcDbEntity
  8
AM_0
100
AcDbEllipse
 10
6.027025991789855
 20
1.500783290787695
 30
0.0
 11
0.2477121385880516
 21
-0.2472624039277584
 31
0.0
210
0.0
220
0.0
230
1.0
 40
0.9924308333117199
 41
5.209442923744858
 42
6.831511712319949
  0
ELLIPSE
  5
1CDD2
330
1F
100
AcDbEntity
  8
AM_0
100
AcDbEllipse
 10
6.096431780133485
 20
1.570315318252824
 30
0.0
 11
-0.2477121385880516
 21
0.2472624039277584
 31
0.0
210
0.0
220
0.0
230
1.0
 40
0.9924308333117199
 41
3.14159265358979
 42
3.689919058730153
  0
ELLIPSE
  5
1CDD3
330
1F
100
AcDbEntity
  8
AM_0
100
AcDbEllipse
 10
6.511753739612657
 20
1.382400071154848
 30
0.0
 11
-0.1061623451091489
 21
0.105969601683309
 31
0.0
210
0.0
220
0.0
230
1.0
 40
0.9924308333117201
 41
5.496878542434182
 42
6.831511712320223
  0
ELLIPSE
  5
1CDD4
330
1F
100
AcDbEntity
  8
AM_0
100
AcDbEllipse
 10
6.511753739612657
 20
1.382400071154848
 30
0.0
 11
-0.1061623451091489
 21
0.105969601683309
 31
0.0
210
0.0
220
0.0
230
1.0
 40
0.9924308333117201
 41
4.162245372548143
 42
5.496878542434182
  0
ELLIPSE
  5
1CDD5
330
1F
100
AcDbEntity
  8
AM_0
100
AcDbEllipse
 10
6.581159527956287
 20
1.451932098619977
 30
0.0
 11
0.1061623451091489
 21
-0.105969601683309
 31
0.0
210
0.0
220
0.0
230
1.0
 40
0.9924308333117201
 41
3.477872246614587
 42
3.689919058730437
  0
ELLIPSE
  5
1CDD6
330
1F
100
AcDbEntity
  8
AM_0
100
AcDbEllipse
 10
6.995595994739232
 20
1.497103762764141
 30
0.0
 11
0.2477121385880516
 21
-0.2472624039277584
 31
0.0
210
0.0
220
0.0
230
1.0
 40
0.9924308333117199
 41
4.162245372548045
 42
5.78431416112351
  0
ELLIPSE
  5
1CDD7
330
1F
100
AcDbEntity
  8
AM_0
100
AcDbEllipse
 10
7.138622164269008
 20
1.018898259224159
 30
0.0
 11
-0.1061623451091489
 21
0.105969601683309
 31
0.0
210
0.0
220
0.0
230
1.0
 40
0.9924308333117201
 41
4.449680991237486
 42
5.784314161123538
  0
ELLIPSE
  5
1CDD8
330
1F
100
AcDbEntity
  8
AM_0
100
AcDbEllipse
 10
7.138622164269008
 20
1.018898259224159
 30
0.0
 11
-0.1061623451091489
 21
0.105969601683309
 31
0.0
210
0.0
220
0.0
230
1.0
 40
0.9924308333117201
 41
3.115047821351527
 42
4.449680991237485
  0
LINE
  5
1CDD9
330
1F
100
AcDbEntity
  8
AM_0
100
AcDbLine
 10
7.48100076629538
 20
-0.2825153486928684
 30
0.0
 11
7.495985834618067
 21
-0.267503024691564
 31
0.0
  0
LINE
  5
1CDDA
330
1F
100
AcDbEntity
  8
AM_0
100
AcDbLine
 10
5.570078554330393
 20
1.624937481607049
 30
0.0
 11
5.58506362265308
 21
1.639949805608296
 31
0.0
  0
LINE
  5
1CDDB
330
1F
100
AcDbEntity
  8
AM_0
100
AcDbLine
 10
7.235355422368115
 20
0.9037317560631664
 30
0.0
 11
7.249755034526685
 21
0.9181575590400257
 31
0.0
  0
LINE
  5
1CDDC
330
1F
100
AcDbEntity
  8
AM_0
100
AcDbLine
 10
6.754256985635634
 20
0.066776873458025
 30
0.0
 11
6.823662773979264
 21
0.1363089009231544
 31
0.0
  0
LINE
  5
1CDDD
330
1F
100
AcDbEntity
  8
AM_0
100
AcDbLine
 10
5.793639693645502
 20
0.4165660042548325
 30
0.0
 11
5.86304548198916
 21
0.4860980317199051
 31
0.0
  0
LINE
  5
1CDDE
330
1F
100
AcDbEntity
  8
AM_0
100
AcDbLine
 10
6.274738130377897
 20
1.253520886859974
 30
0.0
 11
6.344143918721527
 21
1.323052914325047
 31
0.0
  0
LINE
  5
1CDDF
330
1F
100
AcDbEntity
  8
AM_0
100
AcDbLine
 10
21.00000000000003
 20
-1.375
 30
0.0
 11
7.77004940242827
 21
-1.374999999999972
 31
0.0
  0
ARC
  5
1CDE0
330
1F
100
AcDbEntity
  8
AM_0
100
AcDbCircle
 10
15.68528369653674
 20
9.727222257401877
 30
0.0
 40
11.09343165906203
100
AcDbArc
 50
264.0104264849227
 51
298.6257742723828
  0
LINE
  5
1CDE1
330
1F
100
AcDbEntity
  8
AM_0
100
AcDbLine
 10
13.63154605358542
 20
2.267186755313901
 30
0.0
 11
11.34331033011503
 21
1.416737402559761
 31
0.0
  0
LINE
  5
1CDE2
330
1F
100
AcDbEntity
  8
AM_0
100
AcDbLine
 10
13.8120011032789
 20
2.447970026723226
 30
0.0
 11
11.62091870185031
 21
1.63362883319445
 31
0.0
  0
ELLIPSE
  5
1CDE3
330
1F
100
AcDbEntity
  8
AM_0
100
AcDbEllipse
 10
-4.556626000053371
 20
6.125
 30
0.0
 11
86.12214802979283
 21
-0.6592914299917575
 31
0.0
210
0.0
220
0.0
230
1.0
 40
0.0867484879774527
 41
4.856855822947024
 42
4.936504046807427
  0
ELLIPSE
  5
1CDE4
330
1F
100
AcDbEntity
  8
AM_0
100
AcDbEllipse
 10
12.66520621712527
 20
2.957065248768515
 30
0.0
 11
-0.2830995869577733
 21
0.2825856044888668
 31
0.0
210
0.0
220
0.0
230
1.0
 40
0.9924308333117201
 41
3.019433354699418
 42
5.550160770091202
  0
ELLIPSE
  5
1CDE5
330
1F
100
AcDbEntity
  8
AM_0
100
AcDbEllipse
 10
12.87168843744763
 20
3.163923030477235
 30
0.0
 11
0.07627604902317038
 21
-0.0761375657692149
 31
0.0
210
0.0
220
0.0
230
1.0
 40
0.99243083331172
 41
1.446349996227382
 42
1.695242657362377
  0
LINE
  5
1CDE6
330
1F
100
AcDbEntity
  8
AM_0
100
AcDbLine
 10
12.93719756312083
 20
3.248486923887811
 30
0.0
 11
12.90834422253531
 21
3.270925282195378
 31
0.0
  0
LINE
  5
1CDE7
330
1F
100
AcDbEntity
  8
AM_0
100
AcDbLine
 10
12.95613314793948
 20
3.229585717637974
 30
0.0
 11
12.97862390153824
 21
3.200773199715343
 31
0.0
  0
ELLIPSE
  5
1CDE8
330
1F
100
AcDbEntity
  8
AM_0
100
AcDbEllipse
 10
13.45871249095796
 20
3.382097330108309
 30
0.0
 11
-0.7077489673944324
 21
0.7064640112221674
 31
0.0
210
0.0
220
0.0
230
1.0
 40
0.99243083331172
 41
2.714000735600411
 42
3.012543590968743
  0
SPLINE
  5
1CDE9
330
1F
100
AcDbEntity
  8
AM_0
100
AcDbSpline
210
0.0
220
0.0
230
1.0
 70
     8
 71
     3
 72
     8
 73
     4
 74
     0
 42
0.0000000001
 43
0.0000000001
 40
-1.674789034037981
 40
-1.674789034037981
 40
-1.674789034037981
 40
-1.674789034037981
 40
-0.0011662437865618
 40
-0.0011662437865618
 40
-0.0011662437865618
 40
-0.0011662437865618
 10
21.83475647918129
 20
0.8864214502327741
 30
0.0
 10
21.59881582397182
 20
0.5425639430794718
 30
0.0
 10
21.3222339830221
 20
0.2516915656194669
 30
0.0
 10
21.00000000000003
 20
-0.0102320602306918
 30
0.0
  0
LINE
  5
1CDEA
330
1F
100
AcDbEntity
  8
AM_0
100
AcDbLine
 10
149.0
 20
-2.39791576165635
 30
0.0
 11
112.935561716849
 21
-2.39791576165635
 31
0.0
  0
LINE
  5
1CDEB
330
1F
100
AcDbEntity
  8
AM_0
100
AcDbLine
 10
30.50000000000003
 20
2.39791576165635
 30
0.0
 11
92.79637396718863
 21
2.39791576165635
 31
0.0
  0
LINE
  5
1CDEC
330
1F
100
AcDbEntity
  8
AM_0
370
    30
100
AcDbLine
 10
149.0
 20
-62.88438323800912
 30
0.0
 11
30.50000000000003
 21
-62.88438323800914
 31
0.0
  0
LINE
  5
1CDED
330
1F
100
AcDbEntity
  8
AM_0
370
    30
100
AcDbLine
 10
30.50000000000003
 20
-73.88438323800914
 30
0.0
 11
149.0
 21
-73.88438323800914
 31
0.0
  0
LINE
  5
1CDEE
330
1F
100
AcDbEntity
  8
AM_0
100
AcDbLine
 10
149.0
 20
-6.0
 30
0.0
 11
112.935561716849
 21
-6.0
 31
0.0
  0
LINE
  5
1CDEF
330
1F
100
AcDbEntity
  8
AM_0
370
    30
100
AcDbLine
 10
30.50000000000003
 20
-62.88438323800914
 30
0.0
 11
30.50000000000003
 21
-73.88438323800914
 31
0.0
  0
LINE
  5
1CDF0
330
1F
100
AcDbEntity
  8
AM_0
370
    30
100
AcDbLine
 10
30.00000000000003
 20
-62.88438323800914
 30
0.0
 11
30.00000000000003
 21
-73.88438323800914
 31
0.0
  0
SPLINE
  5
1CDF1
330
1F
100
AcDbEntity
  8
AM_0
370
    30
100
AcDbSpline
210
0.0
220
0.0
230
1.0
 70
     8
 71
     3
 72
    16
 73
    12
 74
     0
 42
0.0000000001
 43
0.0000000001
 40
3.567563902382511
 40
3.567563902382511
 40
3.567563902382511
 40
3.567563902382511
 40
4.420701931056494
 40
4.420701931056494
 40
6.760688008690904
 40
6.760688008690904
 40
8.814321539358714
 40
8.814321539358714
 40
10.84162471808445
 40
10.84162471808445
 40
12.26537977736061
 40
12.26537977736061
 40
12.26537977736061
 40
12.26537977736061
 10
24.34305254288847
 20
-62.88438323800914
 30
0.0
 10
24.57403060131514
 20
-62.88438323801175
 30
0.0
 10
24.79426658720121
 20
-62.88992355603902
 30
0.0
 10
25.57754261285251
 20
-62.94416412839262
 30
0.0
 10
26.05221923152689
 20
-63.05014621904842
 30
0.0
 10
26.79351412779488
 20
-63.48720984448578
 30
0.0
 10
27.06270176065951
 20
-63.7805528088255
 30
0.0
 10
27.48916141381267
 20
-64.56098138128117
 30
0.0
 10
27.64132332971622
 20
-65.03291402931818
 30
0.0
 10
27.83132163132171
 20
-65.95393333363573
 30
0.0
 10
27.88835235526767
 20
-66.3626023672213
 30
0.0
 10
27.92820323027553
 20
-66.79065123000127
 30
0.0
  0
SPLINE
  5
1CDF2
330
1F
100
AcDbEntity
  8
AM_0
370
    30
100
AcDbSpline
210
0.0
220
0.0
230
1.0
 70
     8
 71
     3
 72
    16
 73
    12
 74
     0
 42
0.0000000001
 43
0.0000000001
 40
0.0
 40
0.0
 40
0.0
 40
0.0
 40
1.977640791740927
 40
1.977640791740927
 40
3.728563984683685
 40
3.728563984683685
 40
5.552561454832979
 40
5.552561454832979
 40
7.504940274934192
 40
7.504940274934192
 40
8.232059167308258
 40
8.232059167308258
 40
8.232059167308258
 40
8.232059167308258
 10
27.92820323027553
 20
-69.97811524601694
 30
0.0
 10
27.86969605562899
 20
-70.60655639234027
 30
0.0
 10
27.7750670079464
 20
-71.19070651130629
 30
0.0
 10
27.50070664977767
 20
-72.15678330591207
 30
0.0
 10
27.33447150247434
 20
-72.54426421196989
 30
0.0
 10
26.88625483838104
 20
-73.18571700320926
 30
0.0
 10
26.60661791557354
 20
-73.42322313306293
 30
0.0
 10
25.88432074564034
 20
-73.75833336464199
 30
0.0
 10
25.44767039321076
 20
-73.83818468447127
 30
0.0
 10
24.74577129720944
 20
-73.88004277304025
 30
0.0
 10
24.54791823837675
 20
-73.88438323800078
 30
0.0
 10
24.34305254330948
 20
-73.88438323800914
 30
0.0
  0
LINE
  5
1CDF3
330
1F
100
AcDbEntity
  8
AM_0
370
    30
100
AcDbLine
 10
30.00000000000003
 20
-73.88438323800914
 30
0.0
 11
24.34305254330948
 21
-73.88438323800914
 31
0.0
  0
LINE
  5
1CDF4
330
1F
100
AcDbEntity
  8
AM_0
370
    30
100
AcDbLine
 10
30.00000000000003
 20
-73.88438323800914
 30
0.0
 11
30.50000000000003
 21
-73.88438323800914
 31
0.0
  0
ARC
  5
1CDF5
330
1F
100
AcDbEntity
  8
AM_0
370
    30
100
AcDbCircle
 10
10.36677811083416
 20
-68.38438323800914
 30
0.0
 40
17.63359390309008
100
AcDbArc
 50
354.8145059989753
 51
5.185494001024687
  0
LINE
  5
1CDF6
330
1F
100
AcDbEntity
  8
AM_0
370
    30
100
AcDbLine
 10
30.00000000000003
 20
-62.88438323800914
 30
0.0
 11
24.34305254288847
 21
-62.88438323800914
 31
0.0
  0
LINE
  5
1CDF7
330
1F
100
AcDbEntity
  8
AM_0
370
    30
100
AcDbLine
 10
30.00000000000003
 20
-62.88438323800914
 30
0.0
 11
30.50000000000003
 21
-62.88438323800914
 31
0.0
  0
SPLINE
  5
1CDF8
330
1F
100
AcDbEntity
  8
AM_0
100
AcDbSpline
210
0.0
220
0.0
230
1.0
 70
    12
 71
     2
 72
     6
 73
     3
 74
     0
 42
0.0000000001
 43
0.0000000001
 40
0.0
 40
0.0
 40
0.0
 40
2.460919366462428
 40
2.460919366462428
 40
2.460919366462428
 10
30.50000000000003
 20
-2.39791576165635
 30
0.0
 41
1.0
 10
30.00000000000003
 20
-1.146829277313941
 30
0.0
 41
1.022474716291131
 10
30.00000000000003
 20
0.0
 30
0.0
 41
1.0
  0
LINE
  5
1CDF9
330
1F
100
AcDbEntity
  8
AM_0
100
AcDbLine
 10
30.00000000000003
 20
0.0
 30
0.0
 11
30.00000000000003
 21
-5.5
 31
0.0
  0
ARC
  5
1CDFA
330
1F
100
AcDbEntity
  8
AM_0
100
AcDbCircle
 10
18.81786399144974
 20
-7.615893287096469
 30
0.0
 40
9.40901371493575
100
AcDbArc
 50
14.47505468444134
 51
54.03981482978398
  0
LINE
  5
1CDFB
330
1F
100
AcDbEntity
  8
AM_0
100
AcDbLine
 10
30.00000000000003
 20
-5.5
 30
0.0
 11
28.00037201392425
 21
-5.5
 31
0.0
  0
LINE
  5
1CDFC
330
1F
100
AcDbEntity
  8
AM_0
100
AcDbLine
 10
27.92820323027553
 20
-5.375
 30
0.0
 11
28.00037201392422
 21
-5.5
 31
0.0
  0
SPLINE
  5
1CDFD
330
1F
100
AcDbEntity
  8
AM_0
100
AcDbSpline
210
0.0
220
0.0
230
1.0
 70
     8
 71
     3
 72
    12
 73
     8
 74
     0
 42
0.0000000001
 43
0.0000000001
 40
6.106502553216093
 40
6.106502553216093
 40
6.106502553216093
 40
6.106502553216093
 40
6.852547272778581
 40
6.852547272778581
 40
7.598591992341071
 40
7.598591992341071
 40
7.643130251606743
 40
7.643130251606743
 40
7.643130251606743
 40
7.643130251606743
 10
28.00037201392425
 20
-5.5
 30
0.0
 10
28.00037201392425
 20
-5.5
 30
0.0
 10
27.99516312613204
 20
-5.482852341577427
 30
0.0
 10
27.97273226717513
 20
-5.409294440589179
 30
0.0
 10
27.95551040562182
 20
-5.352885783648389
 30
0.0
 10
27.93102436608234
 20
-5.273206467793841
 30
0.0
 10
27.92962413261694
 20
-5.268651406212314
 30
0.0
 10
27.92820323027553
 20
-5.264030612244881
 30
0.0
  0
LINE
  5
1CDFE
330
1F
100
AcDbEntity
  8
AM_0
100
AcDbLine
 10
30.50000000000003
 20
-2.39791576165635
 30
0.0
 11
30.50000000000003
 21
-6.0
 31
0.0
  0
LINE
  5
1CDFF
330
1F
100
AcDbEntity
  8
AM_0
100
AcDbLine
 10
30.00000000000003
 20
-5.5
 30
0.0
 11
30.50000000000003
 21
-6.0
 31
0.0
  0
SPLINE
  5
1CE00
330
1F
100
AcDbEntity
  8
AM_0
100
AcDbSpline
210
0.0
220
0.0
230
1.0
 70
    12
 71
     2
 72
     6
 73
     3
 74
     0
 42
0.0000000001
 43
0.0000000001
 40
2.460919366462428
 40
2.460919366462428
 40
2.460919366462428
 40
4.921838732924857
 40
4.921838732924857
 40
4.921838732924857
 10
30.00000000000003
 20
0.0
 30
0.0
 41
1.0
 10
30.00000000000003
 20
1.146829277313941
 30
0.0
 41
1.022474716291131
 10
30.50000000000003
 20
2.39791576165635
 30
0.0
 41
1.0
  0
SPLINE
  5
1CE08
330
1F
100
AcDbEntity
  8
AM_0
100
AcDbSpline
210
0.0
220
0.0
230
1.0
 70
    12
 71
     2
 72
     6
 73
     3
 74
     0
 42
0.0000000001
 43
0.0000000001
 40
0.0
 40
0.0
 40
0.0
 40
4.898979485566359
 40
4.898979485566359
 40
4.898979485566359
 10
149.0
 20
2.39791576165635
 30
0.0
 41
1.0
 10
149.9583333333334
 20
0.0
 30
0.0
 41
1.090909090909102
 10
149.0
 20
-2.39791576165635
 30
0.0
 41
1.0
  0
LINE
  5
1CE09
330
1F
100
AcDbEntity
  8
AM_0
100
AcDbLine
 10
149.0
 20
-2.39791576165635
 30
0.0
 11
149.0
 21
-6.0
 31
0.0
  0
LINE
  5
1CE0A
330
1F
100
AcDbEntity
  8
AM_0
100
AcDbLine
 10
150.0
 20
-5.0
 30
0.0
 11
149.0
 21
-6.0
 31
0.0
  0
LINE
  5
1CE0B
330
1F
100
AcDbEntity
  8
AM_0
100
AcDbLine
 10
30.00000000000003
 20
5.5
 30
0.0
 11
9.258272757857071
 21
5.5
 31
0.0
  0
ARC
  5
1CE0C
330
1F
100
AcDbEntity
  8
AM_0
370
    30
100
AcDbCircle
 10
-44.09494123701791
 20
0.0
 30
0.0
 40
5.499999999999998
100
AcDbArc
 50
73.16434553560143
 51
78.32731846768468
  0
ELLIPSE
  5
1CE0D
330
1F
100
AcDbEntity
  8
AM_0
100
AcDbEllipse
 10
1.579514491790518
 20
0.0
 30
0.0
 11
63.1562418885147
 21
-0.4834803819939633
 31
0.0
210
0.0
220
0.0
230
1.0
 40
0.0867484879774526
 41
1.364977857409356
 42
1.455088734265541
  0
ELLIPSE
  5
1CE0E
330
1F
100
AcDbEntity
  8
AM_0
100
AcDbEllipse
 10
2.025206396960214
 20
0.0
 30
0.0
 11
-7.289289447331112
 21
-5.480106551928166
 31
0.0
210
0.0
220
0.0
230
1.0
 40
0.0641169881965053
 41
3.226671124436953
 42
3.4303978497126
  0
LINE
  5
1CE0F
330
1F
100
AcDbEntity
  8
AM_0
100
AcDbLine
 10
149.0
 20
6.0
 30
0.0
 11
112.935561716849
 21
6.0
 31
0.0
  0
LINE
  5
1CE10
330
1F
100
AcDbEntity
  8
AM_0
100
AcDbLine
 10
30.00000000000003
 20
5.5
 30
0.0
 11
30.50000000000003
 21
6.0
 31
0.0
  0
LINE
  5
1CE11
330
1F
100
AcDbEntity
  8
AM_0
100
AcDbLine
 10
150.0
 20
5.0
 30
0.0
 11
149.0
 21
6.0
 31
0.0
  0
ARC
  5
1CE12
102
{ACAD_REACTORS
330
1D637
102
}
330
1F
100
AcDbEntity
  8
AM_0
100
AcDbCircle
 10
102.8659678420188
 20
0.0
 30
0.0
 40
6.0
100
AcDbArc
 50
23.55646430910136
 51
156.4435356908986
  0
ARC
  5
1CE14
102
{ACAD_REACTORS
330
1D637
102
}
330
1F
100
AcDbEntity
  8
AM_0
100
AcDbCircle
 10
102.8659678420188
 20
0.0
 30
0.0
 40
6.0
100
AcDbArc
 50
203.5564643091014
 51
336.4435356908987
  0
LINE
  5
1CE15
102
{ACAD_REACTORS
330
1D637
102
}
330
1F
100
AcDbEntity
  8
AM_0
100
AcDbLine
 10
97.36596784201879
 20
2.39791576165635
 30
0.0
 11
97.36596784201879
 21
-2.39791576165635
 31
0.0
  0
LINE
  5
1CE16
102
{ACAD_REACTORS
330
1D637
102
}
330
1F
100
AcDbEntity
  8
AM_0
100
AcDbLine
 10
108.3659678420188
 20
2.39791576165635
 30
0.0
 11
108.3659678420188
 21
-2.39791576165635
 31
0.0
  0
LINE
  5
1D4C1
330
1F
100
AcDbEntity
  8
AM_0
100
AcDbLine
 10
92.79637396718863
 20
6.0
 30
0.0
 11
30.50000000000003
 21
6.0
 31
0.0
  0
LINE
  5
1D4C2
330
1F
100
AcDbEntity
  8
AM_0
100
AcDbLine
 10
112.935561716849
 20
2.39791576165635
 30
0.0
 11
149.0
 21
2.39791576165635
 31
0.0
  0
LINE
  5
1D4C3
330
1F
100
AcDbEntity
  8
AM_0
100
AcDbLine
 10
92.79637396718863
 20
-2.39791576165635
 30
0.0
 11
30.50000000000003
 21
-2.39791576165635
 31
0.0
  0
LINE
  5
1D4C4
330
1F
100
AcDbEntity
  8
AM_0
100
AcDbLine
 10
92.79637396718863
 20
-6.0
 30
0.0
 11
30.50000000000003
 21
-6.0
 31
0.0
  0
HATCH
  5
1D637
330
1F
100
AcDbEntity
  8
AM_5
370
    13
100
AcDbHatch
 10
0.0
 20
0.0
 30
0.0
210
0.0
220
0.0
230
1.0
  2
_USER
 70
     0
 71
     1
 91
        1
 92
        7
 72
     1
 73
     1
 93
        4
 10
108.3659678420188
 20
-2.39791576165635
 42
0.0
 10
108.3659678420188
 20
2.39791576165635
 42
0.654924406971569
 10
97.36596784201879
 20
2.397915761656361
 42
0.0
 10
97.36596784201879
 20
-2.39791576165635
 42
0.6549244069715695
 97
        4
330
1CE12
330
1CE15
330
1CE14
330
1CE16
 75
     0
 76
     0
 52
45.0
 41
1.5
 77
     0
 78
     1
 53
45.0
 43
-69.04677637940631
 44
-164.8124064601574
 45
-1.060660171779821
 46
1.060660171779821
 79
     0
 47
0.1258239322200245
 98
        1
 10
101.0826821322501
 20
-2.353416453009913
  0
DIMENSION
  5
1D675
330
1F
100
AcDbEntity
  8
AM_5
100
AcDbDimension
  2
*D3
 10
150.0
 20
-45.7647604778137
 30
0.0
 11
75.0
 21
-42.3647604778137
 31
0.0
 70
    32
 71
     5
 42
150.0
  3
AM_JIS$0
100
AcDbAlignedDimension
 13
-0.0000000000000007
 23
-1.875
 33
0.0
 14
150.0
 24
-5.0
 34
0.0
100
AcDbRotatedDimension
1001
ACAD
1000
DSTYLE
1002
{
1070
   179
1070
     0
1070
   271
1070
     0
1002
}
  0
LINE
  5
1D69A
330
1F
100
AcDbEntity
  8
AM_7
  6
CENTER
370
    13
100
AcDbLine
 10
102.8659678420188
 20
8.79400000000004
 30
0.0
 11
102.8659678420188
 21
-8.793999999999983
 31
0.0
1001
GENIUS_GENOBJ-N-CEN_13
1002
{
1000
OWNER
1000
GEN
1002
}
1001
GENIUS_GENODEF_13
1002
{
1000
HIER
1070
     0
1002
}
1002
{
1000
MANEDIT
1070
     0
1002
}
1002
{
1000
NOSEL
1070
     0
1002
}
1002
{
1000
BEHIND
1070
     0
1002
}
1002
{
1000
OTHER
1070
     0
1002
}
1002
{
1000
REACTOR
1002
}
  0
DIMENSION
  5
1D6BA
330
1F
100
AcDbEntity
  8
AM_5
100
AcDbDimension
  2
*D4
 10
100.0863514389927
 20
-5.317305017772235
 30
0.0
 11
114.4036569269278
 21
12.44110588095004
 31
0.0
 70
   163
  1
<>
 71
     5
 42
12.0
  3
AM_JIS$3
100
AcDbDiametricDimension
 15
105.6455842450451
 25
5.317305017772597
 35
0.0
 40
0.0
1001
ACAD
1000
DSTYLE
1002
{
1070
    48
1040
0.1000000001
1070
    47
1040
0.1
1070
   179
1070
     0
1070
   271
1070
     0
1070
   272
1070
     3
1070
   274
1070
     3
1002
}
  0
DIMENSION
  5
1D73F
330
1F
100
AcDbEntity
  8
AM_5
100
AcDbDimension
  2
*D5
 10
108.3659678420188
 20
-19.03921358174301
 30
0.0
 11
102.5159670465117
 21
-19.03921358174301
 31
0.0
 70
   160
 71
     5
 42
11.0
  3
AM_JIS$0
100
AcDbAlignedDimension
 13
97.36596784201879
 23
-2.39791576165635
 33
0.0
 14
108.3659678420188
 24
-2.39791576165635
 34
0.0
100
AcDbRotatedDimension
1001
ACAD
1000
DSTYLE
1002
{
1070
   179
1070
     0
1070
   271
1070
     0
1002
}
  0
CIRCLE
  5
1D823
330
1F
100
AcDbEntity
  8
AM_5
  6
AM_ISO09W050
370
    13
100
AcDbCircle
 10
-44.09494123701791
 20
6.0
 30
0.0
 40
8.0
  0
LINE
  5
1D84D
330
1F
100
AcDbEntity
  8
AM_7
  6
CENTER
370
    13
100
AcDbLine
 10
-44.09494123701791
 20
0.0
 30
0.0
 11
-35.30094123701792
 21
0.0
 31
0.0
1001
GENIUS_GENOREF_13
1005
1D851
  0
LINE
  5
1D84E
330
1F
100
AcDbEntity
  8
AM_7
  6
CENTER
370
    13
100
AcDbLine
 10
-44.09494123701791
 20
-0.125
 30
0.0
 11
-44.09494123701791
 21
15.49053658727439
 31
0.0
1001
GENIUS_GENOREF_13
1005
1D851
  0
LINE
  5
1D84F
330
1F
100
AcDbEntity
  8
AM_7
  6
CENTER
370
    13
100
AcDbLine
 10
-44.09494123701791
 20
0.0
 30
0.0
 11
-52.88894123701792
 21
0.0
 31
0.0
1001
GENIUS_GENOREF_13
1005
1D851
  0
LINE
  5
1D850
330
1F
100
AcDbEntity
  8
AM_7
  6
CENTER
370
    13
100
AcDbLine
 10
-44.09494123701791
 20
0.0
 30
0.0
 11
-44.09494123701791
 21
-8.793999999999983
 31
0.0
1001
GENIUS_GENOREF_13
1005
1D851
  0
POINT
  5
1D851
330
1F
100
AcDbEntity
  8
0
 60
     1
100
AcDbPoint
 10
0.0
 20
0.0
 30
0.0
1001
GENIUS_GENODEF_13
1002
{
1000
HIER
1070
    10
1002
}
1002
{
1000
MANEDIT
1070
     0
1002
}
1002
{
1000
NOSEL
1070
     0
1002
}
1002
{
1000
BEHIND
1070
     0
1002
}
1002
{
1000
OTHER
1070
     0
1002
}
1002
{
1000
REACTOR
1002
}
1001
GENIUS_GENOBJ-N-CRS_13
1002
{
1000
OWNER
1000
GEN
1002
}
1001
GENIUS_GENOENT_13
1002
{
1000
MYREF
1005
1D851
1002
}
1002
{
1000
GRP
1005
0
1002
}
1001
GENIUS_GENOLIS_13
1002
{
1000
ENT
1005
1D850
1005
1D84F
1005
1D84E
1005
1D84D
1002
}
  0
LINE
  5
1D85E
330
1F
100
AcDbEntity
  8
AM_7
  6
CENTER
370
    13
100
AcDbLine
 10
-33.30094123701792
 20
6.0
 30
0.0
 11
-54.88894123701792
 21
6.0
 31
0.0
1001
GENIUS_GENOBJ-N-CEN_13
1002
{
1000
OWNER
1000
GEN
1002
}
1001
GENIUS_GENODEF_13
1002
{
1000
HIER
1070
     0
1002
}
1002
{
1000
MANEDIT
1070
     0
1002
}
1002
{
1000
NOSEL
1070
     0
1002
}
1002
{
1000
BEHIND
1070
     0
1002
}
1002
{
1000
OTHER
1070
     0
1002
}
1002
{
1000
REACTOR
1002
}
  0
DIMENSION
  5
1D864
330
1F
100
AcDbEntity
  8
AM_5
370
    13
100
AcDbDimension
  2
*D6
 10
-47.64515143653971
 20
-1.169100887783138
 30
0.0
 11
-18.74936896462606
 21
23.45990774715533
 31
0.0
 70
   163
  1
最小加工径<>
 71
     5
 42
16.00000000000007
  3
AM_JIS$3
100
AcDbDiametricDimension
 15
-40.54473103749618
 25
13.16910088778303
 35
0.0
 40
0.0
1001
ACAD
1000
DSTYLE
1002
{
1070
   179
1070
     0
1070
   271
1070
     0
1002
}
  0
LINE
  5
1D8E8
330
1F
100
AcDbEntity
  8
AM_7
  6
CENTER
370
    13
100
AcDbLine
 10
155.1331516533709
 20
0.0
 30
0.0
 11
-1.27973005934382
 21
0.0
 31
0.0
1001
GENIUS_GENODEF_13
1002
{
1000
HIER
1070
     0
1002
}
1002
{
1000
MANEDIT
1070
     0
1002
}
1002
{
1000
NOSEL
1070
     0
1002
}
1002
{
1000
BEHIND
1070
     0
1002
}
1002
{
1000
OTHER
1070
     0
1002
}
1002
{
1000
REACTOR
1002
}
1001
GENIUS_GENOBJ-N-CEN_13
1002
{
1000
OWNER
1000
GEN
1002
}
  0
DIMENSION
  5
1D8F8
330
1F
100
AcDbEntity
  8
AM_5
100
AcDbDimension
  2
*D7
 10
-7.581264915954081
 20
0.0000000000000018
 30
0.0
 11
-7.581264915954081
 21
-0.9999999999999993
 31
0.0
 70
   160
  1
<>
 71
     5
 42
2.0
  3
AM_JIS$0
100
AcDbAlignedDimension
 13
-0.5103671736264922
 23
-2.0
 33
0.0
 14
-1.27973005934382
 24
0.0
 34
0.0
 50
90.0
100
AcDbRotatedDimension
1001
ACAD
1000
DSTYLE
1002
{
1070
   179
1070
     0
1070
   271
1070
     0
1002
}
  0
LINE
  5
1D982
330
1F
100
AcDbEntity
  8
AM_7
  6
CENTER
370
    13
100
AcDbLine
 10
-2.730675730929193
 20
-68.38438323800914
 30
0.0
 11
155.1331516533709
 21
-68.38438323800914
 31
0.0
1001
GENIUS_GENOBJ-N-CEN_13
1002
{
1000
OWNER
1000
GEN
1002
}
1001
GENIUS_GENODEF_13
1002
{
1000
HIER
1070
     0
1002
}
1002
{
1000
MANEDIT
1070
     0
1002
}
1002
{
1000
NOSEL
1070
     0
1002
}
1002
{
1000
BEHIND
1070
     0
1002
}
1002
{
1000
OTHER
1070
     0
1002
}
1002
{
1000
REACTOR
1002
}
  0
CIRCLE
  5
1D990
330
1F
100
AcDbEntity
  8
AM_11
  6
ACISOTGB
100
AcDbCircle
 10
21.00000000000003
 20
-9.375
 30
0.0
 40
7.999999999999999
  0
LINE
  5
1D99E
330
1F
100
AcDbEntity
  8
AM_7
  6
CENTER
370
    13
100
AcDbLine
 10
21.00000000000003
 20
-9.375
 30
0.0
 11
31.79400000000003
 21
-9.375
 31
0.0
1001
GENIUS_GENOREF_13
1005
1D9A2
  0
LINE
  5
1D99F
330
1F
100
AcDbEntity
  8
AM_7
  6
CENTER
370
    13
100
AcDbLine
 10
21.00000000000003
 20
-9.375
 30
0.0
 11
21.00000000000003
 21
1.41900000000004
 31
0.0
1001
GENIUS_GENOREF_13
1005
1D9A2
  0
LINE
  5
1D9A0
330
1F
100
AcDbEntity
  8
AM_7
  6
CENTER
370
    13
100
AcDbLine
 10
21.00000000000003
 20
-9.375
 30
0.0
 11
10.20600000000002
 21
-9.375
 31
0.0
1001
GENIUS_GENOREF_13
1005
1D9A2
  0
LINE
  5
1D9A1
330
1F
100
AcDbEntity
  8
AM_7
  6
CENTER
370
    13
100
AcDbLine
 10
21.00000000000003
 20
-9.375
 30
0.0
 11
21.00000000000003
 21
-20.16899999999998
 31
0.0
1001
GENIUS_GENOREF_13
1005
1D9A2
  0
POINT
  5
1D9A2
330
1F
100
AcDbEntity
  8
0
 60
     1
100
AcDbPoint
 10
0.0
 20
0.0
 30
0.0
1001
GENIUS_GENOLIS_13
1002
{
1000
ENT
1005
1D9A1
1005
1D9A0
1005
1D99F
1005
1D99E
1002
}
1001
GENIUS_GENOENT_13
1002
{
1000
MYREF
1005
1D9A2
1002
}
1002
{
1000
GRP
1005
0
1002
}
1001
GENIUS_GENOBJ-N-CRS_13
1002
{
1000
OWNER
1000
GEN
1002
}
1001
GENIUS_GENODEF_13
1002
{
1000
HIER
1070
    10
1002
}
1002
{
1000
MANEDIT
1070
     0
1002
}
1002
{
1000
NOSEL
1070
     0
1002
}
1002
{
1000
BEHIND
1070
     0
1002
}
1002
{
1000
OTHER
1070
     0
1002
}
1002
{
1000
REACTOR
1002
}
  0
DIMENSION
  5
1D9B3
330
1F
100
AcDbEntity
  8
AM_5
100
AcDbDimension
  2
*D8
 10
21.00000000000003
 20
-25.76476047781398
 30
0.0
 11
10.50000000000001
 21
-22.36438646206595
 31
0.0
 70
    32
 71
     5
 42
21.00000000000003
  3
AM_JIS$0
100
AcDbAlignedDimension
 13
-0.0000000000000007
 23
-1.875
 33
0.0
 14
21.00000000000003
 24
-20.16899999999998
 34
0.0
100
AcDbRotatedDimension
1001
ACAD
1000
DSTYLE
1002
{
1070
   179
1070
     0
1070
   271
1070
     0
1002
}
  0
DIMENSION
  5
1D9D7
330
1F
100
AcDbEntity
  8
AM_5
100
AcDbDimension
  2
*D9
 10
30.00000000000003
 20
-35.76476047781392
 30
0.0
 11
15.00000000000001
 21
-32.36476047781392
 31
0.0
 70
    32
 71
     5
 42
30.00000000000003
  3
AM_JIS$0
100
AcDbAlignedDimension
 13
-0.0000000000000007
 23
-1.875
 33
0.0
 14
30.00000000000003
 24
-5.5
 34
0.0
100
AcDbRotatedDimension
1001
ACAD
1000
DSTYLE
1002
{
1070
   179
1070
     0
1070
   271
1070
     0
1002
}
  0
ACAD_PROXY_ENTITY
  5
1DA76
330
1F
100
AcDbEntity
  8
AM_5
370
    13
100
AcDbProxyEntity
 90
      498
 91
      533
 95
       25
 70
     0
 92
      824
310
38030000300000000C00000016000000000000C00C00000013000000010000000C00000016000000000000C00C000000170000000D0000003C0000000600000002000000A15749BA8D0F39C000D3E6A5B3AC3FC0000000000000000000BEAF20F4353CC000D3E6A5B3AC3FC000000000000000000C00000016000000000000
310
C00C00000010000000FFFFFFFF0C00000012000000FFFFFFFF0C00000017000000000000000C00000014000000010000000C00000013000000020000000C00000016000000000000C00C000000170000000D0000003C000000060000000200000000BEAF20F4353CC000D3E6A5B3AC3FC0000000000000000000BEAF20F435
310
3CC066394D0C1AD336C000000000000000000C00000016000000000000C00C00000010000000FFFFFFFF0C00000012000000FFFFFFFF0C00000017000000000000000C00000014000000010000000C00000013000000030000000C00000016000000000000C00C000000170000000D0000003C000000060000000200000000
310
BEAF20F4353CC066394D0C1AD336C0000000000000000000BEAF20F4353CC000D3E6A5B3AC33C000000000000000000C00000016000000000000C00C00000010000000FFFFFFFF0C00000012000000FFFFFFFF0C00000017000000000000000C00000014000000010000000C00000013000000040000000C00000016000000
310
000000C00C000000170000000D0000003C0000000600000002000000AE3A31FFC9CB3BC066394D0C1AD336C0000000000000000000BEAF20F4353CC000D3E6A5B3AC33C000000000000000000C00000016000000000000C00C00000010000000FFFFFFFF0C00000012000000FFFFFFFF0C00000017000000000000000C0000
310
0014000000010000000C00000013000000050000000C00000016000000000000C00C000000170000000D0000003C000000060000000200000000BEAF20F4353CC000D3E6A5B3AC33C0000000000000000052412E421EA03CC066394D0C1AD336C000000000000000000C00000016000000000000C00C00000010000000FFFF
310
FFFF0C00000012000000FFFFFFFF0C00000017000000000000000C00000014000000010000000C00000013000000060000000C00000016000000000000C0
 93
     1537
310
5DC00BEAF20F4353CC0103418BB2C784C3024000000000000C4BC8000000000000C43C6A54051F8000000C8003E8C8CCCCCCCC2500000000000000E0BCA002FABC83D0D4F30000D3E6A5B3AC3FC09018FFFFFFFF002FABC83D0D4F30000D3E6A5B3AC33C0A8FFFFFFFF1FFFFFFFF0017D5E41E86A79800069F352D9D61FE04
310
5409C870A05749BA8D0F39C03427ECDCA0064FB02A5000000000000312F28333333333333094041D050000000000003C2FC000000000000F0BF40401015213400500
340
17F
340
EDAB
330
0
330
0
340
0
340
0
340
180
330
0
330
0
 94
        0
  0
ACAD_PROXY_ENTITY
  5
1DA77
330
1F
100
AcDbEntity
  8
AM_5
370
    13
100
AcDbProxyEntity
 90
      498
 91
      533
 95
       25
 70
     0
 92
      668
310
9C020000270000000C00000016000000000000C00C00000013000000010000000C00000016000000000000C00C000000170000000D0000003C000000060000000200000000BEAF20F4353CC000D3E6A5B3AC3FC00000000000000000662416875A5C33C000D3E6A5B3AC3FC000000000000000000C00000016000000000000
310
C00C00000010000000FFFFFFFF0C00000012000000FFFFFFFF0C00000017000000000000000C00000014000000010000000C00000013000000020000000C00000016000000000000C00C000000170000000D0000003C0000000600000002000000662416875A5C33C000D3E6A5B3AC3FC0000000000000000000BEAF20F435
310
30C000D3E6A5B3AC3FC000000000000000000C00000016000000000000C00C00000010000000FFFFFFFF0C00000012000000FFFFFFFF0C00000017000000000000000C00000014000000010000000C00000013000000030000000C00000016000000000000C00C000000170000000D0000003C000000060000000200000066
310
2416875A5C33C029ABB2E36E0B40C0000000000000000000BEAF20F43530C000D3E6A5B3AC3FC000000000000000000C00000016000000000000C00C00000010000000FFFFFFFF0C00000012000000FFFFFFFF0C00000017000000000000000C00000014000000010000000C00000013000000040000000C00000016000000
310
000000C00C000000170000000D0000003C000000060000000200000000BEAF20F43530C000D3E6A5B3AC3FC00000000000000000662416875A5C33C0AE4F688489423FC000000000000000000C00000016000000000000C00C00000010000000FFFFFFFF0C00000012000000FFFFFFFF0C00000017000000000000000C0000
310
0014000000010000000C00000013000000050000000C00000016000000000000C0
 93
     1537
310
5DC807657CEE4D52AC00034F9A96CEB0FF023FBFFFFFFFFFF26F0000000000000F0BF93FBFFFFFFFFFF26F2A54051F8000000C800AA002FABC83D0D4F30000D3E6A5B3AC3FC09018FFFFFFFF002FABC83D0D4C30000D3E6A5B3AC3FC0A8FFFFFFFF1FFFFFFFF0017D5E41E86A79800069F352D9D61FE045409C870E08A7CED
310
C0A23AC02C270981A35A50702A4FEFFFFFFFFFFC9BC0000000000003C2FE8333333333333094041D050000000000003C2FC000000000000F0BF40401015213400500
340
17F
340
EDAB
330
0
330
0
340
0
340
0
340
180
330
0
330
0
 94
        0
  0
TEXT
  5
1DA78
330
1F
100
AcDbEntity
  8
AM_6
 62
     0
100
AcDbText
 10
-15.29324303384465
 20
-33.07909699013828
 30
0.0
 40
4.0
  1
-5%%d
100
AcDbText
  0
TEXT
  5
1DA79
330
1F
100
AcDbEntity
  8
AM_6
 62
     0
100
AcDbText
 10
-31.69577069429681
 20
-18.26348208049819
 30
0.0
 40
4.0
  1
-5%%d
100
AcDbText
  0
ARC
  5
1DBE6
330
1F
100
AcDbEntity
  8
AM_5
  6
AM_ISO09W050
370
    13
100
AcDbCircle
 10
7.999999999999999
 20
-68.38438323800914
 30
0.0
 40
8.0
100
AcDbArc
 50
90.0
 51
270.0
  0
LINE
  5
1DFC6
330
1F
100
AcDbEntity
  8
AM_5
370
    13
100
AcDbLine
 10
0.4212258077410517
 20
-2.0
 30
0.0
 11
-0.5103671736264922
 21
-2.0
 31
0.0
  0
DIMENSION
  5
1E003
330
1F
100
AcDbEntity
  8
AM_6
100
AcDbDimension
  2
*D11
 10
-0.0000000000000007
 20
-0.7572511197138283
 30
0.0
 11
8.942408211412257
 21
12.28006696325693
 31
0.0
 70
   162
 71
     5
 42
0.9075712110370525
  3
AM_JIS$2
100
AcDb2LineAngularDimension
 13
0.1516759372796052
 23
-1.287285565283867
 33
0.0
 14
5.650217514046829
 24
3.008645935393929
 34
0.0
 15
-0.0000000000000007
 25
-1.875
 35
0.0
 16
4.870675228791179
 26
14.20016645007591
 36
0.0
1001
ACAD
1000
DSTYLE
1002
{
1070
   271
1070
     0
1002
}
  0
LINE
  5
1E0A6
330
1F
100
AcDbEntity
  8
AM_0
100
AcDbLine
 10
149.0
 20
-62.88438323800912
 30
0.0
 11
149.0
 21
-65.98646747635279
 31
0.0
  0
LINE
  5
1E0A7
330
1F
100
AcDbEntity
  8
AM_0
100
AcDbLine
 10
150.0
 20
-63.88438323800909
 30
0.0
 11
150.0
 21
-72.88438323800914
 31
0.0
  0
SPLINE
  5
1E0A8
330
1F
100
AcDbEntity
  8
AM_0
100
AcDbSpline
210
0.0
220
0.0
230
1.0
 70
    12
 71
     2
 72
     6
 73
     3
 74
     0
 42
0.0000000001
 43
0.0000000001
 40
0.0
 40
0.0
 40
0.0
 40
4.898979485566359
 40
4.898979485566359
 40
4.898979485566359
 10
149.0
 20
-65.98646747635279
 30
0.0
 41
1.0
 10
149.9583333333334
 20
-68.38438323800914
 30
0.0
 41
1.090909090909102
 10
149.0
 20
-70.78229899966549
 30
0.0
 41
1.0
  0
LINE
  5
1E0A9
330
1F
100
AcDbEntity
  8
AM_0
100
AcDbLine
 10
149.0
 20
-70.78229899966549
 30
0.0
 11
149.0
 21
-73.88438323800914
 31
0.0
  0
LINE
  5
1E0AA
330
1F
100
AcDbEntity
  8
AM_0
100
AcDbLine
 10
150.0
 20
-72.88438323800914
 30
0.0
 11
149.0
 21
-73.88438323800914
 31
0.0
  0
LINE
  5
1E0AB
330
1F
100
AcDbEntity
  8
AM_0
100
AcDbLine
 10
150.0
 20
-63.88438323800912
 30
0.0
 11
149.0
 21
-62.88438323800912
 31
0.0
  0
TEXT
  5
1E1D5
330
1F
100
AcDbEntity
  8
AM_6
  6
Continuous
 62
     0
370
    30
100
AcDbText
 10
62.25534886024175
 20
-90.42981406619771
 30
0.0
 40
3.8
  1
S12M-SVJCR0802-16
  7
ACISOTS
100
AcDbText
  0
ENDSEC
  0
SECTION
  2
OBJECTS
  0
DICTIONARY
  5
C
330
0
100
AcDbDictionary
281
     1
  3
ACAD_COLOR
350
ED4C
  3
ACAD_GROUP
350
D
  3
ACAD_LAYOUT
350
1A
  3
ACAD_MATERIAL
350
ED4B
  3
ACAD_MLINESTYLE
350
17
  3
ACAD_PLOTSETTINGS
350
19
  3
ACAD_PLOTSTYLENAME
350
E
  3
ACAD_TABLESTYLE
350
ED4D
  3
AcAmCatalogState
350
1DE06
  3
ACDBHEADERROUNDTRIPXREC
350
1E21C
  3
AcDbVariableDictionary
350
30
  3
ACDMSYSVARMGR
350
1DDD0
  3
ACGREF_MASTER
350
ED5F
  3
ACGREFACAD_MASTER
350
ED87
  3
AcmDictionary
350
4D
  3
ACME_BOM_MANAGER_NAME
350
36
  3
ACME_COMMAND_HISTORY
350
2F
  3
ACME_SCOPE_NAME
350
2E
  3
ACMESTATEMGR
350
3B
  3
AcmeSysVarManager
350
32
  3
AcmSystemVariableManager
350
6A
  3
AD_APPL
350
1DDF7
  3
ADSYSVARMGR
350
ED91
  3
AmdtNamedDwgMgr
350
1DDEC
  3
AMG
350
3F
  3
AMGSNAPSETTINGS
350
73
  3
AMI_MASTER
350
ED8A
  3
AUTOCAD_ASSEMBLIES_PROJECT
350
1DDFA
  3
Designer_Assemblies_SysVars
350
ED95
  3
DWGPROPS
350
1E21F
  3
FILENAME
350
217A
  3
GREFAM_MODULE
350
1DDF1
  3
ZWKSIZE
350
217C
  0
DICTIONARY
  5
EDC8
330
2
100
AcDbDictionary
280
     1
281
     1
  3
ACAD_LAYERFILTERS
360
1DA7C
  3
ACAD_LAYERSTATES
360
F5B5
  3
AMLAYER_GROUPCOLORS
360
EDC9
  0
DICTIONARY
  5
165
330
1F
100
AcDbDictionary
280
     1
281
     1
  3
ACAD_SORTENTS
360
F11C
  0
DICTIONARY
  5
ED4C
102
{ACAD_REACTORS
330
C
102
}
330
C
100
AcDbDictionary
281
     1
  0
DICTIONARY
  5
D
102
{ACAD_REACTORS
330
C
102
}
330
C
100
AcDbDictionary
281
     1
  0
DICTIONARY
  5
1A
102
{ACAD_REACTORS
330
C
102
}
330
C
100
AcDbDictionary
281
     1
  3
Model
350
22
  3
ﾚｲｱｳﾄ1
350
1E
  3
ﾚｲｱｳﾄ2
350
26
  0
DICTIONARY
  5
ED4B
102
{ACAD_REACTORS
330
C
102
}
330
C
100
AcDbDictionary
281
     1
  0
DICTIONARY
  5
17
102
{ACAD_REACTORS
330
C
102
}
330
C
100
AcDbDictionary
281
     1
  3
Standard
350
18
  0
DICTIONARY
  5
19
102
{ACAD_REACTORS
330
C
102
}
330
C
100
AcDbDictionary
281
     1
  0
ACDBDICTIONARYWDFLT
  5
E
102
{ACAD_REACTORS
330
C
102
}
330
C
100
AcDbDictionary
281
     1
  3
Normal
350
F
100
AcDbDictionaryWithDefault
340
F
  0
DICTIONARY
  5
ED4D
102
{ACAD_REACTORS
330
C
102
}
330
C
100
AcDbDictionary
281
     1
  3
Standard
350
ED4E
  0
ACAD_PROXY_OBJECT
  5
1DE06
102
{ACAD_REACTORS
330
C
102
}
330
C
100
AcDbProxyObject
 90
      499
 91
      571
 95
       25
 70
     0
 93
      320
310
3FFFFFFFE00A028140289221D2E31B0B2483ECB652E29AB676CE06F16C0090200C1BBDCCEC8F10AA
  0
DICTIONARY
  5
1E21C
102
{ACAD_REACTORS
330
C
102
}
330
C
100
AcDbDictionary
281
     1
  3
COLORDICT
350
1E21D
  3
MATERIALDICT
350
1E21E
  0
DICTIONARY
  5
30
102
{ACAD_REACTORS
330
C
102
}
330
C
100
AcDbDictionary
281
     1
  3
CTABLESTYLE
350
EE09
  3
HIDETEXT
350
1E21B
  3
INDEXCTL
350
1E21A
  3
PROJECTNAME
350
19CFE
  0
ACAD_PROXY_OBJECT
  5
1DDD0
102
{ACAD_REACTORS
330
C
102
}
330
C
100
AcDbProxyObject
 90
      499
 91
      507
 95
       25
 70
     0
 93
      240
310
4C51A47A0000000000000000000000000000000000000000000000000000
330
1DDD1
330
1DDD2
330
1DDD3
330
1DDD4
330
1DDD5
330
1DDD6
330
1DDD7
330
1DDD8
330
1DDD9
330
1DDDA
330
1DDDB
330
1DDDC
330
1DDDD
330
1DDDE
330
1DDDF
330
1DDE0
330
1DDE1
330
1DDE2
330
1DDE3
330
1DDE4
330
1DDE5
330
1DDE6
330
1DDE7
330
1DDE8
330
1DDE9
330
1DDEA
 94
        0
  0
ACAD_PROXY_OBJECT
  5
ED5F
102
{ACAD_REACTORS
330
C
102
}
330
C
100
AcDbProxyObject
 90
      499
 91
      535
 95
       25
 70
     0
 93
       34
310
0400004280
  0
ACAD_PROXY_OBJECT
  5
ED87
102
{ACAD_REACTORS
330
C
102
}
330
C
100
AcDbProxyObject
 90
      499
 91
      541
 95
       25
 70
     0
 93
      114
310
04000041C080000000000000000000
  0
DICTIONARY
  5
4D
102
{ACAD_REACTORS
330
C
102
}
330
C
100
AcDbDictionary
281
     1
  3
AcmBOMDATA
350
4E
  3
AcmStdDictionary
350
17E
  3
AMDTSECTSYM_ARROWCOLOR
350
EDA8
  0
ACAD_PROXY_OBJECT
  5
36
102
{ACAD_REACTORS
330
C
102
}
330
C
100
AcDbProxyObject
 90
      499
 91
      510
 95
       25
 70
     0
 93
       50
310
00010040400000
330
0
330
0
330
37
 94
        0
  0
ACAD_PROXY_OBJECT
  5
2F
102
{ACAD_REACTORS
330
C
102
}
330
C
100
AcDbProxyObject
 90
      499
 91
      505
 95
       25
 70
     0
 93
     6342
310
4780504554E444F80504554E444F805044D4F5645805055153415645404052D4D5347202D205050413A2020206465736B746F702E6172782046696C6556657273696F6E3A20392E322E302E3401415454D05591501014B5354D1C80B481414104E88080819195CDADD1BDC0B985C9E08119A5B1955995C9CDA5BDB8E880E4B
310
8C8B8C0B8D005055153415645404052D4D5347202D205050413A2020206465736B746F702E6172782046696C6556657273696F6E3A20392E322E302E3401415454D05591501014B5354D1C80B481414104E88080819195CDADD1BDC0B985C9E08119A5B1955995C9CDA5BDB8E880E4B8C8B8C0B8D005055153415645404052
310
D4D5347202D205050413A2020206465736B746F702E6172782046696C6556657273696F6E3A20392E322E302E3401415454D05591501014B5354D1C80B481414104E88080819195CDADD1BDC0B985C9E08119A5B1955995C9CDA5BDB8E880E4B8C8B8C0B8D005055153415645404052D4D5347202D205050413A2020206465
310
736B746F702E6172782046696C6556657273696F6E3A20392E322E302E3401415454D05591501014B5354D1C80B481414104E88080819195CDADD1BDC0B985C9E08119A5B1955995C9CDA5BDB8E880E4B8C8B8C0B8D0050E414D4454524553455444424D4F4440805084E202D20554E444F014213880B4815539113C050455
310
4E444F80504554E444F805095041535445434C4950805064D544544495440405184D5347202D20436F6D6D616E642043414E43454C4C45442E01419111115112552014151549054D1601411353D591601411353D5916014151549054D16014151549054D16014151549054D160141D156141313D11150101461354D1C80B48
310
10DBDB5B585B990810D05390D1531311510B805055055524745805045A4F4F4D805045A4F4F4D805055153415645404052D4D5347202D205050413A2020206465736B746F702E6172782046696C6556657273696F6E3A20392E322E302E34014154155491D1601415454D05591501014B5354D1C80B481414104E880808191
310
95CDADD1BDC0B985C9E08119A5B1955995C9CDA5BDB8E880E4B8C8B8C0B8D0
  0
ACAD_PROXY_OBJECT
  5
2E
102
{ACAD_REACTORS
330
C
102
}
330
C
100
AcDbProxyObject
 90
      499
 91
      504
 95
       25
 70
     0
 93
      810
310
09000046408000000000000000001505520000000000000000000000000000000000000000000000000000000000000000000000000000000000000000000000000000000000000000000000000000000000000000000000000000000000000000AAA406AA80
360
33
360
34
360
35
360
37
360
6B
360
6C
360
ED68
360
ED69
360
ED6A
360
ED6B
360
ED6C
360
ED6D
360
ED6E
360
ED6F
360
ED70
360
ED71
360
ED72
360
ED73
360
ED74
360
ED75
360
ED76
360
ED77
360
ED78
360
ED79
360
ED7A
360
ED7B
360
ED7C
360
ED7D
360
ED7E
360
ED7F
360
ED80
360
ED81
360
ED96
360
ED97
360
ED98
360
ED99
360
EDCB
360
1DBCC
360
1DDC9
360
1DDCA
360
1DDCB
360
1DDCC
360
1DDCD
360
1DDCE
360
1DDD1
360
1DDD2
360
1DDD3
360
1DDD4
360
1DDD5
360
1DDD6
360
1DDD7
360
1DDD8
360
1DDD9
360
1DDDA
360
1DDDB
360
1DDDC
360
1DDDD
360
1DDDE
360
1DDDF
360
1DDE0
360
1DDE1
360
1DDE2
360
1DDE3
360
1DDE4
360
1DDE5
360
1DDE6
360
1DDE7
360
1DDE8
360
1DDE9
360
1DDEA
360
1DDF3
360
1DDF4
360
1DDF5
360
1DDF6
360
1DDFE
360
1DDFF
360
1DE00
360
1DE01
360
1DE02
360
1DE03
 94
        0
  0
ACAD_PROXY_OBJECT
  5
3B
102
{ACAD_REACTORS
330
C
102
}
330
C
100
AcDbProxyObject
 90
      499
 91
      515
 95
       25
 70
     0
 93
       50
310
09000042641280
  0
ACAD_PROXY_OBJECT
  5
32
102
{ACAD_REACTORS
330
C
102
}
330
C
100
AcDbProxyObject
 90
      499
 91
      507
 95
       25
 70
     0
 93
       48
310
903412000000
330
33
330
34
330
35
 94
        0
  0
ACAD_PROXY_OBJECT
  5
6A
102
{ACAD_REACTORS
330
C
102
}
330
C
100
AcDbProxyObject
 90
      499
 91
      507
 95
       25
 70
     0
 93
       48
310
903412000000
330
6B
330
6C
330
EDCB
 94
        0
  0
ACAD_PROXY_OBJECT
  5
1DDF7
102
{ACAD_REACTORS
330
C
102
}
330
C
100
AcDbProxyObject
 90
      499
 91
      551
 95
       25
 70
     0
 93
       42
310
000900004040
330
1DDF3
 94
        0
  0
ACAD_PROXY_OBJECT
  5
ED91
102
{ACAD_REACTORS
330
C
102
}
330
C
100
AcDbProxyObject
 90
      499
 91
      507
 95
       25
 70
     0
 93
        8
310
AA
  0
ACAD_PROXY_OBJECT
  5
1DDEC
102
{ACAD_REACTORS
330
C
102
}
330
C
100
AcDbProxyObject
 90
      499
 91
      540
 95
       25
 70
     0
 93
       42
310
000100005E80
330
1DDC9
 94
        0
  0
DICTIONARY
  5
3F
102
{ACAD_REACTORS
330
C
102
}
330
C
100
AcDbDictionary
281
     1
  3
AcMgSettings
350
40
  3
AMGLAYCFG
350
42
  0
DICTIONARY
  5
73
102
{ACAD_REACTORS
330
C
102
}
330
C
100
AcDbDictionary
281
     1
  3
DIMENSION
350
62F
  3
FEA
350
630
  3
HATCH (1)
350
631
  3
HATCH (2)
350
632
  3
SYMBOLS
350
633
  0
ACAD_PROXY_OBJECT
  5
ED8A
102
{ACAD_REACTORS
330
C
102
}
330
C
100
AcDbProxyObject
 90
      499
 91
      544
 95
       25
 70
     0
 93
       34
310
0500004280
  0
ACAD_PROXY_OBJECT
  5
1DDFA
102
{ACAD_REACTORS
330
C
102
}
330
C
100
AcDbProxyObject
 90
      499
 91
      554
 95
       25
 70
     0
 93
       98
310
0900004E400000000000000000
330
1DE01
330
0
330
1DE02
330
0
330
0
330
0
330
0
330
0
 94
        0
  0
ACAD_PROXY_OBJECT
  5
ED95
102
{ACAD_REACTORS
330
C
102
}
330
C
100
AcDbProxyObject
 90
      499
 91
      507
 95
       25
 70
     0
 93
       56
310
90441600000000
330
ED96
330
ED97
330
ED98
330
ED99
 94
        0
  0
XRECORD
  5
1E21F
102
{ACAD_REACTORS
330
C
102
}
330
C
100
AcDbXrecord
280
     1
  1
DWGPROPS COOKIE
  2

  3

  4

  6

  7

  8

  9

300
AmdtFileType=84
301
=
302
=
303
=
304
=
305
=
306
=
307
=
308
=
309
=
 40
0.0
 41
2451943.235431667
 42
2455468.202936736
  1

 90
        1
  0
DICTIONARY
  5
217A
102
{ACAD_REACTORS
330
C
102
}
330
C
100
AcDbDictionary
281
     1
  3
FILENAME
350
217B
  0
ACAD_PROXY_OBJECT
  5
1DDF1
102
{ACAD_REACTORS
330
C
102
}
330
C
100
AcDbProxyObject
 90
      499
 91
      545
 95
       25
 70
     0
 93
        8
310
05
  0
DICTIONARY
  5
217C
102
{ACAD_REACTORS
330
C
102
}
330
C
100
AcDbDictionary
281
     1
  3
ZWKSIZE
350
217D
  0
DICTIONARY
  5
1DA7C
102
{ACAD_REACTORS
330
EDC8
102
}
330
EDC8
100
AcDbDictionary
280
     1
281
     1
  3
c5
360
1DA7D
  3
GREEN
360
1DA7E
  3
T
360
1DA7F
  3
・・ﾐ瓔蓴鰲ﾊ・1
360
1DA80
  3
・・ﾐ瓔蓴鰲ﾊ・2
360
1DA81
  0
DICTIONARY
  5
F5B5
102
{ACAD_REACTORS
330
EDC8
102
}
330
EDC8
100
AcDbDictionary
281
     1
  0
DICTIONARY
  5
EDC9
102
{ACAD_REACTORS
330
EDC8
102
}
330
EDC8
100
AcDbDictionary
280
     1
281
     1
  3
基本画層グループ
360
EDCA
  0
SORTENTSTABLE
  5
F11C
102
{ACAD_REACTORS
330
165
102
}
330
165
100
AcDbSortentsTable
330
1F
331
0
  5
1DB93
331
17604
  5
17B11
331
1CD19
  5
1CD19
331
1CD1A
  5
1CD1A
331
1CD1B
  5
1CD1B
331
1CD1C
  5
1CD1C
331
1CD1D
  5
1CD1D
331
1CD1E
  5
1CD1E
331
1CD1F
  5
1CD1F
331
1CD20
  5
1CD20
331
1CD21
  5
1CD21
331
1CD22
  5
1CD22
331
1CD23
  5
1CD23
331
1CD24
  5
1CD24
331
1CD25
  5
1CD25
331
1CD26
  5
1CD26
331
1CD27
  5
1CD27
331
1CD28
  5
1CD28
331
1CD29
  5
1CD29
331
1CD2A
  5
1CD2A
331
1CD2B
  5
1CD2B
331
1CD2C
  5
1CD2C
331
1CD2D
  5
1CD2D
331
1CD2E
  5
1CD2E
331
1CD2F
  5
1CD2F
331
1CD30
  5
1CD30
331
1CD31
  5
1CD31
331
1CD32
  5
1CD32
331
1CD33
  5
1CD33
331
1CD34
  5
1CD34
331
1CD35
  5
1CD35
331
1CD36
  5
1CD36
331
1CD37
  5
1CD37
331
1CD38
  5
1CD38
331
1CD39
  5
1CD39
331
1CD3A
  5
1CD3A
331
1CD3B
  5
1CD3B
331
1CD3C
  5
1CD3C
331
1CD3D
  5
1CD3D
331
1CD3E
  5
1CD3E
331
1CD3F
  5
1CD3F
331
1CD40
  5
1CD40
331
1CD41
  5
1CD41
331
1CD42
  5
1CD42
331
1CD43
  5
1CD43
331
1CD44
  5
1CD44
331
1CD45
  5
1CD45
331
1CD46
  5
1CD46
331
1CD47
  5
1CD47
331
1CD48
  5
1CD48
331
1CD49
  5
1CD49
331
1CD4A
  5
1CD4A
331
1CD4B
  5
1CD4B
331
1CD4C
  5
1CD4C
331
1CD4D
  5
1CD4D
331
1CD4E
  5
1CD4E
331
1CD4F
  5
1CD4F
331
1CD50
  5
1CD50
331
1CD51
  5
1CD51
331
1CD52
  5
1CD52
331
1CD53
  5
1CD53
331
1CD54
  5
1CD54
331
1CD55
  5
1CD55
331
1CD56
  5
1CD56
331
1CD57
  5
1CD57
331
1CD58
  5
1CD58
331
1CD59
  5
1CD59
331
1CD5A
  5
1CD5A
331
1CD5B
  5
1CD5B
331
1CD5C
  5
1CD5C
331
1CD5D
  5
1CD5D
331
1CD5E
  5
1CD5E
331
1CD5F
  5
1CD5F
331
1CD60
  5
1CD60
331
1CD61
  5
1CD61
331
1CD62
  5
1CD62
331
1CD63
  5
1CD63
331
1CD64
  5
1CD64
331
1CD65
  5
1CD65
331
1CD66
  5
1CD66
331
1CD67
  5
1CD67
331
1CD68
  5
1CD68
331
1CD69
  5
1CD69
331
1CD6A
  5
1CD6A
331
1CD6B
  5
1CD6B
331
1CD6C
  5
1CD6C
331
1CD6D
  5
1CD6D
331
1CD6E
  5
1CD6E
331
1CD70
  5
1CD70
331
1CD71
  5
1CD71
331
1CD72
  5
1CD72
331
1CD73
  5
1CD73
331
1CD74
  5
1CD74
331
1CD76
  5
1CD76
331
1CD77
  5
1CD77
331
1CD78
  5
1CD78
331
1CD79
  5
1CD79
331
1CD7A
  5
1CD7A
331
1CD7B
  5
1CD7B
331
1CD7C
  5
1CD7C
331
1CD7D
  5
1CD7D
331
1CD7E
  5
1CD7E
331
1CD7F
  5
1CD7F
331
1CD80
  5
1CD80
331
1CD81
  5
1CD81
331
1CD82
  5
1CD82
331
1CD83
  5
1CD83
331
1CD84
  5
1CD84
331
1CD85
  5
1CD85
331
1CD86
  5
1CD86
331
1CD87
  5
1CD87
331
1CD88
  5
1CD88
331
1CD89
  5
1CD89
331
1CD8A
  5
1CD8A
331
1CD8B
  5
1CD8B
331
1CD8C
  5
1CD8C
331
1CD8D
  5
1CD8D
331
1CD8E
  5
1CD8E
331
1CD8F
  5
1CD8F
331
1CD90
  5
1CD90
331
1CD91
  5
1CD91
331
1CD92
  5
1CD92
331
1CD93
  5
1CD93
331
1CD94
  5
1CD94
331
1CD95
  5
1CD95
331
1CD96
  5
1CD96
331
1CD97
  5
1CD97
331
1CD98
  5
1CD98
331
1CD99
  5
1CD99
331
1CD9A
  5
1CD9A
331
1CD9B
  5
1CD9B
331
1CD9C
  5
1CD9C
331
1CD9D
  5
1CD9D
331
1CD9E
  5
1CD9E
331
1CD9F
  5
1CD9F
331
1CDA0
  5
1CDA0
331
1CDA1
  5
1CDA1
331
1CDA2
  5
1CDA2
331
1CDA3
  5
1CDA3
331
1CDA4
  5
1CDA4
331
1CDA5
  5
1CDA5
331
1CDA6
  5
1CDA6
331
1CDA7
  5
1CDA7
331
1CDA8
  5
1CDA8
331
1CDA9
  5
1CDA9
331
1CDAA
  5
1CDAA
331
1CDAB
  5
1CDAB
331
1CDAC
  5
1CDAC
331
1CDAD
  5
1CDAD
331
1CDAE
  5
1CDAE
331
1CDAF
  5
1CDAF
331
1CDB0
  5
1CDB0
331
1CDB1
  5
1CDB1
331
1CDB2
  5
1CDB2
331
1CDB3
  5
1CDB3
331
1CDB4
  5
1CDB4
331
1CDB6
  5
1CDB6
331
1CDB7
  5
1CDB7
331
1CDB8
  5
1CDB8
331
1CDB9
  5
1CDB9
331
1CDBA
  5
1CDBA
331
1CDBB
  5
1CDBB
331
1CDBC
  5
1CDBC
331
1CDBD
  5
1CDBD
331
1CDBE
  5
1CDBE
331
1CDBF
  5
1CDBF
331
1CDC0
  5
1CDC0
331
1CDC1
  5
1CDC1
331
1CDC2
  5
1CDC2
331
1CDC3
  5
1CDC3
331
1CDC4
  5
1CDC4
331
1CDC5
  5
1CDC5
331
1CDC6
  5
1CDC6
331
1CDC7
  5
1CDC7
331
1CDC8
  5
1CDC8
331
1CDC9
  5
1CDC9
331
1CDCA
  5
1CDCA
331
1CDCB
  5
1CDCB
331
1CDCC
  5
1CDCC
331
1CDCD
  5
1CDCD
331
1CDCE
  5
1CDCE
331
1CDCF
  5
1CDCF
331
1CDD0
  5
1CDD0
331
1CDD1
  5
1CDD1
331
1CDD2
  5
1CDD2
331
1CDD3
  5
1CDD3
331
1CDD4
  5
1CDD4
331
1CDD5
  5
1CDD5
331
1CDD6
  5
1CDD6
331
1CDD7
  5
1CDD7
331
1CDD8
  5
1CDD8
331
1CDD9
  5
1CDD9
331
1CDDA
  5
1CDDA
331
1CDDB
  5
1CDDB
331
1CDDC
  5
1CDDC
331
1CDDD
  5
1CDDD
331
1CDDE
  5
1CDDE
331
1CDDF
  5
1CDDF
331
1CDE0
  5
1CDE0
331
1CDE1
  5
1CDE1
331
1CDE2
  5
1CDE2
331
1CDE3
  5
1CDE3
331
1CDE4
  5
1CDE4
331
1CDE5
  5
1CDE5
331
1CDE6
  5
1CDE6
331
1CDE7
  5
1CDE7
331
1CDE8
  5
1CDE8
331
1CDE9
  5
1CDE9
331
1CDEA
  5
1CDEA
331
1CDEB
  5
1CDEB
331
1CDEC
  5
1CDEC
331
1CDED
  5
1CDED
331
1CDEE
  5
1CDEE
331
1CDEF
  5
1CDEF
331
1CDF0
  5
1CDF0
331
1CDF1
  5
1CDF1
331
1CDF2
  5
1CDF2
331
1CDF3
  5
1CDF3
331
1CDF4
  5
1CDF4
331
1CDF5
  5
1CDF5
331
1CDF6
  5
1CDF6
331
1CDF7
  5
1CDF7
331
1CDF8
  5
1CDF8
331
1CDF9
  5
1CDF9
331
1CDFA
  5
1CDFA
331
1CDFB
  5
1CDFB
331
1CDFC
  5
1CDFC
331
1CDFD
  5
1CDFD
331
1CDFE
  5
1CDFE
331
1CDFF
  5
1CDFF
331
1CE00
  5
1CE00
331
1CE08
  5
1CE08
331
1CE09
  5
1CE09
331
1CE0A
  5
1CE0A
331
1CE0B
  5
1CE0B
331
1CE0C
  5
1CE0C
331
1CE0D
  5
1CE0D
331
1CE0E
  5
1CE0E
331
1CE0F
  5
1CE0F
331
1CE10
  5
1CE10
331
1CE11
  5
1CE11
331
1CE12
  5
1CE12
331
1CE14
  5
1CE14
331
1CE15
  5
1CE15
331
1CE16
  5
1CE16
331
1D4C1
  5
1D4C1
331
1D4C2
  5
1D4C2
331
1D4C3
  5
1D4C3
331
1D4C4
  5
1D4C4
331
1D637
  5
1D637
331
1D675
  5
1D675
331
1D69A
  5
1D69A
331
1D6BA
  5
1D6BA
331
1D73F
  5
1D73F
331
1D823
  5
1D823
331
1D84D
  5
1D84D
331
1D84E
  5
1D84E
331
1D84F
  5
1D84F
331
1D850
  5
1D850
331
1D85E
  5
1D85E
331
1D864
  5
1D864
331
1D8E8
  5
1D8E8
331
1D8F8
  5
1D8F8
331
1D982
  5
1D982
331
1D990
  5
1D990
331
1D99E
  5
1D99E
331
1D99F
  5
1D99F
331
1D9A0
  5
1D9A0
331
1D9A1
  5
1D9A1
331
1D9B3
  5
1D9B3
331
1D9D7
  5
1D9D7
331
1DA76
  5
1DA76
331
1DA77
  5
1DA77
331
1DA78
  5
1DA78
331
1DA79
  5
1DA79
331
1DBE6
  5
1DBE6
331
1DFC6
  5
1DFC6
  0
LAYOUT
  5
22
102
{ACAD_REACTORS
330
1A
102
}
330
1A
100
AcDbPlotSettings
  1

  2
SII LP-2150 (D-SCAN C2)
  4
User119
  6
AM_VIEW1
 40
3.174999952316284
 41
3.174999952316284
 42
3.175003051757813
 43
3.17498779296875
 44
210.0579986572266
 45
296.9259948730469
 46
0.0
 47
0.0
 48
0.0
 49
0.0
140
297.0
141
210.0
142
1.0
143
1.030887370555453
 70
 11952
 72
     1
 73
     1
 74
     4
  7
sei_cad.ctb
 75
     0
147
0.9700380745388213
148
0.0
149
0.0
100
AcDbLayout
  1
Model
 70
     1
 71
     0
 10
0.0
 20
0.0
 11
12.0
 21
9.0
 12
0.0
 22
0.0
 32
0.0
 14
0.0
 24
0.0
 34
0.0
 15
0.0
 25
0.0
 35
0.0
146
0.0
 13
0.0
 23
0.0
 33
0.0
 16
1.0
 26
0.0
 36
0.0
 17
0.0
 27
1.0
 37
0.0
 76
     0
330
1F
1001
ACAD_PSEXT
1000
SII LP-2150 (D-SCAN C2)
1000
SII LP-2150 (D-SCAN C2)
1000
133.153.16.130#3000
1000

1070
     0
  0
LAYOUT
  5
1E
102
{ACAD_REACTORS
330
1A
102
}
330
1A
100
AcDbPlotSettings
  1

  2
Canon LASER SHOT LBP-2030
  4

  6

 40
0.0
 41
0.0
 42
0.0
 43
0.0
 44
0.0
 45
0.0
 46
0.0
 47
0.0
 48
0.0
 49
0.0
140
0.0
141
0.0
142
1.0
143
1.0
 70
   688
 72
     0
 73
     0
 74
     5
  7
sei_cad.ctb
 75
    16
147
1.0
148
0.0
149
0.0
100
AcDbLayout
  1
ﾚｲｱｳﾄ1
 70
     1
 71
     1
 10
0.0
 20
0.0
 11
420.0
 21
297.0
 12
0.0
 22
0.0
 32
0.0
 14
1.000000000000000E+20
 24
1.000000000000000E+20
 34
1.000000000000000E+20
 15
-1.000000000000000E+20
 25
-1.000000000000000E+20
 35
-1.000000000000000E+20
146
0.0
 13
0.0
 23
0.0
 33
0.0
 16
1.0
 26
0.0
 36
0.0
 17
0.0
 27
1.0
 37
0.0
 76
     0
330
1B
  0
LAYOUT
  5
26
102
{ACAD_REACTORS
330
1A
102
}
330
1A
100
AcDbPlotSettings
  1

  2
Canon LASER SHOT LBP-2030
  4

  6

 40
0.0
 41
0.0
 42
0.0
 43
0.0
 44
0.0
 45
0.0
 46
0.0
 47
0.0
 48
0.0
 49
0.0
140
0.0
141
0.0
142
1.0
143
1.0
 70
   688
 72
     0
 73
     0
 74
     5
  7
sei_cad.ctb
 75
    16
147
1.0
148
0.0
149
0.0
100
AcDbLayout
  1
ﾚｲｱｳﾄ2
 70
     1
 71
     2
 10
0.0
 20
0.0
 11
12.0
 21
9.0
 12
0.0
 22
0.0
 32
0.0
 14
0.0
 24
0.0
 34
0.0
 15
0.0
 25
0.0
 35
0.0
146
0.0
 13
0.0
 23
0.0
 33
0.0
 16
1.0
 26
0.0
 36
0.0
 17
0.0
 27
1.0
 37
0.0
 76
     0
330
23
  0
MLINESTYLE
  5
18
102
{ACAD_REACTORS
330
17
102
}
330
17
100
AcDbMlineStyle
  2
STANDARD
 70
     0
  3

 62
   256
 51
90.0
 52
90.0
 71
     2
 49
0.5
 62
   256
  6
BYLAYER
 49
-0.5
 62
   256
  6
BYLAYER
  0
ACDBPLACEHOLDER
  5
F
102
{ACAD_REACTORS
330
E
102
}
330
E
  0
TABLESTYLE
  5
ED4E
102
{ACAD_REACTORS
330
ED4D
102
}
330
ED4D
100
AcDbTableStyle
  3
Standard
 70
     0
 71
     0
 40
1.5
 41
1.5
280
     0
281
     0
  7
STANDARD
140
4.5
170
     2
 62
     0
 63
     7
283
     0
274
    -2
284
     1
 64
     0
275
    -2
285
     1
 65
     0
276
    -2
286
     1
 66
     0
277
    -2
287
     1
 67
     0
278
    -2
288
     1
 68
     0
279
    -2
289
     1
 69
     0
  7
STANDARD
140
6.0
170
     5
 62
     0
 63
     7
283
     0
274
    -2
284
     1
 64
     0
275
    -2
285
     1
 65
     0
276
    -2
286
     1
 66
     0
277
    -2
287
     1
 67
     0
278
    -2
288
     1
 68
     0
279
    -2
289
     1
 69
     0
  7
STANDARD
140
4.5
170
     5
 62
     0
 63
     7
283
     0
274
    -2
284
     1
 64
     0
275
    -2
285
     1
 65
     0
276
    -2
286
     1
 66
     0
277
    -2
287
     1
 67
     0
278
    -2
288
     1
 68
     0
279
    -2
289
     1
 69
     0
  0
XRECORD
  5
1E21D
102
{ACAD_REACTORS
330
1E21C
102
}
330
1E21C
100
AcDbXrecord
280
     1
340
ED4C
  0
XRECORD
  5
1E21E
102
{ACAD_REACTORS
330
1E21C
102
}
330
1E21C
100
AcDbXrecord
280
     1
340
ED4B
  0
DICTIONARYVAR
  5
EE09
102
{ACAD_REACTORS
330
30
102
}
330
30
100
DictionaryVariables
280
     0
  1
STANDARD
  0
DICTIONARYVAR
  5
1E21B
102
{ACAD_REACTORS
330
30
102
}
330
30
100
DictionaryVariables
280
     0
  1
0
  0
DICTIONARYVAR
  5
1E21A
102
{ACAD_REACTORS
330
30
102
}
330
30
100
DictionaryVariables
280
     0
  1
1
  0
DICTIONARYVAR
  5
19CFE
102
{ACAD_REACTORS
330
30
102
}
330
30
100
DictionaryVariables
280
     0
  1

  0
ACAD_PROXY_OBJECT
  5
4E
102
{ACAD_REACTORS
330
4D
102
}
330
4D
100
AcDbProxyObject
 90
      499
 91
      520
 95
       25
 70
     0
 93
      118
310
405010040CA904C415CD5B075DD278
350
4F
 94
        0
  0
DICTIONARY
  5
17E
102
{ACAD_REACTORS
330
4D
102
}
330
4D
100
AcDbDictionary
281
     1
  3
ANSI
350
1B651
  3
ISO
350
F94D
  3
JIS
350
17F
  0
XRECORD
  5
EDA8
102
{ACAD_REACTORS
330
4D
102
}
330
4D
100
AcDbXrecord
280
     1
 90
-1023410169
  0
ACAD_PROXY_OBJECT
  5
33
330
2E
100
AcDbProxyObject
 90
      499
 91
      508
 95
       25
 70
     0
 93
      156
310
00010143D050D351505391D5531054925390D490
330
2E
 94
        0
  0
ACAD_PROXY_OBJECT
  5
34
330
2E
100
AcDbProxyObject
 90
      499
 91
      508
 95
       25
 70
     0
 93
      148
310
000101439050D351531253915054925390D490
330
2E
 94
        0
  0
ACAD_PROXY_OBJECT
  5
35
330
2E
100
AcDbProxyObject
 90
      499
 91
      509
 95
       25
 70
     0
 93
      156
310
000101439050D35154D6535093D314D256915080
330
2E
 94
        0
  0
ACAD_PROXY_OBJECT
  5
37
330
2E
100
AcDbProxyObject
 90
      499
 91
      511
 95
       25
 70
     0
 93
       88
310
000101411093D34C402B00
330
2E
330
0
330
0
 94
        0
  0
ACAD_PROXY_OBJECT
  5
6B
330
2E
100
AcDbProxyObject
 90
      499
 91
      509
 95
       25
 70
     0
 93
      108
310
00010142505351D153D35054D4E0
330
2E
 94
        0
  0
ACAD_PROXY_OBJECT
  5
6C
330
2E
100
AcDbProxyObject
 90
      499
 91
      522
 95
       25
 70
     0
 93
      140
310
00010142105350D55494D511005034A49530
330
2E
 94
        0
  0
ACAD_PROXY_OBJECT
  5
ED68
330
2E
100
AcDbProxyObject
 90
      499
 91
      509
 95
       25
 70
     0
 93
      108
310
000101421053521310D05310D010
330
2E
 94
        0
  0
ACAD_PROXY_OBJECT
  5
ED69
330
2E
100
AcDbProxyObject
 90
      499
 91
      509
 95
       25
 70
     0
 93
      124
310
00010142905354915554D15112535010
330
2E
 94
        0
  0
ACAD_PROXY_OBJECT
  5
ED6A
330
2E
100
AcDbProxyObject
 90
      499
 91
      509
 95
       25
 70
     0
 93
      132
310
00010143105354D150D51253D391125360
330
2E
 94
        0
  0
ACAD_PROXY_OBJECT
  5
ED6B
330
2E
100
AcDbProxyObject
 90
      499
 91
      509
 95
       25
 70
     0
 93
      124
310
00010142905355941093D49111549010
330
2E
 94
        0
  0
ACAD_PROXY_OBJECT
  5
ED6C
330
2E
100
AcDbProxyObject
 90
      499
 91
      509
 95
       25
 70
     0
 93
      116
310
0001014290535115D1D0D3D313D4A0
330
2E
 94
        0
  0
ACAD_PROXY_OBJECT
  5
ED6D
330
2E
100
AcDbProxyObject
 90
      499
 91
      509
 95
       25
 70
     0
 93
      148
310
00010143505355925155D49151949154D21010
330
2E
 94
        0
  0
ACAD_PROXY_OBJECT
  5
ED6E
330
2E
100
AcDbProxyObject
 90
      499
 91
      509
 95
       25
 70
     0
 93
      172
310
00010144105350539393D51154149154D15495915010
330
2E
 94
        0
  0
ACAD_PROXY_OBJECT
  5
ED6F
330
2E
100
AcDbProxyObject
 90
      499
 91
      509
 95
       25
 70
     0
 93
      172
310
00010144105350555513D11253505494905391D15010
330
2E
 94
        0
  0
ACAD_PROXY_OBJECT
  5
ED70
330
2E
100
AcDbProxyObject
 90
      499
 91
      509
 95
       25
 70
     0
 93
      124
310
00010142D05351561514915191125360
330
2E
 94
        0
  0
ACAD_PROXY_OBJECT
  5
ED71
330
2E
100
AcDbProxyObject
 90
      499
 91
      509
 95
       25
 70
     0
 93
      132
310
00010142D05355105410539393D5115010
330
2E
 94
        0
  0
ACAD_PROXY_OBJECT
  5
ED72
330
2E
100
AcDbProxyObject
 90
      499
 91
      509
 95
       25
 70
     0
 93
      108
310
00010142105350555513D0D31010
330
2E
 94
        0
  0
ACAD_PROXY_OBJECT
  5
ED73
330
2E
100
AcDbProxyObject
 90
      499
 91
      509
 95
       25
 70
     0
 93
      108
310
00010142105350D3119150551050
330
2E
 94
        0
  0
ACAD_PROXY_OBJECT
  5
ED74
330
2E
100
AcDbProxyObject
 90
      499
 91
      509
 95
       25
 70
     0
 93
      108
310
00010142105350D315925155D3F0
330
2E
 94
        0
  0
ACAD_PROXY_OBJECT
  5
ED75
330
2E
100
AcDbProxyObject
 90
      499
 91
      509
 95
       25
 70
     0
 93
      148
310
0001014350535212511156915493D112535010
330
2E
 94
        0
  0
ACAD_PROXY_OBJECT
  5
ED76
330
2E
100
AcDbProxyObject
 90
      499
 91
      509
 95
       25
 70
     0
 93
      124
310
00010142905352105510D21254D3D010
330
2E
 94
        0
  0
ACAD_PROXY_OBJECT
  5
ED77
330
2E
100
AcDbProxyObject
 90
      499
 91
      509
 95
       25
 70
     0
 93
      148
310
00010143905354D25391D31152105513105660
330
2E
 94
        0
  0
ACAD_PROXY_OBJECT
  5
ED78
330
2E
100
AcDbProxyObject
 90
      499
 91
      509
 95
       25
 70
     0
 93
      124
310
00010142D0535115D1D193111254D420
330
2E
 94
        0
  0
ACAD_PROXY_OBJECT
  5
ED79
330
2E
100
AcDbProxyObject
 90
      499
 91
      509
 95
       25
 70
     0
 93
      100
310
00010142105350555513D213A0
330
2E
 94
        0
  0
ACAD_PROXY_OBJECT
  5
ED7A
330
2E
100
AcDbProxyObject
 90
      499
 91
      509
 95
       25
 70
     0
 93
      116
310
000101425053521390D3D553951010
330
2E
 94
        0
  0
ACAD_PROXY_OBJECT
  5
ED7B
330
2E
100
AcDbProxyObject
 90
      499
 91
      509
 95
       25
 70
     0
 93
      108
310
0001014210535213941493D29010
330
2E
 94
        0
  0
ACAD_PROXY_OBJECT
  5
ED7C
330
2E
100
AcDbProxyObject
 90
      499
 91
      509
 95
       25
 70
     0
 93
      108
310
0001014210535213951654115070
330
2E
 94
        0
  0
ACAD_PROXY_OBJECT
  5
ED7D
330
2E
100
AcDbProxyObject
 90
      499
 91
      509
 95
       25
 70
     0
 93
      108
310
000101421053521395925155D0F0
330
2E
 94
        0
  0
ACAD_PROXY_OBJECT
  5
ED7E
330
2E
100
AcDbProxyObject
 90
      499
 91
      509
 95
       25
 70
     0
 93
      140
310
00010143505354D150D51253D390D3D41660
330
2E
 94
        0
  0
ACAD_PROXY_OBJECT
  5
ED7F
330
2E
100
AcDbProxyObject
 90
      499
 91
      509
 95
       25
 70
     0
 93
      108
310
00010142105350D3141493D29030
330
2E
 94
        0
  0
ACAD_PROXY_OBJECT
  5
ED80
330
2E
100
AcDbProxyObject
 90
      499
 91
      508
 95
       25
 70
     0
 93
      212
310
00010143905350555513D2105510D21493D500000000000002E400
330
2E
 94
        0
  0
ACAD_PROXY_OBJECT
  5
ED81
330
2E
100
AcDbProxyObject
 90
      499
 91
      509
 95
       25
 70
     0
 93
      156
310
00010143905350555513D2105510D21111551010
330
2E
 94
        0
  0
ACAD_PROXY_OBJECT
  5
ED96
330
2E
100
AcDbProxyObject
 90
      499
 91
      522
 95
       25
 70
     0
 93
      180
310
00010143105050D3D35411119390535140504434F4D500
330
2E
 94
        0
  0
ACAD_PROXY_OBJECT
  5
ED97
330
2E
100
AcDbProxyObject
 90
      499
 91
      522
 95
       25
 70
     0
 93
      212
310
0001014390505193D311115491119390535140506466F6C6465720
330
2E
 94
        0
  0
ACAD_PROXY_OBJECT
  5
ED98
330
2E
100
AcDbProxyObject
 90
      499
 91
      522
 95
       25
 70
     0
 93
      180
310
00010143105050539393D1119390535140504284156290
330
2E
 94
        0
  0
ACAD_PROXY_OBJECT
  5
ED99
330
2E
100
AcDbProxyObject
 90
      499
 91
      522
 95
       25
 70
     0
 93
      436
310
00010143905050D3D35415925155D31254D50052295BD96CA0A90B396CA0A894591A496CA0A8DB691A496CA0A89BA96CA0A95E28F95310
330
2E
 94
        0
  0
ACAD_PROXY_OBJECT
  5
EDCB
330
2E
100
AcDbProxyObject
 90
      499
 91
      509
 95
       25
 70
     0
 93
      140
310
0001014350535311D0D3D313D49353D11160
330
2E
 94
        0
  0
ACAD_PROXY_OBJECT
  5
1DBCC
330
2E
100
AcDbProxyObject
 90
      499
 91
      591
 95
       25
 70
     0
 93
       28
310
00014060
330
2E
 94
        0
  0
ACAD_PROXY_OBJECT
  5
1DDC9
330
2E
100
AcDbProxyObject
 90
      499
 91
      536
 95
       25
 70
     0
 93
      358
310
0001014124FEA55D00507392E322E302E32014124FEA55D00507392E322E302E3240501000041505391D311658
330
2E
330
1DDCA
330
1DDD0
 94
        0
  0
ACAD_PROXY_OBJECT
  5
1DDCA
330
2E
100
AcDbProxyObject
 90
      499
 91
      537
 95
       25
 70
     0
 93
       56
310
000190240E0000
330
2E
330
1DDCB
330
1DDCD
 94
        0
  0
ACAD_PROXY_OBJECT
  5
1DDCB
330
2E
100
AcDbProxyObject
 90
      499
 91
      538
 95
       25
 70
     0
 93
       48
310
0001AA000000
330
2E
330
1E
330
1DDCC
330
0
 94
        0
  0
ACAD_PROXY_OBJECT
  5
1DDCC
330
2E
100
AcDbProxyObject
 90
      499
 91
      539
 95
       25
 70
     0
 93
       28
310
0001AAA0
330
2E
 94
        0
  0
ACAD_PROXY_OBJECT
  5
1DDCD
330
2E
100
AcDbProxyObject
 90
      499
 91
      538
 95
       25
 70
     0
 93
       48
310
0001AA000000
330
2E
330
26
330
1DDCE
330
0
 94
        0
  0
ACAD_PROXY_OBJECT
  5
1DDCE
330
2E
100
AcDbProxyObject
 90
      499
 91
      539
 95
       25
 70
     0
 93
       28
310
0001AAA0
330
2E
 94
        0
  0
ACAD_PROXY_OBJECT
  5
1DDD1
330
2E
100
AcDbProxyObject
 90
      499
 91
      509
 95
       25
 70
     0
 93
      108
310
000101421053521310D05310D010
330
2E
 94
        0
  0
ACAD_PROXY_OBJECT
  5
1DDD2
330
2E
100
AcDbProxyObject
 90
      499
 91
      509
 95
       25
 70
     0
 93
      124
310
00010142905354915554D15112535010
330
2E
 94
        0
  0
ACAD_PROXY_OBJECT
  5
1DDD3
330
2E
100
AcDbProxyObject
 90
      499
 91
      509
 95
       25
 70
     0
 93
      132
310
00010143105354D150D51253D391125360
330
2E
 94
        0
  0
ACAD_PROXY_OBJECT
  5
1DDD4
330
2E
100
AcDbProxyObject
 90
      499
 91
      509
 95
       25
 70
     0
 93
      124
310
00010142905355941093D49111549010
330
2E
 94
        0
  0
ACAD_PROXY_OBJECT
  5
1DDD5
330
2E
100
AcDbProxyObject
 90
      499
 91
      509
 95
       25
 70
     0
 93
      116
310
0001014290535115D1D0D3D313D4A0
330
2E
 94
        0
  0
ACAD_PROXY_OBJECT
  5
1DDD6
330
2E
100
AcDbProxyObject
 90
      499
 91
      509
 95
       25
 70
     0
 93
      148
310
00010143505355925155D49151949154D21010
330
2E
 94
        0
  0
ACAD_PROXY_OBJECT
  5
1DDD7
330
2E
100
AcDbProxyObject
 90
      499
 91
      509
 95
       25
 70
     0
 93
      172
310
00010144105350539393D51154149154D15495915010
330
2E
 94
        0
  0
ACAD_PROXY_OBJECT
  5
1DDD8
330
2E
100
AcDbProxyObject
 90
      499
 91
      509
 95
       25
 70
     0
 93
      172
310
00010144105350555513D11253505494905391D15010
330
2E
 94
        0
  0
ACAD_PROXY_OBJECT
  5
1DDD9
330
2E
100
AcDbProxyObject
 90
      499
 91
      509
 95
       25
 70
     0
 93
      124
310
00010142D05351561514915191125360
330
2E
 94
        0
  0
ACAD_PROXY_OBJECT
  5
1DDDA
330
2E
100
AcDbProxyObject
 90
      499
 91
      509
 95
       25
 70
     0
 93
      132
310
00010142D05355105410539393D5115010
330
2E
 94
        0
  0
ACAD_PROXY_OBJECT
  5
1DDDB
330
2E
100
AcDbProxyObject
 90
      499
 91
      509
 95
       25
 70
     0
 93
      108
310
00010142105350555513D0D31010
330
2E
 94
        0
  0
ACAD_PROXY_OBJECT
  5
1DDDC
330
2E
100
AcDbProxyObject
 90
      499
 91
      509
 95
       25
 70
     0
 93
      108
310
00010142105350D3119150551050
330
2E
 94
        0
  0
ACAD_PROXY_OBJECT
  5
1DDDD
330
2E
100
AcDbProxyObject
 90
      499
 91
      509
 95
       25
 70
     0
 93
      108
310
00010142105350D315925155D3F0
330
2E
 94
        0
  0
ACAD_PROXY_OBJECT
  5
1DDDE
330
2E
100
AcDbProxyObject
 90
      499
 91
      509
 95
       25
 70
     0
 93
      148
310
0001014350535212511156915493D112535010
330
2E
 94
        0
  0
ACAD_PROXY_OBJECT
  5
1DDDF
330
2E
100
AcDbProxyObject
 90
      499
 91
      509
 95
       25
 70
     0
 93
      124
310
00010142905352105510D21254D3D010
330
2E
 94
        0
  0
ACAD_PROXY_OBJECT
  5
1DDE0
330
2E
100
AcDbProxyObject
 90
      499
 91
      509
 95
       25
 70
     0
 93
      148
310
00010143905354D25391D31152105513105660
330
2E
 94
        0
  0
ACAD_PROXY_OBJECT
  5
1DDE1
330
2E
100
AcDbProxyObject
 90
      499
 91
      509
 95
       25
 70
     0
 93
      124
310
00010142D0535115D1D193111254D420
330
2E
 94
        0
  0
ACAD_PROXY_OBJECT
  5
1DDE2
330
2E
100
AcDbProxyObject
 90
      499
 91
      509
 95
       25
 70
     0
 93
      100
310
00010142105350555513D213A0
330
2E
 94
        0
  0
ACAD_PROXY_OBJECT
  5
1DDE3
330
2E
100
AcDbProxyObject
 90
      499
 91
      509
 95
       25
 70
     0
 93
      116
310
000101425053521390D3D553951010
330
2E
 94
        0
  0
ACAD_PROXY_OBJECT
  5
1DDE4
330
2E
100
AcDbProxyObject
 90
      499
 91
      509
 95
       25
 70
     0
 93
      108
310
0001014210535213941493D29010
330
2E
 94
        0
  0
ACAD_PROXY_OBJECT
  5
1DDE5
330
2E
100
AcDbProxyObject
 90
      499
 91
      509
 95
       25
 70
     0
 93
      108
310
0001014210535213951654115070
330
2E
 94
        0
  0
ACAD_PROXY_OBJECT
  5
1DDE6
330
2E
100
AcDbProxyObject
 90
      499
 91
      509
 95
       25
 70
     0
 93
      108
310
000101421053521395925155D0F0
330
2E
 94
        0
  0
ACAD_PROXY_OBJECT
  5
1DDE7
330
2E
100
AcDbProxyObject
 90
      499
 91
      509
 95
       25
 70
     0
 93
      140
310
00010143505354D150D51253D390D3D41660
330
2E
 94
        0
  0
ACAD_PROXY_OBJECT
  5
1DDE8
330
2E
100
AcDbProxyObject
 90
      499
 91
      509
 95
       25
 70
     0
 93
      108
310
00010142105350D3141493D29030
330
2E
 94
        0
  0
ACAD_PROXY_OBJECT
  5
1DDE9
330
2E
100
AcDbProxyObject
 90
      499
 91
      508
 95
       25
 70
     0
 93
      212
310
00010143905350555513D2105510D21493D500000000000002E400
330
2E
 94
        0
  0
ACAD_PROXY_OBJECT
  5
1DDEA
330
2E
100
AcDbProxyObject
 90
      499
 91
      509
 95
       25
 70
     0
 93
      156
310
00010143905350555513D2105510D21111551010
330
2E
 94
        0
  0
ACAD_PROXY_OBJECT
  5
1DDF3
330
2E
100
AcDbProxyObject
 90
      499
 91
      547
 95
       25
 70
     0
 93
      698
310
0001000000009AA6A9AA4051E546875204D61792032322030363A32303A353520323030382028555443290141CE4B8C8B8C0B8C80518547565205365702032382031333A35323A313320323031300141CE4B8C8B8C0B8C80
330
2E
330
1DDF4
330
1DDF5
330
ED91
330
0
 94
        0
  0
ACAD_PROXY_OBJECT
  5
1DDF4
330
2E
100
AcDbProxyObject
 90
      499
 91
      548
 95
       25
 70
     0
 93
       70
310
0001AAA80820000000
330
2E
330
1DDF4
330
1DDF4
 94
        0
  0
ACAD_PROXY_OBJECT
  5
1DDF5
330
2E
100
AcDbProxyObject
 90
      499
 91
      549
 95
       25
 70
     0
 93
       48
310
000100000000
330
2E
330
0
330
1DDF6
330
0
330
0
 94
        0
  0
ACAD_PROXY_OBJECT
  5
1DDF6
330
2E
100
AcDbProxyObject
 90
      499
 91
      550
 95
       25
 70
     0
 93
       40
310
000100AAAA
330
2E
330
0
 94
        0
  0
ACAD_PROXY_OBJECT
  5
1DDFE
330
2E
100
AcDbProxyObject
 90
      499
 91
      555
 95
       25
 70
     0
 93
       32
310
00010000
330
2E
340
1DDFB
330
1DE00
330
1DDFB
 94
        0
  0
ACAD_PROXY_OBJECT
  5
1DDFF
330
2E
100
AcDbProxyObject
 90
      499
 91
      556
 95
       25
 70
     0
 93
       18
310
000180
330
2E
 94
        0
  0
ACAD_PROXY_OBJECT
  5
1DE00
330
2E
100
AcDbProxyObject
 90
      499
 91
      557
 95
       25
 70
     0
 93
      226
310
0001014454CC4C934B54D59290D48C0E0C0C8B4C4D9050055401550000
330
2E
330
1DDFE
330
1DDFF
 94
        0
  0
ACAD_PROXY_OBJECT
  5
1DE01
330
2E
100
AcDbProxyObject
 90
      499
 91
      558
 95
       25
 70
     0
 93
      178
310
000100AAAAAA81B365816B0352106FD1B70B5F7FF34D40
330
2E
330
1DE00
 94
        0
  0
ACAD_PROXY_OBJECT
  5
1DE02
330
2E
100
AcDbProxyObject
 90
      499
 91
      559
 95
       25
 70
     0
 93
      108
310
000190140A000000000000AAAAA0
330
2E
330
1DE03
330
1DE03
330
1DE03
330
1DE03
330
1DE03
330
0
 94
        0
  0
ACAD_PROXY_OBJECT
  5
1DE03
330
2E
100
AcDbProxyObject
 90
      499
 91
      560
 95
       25
 70
     0
 93
       51
310
00010000AAAA80
330
2E
330
1DE02
330
1DE00
 94
        0
  0
DICTIONARY
  5
40
102
{ACAD_REACTORS
330
3F
102
}
330
3F
100
AcDbDictionary
281
     1
  3
DWGSETTINGS
350
41
  3
FEM
350
69
  3
Shaft
350
56
  3
TRANSSETTINGS
350
4C
  0
ACAD_PROXY_OBJECT
  5
42
102
{ACAD_REACTORS
330
3F
102
}
330
3F
100
AcDbProxyObject
 90
      499
 91
      519
 95
       25
 70
     0
 93
    23232
310
41502491013041105357CC201C00030C011E441013141105357CC603800030C011E441013241105357CCA01400030C011E441013341105357CCE01800030C010D9013441105357CD200C00030C010D9013541105357CD600C00030C010D9013641105357CDA00800030C011E9013741105357CDE01000030C010D901384110
310
5357CE200400030C011E9013941105357CE63F400030C0241102324141505357CC4C201C00030C011E902344141505357CC4C600C00030C010D902495041505357CC4CA01C00030C011E40902304E41505357CC13A01C00030C011E902314E41505357CC53A03800030C011E902324E41505357CC93A01400030C011E90233
310
4E41505357CCD3A01800030C010D902344E41505357CD13A00C00030C010D902354E41505357CD53A00C00030C010D902364E41505357CD93A00800030C011E902374E41505357CDD3A01000030C010D902384E41505357CE13A00400030C011E902394E41505357CE53A3F400030C024110332414E41905357CC4C13A01C0
310
0030C011E90334414E41905357CC4C53A00C00030C010D90349504E41905357CC4C93A01C00030C011E409044B4C494E41505357D0D3200400030C011E42504494E464F42105357D410549151A01000030C010D42D055241484D3541905357D093D4A01C00030C011E425045649455742105357D5925155D4E00400030C011
310
E42D06424548494E4441905357D25395A3F400030C0243505545241494C41505357D514A00C00030C010D4250348494441905357D21251201C00030C011E4250356495341905357D59254E01C00030C011E4250650415244494D42505357D41054911253600C00030C010D4250652454644494D42505357D49151911253601
310
000030C010D425774110531514901348070000C300479034110915312501348000000C0003FFFFFFFD034110921395901398000000C0003FFFFFFFE415092139594D06424548494E448000000C0003FFFFFFFE411093125110234418000000C0003FFFFFFFD03411093D05410234418000000C0003FFFFFFFD03411093D48C
310
9055241484D358010000C30047A411093D48CD055241484D358020000C30047A411093D48D5055241484D358000000C0003FFFFFFFE411093D48DD055241484D3581E0000C30047903411094105410234418000000C0003FFFFFFFD03411094115610234418000000C0003FFFFFFFD034110951112501358000000C0003FFF
310
FFFFD034110D0530C901348000000C0003FFFFFFFE4110D0530CD01348020000C30047A4110D0530D501348070000C30047A4110D0530DD013481E0000C30047A4110D15393901378000000C0003FFFFFFFE4110D15395D01378000000C0003FFFFFFFE4110D312539044B4C494E8000000C0003FFFFFFFE4110D3D38C5013
310
08000000C0003FFFFFFFD034110D3D38C901318000000C0003FFFFFFFD034110D3D38CD01328000000C0003FFFFFFFD034110D3D38D101328000000C0003FFFFFFFD034111115494101348000000C0003FFFFFFFD034111115510501348000000C0003FFFFFFFE4111125051D01358000000C0003FFFFFFFE4111125312501
310
358000000C0003FFFFFFFE411112535410650415244494D8000000C0003FFFFFFFE411112535490652454644494D8000000C0003FFFFFFFE411156135410234418000000C0003FFFFFFFD034111915353901388000000C0003FFFFFFFE415191535413901388030000C3004364151915354D410234418000000C0003FFFFFF
310
FE4151915354D510234418030000C300436415191535593901328000000C0003FFFFFFFE415191535595101328030000C3004364111931055101308000000C0003FFFFFFFD03411194905490234418000000C0003FFFFFFFD034111D49312501358000000C0003FFFFFFFD034111D5931250234418000000C0003FFFFFFFD0
310
34112105510D01388000000C0003FFFFFFFD014112125113901338000000C0003FFFFFFFD034112125115D01338000000C0003FFFFFFFD034112131253901348000000C0003FFFFFFFD01411213D0D3901378000000C0003FFFFFFFE411213D0D5D01378000000C0003FFFFFFFE4112539193D04494E464F8000000C0003FF
310
FFFFFE4113105112501348000000C0003FFFFFFFD034113115051101358000000C0003FFFFFFFE419397D0921395902394E8000000C0003FFFFFFFE419397D0D3D38C502304E8000000C0003FFFFFFFD03419397D0D3D38C902314E8000000C0003FFFFFFFD03419397D0D3D38CD02324E8000000C0003FFFFFFFD03419397
310
D0D3D38D102324E8000000C0003FFFFFFFD03419397D0D15393902374E8000000C0003FFFFFFFE419397D0D15395D02374E8000000C0003FFFFFFFE419397D1125312502354E8000000C0003FFFFFFFE419397D2105510D02384E8000000C0003FFFFFFFD01419397D2125113902334E8000000C0003FFFFFFFD03419397D2
310
125115D02334E8000000C0003FFFFFFFD03419397D3115051102354E8000000C0003FFFFFFFE419397D391D25410349504E8000000C0003FFFFFFFE419397D412105390334414E8000000C0003FFFFFFFE419397D510D3D3902304E8000000C0003FFFFFFFD03419397D5121312502344E8000000C0003FFFFFFFD01419397
310
D5131153902304E8000000C0003FFFFFFFD03419397D516150CD02364E8000000C0003FFFFFFFD03419397D594131250332414E8000000C0003FFFFFFFE411391D25410249508000000C0003FFFFFFFE411410530C9055241484D358010000C30047A411410530CD055241484D358020000C30047A411410530D5055241484
310
D358000000C0003FFFFFFFE411410530DD055241484D3581E0000C30047903411412105390234418000000C0003FFFFFFFE411413D4D3901368070000C30047A419413D4D49151901368050000C30047903411413D4D6101368000000C0003FFFFFFFD03411414D150D0234418000000C0003FFFFFFFD03411490D1D390137
310
8000000C0003FFFFFFFE411490D1D5D01378000000C0003FFFFFFFE4114919112501348000000C0003FFFFFFFD034114945514901348070000C30047903411494D093D01348000000C0003FFFFFFFD034114D09492D01348000000C0003FFFFFFFD014114D0D153901378000000C0003FFFFFFFD034114D150D51013480000
310
00C0003FFFFFFFD014114D15313901378000000C0003FFFFFFFD034114D15315D01378000000C0003FFFFFFFD034114D4D654D01308000000C0003FFFFFFFD034114D51312501348070000C300479034114D6508C501358000000C0003FFFFFFFD034114D6508C901358000000C0003FFFFFFFD034114D6508CD0135802000
310
0C30047A4114D6508D501358070000C300479034114D65353901378000000C0003FFFFFFFD034114D65355D01378000000C0003FFFFFFFD03411510D3D3901308000000C0003FFFFFFFD034115121312501348000000C0003FFFFFFFD01411512550C9055241484D358010000C30047A411512550CD055241484D358020000
310
C30047A411512550D5055241484D358000000C0003FFFFFFFE411512550DD055241484D3581E0000C300479034115131153901308000000C0003FFFFFFFD03415514905253105545241494C8000000C0003FFFFFFFE41151492D3901378000000C0003FFFFFFFD0341151492D5D01378000000C0003FFFFFFFD03411514931
310
2501348000000C0003FFFFFFFD01411516150C501368030000C300436411516150C901368030000C300436411516150CD01368000000C0003FFFFFFFE411516150D501368070000C30047A411516150DD013681E0000C30047A4115925155D04564945578000000C0003FFFFFFFE41159151121034849448000000C0003FFF
310
FFFFD0241159151159035649538000000C0003FFFFFFFD02411594131250232418000000C0003FFFFFFFE4116925690501348000000C0003FFFFFFFD01411354D653501358020000C30047AAAA3F400030C01013F90A4391E41D1E4190D4151E4110D40D0D4091E4051E4791E7F6
340
16
340
16
340
16
340
43
340
16
340
16
340
16
340
44
340
16
340
16
340
44
340
45
340
16
340
16
340
16
340
16
340
43
340
16
340
16
340
16
340
44
340
16
340
16
340
44
340
45
340
16
340
46
340
16
340
16
340
16
340
16
340
16
340
43
340
16
340
16
340
16
340
47
340
15
340
15
340
15
340
15
340
15
340
15
340
15
340
15
340
15
340
15
340
15
340
15
340
15
340
15
340
15
340
15
340
48
340
15
340
15
340
15
340
15
340
15
340
15
340
15
340
15
340
15
340
15
340
15
340
15
340
15
340
15
340
15
340
16
340
15
340
15
340
15
340
15
340
15
340
15
340
15
340
15
340
47
340
15
340
15
340
48
340
15
340
15
340
15
340
15
340
15
340
15
340
15
340
15
340
15
340
48
340
15
340
15
340
15
340
47
340
15
340
15
340
15
340
15
340
15
340
15
340
15
340
15
340
15
340
15
340
15
340
15
340
15
340
15
340
15
340
15
340
15
340
15
340
15
340
48
340
15
340
15
340
48
340
15
340
15
340
16
340
15
340
48
340
15
340
15
340
47
340
15
340
15
340
16
340
15
340
48
340
15
340
15
340
15
340
15
340
15
340
15
340
15
340
15
340
15
340
48
340
15
340
15
340
15
340
15
340
15
340
15
340
15
340
15
340
15
340
15
340
15
340
4B
340
16
 94
        0
  0
ACAD_PROXY_OBJECT
  5
62F
102
{ACAD_REACTORS
330
73
102
}
330
73
100
AcDbProxyObject
 90
      499
 91
      523
 95
       25
 70
     0
 93
      253
310
43D1444494D454E53494F4E2C414D44545F2A5F44494D404A9012A404A9012A0
  0
ACAD_PROXY_OBJECT
  5
630
102
{ACAD_REACTORS
330
73
102
}
330
73
100
AcDbProxyObject
 90
      499
 91
      523
 95
       25
 70
     0
 93
      181
310
43D012A42D05357D191504B505357CA9012A404A9012A8
  0
ACAD_PROXY_OBJECT
  5
631
102
{ACAD_REACTORS
330
73
102
}
330
73
100
AcDbProxyObject
 90
      499
 91
      523
 95
       25
 70
     0
 93
      133
310
43D054841544348404A9012A404A9012A8
  0
ACAD_PROXY_OBJECT
  5
632
102
{ACAD_REACTORS
330
73
102
}
330
73
100
AcDbProxyObject
 90
      499
 91
      523
 95
       25
 70
     0
 93
      549
310
43D044C494E4549CE0B0E138B0A8B4E0B0A8B4E138B105357CE0B105357CE138B0A8B505357CE0B0A8B505357CE139012A404A910494E534552542C5354445041525432448
  0
ACAD_PROXY_OBJECT
  5
633
102
{ACAD_REACTORS
330
73
102
}
330
73
100
AcDbProxyObject
 90
      499
 91
      523
 95
       25
 70
     0
 93
      909
310
43D6641434D46434652414D452C41434D444154554D5441524745542C41434D444154554D49442C41434D57454C4453594D2C41434D5355524653594D2C41434D4645415449442C41434D504152545245462C41434D42414C4C4F4F4E2C414D44544544474553594D404A9012A404A9012A8
  0
XRECORD
  5
217B
102
{ACAD_REACTORS
330
217A
102
}
330
217A
100
AcDbXrecord
280
     1
  1
21000753__00___
  0

  0
XRECORD
  5
217D
102
{ACAD_REACTORS
330
217C
102
}
330
217C
100
AcDbXrecord
280
     1
  1
3
  0

  0
XRECORD
  5
1DA7D
102
{ACAD_REACTORS
330
1DA7C
102
}
330
1DA7C
100
AcDbXrecord
280
     1
  1
c5
  1
*
  1
*
  1
c5
 70
     0
  1
*
  1
*
  0
XRECORD
  5
1DA7E
102
{ACAD_REACTORS
330
1DA7C
102
}
330
1DA7C
100
AcDbXrecord
280
     1
  1
GREEN
  1
*
  1
*
  1
DASHED
 70
     0
  1
*
  1
*
  0
XRECORD
  5
1DA7F
102
{ACAD_REACTORS
330
1DA7C
102
}
330
1DA7C
100
AcDbXrecord
280
     1
  1
T
  1
*
  1
*
  1
*
 70
   256
  1
*
  1
*
  0
XRECORD
  5
1DA80
102
{ACAD_REACTORS
330
1DA7C
102
}
330
1DA7C
100
AcDbXrecord
280
     1
  1
・・ﾐ瓔蓴鰲ﾊ・1
  1
*
  1
120
  1
*
 70
   276
  1
*
  1
*
  0
XRECORD
  5
1DA81
102
{ACAD_REACTORS
330
1DA7C
102
}
330
1DA7C
100
AcDbXrecord
280
     1
  1
・・ﾐ瓔蓴鰲ﾊ・2
  1
*
  1
120;41
  1
*
 70
     0
  1
*
  1
*
  0
XRECORD
  5
EDCA
102
{ACAD_REACTORS
330
EDC9
102
}
330
EDC9
100
AcDbXrecord
280
     1
 90
-1073741824
  0
ACAD_PROXY_OBJECT
  5
4F
102
{ACAD_REACTORS
330
4E
102
}
330
4E
100
AcDbProxyObject
 90
      499
 91
      521
 95
       25
 70
     0
 93
      157
310
057356C1D77406406AA8FFFFFFFF05DD01009010
330
1F
330
0
330
1DE00
 94
        0
  0
ACAD_PROXY_OBJECT
  5
1B651
102
{ACAD_REACTORS
330
17E
102
}
330
17E
100
AcDbProxyObject
 90
      499
 91
      594
 95
       25
 70
     0
 93
     2395
310
5DCB81E85EB51B8BE3F8000000C00041105394D2501640600800030C0200800030C00B81E85EB51B8BE3F48821E8720B1B6A9BAB9332A32BC3A29BA3220480A1282C6DA8C868CA6E8C88120286A0B1B6ABB2B63234B733A9BA3220480A1082C6DA92C8A6E8C88120285A0B1B6A230BA3AB6A9BA3220480A1282C6DA849E9AA
310
6E8C8812028820B6B23A2232BA30B4B629BCB6A9BA3220480A2282DAC8E8A6CAC6E8D2DEDCA6F2DAA6E8C88120288A0B6B23A21B2B73A32B92634B732A9BA3220480A1682DAC8E89CDEE8CAA6E8C88120285A0B1A0B6B3A630BCA9BA3220480A1682C682DACE88D2DAA6E8C88120288A0B1A0B6B3A437B632A1B430B93A29B
310
A3220480A1A82C682DACEA8D2E8D8CAA6E8C88120288A0B6B23A2A343932B0B22634B732A9BA3220480A02812020
340
1B4E3
360
1B652
360
1B653
360
1B654
360
1B655
360
1B656
360
1B657
360
1B658
360
1B659
360
1B65A
360
1B65B
360
1B65C
360
1B65D
360
1B65E
360
1B65F
360
1DE05
340
0
340
0
 94
        0
  0
ACAD_PROXY_OBJECT
  5
F94D
102
{ACAD_REACTORS
330
17E
102
}
330
17E
100
AcDbProxyObject
 90
      499
 91
      577
 95
       25
 70
     0
 93
     2497
310
5DC0000000000000C408030000C30040D254D3D01640600800030C0200800030C000000000000000C40C88A208720B1B6A9BAB9332A32BC3A29BA3220480A1282C6DA8C868CA6E8C88120286A0B1B6ABB2B63234B733A9BA3220480A1082C6DA92C8A6E8C88120285A0B1B6A230BA3AB6A9BA3220480A1282C6DA849E9AA6E
310
8C8812028820B6B23A2232BA30B4B629BCB6A9BA3220480A2282DAC8E8A6CAC6E8D2DEDCA6F2DAA6E8C88120288A0B6B23A21B2B73A32B92634B732A9BA3220480A2282DAC8E8A8D0E4CAC2C898D2DCCAA6E8C88120285A0B6B23A2737BA32A9BA3220480A1682C682DACE98C2F2A6E8C88120285A0B1A0B6B3A234B6A9BA3
310
220480A2282C682DACE90DED8CA86D0C2E4E8A6E8C88120286A0B1A0B6B3AA34BA3632A9BA3220480A1682DAC8E88AC8CECAA6E8C8812032048080
340
F5A9
360
F94F
360
F950
360
F951
360
F952
360
F953
360
F954
360
F955
360
F956
360
F957
360
F958
360
F959
360
F95F
360
F960
360
F961
360
F962
360
1DE04
340
0
340
0
 94
        0
  0
ACAD_PROXY_OBJECT
  5
17F
102
{ACAD_REACTORS
330
17E
102
}
330
17E
100
AcDbProxyObject
 90
      499
 91
      526
 95
       25
 70
     0
 93
     2379
310
5DC33333333333309408000000C00040D29254D01640600800030C0200800030C003333333333330940C8121E8720B1B6A9BAB9332A32BC3A29BA3220480A1282C6DA8C868CA6E8C88120286A0B1B6ABB2B63234B733A9BA3220480A1082C6DA92C8A6E8C88120285A0B1B6A230BA3AB6A9BA3220480A1282C6DA849E9AA6E
310
8C88120286A0B1A0B6B3AA34BA3632A9BA3220480A2082DAC8E888CAE8C2D2D8A6F2DAA6E8C88120288A0B6B23A29B2B1BA34B7B729BCB6A9BA3220480A2282DAC8E886CADCE8CAE498D2DCCAA6E8C88120288A0B6B23A2A343932B0B22634B732A9BA3220480A1682DAC8E89CDEE8CAA6E8C88120285A0B1A0B6B3A630BCA
310
9BA3220480A1682C682DACE88D2DAA6E8C88120288A0B1A0B6B3A437B632A1B430B93A29BA3220480C812020
340
180
360
181
360
182
360
183
360
184
360
185
360
186
360
EDA5
360
EDA6
360
EDA7
360
EDA9
360
EDAA
360
EDAB
360
EDB1
360
EDB2
360
EDB3
340
0
340
0
 94
        0
  0
ACAD_PROXY_OBJECT
  5
41
102
{ACAD_REACTORS
330
40
102
}
330
40
100
AcDbProxyObject
 90
      499
 91
      518
 95
       25
 70
     0
 93
     2994
310
4050B44574753455454494E4753A0E8482A68AA6A88882A069492A684A1A0A723A0A92920ACA0A811B1820C868A9C829C8E82A12686AF87260F862666A8321A2A72224A0A50000000000000182020E868A9C889282A682A106260F86460F8666083A1A2A72224A9AA250000000000000042020C868A9C988A9C94000000000
310
000048808321A2A727A323250000000000000122020E868A9C9E8C8C62940000000000000488083A1A2A727A32319250000000000000122021CC6D0C2DACCCAE4C8D2DADADEC8CA9FC84A1A624A720A92920ACA0A82191718182108698929C8AA8B2A082A0AB098929C8A84A22BA3AAA9A1A0A622A50A0E9882A6A89E84948
310
2A0A62887282648426A0A5A2AB24A2ABA7E8120CA0A68682988A0C00800010652455649534941501304154D0D0531150540CC4E8C5085354414E44415244415034A4953425512535154D5105354128188BCA009D0ADCD050756455253494F4E4150531352E3030441ED115D1D4D15515125391D4D153911F40
  0
ACAD_PROXY_OBJECT
  5
69
102
{ACAD_REACTORS
330
40
102
}
330
40
100
AcDbProxyObject
 90
      499
 91
      518
 95
       25
 70
     0
 93
      411
310
4050346454D21092DCC6E486DECACC942842630BCA3B937BAB820A8320A6AFA322A0A20F688AE8EA68AA8A8929C8EA68A9C88FA0
  0
ACAD_PROXY_OBJECT
  5
56
102
{ACAD_REACTORS
330
40
102
}
330
40
100
AcDbProxyObject
 90
      499
 91
      518
 95
       25
 70
     0
 93
      583
310
40505536861667421292DCE8CAE4E4EAE0E89FA0484A634B3B43A2634B732A7F21A98D2CED0E898D2DCCAACD2CAEE9FC8229B4B232A7E80A20F688AE8EA68AA8A8929C8EA68A9C88FA
  0
ACAD_PROXY_OBJECT
  5
4C
102
{ACAD_REACTORS
330
40
102
}
330
40
100
AcDbProxyObject
 90
      499
 91
      518
 95
       25
 70
     0
 93
      852
310
4050D5452414E5353455454494E4753A2488A482AE929C8EA8A4829CA69882A8929E9C0C00800050D4F524947494E414C4C595F4F4E0600400028529A7AAA921A2A620A723A0A81A52827212AAA0A48AA68AA4AC8A0C0080001107B44574753455454494E4753454E447D0
  0
ACAD_PROXY_OBJECT
  5
1B652
330
1B651
100
AcDbProxyObject
 90
      499
 91
      595
 95
       25
 70
     0
 93
       96
310
5DC20E80A0280A0280A02808
  0
ACAD_PROXY_OBJECT
  5
1B653
330
1B651
100
AcDbProxyObject
 90
      499
 91
      596
 95
       25
 70
     0
 93
      332
310
5DD0E4050140501405014050140501405014050142501405014050140501405012000000000000000400
340
1B4E4
 94
        0
  0
ACAD_PROXY_OBJECT
  5
1B654
330
1B651
100
AcDbProxyObject
 90
      499
 91
      597
 95
       25
 70
     0
 93
      403
310
5DCC199999999999E99F91F4050140501405014050140501405014050140501405014050140501405014050140501405014040
340
0
 94
        0
  0
ACAD_PROXY_OBJECT
  5
1B655
330
1B651
100
AcDbProxyObject
 90
      499
 91
      598
 95
       25
 70
     0
 93
       10
310
5DC0
  0
ACAD_PROXY_OBJECT
  5
1B656
330
1B651
100
AcDbProxyObject
 90
      499
 91
      599
 95
       25
 70
     0
 93
      257
310
5DE290EA22A7D90F49F9353333333333727F44D4CCCCCCCCCDC9FC010000618000
340
1B4D3
340
1B4D4
 94
        0
  0
ACAD_PROXY_OBJECT
  5
1B657
330
1B651
100
AcDbProxyObject
 90
      499
 91
      600
 95
       25
 70
     0
 93
    12981
310
5DD0E411255115350141236025B6901405014069011349A4F2590CB64FD3347454E545241434F2C4A504E2C302C8D8096DA2C47454E54524154582C25732C2847454E4D53472067656E647767203232322940690120281A8AA2CA0282484A4BE52028120280A03202269349E4B2196C9FA668E8A9CA8A482869E5894A09C58
310
605921292F94588E8A9CA8A482A8B0584AE658508E8A9C9AA68E40CECADCC8EECE406464665280D202405044E414D454050496BC914F4051C40640A8BA5C2E97CBE502404CD1D15395149050D3CB1294138B0C0B25AF2453CB11D15395149055160B095CCB0A11D1539354D1C819D95B991DD9C80C8C8D8A50192C3D494628
310
4953424C414E4B28504152543A4E414D45292C424C4F434B3A4E414D452C504152543A4E414D452940480A0A888AA686A480A0921C12D7C80A3A80C81D10782C06030180C8099A3A2A72A2920A1A79625282716181648704B5F1623A2A72A2920AA2C1612B9961423A2A726A9A39033B2B7323BB39019189B94A0248090142
310
14D51053911054911014122D2E29A50147501904A383BFDFEFF5FBFCFD3347454E545241434F2C4A504E2C302C8B4B8A692C47454E54524154582C25732C2847454E4D53472067656E64776720323138294049012028426A0AA22A924A0A62028246EF4BDFA028EA0320B41416D838E9017D9FA668E8A9CA8A482869E5894A
310
09C5860591BBD2F7E588E8A9CA8A482A8B0584AE658508E8A9C9AA68E40CECADCC8EECE406464625280D202405044E4F544540504928D8B4C4051D40641A8BA5C2E97CBE5F23F4CD1D15395149050D3CB1294138B0C0B24A362D30B11D15395149055160B095CCB0A11D1539354D1C819D95B991DD9C80C8C8D4A501A40480
310
A0CAC8A9C889EA480A0D9BBDBB81BD6080A3A80C83D174B85D2F97CBE47E9AA3A2A72A2920A1A79625282716181666EF6EE06F581623A2A72A2920AA2C1612B9961423A2A726A9A39033B2B7323BB39019191A14A0348090141911154D0D48C90141A43825AF880C90147501908A20F0580C0603019013447454E545241434
310
F2C4A504E2C302C90E096BE20322C47454E54524154582C25732C2847454E4D53472067656E6477672033362940490120284A9AA20A72220A922192028345A5C53490192028EA0321347077FBFDFEBF7F9FA6A8E8A9CA8A482869E5894A09C586059169714D24064588E8A9CA8A482A8B0584AE658508E8A9C9AA68E40CECA
310
DCC8EECE4064646052809202405094D4154455249414C32405068DDE97BF20324051D40642A8282DB071D202FB3F4D11D15395149050D3CB1294138B0C0B2377A5EFC80C8B11D15395149055160B095CCB0A11D1539354D1C819D95B991DD9C80D0C0A501240480A089A82A6A680A091D7F2F9480A3A80A0485A0681174B85
310
D2F97CBE47E9923A2A72A2920A1A796252827161816475FCBE51623A2A72A2920AA2C1612B9961423A2A726A9A39033B2B7323BB3901A1914A024809014154149250D150141226FE29A501475014090C409022E970BA5F2F97C8FD3247454E545241434F2C4A504E2C302C89BF8A692C47454E54524154582C25732C284745
310
4E4D53472067656E6477672034332940490120281A224A6A02824850CB202028EA028121A81A045D2E174BE5F2F91FA648E8A9CA8A482869E5894A09C58605921432C80588E8A9CA8A482A8B0584AE658508E8A9C9AA68E40CECADCC8EECE406868528092024050E441022E07A17AD46E338FE07800030C0001018ACD56AB5
310
5AADF63F2B355AAD56AB7D8FD073D3C4954454D3E405018ACD56AB55AADF63F2B355AAD56AB7D8FD073D3C4954454D3E40501890C7E3F1783CEE3F2431F8FC5E0F3B8FD073D3C4954454D3E40501890C7E3F1783CEE3F2431F8FC5E0F3B8FD073D3C4954454D3E405029012B355AAD56AB7D8FCACD56AB55AADF63F41CF4F1
310
25511534F901418F4F1455164F9014062B355AAD56AB7D8FCACD56AB55AADF63F41CF4F125511534F90180100000000000000061978979130481F1073D3C4954454D3E40640400ACD56AB55AADF63F2B355AAD56AB7D8FE88000000000000020810000001800120881A068120480A032208521122080D21480D211480A1485
310
214852050000000000003C2FC000000000000F0BF40600800030C0201C00030C003BDF4F8D976EA23F0EF7D3E365DBA88FCB81E85EB51B8BE3FC80D069014090541D06901A5C0F42F5A8DC5F1FC0100006180403800061804010000618008098A02808
340
0
340
0
 94
        0
  0
ACAD_PROXY_OBJECT
  5
1B658
330
1B651
100
AcDbProxyObject
 90
      499
 91
      601
 95
       25
 70
     0
 93
      994
310
5DC0B81E85EB51B8CE3F4BCF511155105253080F11115510525317D3105091530F971414D0D05311480F11115510525317D05094D4D0D053114F92341C9A9999999999B93F26A666666666724FC000000000000E03F4000000000000004000000000000005100000000000000244081E0000C3002E07A17AD46E338FC0
340
12AC
340
1B4E3
 94
        0
  0
ACAD_PROXY_OBJECT
  5
1B659
330
1B651
100
AcDbProxyObject
 90
      499
 91
      602
 95
       25
 70
     0
 93
      823
310
5DC031703D0BD6A3719C7E999EA9A2A1AA24A7A7101E29A2A1AA24A7A72FA620A122A62FA324A929AA1F169E29A2A1AA24A7A72FA620A122A62FA620A9AA1F1353333333333B27E3FFFE01C00030C008840F000061801353333333333B27F1703D0BD6A3719C7E
340
12AC
340
1B4E3
 94
        0
  0
ACAD_PROXY_OBJECT
  5
1B65A
330
1B651
100
AcDbProxyObject
 90
      499
 91
      603
 95
       25
 70
     0
 93
      280
310
5DC2B8716D9CEF7C33F0A5723F0BD4A2F0FC295C8FC2F528BC3FA199999999999F99FC
  0
ACAD_PROXY_OBJECT
  5
1B65B
330
1B651
100
AcDbProxyObject
 90
      499
 91
      604
 95
       25
 70
     0
 93
     6583
310
5DD084050BA4050AA4050240509C3DDCCDFDAB0C4203140405013D3C696628657175616C28486F6C653A7461707065642C223022292C22252563222C486F6C653A6E6F6D696E616C2022202220696628657175616C28486F6C653A756E6974732C223122292C2278222C222D222920222022293E3C696628657175616C2848
310
6F6C653A7461707065642C223022292C486F6C653A6469612C486F6C653A706974636864657363293E207B5C46414D4744543B787D203C696628657175616C28486F6C653A7465726D696E6174696F6E2C223022292C486F6C653A64657074682C228AD192CA22293E5C507B5C46414D4744543B767D2525633C486F6C653A
310
63746469613E207B5C46414D4744543B787D203C486F6C653A637464657074683E406A4050340509C3DDCCDFDAB0C42031405FE3D3C696628657175616C28486F6C653A7461707065642C223022292C22252563222C486F6C653A6E6F6D696E616C2022202220696628657175616C28486F6C653A756E6974732C223122292
310
C2278222C222D222920222022293E3C696628657175616C28486F6C653A7461707065642C223022292C486F6C653A6469612C486F6C653A706974636864657363293E207B5C46414D4744543B787D203C696628657175616C28486F6C653A7465726D696E6174696F6E2C223022292C486F6C653A64657074682C228AD192C
310
A22293E5C507B5C46414D4744543B777D2525633C486F6C653A63746469613E2058203C486F6C653A6374616E676C653E252564406A4050140509C3DDCCDFDAB0C42031405CF3D3C696628657175616C28486F6C653A7461707065642C223022292C22252563222C486F6C653A6E6F6D696E616C2022202220696628657175
310
616C28486F6C653A756E6974732C223122292C2278222C222D222920222022293E3C696628657175616C28486F6C653A7461707065642C223022292C486F6C653A6469612C486F6C653A706974636864657363293E5C507B5C46414D4744543B787D203C696628657175616C28486F6C653A7465726D696E6174696F6E2C22
310
3022292C486F6C653A64657074682C228AD192CA22293E406A4051E40509C3DDCCDFDAB0C420314050C3D3C535444503A444553433E406A40515AA8AE4
360
0
360
0
360
0
360
0
 94
        0
  0
ACAD_PROXY_OBJECT
  5
1B65C
330
1B651
100
AcDbProxyObject
 90
      499
 91
      568
 95
       25
 70
     0
 93
       26
310
5DD02A80
340
0
 94
        0
  0
ACAD_PROXY_OBJECT
  5
1B65D
330
1B651
100
AcDbProxyObject
 90
      499
 91
      569
 95
       25
 70
     0
 93
      258
310
5DD02000000000000380FC000000000000E03F408F0F9023C3E40DB18CCCFFFF80
340
1B4EC
340
0
340
0
340
1B4ED
340
1B4EE
340
0
340
1B4EF
340
1B4F0
340
1B4F1
340
0
 94
        0
  0
ACAD_PROXY_OBJECT
  5
1B65E
330
1B651
100
AcDbProxyObject
 90
      499
 91
      605
 95
       25
 70
     0
 93
    13621
310
5DD1D023FFFFFFFD010300002E07A17AD46E2F8FE00800030C01010300002E07A17AD46E2F8FE00800030C0005098DC0955782CCD8BDC4014E11D15395149050D3CB1294138B0C0B23702555E0B3362F710B11D15395149055160B095CCB0A11D1539354D1C819D95B991A5B5E880CCC0A78000C0000000000000000000000
310
00000000007B14AE47E17AA43F2E07A17AD46E2F8FE00800030C007B14AE47E17AA43F2E07A17AD46E2F8FE00800030C020143CF4F111959985D5B1D151A5D1B194F805078C8AC3B0CCDED9014D91D15395149050D3CB1294138B0C0B2322B0EC3337B64B11D15395149055160B095CCB0A11D1539354D1C819D95B991A5B5
310
E880CCC4A78000C000000000000000000000000000000007B14AE47E17AA43F2E07A17AD46E2F8FE00800030C007B14AE47E17AA43F2E07A17AD46E2F8FE00800030C020143CF4F111959985D5B1D151A5D1B194F90B4410F4450240D04415014391244D05449074510C4350F000141232D24D7C053247454E545241434F2C
310
4A504E2C302C8CB4935F2C47454E54524154582C25732C2847454E4D53472067656E64696D7A20312900010105002214000282465A49AF80A648E8A9CA8A482869E5894A09C586059196926BE588E8A9CA8A482A8B0584AE658508E8A9C9AA68E40CECADCC8D2DAF4406252000202080043E80005028C8A014C11D15395149
310
050D3CB1294138B0C0B23228B11D15395149055160B095CCB0A11D1539354D1C819D95B991A5B5E880C8A405163D3C486F6C654974656D3E3C486F6C65496E6465783E010104002234000280AC00A5E8E8A9CA8A482869E5894A09C586058B0588E8A9CA8A482A8B0584AE658508E8A9C9AA68E40CECADCC8D2DAF44066520
310
00202000040A800050159014BD1D15395149050D3CB1294138B0C0B164B11D15395149055160B095CCB0A11D1539354D1C819D95B991A5B5E880D0A4000404000081D0000A02A40297A3A2A72A2920A1A796252827161816291623A2A72A2920AA2C1612B9961423A2A726A9A39033B2B73234B6BD101B148000808000104A
310
0001461ED71194D6535093D31F108C1F124C1F10CC9F140C0ED29F4054647454E545241434F2C4A504E2C302C7B5C4653594D424F4C7C42307C49307C43327C50303B4A7D2C47454E54524154582C25732C2847454E4D53472067656E64696D7A203729000101030020B400028246C04B6D00A668E8A9CA8A482869E5894A0
310
9C5860591B012DB4588E8A9CA8A482A8B0584AE658508E8A9C9AA68E40CECADCC8D2DAF4406268520002020A004068000507B2DDC3DEAFB8BD014D91D15395149050D3CB1294138B0C0B2CB770F7ABEE2F4B11D15395149055160B095CCB0A11D1539354D1C819D95B991A5B5E880C4D4A400040414008750000A051914029
310
8A3A2A72A2920A1A79625282716181646451623A2A72A2920AA2C1612B9961423A2A726A9A39033B2B73234B6BD10189B148000808200112A0001426322ACB770F7ABEE2F4053847454E545241434F2C4A504E2C302C8C8AB2DDC3DEAFB8BD2C47454E54524154582C25732C2847454E4D53472067656E64696D7A20313729
310
0001010500227400028141E980A608E8A9CA8A482869E5894A09C58605907A6588E8A9CA8A482A8B0584AE658508E8A9C9AA68E40CECADCC8D2DAF4407052000202020041E8000504909497CA014CD1D15395149050D3CB1294138B0C0B242525F28B11D15395149055160B095CCB0A11D1539354D1C819D95B991A5B5E880
310
C4E4A400040418008A50000A0921C12D7C0299A3A2A72A2920A1A79625282716181648704B5F1623A2A72A2920AA2C1612B9961423A2A726A9A39033B2B73234B6BD10191814800080020010CA00014122D2E29A4053347454E545241434F2C4A504E2C302C8B4B8A692C47454E54524154582C25732C2847454E4D5347206
310
7656E64696D7A20323129000100040021B4878030026A6666666667A4FE064D4CCCCCCCCCF49FC049A9999999999E93F809353333333333D27F0226A6666666667A4FE044D4CCCCCCCCCF49FC009A9999999999D93F801353333333333D27F0026A6666666667A4FE004D4CCCCCCCCCF49FC0D819703D0BD6A371BC7F03000
310
000000000001020633B333333333032050F006004D4CCCCCCCCCF49FC0C9A9999999999E93F819353333333333D27F0326A6666666667A4FE064D4CCCCCCCCCF49FC0C9A9999999999E93F801353333333333B27F0026A6666666667A4FE064D4CCCCCCCCCF49FC009A9999999999E93F81B032E07A17AD46E378FE0600000
310
0000000002040C6766666666660640A088800000021E000000890000002260000008220E00020089000000206000200810000800
340
0
340
0
340
0
340
0
340
0
340
0
 94
        0
  0
ACAD_PROXY_OBJECT
  5
1B65F
330
1B651
100
AcDbProxyObject
 90
      499
 91
      561
 95
       25
 70
     0
 93
     5022
310
5DD9741105394D2506414E53495F4342905394D257D512551554D15414E53495F54525F5265766973696F6E6C697374614191143202831372E307832322E30696E63682941905394D257D0D1146202832382E307834302E30696E63682941905394D257D191142202831312E307831372E30696E63682941905394D257D091
310
144202832322E307833342E30696E63682941905394D257D111145202833342E307834342E30696E63682941905394D257D1510412028382E357831312E30696E63682941905394D257D050543905B9CDA482557247A25E4C81110D0C414E53495F5449544C45444343505B9CDA482557247A25E4C81050B414E53495F5449
310
544C454143905B9CDA482557247A25E4C81050D0C414E53495F5449544C454143425554C82557247A25E4D0A414E53495F544954555343505B9CDA482557247A25E4C81110B414E53495F5449544C45444210D979A97F0D8BDC420415F42525F45505394D257D09497D4995D9A5CDA5BDB9B1A5CDD1850D979A97F0D8BDC42
310
0415F54525F45505394D257D51497D4995D9A5CDA5BDB9B1A5CDD1850D979A97F0D8BDC420445F42525F45505394D257D09497D4995D9A5CDA5BDB9B1A5CDD1910D979A97F0D8BDC420445F54525F45505394D257D51497D4995D9A5CDA5BDB9B1A5CDD1910D979A97F0D8BDC420415F424C5F45505394D257D09317D4995D
310
9A5CDA5BDB9B1A5CDD1850D979A97F0D8BDC420415F544C5F45505394D257D51317D4995D9A5CDA5BDB9B1A5CDD1850D979A97F0D8BDC420445F424C5F45505394D257D09317D4995D9A5CDA5BDB9B1A5CDD1910D979A97F0D8BDC420445F544C5F45505394D257D51317D4995D9A5CDA5BDB9B1A5CDD190
  0
ACAD_PROXY_OBJECT
  5
1DE05
330
1B651
100
AcDbProxyObject
 90
      499
 91
      606
 95
       25
 70
     0
 93
       14
310
5DE4
340
0
 94
        0
  0
ACAD_PROXY_OBJECT
  5
F94F
330
F94D
100
AcDbProxyObject
 90
      499
 91
      579
 95
       25
 70
     0
 93
       96
310
5DEA0E80A0280A0280A0280F
  0
ACAD_PROXY_OBJECT
  5
F950
330
F94D
100
AcDbProxyObject
 90
      499
 91
      580
 95
       25
 70
     0
 93
      272
310
5DD0E4050140501405014050140501405014050140D01405012C0000000000000040
340
F5AA
 94
        0
  0
ACAD_PROXY_OBJECT
  5
F951
330
F94D
100
AcDbProxyObject
 90
      499
 91
      581
 95
       25
 70
     0
 93
      497
310
5DE8666666666667A67E199999999999E99FD22405014050140501405014050140501405014050140501405014050140501405014050140501405014050100
340
F5A5
 94
        0
  0
ACAD_PROXY_OBJECT
  5
F952
330
F94D
100
AcDbProxyObject
 90
      499
 91
      582
 95
       25
 70
     0
 93
       10
310
5DC0
  0
ACAD_PROXY_OBJECT
  5
F953
330
F94D
100
AcDbProxyObject
 90
      499
 91
      583
 95
       25
 70
     0
 93
      257
310
5DE290EA22A7D90F49F80000000000001081400000000000004204010000618000
340
F5A6
340
F5A7
 94
        0
  0
ACAD_PROXY_OBJECT
  5
F954
330
F94D
100
AcDbProxyObject
 90
      499
 91
      584
 95
       25
 70
     0
 93
    13003
310
5DD0E411255115350141236025B690140501406901000000000000091013347454E545241434F2C4A504E2C302C8D8096DA2C47454E54524154582C25732C2847454E4D53472067656E647767203232322940690120281A8AA2CA0282484A4BE52028120280A0320200000000000012202668E8A9CA8A482869E5894A09C58
310
605921292F94588E8A9CA8A482A8B0584AE658508E8A9C9AA68E40CECADCC8EECE406464665280D202405044E414D454050496BC914F4051C40640A80000000000004E404CD1D15395149050D3CB1294138B0C0B25AF2453CB11D15395149055160B095CCB0A11D1539354D1C819D95B991DD9C80C8C8D8A50192C3D494628
310
4953424C414E4B28504152543A4E414D45292C424C4F434B3A4E414D452C504152543A4E414D452940480A0A888AA686A480A09251B1DBE80A3A80C81D0000000000100A28099A3A2A72A2920A1A7962528271618164946C76F9623A2A72A2920AA2C1612B9961423A2A726A9A39033B2B7323BB39019189B94A0348090142
310
14D51053911054911014122D2E29A50147501904A000000000000125013347454E545241434F2C4A504E2C302C8B4B8A692C47454E54524154582C25732C2847454E4D53472067656E64776720323138294069012028426A0AA22A924A0A62028246EF4BDFA028EA0320B40000000000001CA02668E8A9CA8A482869E5894A
310
09C5860591BBD2F7E588E8A9CA8A482A8B0584AE658508E8A9C9AA68E40CECADCC8EECE406464625280D202405044E4F544540504928D8B4C4051D40641A80000000000003E404CD1D15395149050D3CB1294138B0C0B24A362D30B11D15395149055160B095CCB0A11D1539354D1C819D95B991DD9C80C8C8D4A501240480
310
A0CAC8A9C889EA480A1106F1072706BF02B680A3A80C83D00000000000007C809BA3A2A72A2920A1A79625282716181641BC41C9C1AFC0AD9623A2A72A2920AA2C1612B9961423A2A726A9A39033B2B7323BB39019191A14A0248090141911154D0D48C90141A43825AF880C90147501908A000000000020145013447454E5
310
45241434F2C4A504E2C302C90E096BE20322C47454E54524154582C25732C2847454E4D53472067656E6477672033362940490120284A9AA20A72220A922192028345A5C53490192028EA03213400000000000024A026A8E8A9CA8A482869E5894A09C586059169714D24064588E8A9CA8A482A8B0584AE658508E8A9C9AA6
310
8E40CECADCC8EECE4064646052809202405094D4154455249414C32405068DDE97BF20324051D40642A8713D0AD7A37045404D11D15395149050D3CB1294138B0C0B2377A5EFC80C8B11D15395149055160B095CCB0A11D1539354D1C819D95B991DD9C80D0C0A501240480A089A82A6A680A091D7F2F9480A3A80A0485A06
310
8100000000000007C809923A2A72A2920A1A796252827161816475FCBE51623A2A72A2920AA2C1612B9961423A2A726A9A39033B2B7323BB3901A1914A024809014154149250D150141226FE29A501475014090C409020000000000000F9013247454E545241434F2C4A504E2C302C89BF8A692C47454E54524154582C2573
310
2C2847454E4D53472067656E6477672034332940490120281A224A6A02824850CB202028EA028121A81A040000000000001F202648E8A9CA8A482869E5894A09C58605921432C80588E8A9CA8A482A8B0584AE658508E8A9C9AA68E40CECADCC8EECE406868528092024050E445020000000000000510201C00030C0001018
310
0000000000003E400000000000000F901073D3C4954454D3E4050180000000000003E400000000000000F901073D3C4954454D3E40501800000000000034400000000000000D101073D3C4954454D3E40501800000000000034400000000000000D101073D3C4954454D3E405029010000000000000F9000000000000003E4
310
041CF4F125511534F901418F4F1455164F9014060000000000000F9000000000000003E4041CF4F125511534F90183000000021000000383529C00006DAC41073D3C4954454D3E406404000000000000003E400000000000000F90288800000000000020810060001860120881A068120480A032208521122080D21480D211
310
480A1485214852050000000000003C2FC000000000000F0BF40600800030C0201C00030C00CDCCCCCCCCCCEC3F3373333333333B0FC0000000000000C40480D0590140D04416406800000000000018810040001860100400018601002000186002026280A020
340
0
340
0
 94
        0
  0
ACAD_PROXY_OBJECT
  5
F955
330
F94D
100
AcDbProxyObject
 90
      499
 91
      585
 95
       25
 70
     0
 93
      898
310
5DC4000000000000144048CF4F11115510525317D3105091530F880A0F11115510525317D05094D4D0D053114F8A51141C9A9999999999B93F26A666666666724FC000000000000E03F400000000000000400000000000000510000000000000024408070000C300000000000000051000
340
16
340
F5A9
 94
        0
  0
ACAD_PROXY_OBJECT
  5
F956
330
F94D
100
AcDbProxyObject
 90
      499
 91
      586
 95
       25
 70
     0
 93
      823
310
5DC0B00000000000002880959E9E29A2A1AA24A7A72FA620A122A62FA324A929AA1F169E29A2A1AA24A7A72FA620A122A62FA620A9AA1F000000000000048803FFFE01C00030C0088C0380006180000000000000048800000000000000A2000000000000002880
340
652
340
F5A9
 94
        0
  0
ACAD_PROXY_OBJECT
  5
F957
330
F94D
100
AcDbProxyObject
 90
      499
 91
      587
 95
       25
 70
     0
 93
      152
310
5DE80000000000000840A3D0A5723F0BD1F200
  0
ACAD_PROXY_OBJECT
  5
F958
330
F94D
100
AcDbProxyObject
 90
      499
 91
      588
 95
       25
 70
     0
 93
       14
310
5DE0
340
0
 94
        0
  0
ACAD_PROXY_OBJECT
  5
F959
330
F94D
100
AcDbProxyObject
 90
      499
 91
      589
 95
       25
 70
     0
 93
     8579
310
5DD084050BA4050AA405024050E836583938376838C815B836720314043A013D2525633C486F6C653A63746469613E2078203C486F6C653A637464657074683E20555C503C696628657175616C28486F6C653A7461707065642C223022292C22252563222C486F6C653A6E6F6D696E616C202220782022293E3C6966286571
310
75616C28486F6C653A7461707065642C223022292C486F6C653A6469612C486F6C653A706974636864657363293E3C696628657175616C28486F6C653A7461707065642C223122292C22207820222C2222293E3C696628657175616C28486F6C653A7461707065642C223122292C486F6C653A74617064657074682C222229
310
3E203C696628657175616C28486F6C653A7465726D696E6174696F6E2C223022292C22202F20222C2222293E3C696628657175616C28486F6C653A7465726D696E6174696F6E2C223022292C486F6C653A64657074682C2222293E406A405034050E836583938376838C815B836720314043B013D2525633C486F6C653A637
310
46469613E2078203C486F6C653A6374616E676C653E2525645C503C696628657175616C28486F6C653A7461707065642C223022292C22252563222C486F6C653A6E6F6D696E616C202220782022293E3C696628657175616C28486F6C653A7461707065642C223022292C486F6C653A6469612C486F6C653A7069746368646
310
57363293E3C696628657175616C28486F6C653A7461707065642C223122292C22207820222C2222293E3C696628657175616C28486F6C653A7461707065642C223122292C486F6C653A74617064657074682C2222293E203C696628657175616C28486F6C653A7465726D696E6174696F6E2C223022292C22202F20222C222
310
2293E3C696628657175616C28486F6C653A7465726D696E6174696F6E2C223022292C486F6C653A64657074682C2222293E406A405014050E836583938376838C815B8367203140416013D3C696628657175616C28486F6C653A7461707065642C223022292C22252563222C486F6C653A6E6F6D696E616C20222078202229
310
3E3C696628657175616C28486F6C653A7461707065642C223022292C486F6C653A6469612C486F6C653A706974636864657363293E3C696628657175616C28486F6C653A7461707065642C223122292C22207820222C2222293E3C696628657175616C28486F6C653A7461707065642C223122292C486F6C653A7461706465
310
7074682C2222293E203C696628657175616C28486F6C653A7465726D696E6174696F6E2C223022292C22202F20222C2222293E3C696628657175616C28486F6C653A7465726D696E6174696F6E2C223022292C486F6C653A64657074682C2222293E406A4051E4090E836583938376838C815B83672032405173D3C5354445
310
03A444553433E203C535444503A5354443E40690E836583938376838C815B836720314050C3D3C535444503A444553433E406A40515AA8AE40
360
0
360
0
360
0
360
0
360
0
 94
        0
  0
ACAD_PROXY_OBJECT
  5
F95F
330
F94D
100
AcDbProxyObject
 90
      499
 91
      568
 95
       25
 70
     0
 93
       26
310
5DD02A80
340
0
 94
        0
  0
ACAD_PROXY_OBJECT
  5
F960
330
F94D
100
AcDbProxyObject
 90
      499
 91
      569
 95
       25
 70
     0
 93
      250
310
5DD020000000000000A1000000000000002440408F0F9023C3E409A0DCFFFF80
340
F5AE
340
0
340
0
340
F5AF
340
F5B0
340
F5B1
340
F5B2
340
F5B3
340
F5B4
340
0
 94
        0
  0
ACAD_PROXY_OBJECT
  5
F961
330
F94D
100
AcDbProxyObject
 90
      499
 91
      590
 95
       25
 70
     0
 93
    13889
310
5DD1D003FFFFFFFD030300030000000000000310200800030C01030300030000000000000310200800030C00050C8DC0955782CC838A83588367014ED1D15395149050D3CB1294138B0C0B23702555E0B320E2A0D620D9CB11D15395149055160B095CCB0A11D1539354D1C819D95B991A5B5E880CCC0A78000C0000000000
310
00000000000000000000010000000000000310200800030C010000000000000310200800030C020143CF4F111959985D5B1D151A5D1B194F8050A8C8A8365815B8375838B014E51D15395149050D3CB1294138B0C0B2322A0D96056E0DD60E2CB11D15395149055160B095CCB0A11D1539354D1C819D95B991A5B5E880CCC4
310
A78000C000000000000000000000000000000010000000000000310200800030C010000000000000310200800030C020143CF4F111959985D5B1D151A5D1B194F90D44111409034110541D0C4350F4050E44D03449074510F000141232D24D7C053247454E545241434F2C4A504E2C302C8CB4935F2C47454E54524154582C
310
25732C2847454E4D53472067656E64696D7A20312900010104002214000281464500A608E8A9CA8A482869E5894A09C5860591914588E8A9CA8A482A8B0584AE658508E8A9C9AA68E40CECADCC8D2DAF4406452029E9E9E27B934B3B4B71F1E24A31427A91424A9A12620A7259427B934B3B4B7149624A9A12620A7259424B
310
A32B6949496111116111711149F1E24BA32B69F00808200111A000140560052F47454E545241434F2C4A504E2C302C582C47454E54524154582C25732C2847454E4D53472067656E64696D7A20332900010100002054000280AC80A5E8E8A9CA8A482869E5894A09C586058B2588E8A9CA8A482A8B0584AE658508E8A9C9AA
310
68E40CECADCC8D2DAF4406852000202000040E800050152014BD1D15395149050D3CB1294138B0C0B148B11D15395149055160B095CCB0A11D1539354D1C819D95B991A5B5E880D8A400040400008250000A0507A6029823A2A72A2920A1A79625282716181641E99623A2A72A2920AA2C1612B9961423A2A726A9A39033B2
310
B73234B6BD101B948000808180105A000140A0F4C053047454E545241434F2C4A504E2C302C83D32C47454E54524154582C25732C2847454E4D53472067656E64696D7A203829000101010020F400028248704B5F00A668E8A9CA8A482869E5894A09C58605921C12D7C588E8A9CA8A482A8B0584AE658508E8A9C9AA68E40
310
CECADCC8D2DAF440646052000200080043280005048B4B8A69014CD1D15395149050D3CB1294138B0C0B22D2E29A4B11D15395149055160B095CCB0A11D1539354D1C819D95B991A5B5E880C8C4A4000400100086D0000A09196926BE029923A2A72A2920A1A796252827161816465A49AF9623A2A72A2920AA2C1612B9961
310
423A2A726A9A39033B2B73234B6BD10189480A02620202080043E80005048D8096DA014CD1D15395149050D3CB1294138B0C0B236025B68B11D15395149055160B095CCB0A11D1539354D1C819D95B991A5B5E880C4D0A4000404140280D0000A190687072706CD06C5069D06B0029DA3A2A72A2920A1A7962528271618164
310
1A1C1C9C1B341B141A741AC1623A2A72A2920AA2C1612B9961423A2A726A9A39033B2B73234B6BD10189A94800080828050EA000143A322A0D0E0E4E0D9A0D8A0D3A0D60053D47454E545241434F2C4A504E2C302C8C8A8343839383668362834E83582C47454E54524154582C25732C2847454E4D53472067656E64696D7A
310
2031372900010105002274000281464500A628E8A9CA8A482869E5894A09C5860591914588E8A9CA8A482A8B0584AE658508E8A9C9AA68E40CECADCC8D2DAF440626C52000202080044A8000504909497CA014CD1D15395149050D3CB1294138B0C0B242525F28B11D15395149055160B095CCB0A11D1539354D1C819D95B9
310
91A5B5E880C4E4A400040418008A521E000000000000001CA040C00000000000034408080000000000006881010000000000000D102040000000000001A204080000000000003440818000000000000728103000000000000125020600000000004028A040000000000000034408000000000000004881000000000000000D
310
102000000000000001A204000000000000003440818000000000000508143C0000000000000039408180000000000006881030000000000000D102060000000000001A2040C00000000000034408180000000000006881030000000000000E5020600000000000024A040C0000000000805140800000000000000688100000
310
00000000009102000000000000001A2040000000000000034408180000000000006881030000000000000A10284220000000878000002020000008380000020400000081800000208000000828000002028900000000
340
0
340
0
340
0
340
0
340
0
340
0
 94
        0
  0
ACAD_PROXY_OBJECT
  5
F962
330
F94D
100
AcDbProxyObject
 90
      499
 91
      561
 95
       25
 70
     0
 93
     7018
310
5DD9740D254D3D0649534F5F4133429254D3D7D5125513115051349534F5F42525F5265766973696F6E6C69737446111413478342028323937783834316D6D2920421254D3D7D04D1E0D11141327835202835393478323130326D6D29421254D3D7D04C9E0D51141347839202832393778313839326D6D29421254D3D7D04D
310
1E0E51141337837202834323078323038306D6D29421254D3D7D04CDE0DD1141347838202832393778313638326D6D29421254D3D7D04D1E0E11141327834202835393478313638326D6D29421254D3D7D04C9E0D10E41312028353934783834316D6D29419254D3D7D04C51141347837202832393778313437316D6D29421
310
254D3D7D04D1E0DD1141347836202832393778313236316D6D29421254D3D7D04D1E0D91141347835202832393778313035316D6D29421254D3D7D04D1E0D5104130202838343078313138396D6D2920419254D3D7D04C10E41332028323937783432306D6D29419254D3D7D04CD1141327833202835393478313236316D6D
310
29421254D3D7D04C9E0CD10413478332028323937783633306D6D29421254D3D7D04D1E0CD1141337834202834323078313138396D6D29421254D3D7D04CDE0D11141337836202834323078313738336D6D29421254D3D7D04CDE0D91141337835202834323078313438366D6D29421254D3D7D04CDE0D50E4132202834323
310
0783539346D6D29419254D3D7D04C910413378332028343230783839316D6D29421254D3D7D04CDE0CD0E41342028323937783231306D6D29419254D3D7D04D1124130783220283131383978313638326D6D29421254D3D7D04C1E0C9124130783320283131383978323532336D6D29421254D3D7D04C1E0CD114131783420
310
2838343178323337386D6D29421254D3D7D04C5E0D11141317833202838343178313738336D6D29421254D3D7D04C5E0CD02431254D3C82557247A25E4C81050A49534F5F5449544C4541431254D3C82557247A25E4C81090A49534F5F5449544C45424110E979A97F0838A835883675F42525F44D254D3D7D09497D4995D9
310
A5CDA5BDB9B1A5CDD10E979A97F0838A835883675F54525F44D254D3D7D51497D4995D9A5CDA5BDB9B1A5CDD10E979A97F0838A835883675F424C5F44D254D3D7D09317D4995D9A5CDA5BDB9B1A5CDD10E979A97F0838A835883675F544C5F44D254D3D7D51317D4995D9A5CDA5BDB9B1A5CDD00
  0
ACAD_PROXY_OBJECT
  5
1DE04
330
F94D
100
AcDbProxyObject
 90
      499
 91
      578
 95
       25
 70
     0
 93
       13
310
5DD8
  0
ACAD_PROXY_OBJECT
  5
181
330
17F
100
AcDbProxyObject
 90
      499
 91
      527
 95
       25
 70
     0
 93
       86
310
5DEA0C80A0280A0280A034
  0
ACAD_PROXY_OBJECT
  5
182
330
17F
100
AcDbProxyObject
 90
      499
 91
      528
 95
       25
 70
     0
 93
      282
310
5DD0E4050140501405014050140501405014050141101405014041000000000000001000
340
187
 94
        0
  0
ACAD_PROXY_OBJECT
  5
183
330
17F
100
AcDbProxyObject
 90
      499
 91
      529
 95
       25
 70
     0
 93
      323
310
5DCC199999999999E99F91740501405014050140501405014050140501405014050140501405014040
340
0
 94
        0
  0
ACAD_PROXY_OBJECT
  5
184
330
17F
100
AcDbProxyObject
 90
      499
 91
      530
 95
       25
 70
     0
 93
       10
310
5DC0
  0
ACAD_PROXY_OBJECT
  5
185
330
17F
100
AcDbProxyObject
 90
      499
 91
      531
 95
       25
 70
     0
 93
      257
310
5DE0C16A22A7D90F49F80000000000001081400000000000004204010000618000
340
188
340
189
 94
        0
  0
ACAD_PROXY_OBJECT
  5
186
330
17F
100
AcDbProxyObject
 90
      499
 91
      532
 95
       25
 70
     0
 93
     5277
310
5DD06411255115350141236025B6901405014069010000000000000910240690120281A8AA2CA0282484A4BE52028120280A032020000000000001220480D202405044E414D454050496BC914F4051C40640A80000000000004E4090193C3D3C4946284953424C414E4B28504152543A4E414D45292C424C4F434B3A4E414D
310
452C504152543A4E414D45293E3C41435F44455343524950544E3E40480A109A82A88AA492829880A091BBD2F7E80A3A80C81D0E27A15AF46E08A81203480901411393D5115014124A363B7D0147501904A0000000000000F902406428F4F1050D7D393D5114F901202832B22A72227A92028366EF6EE06F582028EA0320B4
310
0000000000001F20480C879E9E20A1AFAB27222FA620A122A61F20240506445020000000000000490201C00030C00010180000000000003E400000000000000F901073D3C4954454D3E4050180000000000003E400000000000000F901073D3C4954454D3E40501800000000000034400000000000000D101073D3C4954454
310
D3E40501800000000000034400000000000000D101073D3C4954454D3E405029010000000000000F9000000000000003E4041CF4F125511534F901418F4F1455164F9014060000000000000F9000000000000003E4041CF4F125511534F90180100000000000000061978979130481F1073D3C4954454D3E40640400000000
310
0000003E400000000000000F90288800000000000020810000001800120881A068120480A032208521122080D21480D211480A1485214852050000000000003C2FC000000000000F0BF40600800030C0200400030C00CDCCCCCCCCCCEC3F3373333333333B0FC3333333333330940C80D069014090341504901A1999999999
310
9984A040100006180400800061804010000618008098A02808
340
0
340
0
 94
        0
  0
ACAD_PROXY_OBJECT
  5
EDA5
330
17F
100
AcDbProxyObject
 90
      499
 91
      561
 95
       25
 70
     0
 93
     1514
310
5DD9740D29254D064A49535F413342929254D7D512551311505134A49535F42525F5265766973696F6E6C697374A4110E979A97F0838A835883675F42525F44D29254D7D09497D4995D9A5CDA5BDB9B1A5CDD10E979A97F0838A835883675F54525F44D29254D7D51497D4995D9A5CDA5BDB9B1A5CDD10E979A97F0838A835
310
883675F424C5F44D29254D7D09317D4995D9A5CDA5BDB9B1A5CDD10E979A97F0838A835883675F544C5F44D29254D7D51317D4995D9A5CDA5BDB9B1A5CDD00
  0
ACAD_PROXY_OBJECT
  5
EDA6
330
17F
100
AcDbProxyObject
 90
      499
 91
      562
 95
       25
 70
     0
 93
      898
310
5DC4000000000000124048CF4F11115510525317D3105091530F880A0F11115510525317D05094D4D0D053114F8A50241C9A9999999999B93F26A666666666724FC000000000000E03F400000000000000400000000000000510000000000000024408070000C300000000000000049000
340
16
340
180
 94
        0
  0
ACAD_PROXY_OBJECT
  5
EDA7
330
17F
100
AcDbProxyObject
 90
      499
 91
      563
 95
       25
 70
     0
 93
      823
310
5DC0B00000000000002480959E9E29A2A1AA24A7A72FA620A122A62FA324A929AA1F169E29A2A1AA24A7A72FA620A122A62FA620A9AA1F000000000000048803FFFE01C00030C008140380006180000000000000048800000000000000A2000000000000002480
340
652
340
180
 94
        0
  0
ACAD_PROXY_OBJECT
  5
EDA9
330
17F
100
AcDbProxyObject
 90
      499
 91
      564
 95
       25
 70
     0
 93
      152
310
5DE8273108AC1C5A0640A3D0A5723F0BD1F200
  0
ACAD_PROXY_OBJECT
  5
EDAA
330
17F
100
AcDbProxyObject
 90
      499
 91
      565
 95
       25
 70
     0
 93
       14
310
5DE0
340
0
 94
        0
  0
ACAD_PROXY_OBJECT
  5
EDAB
330
17F
100
AcDbProxyObject
 90
      499
 91
      566
 95
       25
 70
     0
 93
     6019
310
5DD084050BA4050AA405024050E836583938376838C815B83672031405983D3C486F6C653A6469613E3C696628657175616C28486F6C653A7465726D696E6174696F6E2C223022292C2220905B82B320222C22208368838A838B22293E3C696628657175616C28486F6C653A7465726D696E6174696F6E2C223022292C486F
310
6C653A64657074682C2222293E2C203C486F6C653A63746469613E2082B482AE82E882CC905B82B3203C486F6C653A637464657074683E406A405034050E836583938376838C815B83672031405EF3D3C486F6C653A6374616E676C653E252564202525633C486F6C653A63746469613E208E4D8C8A2C203C6966286571756
310
16C28486F6C653A7461707065642C223022292C22252563222C486F6C653A6E6F6D696E616C202220782022293E3C696628657175616C28486F6C653A7461707065642C223022292C486F6C653A6469612C486F6C653A706974636864657363293E203C696628657175616C28486F6C653A7465726D696E6174696F6E2C223
310
022292C22905B82B320222C222022293E3C696628657175616C28486F6C653A7465726D696E6174696F6E2C223022292C486F6C653A64657074682C2222293E406A405014050E836583938376838C815B83672031405C73D3C696628657175616C28486F6C653A7461707065642C223022292C22252563222C486F6C653A6E
310
6F6D696E616C202220782022293E3C696628657175616C28486F6C653A7461707065642C223022292C486F6C653A6469612C486F6C653A706974636864657363293E203C696628657175616C28486F6C653A7465726D696E6174696F6E2C223022292C22905B82B320222C222022293E3C696628657175616C28486F6C653A
310
7465726D696E6174696F6E2C223022292C486F6C653A64657074682C2222293E406A4051E4090E836583938376838C815B83672032405173D3C535444503A444553433E203C535444503A5354443E40690E836583938376838C815B836720314050C3D3C535444503A444553433E406A40515AA8AE40
360
0
360
0
360
0
360
0
360
0
 94
        0
  0
ACAD_PROXY_OBJECT
  5
EDB1
330
17F
100
AcDbProxyObject
 90
      499
 91
      568
 95
       25
 70
     0
 93
       26
310
5DD02A80
340
42
 94
        0
  0
ACAD_PROXY_OBJECT
  5
EDB2
330
17F
100
AcDbProxyObject
 90
      499
 91
      569
 95
       25
 70
     0
 93
      250
310
5DD020000000000000A1000000000000002440408F0F9023C3E4099CD8FFFF80
340
58
340
18A8
340
18A9
340
5F
340
60
340
61
340
62
340
63
340
68
340
0
 94
        0
  0
ACAD_PROXY_OBJECT
  5
EDB3
330
17F
100
AcDbProxyObject
 90
      499
 91
      570
 95
       25
 70
     0
 93
    13889
310
5DD1D003FFFFFFFD030300030CCCCCCCCCCCC250200800030C01030300030CCCCCCCCCCCC250200800030C00050C8DC0955782CC838A83588367014ED1D15395149050D3CB1294138B0C0B23702555E0B320E2A0D620D9CB11D15395149055160B095CCB0A11D1539354D1C819D95B991A5B5E880CCC0A78000C0000000000
310
00000000000000000000010CCCCCCCCCCCC250200800030C010CCCCCCCCCCCC250200800030C020143CF4F111959985D5B1D151A5D1B194F8050A8C8A8365815B8375838B014E51D15395149050D3CB1294138B0C0B2322A0D96056E0DD60E2CB11D15395149055160B095CCB0A11D1539354D1C819D95B991A5B5E880CCC4
310
A78000C000000000000000000000000000000010CCCCCCCCCCCC250200800030C010CCCCCCCCCCCC250200800030C020143CF4F111959985D5B1D151A5D1B194F90D44111409034110541D0C4350F4050E44D03449074510F000141232D24D7C053247454E545241434F2C4A504E2C302C8CB4935F2C47454E54524154582C
310
25732C2847454E4D53472067656E64696D7A20312900010104002214000281464500A608E8A9CA8A482869E5894A09C5860591914588E8A9CA8A482A8B0584AE658508E8A9C9AA68E40CECADCC8D2DAF4406452029E9E9E27B934B3B4B71F1E24A31427A91424A9A12620A7259427B934B3B4B7149624A9A12620A7259424B
310
A32B6949496111116111711149F1E24BA32B69F00808200111A000140560052F47454E545241434F2C4A504E2C302C582C47454E54524154582C25732C2847454E4D53472067656E64696D7A20332900010100002054000280AC80A5E8E8A9CA8A482869E5894A09C586058B2588E8A9CA8A482A8B0584AE658508E8A9C9AA
310
68E40CECADCC8D2DAF4406852000202000040E800050152014BD1D15395149050D3CB1294138B0C0B148B11D15395149055160B095CCB0A11D1539354D1C819D95B991A5B5E880D8A400040400008250000A0507A6029823A2A72A2920A1A79625282716181641E99623A2A72A2920AA2C1612B9961423A2A726A9A39033B2
310
B73234B6BD101B948000808180105A000140A0F4C053047454E545241434F2C4A504E2C302C83D32C47454E54524154582C25732C2847454E4D53472067656E64696D7A203829000101010020F400028248704B5F00A668E8A9CA8A482869E5894A09C58605921C12D7C588E8A9CA8A482A8B0584AE658508E8A9C9AA68E40
310
CECADCC8D2DAF440646052000200080043280005048B4B8A69014CD1D15395149050D3CB1294138B0C0B22D2E29A4B11D15395149055160B095CCB0A11D1539354D1C819D95B991A5B5E880C8C4A4000400100086D0000A09196926BE029923A2A72A2920A1A796252827161816465A49AF9623A2A72A2920AA2C1612B9961
310
423A2A726A9A39033B2B73234B6BD10189480A02620202080043E80005048D8096DA014CD1D15395149050D3CB1294138B0C0B236025B68B11D15395149055160B095CCB0A11D1539354D1C819D95B991A5B5E880C4D0A4000404140280D0000A190687072706CD06C5069D06B0029DA3A2A72A2920A1A7962528271618164
310
1A1C1C9C1B341B141A741AC1623A2A72A2920AA2C1612B9961423A2A726A9A39033B2B73234B6BD10189A94800080820050EA000143A322A0D0E0E4E0D9A0D8A0D3A0D60053D47454E545241434F2C4A504E2C302C8C8A8343839383668362834E83582C47454E54524154582C25732C2847454E4D53472067656E64696D7A
310
2031372900010105002274000281464500A628E8A9CA8A482869E5894A09C5860591914588E8A9CA8A482A8B0584AE658508E8A9C9AA68E40CECADCC8D2DAF440626C52000202080044A8000504909497CA014CD1D15395149050D3CB1294138B0C0B242525F28B11D15395149055160B095CCB0A11D1539354D1C819D95B9
310
91A5B5E880C4E4A400040418008A521E000000000000001CA040C00000000000034408080000000000006881010000000000000D102040000000000001A204080000000000003440818000000000000728103000000000000125020600000000004028A040000000000000034408000000000000004881000000000000000D
310
102000000000000001A204000000000000003440818000000000000508143C0000000000000039408180000000000006881030000000000000D102060000000000001A2040C00000000000034408180000000000006881030000000000000E5020600000000000024A040C0000000000805140800000000000000688100000
310
00000000009102000000000000001A2040000000000000034408180000000000006881030000000000000A10284220000000878000002020000008380000020400000081800000208000000828000002028900000000
340
0
340
0
340
0
340
0
340
0
340
0
 94
        0
  0
ENDSEC
  0
EOF
