  0
SECTION
  2
HEADER
  9
$ACADVER
  1
AC1014
  9
$ACADMAINTVER
 70
     0
  9
$DWGCODEPAGE
  3
ANSI_932
  9
$INSBASE
 10
954.104692
 20
184.560699
 30
0.0
  9
$EXTMIN
 10
927.172002
 20
162.31064
 30
0.0
  9
$EXTMAX
 10
1159.640119
 20
281.782996
 30
0.0
  9
$LIMMIN
 10
-587.250952
 20
327.890188
  9
$LIMMAX
 10
600.749048
 20
957.890188
  9
$ORTHOMODE
 70
     1
  9
$REGENMODE
 70
     1
  9
$FILLMODE
 70
     1
  9
$QTEXTMODE
 70
     0
  9
$MIRRTEXT
 70
     1
  9
$DRAGMODE
 70
     2
  9
$LTSCALE
 40
5.0
  9
$OSMODE
 70
   303
  9
$ATTMODE
 70
     1
  9
$TEXTSIZE
 40
5.0
  9
$TRACEWID
 40
0.05
  9
$TEXTSTYLE
  7
STANDARD
  9
$CLAYER
  8
外形
  9
$CELTYPE
  6
CONTINUOUS
  9
$CECOLOR
 62
   256
  9
$CELTSCALE
 40
1.0
  9
$DELOBJ
 70
     1
  9
$DISPSILH
 70
     0
  9
$DIMSCALE
 40
1.0
  9
$DIMASZ
 40
2.0
  9
$DIMEXO
 40
1.0
  9
$DIMDLI
 40
8.0
  9
$DIMRND
 40
0.0
  9
$DIMDLE
 40
0.0
  9
$DIMEXE
 40
2.0
  9
$DIMTP
 40
0.0
  9
$DIMTM
 40
0.0
  9
$DIMTXT
 40
2.0
  9
$DIMCEN
 40
-1.0
  9
$DIMTSZ
 40
0.0
  9
$DIMTOL
 70
     0
  9
$DIMLIM
 70
     0
  9
$DIMTIH
 70
     0
  9
$DIMTOH
 70
     0
  9
$DIMSE1
 70
     0
  9
$DIMSE2
 70
     0
  9
$DIMTAD
 70
     1
  9
$DIMZIN
 70
     8
  9
$DIMBLK
  1

  9
$DIMASO
 70
     1
  9
$DIMSHO
 70
     1
  9
$DIMPOST
  1

  9
$DIMAPOST
  1

  9
$DIMALT
 70
     0
  9
$DIMALTD
 70
     2
  9
$DIMALTF
 40
25.4
  9
$DIMLFAC
 40
1.0
  9
$DIMTOFL
 70
     1
  9
$DIMTVP
 40
0.0
  9
$DIMTIX
 70
     0
  9
$DIMSOXD
 70
     0
  9
$DIMSAH
 70
     1
  9
$DIMBLK1
  1
_DOTSMALL
  9
$DIMBLK2
  1
_DOTSMALL
  9
$DIMSTYLE
  2
参考寸法
  9
$DIMCLRD
 70
     2
  9
$DIMCLRE
 70
     2
  9
$DIMCLRT
 70
     2
  9
$DIMTFAC
 40
1.0
  9
$DIMGAP
 40
1.0
  9
$DIMJUST
 70
     0
  9
$DIMSD1
 70
     0
  9
$DIMSD2
 70
     0
  9
$DIMTOLJ
 70
     1
  9
$DIMTZIN
 70
     8
  9
$DIMALTZ
 70
     0
  9
$DIMALTTZ
 70
     0
  9
$DIMFIT
 70
     3
  9
$DIMUPT
 70
     0
  9
$DIMUNIT
 70
     2
  9
$DIMDEC
 70
     3
  9
$DIMTDEC
 70
     2
  9
$DIMALTU
 70
     2
  9
$DIMALTTD
 70
     2
  9
$DIMTXSTY
  7
STANDARD
  9
$DIMAUNIT
 70
     0
  9
$LUNITS
 70
     2
  9
$LUPREC
 70
     3
  9
$SKETCHINC
 40
0.1
  9
$FILLETRAD
 40
6.5
  9
$AUNITS
 70
     0
  9
$AUPREC
 70
     3
  9
$MENU
  1
acad
  9
$ELEVATION
 40
0.0
  9
$PELEVATION
 40
0.0
  9
$THICKNESS
 40
0.0
  9
$LIMCHECK
 70
     0
  9
$BLIPMODE
 70
     0
  9
$CHAMFERA
 40
0.0
  9
$CHAMFERB
 40
0.0
  9
$CHAMFERC
 40
0.0
  9
$CHAMFERD
 40
0.0
  9
$SKPOLY
 70
     0
  9
$TDCREATE
 40
2450751.535399305
  9
$TDUPDATE
 40
2452016.492025463
  9
$TDINDWG
 40
4.4340809028
  9
$TDUSRTIMER
 40
4.4340809028
  9
$USRTIMER
 70
     1
  9
$ANGBASE
 50
0.0
  9
$ANGDIR
 70
     0
  9
$PDMODE
 70
    32
  9
$PDSIZE
 40
0.0
  9
$PLINEWID
 40
0.0
  9
$COORDS
 70
     2
  9
$SPLFRAME
 70
     0
  9
$SPLINETYPE
 70
     5
  9
$SPLINESEGS
 70
     8
  9
$ATTDIA
 70
     0
  9
$ATTREQ
 70
     1
  9
$HANDLING
 70
     1
  9
$HANDSEED
  5
35D
  9
$SURFTAB1
 70
     6
  9
$SURFTAB2
 70
     6
  9
$SURFTYPE
 70
     6
  9
$SURFU
 70
     6
  9
$SURFV
 70
     6
  9
$UCSNAME
  2

  9
$UCSORG
 10
0.0
 20
0.0
 30
0.0
  9
$UCSXDIR
 10
1.0
 20
0.0
 30
0.0
  9
$UCSYDIR
 10
0.0
 20
1.0
 30
0.0
  9
$PUCSNAME
  2

  9
$PUCSORG
 10
0.0
 20
0.0
 30
0.0
  9
$PUCSXDIR
 10
1.0
 20
0.0
 30
0.0
  9
$PUCSYDIR
 10
0.0
 20
1.0
 30
0.0
  9
$USERI1
 70
     0
  9
$USERI2
 70
     0
  9
$USERI3
 70
     0
  9
$USERI4
 70
     0
  9
$USERI5
 70
     0
  9
$USERR1
 40
0.0
  9
$USERR2
 40
0.0
  9
$USERR3
 40
0.0
  9
$USERR4
 40
0.0
  9
$USERR5
 40
0.0
  9
$WORLDVIEW
 70
     1
  9
$SHADEDGE
 70
     3
  9
$SHADEDIF
 70
    70
  9
$TILEMODE
 70
     1
  9
$MAXACTVP
 70
    16
  9
$PINSBASE
 10
0.0
 20
0.0
 30
0.0
  9
$PLIMCHECK
 70
     0
  9
$PEXTMIN
 10
1.000000E+20
 20
1.000000E+20
 30
1.000000E+20
  9
$PEXTMAX
 10
-1.000000E+20
 20
-1.000000E+20
 30
-1.000000E+20
  9
$PLIMMIN
 10
0.0
 20
0.0
  9
$PLIMMAX
 10
12.0
 20
9.0
  9
$UNITMODE
 70
     0
  9
$VISRETAIN
 70
     0
  9
$PLINEGEN
 70
     0
  9
$PSLTSCALE
 70
     1
  9
$TREEDEPTH
 70
  3020
  9
$PICKSTYLE
 70
     1
  9
$CMLSTYLE
  2
STANDARD
  9
$CMLJUST
 70
     0
  9
$CMLSCALE
 40
1.0
  9
$PROXYGRAPHICS
 70
     1
  9
$MEASUREMENT
 70
     0
  0
ENDSEC
  0
SECTION
  2
CLASSES
  0
CLASS
  1
LWPOLYLINE
  2
AcDbPolyline
  3
"AutoCAD"
 90
        0
280
     0
281
     1
  0
CLASS
  1
ACDBDICTIONARYWDFLT
  2
AcDbDictionaryWithDefault
  3
AutoCAD 2000
 90
        0
280
     1
281
     0
  0
CLASS
  1
ACDBPLACEHOLDER
  2
AcDbPlaceHolder
  3
AutoCAD 2000
 90
        0
280
     1
281
     0
  0
CLASS
  1
LAYOUT
  2
AcDbLayout
  3
AutoCAD 2000
 90
        0
280
     1
281
     0
  0
CLASS
  1
LONG_TRANSACTION
  2
AcDbLongTransaction
  3
AutoCAD 2000
 90
        0
280
     1
281
     0
  0
CLASS
  1
LWPOLYLINE
  2
AcDbPolyline
  3
"AutoCAD"
 90
        0
280
     0
281
     1
  0
CLASS
  1
HATCH
  2
AcDbHatch
  3
"ACAD_SEDONA"
 90
        0
280
     0
281
     1
  0
CLASS
  1
XRECORD
  2
AcDbXrecord
  3
"<Built In>"
 90
        0
280
     0
281
     0
  0
CLASS
  1
DICTIONARYVAR
  2
AcDbDictionaryVar
  3
"AutoCAD"
 90
        0
280
     0
281
     0
  0
ENDSEC
  0
SECTION
  2
TABLES
  0
TABLE
  2
VPORT
  5
16
100
AcDbSymbolTable
 70
     2
  0
VPORT
  5
35C
100
AcDbSymbolTableRecord
100
AcDbViewportTableRecord
  2
*ACTIVE
 70
     0
 10
0.0
 20
0.0
 11
1.0
 21
1.0
 12
1046.798561
 22
222.285965
 13
0.0
 23
0.0
 14
1.0
 24
1.0
 15
10.0
 25
10.0
 16
0.0
 26
0.0
 36
1.0
 17
0.0
 27
0.0
 37
0.0
 40
231.212502
 41
1.710425
 42
50.0
 43
0.0
 44
0.0
 50
0.0
 51
0.0
 71
     0
 72
   100
 73
     1
 74
     1
 75
     0
 76
     0
 77
     0
 78
     2
  0
ENDTAB
  0
TABLE
  2
LTYPE
  5
11
100
AcDbSymbolTable
 70
     2
  0
LTYPE
  5
12
100
AcDbSymbolTableRecord
100
AcDbLinetypeTableRecord
  2
BYBLOCK
 70
     0
  3

 72
    65
 73
     0
 40
0.0
  0
LTYPE
  5
13
100
AcDbSymbolTableRecord
100
AcDbLinetypeTableRecord
  2
BYLAYER
 70
     0
  3

 72
    65
 73
     0
 40
0.0
  0
LTYPE
  5
7
100
AcDbSymbolTableRecord
100
AcDbLinetypeTableRecord
  2
CONTINUOUS
 70
     0
  3
Solid line
 72
    65
 73
     0
 40
0.0
  0
LTYPE
  5
4E
100
AcDbSymbolTableRecord
100
AcDbLinetypeTableRecord
  2
CENTER
 70
     0
  3
Center ____ _ ____ _ ____ _ ____ _ ____ _ ____
 72
    65
 73
     4
 40
2.0
 49
1.25
 74
     0
 49
-0.25
 74
     0
 49
0.25
 74
     0
 49
-0.25
 74
     0
  0
ENDTAB
  0
TABLE
  2
LAYER
  5
E
100
AcDbSymbolTable
 70
     5
  0
LAYER
  5
6
100
AcDbSymbolTableRecord
100
AcDbLayerTableRecord
  2
0
 70
     0
 62
     7
  6
CONTINUOUS
  0
LAYER
  5
1F
100
AcDbSymbolTableRecord
100
AcDbLayerTableRecord
  2
外形
 70
     0
 62
     4
  6
CONTINUOUS
  0
LAYER
  5
45
102
{ACAD_XDICTIONARY
360
46
102
}
100
AcDbSymbolTableRecord
100
AcDbLayerTableRecord
  2
DEFPOINTS
 70
     0
 62
     7
  6
CONTINUOUS
  0
LAYER
  5
33
100
AcDbSymbolTableRecord
100
AcDbLayerTableRecord
  2
寸法
 70
     0
 62
     1
  6
CONTINUOUS
  0
LAYER
  5
9A
100
AcDbSymbolTableRecord
100
AcDbLayerTableRecord
  2
参考
 70
     0
 62
     2
  6
CONTINUOUS
  0
ENDTAB
  0
TABLE
  2
STYLE
  5
F
100
AcDbSymbolTable
 70
     1
  0
STYLE
  5
10
100
AcDbSymbolTableRecord
100
AcDbTextStyleTableRecord
  2
STANDARD
 70
     0
 40
0.0
 41
1.0
 50
0.0
 71
     0
 42
5.0
  3
MONOTXT
  4
BIGFONT
  0
ENDTAB
  0
TABLE
  2
VIEW
  5
14
100
AcDbSymbolTable
 70
     0
  0
ENDTAB
  0
TABLE
  2
UCS
  5
15
100
AcDbSymbolTable
 70
     0
  0
ENDTAB
  0
TABLE
  2
APPID
  5
18
100
AcDbSymbolTable
 70
     1
  0
APPID
  5
19
100
AcDbSymbolTableRecord
100
AcDbRegAppTableRecord
  2
ACAD
 70
     0
  0
ENDTAB
  0
TABLE
  2
DIMSTYLE
  5
1A
100
AcDbSymbolTable
 70
     2
  0
DIMSTYLE
105
34
102
{ACAD_XDICTIONARY
360
35
102
}
102
{ACAD_REACTORS
330
32
330
C1
330
140
330
131
330
56
330
11E
330
83
330
176
102
}
100
AcDbSymbolTableRecord
100
AcDbDimStyleTableRecord
  2
STANDARD
 70
     0
  3

  4

  5

  6
_OPEN30
  7
_OPEN30
 40
0.0
 41
2.0
 42
1.0
 43
8.0
 44
2.0
 45
0.0
 46
0.0
 47
0.0
 48
0.0
140
3.0
141
-1.0
142
0.0
143
25.4
144
1.0
145
0.0
146
1.0
147
1.0
 71
     0
 72
     0
 73
     0
 74
     0
 75
     0
 76
     0
 77
     1
 78
     8
170
     0
171
     2
172
     1
173
     1
174
     0
175
     0
176
     1
177
     1
178
     3
270
     2
271
     2
272
     2
273
     2
274
     2
340
10
275
     0
280
     0
281
     0
282
     0
283
     1
284
     8
285
     0
286
     0
287
     3
288
     0
  0
DIMSTYLE
105
21
102
{ACAD_REACTORS
330
A9
330
99
330
DD
330
CF
330
10D
102
}
100
AcDbSymbolTableRecord
100
AcDbDimStyleTableRecord
  2
参考寸法
 70
     0
  3

  4

  5

  6
_DOTSMALL
  7
_DOTSMALL
 40
1.0
 41
2.0
 42
1.0
 43
8.0
 44
2.0
 45
0.0
 46
0.0
 47
0.0
 48
0.0
140
2.0
141
-1.0
142
0.0
143
25.4
144
1.0
145
0.0
146
1.0
147
1.0
 71
     0
 72
     0
 73
     0
 74
     0
 75
     0
 76
     0
 77
     1
 78
     8
170
     0
171
     2
172
     1
173
     1
174
     0
175
     0
176
     2
177
     2
178
     2
270
     2
271
     3
272
     2
273
     2
274
     2
340
10
275
     0
280
     0
281
     0
282
     0
283
     1
284
     8
285
     0
286
     0
287
     3
288
     0
  0
ENDTAB
  0
TABLE
  2
BLOCK_RECORD
  5
1
100
AcDbSymbolTable
 70
    23
  0
BLOCK_RECORD
  5
2
102
{ACAD_XDICTIONARY
360
3
102
}
100
AcDbSymbolTableRecord
100
AcDbBlockTableRecord
  2
*MODEL_SPACE
  0
BLOCK_RECORD
  5
9
102
{ACAD_XDICTIONARY
360
A
102
}
100
AcDbSymbolTableRecord
100
AcDbBlockTableRecord
  2
*PAPER_SPACE
  0
BLOCK_RECORD
  5
22
100
AcDbSymbolTableRecord
100
AcDbBlockTableRecord
  2
_DOTSMALL
  0
BLOCK_RECORD
  5
37
100
AcDbSymbolTableRecord
100
AcDbBlockTableRecord
  2
_OPEN30
  0
BLOCK_RECORD
  5
3D
100
AcDbSymbolTableRecord
100
AcDbBlockTableRecord
  2
*D2
  0
BLOCK_RECORD
  5
C2
100
AcDbSymbolTableRecord
100
AcDbBlockTableRecord
  2
*D3
  0
BLOCK_RECORD
  5
DE
100
AcDbSymbolTableRecord
100
AcDbBlockTableRecord
  2
*D4
  0
BLOCK_RECORD
  5
141
100
AcDbSymbolTableRecord
100
AcDbBlockTableRecord
  2
*D5
  0
BLOCK_RECORD
  5
AA
100
AcDbSymbolTableRecord
100
AcDbBlockTableRecord
  2
*D6
  0
BLOCK_RECORD
  5
9B
100
AcDbSymbolTableRecord
100
AcDbBlockTableRecord
  2
*D7
  0
BLOCK_RECORD
  5
132
100
AcDbSymbolTableRecord
100
AcDbBlockTableRecord
  2
*D8
  0
BLOCK_RECORD
  5
57
100
AcDbSymbolTableRecord
100
AcDbBlockTableRecord
  2
*D9
  0
BLOCK_RECORD
  5
D0
100
AcDbSymbolTableRecord
100
AcDbBlockTableRecord
  2
*D10
  0
BLOCK_RECORD
  5
11F
100
AcDbSymbolTableRecord
100
AcDbBlockTableRecord
  2
*D11
  0
BLOCK_RECORD
  5
84
100
AcDbSymbolTableRecord
100
AcDbBlockTableRecord
  2
*D12
  0
BLOCK_RECORD
  5
10E
100
AcDbSymbolTableRecord
100
AcDbBlockTableRecord
  2
*D13
  0
BLOCK_RECORD
  5
2A
100
AcDbSymbolTableRecord
100
AcDbBlockTableRecord
  2
3
  0
BLOCK_RECORD
  5
169
100
AcDbSymbolTableRecord
100
AcDbBlockTableRecord
  2
*D15
  0
BLOCK_RECORD
  5
20A
100
AcDbSymbolTableRecord
100
AcDbBlockTableRecord
  2
*D16
  0
BLOCK_RECORD
  5
216
100
AcDbSymbolTableRecord
100
AcDbBlockTableRecord
  2
*D17
  0
BLOCK_RECORD
  5
228
100
AcDbSymbolTableRecord
100
AcDbBlockTableRecord
  2
*D18
  0
BLOCK_RECORD
  5
251
100
AcDbSymbolTableRecord
100
AcDbBlockTableRecord
  2
*D19
  0
BLOCK_RECORD
  5
284
100
AcDbSymbolTableRecord
100
AcDbBlockTableRecord
  2
*D20
  0
BLOCK_RECORD
  5
290
100
AcDbSymbolTableRecord
100
AcDbBlockTableRecord
  2
*D21
  0
BLOCK_RECORD
  5
29B
100
AcDbSymbolTableRecord
100
AcDbBlockTableRecord
  2
*D22
  0
ENDTAB
  0
ENDSEC
  0
SECTION
  2
BLOCKS
  0
BLOCK
  5
5
100
AcDbEntity
  8
0
100
AcDbBlockBegin
  2
*MODEL_SPACE
 70
     0
 10
0.0
 20
0.0
 30
0.0
  3
*MODEL_SPACE
  1

  0
ENDBLK
  5
8
100
AcDbEntity
  8
0
100
AcDbBlockEnd
  0
BLOCK
  5
C
100
AcDbEntity
 67
     1
  8
0
100
AcDbBlockBegin
  2
*PAPER_SPACE
 70
     0
 10
0.0
 20
0.0
 30
0.0
  3
*PAPER_SPACE
  1

  0
ENDBLK
  5
D
100
AcDbEntity
 67
     1
  8
0
100
AcDbBlockEnd
  0
BLOCK
  5
27
100
AcDbEntity
  8
0
100
AcDbBlockBegin
  2
_DOTSMALL
 70
     0
 10
0.0
 20
0.0
 30
0.0
  3
_DOTSMALL
  1

  0
POLYLINE
  5
23
100
AcDbEntity
  8
0
  6
BYBLOCK
 62
     0
100
AcDb2dPolyline
 66
     1
 10
0.0
 20
0.0
 30
0.0
 70
     1
 40
0.5
 41
0.5
  0
VERTEX
  5
24
100
AcDbEntity
  8
0
  6
BYBLOCK
 62
     0
100
AcDbVertex
100
AcDb2dVertex
 10
-0.0625
 20
0.0
 30
0.0
 42
1.0
  0
VERTEX
  5
25
100
AcDbEntity
  8
0
  6
BYBLOCK
 62
     0
100
AcDbVertex
100
AcDb2dVertex
 10
0.0625
 20
0.0
 30
0.0
 42
1.0
  0
SEQEND
  5
26
100
AcDbEntity
  8
0
  6
BYBLOCK
 62
     0
  0
ENDBLK
  5
28
100
AcDbEntity
  8
0
100
AcDbBlockEnd
  0
BLOCK
  5
3B
100
AcDbEntity
  8
0
100
AcDbBlockBegin
  2
_OPEN30
 70
     0
 10
0.0
 20
0.0
 30
0.0
  3
_OPEN30
  1

  0
LINE
  5
38
100
AcDbEntity
  8
0
  6
BYBLOCK
 62
     0
100
AcDbLine
 10
-1.0
 20
0.267949
 30
0.0
 11
0.0
 21
0.0
 31
0.0
  0
LINE
  5
39
100
AcDbEntity
  8
0
  6
BYBLOCK
 62
     0
100
AcDbLine
 10
0.0
 20
0.0
 30
0.0
 11
-1.0
 21
-0.267949
 31
0.0
  0
LINE
  5
3A
100
AcDbEntity
  8
0
  6
BYBLOCK
 62
     0
100
AcDbLine
 10
0.0
 20
0.0
 30
0.0
 11
-1.0
 21
0.0
 31
0.0
  0
ENDBLK
  5
3C
100
AcDbEntity
  8
0
100
AcDbBlockEnd
  0
BLOCK
  5
4A
100
AcDbEntity
  8
0
100
AcDbBlockBegin
  2
*D2
 70
     1
 10
0.0
 20
0.0
 30
0.0
  3
*D2
  1

  0
LINE
  5
3E
100
AcDbEntity
  8
0
  6
BYBLOCK
 62
     1
100
AcDbLine
 10
-286.733768
 20
509.169544
 30
0.0
 11
-286.733768
 21
487.242578
 31
0.0
  0
LINE
  5
3F
100
AcDbEntity
  8
0
  6
BYBLOCK
 62
     1
100
AcDbLine
 10
-126.737856
 20
514.169544
 30
0.0
 11
-126.737856
 21
487.242578
 31
0.0
  0
LINE
  5
40
100
AcDbEntity
  8
0
  6
BYBLOCK
 62
     1
100
AcDbLine
 10
-284.733768
 20
489.242578
 30
0.0
 11
-128.737856
 21
489.242578
 31
0.0
  0
INSERT
  5
41
100
AcDbEntity
  8
0
  6
BYBLOCK
 62
     1
100
AcDbBlockReference
  2
_OPEN30
 10
-286.733768
 20
489.242578
 30
0.0
 41
2.0
 42
2.0
 43
2.0
 50
180.0
  0
INSERT
  5
42
100
AcDbEntity
  8
0
  6
BYBLOCK
 62
     1
100
AcDbBlockReference
  2
_OPEN30
 10
-126.737856
 20
489.242578
 30
0.0
 41
2.0
 42
2.0
 43
2.0
  0
MTEXT
  5
43
100
AcDbEntity
  8
0
  6
BYBLOCK
 62
     3
100
AcDbMText
 10
-206.735812
 20
491.742578
 30
0.0
 40
3.0
 41
0.0
 71
     5
 72
     1
  1
\A1;160
  0
POINT
  5
44
100
AcDbEntity
  8
DEFPOINTS
  6
BYBLOCK
 62
     0
100
AcDbPoint
 10
-286.733768
 20
510.169544
 30
0.0
  0
POINT
  5
48
100
AcDbEntity
  8
DEFPOINTS
  6
BYBLOCK
 62
     0
100
AcDbPoint
 10
-126.737856
 20
515.169544
 30
0.0
  0
POINT
  5
49
100
AcDbEntity
  8
DEFPOINTS
  6
BYBLOCK
 62
     0
100
AcDbPoint
 10
-126.737856
 20
489.242578
 30
0.0
  0
ENDBLK
  5
4B
100
AcDbEntity
  8
0
100
AcDbBlockEnd
  0
BLOCK
  5
CC
100
AcDbEntity
  8
0
100
AcDbBlockBegin
  2
*D3
 70
     1
 10
0.0
 20
0.0
 30
0.0
  3
*D3
  1

  0
LINE
  5
C3
100
AcDbEntity
  8
0
  6
BYBLOCK
 62
     1
100
AcDbLine
 10
635.209604
 20
510.169544
 30
0.0
 11
629.122703
 21
510.169544
 31
0.0
  0
LINE
  5
C4
100
AcDbEntity
  8
0
  6
BYBLOCK
 62
     1
100
AcDbLine
 10
635.554946
 20
521.169544
 30
0.0
 11
629.122703
 21
521.169544
 31
0.0
  0
LINE
  5
C5
100
AcDbEntity
  8
0
  6
BYBLOCK
 62
     1
100
AcDbLine
 10
631.122703
 20
512.169544
 30
0.0
 11
631.122703
 21
519.169544
 31
0.0
  0
INSERT
  5
C6
100
AcDbEntity
  8
0
  6
BYBLOCK
 62
     1
100
AcDbBlockReference
  2
_OPEN30
 10
631.122703
 20
510.169544
 30
0.0
 41
2.0
 42
2.0
 43
2.0
 50
270.0
  0
INSERT
  5
C7
100
AcDbEntity
  8
0
  6
BYBLOCK
 62
     1
100
AcDbBlockReference
  2
_OPEN30
 10
631.122703
 20
521.169544
 30
0.0
 41
2.0
 42
2.0
 43
2.0
 50
90.0
  0
MTEXT
  5
C8
100
AcDbEntity
  8
0
  6
BYBLOCK
 62
     3
100
AcDbMText
 10
628.622703
 20
515.669544
 30
0.0
 40
3.0
 41
0.0
 71
     5
 72
     1
  1
\A1;11
 11
0.0
 21
1.0
 31
0.0
  0
POINT
  5
C9
100
AcDbEntity
  8
DEFPOINTS
  6
BYBLOCK
 62
     0
100
AcDbPoint
 10
636.209604
 20
510.169544
 30
0.0
  0
POINT
  5
CA
100
AcDbEntity
  8
DEFPOINTS
  6
BYBLOCK
 62
     0
100
AcDbPoint
 10
636.554946
 20
521.169544
 30
0.0
  0
POINT
  5
CB
100
AcDbEntity
  8
DEFPOINTS
  6
BYBLOCK
 62
     0
100
AcDbPoint
 10
631.122703
 20
521.169544
 30
0.0
  0
ENDBLK
  5
CD
100
AcDbEntity
  8
0
100
AcDbBlockEnd
  0
BLOCK
  5
E8
100
AcDbEntity
  8
0
100
AcDbBlockBegin
  2
*D4
 70
     1
 10
0.0
 20
0.0
 30
0.0
  3
*D4
  1

  0
LINE
  5
DF
100
AcDbEntity
  8
0
  6
BYBLOCK
 62
     2
100
AcDbLine
 10
589.848538
 20
509.169544
 30
0.0
 11
589.848538
 21
499.799846
 31
0.0
  0
LINE
  5
E0
100
AcDbEntity
  8
0
  6
BYBLOCK
 62
     2
100
AcDbLine
 10
614.848538
 20
513.165373
 30
0.0
 11
614.848538
 21
499.799846
 31
0.0
  0
LINE
  5
E1
100
AcDbEntity
  8
0
  6
BYBLOCK
 62
     2
100
AcDbLine
 10
589.848538
 20
501.799846
 30
0.0
 11
614.848538
 21
501.799846
 31
0.0
  0
INSERT
  5
E2
100
AcDbEntity
  8
0
  6
BYBLOCK
 62
     2
100
AcDbBlockReference
  2
_DOTSMALL
 10
589.848538
 20
501.799846
 30
0.0
 50
180.0
  0
INSERT
  5
E3
100
AcDbEntity
  8
0
  6
BYBLOCK
 62
     2
100
AcDbBlockReference
  2
_DOTSMALL
 10
614.848538
 20
501.799846
 30
0.0
  0
MTEXT
  5
E4
100
AcDbEntity
  8
0
  6
BYBLOCK
 62
     2
100
AcDbMText
 10
602.348538
 20
503.549846
 30
0.0
 40
1.5
 41
0.0
 71
     5
 72
     1
  1
\A1;25
  0
POINT
  5
E5
100
AcDbEntity
  8
DEFPOINTS
  6
BYBLOCK
 62
     0
100
AcDbPoint
 10
589.848538
 20
510.169544
 30
0.0
  0
POINT
  5
E6
100
AcDbEntity
  8
DEFPOINTS
  6
BYBLOCK
 62
     0
100
AcDbPoint
 10
614.848538
 20
514.165373
 30
0.0
  0
POINT
  5
E7
100
AcDbEntity
  8
DEFPOINTS
  6
BYBLOCK
 62
     0
100
AcDbPoint
 10
614.848538
 20
501.799846
 30
0.0
  0
ENDBLK
  5
E9
100
AcDbEntity
  8
0
100
AcDbBlockEnd
  0
BLOCK
  5
14B
100
AcDbEntity
  8
0
100
AcDbBlockBegin
  2
*D5
 70
     1
 10
0.0
 20
0.0
 30
0.0
  3
*D5
  1

  0
LINE
  5
142
100
AcDbEntity
  8
0
  6
BYBLOCK
 62
     1
100
AcDbLine
 10
718.705516
 20
517.385662
 30
0.0
 11
718.705516
 21
498.290149
 31
0.0
  0
LINE
  5
143
100
AcDbEntity
  8
0
  6
BYBLOCK
 62
     1
100
AcDbLine
 10
733.705516
 20
517.385662
 30
0.0
 11
733.705516
 21
498.290149
 31
0.0
  0
LINE
  5
144
100
AcDbEntity
  8
0
  6
BYBLOCK
 62
     1
100
AcDbLine
 10
720.705516
 20
500.290149
 30
0.0
 11
731.705516
 21
500.290149
 31
0.0
  0
INSERT
  5
145
100
AcDbEntity
  8
0
  6
BYBLOCK
 62
     1
100
AcDbBlockReference
  2
_OPEN30
 10
718.705516
 20
500.290149
 30
0.0
 41
2.0
 42
2.0
 43
2.0
 50
180.0
  0
INSERT
  5
146
100
AcDbEntity
  8
0
  6
BYBLOCK
 62
     1
100
AcDbBlockReference
  2
_OPEN30
 10
733.705516
 20
500.290149
 30
0.0
 41
2.0
 42
2.0
 43
2.0
  0
MTEXT
  5
147
100
AcDbEntity
  8
0
  6
BYBLOCK
 62
     3
100
AcDbMText
 10
726.205516
 20
502.790149
 30
0.0
 40
3.0
 41
0.0
 71
     5
 72
     1
  1
\A1;15
  0
POINT
  5
148
100
AcDbEntity
  8
DEFPOINTS
  6
BYBLOCK
 62
     0
100
AcDbPoint
 10
718.705516
 20
518.385662
 30
0.0
  0
POINT
  5
149
100
AcDbEntity
  8
DEFPOINTS
  6
BYBLOCK
 62
     0
100
AcDbPoint
 10
733.705516
 20
518.385662
 30
0.0
  0
POINT
  5
14A
100
AcDbEntity
  8
DEFPOINTS
  6
BYBLOCK
 62
     0
100
AcDbPoint
 10
733.705516
 20
500.290149
 30
0.0
  0
ENDBLK
  5
14C
100
AcDbEntity
  8
0
100
AcDbBlockEnd
  0
BLOCK
  5
B5
100
AcDbEntity
  8
0
100
AcDbBlockBegin
  2
*D6
 70
     1
 10
0.0
 20
0.0
 30
0.0
  3
*D6
  1

  0
LINE
  5
AB
100
AcDbEntity
  8
0
  6
BYBLOCK
 62
     2
100
AcDbLine
 10
585.003331
 20
511.175048
 30
0.0
 11
584.475867
 21
506.156564
 31
0.0
  0
LINE
  5
AC
100
AcDbEntity
  8
0
  6
BYBLOCK
 62
     2
100
AcDbLine
 10
582.636551
 20
511.423807
 30
0.0
 11
582.109087
 21
506.405322
 31
0.0
  0
LINE
  5
AD
100
AcDbEntity
  8
0
  6
BYBLOCK
 62
     2
100
AcDbLine
 10
584.684924
 20
508.145608
 30
0.0
 11
582.318144
 21
508.394366
 31
0.0
  0
LINE
  5
AE
100
AcDbEntity
  8
0
  6
BYBLOCK
 62
     2
100
AcDbLine
 10
582.318144
 20
508.394366
 30
0.0
 11
573.864707
 21
509.282858
 31
0.0
  0
INSERT
  5
AF
100
AcDbEntity
  8
0
  6
BYBLOCK
 62
     2
100
AcDbBlockReference
  2
_DOTSMALL
 10
584.684924
 20
508.145608
 30
0.0
 50
354.0
  0
INSERT
  5
B0
100
AcDbEntity
  8
0
  6
BYBLOCK
 62
     2
100
AcDbBlockReference
  2
_DOTSMALL
 10
582.318144
 20
508.394366
 30
0.0
 50
174.0
  0
MTEXT
  5
B1
100
AcDbEntity
  8
0
  6
BYBLOCK
 62
     2
100
AcDbMText
 10
577.777089
 20
510.63129
 30
0.0
 40
1.5
 41
0.0
 71
     5
 72
     1
  1
\A1;2.38
 11
0.994522
 21
-0.104528
 31
0.0
  0
POINT
  5
B2
100
AcDbEntity
  8
DEFPOINTS
  6
BYBLOCK
 62
     0
100
AcDbPoint
 10
585.107859
 20
512.16957
 30
0.0
  0
POINT
  5
B3
100
AcDbEntity
  8
DEFPOINTS
  6
BYBLOCK
 62
     0
100
AcDbPoint
 10
582.741079
 20
512.418328
 30
0.0
  0
POINT
  5
B4
100
AcDbEntity
  8
DEFPOINTS
  6
BYBLOCK
 62
     0
100
AcDbPoint
 10
582.318144
 20
508.394366
 30
0.0
  0
ENDBLK
  5
B6
100
AcDbEntity
  8
0
100
AcDbBlockEnd
  0
BLOCK
  5
A7
100
AcDbEntity
  8
0
100
AcDbBlockBegin
  2
*D7
 70
     1
 10
0.0
 20
0.0
 30
0.0
  3
*D7
  1

  0
LINE
  5
9C
100
AcDbEntity
  8
0
  6
BYBLOCK
 62
     2
100
AcDbLine
 10
288.041274
 20
504.836023
 30
0.0
 11
288.041274
 21
500.175716
 31
0.0
  0
LINE
  5
9D
100
AcDbEntity
  8
0
  6
BYBLOCK
 62
     2
100
AcDbLine
 10
288.061274
 20
504.836023
 30
0.0
 11
288.061274
 21
500.175716
 31
0.0
  0
LINE
  5
9E
100
AcDbEntity
  8
0
  6
BYBLOCK
 62
     2
100
AcDbLine
 10
288.041274
 20
502.175716
 30
0.0
 11
287.041274
 21
502.175716
 31
0.0
  0
LINE
  5
9F
100
AcDbEntity
  8
0
  6
BYBLOCK
 62
     2
100
AcDbLine
 10
288.061274
 20
502.175716
 30
0.0
 11
297.561274
 21
502.175716
 31
0.0
  0
LINE
  5
A0
100
AcDbEntity
  8
0
  6
BYBLOCK
 62
     2
100
AcDbLine
 10
288.041274
 20
502.175716
 30
0.0
 11
288.061274
 21
502.175716
 31
0.0
  0
INSERT
  5
A1
100
AcDbEntity
  8
0
  6
BYBLOCK
 62
     2
100
AcDbBlockReference
  2
_DOTSMALL
 10
288.041274
 20
502.175716
 30
0.0
  0
INSERT
  5
A2
100
AcDbEntity
  8
0
  6
BYBLOCK
 62
     2
100
AcDbBlockReference
  2
_DOTSMALL
 10
288.061274
 20
502.175716
 30
0.0
 50
180.0
  0
MTEXT
  5
A3
100
AcDbEntity
  8
0
  6
BYBLOCK
 62
     2
100
AcDbMText
 10
293.811274
 20
503.925716
 30
0.0
 40
1.5
 41
0.0
 71
     5
 72
     1
  1
\A1;0.02
  0
POINT
  5
A4
100
AcDbEntity
  8
DEFPOINTS
  6
BYBLOCK
 62
     0
100
AcDbPoint
 10
288.041274
 20
505.836023
 30
0.0
  0
POINT
  5
A5
100
AcDbEntity
  8
DEFPOINTS
  6
BYBLOCK
 62
     0
100
AcDbPoint
 10
288.061274
 20
505.836023
 30
0.0
  0
POINT
  5
A6
100
AcDbEntity
  8
DEFPOINTS
  6
BYBLOCK
 62
     0
100
AcDbPoint
 10
288.061274
 20
502.175716
 30
0.0
  0
ENDBLK
  5
A8
100
AcDbEntity
  8
0
100
AcDbBlockEnd
  0
BLOCK
  5
13B
100
AcDbEntity
  8
0
100
AcDbBlockBegin
  2
*D8
 70
     1
 10
0.0
 20
0.0
 30
0.0
  3
*D8
  1

  0
LINE
  5
133
100
AcDbEntity
  8
0
  6
BYBLOCK
 62
     1
100
AcDbLine
 10
739.634926
 20
538.595127
 30
0.0
 11
732.309793
 21
529.090264
 31
0.0
  0
LINE
  5
134
100
AcDbEntity
  8
0
  6
BYBLOCK
 62
     1
100
AcDbLine
 10
720.101239
 20
513.248825
 30
0.0
 11
718.880383
 21
511.664681
 31
0.0
  0
MTEXT
  5
135
100
AcDbEntity
  8
0
  6
BYBLOCK
 62
     3
100
AcDbMText
 10
734.602607
 20
536.160837
 30
0.0
 40
3.0
 41
0.0
 71
     5
 72
     1
  1
\A1;\U+220516
 11
0.610428
 21
0.792072
 31
0.0
  0
LINE
  5
136
100
AcDbEntity
  8
0
  6
BYBLOCK
 62
     1
100
AcDbLine
 10
721.322094
 20
514.832969
 30
0.0
 11
731.088938
 21
527.50612
 31
0.0
  0
INSERT
  5
137
100
AcDbEntity
  8
0
  6
BYBLOCK
 62
     1
100
AcDbBlockReference
  2
_OPEN30
 10
721.322094
 20
514.832969
 30
0.0
 41
2.0
 42
2.0
 43
2.0
 50
52.379563
  0
INSERT
  5
138
100
AcDbEntity
  8
0
  6
BYBLOCK
 62
     1
100
AcDbBlockReference
  2
_OPEN30
 10
731.088938
 20
527.50612
 30
0.0
 41
2.0
 42
2.0
 43
2.0
 50
232.379563
  0
POINT
  5
139
100
AcDbEntity
  8
DEFPOINTS
  6
BYBLOCK
 62
     0
100
AcDbPoint
 10
731.088938
 20
527.50612
 30
0.0
  0
POINT
  5
13A
100
AcDbEntity
  8
DEFPOINTS
  6
BYBLOCK
 62
     0
100
AcDbPoint
 10
721.322094
 20
514.832969
 30
0.0
  0
ENDBLK
  5
13C
100
AcDbEntity
  8
0
100
AcDbBlockEnd
  0
BLOCK
  5
67
100
AcDbEntity
  8
0
100
AcDbBlockBegin
  2
*D9
 70
     1
 10
0.0
 20
0.0
 30
0.0
  3
*D9
  1

  0
LINE
  5
58
100
AcDbEntity
  8
0
  6
BYBLOCK
 62
     1
100
AcDbLine
 10
585.003512
 20
509.173273
 30
0.0
 11
583.05277
 21
490.6132
 31
0.0
  0
LINE
  5
59
100
AcDbEntity
  8
0
  6
BYBLOCK
 62
     1
100
AcDbLine
 10
585.10804
 20
504.836023
 30
0.0
 11
585.10804
 21
490.505488
 31
0.0
  0
ARC
  5
5A
100
AcDbEntity
  8
0
  6
BYBLOCK
 62
     1
100
AcDbCircle
 10
585.10804
 20
510.167795
 30
0.0
 40
17.662307
100
AcDbArc
 50
250.996277
 51
264.0
  0
LINE
  5
5B
100
AcDbEntity
  8
0
  6
BYBLOCK
 62
     1
100
AcDbLine
 10
579.356671
 20
493.468129
 30
0.0
 11
571.225393
 21
496.268544
 31
0.0
  0
ARC
  5
5C
100
AcDbEntity
  8
0
  6
BYBLOCK
 62
     1
100
AcDbCircle
 10
585.10804
 20
510.167795
 30
0.0
 40
17.662307
100
AcDbArc
 50
251.017226
 51
257.508613
  0
ARC
  5
5D
100
AcDbEntity
  8
0
  6
BYBLOCK
 62
     1
100
AcDbCircle
 10
585.10804
 20
510.167795
 30
0.0
 40
17.662307
100
AcDbArc
 50
276.491387
 51
282.982774
  0
ARC
  5
5E
100
AcDbEntity
  8
0
  6
BYBLOCK
 62
     1
100
AcDbCircle
 10
585.10804
 20
510.167795
 30
0.0
 40
17.662307
100
AcDbArc
 50
264.0
 51
270.0
  0
INSERT
  5
5F
100
AcDbEntity
  8
0
  6
BYBLOCK
 62
     1
100
AcDbBlockReference
  2
_OPEN30
 10
583.261827
 20
492.602244
 30
0.0
 41
2.0
 42
2.0
 43
2.0
 50
350.754306
  0
INSERT
  5
60
100
AcDbEntity
  8
0
  6
BYBLOCK
 62
     1
100
AcDbBlockReference
  2
_OPEN30
 10
585.10804
 20
492.505488
 30
0.0
 41
2.0
 42
2.0
 43
2.0
 50
183.245694
  0
MTEXT
  5
61
100
AcDbEntity
  8
0
  6
BYBLOCK
 62
     3
100
AcDbMText
 10
576.105106
 20
497.23208
 30
0.0
 40
3.0
 41
0.0
 71
     5
 72
     1
  1
\A1;6°
 11
0.945497
 21
-0.32563
 31
0.0
  0
POINT
  5
62
100
AcDbEntity
  8
DEFPOINTS
  6
BYBLOCK
 62
     0
100
AcDbPoint
 10
584.491635
 20
492.516247
 30
0.0
  0
POINT
  5
63
100
AcDbEntity
  8
DEFPOINTS
  6
BYBLOCK
 62
     0
100
AcDbPoint
 10
587.053392
 20
528.676576
 30
0.0
  0
POINT
  5
64
100
AcDbEntity
  8
DEFPOINTS
  6
BYBLOCK
 62
     0
100
AcDbPoint
 10
585.10804
 20
532.821229
 30
0.0
  0
POINT
  5
65
100
AcDbEntity
  8
DEFPOINTS
  6
BYBLOCK
 62
     0
100
AcDbPoint
 10
585.10804
 20
505.836023
 30
0.0
  0
POINT
  5
66
100
AcDbEntity
  8
DEFPOINTS
  6
BYBLOCK
 62
     0
100
AcDbPoint
 10
585.10822
 20
510.169503
 30
0.0
  0
ENDBLK
  5
68
100
AcDbEntity
  8
0
100
AcDbBlockEnd
  0
BLOCK
  5
DB
100
AcDbEntity
  8
0
100
AcDbBlockBegin
  2
*D10
 70
     1
 10
0.0
 20
0.0
 30
0.0
  3
*D10
  1

  0
LINE
  5
D1
100
AcDbEntity
  8
0
  6
BYBLOCK
 62
     2
100
AcDbLine
 10
-548.053073
 20
515.731141
 30
0.0
 11
-548.053073
 21
508.584715
 31
0.0
  0
LINE
  5
D2
100
AcDbEntity
  8
0
  6
BYBLOCK
 62
     2
100
AcDbLine
 10
-544.60305
 20
515.731141
 30
0.0
 11
-544.60305
 21
508.584715
 31
0.0
  0
LINE
  5
D3
100
AcDbEntity
  8
0
  6
BYBLOCK
 62
     2
100
AcDbLine
 10
-548.053073
 20
510.584715
 30
0.0
 11
-544.60305
 21
510.584715
 31
0.0
  0
LINE
  5
D4
100
AcDbEntity
  8
0
  6
BYBLOCK
 62
     2
100
AcDbLine
 10
-544.60305
 20
510.584715
 30
0.0
 11
-536.10305
 21
510.584715
 31
0.0
  0
INSERT
  5
D5
100
AcDbEntity
  8
0
  6
BYBLOCK
 62
     2
100
AcDbBlockReference
  2
_DOTSMALL
 10
-548.053073
 20
510.584715
 30
0.0
 50
180.0
  0
INSERT
  5
D6
100
AcDbEntity
  8
0
  6
BYBLOCK
 62
     2
100
AcDbBlockReference
  2
_DOTSMALL
 10
-544.60305
 20
510.584715
 30
0.0
  0
MTEXT
  5
D7
100
AcDbEntity
  8
0
  6
BYBLOCK
 62
     2
100
AcDbMText
 10
-539.85305
 20
512.334715
 30
0.0
 40
1.5
 41
0.0
 71
     5
 72
     1
  1
\A1;3.45
  0
POINT
  5
D8
100
AcDbEntity
  8
DEFPOINTS
  6
BYBLOCK
 62
     0
100
AcDbPoint
 10
-548.053073
 20
516.731141
 30
0.0
  0
POINT
  5
D9
100
AcDbEntity
  8
DEFPOINTS
  6
BYBLOCK
 62
     0
100
AcDbPoint
 10
-544.60305
 20
516.731141
 30
0.0
  0
POINT
  5
DA
100
AcDbEntity
  8
DEFPOINTS
  6
BYBLOCK
 62
     0
100
AcDbPoint
 10
-544.60305
 20
510.584715
 30
0.0
  0
ENDBLK
  5
DC
100
AcDbEntity
  8
0
100
AcDbBlockEnd
  0
BLOCK
  5
129
100
AcDbEntity
  8
0
100
AcDbBlockBegin
  2
*D11
 70
     1
 10
0.0
 20
0.0
 30
0.0
  3
*D11
  1

  0
LINE
  5
120
100
AcDbEntity
  8
0
  6
BYBLOCK
 62
     1
100
AcDbLine
 10
-287.388425
 20
521.169544
 30
0.0
 11
-293.820669
 21
521.169544
 31
0.0
  0
LINE
  5
121
100
AcDbEntity
  8
0
  6
BYBLOCK
 62
     1
100
AcDbLine
 10
-283.149817
 20
525.169544
 30
0.0
 11
-293.820669
 21
525.169544
 31
0.0
  0
LINE
  5
122
100
AcDbEntity
  8
0
  6
BYBLOCK
 62
     1
100
AcDbLine
 10
-291.820669
 20
525.169544
 30
0.0
 11
-291.820669
 21
531.169544
 31
0.0
  0
INSERT
  5
123
100
AcDbEntity
  8
0
  6
BYBLOCK
 62
     1
100
AcDbBlockReference
  2
_OPEN30
 10
-291.820669
 20
521.169544
 30
0.0
 41
2.0
 42
2.0
 43
2.0
 50
270.0
  0
INSERT
  5
124
100
AcDbEntity
  8
0
  6
BYBLOCK
 62
     1
100
AcDbBlockReference
  2
_OPEN30
 10
-291.820669
 20
525.169544
 30
0.0
 41
2.0
 42
2.0
 43
2.0
 50
90.0
  0
MTEXT
  5
125
100
AcDbEntity
  8
0
  6
BYBLOCK
 62
     3
100
AcDbMText
 10
-294.320669
 20
529.169544
 30
0.0
 40
3.0
 41
0.0
 71
     5
 72
     1
  1
\A1;4
 11
0.0
 21
1.0
 31
0.0
  0
POINT
  5
126
100
AcDbEntity
  8
DEFPOINTS
  6
BYBLOCK
 62
     0
100
AcDbPoint
 10
-286.388425
 20
521.169544
 30
0.0
  0
POINT
  5
127
100
AcDbEntity
  8
DEFPOINTS
  6
BYBLOCK
 62
     0
100
AcDbPoint
 10
-282.149817
 20
525.169544
 30
0.0
  0
POINT
  5
128
100
AcDbEntity
  8
DEFPOINTS
  6
BYBLOCK
 62
     0
100
AcDbPoint
 10
-291.820669
 20
525.169544
 30
0.0
  0
ENDBLK
  5
12A
100
AcDbEntity
  8
0
100
AcDbBlockEnd
  0
BLOCK
  5
90
100
AcDbEntity
  8
0
100
AcDbBlockBegin
  2
*D12
 70
     1
 10
0.0
 20
0.0
 30
0.0
  3
*D12
  1

  0
LINE
  5
85
100
AcDbEntity
  8
0
  6
BYBLOCK
 62
     1
100
AcDbLine
 10
-281.849111
 20
526.123261
 30
0.0
 11
-278.771127
 21
535.885381
 31
0.0
  0
LINE
  5
86
100
AcDbEntity
  8
0
  6
BYBLOCK
 62
     1
100
AcDbLine
 10
-287.879299
 20
510.169544
 30
0.0
 11
-313.843103
 21
510.169544
 31
0.0
  0
ARC
  5
87
100
AcDbEntity
  8
0
  6
BYBLOCK
 62
     1
100
AcDbCircle
 10
-286.879299
 20
510.169544
 30
0.0
 40
24.963804
100
AcDbArc
 50
77.091537
 51
175.408463
  0
INSERT
  5
88
100
AcDbEntity
  8
0
  6
BYBLOCK
 62
     1
100
AcDbBlockReference
  2
_OPEN30
 10
-279.372538
 20
533.977947
 30
0.0
 41
2.0
 42
2.0
 43
2.0
 50
344.795768
  0
INSERT
  5
89
100
AcDbEntity
  8
0
  6
BYBLOCK
 62
     1
100
AcDbBlockReference
  2
_OPEN30
 10
-311.843103
 20
510.169544
 30
0.0
 41
2.0
 42
2.0
 43
2.0
 50
267.704232
  0
MTEXT
  5
8A
100
AcDbEntity
  8
0
  6
BYBLOCK
 62
     3
100
AcDbMText
 10
-303.118911
 20
532.317581
 30
0.0
 40
3.0
 41
0.0
 71
     5
 72
     1
  1
\A1;107.5°
 11
0.806445
 21
0.59131
 31
0.0
  0
POINT
  5
8B
100
AcDbEntity
  8
DEFPOINTS
  6
BYBLOCK
 62
     0
100
AcDbPoint
 10
-294.731532
 20
533.866252
 30
0.0
  0
POINT
  5
8C
100
AcDbEntity
  8
DEFPOINTS
  6
BYBLOCK
 62
     0
100
AcDbPoint
 10
-286.715254
 20
510.689827
 30
0.0
  0
POINT
  5
8D
100
AcDbEntity
  8
DEFPOINTS
  6
BYBLOCK
 62
     0
100
AcDbPoint
 10
-286.333768
 20
510.169544
 30
0.0
  0
POINT
  5
8E
100
AcDbEntity
  8
DEFPOINTS
  6
BYBLOCK
 62
     0
100
AcDbPoint
 10
-286.733768
 20
510.169544
 30
0.0
  0
POINT
  5
8F
100
AcDbEntity
  8
DEFPOINTS
  6
BYBLOCK
 62
     0
100
AcDbPoint
 10
-282.149817
 20
525.169544
 30
0.0
  0
ENDBLK
  5
91
100
AcDbEntity
  8
0
100
AcDbBlockEnd
  0
BLOCK
  5
11A
100
AcDbEntity
  8
0
100
AcDbBlockBegin
  2
*D13
 70
     1
 10
0.0
 20
0.0
 30
0.0
  3
*D13
  1

  0
LINE
  5
10F
100
AcDbEntity
  8
0
  6
BYBLOCK
 62
     2
100
AcDbLine
 10
-260.733768
 20
528.919544
 30
0.0
 11
-256.742689
 21
528.919544
 31
0.0
  0
LINE
  5
110
100
AcDbEntity
  8
0
  6
BYBLOCK
 62
     2
100
AcDbLine
 10
-274.788601
 20
529.419544
 30
0.0
 11
-259.276408
 21
538.375513
 31
0.0
  0
ARC
  5
111
100
AcDbEntity
  8
0
  6
BYBLOCK
 62
     2
100
AcDbCircle
 10
-275.654626
 20
528.919544
 30
0.0
 40
16.911938
100
AcDbArc
 50
360.0
 51
30.0
  0
INSERT
  5
112
100
AcDbEntity
  8
0
  6
BYBLOCK
 62
     2
100
AcDbBlockReference
  2
_DOTSMALL
 10
-258.742689
 20
528.919544
 30
0.0
 50
270.0
  0
INSERT
  5
113
100
AcDbEntity
  8
0
  6
BYBLOCK
 62
     2
100
AcDbBlockReference
  2
_DOTSMALL
 10
-261.008459
 20
537.375513
 30
0.0
 50
120.0
  0
MTEXT
  5
114
100
AcDbEntity
  8
0
  6
BYBLOCK
 62
     2
100
AcDbMText
 10
-257.628579
 20
533.749609
 30
0.0
 40
1.5
 41
0.0
 71
     5
 72
     1
  1
\A1;30°
 11
0.258819
 21
-0.965926
 31
0.0
  0
POINT
  5
115
100
AcDbEntity
  8
DEFPOINTS
  6
BYBLOCK
 62
     0
100
AcDbPoint
 10
-258.999619
 20
531.856272
 30
0.0
  0
POINT
  5
116
100
AcDbEntity
  8
DEFPOINTS
  6
BYBLOCK
 62
     0
100
AcDbPoint
 10
-282.149817
 20
525.169544
 30
0.0
  0
POINT
  5
117
100
AcDbEntity
  8
DEFPOINTS
  6
BYBLOCK
 62
     0
100
AcDbPoint
 10
-261.733768
 20
528.919544
 30
0.0
  0
POINT
  5
118
100
AcDbEntity
  8
DEFPOINTS
  6
BYBLOCK
 62
     0
100
AcDbPoint
 10
-275.654626
 20
528.919544
 30
0.0
  0
POINT
  5
119
100
AcDbEntity
  8
DEFPOINTS
  6
BYBLOCK
 62
     0
100
AcDbPoint
 10
-275.654626
 20
528.919544
 30
0.0
  0
ENDBLK
  5
11B
100
AcDbEntity
  8
0
100
AcDbBlockEnd
  0
BLOCK
  5
15E
100
AcDbEntity
  8
0
100
AcDbBlockBegin
  2
3
 70
     0
 10
0.0
 20
0.0
 30
0.0
  3
3
  1

  0
LINE
  5
2B
100
AcDbEntity
  8
外形
  6
CONTINUOUS
100
AcDbLine
 10
169.759757
 20
64.51939
 30
0.0
 11
213.36813
 21
64.51939
 31
0.0
  0
LINE
  5
2C
100
AcDbEntity
  8
外形
  6
CONTINUOUS
100
AcDbLine
 10
169.759757
 20
68.739679
 30
0.0
 11
213.36813
 21
68.739679
 31
0.0
  0
LINE
  5
2D
100
AcDbEntity
  8
外形
  6
CONTINUOUS
100
AcDbLine
 10
169.759757
 20
74.307443
 30
0.0
 11
213.36813
 21
74.307443
 31
0.0
  0
LINE
  5
2E
100
AcDbEntity
  8
外形
  6
CONTINUOUS
100
AcDbLine
 10
79.372218
 20
10.722225
 30
0.0
 11
213.36813
 21
10.722225
 31
0.0
  0
LINE
  5
2F
100
AcDbEntity
  8
外形
  6
CONTINUOUS
100
AcDbLine
 10
79.372218
 20
18.453095
 30
0.0
 11
213.36813
 21
18.453095
 31
0.0
  0
LINE
  5
30
100
AcDbEntity
  8
外形
  6
CONTINUOUS
100
AcDbLine
 10
79.622218
 20
22.08766
 30
0.0
 11
213.36813
 21
22.08766
 31
0.0
  0
LINE
  5
31
100
AcDbEntity
  8
外形
  6
CONTINUOUS
100
AcDbLine
 10
79.622218
 20
7.08766
 30
0.0
 11
213.36813
 21
7.08766
 31
0.0
  0
DIMENSION
  5
32
100
AcDbEntity
  8
寸法
  6
CONTINUOUS
100
AcDbDimension
  2
*D2
 10
214.36813
 20
39.596595
 30
0.0
 11
134.370174
 21
42.096595
 31
0.0
 12
341.105986
 22
-449.645983
 32
0.0
  3
STANDARD
100
AcDbAlignedDimension
 13
54.372218
 23
60.523561
 33
0.0
 14
214.36813
 24
65.523561
 34
0.0
100
AcDbRotatedDimension
1001
ACAD
1000
DSTYLE
1002
{
1070
    40
1040
1.0
1002
}
  0
LINE
  5
4C
100
AcDbEntity
  8
外形
  6
CONTINUOUS
100
AcDbLine
 10
213.36813
 20
79.523561
 30
0.0
 11
169.759757
 21
79.523561
 31
0.0
  0
LINE
  5
4D
100
AcDbEntity
  8
外形
  6
CENTER
 62
     1
100
AcDbLine
 10
50.542238
 20
14.58766
 30
0.0
 11
221.856124
 21
14.58766
 31
0.0
  0
LINE
  5
4F
100
AcDbEntity
  8
外形
  6
CENTER
 62
     1
100
AcDbLine
 10
54.717561
 20
71.523561
 30
0.0
 11
221.856124
 21
71.523561
 31
0.0
  0
TEXT
  5
50
100
AcDbEntity
  8
外形
  6
CONTINUOUS
 62
     2
100
AcDbText
 10
102.668321
 20
-24.450699
 30
0.0
 40
6.0
  1
S16N-SDQCR07
100
AcDbText
  0
MTEXT
  5
51
102
{ACAD_REACTORS
330
82
102
}
100
AcDbEntity
  8
寸法
  6
CONTINUOUS
 62
     3
100
AcDbMText
 10
20.598836
 20
93.521657
 30
0.0
 40
3.0
 41
0.0
 71
     4
 72
     1
  1
%%c20最小加工径
  0
LINE
  5
52
100
AcDbEntity
  8
外形
  6
CONTINUOUS
100
AcDbLine
 10
73.098578
 20
64.51939
 30
0.0
 11
150.759757
 21
64.51939
 31
0.0
  0
LINE
  5
53
100
AcDbEntity
  8
外形
  6
CONTINUOUS
100
AcDbLine
 10
150.759757
 20
79.523561
 30
0.0
 11
79.622218
 21
79.523561
 31
0.0
  0
LINE
  5
54
100
AcDbEntity
  8
外形
  6
CONTINUOUS
100
AcDbLine
 10
79.372218
 20
74.307443
 30
0.0
 11
150.759757
 21
74.307443
 31
0.0
  0
LINE
  5
55
100
AcDbEntity
  8
外形
  6
CONTINUOUS
100
AcDbLine
 10
79.372218
 20
68.739679
 30
0.0
 11
150.759757
 21
68.739679
 31
0.0
  0
DIMENSION
  5
56
100
AcDbEntity
  8
寸法
  6
CONTINUOUS
100
AcDbDimension
  2
*D9
 10
3.270834
 20
60.52352
 30
0.0
 11
-5.73228
 21
47.586097
 31
0.0
 12
-581.837386
 22
-449.645983
 32
0.0
 70
     2
  3
STANDARD
100
AcDb2LineAngularDimension
 13
3.270655
 23
83.175245
 33
0.0
 14
3.270655
 24
56.19004
 34
0.0
 15
5.216006
 25
79.030592
 35
0.0
 16
2.654249
 26
42.870264
 36
0.0
1001
ACAD
1000
DSTYLE
1002
{
1070
    40
1040
1.0
1002
}
  0
ARC
  5
69
100
AcDbEntity
  8
外形
  6
CONTINUOUS
100
AcDbCircle
 10
62.939199
 20
28.58766
 30
0.0
 40
14.0
100
AcDbArc
 50
270.0
 51
333.485225
  0
LINE
  5
6A
100
AcDbEntity
  8
外形
  6
CONTINUOUS
100
AcDbLine
 10
79.372218
 20
22.33766
 30
0.0
 11
79.372218
 21
17.904901
 31
0.0
  0
LINE
  5
6B
100
AcDbEntity
  8
外形
  6
CONTINUOUS
100
AcDbLine
 10
79.372218
 20
22.33766
 30
0.0
 11
79.372218
 21
18.264711
 31
0.0
  0
LINE
  5
6C
100
AcDbEntity
  8
外形
  6
CONTINUOUS
100
AcDbLine
 10
79.622218
 20
22.08766
 30
0.0
 11
79.622218
 21
18.453095
 31
0.0
  0
SPLINE
  5
6D
100
AcDbEntity
  8
外形
  6
CONTINUOUS
100
AcDbSpline
210
0.0
220
0.0
230
1.0
 70
     8
 71
     3
 72
     9
 73
     5
 74
     0
 42
0.0000001
 43
0.0000001
 40
0.0
 40
0.0
 40
0.0
 40
0.0
 40
9.051669224583934
 40
15.4118948089891
 40
15.4118948089891
 40
15.4118948089891
 40
15.4118948089891
 10
54.67356311357915
 20
15.54844142061256
 30
0.0
 10
57.59467403122599
 20
15.64435316366297
 30
0.0
 10
62.86903975595762
 20
15.8076580368487
 30
0.0
 10
67.19607744933378
 20
18.73014312040493
 30
0.0
 10
75.46666882071159
 20
22.33765984062802
 30
0.0
  0
LINE
  5
6E
100
AcDbEntity
  8
外形
  6
CONTINUOUS
100
AcDbLine
 10
65.160287
 20
12.20766
 30
0.0
 11
68.954333
 21
10.413629
 31
0.0
  0
LINE
  5
6F
100
AcDbEntity
  8
外形
  6
CONTINUOUS
100
AcDbLine
 10
79.372218
 20
6.83766
 30
0.0
 11
54.778379
 21
6.83766
 31
0.0
  0
LINE
  5
70
100
AcDbEntity
  8
外形
  6
CONTINUOUS
100
AcDbLine
 10
79.372218
 20
6.83766
 30
0.0
 11
57.673563
 21
6.83766
 31
0.0
  0
LINE
  5
71
100
AcDbEntity
  8
外形
  6
CONTINUOUS
100
AcDbLine
 10
65.160287
 20
12.20766
 30
0.0
 11
65.160287
 21
6.83766
 31
0.0
  0
LINE
  5
72
100
AcDbEntity
  8
外形
  6
CONTINUOUS
100
AcDbLine
 10
54.778379
 20
6.83766
 30
0.0
 11
54.496949
 21
12.20766
 31
0.0
  0
LINE
  5
73
100
AcDbEntity
  8
外形
  6
CONTINUOUS
100
AcDbLine
 10
60.862522
 20
14.58766
 30
0.0
 11
60.572473
 21
12.2254
 31
0.0
  0
LINE
  5
74
100
AcDbEntity
  8
外形
  6
CONTINUOUS
100
AcDbLine
 10
54.673563
 20
14.58766
 30
0.0
 11
54.673563
 21
15.548441
 31
0.0
  0
LINE
  5
75
100
AcDbEntity
  8
外形
  6
CONTINUOUS
100
AcDbLine
 10
54.664446
 20
12.20766
 30
0.0
 11
54.372218
 21
14.58766
 31
0.0
  0
LINE
  5
76
100
AcDbEntity
  8
外形
  6
CONTINUOUS
100
AcDbLine
 10
54.496949
 20
12.20766
 30
0.0
 11
65.160287
 21
12.20766
 31
0.0
  0
LINE
  5
77
100
AcDbEntity
  8
外形
  6
CONTINUOUS
100
AcDbLine
 10
62.939199
 20
14.58766
 30
0.0
 11
54.372218
 21
14.58766
 31
0.0
  0
LINE
  5
78
100
AcDbEntity
  8
外形
  6
CONTINUOUS
100
AcDbLine
 10
79.372218
 20
11.270419
 30
0.0
 11
79.372218
 21
6.83766
 31
0.0
  0
LINE
  5
79
100
AcDbEntity
  8
外形
  6
CONTINUOUS
100
AcDbLine
 10
79.372218
 20
10.910609
 30
0.0
 11
79.372218
 21
6.83766
 31
0.0
  0
LINE
  5
7A
100
AcDbEntity
  8
外形
  6
CONTINUOUS
100
AcDbLine
 10
79.622218
 20
10.722225
 30
0.0
 11
79.622218
 21
7.08766
 31
0.0
  0
LINE
  5
7B
100
AcDbEntity
  8
外形
  6
CONTINUOUS
100
AcDbLine
 10
79.372218
 20
6.83766
 30
0.0
 11
79.622218
 21
7.08766
 31
0.0
  0
ARC
  5
7C
100
AcDbEntity
  8
外形
  6
CONTINUOUS
100
AcDbCircle
 10
70.339199
 20
14.166248
 30
0.0
 40
4.0
100
AcDbArc
 50
249.743931
 51
313.617826
  0
LINE
  5
7D
100
AcDbEntity
  8
外形
  6
CONTINUOUS
100
AcDbLine
 10
73.098578
 20
18.955058
 30
0.0
 11
73.098578
 21
11.270419
 31
0.0
  0
LINE
  5
7E
100
AcDbEntity
  8
外形
  6
CONTINUOUS
100
AcDbLine
 10
79.372218
 20
17.904901
 30
0.0
 11
73.098578
 21
17.904901
 31
0.0
  0
LINE
  5
7F
100
AcDbEntity
  8
外形
  6
CONTINUOUS
100
AcDbLine
 10
79.372218
 20
11.270419
 30
0.0
 11
73.098578
 21
11.270419
 31
0.0
  0
LINE
  5
80
100
AcDbEntity
  8
外形
  6
CONTINUOUS
100
AcDbLine
 10
79.372218
 20
22.33766
 30
0.0
 11
79.622218
 21
22.08766
 31
0.0
  0
LINE
  5
81
100
AcDbEntity
  8
外形
  6
CONTINUOUS
100
AcDbLine
 10
79.372218
 20
22.33766
 30
0.0
 11
75.466669
 21
22.33766
 31
0.0
  0
LEADER
  5
82
100
AcDbEntity
  8
寸法
  6
CONTINUOUS
 62
     1
100
AcDbLeader
  3
STANDARD
 73
     0
 74
     0
 75
     1
 40
3.0
 41
26.0
 76
     3
 10
9.518563
 20
78.331482
 30
0.0
 10
17.485889
 20
91.572692
 30
0.0
 10
19.485889
 20
91.572692
 30
0.0
 77
   256
340
51
213
-0.1129475379637483
223
0.5510341987360618
233
0.0
1001
ACAD
1000
DSTYLE
1002
{
1070
   284
1070
    13
1070
   146
1040
0.5
1070
   272
1070
     3
1070
    40
1040
1.0
1070
   287
1070
     0
1002
}
  0
DIMENSION
  5
83
100
AcDbEntity
  8
寸法
  6
CONTINUOUS
100
AcDbDimension
  2
*D12
 10
58.956169
 20
75.523561
 30
0.0
 11
37.987075
 21
82.671598
 31
0.0
 12
341.105986
 22
-449.645983
 32
0.0
 70
     2
  3
STANDARD
100
AcDb2LineAngularDimension
 13
54.772218
 23
60.523561
 33
0.0
 14
54.372218
 24
60.523561
 34
0.0
 15
54.390732
 25
61.043843
 35
0.0
 16
46.374454
 26
84.220268
 36
0.0
1001
ACAD
1000
DSTYLE
1002
{
1070
    40
1040
1.0
1002
}
  0
CIRCLE
  5
92
100
AcDbEntity
  8
外形
  6
CENTER
 62
     1
100
AcDbCircle
 10
3.270655
 20
70.523561
 30
0.0
 40
10.0
  0
LINE
  5
93
100
AcDbEntity
  8
外形
  6
CONTINUOUS
100
AcDbLine
 10
-4.229345
 20
63.909183
 30
0.0
 11
-4.229345
 21
73.397621
 31
0.0
  0
LINE
  5
94
100
AcDbEntity
  8
外形
  6
CONTINUOUS
100
AcDbLine
 10
10.770655
 20
68.739679
 30
0.0
 11
10.770655
 21
73.551392
 31
0.0
  0
LINE
  5
95
100
AcDbEntity
  8
外形
  6
CENTER
 62
     1
100
AcDbLine
 10
3.270655
 20
83.175245
 30
0.0
 11
3.270655
 21
56.19004
 31
0.0
  0
LINE
  5
96
100
AcDbEntity
  8
外形
  6
CENTER
 62
     1
100
AcDbLine
 10
3.290655
 20
83.175245
 30
0.0
 11
3.290655
 21
56.19004
 31
0.0
  0
LINE
  5
97
100
AcDbEntity
  8
外形
  6
CONTINUOUS
100
AcDbLine
 10
5.216006
 20
79.030592
 30
0.0
 11
3.270834
 21
60.52352
 31
0.0
  0
ARC
  5
98
100
AcDbEntity
  8
外形
  6
CONTINUOUS
100
AcDbCircle
 10
3.270655
 20
71.523561
 30
0.0
 40
8.0
100
AcDbArc
 50
272.264872
 51
339.635865
  0
DIMENSION
  5
99
100
AcDbEntity
  8
参考
  6
CONTINUOUS
100
AcDbDimension
  2
*D7
 10
3.290655
 20
52.529733
 30
0.0
 11
9.040655
 21
54.279733
 31
0.0
 12
-284.770619
 22
-449.645983
 32
0.0
  3
参考寸法
100
AcDbAlignedDimension
 13
3.270655
 23
56.19004
 33
0.0
 14
3.290655
 24
56.19004
 34
0.0
100
AcDbRotatedDimension
1001
ACAD
1000
DSTYLE
1002
{
1070
   140
1040
1.5
1070
    41
1040
1.0
1002
}
  0
DIMENSION
  5
A9
100
AcDbEntity
  8
参考
  6
CONTINUOUS
100
AcDbDimension
  2
*D6
 10
0.480939
 20
56.748357
 30
0.0
 11
-4.060115
 21
58.985281
 31
0.0
 12
-581.837204
 22
-451.646009
 32
0.0
 70
     1
  3
参考寸法
100
AcDbAlignedDimension
 13
3.270655
 23
60.523561
 33
0.0
 14
0.903875
 24
60.77232
 34
0.0
1001
ACAD
1000
DSTYLE
1002
{
1070
   140
1040
1.5
1070
    41
1040
1.0
1002
}
  0
ARC
  5
B7
100
AcDbEntity
  8
外形
  6
CONTINUOUS
100
AcDbCircle
 10
3.270655
 20
70.523561
 30
0.0
 40
10.0
100
AcDbArc
 50
221.409622
 51
270.001054
  0
LINE
  5
B8
100
AcDbEntity
  8
外形
  6
CONTINUOUS
100
AcDbLine
 10
1.622837
 20
67.612786
 30
0.0
 11
0.934418
 21
61.062924
 31
0.0
  0
LINE
  5
B9
100
AcDbEntity
  8
外形
  6
CONTINUOUS
100
AcDbLine
 10
4.020345
 20
67.654635
 30
0.0
 11
1.622837
 21
67.612786
 31
0.0
  0
LINE
  5
BA
100
AcDbEntity
  8
外形
  6
CONTINUOUS
100
AcDbLine
 10
3.270833
 20
60.52352
 30
0.0
 11
0.934418
 21
61.062924
 31
0.0
  0
ARC
  5
BB
100
AcDbEntity
  8
外形
  6
CONTINUOUS
100
AcDbCircle
 10
3.290655
 20
71.523561
 30
0.0
 40
7.75
100
AcDbArc
 50
15.168326
 51
166.006361
  0
LINE
  5
BC
100
AcDbEntity
  8
外形
  6
CENTER
 62
     1
100
AcDbLine
 10
16.024563
 20
71.523561
 30
0.0
 11
-9.181834
 21
71.523561
 31
0.0
  0
LINE
  5
BD
100
AcDbEntity
  8
外形
  6
CONTINUOUS
100
AcDbLine
 10
61.461996
 20
69.226995
 30
0.0
 11
63.21681
 21
70.260659
 31
0.0
  0
ARC
  5
BE
100
AcDbEntity
  8
外形
  6
CONTINUOUS
100
AcDbCircle
 10
63.87661
 20
69.140542
 30
0.0
 40
1.3
100
AcDbArc
 50
300.5
 51
120.5
  0
LINE
  5
BF
100
AcDbEntity
  8
外形
  6
CONTINUOUS
100
AcDbLine
 10
54.390732
 20
61.043843
 30
0.0
 11
58.956169
 21
75.523561
 31
0.0
  0
LINE
  5
C0
100
AcDbEntity
  8
外形
  6
CONTINUOUS
100
AcDbLine
 10
75.466669
 20
69.51939
 30
0.0
 11
75.466669
 21
74.030592
 31
0.0
  0
DIMENSION
  5
C1
100
AcDbEntity
  8
寸法
  6
CONTINUOUS
100
AcDbDimension
  2
*D3
 10
49.285317
 20
71.523561
 30
0.0
 11
46.785317
 21
66.023561
 31
0.0
 12
-581.837386
 22
-449.645983
 32
0.0
  3
STANDARD
100
AcDbAlignedDimension
 13
54.372218
 23
60.523561
 33
0.0
 14
54.717561
 24
71.523561
 34
0.0
 50
90.0
100
AcDbRotatedDimension
1001
ACAD
1000
DSTYLE
1002
{
1070
    40
1040
1.0
1002
}
  0
LINE
  5
CE
100
AcDbEntity
  8
外形
  6
CONTINUOUS
100
AcDbLine
 10
61.503292
 20
62.626449
 30
0.0
 11
68.954333
 21
65.37618
 31
0.0
  0
DIMENSION
  5
CF
100
AcDbEntity
  8
参考
  6
CONTINUOUS
100
AcDbDimension
  2
*D10
 10
60.714211
 20
58.938732
 30
0.0
 11
65.464211
 21
60.688732
 31
0.0
 12
605.317261
 22
-451.645983
 32
0.0
  3
参考寸法
100
AcDbAlignedDimension
 13
57.264187
 23
65.085158
 33
0.0
 14
60.714211
 24
65.085158
 34
0.0
100
AcDbRotatedDimension
1001
ACAD
1000
DSTYLE
1002
{
1070
   140
1040
1.5
1070
    41
1040
1.0
1002
}
  0
DIMENSION
  5
DD
100
AcDbEntity
  8
参考
  6
CONTINUOUS
100
AcDbDimension
  2
*D4
 10
79.372218
 20
52.153863
 30
0.0
 11
66.872218
 21
53.903863
 31
0.0
 12
-535.476319
 22
-449.645983
 32
0.0
  3
参考寸法
100
AcDbAlignedDimension
 13
54.372218
 23
60.523561
 33
0.0
 14
79.372218
 24
64.51939
 34
0.0
100
AcDbRotatedDimension
1001
ACAD
1000
DSTYLE
1002
{
1070
   140
1040
1.5
1070
    41
1040
1.0
1002
}
  0
ARC
  5
EA
100
AcDbEntity
  8
外形
  6
CONTINUOUS
100
AcDbCircle
 10
63.20618
 20
69.357522
 30
0.0
 40
0.4
100
AcDbArc
 50
342.5
 51
107.5
  0
LINE
  5
EB
100
AcDbEntity
  8
外形
  6
CONTINUOUS
100
AcDbLine
 10
60.077147
 20
65.140542
 30
0.0
 11
59.667708
 21
64.901443
 31
0.0
  0
LINE
  5
EC
100
AcDbEntity
  8
外形
  6
CONTINUOUS
100
AcDbLine
 10
59.667708
 20
65.37964
 30
0.0
 11
60.077147
 21
65.140542
 31
0.0
  0
ARC
  5
ED
100
AcDbEntity
  8
外形
  6
CONTINUOUS
100
AcDbCircle
 10
59.802183
 20
65.609918
 30
0.0
 40
0.266668
100
AcDbArc
 50
180.283476
 51
239.716524
  0
LINE
  5
EE
100
AcDbEntity
  8
外形
  6
CONTINUOUS
100
AcDbLine
 10
59.533173
 20
66.082732
 30
0.0
 11
59.535519
 21
65.608599
 31
0.0
  0
ARC
  5
EF
100
AcDbEntity
  8
外形
  6
CONTINUOUS
100
AcDbCircle
 10
59.802183
 20
64.671165
 30
0.0
 40
0.266668
100
AcDbArc
 50
120.283476
 51
179.716524
  0
LINE
  5
F0
100
AcDbEntity
  8
外形
  6
CONTINUOUS
100
AcDbLine
 10
59.535519
 20
64.672484
 30
0.0
 11
59.533173
 21
64.198351
 31
0.0
  0
LINE
  5
F1
100
AcDbEntity
  8
外形
  6
CONTINUOUS
100
AcDbLine
 10
59.121389
 20
65.847697
 30
0.0
 11
59.533173
 21
66.082732
 31
0.0
  0
LINE
  5
F2
100
AcDbEntity
  8
外形
  6
CONTINUOUS
100
AcDbLine
 10
59.533173
 20
64.198351
 30
0.0
 11
59.121389
 21
64.433386
 31
0.0
  0
LINE
  5
F3
100
AcDbEntity
  8
外形
  6
CONTINUOUS
100
AcDbLine
 10
62.900102
 20
67.056565
 30
0.0
 11
64.53641
 21
68.020424
 31
0.0
  0
LINE
  5
F4
100
AcDbEntity
  8
外形
  6
CONTINUOUS
100
AcDbLine
 10
58.31069
 20
64.901443
 30
0.0
 11
57.901251
 21
65.140542
 31
0.0
  0
LINE
  5
F5
100
AcDbEntity
  8
外形
  6
CONTINUOUS
100
AcDbLine
 10
57.901251
 20
65.140542
 30
0.0
 11
58.31069
 21
65.37964
 31
0.0
  0
ARC
  5
F6
100
AcDbEntity
  8
外形
  6
CONTINUOUS
100
AcDbCircle
 10
58.176215
 20
65.609918
 30
0.0
 40
0.266668
100
AcDbArc
 50
300.283476
 51
359.716524
  0
LINE
  5
F7
100
AcDbEntity
  8
外形
  6
CONTINUOUS
100
AcDbLine
 10
58.445225
 20
66.082732
 30
0.0
 11
58.857009
 21
65.847697
 31
0.0
  0
LINE
  5
F8
100
AcDbEntity
  8
外形
  6
CONTINUOUS
100
AcDbLine
 10
58.442879
 20
65.608599
 30
0.0
 11
58.445225
 21
66.082732
 31
0.0
  0
ARC
  5
F9
100
AcDbEntity
  8
外形
  6
CONTINUOUS
100
AcDbCircle
 10
58.176215
 20
64.671165
 30
0.0
 40
0.266668
100
AcDbArc
 50
0.283476
 51
59.716524
  0
LINE
  5
FA
100
AcDbEntity
  8
外形
  6
CONTINUOUS
100
AcDbLine
 10
58.445225
 20
64.198351
 30
0.0
 11
58.442879
 21
64.672484
 31
0.0
  0
LINE
  5
FB
100
AcDbEntity
  8
外形
  6
CONTINUOUS
100
AcDbLine
 10
58.857009
 20
64.433386
 30
0.0
 11
58.445225
 21
64.198351
 31
0.0
  0
LINE
  5
FC
100
AcDbEntity
  8
外形
  6
CONTINUOUS
 62
     1
100
AcDbLine
 10
54.372218
 20
60.923561
 30
0.0
 11
54.372218
 21
60.523561
 31
0.0
  0
LINE
  5
FD
100
AcDbEntity
  8
外形
  6
CONTINUOUS
 62
     1
100
AcDbLine
 10
54.772218
 20
60.523561
 30
0.0
 11
54.372218
 21
60.523561
 31
0.0
  0
ARC
  5
FE
100
AcDbEntity
  8
外形
  6
CONTINUOUS
100
AcDbCircle
 10
54.772218
 20
60.923561
 30
0.0
 40
0.4
100
AcDbArc
 50
162.5
 51
287.5
  0
CIRCLE
  5
FF
100
AcDbEntity
  8
外形
  6
CONTINUOUS
100
AcDbCircle
 10
58.989199
 20
65.140542
 30
0.0
 40
1.725012
  0
ARC
  5
100
100
AcDbEntity
  8
外形
  6
CONTINUOUS
100
AcDbCircle
 10
58.989199
 20
66.079295
 30
0.0
 40
0.266668
100
AcDbArc
 50
240.283476
 51
299.716524
  0
ARC
  5
101
100
AcDbEntity
  8
外形
  6
CONTINUOUS
100
AcDbCircle
 10
58.989199
 20
64.201788
 30
0.0
 40
0.266668
100
AcDbArc
 50
60.283476
 51
119.716524
  0
LINE
  5
102
100
AcDbEntity
  8
外形
  6
CONTINUOUS
100
AcDbLine
 10
54.892501
 20
60.542074
 30
0.0
 11
61.503292
 21
62.626449
 31
0.0
  0
LINE
  5
103
100
AcDbEntity
  8
外形
  6
CENTER
 62
     1
100
AcDbLine
 10
54.805642
 20
65.140542
 30
0.0
 11
63.338445
 21
65.140542
 31
0.0
  0
LINE
  5
104
100
AcDbEntity
  8
外形
  6
CENTER
 62
     1
100
AcDbLine
 10
58.989199
 20
59.853794
 30
0.0
 11
58.989199
 21
69.510855
 31
0.0
  0
LINE
  5
105
100
AcDbEntity
  8
外形
  6
CONTINUOUS
100
AcDbLine
 10
63.587666
 20
69.23724
 30
0.0
 11
61.503292
 21
62.626449
 31
0.0
  0
CIRCLE
  5
106
100
AcDbEntity
  8
外形
  6
CONTINUOUS
100
AcDbCircle
 10
58.989199
 20
65.140542
 30
0.0
 40
3.175
  0
LINE
  5
107
100
AcDbEntity
  8
外形
  6
CONTINUOUS
100
AcDbLine
 10
56.475106
 20
67.654635
 30
0.0
 11
63.085897
 21
69.739009
 31
0.0
  0
ARC
  5
108
100
AcDbEntity
  8
外形
  6
CONTINUOUS
100
AcDbCircle
 10
70.339199
 20
61.623561
 30
0.0
 40
4.0
100
AcDbArc
 50
46.382174
 51
110.256069
  0
ARC
  5
109
100
AcDbEntity
  8
外形
  6
CONTINUOUS
100
AcDbCircle
 10
70.466669
 20
69.51939
 30
0.0
 40
5.0
100
AcDbArc
 50
294.432338
 51
0.0
  0
LINE
  5
10A
100
AcDbEntity
  8
外形
  6
CONTINUOUS
100
AcDbLine
 10
79.372218
 20
69.570999
 30
0.0
 11
75.466669
 21
69.570999
 31
0.0
  0
LINE
  5
10B
100
AcDbEntity
  8
外形
  6
CONTINUOUS
100
AcDbLine
 10
79.622218
 20
64.51939
 30
0.0
 11
79.622218
 21
68.739679
 31
0.0
  0
LINE
  5
10C
100
AcDbEntity
  8
外形
  6
CONTINUOUS
100
AcDbLine
 10
79.372218
 20
64.51939
 30
0.0
 11
79.372218
 21
69.570999
 31
0.0
  0
DIMENSION
  5
10D
100
AcDbEntity
  8
参考
  6
CONTINUOUS
100
AcDbDimension
  2
*D13
 10
65.45136
 20
79.273561
 30
0.0
 11
83.477407
 21
84.103626
 31
0.0
 12
341.105986
 22
-449.645983
 32
0.0
 70
     2
  3
参考寸法
100
AcDb2LineAngularDimension
 13
79.372218
 23
79.273561
 33
0.0
 14
65.45136
 24
79.273561
 34
0.0
 15
58.956169
 25
75.523561
 35
0.0
 16
82.106367
 26
82.210288
 36
0.0
1001
ACAD
1000
DSTYLE
1002
{
1070
   140
1040
1.5
1070
    41
1040
1.0
1002
}
  0
LINE
  5
11C
100
AcDbEntity
  8
外形
  6
CONTINUOUS
100
AcDbLine
 10
65.030526
 20
79.030592
 30
0.0
 11
70.497508
 21
79.030592
 31
0.0
  0
LINE
  5
11D
100
AcDbEntity
  8
外形
  6
CONTINUOUS
100
AcDbLine
 10
79.372218
 20
79.273561
 30
0.0
 11
65.45136
 21
79.273561
 31
0.0
  0
DIMENSION
  5
11E
100
AcDbEntity
  8
寸法
  6
CONTINUOUS
100
AcDbDimension
  2
*D11
 10
49.285317
 20
75.523561
 30
0.0
 11
46.785317
 21
79.523561
 31
0.0
 12
341.105986
 22
-449.645983
 32
0.0
  3
STANDARD
100
AcDbAlignedDimension
 13
54.717561
 23
71.523561
 33
0.0
 14
58.956169
 24
75.523561
 34
0.0
 50
90.0
100
AcDbRotatedDimension
1001
ACAD
1000
DSTYLE
1002
{
1070
    40
1040
1.0
1002
}
  0
LINE
  5
12B
100
AcDbEntity
  8
外形
  6
CONTINUOUS
100
AcDbLine
 10
58.956169
 20
75.523561
 30
0.0
 11
65.45136
 21
79.273561
 31
0.0
  0
ARC
  5
12C
100
AcDbEntity
  8
外形
  6
CONTINUOUS
100
AcDbCircle
 10
70.466669
 20
74.030592
 30
0.0
 40
5.0
100
AcDbArc
 50
0.0
 51
90.0
  0
LINE
  5
12D
100
AcDbEntity
  8
外形
  6
CONTINUOUS
100
AcDbLine
 10
79.372218
 20
73.476123
 30
0.0
 11
75.466669
 21
73.476123
 31
0.0
  0
LINE
  5
12E
100
AcDbEntity
  8
外形
  6
CONTINUOUS
100
AcDbLine
 10
79.622218
 20
74.307443
 30
0.0
 11
79.622218
 21
79.523561
 31
0.0
  0
LINE
  5
12F
100
AcDbEntity
  8
外形
  6
CONTINUOUS
100
AcDbLine
 10
79.372218
 20
73.476123
 30
0.0
 11
79.372218
 21
79.273561
 31
0.0
  0
LINE
  5
130
100
AcDbEntity
  8
外形
  6
CONTINUOUS
100
AcDbLine
 10
79.622218
 20
79.523561
 30
0.0
 11
79.372218
 21
79.273561
 31
0.0
  0
DIMENSION
  5
131
100
AcDbEntity
  8
寸法
  6
CONTINUOUS
100
AcDbDimension
  2
*D8
 10
155.376335
 20
65.186985
 30
0.0
 11
170.637029
 21
84.988784
 31
0.0
 12
-565.945759
 22
-449.645983
 32
0.0
 70
   131
  3
STANDARD
100
AcDbDiametricDimension
 15
165.143179
 25
77.860137
 35
0.0
 40
0.0
1001
ACAD
1000
DSTYLE
1002
{
1070
    40
1040
1.0
1002
}
  0
LINE
  5
13D
100
AcDbEntity
  8
外形
  6
CONTINUOUS
100
AcDbLine
 10
167.759757
 20
74.307443
 30
0.0
 11
167.759757
 21
68.739679
 31
0.0
  0
LINE
  5
13E
100
AcDbEntity
  8
外形
  6
CONTINUOUS
100
AcDbLine
 10
152.759757
 20
74.307443
 30
0.0
 11
152.759757
 21
68.739679
 31
0.0
  0
LINE
  5
13F
100
AcDbEntity
  8
外形
  6
CENTER
 62
     1
100
AcDbLine
 10
160.259757
 20
81.592559
 30
0.0
 11
160.259757
 21
61.912732
 31
0.0
  0
DIMENSION
  5
140
100
AcDbEntity
  8
寸法
  6
CONTINUOUS
100
AcDbDimension
  2
*D5
 10
167.759757
 20
50.644166
 30
0.0
 11
144.36813
 21
53.144166
 31
0.0
 12
-565.945759
 22
-449.645983
 32
0.0
  3
STANDARD
100
AcDbAlignedDimension
 13
152.759757
 23
68.739679
 33
0.0
 14
167.759757
 24
68.739679
 34
0.0
100
AcDbRotatedDimension
1001
ACAD
1000
DSTYLE
1002
{
1070
    40
1040
1.0
1002
}
  0
ARC
  5
14D
100
AcDbEntity
  8
外形
  6
CONTINUOUS
100
AcDbCircle
 10
160.259757
 20
71.523561
 30
0.0
 40
8.0
100
AcDbArc
 50
298.893261
 51
339.635865
  0
LINE
  5
14E
100
AcDbEntity
  8
外形
  6
CONTINUOUS
100
AcDbLine
 10
156.394322
 20
64.51939
 30
0.0
 11
164.125192
 21
64.51939
 31
0.0
  0
ARC
  5
14F
100
AcDbEntity
  8
外形
  6
CONTINUOUS
100
AcDbCircle
 10
160.259757
 20
71.523561
 30
0.0
 40
8.0
100
AcDbArc
 50
200.364135
 51
241.106739
  0
ARC
  5
150
100
AcDbEntity
  8
外形
  6
CONTINUOUS
100
AcDbCircle
 10
160.259757
 20
71.523561
 30
0.0
 40
8.0
100
AcDbArc
 50
20.364135
 51
159.635865
  0
LINE
  5
151
100
AcDbEntity
  8
外形
  6
CONTINUOUS
100
AcDbLine
 10
213.36813
 20
22.08766
 30
0.0
 11
213.36813
 21
18.453095
 31
0.0
  0
LINE
  5
152
100
AcDbEntity
  8
外形
  6
CONTINUOUS
100
AcDbLine
 10
214.36813
 20
8.08766
 30
0.0
 11
214.36813
 21
21.08766
 31
0.0
  0
LINE
  5
153
100
AcDbEntity
  8
外形
  6
CONTINUOUS
100
AcDbLine
 10
213.36813
 20
10.722225
 30
0.0
 11
213.36813
 21
7.08766
 31
0.0
  0
LINE
  5
154
100
AcDbEntity
  8
外形
  6
CONTINUOUS
100
AcDbLine
 10
213.36813
 20
7.08766
 30
0.0
 11
214.36813
 21
8.08766
 31
0.0
  0
ARC
  5
155
100
AcDbEntity
  8
外形
  6
CONTINUOUS
100
AcDbCircle
 10
206.363959
 20
14.58766
 30
0.0
 40
8.0
100
AcDbArc
 50
331.106739
 51
28.893261
  0
LINE
  5
156
100
AcDbEntity
  8
外形
  6
CONTINUOUS
100
AcDbLine
 10
213.36813
 20
22.08766
 30
0.0
 11
214.36813
 21
21.08766
 31
0.0
  0
ARC
  5
157
100
AcDbEntity
  8
外形
  6
CONTINUOUS
100
AcDbCircle
 10
205.86813
 20
71.523561
 30
0.0
 40
8.0
100
AcDbArc
 50
339.635865
 51
20.364135
  0
LINE
  5
158
100
AcDbEntity
  8
外形
  6
CONTINUOUS
100
AcDbLine
 10
214.36813
 20
65.523561
 30
0.0
 11
214.36813
 21
78.523561
 31
0.0
  0
LINE
  5
159
100
AcDbEntity
  8
外形
  6
CENTER
 62
     1
100
AcDbLine
 10
215.589199
 20
59.853794
 30
0.0
 11
215.589199
 21
69.510855
 31
0.0
  0
LINE
  5
15A
100
AcDbEntity
  8
外形
  6
CONTINUOUS
100
AcDbLine
 10
213.36813
 20
64.523561
 30
0.0
 11
214.36813
 21
65.523561
 31
0.0
  0
LINE
  5
15B
100
AcDbEntity
  8
外形
  6
CONTINUOUS
100
AcDbLine
 10
213.36813
 20
68.739679
 30
0.0
 11
213.36813
 21
64.523561
 31
0.0
  0
LINE
  5
15C
100
AcDbEntity
  8
外形
  6
CONTINUOUS
100
AcDbLine
 10
213.36813
 20
79.523561
 30
0.0
 11
213.36813
 21
74.307443
 31
0.0
  0
LINE
  5
15D
100
AcDbEntity
  8
外形
  6
CONTINUOUS
100
AcDbLine
 10
213.36813
 20
79.523561
 30
0.0
 11
214.36813
 21
78.523561
 31
0.0
  0
ENDBLK
  5
15F
100
AcDbEntity
  8
0
100
AcDbBlockEnd
  0
BLOCK
  5
338
100
AcDbEntity
  8
0
100
AcDbBlockBegin
  2
*D15
 70
     1
 10
0.0
 20
0.0
 30
0.0
  3
*D15
  1

  0
LINE
  5
339
100
AcDbEntity
  8
0
  6
BYBLOCK
 62
     1
100
AcDbLine
 10
993.156213
 20
247.2849
 30
0.0
 11
1026.055577
 21
247.2849
 31
0.0
  0
LINE
  5
33A
100
AcDbEntity
  8
0
  6
BYBLOCK
 62
     1
100
AcDbLine
 10
1018.156213
 20
251.280729
 30
0.0
 11
1026.055577
 21
251.280729
 31
0.0
  0
LINE
  5
33B
100
AcDbEntity
  8
0
  6
BYBLOCK
 62
     1
100
AcDbLine
 10
1024.055577
 20
253.280729
 30
0.0
 11
1024.055577
 21
255.280729
 31
0.0
  0
LINE
  5
33C
100
AcDbEntity
  8
0
  6
BYBLOCK
 62
     1
100
AcDbLine
 10
1024.055577
 20
245.2849
 30
0.0
 11
1024.055577
 21
237.618233
 31
0.0
  0
LINE
  5
33D
100
AcDbEntity
  8
0
  6
BYBLOCK
 62
     1
100
AcDbLine
 10
1024.055577
 20
251.280729
 30
0.0
 11
1024.055577
 21
247.2849
 31
0.0
  0
INSERT
  5
33E
100
AcDbEntity
  8
0
  6
BYBLOCK
 62
     1
100
AcDbBlockReference
  2
_OPEN30
 10
1024.055577
 20
251.280729
 30
0.0
 41
2.0
 42
2.0
 43
2.0
 50
270.0
  0
INSERT
  5
33F
100
AcDbEntity
  8
0
  6
BYBLOCK
 62
     1
100
AcDbBlockReference
  2
_OPEN30
 10
1024.055577
 20
247.2849
 30
0.0
 41
2.0
 42
2.0
 43
2.0
 50
90.0
  0
MTEXT
  5
340
100
AcDbEntity
  8
0
  6
BYBLOCK
 62
     3
100
AcDbMText
 10
1021.555577
 20
239.618233
 30
0.0
 40
3.0
 41
0.0
 71
     5
 72
     1
  1
\A1;4
 11
0.0
 21
1.0
 31
0.0
  0
POINT
  5
341
100
AcDbEntity
  8
DEFPOINTS
  6
BYBLOCK
 62
     0
100
AcDbPoint
 10
992.156213
 20
247.2849
 30
0.0
  0
POINT
  5
342
100
AcDbEntity
  8
DEFPOINTS
  6
BYBLOCK
 62
     0
100
AcDbPoint
 10
1017.156213
 20
251.280729
 30
0.0
  0
POINT
  5
343
100
AcDbEntity
  8
DEFPOINTS
  6
BYBLOCK
 62
     0
100
AcDbPoint
 10
1024.055577
 20
251.280729
 30
0.0
  0
ENDBLK
  5
344
100
AcDbEntity
  8
0
100
AcDbBlockEnd
  0
BLOCK
  5
2A7
100
AcDbEntity
  8
0
100
AcDbBlockBegin
  2
*D16
 70
     1
 10
0.0
 20
0.0
 30
0.0
  3
*D16
  1

  0
LINE
  5
2A8
100
AcDbEntity
  8
0
  6
BYBLOCK
 62
     1
100
AcDbLine
 10
992.156213
 20
246.2849
 30
0.0
 11
992.156213
 21
224.357933
 31
0.0
  0
LINE
  5
2A9
100
AcDbEntity
  8
0
  6
BYBLOCK
 62
     1
100
AcDbLine
 10
1152.152125
 20
251.2849
 30
0.0
 11
1152.152125
 21
224.357933
 31
0.0
  0
LINE
  5
2AA
100
AcDbEntity
  8
0
  6
BYBLOCK
 62
     1
100
AcDbLine
 10
994.156213
 20
226.357933
 30
0.0
 11
1150.152125
 21
226.357933
 31
0.0
  0
INSERT
  5
2AB
100
AcDbEntity
  8
0
  6
BYBLOCK
 62
     1
100
AcDbBlockReference
  2
_OPEN30
 10
992.156213
 20
226.357933
 30
0.0
 41
2.0
 42
2.0
 43
2.0
 50
180.0
  0
INSERT
  5
2AC
100
AcDbEntity
  8
0
  6
BYBLOCK
 62
     1
100
AcDbBlockReference
  2
_OPEN30
 10
1152.152125
 20
226.357933
 30
0.0
 41
2.0
 42
2.0
 43
2.0
  0
MTEXT
  5
2AD
100
AcDbEntity
  8
0
  6
BYBLOCK
 62
     3
100
AcDbMText
 10
1072.154169
 20
228.857933
 30
0.0
 40
3.0
 41
0.0
 71
     5
 72
     1
  1
\A1;160
  0
POINT
  5
2AE
100
AcDbEntity
  8
DEFPOINTS
  6
BYBLOCK
 62
     0
100
AcDbPoint
 10
992.156213
 20
247.2849
 30
0.0
  0
POINT
  5
2AF
100
AcDbEntity
  8
DEFPOINTS
  6
BYBLOCK
 62
     0
100
AcDbPoint
 10
1152.152125
 20
252.2849
 30
0.0
  0
POINT
  5
2B0
100
AcDbEntity
  8
DEFPOINTS
  6
BYBLOCK
 62
     0
100
AcDbPoint
 10
1152.152125
 20
226.357933
 30
0.0
  0
ENDBLK
  5
2B1
100
AcDbEntity
  8
0
100
AcDbBlockEnd
  0
BLOCK
  5
2B2
100
AcDbEntity
  8
0
100
AcDbBlockBegin
  2
*D17
 70
     1
 10
0.0
 20
0.0
 30
0.0
  3
*D17
  1

  0
LINE
  5
2B3
100
AcDbEntity
  8
0
  6
BYBLOCK
 62
     1
100
AcDbLine
 10
940.950121
 20
246.288628
 30
0.0
 11
938.999379
 21
227.728556
 31
0.0
  0
LINE
  5
2B4
100
AcDbEntity
  8
0
  6
BYBLOCK
 62
     1
100
AcDbLine
 10
941.054649
 20
241.951379
 30
0.0
 11
941.054649
 21
227.620843
 31
0.0
  0
ARC
  5
2B5
100
AcDbEntity
  8
0
  6
BYBLOCK
 62
     1
100
AcDbCircle
 10
941.054649
 20
247.28315
 30
0.0
 40
17.662307
100
AcDbArc
 50
250.996277
 51
264.0
  0
LINE
  5
2B6
100
AcDbEntity
  8
0
  6
BYBLOCK
 62
     1
100
AcDbLine
 10
935.30328
 20
230.583485
 30
0.0
 11
927.172002
 21
233.383899
 31
0.0
  0
ARC
  5
2B7
100
AcDbEntity
  8
0
  6
BYBLOCK
 62
     1
100
AcDbCircle
 10
941.054649
 20
247.28315
 30
0.0
 40
17.662307
100
AcDbArc
 50
251.017226
 51
257.508613
  0
ARC
  5
2B8
100
AcDbEntity
  8
0
  6
BYBLOCK
 62
     1
100
AcDbCircle
 10
941.054649
 20
247.28315
 30
0.0
 40
17.662307
100
AcDbArc
 50
276.491387
 51
282.982774
  0
ARC
  5
2B9
100
AcDbEntity
  8
0
  6
BYBLOCK
 62
     1
100
AcDbCircle
 10
941.054649
 20
247.28315
 30
0.0
 40
17.662307
100
AcDbArc
 50
264.0
 51
270.0
  0
INSERT
  5
2BA
100
AcDbEntity
  8
0
  6
BYBLOCK
 62
     1
100
AcDbBlockReference
  2
_OPEN30
 10
939.208436
 20
229.717599
 30
0.0
 41
2.0
 42
2.0
 43
2.0
 50
350.754306
  0
INSERT
  5
2BB
100
AcDbEntity
  8
0
  6
BYBLOCK
 62
     1
100
AcDbBlockReference
  2
_OPEN30
 10
941.054649
 20
229.620843
 30
0.0
 41
2.0
 42
2.0
 43
2.0
 50
183.245694
  0
MTEXT
  5
2BC
100
AcDbEntity
  8
0
  6
BYBLOCK
 62
     3
100
AcDbMText
 10
932.051715
 20
234.347435
 30
0.0
 40
3.0
 41
0.0
 71
     5
 72
     1
  1
\A1;6°
 11
0.945497
 21
-0.32563
 31
0.0
  0
POINT
  5
2BD
100
AcDbEntity
  8
DEFPOINTS
  6
BYBLOCK
 62
     0
100
AcDbPoint
 10
940.438244
 20
229.631603
 30
0.0
  0
POINT
  5
2BE
100
AcDbEntity
  8
DEFPOINTS
  6
BYBLOCK
 62
     0
100
AcDbPoint
 10
943.000001
 20
265.791931
 30
0.0
  0
POINT
  5
2BF
100
AcDbEntity
  8
DEFPOINTS
  6
BYBLOCK
 62
     0
100
AcDbPoint
 10
941.054649
 20
269.936584
 30
0.0
  0
POINT
  5
2C0
100
AcDbEntity
  8
DEFPOINTS
  6
BYBLOCK
 62
     0
100
AcDbPoint
 10
941.054649
 20
242.951379
 30
0.0
  0
POINT
  5
2C1
100
AcDbEntity
  8
DEFPOINTS
  6
BYBLOCK
 62
     0
100
AcDbPoint
 10
941.054829
 20
247.284858
 30
0.0
  0
ENDBLK
  5
2C2
100
AcDbEntity
  8
0
100
AcDbBlockEnd
  0
BLOCK
  5
2C3
100
AcDbEntity
  8
0
100
AcDbBlockBegin
  2
*D18
 70
     1
 10
0.0
 20
0.0
 30
0.0
  3
*D18
  1

  0
LINE
  5
2C4
100
AcDbEntity
  8
0
  6
BYBLOCK
 62
     1
100
AcDbLine
 10
997.04087
 20
263.238617
 30
0.0
 11
1000.118854
 21
273.000737
 31
0.0
  0
LINE
  5
2C5
100
AcDbEntity
  8
0
  6
BYBLOCK
 62
     1
100
AcDbLine
 10
991.010682
 20
247.2849
 30
0.0
 11
965.046878
 21
247.2849
 31
0.0
  0
ARC
  5
2C6
100
AcDbEntity
  8
0
  6
BYBLOCK
 62
     1
100
AcDbCircle
 10
992.010682
 20
247.2849
 30
0.0
 40
24.963804
100
AcDbArc
 50
77.091537
 51
175.408463
  0
INSERT
  5
2C7
100
AcDbEntity
  8
0
  6
BYBLOCK
 62
     1
100
AcDbBlockReference
  2
_OPEN30
 10
999.517443
 20
271.093303
 30
0.0
 41
2.0
 42
2.0
 43
2.0
 50
344.795768
  0
INSERT
  5
2C8
100
AcDbEntity
  8
0
  6
BYBLOCK
 62
     1
100
AcDbBlockReference
  2
_OPEN30
 10
967.046878
 20
247.2849
 30
0.0
 41
2.0
 42
2.0
 43
2.0
 50
267.704232
  0
MTEXT
  5
2C9
100
AcDbEntity
  8
0
  6
BYBLOCK
 62
     3
100
AcDbMText
 10
975.77107
 20
269.432936
 30
0.0
 40
3.0
 41
0.0
 71
     5
 72
     1
  1
\A1;107.5°
 11
0.806445
 21
0.59131
 31
0.0
  0
POINT
  5
2CA
100
AcDbEntity
  8
DEFPOINTS
  6
BYBLOCK
 62
     0
100
AcDbPoint
 10
984.158448
 20
270.981607
 30
0.0
  0
POINT
  5
2CB
100
AcDbEntity
  8
DEFPOINTS
  6
BYBLOCK
 62
     0
100
AcDbPoint
 10
992.174726
 20
247.805182
 30
0.0
  0
POINT
  5
2CC
100
AcDbEntity
  8
DEFPOINTS
  6
BYBLOCK
 62
     0
100
AcDbPoint
 10
992.556213
 20
247.2849
 30
0.0
  0
POINT
  5
2CD
100
AcDbEntity
  8
DEFPOINTS
  6
BYBLOCK
 62
     0
100
AcDbPoint
 10
992.156213
 20
247.2849
 30
0.0
  0
POINT
  5
2CE
100
AcDbEntity
  8
DEFPOINTS
  6
BYBLOCK
 62
     0
100
AcDbPoint
 10
996.740164
 20
262.2849
 30
0.0
  0
ENDBLK
  5
2CF
100
AcDbEntity
  8
0
100
AcDbBlockEnd
  0
BLOCK
  5
2E9
100
AcDbEntity
  8
0
100
AcDbBlockBegin
  2
*D19
 70
     1
 10
0.0
 20
0.0
 30
0.0
  3
*D19
  1

  0
LINE
  5
2EA
100
AcDbEntity
  8
0
  6
BYBLOCK
 62
     1
100
AcDbLine
 10
991.156213
 20
247.2849
 30
0.0
 11
985.069312
 21
247.2849
 31
0.0
  0
LINE
  5
2EB
100
AcDbEntity
  8
0
  6
BYBLOCK
 62
     1
100
AcDbLine
 10
991.501555
 20
258.2849
 30
0.0
 11
985.069312
 21
258.2849
 31
0.0
  0
LINE
  5
2EC
100
AcDbEntity
  8
0
  6
BYBLOCK
 62
     1
100
AcDbLine
 10
987.069312
 20
249.2849
 30
0.0
 11
987.069312
 21
256.2849
 31
0.0
  0
INSERT
  5
2ED
100
AcDbEntity
  8
0
  6
BYBLOCK
 62
     1
100
AcDbBlockReference
  2
_OPEN30
 10
987.069312
 20
247.2849
 30
0.0
 41
2.0
 42
2.0
 43
2.0
 50
270.0
  0
INSERT
  5
2EE
100
AcDbEntity
  8
0
  6
BYBLOCK
 62
     1
100
AcDbBlockReference
  2
_OPEN30
 10
987.069312
 20
258.2849
 30
0.0
 41
2.0
 42
2.0
 43
2.0
 50
90.0
  0
MTEXT
  5
2EF
100
AcDbEntity
  8
0
  6
BYBLOCK
 62
     3
100
AcDbMText
 10
984.569312
 20
252.7849
 30
0.0
 40
3.0
 41
0.0
 71
     5
 72
     1
  1
\A1;11
 11
0.0
 21
1.0
 31
0.0
  0
POINT
  5
2F0
100
AcDbEntity
  8
DEFPOINTS
  6
BYBLOCK
 62
     0
100
AcDbPoint
 10
992.156213
 20
247.2849
 30
0.0
  0
POINT
  5
2F1
100
AcDbEntity
  8
DEFPOINTS
  6
BYBLOCK
 62
     0
100
AcDbPoint
 10
992.501555
 20
258.2849
 30
0.0
  0
POINT
  5
2F2
100
AcDbEntity
  8
DEFPOINTS
  6
BYBLOCK
 62
     0
100
AcDbPoint
 10
987.069312
 20
258.2849
 30
0.0
  0
ENDBLK
  5
2F3
100
AcDbEntity
  8
0
100
AcDbBlockEnd
  0
BLOCK
  5
318
100
AcDbEntity
  8
0
100
AcDbBlockBegin
  2
*D20
 70
     1
 10
0.0
 20
0.0
 30
0.0
  3
*D20
  1

  0
LINE
  5
319
100
AcDbEntity
  8
0
  6
BYBLOCK
 62
     1
100
AcDbLine
 10
991.501555
 20
258.2849
 30
0.0
 11
985.069312
 21
258.2849
 31
0.0
  0
LINE
  5
31A
100
AcDbEntity
  8
0
  6
BYBLOCK
 62
     1
100
AcDbLine
 10
995.740164
 20
262.2849
 30
0.0
 11
985.069312
 21
262.2849
 31
0.0
  0
LINE
  5
31B
100
AcDbEntity
  8
0
  6
BYBLOCK
 62
     1
100
AcDbLine
 10
987.069312
 20
262.2849
 30
0.0
 11
987.069312
 21
268.2849
 31
0.0
  0
INSERT
  5
31C
100
AcDbEntity
  8
0
  6
BYBLOCK
 62
     1
100
AcDbBlockReference
  2
_OPEN30
 10
987.069312
 20
258.2849
 30
0.0
 41
2.0
 42
2.0
 43
2.0
 50
270.0
  0
INSERT
  5
31D
100
AcDbEntity
  8
0
  6
BYBLOCK
 62
     1
100
AcDbBlockReference
  2
_OPEN30
 10
987.069312
 20
262.2849
 30
0.0
 41
2.0
 42
2.0
 43
2.0
 50
90.0
  0
MTEXT
  5
31E
100
AcDbEntity
  8
0
  6
BYBLOCK
 62
     3
100
AcDbMText
 10
984.569312
 20
266.2849
 30
0.0
 40
3.0
 41
0.0
 71
     5
 72
     1
  1
\A1;4
 11
0.0
 21
1.0
 31
0.0
  0
POINT
  5
31F
100
AcDbEntity
  8
DEFPOINTS
  6
BYBLOCK
 62
     0
100
AcDbPoint
 10
992.501555
 20
258.2849
 30
0.0
  0
POINT
  5
320
100
AcDbEntity
  8
DEFPOINTS
  6
BYBLOCK
 62
     0
100
AcDbPoint
 10
996.740164
 20
262.2849
 30
0.0
  0
POINT
  5
321
100
AcDbEntity
  8
DEFPOINTS
  6
BYBLOCK
 62
     0
100
AcDbPoint
 10
987.069312
 20
262.2849
 30
0.0
  0
ENDBLK
  5
322
100
AcDbEntity
  8
0
100
AcDbBlockEnd
  0
BLOCK
  5
323
100
AcDbEntity
  8
0
100
AcDbBlockBegin
  2
*D21
 70
     1
 10
0.0
 20
0.0
 30
0.0
  3
*D21
  1

  0
LINE
  5
324
100
AcDbEntity
  8
0
  6
BYBLOCK
 62
     1
100
AcDbLine
 10
1111.473162
 20
275.710483
 30
0.0
 11
1104.148029
 21
266.205619
 31
0.0
  0
LINE
  5
325
100
AcDbEntity
  8
0
  6
BYBLOCK
 62
     1
100
AcDbLine
 10
1091.939474
 20
250.36418
 30
0.0
 11
1090.718619
 21
248.780036
 31
0.0
  0
MTEXT
  5
326
100
AcDbEntity
  8
0
  6
BYBLOCK
 62
     3
100
AcDbMText
 10
1106.440843
 20
273.276192
 30
0.0
 40
3.0
 41
0.0
 71
     5
 72
     1
  1
\A1;\U+220516
 11
0.610428
 21
0.792072
 31
0.0
  0
LINE
  5
327
100
AcDbEntity
  8
0
  6
BYBLOCK
 62
     1
100
AcDbLine
 10
1093.16033
 20
251.948324
 30
0.0
 11
1102.927174
 21
264.621475
 31
0.0
  0
INSERT
  5
328
100
AcDbEntity
  8
0
  6
BYBLOCK
 62
     1
100
AcDbBlockReference
  2
_OPEN30
 10
1093.16033
 20
251.948324
 30
0.0
 41
2.0
 42
2.0
 43
2.0
 50
52.379563
  0
INSERT
  5
329
100
AcDbEntity
  8
0
  6
BYBLOCK
 62
     1
100
AcDbBlockReference
  2
_OPEN30
 10
1102.927174
 20
264.621475
 30
0.0
 41
2.0
 42
2.0
 43
2.0
 50
232.379563
  0
POINT
  5
32A
100
AcDbEntity
  8
DEFPOINTS
  6
BYBLOCK
 62
     0
100
AcDbPoint
 10
1102.927174
 20
264.621475
 30
0.0
  0
POINT
  5
32B
100
AcDbEntity
  8
DEFPOINTS
  6
BYBLOCK
 62
     0
100
AcDbPoint
 10
1093.16033
 20
251.948324
 30
0.0
  0
ENDBLK
  5
32C
100
AcDbEntity
  8
0
100
AcDbBlockEnd
  0
BLOCK
  5
32D
100
AcDbEntity
  8
0
100
AcDbBlockBegin
  2
*D22
 70
     1
 10
0.0
 20
0.0
 30
0.0
  3
*D22
  1

  0
LINE
  5
32E
100
AcDbEntity
  8
0
  6
BYBLOCK
 62
     1
100
AcDbLine
 10
1090.543752
 20
254.501018
 30
0.0
 11
1090.543752
 21
235.405505
 31
0.0
  0
LINE
  5
32F
100
AcDbEntity
  8
0
  6
BYBLOCK
 62
     1
100
AcDbLine
 10
1105.543752
 20
254.501018
 30
0.0
 11
1105.543752
 21
235.405505
 31
0.0
  0
LINE
  5
330
100
AcDbEntity
  8
0
  6
BYBLOCK
 62
     1
100
AcDbLine
 10
1092.543752
 20
237.405505
 30
0.0
 11
1103.543752
 21
237.405505
 31
0.0
  0
INSERT
  5
331
100
AcDbEntity
  8
0
  6
BYBLOCK
 62
     1
100
AcDbBlockReference
  2
_OPEN30
 10
1090.543752
 20
237.405505
 30
0.0
 41
2.0
 42
2.0
 43
2.0
 50
180.0
  0
INSERT
  5
332
100
AcDbEntity
  8
0
  6
BYBLOCK
 62
     1
100
AcDbBlockReference
  2
_OPEN30
 10
1105.543752
 20
237.405505
 30
0.0
 41
2.0
 42
2.0
 43
2.0
  0
MTEXT
  5
333
100
AcDbEntity
  8
0
  6
BYBLOCK
 62
     3
100
AcDbMText
 10
1098.043752
 20
239.905505
 30
0.0
 40
3.0
 41
0.0
 71
     5
 72
     1
  1
\A1;15
  0
POINT
  5
334
100
AcDbEntity
  8
DEFPOINTS
  6
BYBLOCK
 62
     0
100
AcDbPoint
 10
1090.543752
 20
255.501018
 30
0.0
  0
POINT
  5
335
100
AcDbEntity
  8
DEFPOINTS
  6
BYBLOCK
 62
     0
100
AcDbPoint
 10
1105.543752
 20
255.501018
 30
0.0
  0
POINT
  5
336
100
AcDbEntity
  8
DEFPOINTS
  6
BYBLOCK
 62
     0
100
AcDbPoint
 10
1105.543752
 20
237.405505
 30
0.0
  0
ENDBLK
  5
337
100
AcDbEntity
  8
0
100
AcDbBlockEnd
  0
ENDSEC
  0
SECTION
  2
ENTITIES
  0
DIMENSION
  5
176
100
AcDbEntity
  8
寸法
  6
CONTINUOUS
100
AcDbDimension
  2
*D15
 10
1024.055577
 20
251.280729
 30
0.0
 11
1024.055577
 21
239.618233
 31
0.0
 70
   160
  3
STANDARD
100
AcDbAlignedDimension
 13
992.156213
 23
247.2849
 33
0.0
 14
1017.156213
 24
251.280729
 34
0.0
 50
90.0
100
AcDbRotatedDimension
1001
ACAD
1000
DSTYLE
1002
{
1070
    40
1040
1.0
1002
}
  0
LINE
  5
183
100
AcDbEntity
  8
外形
  6
CONTINUOUS
100
AcDbLine
 10
1107.543752
 20
251.280729
 30
0.0
 11
1151.152125
 21
251.280729
 31
0.0
  0
LINE
  5
184
100
AcDbEntity
  8
外形
  6
CONTINUOUS
100
AcDbLine
 10
1107.543752
 20
255.501018
 30
0.0
 11
1151.152125
 21
255.501018
 31
0.0
  0
LINE
  5
185
100
AcDbEntity
  8
外形
  6
CONTINUOUS
100
AcDbLine
 10
1107.543752
 20
261.068782
 30
0.0
 11
1151.152125
 21
261.068782
 31
0.0
  0
LINE
  5
186
100
AcDbEntity
  8
外形
  6
CONTINUOUS
100
AcDbLine
 10
1017.156213
 20
197.483563
 30
0.0
 11
1151.152125
 21
197.483563
 31
0.0
  0
LINE
  5
187
100
AcDbEntity
  8
外形
  6
CONTINUOUS
100
AcDbLine
 10
1017.156213
 20
205.214434
 30
0.0
 11
1151.152125
 21
205.214434
 31
0.0
  0
LINE
  5
188
100
AcDbEntity
  8
外形
  6
CONTINUOUS
100
AcDbLine
 10
1017.406213
 20
208.848999
 30
0.0
 11
1151.152125
 21
208.848999
 31
0.0
  0
LINE
  5
189
100
AcDbEntity
  8
外形
  6
CONTINUOUS
100
AcDbLine
 10
1017.406213
 20
193.848999
 30
0.0
 11
1151.152125
 21
193.848999
 31
0.0
  0
DIMENSION
  5
18A
100
AcDbEntity
  8
寸法
  6
CONTINUOUS
100
AcDbDimension
  2
*D16
 10
1152.152125
 20
226.357933
 30
0.0
 11
1072.154169
 21
228.857933
 31
0.0
 70
    32
  3
STANDARD
100
AcDbAlignedDimension
 13
992.156213
 23
247.2849
 33
0.0
 14
1152.152125
 24
252.2849
 34
0.0
100
AcDbRotatedDimension
1001
ACAD
1000
DSTYLE
1002
{
1070
    40
1040
1.0
1002
}
  0
LINE
  5
18B
100
AcDbEntity
  8
外形
  6
CONTINUOUS
100
AcDbLine
 10
1151.152125
 20
266.2849
 30
0.0
 11
1107.543752
 21
266.2849
 31
0.0
  0
LINE
  5
18C
100
AcDbEntity
  8
外形
  6
CENTER
 62
     1
100
AcDbLine
 10
988.326232
 20
201.348999
 30
0.0
 11
1159.640119
 21
201.348999
 31
0.0
  0
LINE
  5
18D
100
AcDbEntity
  8
外形
  6
CENTER
 62
     1
100
AcDbLine
 10
992.501555
 20
258.2849
 30
0.0
 11
1159.640119
 21
258.2849
 31
0.0
  0
TEXT
  5
18E
100
AcDbEntity
  8
外形
  6
CONTINUOUS
 62
     2
100
AcDbText
 10
1040.452316
 20
162.31064
 30
0.0
 40
6.0
  1
S16N-SDQCR07
100
AcDbText
  0
MTEXT
  5
18F
102
{ACAD_REACTORS
330
1AE
102
}
100
AcDbEntity
  8
寸法
  6
CONTINUOUS
 62
     3
100
AcDbMText
 10
958.382831
 20
280.282996
 30
0.0
 40
3.0
 41
0.0
 71
     4
 72
     1
  1
%%c20最小加工径
  0
LINE
  5
190
100
AcDbEntity
  8
外形
  6
CONTINUOUS
100
AcDbLine
 10
1010.882573
 20
251.280729
 30
0.0
 11
1088.543752
 21
251.280729
 31
0.0
  0
LINE
  5
191
100
AcDbEntity
  8
外形
  6
CONTINUOUS
100
AcDbLine
 10
1088.543752
 20
266.2849
 30
0.0
 11
1017.406213
 21
266.2849
 31
0.0
  0
LINE
  5
192
100
AcDbEntity
  8
外形
  6
CONTINUOUS
100
AcDbLine
 10
1017.156213
 20
261.068782
 30
0.0
 11
1088.543752
 21
261.068782
 31
0.0
  0
LINE
  5
193
100
AcDbEntity
  8
外形
  6
CONTINUOUS
100
AcDbLine
 10
1017.156213
 20
255.501018
 30
0.0
 11
1088.543752
 21
255.501018
 31
0.0
  0
DIMENSION
  5
194
100
AcDbEntity
  8
寸法
  6
CONTINUOUS
100
AcDbDimension
  2
*D17
 10
941.054829
 20
247.284858
 30
0.0
 11
932.051715
 21
234.347435
 31
0.0
 70
    34
  3
STANDARD
100
AcDb2LineAngularDimension
 13
941.054649
 23
269.936584
 33
0.0
 14
941.054649
 24
242.951379
 34
0.0
 15
943.000001
 25
265.791931
 35
0.0
 16
940.438244
 26
229.631603
 36
0.0
1001
ACAD
1000
DSTYLE
1002
{
1070
    40
1040
1.0
1002
}
  0
ARC
  5
195
100
AcDbEntity
  8
外形
  6
CONTINUOUS
100
AcDbCircle
 10
1000.723194
 20
215.348999
 30
0.0
 40
14.0
100
AcDbArc
 50
270.0
 51
333.485225
  0
LINE
  5
196
100
AcDbEntity
  8
外形
  6
CONTINUOUS
100
AcDbLine
 10
1017.156213
 20
209.098999
 30
0.0
 11
1017.156213
 21
204.66624
 31
0.0
  0
LINE
  5
197
100
AcDbEntity
  8
外形
  6
CONTINUOUS
100
AcDbLine
 10
1017.156213
 20
209.098999
 30
0.0
 11
1017.156213
 21
205.02605
 31
0.0
  0
LINE
  5
198
100
AcDbEntity
  8
外形
  6
CONTINUOUS
100
AcDbLine
 10
1017.406213
 20
208.848999
 30
0.0
 11
1017.406213
 21
205.214434
 31
0.0
  0
SPLINE
  5
199
100
AcDbEntity
  8
外形
  6
CONTINUOUS
100
AcDbSpline
210
0.0
220
0.0
230
1.0
 70
     8
 71
     3
 72
     9
 73
     5
 74
     0
 42
0.0000001
 43
0.0000001
 40
0.0
 40
0.0
 40
0.0
 40
0.0
 40
9.051669224583934
 40
15.4118948089891
 40
15.4118948089891
 40
15.4118948089891
 40
15.4118948089891
 10
992.4575578043752
 20
202.3097801727274
 30
0.0
 10
995.3786687220221
 20
202.4056919157778
 30
0.0
 10
1000.653034446753
 20
202.5689967889635
 30
0.0
 10
1004.980072140129
 20
205.4914818725197
 30
0.0
 10
1013.250663511507
 20
209.0989985927428
 30
0.0
  0
LINE
  5
19A
100
AcDbEntity
  8
外形
  6
CONTINUOUS
100
AcDbLine
 10
1002.944282
 20
198.968999
 30
0.0
 11
1006.738328
 21
197.174968
 31
0.0
  0
LINE
  5
19B
100
AcDbEntity
  8
外形
  6
CONTINUOUS
100
AcDbLine
 10
1017.156213
 20
193.598999
 30
0.0
 11
993.208544
 21
193.598999
 31
0.0
  0
LINE
  5
19C
100
AcDbEntity
  8
外形
  6
CONTINUOUS
100
AcDbLine
 10
1017.156213
 20
193.598999
 30
0.0
 11
995.457558
 21
193.598999
 31
0.0
  0
LINE
  5
19D
100
AcDbEntity
  8
外形
  6
CONTINUOUS
100
AcDbLine
 10
1002.944282
 20
198.968999
 30
0.0
 11
1002.944282
 21
193.598999
 31
0.0
  0
LINE
  5
19F
100
AcDbEntity
  8
外形
  6
CONTINUOUS
100
AcDbLine
 10
998.646517
 20
201.348999
 30
0.0
 11
998.356468
 21
198.986739
 31
0.0
  0
LINE
  5
1A0
100
AcDbEntity
  8
外形
  6
CONTINUOUS
100
AcDbLine
 10
992.457558
 20
201.348999
 30
0.0
 11
992.457558
 21
202.30978
 31
0.0
  0
LINE
  5
1A1
100
AcDbEntity
  8
外形
  6
CONTINUOUS
100
AcDbLine
 10
992.44844
 20
198.968999
 30
0.0
 11
992.156213
 21
201.348999
 31
0.0
  0
LINE
  5
1A2
100
AcDbEntity
  8
外形
  6
CONTINUOUS
100
AcDbLine
 10
992.44844
 20
198.968999
 30
0.0
 11
1002.944282
 21
198.968999
 31
0.0
  0
LINE
  5
1A3
100
AcDbEntity
  8
外形
  6
CONTINUOUS
100
AcDbLine
 10
1000.723194
 20
201.348999
 30
0.0
 11
992.156213
 21
201.348999
 31
0.0
  0
LINE
  5
1A4
100
AcDbEntity
  8
外形
  6
CONTINUOUS
100
AcDbLine
 10
1017.156213
 20
198.031757
 30
0.0
 11
1017.156213
 21
193.598999
 31
0.0
  0
LINE
  5
1A5
100
AcDbEntity
  8
外形
  6
CONTINUOUS
100
AcDbLine
 10
1017.156213
 20
197.671948
 30
0.0
 11
1017.156213
 21
193.598999
 31
0.0
  0
LINE
  5
1A6
100
AcDbEntity
  8
外形
  6
CONTINUOUS
100
AcDbLine
 10
1017.406213
 20
197.483563
 30
0.0
 11
1017.406213
 21
193.848999
 31
0.0
  0
LINE
  5
1A7
100
AcDbEntity
  8
外形
  6
CONTINUOUS
100
AcDbLine
 10
1017.156213
 20
193.598999
 30
0.0
 11
1017.406213
 21
193.848999
 31
0.0
  0
ARC
  5
1A8
100
AcDbEntity
  8
外形
  6
CONTINUOUS
100
AcDbCircle
 10
1008.123194
 20
200.927586
 30
0.0
 40
4.0
100
AcDbArc
 50
249.743931
 51
313.617826
  0
LINE
  5
1A9
100
AcDbEntity
  8
外形
  6
CONTINUOUS
100
AcDbLine
 10
1010.882573
 20
205.716397
 30
0.0
 11
1010.882573
 21
198.031757
 31
0.0
  0
LINE
  5
1AA
100
AcDbEntity
  8
外形
  6
CONTINUOUS
100
AcDbLine
 10
1017.156213
 20
204.66624
 30
0.0
 11
1010.882573
 21
204.66624
 31
0.0
  0
LINE
  5
1AB
100
AcDbEntity
  8
外形
  6
CONTINUOUS
100
AcDbLine
 10
1017.156213
 20
198.031757
 30
0.0
 11
1010.882573
 21
198.031757
 31
0.0
  0
LINE
  5
1AC
100
AcDbEntity
  8
外形
  6
CONTINUOUS
100
AcDbLine
 10
1017.156213
 20
209.098999
 30
0.0
 11
1017.406213
 21
208.848999
 31
0.0
  0
LINE
  5
1AD
100
AcDbEntity
  8
外形
  6
CONTINUOUS
100
AcDbLine
 10
1017.156213
 20
209.098999
 30
0.0
 11
1013.250664
 21
209.098999
 31
0.0
  0
LEADER
  5
1AE
100
AcDbEntity
  8
寸法
  6
CONTINUOUS
 62
     1
100
AcDbLeader
  3
STANDARD
 73
     0
 74
     0
 75
     1
 40
3.0
 41
26.0
 76
     3
 10
947.302558
 20
265.092821
 30
0.0
 10
955.269883
 20
278.33403
 30
0.0
 10
957.269883
 20
278.33403
 30
0.0
 77
   256
340
18F
213
-0.1129475379637483
223
0.5510341987360618
233
0.0
1001
ACAD
1000
DSTYLE
1002
{
1070
   284
1070
    13
1070
   146
1040
0.5
1070
   272
1070
     3
1070
    40
1040
1.0
1070
   287
1070
     0
1002
}
  0
DIMENSION
  5
1AF
100
AcDbEntity
  8
寸法
  6
CONTINUOUS
100
AcDbDimension
  2
*D18
 10
996.740164
 20
262.2849
 30
0.0
 11
975.77107
 21
269.432936
 31
0.0
 70
    34
  3
STANDARD
100
AcDb2LineAngularDimension
 13
992.556213
 23
247.2849
 33
0.0
 14
992.156213
 24
247.2849
 34
0.0
 15
992.174726
 25
247.805182
 35
0.0
 16
984.158448
 26
270.981607
 36
0.0
1001
ACAD
1000
DSTYLE
1002
{
1070
    40
1040
1.0
1002
}
  0
CIRCLE
  5
1B0
100
AcDbEntity
  8
外形
  6
CENTER
 62
     1
100
AcDbCircle
 10
941.054649
 20
257.2849
 30
0.0
 40
10.0
  0
LINE
  5
1B1
100
AcDbEntity
  8
外形
  6
CONTINUOUS
100
AcDbLine
 10
933.554649
 20
250.730003
 30
0.0
 11
933.554649
 21
260.158959
 31
0.0
  0
LINE
  5
1B2
100
AcDbEntity
  8
外形
  6
CONTINUOUS
100
AcDbLine
 10
948.554649
 20
255.501018
 30
0.0
 11
948.554649
 21
260.312731
 31
0.0
  0
LINE
  5
1B3
100
AcDbEntity
  8
外形
  6
CENTER
 62
     1
100
AcDbLine
 10
941.054649
 20
269.936584
 30
0.0
 11
941.054649
 21
242.951379
 31
0.0
  0
LINE
  5
1B4
100
AcDbEntity
  8
外形
  6
CENTER
 62
     1
100
AcDbLine
 10
941.074649
 20
269.936584
 30
0.0
 11
941.074649
 21
242.951379
 31
0.0
  0
LINE
  5
1B5
100
AcDbEntity
  8
外形
  6
CONTINUOUS
100
AcDbLine
 10
943.000001
 20
265.791931
 30
0.0
 11
941.054829
 21
247.284858
 31
0.0
  0
ARC
  5
1B6
100
AcDbEntity
  8
外形
  6
CONTINUOUS
100
AcDbCircle
 10
941.054649
 20
258.2849
 30
0.0
 40
8.0
100
AcDbArc
 50
272.264872
 51
339.635865
  0
LINE
  5
1BA
100
AcDbEntity
  8
外形
  6
CONTINUOUS
100
AcDbLine
 10
939.406831
 20
254.374125
 30
0.0
 11
938.718413
 21
247.824262
 31
0.0
  0
LINE
  5
1BB
100
AcDbEntity
  8
外形
  6
CONTINUOUS
100
AcDbLine
 10
941.804339
 20
254.415973
 30
0.0
 11
939.406831
 21
254.374125
 31
0.0
  0
LINE
  5
1BC
100
AcDbEntity
  8
外形
  6
CONTINUOUS
100
AcDbLine
 10
941.054828
 20
247.284859
 30
0.0
 11
938.718413
 21
247.824262
 31
0.0
  0
ARC
  5
1BD
100
AcDbEntity
  8
外形
  6
CONTINUOUS
100
AcDbCircle
 10
941.074649
 20
258.2849
 30
0.0
 40
7.75
100
AcDbArc
 50
15.168326
 51
166.006361
  0
LINE
  5
1BE
100
AcDbEntity
  8
外形
  6
CENTER
 62
     1
100
AcDbLine
 10
953.808558
 20
258.2849
 30
0.0
 11
928.602161
 21
258.2849
 31
0.0
  0
LINE
  5
1BF
100
AcDbEntity
  8
外形
  6
CONTINUOUS
100
AcDbLine
 10
999.24599
 20
255.988334
 30
0.0
 11
1001.000805
 21
257.021998
 31
0.0
  0
ARC
  5
1C0
100
AcDbEntity
  8
外形
  6
CONTINUOUS
100
AcDbCircle
 10
1001.660605
 20
255.90188
 30
0.0
 40
1.3
100
AcDbArc
 50
300.5
 51
120.5
  0
LINE
  5
1C1
100
AcDbEntity
  8
外形
  6
CONTINUOUS
100
AcDbLine
 10
992.174726
 20
247.805182
 30
0.0
 11
996.740164
 21
262.2849
 31
0.0
  0
LINE
  5
1C2
100
AcDbEntity
  8
外形
  6
CONTINUOUS
100
AcDbLine
 10
1013.250664
 20
256.280729
 30
0.0
 11
1013.250664
 21
260.791931
 31
0.0
  0
DIMENSION
  5
1C3
100
AcDbEntity
  8
寸法
  6
CONTINUOUS
100
AcDbDimension
  2
*D19
 10
987.069312
 20
258.2849
 30
0.0
 11
984.569312
 21
252.7849
 31
0.0
 70
    32
  3
STANDARD
100
AcDbAlignedDimension
 13
992.156213
 23
247.2849
 33
0.0
 14
992.501555
 24
258.2849
 34
0.0
 50
90.0
100
AcDbRotatedDimension
1001
ACAD
1000
DSTYLE
1002
{
1070
    40
1040
1.0
1002
}
  0
LINE
  5
1C4
100
AcDbEntity
  8
外形
  6
CONTINUOUS
100
AcDbLine
 10
999.287287
 20
249.387787
 30
0.0
 11
1006.738328
 21
252.137518
 31
0.0
  0
ARC
  5
1C7
100
AcDbEntity
  8
外形
  6
CONTINUOUS
100
AcDbCircle
 10
1000.990174
 20
256.118861
 30
0.0
 40
0.4
100
AcDbArc
 50
342.5
 51
107.5
  0
LINE
  5
1C8
100
AcDbEntity
  8
外形
  6
CONTINUOUS
100
AcDbLine
 10
997.861142
 20
251.90188
 30
0.0
 11
997.451703
 21
251.662782
 31
0.0
  0
LINE
  5
1C9
100
AcDbEntity
  8
外形
  6
CONTINUOUS
100
AcDbLine
 10
997.451703
 20
252.140978
 30
0.0
 11
997.861142
 21
251.90188
 31
0.0
  0
ARC
  5
1CA
100
AcDbEntity
  8
外形
  6
CONTINUOUS
100
AcDbCircle
 10
997.586178
 20
252.371257
 30
0.0
 40
0.266668
100
AcDbArc
 50
180.283476
 51
239.716524
  0
LINE
  5
1CB
100
AcDbEntity
  8
外形
  6
CONTINUOUS
100
AcDbLine
 10
997.317168
 20
252.844071
 30
0.0
 11
997.319513
 21
252.369938
 31
0.0
  0
ARC
  5
1CC
100
AcDbEntity
  8
外形
  6
CONTINUOUS
100
AcDbCircle
 10
997.586178
 20
251.432504
 30
0.0
 40
0.266668
100
AcDbArc
 50
120.283476
 51
179.716524
  0
LINE
  5
1CD
100
AcDbEntity
  8
外形
  6
CONTINUOUS
100
AcDbLine
 10
997.319513
 20
251.433823
 30
0.0
 11
997.317168
 21
250.95969
 31
0.0
  0
LINE
  5
1CE
100
AcDbEntity
  8
外形
  6
CONTINUOUS
100
AcDbLine
 10
996.905383
 20
252.609036
 30
0.0
 11
997.317168
 21
252.844071
 31
0.0
  0
LINE
  5
1CF
100
AcDbEntity
  8
外形
  6
CONTINUOUS
100
AcDbLine
 10
997.317168
 20
250.95969
 30
0.0
 11
996.905383
 21
251.194725
 31
0.0
  0
LINE
  5
1D0
100
AcDbEntity
  8
外形
  6
CONTINUOUS
100
AcDbLine
 10
1000.684097
 20
253.817903
 30
0.0
 11
1002.320405
 21
254.781762
 31
0.0
  0
LINE
  5
1D1
100
AcDbEntity
  8
外形
  6
CONTINUOUS
100
AcDbLine
 10
996.094684
 20
251.662782
 30
0.0
 11
995.685246
 21
251.90188
 31
0.0
  0
LINE
  5
1D2
100
AcDbEntity
  8
外形
  6
CONTINUOUS
100
AcDbLine
 10
995.685246
 20
251.90188
 30
0.0
 11
996.094684
 21
252.140978
 31
0.0
  0
ARC
  5
1D3
100
AcDbEntity
  8
外形
  6
CONTINUOUS
100
AcDbCircle
 10
995.960209
 20
252.371257
 30
0.0
 40
0.266668
100
AcDbArc
 50
300.283476
 51
359.716524
  0
LINE
  5
1D4
100
AcDbEntity
  8
外形
  6
CONTINUOUS
100
AcDbLine
 10
996.22922
 20
252.844071
 30
0.0
 11
996.641004
 21
252.609036
 31
0.0
  0
LINE
  5
1D5
100
AcDbEntity
  8
外形
  6
CONTINUOUS
100
AcDbLine
 10
996.226874
 20
252.369938
 30
0.0
 11
996.22922
 21
252.844071
 31
0.0
  0
ARC
  5
1D6
100
AcDbEntity
  8
外形
  6
CONTINUOUS
100
AcDbCircle
 10
995.960209
 20
251.432504
 30
0.0
 40
0.266668
100
AcDbArc
 50
0.283476
 51
59.716524
  0
LINE
  5
1D7
100
AcDbEntity
  8
外形
  6
CONTINUOUS
100
AcDbLine
 10
996.22922
 20
250.95969
 30
0.0
 11
996.226874
 21
251.433823
 31
0.0
  0
LINE
  5
1D8
100
AcDbEntity
  8
外形
  6
CONTINUOUS
100
AcDbLine
 10
996.641004
 20
251.194725
 30
0.0
 11
996.22922
 21
250.95969
 31
0.0
  0
LINE
  5
1D9
100
AcDbEntity
  8
外形
  6
CONTINUOUS
 62
     1
100
AcDbLine
 10
992.156213
 20
247.6849
 30
0.0
 11
992.156213
 21
247.2849
 31
0.0
  0
LINE
  5
1DA
100
AcDbEntity
  8
外形
  6
CONTINUOUS
 62
     1
100
AcDbLine
 10
992.556213
 20
247.2849
 30
0.0
 11
992.156213
 21
247.2849
 31
0.0
  0
ARC
  5
1DB
100
AcDbEntity
  8
外形
  6
CONTINUOUS
100
AcDbCircle
 10
992.556213
 20
247.6849
 30
0.0
 40
0.4
100
AcDbArc
 50
162.5
 51
287.5
  0
CIRCLE
  5
1DC
100
AcDbEntity
  8
外形
  6
CONTINUOUS
100
AcDbCircle
 10
996.773194
 20
251.90188
 30
0.0
 40
1.725012
  0
ARC
  5
1DD
100
AcDbEntity
  8
外形
  6
CONTINUOUS
100
AcDbCircle
 10
996.773194
 20
252.840634
 30
0.0
 40
0.266668
100
AcDbArc
 50
240.283476
 51
299.716524
  0
ARC
  5
1DE
100
AcDbEntity
  8
外形
  6
CONTINUOUS
100
AcDbCircle
 10
996.773194
 20
250.963127
 30
0.0
 40
0.266668
100
AcDbArc
 50
60.283476
 51
119.716524
  0
LINE
  5
1DF
100
AcDbEntity
  8
外形
  6
CONTINUOUS
100
AcDbLine
 10
992.676495
 20
247.303413
 30
0.0
 11
999.287287
 21
249.387787
 31
0.0
  0
LINE
  5
1E0
100
AcDbEntity
  8
外形
  6
CENTER
 62
     1
100
AcDbLine
 10
992.589636
 20
251.90188
 30
0.0
 11
1001.122439
 21
251.90188
 31
0.0
  0
LINE
  5
1E1
100
AcDbEntity
  8
外形
  6
CENTER
 62
     1
100
AcDbLine
 10
996.773194
 20
246.615132
 30
0.0
 11
996.773194
 21
256.272194
 31
0.0
  0
LINE
  5
1E2
100
AcDbEntity
  8
外形
  6
CONTINUOUS
100
AcDbLine
 10
1001.371661
 20
255.998579
 30
0.0
 11
999.287287
 21
249.387787
 31
0.0
  0
LINE
  5
1E4
100
AcDbEntity
  8
外形
  6
CONTINUOUS
100
AcDbLine
 10
994.259101
 20
254.415973
 30
0.0
 11
1000.869892
 21
256.500348
 31
0.0
  0
ARC
  5
1E5
100
AcDbEntity
  8
外形
  6
CONTINUOUS
100
AcDbCircle
 10
1008.123194
 20
248.3849
 30
0.0
 40
4.0
100
AcDbArc
 50
46.382174
 51
110.256069
  0
ARC
  5
1E6
100
AcDbEntity
  8
外形
  6
CONTINUOUS
100
AcDbCircle
 10
1008.250664
 20
256.280729
 30
0.0
 40
5.0
100
AcDbArc
 50
294.432338
 51
0.0
  0
LINE
  5
1E7
100
AcDbEntity
  8
外形
  6
CONTINUOUS
100
AcDbLine
 10
1017.156213
 20
256.332337
 30
0.0
 11
1013.250664
 21
256.332337
 31
0.0
  0
LINE
  5
1E8
100
AcDbEntity
  8
外形
  6
CONTINUOUS
100
AcDbLine
 10
1017.406213
 20
251.280729
 30
0.0
 11
1017.406213
 21
255.501018
 31
0.0
  0
LINE
  5
1E9
100
AcDbEntity
  8
外形
  6
CONTINUOUS
100
AcDbLine
 10
1017.156213
 20
251.280729
 30
0.0
 11
1017.156213
 21
256.332337
 31
0.0
  0
LINE
  5
1EB
100
AcDbEntity
  8
外形
  6
CONTINUOUS
100
AcDbLine
 10
1002.814521
 20
265.791931
 30
0.0
 11
1008.281502
 21
265.791931
 31
0.0
  0
LINE
  5
1EC
100
AcDbEntity
  8
外形
  6
CONTINUOUS
100
AcDbLine
 10
1017.156213
 20
266.0349
 30
0.0
 11
1003.235354
 21
266.0349
 31
0.0
  0
LINE
  5
1EE
100
AcDbEntity
  8
外形
  6
CONTINUOUS
100
AcDbLine
 10
996.740164
 20
262.2849
 30
0.0
 11
1003.235354
 21
266.0349
 31
0.0
  0
ARC
  5
1EF
100
AcDbEntity
  8
外形
  6
CONTINUOUS
100
AcDbCircle
 10
1008.250664
 20
260.791931
 30
0.0
 40
5.0
100
AcDbArc
 50
0.0
 51
90.0
  0
LINE
  5
1F0
100
AcDbEntity
  8
外形
  6
CONTINUOUS
100
AcDbLine
 10
1017.156213
 20
260.237462
 30
0.0
 11
1013.250664
 21
260.237462
 31
0.0
  0
LINE
  5
1F1
100
AcDbEntity
  8
外形
  6
CONTINUOUS
100
AcDbLine
 10
1017.406213
 20
261.068782
 30
0.0
 11
1017.406213
 21
266.2849
 31
0.0
  0
LINE
  5
1F2
100
AcDbEntity
  8
外形
  6
CONTINUOUS
100
AcDbLine
 10
1017.156213
 20
260.237462
 30
0.0
 11
1017.156213
 21
266.0349
 31
0.0
  0
LINE
  5
1F3
100
AcDbEntity
  8
外形
  6
CONTINUOUS
100
AcDbLine
 10
1017.406213
 20
266.2849
 30
0.0
 11
1017.156213
 21
266.0349
 31
0.0
  0
DIMENSION
  5
1F4
100
AcDbEntity
  8
寸法
  6
CONTINUOUS
100
AcDbDimension
  2
*D21
 10
1093.16033
 20
251.948324
 30
0.0
 11
1108.421023
 21
271.750123
 31
0.0
 70
   163
  3
STANDARD
100
AcDbDiametricDimension
 15
1102.927174
 25
264.621475
 35
0.0
 40
0.0
1001
ACAD
1000
DSTYLE
1002
{
1070
    40
1040
1.0
1002
}
  0
LINE
  5
1F5
100
AcDbEntity
  8
外形
  6
CONTINUOUS
100
AcDbLine
 10
1105.543752
 20
261.068782
 30
0.0
 11
1105.543752
 21
255.501018
 31
0.0
  0
LINE
  5
1F6
100
AcDbEntity
  8
外形
  6
CONTINUOUS
100
AcDbLine
 10
1090.543752
 20
261.068782
 30
0.0
 11
1090.543752
 21
255.501018
 31
0.0
  0
LINE
  5
1F7
100
AcDbEntity
  8
外形
  6
CENTER
 62
     1
100
AcDbLine
 10
1098.043752
 20
268.353897
 30
0.0
 11
1098.043752
 21
248.67407
 31
0.0
  0
DIMENSION
  5
1F8
100
AcDbEntity
  8
寸法
  6
CONTINUOUS
100
AcDbDimension
  2
*D22
 10
1105.543752
 20
237.405505
 30
0.0
 11
1098.043752
 21
239.905505
 31
0.0
 70
    32
  3
STANDARD
100
AcDbAlignedDimension
 13
1090.543752
 23
255.501018
 33
0.0
 14
1105.543752
 24
255.501018
 34
0.0
100
AcDbRotatedDimension
1001
ACAD
1000
DSTYLE
1002
{
1070
    40
1040
1.0
1002
}
  0
ARC
  5
1F9
100
AcDbEntity
  8
外形
  6
CONTINUOUS
100
AcDbCircle
 10
1098.043752
 20
258.2849
 30
0.0
 40
8.0
100
AcDbArc
 50
298.893261
 51
339.635865
  0
LINE
  5
1FA
100
AcDbEntity
  8
外形
  6
CONTINUOUS
100
AcDbLine
 10
1094.178316
 20
251.280729
 30
0.0
 11
1101.909187
 21
251.280729
 31
0.0
  0
ARC
  5
1FB
100
AcDbEntity
  8
外形
  6
CONTINUOUS
100
AcDbCircle
 10
1098.043752
 20
258.2849
 30
0.0
 40
8.0
100
AcDbArc
 50
200.364135
 51
241.106739
  0
ARC
  5
1FC
100
AcDbEntity
  8
外形
  6
CONTINUOUS
100
AcDbCircle
 10
1098.043752
 20
258.2849
 30
0.0
 40
8.0
100
AcDbArc
 50
20.364135
 51
159.635865
  0
LINE
  5
1FD
100
AcDbEntity
  8
外形
  6
CONTINUOUS
100
AcDbLine
 10
1151.152125
 20
208.848999
 30
0.0
 11
1151.152125
 21
205.214434
 31
0.0
  0
LINE
  5
1FE
100
AcDbEntity
  8
外形
  6
CONTINUOUS
100
AcDbLine
 10
1152.152125
 20
194.848999
 30
0.0
 11
1152.152125
 21
207.848999
 31
0.0
  0
LINE
  5
1FF
100
AcDbEntity
  8
外形
  6
CONTINUOUS
100
AcDbLine
 10
1151.152125
 20
197.483563
 30
0.0
 11
1151.152125
 21
193.848999
 31
0.0
  0
LINE
  5
200
100
AcDbEntity
  8
外形
  6
CONTINUOUS
100
AcDbLine
 10
1151.152125
 20
193.848999
 30
0.0
 11
1152.152125
 21
194.848999
 31
0.0
  0
ARC
  5
201
100
AcDbEntity
  8
外形
  6
CONTINUOUS
100
AcDbCircle
 10
1144.147954
 20
201.348999
 30
0.0
 40
8.0
100
AcDbArc
 50
331.106739
 51
28.893261
  0
LINE
  5
202
100
AcDbEntity
  8
外形
  6
CONTINUOUS
100
AcDbLine
 10
1151.152125
 20
208.848999
 30
0.0
 11
1152.152125
 21
207.848999
 31
0.0
  0
ARC
  5
203
100
AcDbEntity
  8
外形
  6
CONTINUOUS
100
AcDbCircle
 10
1143.652125
 20
258.2849
 30
0.0
 40
8.0
100
AcDbArc
 50
339.635865
 51
20.364135
  0
LINE
  5
204
100
AcDbEntity
  8
外形
  6
CONTINUOUS
100
AcDbLine
 10
1152.152125
 20
252.2849
 30
0.0
 11
1152.152125
 21
265.2849
 31
0.0
  0
LINE
  5
206
100
AcDbEntity
  8
外形
  6
CONTINUOUS
100
AcDbLine
 10
1151.152125
 20
251.2849
 30
0.0
 11
1152.152125
 21
252.2849
 31
0.0
  0
LINE
  5
207
100
AcDbEntity
  8
外形
  6
CONTINUOUS
100
AcDbLine
 10
1151.152125
 20
255.501018
 30
0.0
 11
1151.152125
 21
251.2849
 31
0.0
  0
LINE
  5
208
100
AcDbEntity
  8
外形
  6
CONTINUOUS
100
AcDbLine
 10
1151.152125
 20
266.2849
 30
0.0
 11
1151.152125
 21
261.068782
 31
0.0
  0
LINE
  5
209
100
AcDbEntity
  8
外形
  6
CONTINUOUS
100
AcDbLine
 10
1151.152125
 20
266.2849
 30
0.0
 11
1152.152125
 21
265.2849
 31
0.0
  0
LINE
  5
34A
100
AcDbEntity
  8
外形
  6
CONTINUOUS
100
AcDbLine
 10
993.208544
 20
193.598999
 30
0.0
 11
992.549191
 21
198.968999
 31
0.0
  0
ARC
  5
351
100
AcDbEntity
  8
外形
  6
CONTINUOUS
100
AcDbCircle
 10
941.20536
 20
258.2849
 30
0.0
 40
10.752201
100
AcDbArc
 50
224.638975
 51
256.626585
  0
ENDSEC
  0
SECTION
  2
OBJECTS
  0
DICTIONARY
  5
1E
100
AcDbDictionary
  3
ACAD_GROUP
350
1C
  3
ACAD_MLINESTYLE
350
1D
  0
DICTIONARY
  5
46
100
AcDbDictionary
280
     1
  3
ACAD_XREC_ROUNDTRIP
360
47
  0
DICTIONARY
  5
35
100
AcDbDictionary
280
     1
  3
ACAD_XREC_ROUNDTRIP
360
36
  0
DICTIONARY
  5
3
100
AcDbDictionary
280
     1
  3
ACAD_LAYOUTSELFREF
360
4
  0
DICTIONARY
  5
A
100
AcDbDictionary
280
     1
  3
ACAD_LAYOUTSELFREF
360
B
  0
DICTIONARY
  5
1C
102
{ACAD_REACTORS
330
1E
102
}
100
AcDbDictionary
  0
DICTIONARY
  5
1D
102
{ACAD_REACTORS
330
1E
102
}
100
AcDbDictionary
  3
STANDARD
350
20
  0
XRECORD
  5
47
102
{ACAD_REACTORS
330
46
102
}
100
AcDbXrecord
102
PLOTBIT
280
     0
  0
XRECORD
  5
36
102
{ACAD_REACTORS
330
35
102
}
100
AcDbXrecord
102
ACADR14ROUNDTRIP
1000
DSTYLE
1002
{
1070
   341
340
0
1070
   343
340
0
1070
   344
340
0
1002
}
  0
XRECORD
  5
4
102
{ACAD_REACTORS
330
3
102
}
100
AcDbXrecord
340
2
  0
XRECORD
  5
B
102
{ACAD_REACTORS
330
A
102
}
100
AcDbXrecord
340
9
  0
MLINESTYLE
  5
20
102
{ACAD_REACTORS
330
1D
102
}
100
AcDbMlineStyle
  2
STANDARD
 70
     0
  3

 62
     0
 51
90.0
 52
90.0
 71
     2
 49
0.5
 62
   256
  6
BYLAYER
 49
-0.5
 62
   256
  6
BYLAYER
  0
ENDSEC
  0
EOF
