  0
SECTION
  2
HEADER
  9
$ACADVER
  1
AC1014
  9
$ACADMAINTVER
 70
     0
  9
$DWGCODEPAGE
  3
ANSI_932
  9
$INSBASE
 10
858.141353
 20
-16.336041
 30
0.0
  9
$EXTMIN
 10
832.293412
 20
-34.411544
 30
0.0
  9
$EXTMAX
 10
1064.761529
 20
85.060812
 30
0.0
  9
$LIMMIN
 10
-587.250952
 20
327.890188
  9
$LIMMAX
 10
600.749048
 20
957.890188
  9
$ORTHOMODE
 70
     1
  9
$REGENMODE
 70
     1
  9
$FILLMODE
 70
     1
  9
$QTEXTMODE
 70
     0
  9
$MIRRTEXT
 70
     1
  9
$DRAGMODE
 70
     2
  9
$LTSCALE
 40
5.0
  9
$OSMODE
 70
   303
  9
$ATTMODE
 70
     1
  9
$TEXTSIZE
 40
5.0
  9
$TRACEWID
 40
0.05
  9
$TEXTSTYLE
  7
STANDARD
  9
$CLAYER
  8
寸法
  9
$CELTYPE
  6
CONTINUOUS
  9
$CECOLOR
 62
   256
  9
$CELTSCALE
 40
1.0
  9
$DELOBJ
 70
     1
  9
$DISPSILH
 70
     0
  9
$DIMSCALE
 40
1.0
  9
$DIMASZ
 40
2.0
  9
$DIMEXO
 40
1.0
  9
$DIMDLI
 40
8.0
  9
$DIMRND
 40
0.0
  9
$DIMDLE
 40
0.0
  9
$DIMEXE
 40
2.0
  9
$DIMTP
 40
0.0
  9
$DIMTM
 40
0.0
  9
$DIMTXT
 40
2.0
  9
$DIMCEN
 40
-1.0
  9
$DIMTSZ
 40
0.0
  9
$DIMTOL
 70
     0
  9
$DIMLIM
 70
     0
  9
$DIMTIH
 70
     0
  9
$DIMTOH
 70
     0
  9
$DIMSE1
 70
     0
  9
$DIMSE2
 70
     0
  9
$DIMTAD
 70
     1
  9
$DIMZIN
 70
     8
  9
$DIMBLK
  1

  9
$DIMASO
 70
     1
  9
$DIMSHO
 70
     1
  9
$DIMPOST
  1

  9
$DIMAPOST
  1

  9
$DIMALT
 70
     0
  9
$DIMALTD
 70
     2
  9
$DIMALTF
 40
25.4
  9
$DIMLFAC
 40
1.0
  9
$DIMTOFL
 70
     1
  9
$DIMTVP
 40
0.0
  9
$DIMTIX
 70
     0
  9
$DIMSOXD
 70
     0
  9
$DIMSAH
 70
     1
  9
$DIMBLK1
  1
_DOTSMALL
  9
$DIMBLK2
  1
_DOTSMALL
  9
$DIMSTYLE
  2
参考寸法
  9
$DIMCLRD
 70
     2
  9
$DIMCLRE
 70
     2
  9
$DIMCLRT
 70
     2
  9
$DIMTFAC
 40
1.0
  9
$DIMGAP
 40
1.0
  9
$DIMJUST
 70
     0
  9
$DIMSD1
 70
     0
  9
$DIMSD2
 70
     0
  9
$DIMTOLJ
 70
     1
  9
$DIMTZIN
 70
     8
  9
$DIMALTZ
 70
     0
  9
$DIMALTTZ
 70
     0
  9
$DIMFIT
 70
     3
  9
$DIMUPT
 70
     0
  9
$DIMUNIT
 70
     2
  9
$DIMDEC
 70
     3
  9
$DIMTDEC
 70
     2
  9
$DIMALTU
 70
     2
  9
$DIMALTTD
 70
     2
  9
$DIMTXSTY
  7
STANDARD
  9
$DIMAUNIT
 70
     0
  9
$LUNITS
 70
     2
  9
$LUPREC
 70
     3
  9
$SKETCHINC
 40
0.1
  9
$FILLETRAD
 40
6.5
  9
$AUNITS
 70
     0
  9
$AUPREC
 70
     3
  9
$MENU
  1
acad
  9
$ELEVATION
 40
0.0
  9
$PELEVATION
 40
0.0
  9
$THICKNESS
 40
0.0
  9
$LIMCHECK
 70
     0
  9
$BLIPMODE
 70
     0
  9
$CHAMFERA
 40
0.0
  9
$CHAMFERB
 40
0.0
  9
$CHAMFERC
 40
0.0
  9
$CHAMFERD
 40
0.0
  9
$SKPOLY
 70
     0
  9
$TDCREATE
 40
2450751.535399305
  9
$TDUPDATE
 40
2452019.405289352
  9
$TDINDWG
 40
4.3774898148
  9
$TDUSRTIMER
 40
4.3774898148
  9
$USRTIMER
 70
     1
  9
$ANGBASE
 50
0.0
  9
$ANGDIR
 70
     0
  9
$PDMODE
 70
    32
  9
$PDSIZE
 40
0.0
  9
$PLINEWID
 40
0.0
  9
$COORDS
 70
     2
  9
$SPLFRAME
 70
     0
  9
$SPLINETYPE
 70
     5
  9
$SPLINESEGS
 70
     8
  9
$ATTDIA
 70
     0
  9
$ATTREQ
 70
     1
  9
$HANDLING
 70
     1
  9
$HANDSEED
  5
366
  9
$SURFTAB1
 70
     6
  9
$SURFTAB2
 70
     6
  9
$SURFTYPE
 70
     6
  9
$SURFU
 70
     6
  9
$SURFV
 70
     6
  9
$UCSNAME
  2

  9
$UCSORG
 10
0.0
 20
0.0
 30
0.0
  9
$UCSXDIR
 10
1.0
 20
0.0
 30
0.0
  9
$UCSYDIR
 10
0.0
 20
1.0
 30
0.0
  9
$PUCSNAME
  2

  9
$PUCSORG
 10
0.0
 20
0.0
 30
0.0
  9
$PUCSXDIR
 10
1.0
 20
0.0
 30
0.0
  9
$PUCSYDIR
 10
0.0
 20
1.0
 30
0.0
  9
$USERI1
 70
     0
  9
$USERI2
 70
     0
  9
$USERI3
 70
     0
  9
$USERI4
 70
     0
  9
$USERI5
 70
     0
  9
$USERR1
 40
0.0
  9
$USERR2
 40
0.0
  9
$USERR3
 40
0.0
  9
$USERR4
 40
0.0
  9
$USERR5
 40
0.0
  9
$WORLDVIEW
 70
     1
  9
$SHADEDGE
 70
     3
  9
$SHADEDIF
 70
    70
  9
$TILEMODE
 70
     1
  9
$MAXACTVP
 70
    16
  9
$PINSBASE
 10
0.0
 20
0.0
 30
0.0
  9
$PLIMCHECK
 70
     0
  9
$PEXTMIN
 10
1.000000E+20
 20
1.000000E+20
 30
1.000000E+20
  9
$PEXTMAX
 10
-1.000000E+20
 20
-1.000000E+20
 30
-1.000000E+20
  9
$PLIMMIN
 10
0.0
 20
0.0
  9
$PLIMMAX
 10
12.0
 20
9.0
  9
$UNITMODE
 70
     0
  9
$VISRETAIN
 70
     0
  9
$PLINEGEN
 70
     0
  9
$PSLTSCALE
 70
     1
  9
$TREEDEPTH
 70
  3020
  9
$PICKSTYLE
 70
     1
  9
$CMLSTYLE
  2
STANDARD
  9
$CMLJUST
 70
     0
  9
$CMLSCALE
 40
1.0
  9
$PROXYGRAPHICS
 70
     1
  9
$MEASUREMENT
 70
     0
  0
ENDSEC
  0
SECTION
  2
CLASSES
  0
CLASS
  1
LWPOLYLINE
  2
AcDbPolyline
  3
"AutoCAD"
 90
        0
280
     0
281
     1
  0
CLASS
  1
ACDBDICTIONARYWDFLT
  2
AcDbDictionaryWithDefault
  3
AutoCAD 2000
 90
        0
280
     1
281
     0
  0
CLASS
  1
ACDBPLACEHOLDER
  2
AcDbPlaceHolder
  3
AutoCAD 2000
 90
        0
280
     1
281
     0
  0
CLASS
  1
LAYOUT
  2
AcDbLayout
  3
AutoCAD 2000
 90
        0
280
     1
281
     0
  0
CLASS
  1
LONG_TRANSACTION
  2
AcDbLongTransaction
  3
AutoCAD 2000
 90
        0
280
     1
281
     0
  0
CLASS
  1
LWPOLYLINE
  2
AcDbPolyline
  3
"AutoCAD"
 90
        0
280
     0
281
     1
  0
CLASS
  1
HATCH
  2
AcDbHatch
  3
"ACAD_SEDONA"
 90
        0
280
     0
281
     1
  0
CLASS
  1
XRECORD
  2
AcDbXrecord
  3
"<Built In>"
 90
        0
280
     0
281
     0
  0
CLASS
  1
DICTIONARYVAR
  2
AcDbDictionaryVar
  3
"AutoCAD"
 90
        0
280
     0
281
     0
  0
ENDSEC
  0
SECTION
  2
TABLES
  0
TABLE
  2
VPORT
  5
16
100
AcDbSymbolTable
 70
     1
  0
VPORT
  5
361
100
AcDbSymbolTableRecord
100
AcDbViewportTableRecord
  2
*ACTIVE
 70
     0
 10
0.0
 20
0.0
 11
1.0
 21
1.0
 12
943.456852
 22
35.894374
 13
0.0
 23
0.0
 14
1.0
 24
1.0
 15
10.0
 25
10.0
 16
0.0
 26
0.0
 36
1.0
 17
0.0
 27
0.0
 37
0.0
 40
196.406083
 41
1.710425
 42
50.0
 43
0.0
 44
0.0
 50
0.0
 51
0.0
 71
     0
 72
   100
 73
     1
 74
     1
 75
     0
 76
     0
 77
     0
 78
     2
  0
ENDTAB
  0
TABLE
  2
LTYPE
  5
11
100
AcDbSymbolTable
 70
     2
  0
LTYPE
  5
12
100
AcDbSymbolTableRecord
100
AcDbLinetypeTableRecord
  2
BYBLOCK
 70
     0
  3

 72
    65
 73
     0
 40
0.0
  0
LTYPE
  5
13
100
AcDbSymbolTableRecord
100
AcDbLinetypeTableRecord
  2
BYLAYER
 70
     0
  3

 72
    65
 73
     0
 40
0.0
  0
LTYPE
  5
7
100
AcDbSymbolTableRecord
100
AcDbLinetypeTableRecord
  2
CONTINUOUS
 70
     0
  3
Solid line
 72
    65
 73
     0
 40
0.0
  0
LTYPE
  5
4E
100
AcDbSymbolTableRecord
100
AcDbLinetypeTableRecord
  2
CENTER
 70
     0
  3
Center ____ _ ____ _ ____ _ ____ _ ____ _ ____
 72
    65
 73
     4
 40
2.0
 49
1.25
 74
     0
 49
-0.25
 74
     0
 49
0.25
 74
     0
 49
-0.25
 74
     0
  0
ENDTAB
  0
TABLE
  2
LAYER
  5
E
100
AcDbSymbolTable
 70
     5
  0
LAYER
  5
6
100
AcDbSymbolTableRecord
100
AcDbLayerTableRecord
  2
0
 70
     0
 62
     7
  6
CONTINUOUS
  0
LAYER
  5
1F
100
AcDbSymbolTableRecord
100
AcDbLayerTableRecord
  2
外形
 70
     0
 62
     4
  6
CONTINUOUS
  0
LAYER
  5
45
102
{ACAD_XDICTIONARY
360
46
102
}
100
AcDbSymbolTableRecord
100
AcDbLayerTableRecord
  2
DEFPOINTS
 70
     0
 62
     7
  6
CONTINUOUS
  0
LAYER
  5
33
100
AcDbSymbolTableRecord
100
AcDbLayerTableRecord
  2
寸法
 70
     0
 62
     1
  6
CONTINUOUS
  0
LAYER
  5
9B
100
AcDbSymbolTableRecord
100
AcDbLayerTableRecord
  2
参考
 70
     0
 62
     2
  6
CONTINUOUS
  0
ENDTAB
  0
TABLE
  2
STYLE
  5
F
100
AcDbSymbolTable
 70
     1
  0
STYLE
  5
10
100
AcDbSymbolTableRecord
100
AcDbTextStyleTableRecord
  2
STANDARD
 70
     0
 40
0.0
 41
1.0
 50
0.0
 71
     0
 42
5.0
  3
MONOTXT
  4
BIGFONT
  0
ENDTAB
  0
TABLE
  2
VIEW
  5
14
100
AcDbSymbolTable
 70
     0
  0
ENDTAB
  0
TABLE
  2
UCS
  5
15
100
AcDbSymbolTable
 70
     0
  0
ENDTAB
  0
TABLE
  2
APPID
  5
18
100
AcDbSymbolTable
 70
     1
  0
APPID
  5
19
100
AcDbSymbolTableRecord
100
AcDbRegAppTableRecord
  2
ACAD
 70
     0
  0
ENDTAB
  0
TABLE
  2
DIMSTYLE
  5
1A
100
AcDbSymbolTable
 70
     2
  0
DIMSTYLE
105
34
102
{ACAD_XDICTIONARY
360
35
102
}
102
{ACAD_REACTORS
330
32
330
D3
330
C4
330
142
330
133
330
56
330
84
330
341
102
}
100
AcDbSymbolTableRecord
100
AcDbDimStyleTableRecord
  2
STANDARD
 70
     0
  3

  4

  5

  6
_OPEN30
  7
_OPEN30
 40
0.0
 41
2.0
 42
1.0
 43
8.0
 44
2.0
 45
0.0
 46
0.0
 47
0.0
 48
0.0
140
3.0
141
-1.0
142
0.0
143
25.4
144
1.0
145
0.0
146
1.0
147
1.0
 71
     0
 72
     0
 73
     0
 74
     0
 75
     0
 76
     0
 77
     1
 78
     8
170
     0
171
     2
172
     1
173
     1
174
     0
175
     0
176
     1
177
     1
178
     3
270
     2
271
     2
272
     2
273
     2
274
     2
340
10
275
     0
280
     0
281
     0
282
     0
283
     1
284
     8
285
     0
286
     0
287
     3
288
     0
  0
DIMSTYLE
105
21
102
{ACAD_REACTORS
330
AA
330
9A
330
EE
330
E0
330
11B
102
}
100
AcDbSymbolTableRecord
100
AcDbDimStyleTableRecord
  2
参考寸法
 70
     0
  3

  4

  5

  6
_DOTSMALL
  7
_DOTSMALL
 40
1.0
 41
2.0
 42
1.0
 43
8.0
 44
2.0
 45
0.0
 46
0.0
 47
0.0
 48
0.0
140
2.0
141
-1.0
142
0.0
143
25.4
144
1.0
145
0.0
146
1.0
147
1.0
 71
     0
 72
     0
 73
     0
 74
     0
 75
     0
 76
     0
 77
     1
 78
     8
170
     0
171
     2
172
     1
173
     1
174
     0
175
     0
176
     2
177
     2
178
     2
270
     2
271
     3
272
     2
273
     2
274
     2
340
10
275
     0
280
     0
281
     0
282
     0
283
     1
284
     8
285
     0
286
     0
287
     3
288
     0
  0
ENDTAB
  0
TABLE
  2
BLOCK_RECORD
  5
1
100
AcDbSymbolTable
 70
    22
  0
BLOCK_RECORD
  5
2
102
{ACAD_XDICTIONARY
360
3
102
}
100
AcDbSymbolTableRecord
100
AcDbBlockTableRecord
  2
*MODEL_SPACE
  0
BLOCK_RECORD
  5
9
102
{ACAD_XDICTIONARY
360
A
102
}
100
AcDbSymbolTableRecord
100
AcDbBlockTableRecord
  2
*PAPER_SPACE
  0
BLOCK_RECORD
  5
22
100
AcDbSymbolTableRecord
100
AcDbBlockTableRecord
  2
_DOTSMALL
  0
BLOCK_RECORD
  5
37
100
AcDbSymbolTableRecord
100
AcDbBlockTableRecord
  2
_OPEN30
  0
BLOCK_RECORD
  5
3D
100
AcDbSymbolTableRecord
100
AcDbBlockTableRecord
  2
*D2
  0
BLOCK_RECORD
  5
D4
100
AcDbSymbolTableRecord
100
AcDbBlockTableRecord
  2
*D3
  0
BLOCK_RECORD
  5
EF
100
AcDbSymbolTableRecord
100
AcDbBlockTableRecord
  2
*D4
  0
BLOCK_RECORD
  5
E1
100
AcDbSymbolTableRecord
100
AcDbBlockTableRecord
  2
*D5
  0
BLOCK_RECORD
  5
143
100
AcDbSymbolTableRecord
100
AcDbBlockTableRecord
  2
*D6
  0
BLOCK_RECORD
  5
C5
100
AcDbSymbolTableRecord
100
AcDbBlockTableRecord
  2
*D7
  0
BLOCK_RECORD
  5
AB
100
AcDbSymbolTableRecord
100
AcDbBlockTableRecord
  2
*D8
  0
BLOCK_RECORD
  5
9C
100
AcDbSymbolTableRecord
100
AcDbBlockTableRecord
  2
*D9
  0
BLOCK_RECORD
  5
134
100
AcDbSymbolTableRecord
100
AcDbBlockTableRecord
  2
*D10
  0
BLOCK_RECORD
  5
11C
100
AcDbSymbolTableRecord
100
AcDbBlockTableRecord
  2
*D11
  0
BLOCK_RECORD
  5
57
100
AcDbSymbolTableRecord
100
AcDbBlockTableRecord
  2
*D12
  0
BLOCK_RECORD
  5
85
100
AcDbSymbolTableRecord
100
AcDbBlockTableRecord
  2
*D13
  0
BLOCK_RECORD
  5
2A
100
AcDbSymbolTableRecord
100
AcDbBlockTableRecord
  2
3
  0
BLOCK_RECORD
  5
1F3
100
AcDbSymbolTableRecord
100
AcDbBlockTableRecord
  2
*D15
  0
BLOCK_RECORD
  5
1FF
100
AcDbSymbolTableRecord
100
AcDbBlockTableRecord
  2
*D16
  0
BLOCK_RECORD
  5
211
100
AcDbSymbolTableRecord
100
AcDbBlockTableRecord
  2
*D17
  0
BLOCK_RECORD
  5
248
100
AcDbSymbolTableRecord
100
AcDbBlockTableRecord
  2
*D18
  0
BLOCK_RECORD
  5
27B
100
AcDbSymbolTableRecord
100
AcDbBlockTableRecord
  2
*D19
  0
BLOCK_RECORD
  5
286
100
AcDbSymbolTableRecord
100
AcDbBlockTableRecord
  2
*D20
  0
BLOCK_RECORD
  5
334
100
AcDbSymbolTableRecord
100
AcDbBlockTableRecord
  2
*D21
  0
ENDTAB
  0
ENDSEC
  0
SECTION
  2
BLOCKS
  0
BLOCK
  5
5
100
AcDbEntity
  8
0
100
AcDbBlockBegin
  2
*MODEL_SPACE
 70
     0
 10
0.0
 20
0.0
 30
0.0
  3
*MODEL_SPACE
  1

  0
ENDBLK
  5
8
100
AcDbEntity
  8
0
100
AcDbBlockEnd
  0
BLOCK
  5
C
100
AcDbEntity
 67
     1
  8
0
100
AcDbBlockBegin
  2
*PAPER_SPACE
 70
     0
 10
0.0
 20
0.0
 30
0.0
  3
*PAPER_SPACE
  1

  0
ENDBLK
  5
D
100
AcDbEntity
 67
     1
  8
0
100
AcDbBlockEnd
  0
BLOCK
  5
27
100
AcDbEntity
  8
0
100
AcDbBlockBegin
  2
_DOTSMALL
 70
     0
 10
0.0
 20
0.0
 30
0.0
  3
_DOTSMALL
  1

  0
POLYLINE
  5
23
100
AcDbEntity
  8
0
  6
BYBLOCK
 62
     0
100
AcDb2dPolyline
 66
     1
 10
0.0
 20
0.0
 30
0.0
 70
     1
 40
0.5
 41
0.5
  0
VERTEX
  5
24
100
AcDbEntity
  8
0
  6
BYBLOCK
 62
     0
100
AcDbVertex
100
AcDb2dVertex
 10
-0.0625
 20
0.0
 30
0.0
 42
1.0
  0
VERTEX
  5
25
100
AcDbEntity
  8
0
  6
BYBLOCK
 62
     0
100
AcDbVertex
100
AcDb2dVertex
 10
0.0625
 20
0.0
 30
0.0
 42
1.0
  0
SEQEND
  5
26
100
AcDbEntity
  8
0
  6
BYBLOCK
 62
     0
  0
ENDBLK
  5
28
100
AcDbEntity
  8
0
100
AcDbBlockEnd
  0
BLOCK
  5
3B
100
AcDbEntity
  8
0
100
AcDbBlockBegin
  2
_OPEN30
 70
     0
 10
0.0
 20
0.0
 30
0.0
  3
_OPEN30
  1

  0
LINE
  5
38
100
AcDbEntity
  8
0
  6
BYBLOCK
 62
     0
100
AcDbLine
 10
-1.0
 20
0.267949
 30
0.0
 11
0.0
 21
0.0
 31
0.0
  0
LINE
  5
39
100
AcDbEntity
  8
0
  6
BYBLOCK
 62
     0
100
AcDbLine
 10
0.0
 20
0.0
 30
0.0
 11
-1.0
 21
-0.267949
 31
0.0
  0
LINE
  5
3A
100
AcDbEntity
  8
0
  6
BYBLOCK
 62
     0
100
AcDbLine
 10
0.0
 20
0.0
 30
0.0
 11
-1.0
 21
0.0
 31
0.0
  0
ENDBLK
  5
3C
100
AcDbEntity
  8
0
100
AcDbBlockEnd
  0
BLOCK
  5
4A
100
AcDbEntity
  8
0
100
AcDbBlockBegin
  2
*D2
 70
     1
 10
0.0
 20
0.0
 30
0.0
  3
*D2
  1

  0
LINE
  5
3E
100
AcDbEntity
  8
0
  6
BYBLOCK
 62
     1
100
AcDbLine
 10
-286.733768
 20
509.169544
 30
0.0
 11
-286.733768
 21
487.242578
 31
0.0
  0
LINE
  5
3F
100
AcDbEntity
  8
0
  6
BYBLOCK
 62
     1
100
AcDbLine
 10
-126.737856
 20
514.169544
 30
0.0
 11
-126.737856
 21
487.242578
 31
0.0
  0
LINE
  5
40
100
AcDbEntity
  8
0
  6
BYBLOCK
 62
     1
100
AcDbLine
 10
-284.733768
 20
489.242578
 30
0.0
 11
-128.737856
 21
489.242578
 31
0.0
  0
INSERT
  5
41
100
AcDbEntity
  8
0
  6
BYBLOCK
 62
     1
100
AcDbBlockReference
  2
_OPEN30
 10
-286.733768
 20
489.242578
 30
0.0
 41
2.0
 42
2.0
 43
2.0
 50
180.0
  0
INSERT
  5
42
100
AcDbEntity
  8
0
  6
BYBLOCK
 62
     1
100
AcDbBlockReference
  2
_OPEN30
 10
-126.737856
 20
489.242578
 30
0.0
 41
2.0
 42
2.0
 43
2.0
  0
MTEXT
  5
43
100
AcDbEntity
  8
0
  6
BYBLOCK
 62
     3
100
AcDbMText
 10
-206.735812
 20
491.742578
 30
0.0
 40
3.0
 41
0.0
 71
     5
 72
     1
  1
\A1;160
  0
POINT
  5
44
100
AcDbEntity
  8
DEFPOINTS
  6
BYBLOCK
 62
     0
100
AcDbPoint
 10
-286.733768
 20
510.169544
 30
0.0
  0
POINT
  5
48
100
AcDbEntity
  8
DEFPOINTS
  6
BYBLOCK
 62
     0
100
AcDbPoint
 10
-126.737856
 20
515.169544
 30
0.0
  0
POINT
  5
49
100
AcDbEntity
  8
DEFPOINTS
  6
BYBLOCK
 62
     0
100
AcDbPoint
 10
-126.737856
 20
489.242578
 30
0.0
  0
ENDBLK
  5
4B
100
AcDbEntity
  8
0
100
AcDbBlockEnd
  0
BLOCK
  5
DE
100
AcDbEntity
  8
0
100
AcDbBlockBegin
  2
*D3
 70
     1
 10
0.0
 20
0.0
 30
0.0
  3
*D3
  1

  0
LINE
  5
D5
100
AcDbEntity
  8
0
  6
BYBLOCK
 62
     1
100
AcDbLine
 10
635.209604
 20
510.169544
 30
0.0
 11
629.122703
 21
510.169544
 31
0.0
  0
LINE
  5
D6
100
AcDbEntity
  8
0
  6
BYBLOCK
 62
     1
100
AcDbLine
 10
635.554946
 20
521.169544
 30
0.0
 11
629.122703
 21
521.169544
 31
0.0
  0
LINE
  5
D7
100
AcDbEntity
  8
0
  6
BYBLOCK
 62
     1
100
AcDbLine
 10
631.122703
 20
512.169544
 30
0.0
 11
631.122703
 21
519.169544
 31
0.0
  0
INSERT
  5
D8
100
AcDbEntity
  8
0
  6
BYBLOCK
 62
     1
100
AcDbBlockReference
  2
_OPEN30
 10
631.122703
 20
510.169544
 30
0.0
 41
2.0
 42
2.0
 43
2.0
 50
270.0
  0
INSERT
  5
D9
100
AcDbEntity
  8
0
  6
BYBLOCK
 62
     1
100
AcDbBlockReference
  2
_OPEN30
 10
631.122703
 20
521.169544
 30
0.0
 41
2.0
 42
2.0
 43
2.0
 50
90.0
  0
MTEXT
  5
DA
100
AcDbEntity
  8
0
  6
BYBLOCK
 62
     3
100
AcDbMText
 10
628.622703
 20
515.669544
 30
0.0
 40
3.0
 41
0.0
 71
     5
 72
     1
  1
\A1;11
 11
0.0
 21
1.0
 31
0.0
  0
POINT
  5
DB
100
AcDbEntity
  8
DEFPOINTS
  6
BYBLOCK
 62
     0
100
AcDbPoint
 10
636.209604
 20
510.169544
 30
0.0
  0
POINT
  5
DC
100
AcDbEntity
  8
DEFPOINTS
  6
BYBLOCK
 62
     0
100
AcDbPoint
 10
636.554946
 20
521.169544
 30
0.0
  0
POINT
  5
DD
100
AcDbEntity
  8
DEFPOINTS
  6
BYBLOCK
 62
     0
100
AcDbPoint
 10
631.122703
 20
521.169544
 30
0.0
  0
ENDBLK
  5
DF
100
AcDbEntity
  8
0
100
AcDbBlockEnd
  0
BLOCK
  5
F9
100
AcDbEntity
  8
0
100
AcDbBlockBegin
  2
*D4
 70
     1
 10
0.0
 20
0.0
 30
0.0
  3
*D4
  1

  0
LINE
  5
F0
100
AcDbEntity
  8
0
  6
BYBLOCK
 62
     2
100
AcDbLine
 10
589.848538
 20
509.169544
 30
0.0
 11
589.848538
 21
499.799846
 31
0.0
  0
LINE
  5
F1
100
AcDbEntity
  8
0
  6
BYBLOCK
 62
     2
100
AcDbLine
 10
614.848538
 20
513.165373
 30
0.0
 11
614.848538
 21
499.799846
 31
0.0
  0
LINE
  5
F2
100
AcDbEntity
  8
0
  6
BYBLOCK
 62
     2
100
AcDbLine
 10
589.848538
 20
501.799846
 30
0.0
 11
614.848538
 21
501.799846
 31
0.0
  0
INSERT
  5
F3
100
AcDbEntity
  8
0
  6
BYBLOCK
 62
     2
100
AcDbBlockReference
  2
_DOTSMALL
 10
589.848538
 20
501.799846
 30
0.0
 50
180.0
  0
INSERT
  5
F4
100
AcDbEntity
  8
0
  6
BYBLOCK
 62
     2
100
AcDbBlockReference
  2
_DOTSMALL
 10
614.848538
 20
501.799846
 30
0.0
  0
MTEXT
  5
F5
100
AcDbEntity
  8
0
  6
BYBLOCK
 62
     2
100
AcDbMText
 10
602.348538
 20
503.549846
 30
0.0
 40
1.5
 41
0.0
 71
     5
 72
     1
  1
\A1;25
  0
POINT
  5
F6
100
AcDbEntity
  8
DEFPOINTS
  6
BYBLOCK
 62
     0
100
AcDbPoint
 10
589.848538
 20
510.169544
 30
0.0
  0
POINT
  5
F7
100
AcDbEntity
  8
DEFPOINTS
  6
BYBLOCK
 62
     0
100
AcDbPoint
 10
614.848538
 20
514.165373
 30
0.0
  0
POINT
  5
F8
100
AcDbEntity
  8
DEFPOINTS
  6
BYBLOCK
 62
     0
100
AcDbPoint
 10
614.848538
 20
501.799846
 30
0.0
  0
ENDBLK
  5
FA
100
AcDbEntity
  8
0
100
AcDbBlockEnd
  0
BLOCK
  5
EC
100
AcDbEntity
  8
0
100
AcDbBlockBegin
  2
*D5
 70
     1
 10
0.0
 20
0.0
 30
0.0
  3
*D5
  1

  0
LINE
  5
E2
100
AcDbEntity
  8
0
  6
BYBLOCK
 62
     2
100
AcDbLine
 10
340.844638
 20
516.708052
 30
0.0
 11
340.844638
 21
507.300613
 31
0.0
  0
LINE
  5
E3
100
AcDbEntity
  8
0
  6
BYBLOCK
 62
     2
100
AcDbLine
 10
344.294661
 20
516.708052
 30
0.0
 11
344.294661
 21
507.300613
 31
0.0
  0
LINE
  5
E4
100
AcDbEntity
  8
0
  6
BYBLOCK
 62
     2
100
AcDbLine
 10
340.844638
 20
509.300613
 30
0.0
 11
344.294661
 21
509.300613
 31
0.0
  0
LINE
  5
E5
100
AcDbEntity
  8
0
  6
BYBLOCK
 62
     2
100
AcDbLine
 10
344.294661
 20
509.300613
 30
0.0
 11
352.794661
 21
509.300613
 31
0.0
  0
INSERT
  5
E6
100
AcDbEntity
  8
0
  6
BYBLOCK
 62
     2
100
AcDbBlockReference
  2
_DOTSMALL
 10
340.844638
 20
509.300613
 30
0.0
 50
180.0
  0
INSERT
  5
E7
100
AcDbEntity
  8
0
  6
BYBLOCK
 62
     2
100
AcDbBlockReference
  2
_DOTSMALL
 10
344.294661
 20
509.300613
 30
0.0
  0
MTEXT
  5
E8
100
AcDbEntity
  8
0
  6
BYBLOCK
 62
     2
100
AcDbMText
 10
349.044661
 20
511.050613
 30
0.0
 40
1.5
 41
0.0
 71
     5
 72
     1
  1
\A1;3.45
  0
POINT
  5
E9
100
AcDbEntity
  8
DEFPOINTS
  6
BYBLOCK
 62
     0
100
AcDbPoint
 10
340.844638
 20
517.708052
 30
0.0
  0
POINT
  5
EA
100
AcDbEntity
  8
DEFPOINTS
  6
BYBLOCK
 62
     0
100
AcDbPoint
 10
344.294661
 20
517.708052
 30
0.0
  0
POINT
  5
EB
100
AcDbEntity
  8
DEFPOINTS
  6
BYBLOCK
 62
     0
100
AcDbPoint
 10
344.294661
 20
509.300613
 30
0.0
  0
ENDBLK
  5
ED
100
AcDbEntity
  8
0
100
AcDbBlockEnd
  0
BLOCK
  5
14D
100
AcDbEntity
  8
0
100
AcDbBlockBegin
  2
*D6
 70
     1
 10
0.0
 20
0.0
 30
0.0
  3
*D6
  1

  0
LINE
  5
144
100
AcDbEntity
  8
0
  6
BYBLOCK
 62
     1
100
AcDbLine
 10
718.705516
 20
517.385662
 30
0.0
 11
718.705516
 21
498.290149
 31
0.0
  0
LINE
  5
145
100
AcDbEntity
  8
0
  6
BYBLOCK
 62
     1
100
AcDbLine
 10
733.705516
 20
517.385662
 30
0.0
 11
733.705516
 21
498.290149
 31
0.0
  0
LINE
  5
146
100
AcDbEntity
  8
0
  6
BYBLOCK
 62
     1
100
AcDbLine
 10
720.705516
 20
500.290149
 30
0.0
 11
731.705516
 21
500.290149
 31
0.0
  0
INSERT
  5
147
100
AcDbEntity
  8
0
  6
BYBLOCK
 62
     1
100
AcDbBlockReference
  2
_OPEN30
 10
718.705516
 20
500.290149
 30
0.0
 41
2.0
 42
2.0
 43
2.0
 50
180.0
  0
INSERT
  5
148
100
AcDbEntity
  8
0
  6
BYBLOCK
 62
     1
100
AcDbBlockReference
  2
_OPEN30
 10
733.705516
 20
500.290149
 30
0.0
 41
2.0
 42
2.0
 43
2.0
  0
MTEXT
  5
149
100
AcDbEntity
  8
0
  6
BYBLOCK
 62
     3
100
AcDbMText
 10
726.205516
 20
502.790149
 30
0.0
 40
3.0
 41
0.0
 71
     5
 72
     1
  1
\A1;15
  0
POINT
  5
14A
100
AcDbEntity
  8
DEFPOINTS
  6
BYBLOCK
 62
     0
100
AcDbPoint
 10
718.705516
 20
518.385662
 30
0.0
  0
POINT
  5
14B
100
AcDbEntity
  8
DEFPOINTS
  6
BYBLOCK
 62
     0
100
AcDbPoint
 10
733.705516
 20
518.385662
 30
0.0
  0
POINT
  5
14C
100
AcDbEntity
  8
DEFPOINTS
  6
BYBLOCK
 62
     0
100
AcDbPoint
 10
733.705516
 20
500.290149
 30
0.0
  0
ENDBLK
  5
14E
100
AcDbEntity
  8
0
100
AcDbBlockEnd
  0
BLOCK
  5
D1
100
AcDbEntity
  8
0
100
AcDbBlockBegin
  2
*D7
 70
     1
 10
0.0
 20
0.0
 30
0.0
  3
*D7
  1

  0
LINE
  5
C6
100
AcDbEntity
  8
0
  6
BYBLOCK
 62
     1
100
AcDbLine
 10
338.48818
 20
521.169544
 30
0.0
 11
332.055936
 21
521.169544
 31
0.0
  0
LINE
  5
C7
100
AcDbEntity
  8
0
  6
BYBLOCK
 62
     1
100
AcDbLine
 10
338.750219
 20
524.169544
 30
0.0
 11
332.055936
 21
524.169544
 31
0.0
  0
LINE
  5
C8
100
AcDbEntity
  8
0
  6
BYBLOCK
 62
     1
100
AcDbLine
 10
334.055936
 20
519.169544
 30
0.0
 11
334.055936
 21
517.169544
 31
0.0
  0
LINE
  5
C9
100
AcDbEntity
  8
0
  6
BYBLOCK
 62
     1
100
AcDbLine
 10
334.055936
 20
526.169544
 30
0.0
 11
334.055936
 21
532.169544
 31
0.0
  0
LINE
  5
CA
100
AcDbEntity
  8
0
  6
BYBLOCK
 62
     1
100
AcDbLine
 10
334.055936
 20
521.169544
 30
0.0
 11
334.055936
 21
524.169544
 31
0.0
  0
INSERT
  5
CB
100
AcDbEntity
  8
0
  6
BYBLOCK
 62
     1
100
AcDbBlockReference
  2
_OPEN30
 10
334.055936
 20
521.169544
 30
0.0
 41
2.0
 42
2.0
 43
2.0
 50
90.0
  0
INSERT
  5
CC
100
AcDbEntity
  8
0
  6
BYBLOCK
 62
     1
100
AcDbBlockReference
  2
_OPEN30
 10
334.055936
 20
524.169544
 30
0.0
 41
2.0
 42
2.0
 43
2.0
 50
270.0
  0
MTEXT
  5
CD
100
AcDbEntity
  8
0
  6
BYBLOCK
 62
     3
100
AcDbMText
 10
331.555936
 20
530.169544
 30
0.0
 40
3.0
 41
0.0
 71
     5
 72
     1
  1
\A1;3
 11
0.0
 21
1.0
 31
0.0
  0
POINT
  5
CE
100
AcDbEntity
  8
DEFPOINTS
  6
BYBLOCK
 62
     0
100
AcDbPoint
 10
339.48818
 20
521.169544
 30
0.0
  0
POINT
  5
CF
100
AcDbEntity
  8
DEFPOINTS
  6
BYBLOCK
 62
     0
100
AcDbPoint
 10
339.750219
 20
524.169544
 30
0.0
  0
POINT
  5
D0
100
AcDbEntity
  8
DEFPOINTS
  6
BYBLOCK
 62
     0
100
AcDbPoint
 10
334.055936
 20
524.169544
 30
0.0
  0
ENDBLK
  5
D2
100
AcDbEntity
  8
0
100
AcDbBlockEnd
  0
BLOCK
  5
B6
100
AcDbEntity
  8
0
100
AcDbBlockBegin
  2
*D8
 70
     1
 10
0.0
 20
0.0
 30
0.0
  3
*D8
  1

  0
LINE
  5
AC
100
AcDbEntity
  8
0
  6
BYBLOCK
 62
     2
100
AcDbLine
 10
585.003331
 20
511.175048
 30
0.0
 11
584.475867
 21
506.156564
 31
0.0
  0
LINE
  5
AD
100
AcDbEntity
  8
0
  6
BYBLOCK
 62
     2
100
AcDbLine
 10
582.636551
 20
511.423807
 30
0.0
 11
582.109087
 21
506.405322
 31
0.0
  0
LINE
  5
AE
100
AcDbEntity
  8
0
  6
BYBLOCK
 62
     2
100
AcDbLine
 10
584.684924
 20
508.145608
 30
0.0
 11
582.318144
 21
508.394366
 31
0.0
  0
LINE
  5
AF
100
AcDbEntity
  8
0
  6
BYBLOCK
 62
     2
100
AcDbLine
 10
582.318144
 20
508.394366
 30
0.0
 11
573.864707
 21
509.282858
 31
0.0
  0
INSERT
  5
B0
100
AcDbEntity
  8
0
  6
BYBLOCK
 62
     2
100
AcDbBlockReference
  2
_DOTSMALL
 10
584.684924
 20
508.145608
 30
0.0
 50
354.0
  0
INSERT
  5
B1
100
AcDbEntity
  8
0
  6
BYBLOCK
 62
     2
100
AcDbBlockReference
  2
_DOTSMALL
 10
582.318144
 20
508.394366
 30
0.0
 50
174.0
  0
MTEXT
  5
B2
100
AcDbEntity
  8
0
  6
BYBLOCK
 62
     2
100
AcDbMText
 10
577.777089
 20
510.63129
 30
0.0
 40
1.5
 41
0.0
 71
     5
 72
     1
  1
\A1;2.38
 11
0.994522
 21
-0.104528
 31
0.0
  0
POINT
  5
B3
100
AcDbEntity
  8
DEFPOINTS
  6
BYBLOCK
 62
     0
100
AcDbPoint
 10
585.107859
 20
512.16957
 30
0.0
  0
POINT
  5
B4
100
AcDbEntity
  8
DEFPOINTS
  6
BYBLOCK
 62
     0
100
AcDbPoint
 10
582.741079
 20
512.418328
 30
0.0
  0
POINT
  5
B5
100
AcDbEntity
  8
DEFPOINTS
  6
BYBLOCK
 62
     0
100
AcDbPoint
 10
582.318144
 20
508.394366
 30
0.0
  0
ENDBLK
  5
B7
100
AcDbEntity
  8
0
100
AcDbBlockEnd
  0
BLOCK
  5
A8
100
AcDbEntity
  8
0
100
AcDbBlockBegin
  2
*D9
 70
     1
 10
0.0
 20
0.0
 30
0.0
  3
*D9
  1

  0
LINE
  5
9D
100
AcDbEntity
  8
0
  6
BYBLOCK
 62
     2
100
AcDbLine
 10
288.041274
 20
504.836023
 30
0.0
 11
288.041274
 21
500.175716
 31
0.0
  0
LINE
  5
9E
100
AcDbEntity
  8
0
  6
BYBLOCK
 62
     2
100
AcDbLine
 10
288.061274
 20
504.836023
 30
0.0
 11
288.061274
 21
500.175716
 31
0.0
  0
LINE
  5
9F
100
AcDbEntity
  8
0
  6
BYBLOCK
 62
     2
100
AcDbLine
 10
288.041274
 20
502.175716
 30
0.0
 11
287.041274
 21
502.175716
 31
0.0
  0
LINE
  5
A0
100
AcDbEntity
  8
0
  6
BYBLOCK
 62
     2
100
AcDbLine
 10
288.061274
 20
502.175716
 30
0.0
 11
297.561274
 21
502.175716
 31
0.0
  0
LINE
  5
A1
100
AcDbEntity
  8
0
  6
BYBLOCK
 62
     2
100
AcDbLine
 10
288.041274
 20
502.175716
 30
0.0
 11
288.061274
 21
502.175716
 31
0.0
  0
INSERT
  5
A2
100
AcDbEntity
  8
0
  6
BYBLOCK
 62
     2
100
AcDbBlockReference
  2
_DOTSMALL
 10
288.041274
 20
502.175716
 30
0.0
  0
INSERT
  5
A3
100
AcDbEntity
  8
0
  6
BYBLOCK
 62
     2
100
AcDbBlockReference
  2
_DOTSMALL
 10
288.061274
 20
502.175716
 30
0.0
 50
180.0
  0
MTEXT
  5
A4
100
AcDbEntity
  8
0
  6
BYBLOCK
 62
     2
100
AcDbMText
 10
293.811274
 20
503.925716
 30
0.0
 40
1.5
 41
0.0
 71
     5
 72
     1
  1
\A1;0.02
  0
POINT
  5
A5
100
AcDbEntity
  8
DEFPOINTS
  6
BYBLOCK
 62
     0
100
AcDbPoint
 10
288.041274
 20
505.836023
 30
0.0
  0
POINT
  5
A6
100
AcDbEntity
  8
DEFPOINTS
  6
BYBLOCK
 62
     0
100
AcDbPoint
 10
288.061274
 20
505.836023
 30
0.0
  0
POINT
  5
A7
100
AcDbEntity
  8
DEFPOINTS
  6
BYBLOCK
 62
     0
100
AcDbPoint
 10
288.061274
 20
502.175716
 30
0.0
  0
ENDBLK
  5
A9
100
AcDbEntity
  8
0
100
AcDbBlockEnd
  0
BLOCK
  5
13D
100
AcDbEntity
  8
0
100
AcDbBlockBegin
  2
*D10
 70
     1
 10
0.0
 20
0.0
 30
0.0
  3
*D10
  1

  0
LINE
  5
135
100
AcDbEntity
  8
0
  6
BYBLOCK
 62
     1
100
AcDbLine
 10
739.634926
 20
538.595127
 30
0.0
 11
732.309793
 21
529.090264
 31
0.0
  0
LINE
  5
136
100
AcDbEntity
  8
0
  6
BYBLOCK
 62
     1
100
AcDbLine
 10
720.101239
 20
513.248825
 30
0.0
 11
718.880383
 21
511.664681
 31
0.0
  0
MTEXT
  5
137
100
AcDbEntity
  8
0
  6
BYBLOCK
 62
     3
100
AcDbMText
 10
734.602607
 20
536.160837
 30
0.0
 40
3.0
 41
0.0
 71
     5
 72
     1
  1
\A1;\U+220516
 11
0.610428
 21
0.792072
 31
0.0
  0
LINE
  5
138
100
AcDbEntity
  8
0
  6
BYBLOCK
 62
     1
100
AcDbLine
 10
721.322094
 20
514.832969
 30
0.0
 11
731.088938
 21
527.50612
 31
0.0
  0
INSERT
  5
139
100
AcDbEntity
  8
0
  6
BYBLOCK
 62
     1
100
AcDbBlockReference
  2
_OPEN30
 10
721.322094
 20
514.832969
 30
0.0
 41
2.0
 42
2.0
 43
2.0
 50
52.379563
  0
INSERT
  5
13A
100
AcDbEntity
  8
0
  6
BYBLOCK
 62
     1
100
AcDbBlockReference
  2
_OPEN30
 10
731.088938
 20
527.50612
 30
0.0
 41
2.0
 42
2.0
 43
2.0
 50
232.379563
  0
POINT
  5
13B
100
AcDbEntity
  8
DEFPOINTS
  6
BYBLOCK
 62
     0
100
AcDbPoint
 10
731.088938
 20
527.50612
 30
0.0
  0
POINT
  5
13C
100
AcDbEntity
  8
DEFPOINTS
  6
BYBLOCK
 62
     0
100
AcDbPoint
 10
721.322094
 20
514.832969
 30
0.0
  0
ENDBLK
  5
13E
100
AcDbEntity
  8
0
100
AcDbBlockEnd
  0
BLOCK
  5
128
100
AcDbEntity
  8
0
100
AcDbBlockBegin
  2
*D11
 70
     1
 10
0.0
 20
0.0
 30
0.0
  3
*D11
  1

  0
LINE
  5
11D
100
AcDbEntity
  8
0
  6
BYBLOCK
 62
     2
100
AcDbLine
 10
662.209604
 20
528.919544
 30
0.0
 11
669.064089
 21
528.919544
 31
0.0
  0
LINE
  5
11E
100
AcDbEntity
  8
0
  6
BYBLOCK
 62
     2
100
AcDbLine
 10
646.015068
 20
529.419544
 30
0.0
 11
665.86008
 21
540.877068
 31
0.0
  0
ARC
  5
11F
100
AcDbEntity
  8
0
  6
BYBLOCK
 62
     2
100
AcDbCircle
 10
645.149042
 20
528.919544
 30
0.0
 40
21.915047
100
AcDbArc
 50
0.0
 51
30.0
  0
INSERT
  5
120
100
AcDbEntity
  8
0
  6
BYBLOCK
 62
     2
100
AcDbBlockReference
  2
_DOTSMALL
 10
667.064089
 20
528.919544
 30
0.0
 50
270.0
  0
INSERT
  5
121
100
AcDbEntity
  8
0
  6
BYBLOCK
 62
     2
100
AcDbBlockReference
  2
_DOTSMALL
 10
664.12803
 20
539.877068
 30
0.0
 50
120.0
  0
MTEXT
  5
122
100
AcDbEntity
  8
0
  6
BYBLOCK
 62
     2
100
AcDbMText
 10
668.007722
 20
535.044509
 30
0.0
 40
1.5
 41
0.0
 71
     5
 72
     1
  1
\A1;30°
 11
0.258819
 21
-0.965926
 31
0.0
  0
POINT
  5
123
100
AcDbEntity
  8
DEFPOINTS
  6
BYBLOCK
 62
     0
100
AcDbPoint
 10
666.73115
 20
532.725052
 30
0.0
  0
POINT
  5
124
100
AcDbEntity
  8
DEFPOINTS
  6
BYBLOCK
 62
     0
100
AcDbPoint
 10
636.921801
 20
524.169544
 30
0.0
  0
POINT
  5
125
100
AcDbEntity
  8
DEFPOINTS
  6
BYBLOCK
 62
     0
100
AcDbPoint
 10
661.209604
 20
528.919544
 30
0.0
  0
POINT
  5
126
100
AcDbEntity
  8
DEFPOINTS
  6
BYBLOCK
 62
     0
100
AcDbPoint
 10
645.149042
 20
528.919544
 30
0.0
  0
POINT
  5
127
100
AcDbEntity
  8
DEFPOINTS
  6
BYBLOCK
 62
     0
100
AcDbPoint
 10
645.149042
 20
528.919544
 30
0.0
  0
ENDBLK
  5
129
100
AcDbEntity
  8
0
100
AcDbBlockEnd
  0
BLOCK
  5
67
100
AcDbEntity
  8
0
100
AcDbBlockBegin
  2
*D12
 70
     1
 10
0.0
 20
0.0
 30
0.0
  3
*D12
  1

  0
LINE
  5
58
100
AcDbEntity
  8
0
  6
BYBLOCK
 62
     1
100
AcDbLine
 10
585.003512
 20
509.173273
 30
0.0
 11
583.05277
 21
490.6132
 31
0.0
  0
LINE
  5
59
100
AcDbEntity
  8
0
  6
BYBLOCK
 62
     1
100
AcDbLine
 10
585.10804
 20
504.836023
 30
0.0
 11
585.10804
 21
490.505488
 31
0.0
  0
ARC
  5
5A
100
AcDbEntity
  8
0
  6
BYBLOCK
 62
     1
100
AcDbCircle
 10
585.10804
 20
510.167795
 30
0.0
 40
17.662307
100
AcDbArc
 50
250.996277
 51
264.0
  0
LINE
  5
5B
100
AcDbEntity
  8
0
  6
BYBLOCK
 62
     1
100
AcDbLine
 10
579.356671
 20
493.468129
 30
0.0
 11
571.225393
 21
496.268544
 31
0.0
  0
ARC
  5
5C
100
AcDbEntity
  8
0
  6
BYBLOCK
 62
     1
100
AcDbCircle
 10
585.10804
 20
510.167795
 30
0.0
 40
17.662307
100
AcDbArc
 50
251.017226
 51
257.508613
  0
ARC
  5
5D
100
AcDbEntity
  8
0
  6
BYBLOCK
 62
     1
100
AcDbCircle
 10
585.10804
 20
510.167795
 30
0.0
 40
17.662307
100
AcDbArc
 50
276.491387
 51
282.982774
  0
ARC
  5
5E
100
AcDbEntity
  8
0
  6
BYBLOCK
 62
     1
100
AcDbCircle
 10
585.10804
 20
510.167795
 30
0.0
 40
17.662307
100
AcDbArc
 50
264.0
 51
270.0
  0
INSERT
  5
5F
100
AcDbEntity
  8
0
  6
BYBLOCK
 62
     1
100
AcDbBlockReference
  2
_OPEN30
 10
583.261827
 20
492.602244
 30
0.0
 41
2.0
 42
2.0
 43
2.0
 50
350.754306
  0
INSERT
  5
60
100
AcDbEntity
  8
0
  6
BYBLOCK
 62
     1
100
AcDbBlockReference
  2
_OPEN30
 10
585.10804
 20
492.505488
 30
0.0
 41
2.0
 42
2.0
 43
2.0
 50
183.245694
  0
MTEXT
  5
61
100
AcDbEntity
  8
0
  6
BYBLOCK
 62
     3
100
AcDbMText
 10
576.105106
 20
497.23208
 30
0.0
 40
3.0
 41
0.0
 71
     5
 72
     1
  1
\A1;6°
 11
0.945497
 21
-0.32563
 31
0.0
  0
POINT
  5
62
100
AcDbEntity
  8
DEFPOINTS
  6
BYBLOCK
 62
     0
100
AcDbPoint
 10
584.491635
 20
492.516247
 30
0.0
  0
POINT
  5
63
100
AcDbEntity
  8
DEFPOINTS
  6
BYBLOCK
 62
     0
100
AcDbPoint
 10
587.053392
 20
528.676576
 30
0.0
  0
POINT
  5
64
100
AcDbEntity
  8
DEFPOINTS
  6
BYBLOCK
 62
     0
100
AcDbPoint
 10
585.10804
 20
532.821229
 30
0.0
  0
POINT
  5
65
100
AcDbEntity
  8
DEFPOINTS
  6
BYBLOCK
 62
     0
100
AcDbPoint
 10
585.10804
 20
505.836023
 30
0.0
  0
POINT
  5
66
100
AcDbEntity
  8
DEFPOINTS
  6
BYBLOCK
 62
     0
100
AcDbPoint
 10
585.10822
 20
510.169503
 30
0.0
  0
ENDBLK
  5
68
100
AcDbEntity
  8
0
100
AcDbBlockEnd
  0
BLOCK
  5
91
100
AcDbEntity
  8
0
100
AcDbBlockBegin
  2
*D13
 70
     1
 10
0.0
 20
0.0
 30
0.0
  3
*D13
  1

  0
LINE
  5
86
100
AcDbEntity
  8
0
  6
BYBLOCK
 62
     1
100
AcDbLine
 10
-285.969235
 20
525.168174
 30
0.0
 11
-285.331187
 21
537.342843
 31
0.0
  0
LINE
  5
87
100
AcDbEntity
  8
0
  6
BYBLOCK
 62
     1
100
AcDbLine
 10
-287.75528
 20
510.169544
 30
0.0
 11
-313.96587
 21
510.169544
 31
0.0
  0
ARC
  5
88
100
AcDbEntity
  8
0
  6
BYBLOCK
 62
     1
100
AcDbCircle
 10
-286.75528
 20
510.169544
 30
0.0
 40
25.21059
100
AcDbArc
 50
91.546567
 51
175.453433
  0
INSERT
  5
89
100
AcDbEntity
  8
0
  6
BYBLOCK
 62
     1
100
AcDbBlockReference
  2
_OPEN30
 10
-285.435859
 20
535.345584
 30
0.0
 41
2.0
 42
2.0
 43
2.0
 50
359.273283
  0
INSERT
  5
8A
100
AcDbEntity
  8
0
  6
BYBLOCK
 62
     1
100
AcDbBlockReference
  2
_OPEN30
 10
-311.96587
 20
510.169544
 30
0.0
 41
2.0
 42
2.0
 43
2.0
 50
267.726717
  0
MTEXT
  5
8B
100
AcDbEntity
  8
0
  6
BYBLOCK
 62
     3
100
AcDbMText
 10
-305.829991
 20
530.270096
 30
0.0
 40
3.0
 41
0.0
 71
     5
 72
     1
  1
\A1;93°
 11
0.725374
 21
0.688355
 31
0.0
  0
POINT
  5
8C
100
AcDbEntity
  8
DEFPOINTS
  6
BYBLOCK
 62
     0
100
AcDbPoint
 10
-298.590935
 20
532.429174
 30
0.0
  0
POINT
  5
8D
100
AcDbEntity
  8
DEFPOINTS
  6
BYBLOCK
 62
     0
100
AcDbPoint
 10
-286.733219
 20
510.590479
 30
0.0
  0
POINT
  5
8E
100
AcDbEntity
  8
DEFPOINTS
  6
BYBLOCK
 62
     0
100
AcDbPoint
 10
-286.333768
 20
510.169544
 30
0.0
  0
POINT
  5
8F
100
AcDbEntity
  8
DEFPOINTS
  6
BYBLOCK
 62
     0
100
AcDbPoint
 10
-286.733768
 20
510.169544
 30
0.0
  0
POINT
  5
90
100
AcDbEntity
  8
DEFPOINTS
  6
BYBLOCK
 62
     0
100
AcDbPoint
 10
-286.021571
 20
524.169544
 30
0.0
  0
ENDBLK
  5
92
100
AcDbEntity
  8
0
100
AcDbBlockEnd
  0
BLOCK
  5
160
100
AcDbEntity
  8
0
100
AcDbBlockBegin
  2
3
 70
     0
 10
0.0
 20
0.0
 30
0.0
  3
3
  1

  0
LINE
  5
2B
100
AcDbEntity
  8
外形
  6
CONTINUOUS
100
AcDbLine
 10
169.835006
 20
74.463842
 30
0.0
 11
213.44338
 21
74.463842
 31
0.0
  0
LINE
  5
2C
100
AcDbEntity
  8
外形
  6
CONTINUOUS
100
AcDbLine
 10
169.835006
 20
78.684131
 30
0.0
 11
213.44338
 21
78.684131
 31
0.0
  0
LINE
  5
2D
100
AcDbEntity
  8
外形
  6
CONTINUOUS
100
AcDbLine
 10
169.835006
 20
84.251895
 30
0.0
 11
213.44338
 21
84.251895
 31
0.0
  0
LINE
  5
2E
100
AcDbEntity
  8
外形
  6
CONTINUOUS
100
AcDbLine
 10
79.447468
 20
20.666676
 30
0.0
 11
213.44338
 21
20.666676
 31
0.0
  0
LINE
  5
2F
100
AcDbEntity
  8
外形
  6
CONTINUOUS
100
AcDbLine
 10
79.447468
 20
28.397547
 30
0.0
 11
213.44338
 21
28.397547
 31
0.0
  0
LINE
  5
30
100
AcDbEntity
  8
外形
  6
CONTINUOUS
100
AcDbLine
 10
79.697468
 20
32.032112
 30
0.0
 11
213.44338
 21
32.032112
 31
0.0
  0
LINE
  5
31
100
AcDbEntity
  8
外形
  6
CONTINUOUS
100
AcDbLine
 10
79.697468
 20
17.032112
 30
0.0
 11
213.44338
 21
17.032112
 31
0.0
  0
DIMENSION
  5
32
100
AcDbEntity
  8
寸法
  6
CONTINUOUS
100
AcDbDimension
  2
*D2
 10
214.44338
 20
49.541046
 30
0.0
 11
134.445424
 21
52.041046
 31
0.0
 12
341.181235
 22
-439.701531
 32
0.0
  3
STANDARD
100
AcDbAlignedDimension
 13
54.447468
 23
70.468013
 33
0.0
 14
214.44338
 24
75.468013
 34
0.0
100
AcDbRotatedDimension
1001
ACAD
1000
DSTYLE
1002
{
1070
    40
1040
1.0
1002
}
  0
LINE
  5
4C
100
AcDbEntity
  8
外形
  6
CONTINUOUS
100
AcDbLine
 10
213.44338
 20
89.468013
 30
0.0
 11
169.835006
 21
89.468013
 31
0.0
  0
LINE
  5
4D
100
AcDbEntity
  8
外形
  6
CENTER
 62
     1
100
AcDbLine
 10
50.617487
 20
24.532112
 30
0.0
 11
221.931374
 21
24.532112
 31
0.0
  0
LINE
  5
4F
100
AcDbEntity
  8
外形
  6
CENTER
 62
     1
100
AcDbLine
 10
54.79281
 20
81.468013
 30
0.0
 11
221.931374
 21
81.468013
 31
0.0
  0
TEXT
  5
50
100
AcDbEntity
  8
外形
  6
CONTINUOUS
 62
     2
100
AcDbText
 10
102.74357
 20
-14.506247
 30
0.0
 40
6.0
  1
S16N-SDUCR07
100
AcDbText
  0
MTEXT
  5
51
102
{ACAD_REACTORS
330
83
102
}
100
AcDbEntity
  8
寸法
  6
CONTINUOUS
 62
     3
100
AcDbMText
 10
20.674086
 20
103.466109
 30
0.0
 40
3.0
 41
0.0
 71
     4
 72
     1
  1
%%c20最小加工径
  0
LINE
  5
52
100
AcDbEntity
  8
外形
  6
CONTINUOUS
100
AcDbLine
 10
150.835006
 20
89.468013
 30
0.0
 11
79.697468
 21
89.468013
 31
0.0
  0
LINE
  5
53
100
AcDbEntity
  8
外形
  6
CONTINUOUS
100
AcDbLine
 10
65.364072
 20
74.463842
 30
0.0
 11
150.835006
 21
74.463842
 31
0.0
  0
LINE
  5
54
100
AcDbEntity
  8
外形
  6
CONTINUOUS
100
AcDbLine
 10
79.447468
 20
84.251895
 30
0.0
 11
150.835006
 21
84.251895
 31
0.0
  0
LINE
  5
55
100
AcDbEntity
  8
外形
  6
CONTINUOUS
100
AcDbLine
 10
79.447468
 20
78.684131
 30
0.0
 11
150.835006
 21
78.684131
 31
0.0
  0
DIMENSION
  5
56
100
AcDbEntity
  8
寸法
  6
CONTINUOUS
100
AcDbDimension
  2
*D12
 10
3.346084
 20
70.467971
 30
0.0
 11
-5.65703
 21
57.530549
 31
0.0
 12
-581.762136
 22
-439.701531
 32
0.0
 70
     2
  3
STANDARD
100
AcDb2LineAngularDimension
 13
3.345904
 23
93.119697
 33
0.0
 14
3.345904
 24
66.134492
 34
0.0
 15
5.291255
 25
88.975044
 35
0.0
 16
2.729499
 26
52.814716
 36
0.0
1001
ACAD
1000
DSTYLE
1002
{
1070
    40
1040
1.0
1002
}
  0
ARC
  5
69
100
AcDbEntity
  8
外形
  6
CONTINUOUS
100
AcDbCircle
 10
62.72428
 20
38.532112
 30
0.0
 40
14.0
100
AcDbArc
 50
279.163045
 51
333.485225
  0
LINE
  5
6A
100
AcDbEntity
  8
外形
  6
CONTINUOUS
100
AcDbLine
 10
79.447468
 20
32.282112
 30
0.0
 11
79.447468
 21
27.849353
 31
0.0
  0
LINE
  5
6B
100
AcDbEntity
  8
外形
  6
CONTINUOUS
100
AcDbLine
 10
79.447468
 20
32.282112
 30
0.0
 11
79.447468
 21
28.209163
 31
0.0
  0
LINE
  5
6C
100
AcDbEntity
  8
外形
  6
CONTINUOUS
100
AcDbLine
 10
79.697468
 20
32.032112
 30
0.0
 11
79.697468
 21
28.397547
 31
0.0
  0
SPLINE
  5
6D
100
AcDbEntity
  8
外形
  6
CONTINUOUS
100
AcDbSpline
210
0.0
220
0.0
230
1.0
 70
     8
 71
     3
 72
     9
 73
     5
 74
     0
 42
0.0000001
 43
0.0000001
 40
0.0
 40
0.0
 40
0.0
 40
0.0
 40
9.051669224583934
 40
15.4118948089891
 40
15.4118948089891
 40
15.4118948089891
 40
15.4118948089891
 10
54.74881254138984
 20
25.49289331700589
 30
0.0
 10
57.66992345903668
 20
25.5888050600563
 30
0.0
 10
62.94428918376832
 20
25.75210993324202
 30
0.0
 10
67.27132687714448
 20
28.67459501679826
 30
0.0
 10
75.25174984009743
 20
32.28211173702135
 30
0.0
  0
LINE
  5
6E
100
AcDbEntity
  8
外形
  6
CONTINUOUS
100
AcDbLine
 10
79.447468
 20
16.782112
 30
0.0
 11
54.853628
 21
16.782112
 31
0.0
  0
LINE
  5
6F
100
AcDbEntity
  8
外形
  6
CONTINUOUS
100
AcDbLine
 10
79.447468
 20
21.21487
 30
0.0
 11
65.364072
 21
21.21487
 31
0.0
  0
LINE
  5
70
100
AcDbEntity
  8
外形
  6
CONTINUOUS
100
AcDbLine
 10
79.447468
 20
16.782112
 30
0.0
 11
57.748813
 21
16.782112
 31
0.0
  0
ARC
  5
71
100
AcDbEntity
  8
外形
  6
CONTINUOUS
100
AcDbCircle
 10
62.364143
 20
21.235561
 30
0.0
 40
3.0
100
AcDbArc
 50
180.0
 51
359.604835
  0
LINE
  5
72
100
AcDbEntity
  8
外形
  6
CONTINUOUS
100
AcDbLine
 10
54.853628
 20
16.782112
 30
0.0
 11
54.572198
 21
22.152112
 31
0.0
  0
LINE
  5
73
100
AcDbEntity
  8
外形
  6
CONTINUOUS
100
AcDbLine
 10
59.364143
 20
22.152112
 30
0.0
 11
59.364143
 21
16.782112
 31
0.0
  0
LINE
  5
74
100
AcDbEntity
  8
外形
  6
CONTINUOUS
100
AcDbLine
 10
65.364072
 20
24.532112
 30
0.0
 11
65.364072
 21
21.21487
 31
0.0
  0
LINE
  5
75
100
AcDbEntity
  8
外形
  6
CONTINUOUS
100
AcDbLine
 10
65.364072
 20
24.532112
 30
0.0
 11
65.364072
 21
21.21487
 31
0.0
  0
LINE
  5
76
100
AcDbEntity
  8
外形
  6
CONTINUOUS
100
AcDbLine
 10
60.937772
 20
24.532112
 30
0.0
 11
60.647723
 21
22.169852
 31
0.0
  0
LINE
  5
77
100
AcDbEntity
  8
外形
  6
CONTINUOUS
100
AcDbLine
 10
54.748813
 20
24.532112
 30
0.0
 11
54.748813
 21
25.492893
 31
0.0
  0
LINE
  5
78
100
AcDbEntity
  8
外形
  6
CONTINUOUS
100
AcDbLine
 10
54.739695
 20
22.152112
 30
0.0
 11
54.447468
 21
24.532112
 31
0.0
  0
ARC
  5
79
100
AcDbEntity
  8
外形
  6
CONTINUOUS
100
AcDbCircle
 10
62.352118
 20
18.174183
 30
0.0
 40
7.035277
100
AcDbArc
 50
64.651591
 51
115.348409
  0
LINE
  5
7A
100
AcDbEntity
  8
外形
  6
CONTINUOUS
100
AcDbLine
 10
54.572198
 20
22.152112
 30
0.0
 11
60.645545
 21
22.152112
 31
0.0
  0
LINE
  5
7B
100
AcDbEntity
  8
外形
  6
CONTINUOUS
100
AcDbLine
 10
60.937772
 20
24.532112
 30
0.0
 11
54.447468
 21
24.532112
 31
0.0
  0
LINE
  5
7C
100
AcDbEntity
  8
外形
  6
CONTINUOUS
100
AcDbLine
 10
79.447468
 20
21.21487
 30
0.0
 11
79.447468
 21
16.782112
 31
0.0
  0
LINE
  5
7D
100
AcDbEntity
  8
外形
  6
CONTINUOUS
100
AcDbLine
 10
79.447468
 20
20.855061
 30
0.0
 11
79.447468
 21
16.782112
 31
0.0
  0
LINE
  5
7E
100
AcDbEntity
  8
外形
  6
CONTINUOUS
100
AcDbLine
 10
79.697468
 20
20.666676
 30
0.0
 11
79.697468
 21
17.032112
 31
0.0
  0
LINE
  5
7F
100
AcDbEntity
  8
外形
  6
CONTINUOUS
100
AcDbLine
 10
79.447468
 20
16.782112
 30
0.0
 11
79.697468
 21
17.032112
 31
0.0
  0
LINE
  5
80
100
AcDbEntity
  8
外形
  6
CONTINUOUS
100
AcDbLine
 10
79.447468
 20
27.849353
 30
0.0
 11
71.772963
 21
27.849353
 31
0.0
  0
LINE
  5
81
100
AcDbEntity
  8
外形
  6
CONTINUOUS
100
AcDbLine
 10
79.447468
 20
32.282112
 30
0.0
 11
79.697468
 21
32.032112
 31
0.0
  0
LINE
  5
82
100
AcDbEntity
  8
外形
  6
CONTINUOUS
100
AcDbLine
 10
79.447468
 20
32.282112
 30
0.0
 11
75.25175
 21
32.282112
 31
0.0
  0
LEADER
  5
83
100
AcDbEntity
  8
寸法
  6
CONTINUOUS
 62
     1
100
AcDbLeader
  3
STANDARD
 73
     0
 74
     0
 75
     1
 40
3.0
 41
26.0
 76
     3
 10
9.593813
 20
88.275934
 30
0.0
 10
17.561138
 20
101.517143
 30
0.0
 10
19.561138
 20
101.517143
 30
0.0
 77
   256
340
51
213
-0.1129475379637483
223
0.5510341987360618
233
0.0
1001
ACAD
1000
DSTYLE
1002
{
1070
   284
1070
    13
1070
   146
1040
0.5
1070
   272
1070
     3
1070
    40
1040
1.0
1070
   287
1070
     0
1002
}
  0
DIMENSION
  5
84
100
AcDbEntity
  8
寸法
  6
CONTINUOUS
100
AcDbDimension
  2
*D13
 10
55.159665
 20
84.468013
 30
0.0
 11
35.351244
 21
90.568565
 31
0.0
 12
341.181235
 22
-439.701531
 32
0.0
 70
     2
  3
STANDARD
100
AcDb2LineAngularDimension
 13
54.847468
 23
70.468013
 33
0.0
 14
54.447468
 24
70.468013
 34
0.0
 15
54.448016
 25
70.888947
 35
0.0
 16
42.590301
 26
92.727643
 36
0.0
1001
ACAD
1000
DSTYLE
1002
{
1070
    40
1040
1.0
1002
}
  0
CIRCLE
  5
93
100
AcDbEntity
  8
外形
  6
CENTER
 62
     1
100
AcDbCircle
 10
3.345904
 20
80.468013
 30
0.0
 40
10.0
  0
LINE
  5
94
100
AcDbEntity
  8
外形
  6
CONTINUOUS
100
AcDbLine
 10
-4.154096
 20
73.853635
 30
0.0
 11
-4.154096
 21
83.342073
 31
0.0
  0
LINE
  5
95
100
AcDbEntity
  8
外形
  6
CONTINUOUS
100
AcDbLine
 10
10.845904
 20
78.684131
 30
0.0
 11
10.845904
 21
83.495844
 31
0.0
  0
LINE
  5
96
100
AcDbEntity
  8
外形
  6
CENTER
 62
     1
100
AcDbLine
 10
3.345904
 20
93.119697
 30
0.0
 11
3.345904
 21
66.134492
 31
0.0
  0
LINE
  5
97
100
AcDbEntity
  8
外形
  6
CENTER
 62
     1
100
AcDbLine
 10
3.365904
 20
93.119697
 30
0.0
 11
3.365904
 21
66.134492
 31
0.0
  0
LINE
  5
98
100
AcDbEntity
  8
外形
  6
CONTINUOUS
100
AcDbLine
 10
5.291255
 20
88.975044
 30
0.0
 11
3.346084
 21
70.467971
 31
0.0
  0
ARC
  5
99
100
AcDbEntity
  8
外形
  6
CONTINUOUS
100
AcDbCircle
 10
3.345904
 20
81.468013
 30
0.0
 40
8.0
100
AcDbArc
 50
272.264872
 51
339.635865
  0
DIMENSION
  5
9A
100
AcDbEntity
  8
参考
  6
CONTINUOUS
100
AcDbDimension
  2
*D9
 10
3.365904
 20
62.474184
 30
0.0
 11
9.115904
 21
64.224184
 31
0.0
 12
-284.695369
 22
-439.701531
 32
0.0
  3
参考寸法
100
AcDbAlignedDimension
 13
3.345904
 23
66.134492
 33
0.0
 14
3.365904
 24
66.134492
 34
0.0
100
AcDbRotatedDimension
1001
ACAD
1000
DSTYLE
1002
{
1070
   140
1040
1.5
1070
    41
1040
1.0
1002
}
  0
DIMENSION
  5
AA
100
AcDbEntity
  8
参考
  6
CONTINUOUS
100
AcDbDimension
  2
*D8
 10
0.556189
 20
66.692809
 30
0.0
 11
-3.984866
 21
68.929733
 31
0.0
 12
-581.761955
 22
-441.701557
 32
0.0
 70
     1
  3
参考寸法
100
AcDbAlignedDimension
 13
3.345904
 23
70.468013
 33
0.0
 14
0.979124
 24
70.716771
 34
0.0
1001
ACAD
1000
DSTYLE
1002
{
1070
   140
1040
1.5
1070
    41
1040
1.0
1002
}
  0
ARC
  5
B8
100
AcDbEntity
  8
外形
  6
CONTINUOUS
100
AcDbCircle
 10
3.345904
 20
80.468013
 30
0.0
 40
10.0
100
AcDbArc
 50
221.409622
 51
270.001054
  0
LINE
  5
B9
100
AcDbEntity
  8
外形
  6
CONTINUOUS
100
AcDbLine
 10
1.723678
 20
77.80073
 30
0.0
 11
1.009668
 21
71.007376
 31
0.0
  0
LINE
  5
BA
100
AcDbEntity
  8
外形
  6
CONTINUOUS
100
AcDbLine
 10
4.121186
 20
77.842579
 30
0.0
 11
1.741549
 21
77.801042
 31
0.0
  0
LINE
  5
BB
100
AcDbEntity
  8
外形
  6
CONTINUOUS
100
AcDbLine
 10
3.346082
 20
70.467972
 30
0.0
 11
1.009668
 21
71.007376
 31
0.0
  0
ARC
  5
BC
100
AcDbEntity
  8
外形
  6
CONTINUOUS
100
AcDbCircle
 10
3.365904
 20
81.468013
 30
0.0
 40
7.75
100
AcDbArc
 50
15.168326
 51
166.006361
  0
LINE
  5
BD
100
AcDbEntity
  8
外形
  6
CENTER
 62
     1
100
AcDbLine
 10
16.099813
 20
81.468013
 30
0.0
 11
-9.106584
 21
81.468013
 31
0.0
  0
LINE
  5
BE
100
AcDbEntity
  8
外形
  6
CONTINUOUS
100
AcDbLine
 10
75.25175
 20
79.463842
 30
0.0
 11
75.25175
 21
83.420575
 31
0.0
  0
ARC
  5
BF
100
AcDbEntity
  8
外形
  6
CONTINUOUS
100
AcDbCircle
 10
61.57428
 20
81.00652
 30
0.0
 40
1.3
100
AcDbArc
 50
315.0
 51
135.0
  0
LINE
  5
C0
100
AcDbEntity
  8
外形
  6
CONTINUOUS
100
AcDbLine
 10
54.448016
 20
70.888947
 30
0.0
 11
55.159665
 21
84.468013
 31
0.0
  0
LINE
  5
C1
100
AcDbEntity
  8
外形
  6
CONTINUOUS
100
AcDbLine
 10
54.810788
 20
77.811055
 30
0.0
 11
60.689125
 21
81.484247
 31
0.0
  0
LINE
  5
C2
100
AcDbEntity
  8
外形
  6
CONTINUOUS
100
AcDbLine
 10
61.300544
 20
81.124093
 30
0.0
 11
60.937772
 21
74.201986
 31
0.0
  0
LINE
  5
C3
100
AcDbEntity
  8
外形
  6
CENTER
 62
     1
100
AcDbLine
 10
57.87428
 20
68.912835
 30
0.0
 11
57.87428
 21
82.568458
 31
0.0
  0
DIMENSION
  5
C4
100
AcDbEntity
  8
寸法
  6
CONTINUOUS
100
AcDbDimension
  2
*D7
 10
49.360567
 20
84.468013
 30
0.0
 11
46.860567
 21
90.468013
 31
0.0
 12
-284.695369
 22
-439.701531
 32
0.0
  3
STANDARD
100
AcDbAlignedDimension
 13
54.79281
 23
81.468013
 33
0.0
 14
55.054849
 24
84.468013
 34
0.0
 50
90.0
100
AcDbRotatedDimension
1001
ACAD
1000
DSTYLE
1002
{
1070
    40
1040
1.0
1002
}
  0
DIMENSION
  5
D3
100
AcDbEntity
  8
寸法
  6
CONTINUOUS
100
AcDbDimension
  2
*D3
 10
49.360567
 20
81.468013
 30
0.0
 11
46.860567
 21
75.968013
 31
0.0
 12
-581.762136
 22
-439.701531
 32
0.0
  3
STANDARD
100
AcDbAlignedDimension
 13
54.447468
 23
70.468013
 33
0.0
 14
54.79281
 24
81.468013
 34
0.0
 50
90.0
100
AcDbRotatedDimension
1001
ACAD
1000
DSTYLE
1002
{
1070
    40
1040
1.0
1002
}
  0
DIMENSION
  5
E0
100
AcDbEntity
  8
参考
  6
CONTINUOUS
100
AcDbDimension
  2
*D5
 10
59.599292
 20
67.599081
 30
0.0
 11
64.349292
 21
69.349081
 31
0.0
 12
-284.695369
 22
-441.701531
 32
0.0
  3
参考寸法
100
AcDbAlignedDimension
 13
56.149268
 23
76.00652
 33
0.0
 14
59.599292
 24
76.00652
 34
0.0
100
AcDbRotatedDimension
1001
ACAD
1000
DSTYLE
1002
{
1070
   140
1040
1.5
1070
    41
1040
1.0
1002
}
  0
DIMENSION
  5
EE
100
AcDbEntity
  8
参考
  6
CONTINUOUS
100
AcDbDimension
  2
*D4
 10
79.447468
 20
62.098315
 30
0.0
 11
66.947468
 21
63.848315
 31
0.0
 12
-535.40107
 22
-439.701531
 32
0.0
  3
参考寸法
100
AcDbAlignedDimension
 13
54.447468
 23
70.468013
 33
0.0
 14
79.447468
 24
74.463842
 34
0.0
100
AcDbRotatedDimension
1001
ACAD
1000
DSTYLE
1002
{
1070
   140
1040
1.5
1070
    41
1040
1.0
1002
}
  0
LINE
  5
FB
100
AcDbEntity
  8
外形
  6
CENTER
 62
     1
100
AcDbLine
 10
51.243547
 20
76.00652
 30
0.0
 11
64.505013
 21
76.00652
 31
0.0
  0
ARC
  5
FC
100
AcDbEntity
  8
外形
  6
CONTINUOUS
100
AcDbCircle
 10
63.12428
 20
72.468013
 30
0.0
 40
3.0
100
AcDbArc
 50
41.703531
 51
136.295837
  0
LINE
  5
FD
100
AcDbEntity
  8
外形
  6
CONTINUOUS
100
AcDbLine
 10
61.177223
 20
78.770986
 30
0.0
 11
62.493519
 21
80.087281
 31
0.0
  0
LINE
  5
FE
100
AcDbEntity
  8
外形
  6
CONTINUOUS
100
AcDbLine
 10
58.962228
 20
76.00652
 30
0.0
 11
58.552789
 21
75.767422
 31
0.0
  0
LINE
  5
FF
100
AcDbEntity
  8
外形
  6
CONTINUOUS
100
AcDbLine
 10
58.552789
 20
76.245618
 30
0.0
 11
58.962228
 21
76.00652
 31
0.0
  0
LINE
  5
100
100
AcDbEntity
  8
外形
  6
CONTINUOUS
100
AcDbLine
 10
58.418254
 20
76.948711
 30
0.0
 11
58.4206
 21
76.474578
 31
0.0
  0
ARC
  5
101
100
AcDbEntity
  8
外形
  6
CONTINUOUS
100
AcDbCircle
 10
57.87428
 20
76.945274
 30
0.0
 40
0.266668
100
AcDbArc
 50
240.283476
 51
299.716524
  0
ARC
  5
102
100
AcDbEntity
  8
外形
  6
CONTINUOUS
100
AcDbCircle
 10
57.061296
 20
76.475897
 30
0.0
 40
0.266668
100
AcDbArc
 50
300.283476
 51
359.716524
  0
LINE
  5
103
100
AcDbEntity
  8
外形
  6
CONTINUOUS
100
AcDbLine
 10
57.330306
 20
76.948711
 30
0.0
 11
57.74209
 21
76.713676
 31
0.0
  0
LINE
  5
104
100
AcDbEntity
  8
外形
  6
CONTINUOUS
100
AcDbLine
 10
57.32796
 20
76.474578
 30
0.0
 11
57.330306
 21
76.948711
 31
0.0
  0
LINE
  5
105
100
AcDbEntity
  8
外形
  6
CONTINUOUS
100
AcDbLine
 10
58.00647
 20
76.713676
 30
0.0
 11
58.418254
 21
76.948711
 31
0.0
  0
LINE
  5
106
100
AcDbEntity
  8
外形
  6
CONTINUOUS
100
AcDbLine
 10
57.195771
 20
75.767422
 30
0.0
 11
56.786332
 21
76.00652
 31
0.0
  0
LINE
  5
107
100
AcDbEntity
  8
外形
  6
CONTINUOUS
100
AcDbLine
 10
58.4206
 20
75.538463
 30
0.0
 11
58.418254
 21
75.06433
 31
0.0
  0
ARC
  5
108
100
AcDbEntity
  8
外形
  6
CONTINUOUS
100
AcDbCircle
 10
57.061296
 20
75.537144
 30
0.0
 40
0.266668
100
AcDbArc
 50
0.283476
 51
59.716524
  0
ARC
  5
109
100
AcDbEntity
  8
外形
  6
CONTINUOUS
100
AcDbCircle
 10
57.87428
 20
75.067767
 30
0.0
 40
0.266668
100
AcDbArc
 50
60.283476
 51
119.716524
  0
LINE
  5
10A
100
AcDbEntity
  8
外形
  6
CONTINUOUS
100
AcDbLine
 10
57.330306
 20
75.06433
 30
0.0
 11
57.32796
 21
75.538463
 31
0.0
  0
LINE
  5
10B
100
AcDbEntity
  8
外形
  6
CONTINUOUS
100
AcDbLine
 10
57.74209
 20
75.299365
 30
0.0
 11
57.330306
 21
75.06433
 31
0.0
  0
LINE
  5
10C
100
AcDbEntity
  8
外形
  6
CONTINUOUS
100
AcDbLine
 10
58.418254
 20
75.06433
 30
0.0
 11
58.00647
 21
75.299365
 31
0.0
  0
LINE
  5
10D
100
AcDbEntity
  8
外形
  6
CONTINUOUS
 62
     1
100
AcDbLine
 10
54.847468
 20
70.468013
 30
0.0
 11
54.447468
 21
70.468013
 31
0.0
  0
LINE
  5
10E
100
AcDbEntity
  8
外形
  6
CONTINUOUS
 62
     1
100
AcDbLine
 10
54.447468
 20
70.868013
 30
0.0
 11
54.447468
 21
70.468013
 31
0.0
  0
ARC
  5
10F
100
AcDbEntity
  8
外形
  6
CONTINUOUS
100
AcDbCircle
 10
54.847468
 20
70.868013
 30
0.0
 40
0.4
100
AcDbArc
 50
177.0
 51
302.0
  0
LINE
  5
110
100
AcDbEntity
  8
外形
  6
CONTINUOUS
100
AcDbLine
 10
56.786332
 20
76.00652
 30
0.0
 11
57.195771
 21
76.245618
 31
0.0
  0
ARC
  5
111
100
AcDbEntity
  8
外形
  6
CONTINUOUS
100
AcDbCircle
 10
58.687264
 20
76.475897
 30
0.0
 40
0.266668
100
AcDbArc
 50
180.283476
 51
239.716524
  0
LINE
  5
112
100
AcDbEntity
  8
外形
  6
CONTINUOUS
100
AcDbLine
 10
55.059436
 20
70.528794
 30
0.0
 11
60.937772
 21
74.201986
 31
0.0
  0
ARC
  5
113
100
AcDbEntity
  8
外形
  6
CONTINUOUS
100
AcDbCircle
 10
58.687264
 20
75.537144
 30
0.0
 40
0.266668
100
AcDbArc
 50
120.283476
 51
179.716524
  0
CIRCLE
  5
114
100
AcDbEntity
  8
外形
  6
CONTINUOUS
100
AcDbCircle
 10
57.87428
 20
76.00652
 30
0.0
 40
1.725012
  0
CIRCLE
  5
115
100
AcDbEntity
  8
外形
  6
CONTINUOUS
100
AcDbCircle
 10
57.87428
 20
76.00652
 30
0.0
 40
3.175
  0
ARC
  5
116
100
AcDbEntity
  8
外形
  6
CONTINUOUS
100
AcDbCircle
 10
70.25175
 20
79.463842
 30
0.0
 40
5.0
100
AcDbArc
 50
270.0
 51
0.0
  0
LINE
  5
117
100
AcDbEntity
  8
外形
  6
CONTINUOUS
100
AcDbLine
 10
79.447468
 20
79.51545
 30
0.0
 11
75.25175
 21
79.51545
 31
0.0
  0
LINE
  5
118
100
AcDbEntity
  8
外形
  6
CONTINUOUS
100
AcDbLine
 10
79.697468
 20
74.463842
 30
0.0
 11
79.697468
 21
78.684131
 31
0.0
  0
LINE
  5
119
100
AcDbEntity
  8
外形
  6
CONTINUOUS
100
AcDbLine
 10
79.447468
 20
74.463842
 30
0.0
 11
79.447468
 21
79.51545
 31
0.0
  0
LINE
  5
11A
100
AcDbEntity
  8
外形
  6
CONTINUOUS
100
AcDbLine
 10
62.966072
 20
88.975044
 30
0.0
 11
70.25175
 21
88.975044
 31
0.0
  0
DIMENSION
  5
11B
100
AcDbEntity
  8
参考
  6
CONTINUOUS
100
AcDbDimension
  2
*D11
 10
63.386906
 20
89.218013
 30
0.0
 11
86.245586
 21
95.342978
 31
0.0
 12
-581.762136
 22
-439.701531
 32
0.0
 70
     2
  3
参考寸法
100
AcDb2LineAngularDimension
 13
79.447468
 23
89.218013
 33
0.0
 14
63.386906
 24
89.218013
 34
0.0
 15
55.159665
 25
84.468013
 35
0.0
 16
84.969014
 26
93.023521
 36
0.0
1001
ACAD
1000
DSTYLE
1002
{
1070
   140
1040
1.5
1070
    41
1040
1.0
1002
}
  0
LINE
  5
12A
100
AcDbEntity
  8
外形
  6
CONTINUOUS
100
AcDbLine
 10
79.447468
 20
89.218013
 30
0.0
 11
63.386906
 21
89.218013
 31
0.0
  0
LINE
  5
12B
100
AcDbEntity
  8
外形
  6
CONTINUOUS
100
AcDbLine
 10
59.421312
 20
80.69203
 30
0.0
 11
60.655041
 21
81.925759
 31
0.0
  0
ARC
  5
12C
100
AcDbEntity
  8
外形
  6
CONTINUOUS
100
AcDbCircle
 10
60.901092
 20
81.145028
 30
0.0
 40
0.4
100
AcDbArc
 50
357.0
 51
122.0
  0
LINE
  5
12D
100
AcDbEntity
  8
外形
  6
CONTINUOUS
100
AcDbLine
 10
55.159665
 20
84.468013
 30
0.0
 11
63.386906
 21
89.218013
 31
0.0
  0
ARC
  5
12E
100
AcDbEntity
  8
外形
  6
CONTINUOUS
100
AcDbCircle
 10
70.25175
 20
83.975044
 30
0.0
 40
5.0
100
AcDbArc
 50
353.633157
 51
90.0
  0
LINE
  5
12F
100
AcDbEntity
  8
外形
  6
CONTINUOUS
100
AcDbLine
 10
79.447468
 20
83.420575
 30
0.0
 11
75.25175
 21
83.420575
 31
0.0
  0
LINE
  5
130
100
AcDbEntity
  8
外形
  6
CONTINUOUS
100
AcDbLine
 10
79.697468
 20
84.251895
 30
0.0
 11
79.697468
 21
89.468013
 31
0.0
  0
LINE
  5
131
100
AcDbEntity
  8
外形
  6
CONTINUOUS
100
AcDbLine
 10
79.447468
 20
83.420575
 30
0.0
 11
79.447468
 21
89.218013
 31
0.0
  0
LINE
  5
132
100
AcDbEntity
  8
外形
  6
CONTINUOUS
100
AcDbLine
 10
79.697468
 20
89.468013
 30
0.0
 11
79.447468
 21
89.218013
 31
0.0
  0
DIMENSION
  5
133
100
AcDbEntity
  8
寸法
  6
CONTINUOUS
100
AcDbDimension
  2
*D10
 10
155.451585
 20
75.131437
 30
0.0
 11
170.712278
 21
94.933236
 31
0.0
 12
-565.870509
 22
-439.701531
 32
0.0
 70
   131
  3
STANDARD
100
AcDbDiametricDimension
 15
165.218428
 25
87.804588
 35
0.0
 40
0.0
1001
ACAD
1000
DSTYLE
1002
{
1070
    40
1040
1.0
1002
}
  0
LINE
  5
13F
100
AcDbEntity
  8
外形
  6
CONTINUOUS
100
AcDbLine
 10
167.835006
 20
84.251895
 30
0.0
 11
167.835006
 21
78.684131
 31
0.0
  0
LINE
  5
140
100
AcDbEntity
  8
外形
  6
CONTINUOUS
100
AcDbLine
 10
152.835006
 20
84.251895
 30
0.0
 11
152.835006
 21
78.684131
 31
0.0
  0
LINE
  5
141
100
AcDbEntity
  8
外形
  6
CENTER
 62
     1
100
AcDbLine
 10
160.335006
 20
91.53701
 30
0.0
 11
160.335006
 21
71.857184
 31
0.0
  0
DIMENSION
  5
142
100
AcDbEntity
  8
寸法
  6
CONTINUOUS
100
AcDbDimension
  2
*D6
 10
167.835006
 20
60.588618
 30
0.0
 11
144.44338
 21
63.088618
 31
0.0
 12
-565.870509
 22
-439.701531
 32
0.0
  3
STANDARD
100
AcDbAlignedDimension
 13
152.835006
 23
78.684131
 33
0.0
 14
167.835006
 24
78.684131
 34
0.0
100
AcDbRotatedDimension
1001
ACAD
1000
DSTYLE
1002
{
1070
    40
1040
1.0
1002
}
  0
ARC
  5
14F
100
AcDbEntity
  8
外形
  6
CONTINUOUS
100
AcDbCircle
 10
160.335006
 20
81.468013
 30
0.0
 40
8.0
100
AcDbArc
 50
298.893261
 51
339.635865
  0
LINE
  5
150
100
AcDbEntity
  8
外形
  6
CONTINUOUS
100
AcDbLine
 10
156.469571
 20
74.463842
 30
0.0
 11
164.200442
 21
74.463842
 31
0.0
  0
ARC
  5
151
100
AcDbEntity
  8
外形
  6
CONTINUOUS
100
AcDbCircle
 10
160.335006
 20
81.468013
 30
0.0
 40
8.0
100
AcDbArc
 50
200.364135
 51
241.106739
  0
ARC
  5
152
100
AcDbEntity
  8
外形
  6
CONTINUOUS
100
AcDbCircle
 10
160.335006
 20
81.468013
 30
0.0
 40
8.0
100
AcDbArc
 50
20.364135
 51
159.635865
  0
LINE
  5
153
100
AcDbEntity
  8
外形
  6
CONTINUOUS
100
AcDbLine
 10
213.44338
 20
32.032112
 30
0.0
 11
213.44338
 21
28.397547
 31
0.0
  0
LINE
  5
154
100
AcDbEntity
  8
外形
  6
CONTINUOUS
100
AcDbLine
 10
214.44338
 20
18.032112
 30
0.0
 11
214.44338
 21
31.032112
 31
0.0
  0
LINE
  5
155
100
AcDbEntity
  8
外形
  6
CONTINUOUS
100
AcDbLine
 10
213.44338
 20
20.666676
 30
0.0
 11
213.44338
 21
17.032112
 31
0.0
  0
LINE
  5
156
100
AcDbEntity
  8
外形
  6
CONTINUOUS
100
AcDbLine
 10
213.44338
 20
17.032112
 30
0.0
 11
214.44338
 21
18.032112
 31
0.0
  0
ARC
  5
157
100
AcDbEntity
  8
外形
  6
CONTINUOUS
100
AcDbCircle
 10
206.439209
 20
24.532112
 30
0.0
 40
8.0
100
AcDbArc
 50
331.106739
 51
28.893261
  0
LINE
  5
158
100
AcDbEntity
  8
外形
  6
CONTINUOUS
100
AcDbLine
 10
213.44338
 20
32.032112
 30
0.0
 11
214.44338
 21
31.032112
 31
0.0
  0
LINE
  5
159
100
AcDbEntity
  8
外形
  6
CENTER
 62
     1
100
AcDbLine
 10
215.67428
 20
68.912835
 30
0.0
 11
215.67428
 21
82.568458
 31
0.0
  0
ARC
  5
15A
100
AcDbEntity
  8
外形
  6
CONTINUOUS
100
AcDbCircle
 10
205.94338
 20
81.468013
 30
0.0
 40
8.0
100
AcDbArc
 50
339.635865
 51
20.364135
  0
LINE
  5
15B
100
AcDbEntity
  8
外形
  6
CONTINUOUS
100
AcDbLine
 10
214.44338
 20
75.468013
 30
0.0
 11
214.44338
 21
88.468013
 31
0.0
  0
LINE
  5
15C
100
AcDbEntity
  8
外形
  6
CONTINUOUS
100
AcDbLine
 10
213.44338
 20
74.468013
 30
0.0
 11
214.44338
 21
75.468013
 31
0.0
  0
LINE
  5
15D
100
AcDbEntity
  8
外形
  6
CONTINUOUS
100
AcDbLine
 10
213.44338
 20
78.684131
 30
0.0
 11
213.44338
 21
74.468013
 31
0.0
  0
LINE
  5
15E
100
AcDbEntity
  8
外形
  6
CONTINUOUS
100
AcDbLine
 10
213.44338
 20
89.468013
 30
0.0
 11
213.44338
 21
84.251895
 31
0.0
  0
LINE
  5
15F
100
AcDbEntity
  8
外形
  6
CONTINUOUS
100
AcDbLine
 10
213.44338
 20
89.468013
 30
0.0
 11
214.44338
 21
88.468013
 31
0.0
  0
ENDBLK
  5
161
100
AcDbEntity
  8
0
100
AcDbBlockEnd
  0
BLOCK
  5
292
100
AcDbEntity
  8
0
100
AcDbBlockBegin
  2
*D15
 70
     1
 10
0.0
 20
0.0
 30
0.0
  3
*D15
  1

  0
LINE
  5
293
100
AcDbEntity
  8
0
  6
BYBLOCK
 62
     1
100
AcDbLine
 10
897.277623
 20
49.562716
 30
0.0
 11
897.277623
 21
27.63575
 31
0.0
  0
LINE
  5
294
100
AcDbEntity
  8
0
  6
BYBLOCK
 62
     1
100
AcDbLine
 10
1057.273535
 20
54.562716
 30
0.0
 11
1057.273535
 21
27.63575
 31
0.0
  0
LINE
  5
295
100
AcDbEntity
  8
0
  6
BYBLOCK
 62
     1
100
AcDbLine
 10
899.277623
 20
29.63575
 30
0.0
 11
1055.273535
 21
29.63575
 31
0.0
  0
INSERT
  5
296
100
AcDbEntity
  8
0
  6
BYBLOCK
 62
     1
100
AcDbBlockReference
  2
_OPEN30
 10
897.277623
 20
29.63575
 30
0.0
 41
2.0
 42
2.0
 43
2.0
 50
180.0
  0
INSERT
  5
297
100
AcDbEntity
  8
0
  6
BYBLOCK
 62
     1
100
AcDbBlockReference
  2
_OPEN30
 10
1057.273535
 20
29.63575
 30
0.0
 41
2.0
 42
2.0
 43
2.0
  0
MTEXT
  5
298
100
AcDbEntity
  8
0
  6
BYBLOCK
 62
     3
100
AcDbMText
 10
977.275579
 20
32.13575
 30
0.0
 40
3.0
 41
0.0
 71
     5
 72
     1
  1
\A1;160
  0
POINT
  5
299
100
AcDbEntity
  8
DEFPOINTS
  6
BYBLOCK
 62
     0
100
AcDbPoint
 10
897.277623
 20
50.562716
 30
0.0
  0
POINT
  5
29A
100
AcDbEntity
  8
DEFPOINTS
  6
BYBLOCK
 62
     0
100
AcDbPoint
 10
1057.273535
 20
55.562716
 30
0.0
  0
POINT
  5
29B
100
AcDbEntity
  8
DEFPOINTS
  6
BYBLOCK
 62
     0
100
AcDbPoint
 10
1057.273535
 20
29.63575
 30
0.0
  0
ENDBLK
  5
29C
100
AcDbEntity
  8
0
100
AcDbBlockEnd
  0
BLOCK
  5
29D
100
AcDbEntity
  8
0
100
AcDbBlockBegin
  2
*D16
 70
     1
 10
0.0
 20
0.0
 30
0.0
  3
*D16
  1

  0
LINE
  5
29E
100
AcDbEntity
  8
0
  6
BYBLOCK
 62
     1
100
AcDbLine
 10
846.071531
 20
49.566444
 30
0.0
 11
844.120788
 21
31.006372
 31
0.0
  0
LINE
  5
29F
100
AcDbEntity
  8
0
  6
BYBLOCK
 62
     1
100
AcDbLine
 10
846.176059
 20
45.229195
 30
0.0
 11
846.176059
 21
30.89866
 31
0.0
  0
ARC
  5
2A0
100
AcDbEntity
  8
0
  6
BYBLOCK
 62
     1
100
AcDbCircle
 10
846.176059
 20
50.560966
 30
0.0
 40
17.662307
100
AcDbArc
 50
250.996277
 51
264.0
  0
LINE
  5
2A1
100
AcDbEntity
  8
0
  6
BYBLOCK
 62
     1
100
AcDbLine
 10
840.424689
 20
33.861301
 30
0.0
 11
832.293412
 21
36.661715
 31
0.0
  0
ARC
  5
2A2
100
AcDbEntity
  8
0
  6
BYBLOCK
 62
     1
100
AcDbCircle
 10
846.176059
 20
50.560966
 30
0.0
 40
17.662307
100
AcDbArc
 50
251.017226
 51
257.508613
  0
ARC
  5
2A3
100
AcDbEntity
  8
0
  6
BYBLOCK
 62
     1
100
AcDbCircle
 10
846.176059
 20
50.560966
 30
0.0
 40
17.662307
100
AcDbArc
 50
276.491387
 51
282.982774
  0
ARC
  5
2A4
100
AcDbEntity
  8
0
  6
BYBLOCK
 62
     1
100
AcDbCircle
 10
846.176059
 20
50.560966
 30
0.0
 40
17.662307
100
AcDbArc
 50
264.0
 51
270.0
  0
INSERT
  5
2A5
100
AcDbEntity
  8
0
  6
BYBLOCK
 62
     1
100
AcDbBlockReference
  2
_OPEN30
 10
844.329845
 20
32.995416
 30
0.0
 41
2.0
 42
2.0
 43
2.0
 50
350.754306
  0
INSERT
  5
2A6
100
AcDbEntity
  8
0
  6
BYBLOCK
 62
     1
100
AcDbBlockReference
  2
_OPEN30
 10
846.176059
 20
32.89866
 30
0.0
 41
2.0
 42
2.0
 43
2.0
 50
183.245694
  0
MTEXT
  5
2A7
100
AcDbEntity
  8
0
  6
BYBLOCK
 62
     3
100
AcDbMText
 10
837.173124
 20
37.625252
 30
0.0
 40
3.0
 41
0.0
 71
     5
 72
     1
  1
\A1;6°
 11
0.945497
 21
-0.32563
 31
0.0
  0
POINT
  5
2A8
100
AcDbEntity
  8
DEFPOINTS
  6
BYBLOCK
 62
     0
100
AcDbPoint
 10
845.559653
 20
32.909419
 30
0.0
  0
POINT
  5
2A9
100
AcDbEntity
  8
DEFPOINTS
  6
BYBLOCK
 62
     0
100
AcDbPoint
 10
848.12141
 20
69.069747
 30
0.0
  0
POINT
  5
2AA
100
AcDbEntity
  8
DEFPOINTS
  6
BYBLOCK
 62
     0
100
AcDbPoint
 10
846.176059
 20
73.2144
 30
0.0
  0
POINT
  5
2AB
100
AcDbEntity
  8
DEFPOINTS
  6
BYBLOCK
 62
     0
100
AcDbPoint
 10
846.176059
 20
46.229195
 30
0.0
  0
POINT
  5
2AC
100
AcDbEntity
  8
DEFPOINTS
  6
BYBLOCK
 62
     0
100
AcDbPoint
 10
846.176239
 20
50.562674
 30
0.0
  0
ENDBLK
  5
2AD
100
AcDbEntity
  8
0
100
AcDbBlockEnd
  0
BLOCK
  5
2AE
100
AcDbEntity
  8
0
100
AcDbBlockBegin
  2
*D17
 70
     1
 10
0.0
 20
0.0
 30
0.0
  3
*D17
  1

  0
LINE
  5
2AF
100
AcDbEntity
  8
0
  6
BYBLOCK
 62
     1
100
AcDbLine
 10
898.042155
 20
65.561345
 30
0.0
 11
898.680203
 21
77.736015
 31
0.0
  0
LINE
  5
2B0
100
AcDbEntity
  8
0
  6
BYBLOCK
 62
     1
100
AcDbLine
 10
896.256111
 20
50.562716
 30
0.0
 11
870.045521
 21
50.562716
 31
0.0
  0
ARC
  5
2B1
100
AcDbEntity
  8
0
  6
BYBLOCK
 62
     1
100
AcDbCircle
 10
897.256111
 20
50.562716
 30
0.0
 40
25.21059
100
AcDbArc
 50
91.546567
 51
175.453433
  0
INSERT
  5
2B2
100
AcDbEntity
  8
0
  6
BYBLOCK
 62
     1
100
AcDbBlockReference
  2
_OPEN30
 10
898.575531
 20
75.738756
 30
0.0
 41
2.0
 42
2.0
 43
2.0
 50
359.273283
  0
INSERT
  5
2B3
100
AcDbEntity
  8
0
  6
BYBLOCK
 62
     1
100
AcDbBlockReference
  2
_OPEN30
 10
872.045521
 20
50.562716
 30
0.0
 41
2.0
 42
2.0
 43
2.0
 50
267.726717
  0
MTEXT
  5
2B4
100
AcDbEntity
  8
0
  6
BYBLOCK
 62
     3
100
AcDbMText
 10
878.181399
 20
70.663268
 30
0.0
 40
3.0
 41
0.0
 71
     5
 72
     1
  1
\A1;93°
 11
0.725374
 21
0.688355
 31
0.0
  0
POINT
  5
2B5
100
AcDbEntity
  8
DEFPOINTS
  6
BYBLOCK
 62
     0
100
AcDbPoint
 10
885.420456
 20
72.822346
 30
0.0
  0
POINT
  5
2B6
100
AcDbEntity
  8
DEFPOINTS
  6
BYBLOCK
 62
     0
100
AcDbPoint
 10
897.278171
 20
50.98365
 30
0.0
  0
POINT
  5
2B7
100
AcDbEntity
  8
DEFPOINTS
  6
BYBLOCK
 62
     0
100
AcDbPoint
 10
897.677623
 20
50.562716
 30
0.0
  0
POINT
  5
2B8
100
AcDbEntity
  8
DEFPOINTS
  6
BYBLOCK
 62
     0
100
AcDbPoint
 10
897.277623
 20
50.562716
 30
0.0
  0
POINT
  5
2B9
100
AcDbEntity
  8
DEFPOINTS
  6
BYBLOCK
 62
     0
100
AcDbPoint
 10
897.98982
 20
64.562716
 30
0.0
  0
ENDBLK
  5
2BA
100
AcDbEntity
  8
0
100
AcDbBlockEnd
  0
BLOCK
  5
2E1
100
AcDbEntity
  8
0
100
AcDbBlockBegin
  2
*D18
 70
     1
 10
0.0
 20
0.0
 30
0.0
  3
*D18
  1

  0
LINE
  5
2E2
100
AcDbEntity
  8
0
  6
BYBLOCK
 62
     1
100
AcDbLine
 10
896.277623
 20
50.562716
 30
0.0
 11
890.190721
 21
50.562716
 31
0.0
  0
LINE
  5
2E3
100
AcDbEntity
  8
0
  6
BYBLOCK
 62
     1
100
AcDbLine
 10
896.622965
 20
61.562716
 30
0.0
 11
890.190721
 21
61.562716
 31
0.0
  0
LINE
  5
2E4
100
AcDbEntity
  8
0
  6
BYBLOCK
 62
     1
100
AcDbLine
 10
892.190721
 20
52.562716
 30
0.0
 11
892.190721
 21
59.562716
 31
0.0
  0
INSERT
  5
2E5
100
AcDbEntity
  8
0
  6
BYBLOCK
 62
     1
100
AcDbBlockReference
  2
_OPEN30
 10
892.190721
 20
50.562716
 30
0.0
 41
2.0
 42
2.0
 43
2.0
 50
270.0
  0
INSERT
  5
2E6
100
AcDbEntity
  8
0
  6
BYBLOCK
 62
     1
100
AcDbBlockReference
  2
_OPEN30
 10
892.190721
 20
61.562716
 30
0.0
 41
2.0
 42
2.0
 43
2.0
 50
90.0
  0
MTEXT
  5
2E7
100
AcDbEntity
  8
0
  6
BYBLOCK
 62
     3
100
AcDbMText
 10
889.690721
 20
56.062716
 30
0.0
 40
3.0
 41
0.0
 71
     5
 72
     1
  1
\A1;11
 11
0.0
 21
1.0
 31
0.0
  0
POINT
  5
2E8
100
AcDbEntity
  8
DEFPOINTS
  6
BYBLOCK
 62
     0
100
AcDbPoint
 10
897.277623
 20
50.562716
 30
0.0
  0
POINT
  5
2E9
100
AcDbEntity
  8
DEFPOINTS
  6
BYBLOCK
 62
     0
100
AcDbPoint
 10
897.622965
 20
61.562716
 30
0.0
  0
POINT
  5
2EA
100
AcDbEntity
  8
DEFPOINTS
  6
BYBLOCK
 62
     0
100
AcDbPoint
 10
892.190721
 20
61.562716
 30
0.0
  0
ENDBLK
  5
2EB
100
AcDbEntity
  8
0
100
AcDbBlockEnd
  0
BLOCK
  5
310
100
AcDbEntity
  8
0
100
AcDbBlockBegin
  2
*D19
 70
     1
 10
0.0
 20
0.0
 30
0.0
  3
*D19
  1

  0
LINE
  5
311
100
AcDbEntity
  8
0
  6
BYBLOCK
 62
     1
100
AcDbLine
 10
1016.594571
 20
78.988299
 30
0.0
 11
1009.269439
 21
69.483435
 31
0.0
  0
LINE
  5
312
100
AcDbEntity
  8
0
  6
BYBLOCK
 62
     1
100
AcDbLine
 10
997.060884
 20
53.641996
 30
0.0
 11
995.840029
 21
52.057852
 31
0.0
  0
MTEXT
  5
313
100
AcDbEntity
  8
0
  6
BYBLOCK
 62
     3
100
AcDbMText
 10
1011.562253
 20
76.554008
 30
0.0
 40
3.0
 41
0.0
 71
     5
 72
     1
  1
\A1;\U+220516
 11
0.610428
 21
0.792072
 31
0.0
  0
LINE
  5
314
100
AcDbEntity
  8
0
  6
BYBLOCK
 62
     1
100
AcDbLine
 10
998.281739
 20
55.22614
 30
0.0
 11
1008.048583
 21
67.899292
 31
0.0
  0
INSERT
  5
315
100
AcDbEntity
  8
0
  6
BYBLOCK
 62
     1
100
AcDbBlockReference
  2
_OPEN30
 10
998.281739
 20
55.22614
 30
0.0
 41
2.0
 42
2.0
 43
2.0
 50
52.379563
  0
INSERT
  5
316
100
AcDbEntity
  8
0
  6
BYBLOCK
 62
     1
100
AcDbBlockReference
  2
_OPEN30
 10
1008.048583
 20
67.899292
 30
0.0
 41
2.0
 42
2.0
 43
2.0
 50
232.379563
  0
POINT
  5
317
100
AcDbEntity
  8
DEFPOINTS
  6
BYBLOCK
 62
     0
100
AcDbPoint
 10
1008.048583
 20
67.899292
 30
0.0
  0
POINT
  5
318
100
AcDbEntity
  8
DEFPOINTS
  6
BYBLOCK
 62
     0
100
AcDbPoint
 10
998.281739
 20
55.22614
 30
0.0
  0
ENDBLK
  5
319
100
AcDbEntity
  8
0
100
AcDbBlockEnd
  0
BLOCK
  5
31A
100
AcDbEntity
  8
0
100
AcDbBlockBegin
  2
*D20
 70
     1
 10
0.0
 20
0.0
 30
0.0
  3
*D20
  1

  0
LINE
  5
31B
100
AcDbEntity
  8
0
  6
BYBLOCK
 62
     1
100
AcDbLine
 10
995.665161
 20
57.778834
 30
0.0
 11
995.665161
 21
38.683321
 31
0.0
  0
LINE
  5
31C
100
AcDbEntity
  8
0
  6
BYBLOCK
 62
     1
100
AcDbLine
 10
1010.665161
 20
57.778834
 30
0.0
 11
1010.665161
 21
38.683321
 31
0.0
  0
LINE
  5
31D
100
AcDbEntity
  8
0
  6
BYBLOCK
 62
     1
100
AcDbLine
 10
997.665161
 20
40.683321
 30
0.0
 11
1008.665161
 21
40.683321
 31
0.0
  0
INSERT
  5
31E
100
AcDbEntity
  8
0
  6
BYBLOCK
 62
     1
100
AcDbBlockReference
  2
_OPEN30
 10
995.665161
 20
40.683321
 30
0.0
 41
2.0
 42
2.0
 43
2.0
 50
180.0
  0
INSERT
  5
31F
100
AcDbEntity
  8
0
  6
BYBLOCK
 62
     1
100
AcDbBlockReference
  2
_OPEN30
 10
1010.665161
 20
40.683321
 30
0.0
 41
2.0
 42
2.0
 43
2.0
  0
MTEXT
  5
320
100
AcDbEntity
  8
0
  6
BYBLOCK
 62
     3
100
AcDbMText
 10
1003.165161
 20
43.183321
 30
0.0
 40
3.0
 41
0.0
 71
     5
 72
     1
  1
\A1;15
  0
POINT
  5
321
100
AcDbEntity
  8
DEFPOINTS
  6
BYBLOCK
 62
     0
100
AcDbPoint
 10
995.665161
 20
58.778834
 30
0.0
  0
POINT
  5
322
100
AcDbEntity
  8
DEFPOINTS
  6
BYBLOCK
 62
     0
100
AcDbPoint
 10
1010.665161
 20
58.778834
 30
0.0
  0
POINT
  5
323
100
AcDbEntity
  8
DEFPOINTS
  6
BYBLOCK
 62
     0
100
AcDbPoint
 10
1010.665161
 20
40.683321
 30
0.0
  0
ENDBLK
  5
324
100
AcDbEntity
  8
0
100
AcDbBlockEnd
  0
BLOCK
  5
34F
100
AcDbEntity
  8
0
100
AcDbBlockBegin
  2
*D21
 70
     1
 10
0.0
 20
0.0
 30
0.0
  3
*D21
  1

  0
LINE
  5
350
100
AcDbEntity
  8
0
  6
BYBLOCK
 62
     1
100
AcDbLine
 10
898.277623
 20
50.562716
 30
0.0
 11
932.719908
 21
50.562716
 31
0.0
  0
LINE
  5
351
100
AcDbEntity
  8
0
  6
BYBLOCK
 62
     1
100
AcDbLine
 10
923.277623
 20
54.558545
 30
0.0
 11
932.719908
 21
54.558545
 31
0.0
  0
LINE
  5
352
100
AcDbEntity
  8
0
  6
BYBLOCK
 62
     1
100
AcDbLine
 10
930.719908
 20
56.558545
 30
0.0
 11
930.719908
 21
58.558545
 31
0.0
  0
LINE
  5
353
100
AcDbEntity
  8
0
  6
BYBLOCK
 62
     1
100
AcDbLine
 10
930.719908
 20
48.562716
 30
0.0
 11
930.719908
 21
38.688943
 31
0.0
  0
LINE
  5
354
100
AcDbEntity
  8
0
  6
BYBLOCK
 62
     1
100
AcDbLine
 10
930.719908
 20
54.558545
 30
0.0
 11
930.719908
 21
50.562716
 31
0.0
  0
INSERT
  5
355
100
AcDbEntity
  8
0
  6
BYBLOCK
 62
     1
100
AcDbBlockReference
  2
_OPEN30
 10
930.719908
 20
54.558545
 30
0.0
 41
2.0
 42
2.0
 43
2.0
 50
270.0
  0
INSERT
  5
356
100
AcDbEntity
  8
0
  6
BYBLOCK
 62
     1
100
AcDbBlockReference
  2
_OPEN30
 10
930.719908
 20
50.562716
 30
0.0
 41
2.0
 42
2.0
 43
2.0
 50
90.0
  0
MTEXT
  5
357
100
AcDbEntity
  8
0
  6
BYBLOCK
 62
     3
100
AcDbMText
 10
928.219908
 20
40.688943
 30
0.0
 40
3.0
 41
0.0
 71
     5
 72
     1
  1
\A1;4
 11
0.0
 21
1.0
 31
0.0
  0
POINT
  5
358
100
AcDbEntity
  8
DEFPOINTS
  6
BYBLOCK
 62
     0
100
AcDbPoint
 10
897.277623
 20
50.562716
 30
0.0
  0
POINT
  5
359
100
AcDbEntity
  8
DEFPOINTS
  6
BYBLOCK
 62
     0
100
AcDbPoint
 10
922.277623
 20
54.558545
 30
0.0
  0
POINT
  5
35A
100
AcDbEntity
  8
DEFPOINTS
  6
BYBLOCK
 62
     0
100
AcDbPoint
 10
930.719908
 20
54.558545
 30
0.0
  0
ENDBLK
  5
35B
100
AcDbEntity
  8
0
100
AcDbBlockEnd
  0
ENDSEC
  0
SECTION
  2
ENTITIES
  0
LINE
  5
16C
100
AcDbEntity
  8
外形
  6
CONTINUOUS
100
AcDbLine
 10
1012.665161
 20
54.558545
 30
0.0
 11
1056.273535
 21
54.558545
 31
0.0
  0
LINE
  5
16D
100
AcDbEntity
  8
外形
  6
CONTINUOUS
100
AcDbLine
 10
1012.665161
 20
58.778834
 30
0.0
 11
1056.273535
 21
58.778834
 31
0.0
  0
LINE
  5
16E
100
AcDbEntity
  8
外形
  6
CONTINUOUS
100
AcDbLine
 10
1012.665161
 20
64.346598
 30
0.0
 11
1056.273535
 21
64.346598
 31
0.0
  0
LINE
  5
16F
100
AcDbEntity
  8
外形
  6
CONTINUOUS
100
AcDbLine
 10
922.277623
 20
0.761379
 30
0.0
 11
1056.273535
 21
0.761379
 31
0.0
  0
LINE
  5
170
100
AcDbEntity
  8
外形
  6
CONTINUOUS
100
AcDbLine
 10
922.277623
 20
8.49225
 30
0.0
 11
1056.273535
 21
8.49225
 31
0.0
  0
LINE
  5
171
100
AcDbEntity
  8
外形
  6
CONTINUOUS
100
AcDbLine
 10
922.527623
 20
12.126815
 30
0.0
 11
1056.273535
 21
12.126815
 31
0.0
  0
LINE
  5
172
100
AcDbEntity
  8
外形
  6
CONTINUOUS
100
AcDbLine
 10
922.527623
 20
-2.873185
 30
0.0
 11
1056.273535
 21
-2.873185
 31
0.0
  0
DIMENSION
  5
173
100
AcDbEntity
  8
寸法
  6
CONTINUOUS
100
AcDbDimension
  2
*D15
 10
1057.273535
 20
29.63575
 30
0.0
 11
977.275579
 21
32.13575
 31
0.0
 70
    32
  3
STANDARD
100
AcDbAlignedDimension
 13
897.277623
 23
50.562716
 33
0.0
 14
1057.273535
 24
55.562716
 34
0.0
100
AcDbRotatedDimension
1001
ACAD
1000
DSTYLE
1002
{
1070
    40
1040
1.0
1002
}
  0
LINE
  5
174
100
AcDbEntity
  8
外形
  6
CONTINUOUS
100
AcDbLine
 10
1056.273535
 20
69.562716
 30
0.0
 11
1012.665161
 21
69.562716
 31
0.0
  0
LINE
  5
175
100
AcDbEntity
  8
外形
  6
CENTER
 62
     1
100
AcDbLine
 10
893.447642
 20
4.626815
 30
0.0
 11
1064.761529
 21
4.626815
 31
0.0
  0
LINE
  5
176
100
AcDbEntity
  8
外形
  6
CENTER
 62
     1
100
AcDbLine
 10
897.622965
 20
61.562716
 30
0.0
 11
1064.761529
 21
61.562716
 31
0.0
  0
TEXT
  5
177
100
AcDbEntity
  8
外形
  6
CONTINUOUS
 62
     2
100
AcDbText
 10
945.573725
 20
-34.411544
 30
0.0
 40
6.0
  1
S16N-SDUCR07
100
AcDbText
  0
MTEXT
  5
178
102
{ACAD_REACTORS
330
198
102
}
100
AcDbEntity
  8
寸法
  6
CONTINUOUS
 62
     3
100
AcDbMText
 10
863.50424
 20
83.560812
 30
0.0
 40
3.0
 41
0.0
 71
     4
 72
     1
  1
%%c20最小加工径
  0
LINE
  5
179
100
AcDbEntity
  8
外形
  6
CONTINUOUS
100
AcDbLine
 10
993.665161
 20
69.562716
 30
0.0
 11
922.527623
 21
69.562716
 31
0.0
  0
LINE
  5
17A
100
AcDbEntity
  8
外形
  6
CONTINUOUS
100
AcDbLine
 10
908.194226
 20
54.558545
 30
0.0
 11
993.665161
 21
54.558545
 31
0.0
  0
LINE
  5
17B
100
AcDbEntity
  8
外形
  6
CONTINUOUS
100
AcDbLine
 10
922.277623
 20
64.346598
 30
0.0
 11
993.665161
 21
64.346598
 31
0.0
  0
LINE
  5
17C
100
AcDbEntity
  8
外形
  6
CONTINUOUS
100
AcDbLine
 10
922.277623
 20
58.778834
 30
0.0
 11
993.665161
 21
58.778834
 31
0.0
  0
DIMENSION
  5
17D
100
AcDbEntity
  8
寸法
  6
CONTINUOUS
100
AcDbDimension
  2
*D16
 10
846.176239
 20
50.562674
 30
0.0
 11
837.173124
 21
37.625252
 31
0.0
 70
    34
  3
STANDARD
100
AcDb2LineAngularDimension
 13
846.176059
 23
73.2144
 33
0.0
 14
846.176059
 24
46.229195
 34
0.0
 15
848.12141
 25
69.069747
 35
0.0
 16
845.559653
 26
32.909419
 36
0.0
1001
ACAD
1000
DSTYLE
1002
{
1070
    40
1040
1.0
1002
}
  0
ARC
  5
17E
100
AcDbEntity
  8
外形
  6
CONTINUOUS
100
AcDbCircle
 10
905.554435
 20
18.626815
 30
0.0
 40
14.0
100
AcDbArc
 50
279.163045
 51
333.485225
  0
LINE
  5
17F
100
AcDbEntity
  8
外形
  6
CONTINUOUS
100
AcDbLine
 10
922.277623
 20
12.376815
 30
0.0
 11
922.277623
 21
7.944056
 31
0.0
  0
LINE
  5
180
100
AcDbEntity
  8
外形
  6
CONTINUOUS
100
AcDbLine
 10
922.277623
 20
12.376815
 30
0.0
 11
922.277623
 21
8.303866
 31
0.0
  0
LINE
  5
181
100
AcDbEntity
  8
外形
  6
CONTINUOUS
100
AcDbLine
 10
922.527623
 20
12.126815
 30
0.0
 11
922.527623
 21
8.49225
 31
0.0
  0
SPLINE
  5
182
100
AcDbEntity
  8
外形
  6
CONTINUOUS
100
AcDbSpline
210
0.0
220
0.0
230
1.0
 70
     8
 71
     3
 72
     9
 73
     5
 74
     0
 42
0.0000001
 43
0.0000001
 40
0.0
 40
0.0
 40
0.0
 40
0.0
 40
9.051669224583934
 40
15.4118948089891
 40
15.4118948089891
 40
15.4118948089891
 40
15.4118948089891
 10
897.5789674067337
 20
5.587596340869652
 30
0.0
 10
900.5000783243806
 20
5.68350808392006
 30
0.0
 10
905.7744440491122
 20
5.846812957105782
 30
0.0
 10
910.1014817424884
 20
8.769298040662022
 30
0.0
 10
918.0819047054413
 20
12.37681476088511
 30
0.0
  0
LINE
  5
183
100
AcDbEntity
  8
外形
  6
CONTINUOUS
100
AcDbLine
 10
922.277623
 20
-3.123185
 30
0.0
 11
897.683783
 21
-3.123185
 31
0.0
  0
LINE
  5
184
100
AcDbEntity
  8
外形
  6
CONTINUOUS
100
AcDbLine
 10
922.277623
 20
1.309573
 30
0.0
 11
908.194226
 21
1.309573
 31
0.0
  0
LINE
  5
185
100
AcDbEntity
  8
外形
  6
CONTINUOUS
100
AcDbLine
 10
922.277623
 20
-3.123185
 30
0.0
 11
900.578967
 21
-3.123185
 31
0.0
  0
ARC
  5
186
100
AcDbEntity
  8
外形
  6
CONTINUOUS
100
AcDbCircle
 10
905.194298
 20
1.330264
 30
0.0
 40
3.0
100
AcDbArc
 50
180.0
 51
359.604835
  0
LINE
  5
187
100
AcDbEntity
  8
外形
  6
CONTINUOUS
100
AcDbLine
 10
897.683783
 20
-3.123185
 30
0.0
 11
897.402353
 21
2.246815
 31
0.0
  0
LINE
  5
188
100
AcDbEntity
  8
外形
  6
CONTINUOUS
100
AcDbLine
 10
902.194298
 20
2.246815
 30
0.0
 11
902.194298
 21
-3.123185
 31
0.0
  0
LINE
  5
189
100
AcDbEntity
  8
外形
  6
CONTINUOUS
100
AcDbLine
 10
908.194226
 20
4.626815
 30
0.0
 11
908.194226
 21
1.309573
 31
0.0
  0
LINE
  5
18A
100
AcDbEntity
  8
外形
  6
CONTINUOUS
100
AcDbLine
 10
908.194226
 20
4.626815
 30
0.0
 11
908.194226
 21
1.309573
 31
0.0
  0
LINE
  5
18B
100
AcDbEntity
  8
外形
  6
CONTINUOUS
100
AcDbLine
 10
903.767927
 20
4.626815
 30
0.0
 11
903.477878
 21
2.264555
 31
0.0
  0
LINE
  5
18C
100
AcDbEntity
  8
外形
  6
CONTINUOUS
100
AcDbLine
 10
897.578967
 20
4.626815
 30
0.0
 11
897.578967
 21
5.587596
 31
0.0
  0
LINE
  5
18D
100
AcDbEntity
  8
外形
  6
CONTINUOUS
100
AcDbLine
 10
897.56985
 20
2.246815
 30
0.0
 11
897.277623
 21
4.626815
 31
0.0
  0
ARC
  5
18E
100
AcDbEntity
  8
外形
  6
CONTINUOUS
100
AcDbCircle
 10
905.182273
 20
-1.731114
 30
0.0
 40
7.035277
100
AcDbArc
 50
64.651591
 51
115.348409
  0
LINE
  5
18F
100
AcDbEntity
  8
外形
  6
CONTINUOUS
100
AcDbLine
 10
897.402353
 20
2.246815
 30
0.0
 11
903.475699
 21
2.246815
 31
0.0
  0
LINE
  5
190
100
AcDbEntity
  8
外形
  6
CONTINUOUS
100
AcDbLine
 10
903.767927
 20
4.626815
 30
0.0
 11
897.277623
 21
4.626815
 31
0.0
  0
LINE
  5
191
100
AcDbEntity
  8
外形
  6
CONTINUOUS
100
AcDbLine
 10
922.277623
 20
1.309573
 30
0.0
 11
922.277623
 21
-3.123185
 31
0.0
  0
LINE
  5
192
100
AcDbEntity
  8
外形
  6
CONTINUOUS
100
AcDbLine
 10
922.277623
 20
0.949764
 30
0.0
 11
922.277623
 21
-3.123185
 31
0.0
  0
LINE
  5
193
100
AcDbEntity
  8
外形
  6
CONTINUOUS
100
AcDbLine
 10
922.527623
 20
0.761379
 30
0.0
 11
922.527623
 21
-2.873185
 31
0.0
  0
LINE
  5
194
100
AcDbEntity
  8
外形
  6
CONTINUOUS
100
AcDbLine
 10
922.277623
 20
-3.123185
 30
0.0
 11
922.527623
 21
-2.873185
 31
0.0
  0
LINE
  5
195
100
AcDbEntity
  8
外形
  6
CONTINUOUS
100
AcDbLine
 10
922.277623
 20
7.944056
 30
0.0
 11
914.603118
 21
7.944056
 31
0.0
  0
LINE
  5
196
100
AcDbEntity
  8
外形
  6
CONTINUOUS
100
AcDbLine
 10
922.277623
 20
12.376815
 30
0.0
 11
922.527623
 21
12.126815
 31
0.0
  0
LINE
  5
197
100
AcDbEntity
  8
外形
  6
CONTINUOUS
100
AcDbLine
 10
922.277623
 20
12.376815
 30
0.0
 11
918.081905
 21
12.376815
 31
0.0
  0
LEADER
  5
198
100
AcDbEntity
  8
寸法
  6
CONTINUOUS
 62
     1
100
AcDbLeader
  3
STANDARD
 73
     0
 74
     0
 75
     1
 40
3.0
 41
26.0
 76
     3
 10
852.423968
 20
68.370637
 30
0.0
 10
860.391293
 20
81.611846
 30
0.0
 10
862.391293
 20
81.611846
 30
0.0
 77
   256
340
178
213
-0.1129475379637483
223
0.5510341987360618
233
0.0
1001
ACAD
1000
DSTYLE
1002
{
1070
   284
1070
    13
1070
   146
1040
0.5
1070
   272
1070
     3
1070
    40
1040
1.0
1070
   287
1070
     0
1002
}
  0
DIMENSION
  5
199
100
AcDbEntity
  8
寸法
  6
CONTINUOUS
100
AcDbDimension
  2
*D17
 10
897.98982
 20
64.562716
 30
0.0
 11
878.181399
 21
70.663268
 31
0.0
 70
    34
  3
STANDARD
100
AcDb2LineAngularDimension
 13
897.677623
 23
50.562716
 33
0.0
 14
897.277623
 24
50.562716
 34
0.0
 15
897.278171
 25
50.98365
 35
0.0
 16
885.420456
 26
72.822346
 36
0.0
1001
ACAD
1000
DSTYLE
1002
{
1070
    40
1040
1.0
1002
}
  0
CIRCLE
  5
19A
100
AcDbEntity
  8
外形
  6
CENTER
 62
     1
100
AcDbCircle
 10
846.176059
 20
60.562716
 30
0.0
 40
10.0
  0
LINE
  5
19B
100
AcDbEntity
  8
外形
  6
CONTINUOUS
100
AcDbLine
 10
838.676059
 20
53.905501
 30
0.0
 11
838.676059
 21
63.436776
 31
0.0
  0
LINE
  5
19C
100
AcDbEntity
  8
外形
  6
CONTINUOUS
100
AcDbLine
 10
853.676059
 20
58.778834
 30
0.0
 11
853.676059
 21
63.590547
 31
0.0
  0
LINE
  5
19D
100
AcDbEntity
  8
外形
  6
CENTER
 62
     1
100
AcDbLine
 10
846.176059
 20
73.2144
 30
0.0
 11
846.176059
 21
46.229195
 31
0.0
  0
LINE
  5
19E
100
AcDbEntity
  8
外形
  6
CENTER
 62
     1
100
AcDbLine
 10
846.196059
 20
73.2144
 30
0.0
 11
846.196059
 21
46.229195
 31
0.0
  0
LINE
  5
19F
100
AcDbEntity
  8
外形
  6
CONTINUOUS
100
AcDbLine
 10
848.12141
 20
69.069747
 30
0.0
 11
846.176239
 21
50.562674
 31
0.0
  0
ARC
  5
1A0
100
AcDbEntity
  8
外形
  6
CONTINUOUS
100
AcDbCircle
 10
846.176059
 20
61.562716
 30
0.0
 40
8.0
100
AcDbArc
 50
272.264872
 51
339.635865
  0
LINE
  5
1A4
100
AcDbEntity
  8
外形
  6
CONTINUOUS
100
AcDbLine
 10
844.553833
 20
57.895433
 30
0.0
 11
843.839823
 21
51.102079
 31
0.0
  0
LINE
  5
1A5
100
AcDbEntity
  8
外形
  6
CONTINUOUS
100
AcDbLine
 10
846.951341
 20
57.937282
 30
0.0
 11
844.571704
 21
57.895745
 31
0.0
  0
LINE
  5
1A6
100
AcDbEntity
  8
外形
  6
CONTINUOUS
100
AcDbLine
 10
846.176237
 20
50.562675
 30
0.0
 11
843.839823
 21
51.102079
 31
0.0
  0
ARC
  5
1A7
100
AcDbEntity
  8
外形
  6
CONTINUOUS
100
AcDbCircle
 10
846.196059
 20
61.562716
 30
0.0
 40
7.75
100
AcDbArc
 50
15.168326
 51
166.006361
  0
LINE
  5
1A8
100
AcDbEntity
  8
外形
  6
CENTER
 62
     1
100
AcDbLine
 10
858.929968
 20
61.562716
 30
0.0
 11
833.723571
 21
61.562716
 31
0.0
  0
LINE
  5
1A9
100
AcDbEntity
  8
外形
  6
CONTINUOUS
100
AcDbLine
 10
918.081905
 20
59.558545
 30
0.0
 11
918.081905
 21
63.515278
 31
0.0
  0
ARC
  5
1AA
100
AcDbEntity
  8
外形
  6
CONTINUOUS
100
AcDbCircle
 10
904.404435
 20
61.101223
 30
0.0
 40
1.3
100
AcDbArc
 50
315.0
 51
135.0
  0
LINE
  5
1AB
100
AcDbEntity
  8
外形
  6
CONTINUOUS
100
AcDbLine
 10
897.278171
 20
50.98365
 30
0.0
 11
898.04194
 21
65.557234
 31
0.0
  0
LINE
  5
1AC
100
AcDbEntity
  8
外形
  6
CONTINUOUS
100
AcDbLine
 10
897.640943
 20
57.905758
 30
0.0
 11
903.519279
 21
61.57895
 31
0.0
  0
LINE
  5
1AD
100
AcDbEntity
  8
外形
  6
CONTINUOUS
100
AcDbLine
 10
904.130699
 20
61.218796
 30
0.0
 11
903.767927
 21
54.296689
 31
0.0
  0
LINE
  5
1AE
100
AcDbEntity
  8
外形
  6
CENTER
 62
     1
100
AcDbLine
 10
900.704435
 20
49.007538
 30
0.0
 11
900.704435
 21
62.663162
 31
0.0
  0
DIMENSION
  5
1B0
100
AcDbEntity
  8
寸法
  6
CONTINUOUS
100
AcDbDimension
  2
*D18
 10
892.190721
 20
61.562716
 30
0.0
 11
889.690721
 21
56.062716
 31
0.0
 70
    32
  3
STANDARD
100
AcDbAlignedDimension
 13
897.277623
 23
50.562716
 33
0.0
 14
897.622965
 24
61.562716
 34
0.0
 50
90.0
100
AcDbRotatedDimension
1001
ACAD
1000
DSTYLE
1002
{
1070
    40
1040
1.0
1002
}
  0
LINE
  5
1B3
100
AcDbEntity
  8
外形
  6
CENTER
 62
     1
100
AcDbLine
 10
894.073702
 20
56.101223
 30
0.0
 11
907.335168
 21
56.101223
 31
0.0
  0
ARC
  5
1B4
100
AcDbEntity
  8
外形
  6
CONTINUOUS
100
AcDbCircle
 10
905.954435
 20
52.562716
 30
0.0
 40
3.0
100
AcDbArc
 50
41.703531
 51
136.295837
  0
LINE
  5
1B5
100
AcDbEntity
  8
外形
  6
CONTINUOUS
100
AcDbLine
 10
904.007378
 20
58.865689
 30
0.0
 11
905.323674
 21
60.181985
 31
0.0
  0
LINE
  5
1B6
100
AcDbEntity
  8
外形
  6
CONTINUOUS
100
AcDbLine
 10
901.792383
 20
56.101223
 30
0.0
 11
901.382944
 21
55.862125
 31
0.0
  0
LINE
  5
1B7
100
AcDbEntity
  8
外形
  6
CONTINUOUS
100
AcDbLine
 10
901.382944
 20
56.340321
 30
0.0
 11
901.792383
 21
56.101223
 31
0.0
  0
LINE
  5
1B8
100
AcDbEntity
  8
外形
  6
CONTINUOUS
100
AcDbLine
 10
901.248409
 20
57.043414
 30
0.0
 11
901.250755
 21
56.569281
 31
0.0
  0
ARC
  5
1B9
100
AcDbEntity
  8
外形
  6
CONTINUOUS
100
AcDbCircle
 10
900.704435
 20
57.039977
 30
0.0
 40
0.266668
100
AcDbArc
 50
240.283476
 51
299.716524
  0
ARC
  5
1BA
100
AcDbEntity
  8
外形
  6
CONTINUOUS
100
AcDbCircle
 10
899.891451
 20
56.5706
 30
0.0
 40
0.266668
100
AcDbArc
 50
300.283476
 51
359.716524
  0
LINE
  5
1BB
100
AcDbEntity
  8
外形
  6
CONTINUOUS
100
AcDbLine
 10
900.160461
 20
57.043414
 30
0.0
 11
900.572245
 21
56.808379
 31
0.0
  0
LINE
  5
1BC
100
AcDbEntity
  8
外形
  6
CONTINUOUS
100
AcDbLine
 10
900.158115
 20
56.569281
 30
0.0
 11
900.160461
 21
57.043414
 31
0.0
  0
LINE
  5
1BD
100
AcDbEntity
  8
外形
  6
CONTINUOUS
100
AcDbLine
 10
900.836625
 20
56.808379
 30
0.0
 11
901.248409
 21
57.043414
 31
0.0
  0
LINE
  5
1BE
100
AcDbEntity
  8
外形
  6
CONTINUOUS
100
AcDbLine
 10
900.025925
 20
55.862125
 30
0.0
 11
899.616487
 21
56.101223
 31
0.0
  0
LINE
  5
1BF
100
AcDbEntity
  8
外形
  6
CONTINUOUS
100
AcDbLine
 10
901.250755
 20
55.633166
 30
0.0
 11
901.248409
 21
55.159033
 31
0.0
  0
ARC
  5
1C0
100
AcDbEntity
  8
外形
  6
CONTINUOUS
100
AcDbCircle
 10
899.891451
 20
55.631847
 30
0.0
 40
0.266668
100
AcDbArc
 50
0.283476
 51
59.716524
  0
ARC
  5
1C1
100
AcDbEntity
  8
外形
  6
CONTINUOUS
100
AcDbCircle
 10
900.704435
 20
55.16247
 30
0.0
 40
0.266668
100
AcDbArc
 50
60.283476
 51
119.716524
  0
LINE
  5
1C2
100
AcDbEntity
  8
外形
  6
CONTINUOUS
100
AcDbLine
 10
900.160461
 20
55.159033
 30
0.0
 11
900.158115
 21
55.633166
 31
0.0
  0
LINE
  5
1C3
100
AcDbEntity
  8
外形
  6
CONTINUOUS
100
AcDbLine
 10
900.572245
 20
55.394068
 30
0.0
 11
900.160461
 21
55.159033
 31
0.0
  0
LINE
  5
1C4
100
AcDbEntity
  8
外形
  6
CONTINUOUS
100
AcDbLine
 10
901.248409
 20
55.159033
 30
0.0
 11
900.836625
 21
55.394068
 31
0.0
  0
LINE
  5
1C5
100
AcDbEntity
  8
外形
  6
CONTINUOUS
 62
     1
100
AcDbLine
 10
897.677623
 20
50.562716
 30
0.0
 11
897.277623
 21
50.562716
 31
0.0
  0
LINE
  5
1C6
100
AcDbEntity
  8
外形
  6
CONTINUOUS
 62
     1
100
AcDbLine
 10
897.277623
 20
50.962716
 30
0.0
 11
897.277623
 21
50.562716
 31
0.0
  0
ARC
  5
1C7
100
AcDbEntity
  8
外形
  6
CONTINUOUS
100
AcDbCircle
 10
897.677623
 20
50.962716
 30
0.0
 40
0.4
100
AcDbArc
 50
177.0
 51
302.0
  0
LINE
  5
1C8
100
AcDbEntity
  8
外形
  6
CONTINUOUS
100
AcDbLine
 10
899.616487
 20
56.101223
 30
0.0
 11
900.025925
 21
56.340321
 31
0.0
  0
ARC
  5
1C9
100
AcDbEntity
  8
外形
  6
CONTINUOUS
100
AcDbCircle
 10
901.517419
 20
56.5706
 30
0.0
 40
0.266668
100
AcDbArc
 50
180.283476
 51
239.716524
  0
LINE
  5
1CA
100
AcDbEntity
  8
外形
  6
CONTINUOUS
100
AcDbLine
 10
897.88959
 20
50.623497
 30
0.0
 11
903.767927
 21
54.296689
 31
0.0
  0
ARC
  5
1CB
100
AcDbEntity
  8
外形
  6
CONTINUOUS
100
AcDbCircle
 10
901.517419
 20
55.631847
 30
0.0
 40
0.266668
100
AcDbArc
 50
120.283476
 51
179.716524
  0
CIRCLE
  5
1CC
100
AcDbEntity
  8
外形
  6
CONTINUOUS
100
AcDbCircle
 10
900.704435
 20
56.101223
 30
0.0
 40
1.725012
  0
ARC
  5
1CE
100
AcDbEntity
  8
外形
  6
CONTINUOUS
100
AcDbCircle
 10
913.081905
 20
59.558545
 30
0.0
 40
5.0
100
AcDbArc
 50
270.0
 51
0.0
  0
LINE
  5
1CF
100
AcDbEntity
  8
外形
  6
CONTINUOUS
100
AcDbLine
 10
922.277623
 20
59.610153
 30
0.0
 11
918.081905
 21
59.610153
 31
0.0
  0
LINE
  5
1D0
100
AcDbEntity
  8
外形
  6
CONTINUOUS
100
AcDbLine
 10
922.527623
 20
54.558545
 30
0.0
 11
922.527623
 21
58.778834
 31
0.0
  0
LINE
  5
1D1
100
AcDbEntity
  8
外形
  6
CONTINUOUS
100
AcDbLine
 10
922.277623
 20
54.558545
 30
0.0
 11
922.277623
 21
59.610153
 31
0.0
  0
LINE
  5
1D2
100
AcDbEntity
  8
外形
  6
CONTINUOUS
100
AcDbLine
 10
904.125792
 20
69.069747
 30
0.0
 11
913.081905
 21
69.069747
 31
0.0
  0
LINE
  5
1D4
100
AcDbEntity
  8
外形
  6
CONTINUOUS
100
AcDbLine
 10
922.277623
 20
69.312716
 30
0.0
 11
904.546625
 21
69.312716
 31
0.0
  0
LINE
  5
1D5
100
AcDbEntity
  8
外形
  6
CONTINUOUS
100
AcDbLine
 10
902.251467
 20
60.786733
 30
0.0
 11
903.485196
 21
62.020462
 31
0.0
  0
ARC
  5
1D6
100
AcDbEntity
  8
外形
  6
CONTINUOUS
100
AcDbCircle
 10
903.731247
 20
61.239731
 30
0.0
 40
0.4
100
AcDbArc
 50
357.0
 51
122.0
  0
LINE
  5
1D7
100
AcDbEntity
  8
外形
  6
CONTINUOUS
100
AcDbLine
 10
898.04194
 20
65.557234
 30
0.0
 11
904.546625
 21
69.312716
 31
0.0
  0
ARC
  5
1D8
100
AcDbEntity
  8
外形
  6
CONTINUOUS
100
AcDbCircle
 10
913.081905
 20
64.069747
 30
0.0
 40
5.0
100
AcDbArc
 50
353.633157
 51
90.0
  0
LINE
  5
1D9
100
AcDbEntity
  8
外形
  6
CONTINUOUS
100
AcDbLine
 10
922.277623
 20
63.515278
 30
0.0
 11
918.081905
 21
63.515278
 31
0.0
  0
LINE
  5
1DA
100
AcDbEntity
  8
外形
  6
CONTINUOUS
100
AcDbLine
 10
922.527623
 20
64.346598
 30
0.0
 11
922.527623
 21
69.562716
 31
0.0
  0
LINE
  5
1DB
100
AcDbEntity
  8
外形
  6
CONTINUOUS
100
AcDbLine
 10
922.277623
 20
63.515278
 30
0.0
 11
922.277623
 21
69.312716
 31
0.0
  0
LINE
  5
1DC
100
AcDbEntity
  8
外形
  6
CONTINUOUS
100
AcDbLine
 10
922.527623
 20
69.562716
 30
0.0
 11
922.277623
 21
69.312716
 31
0.0
  0
DIMENSION
  5
1DD
100
AcDbEntity
  8
寸法
  6
CONTINUOUS
100
AcDbDimension
  2
*D19
 10
998.281739
 20
55.22614
 30
0.0
 11
1013.542433
 21
75.027939
 31
0.0
 70
   163
  3
STANDARD
100
AcDbDiametricDimension
 15
1008.048583
 25
67.899292
 35
0.0
 40
0.0
1001
ACAD
1000
DSTYLE
1002
{
1070
    40
1040
1.0
1002
}
  0
LINE
  5
1DE
100
AcDbEntity
  8
外形
  6
CONTINUOUS
100
AcDbLine
 10
1010.665161
 20
64.346598
 30
0.0
 11
1010.665161
 21
58.778834
 31
0.0
  0
LINE
  5
1DF
100
AcDbEntity
  8
外形
  6
CONTINUOUS
100
AcDbLine
 10
995.665161
 20
64.346598
 30
0.0
 11
995.665161
 21
58.778834
 31
0.0
  0
LINE
  5
1E0
100
AcDbEntity
  8
外形
  6
CENTER
 62
     1
100
AcDbLine
 10
1003.165161
 20
71.631713
 30
0.0
 11
1003.165161
 21
51.951887
 31
0.0
  0
DIMENSION
  5
1E1
100
AcDbEntity
  8
寸法
  6
CONTINUOUS
100
AcDbDimension
  2
*D20
 10
1010.665161
 20
40.683321
 30
0.0
 11
1003.165161
 21
43.183321
 31
0.0
 70
    32
  3
STANDARD
100
AcDbAlignedDimension
 13
995.665161
 23
58.778834
 33
0.0
 14
1010.665161
 24
58.778834
 34
0.0
100
AcDbRotatedDimension
1001
ACAD
1000
DSTYLE
1002
{
1070
    40
1040
1.0
1002
}
  0
ARC
  5
1E2
100
AcDbEntity
  8
外形
  6
CONTINUOUS
100
AcDbCircle
 10
1003.165161
 20
61.562716
 30
0.0
 40
8.0
100
AcDbArc
 50
298.893261
 51
339.635865
  0
LINE
  5
1E3
100
AcDbEntity
  8
外形
  6
CONTINUOUS
100
AcDbLine
 10
999.299726
 20
54.558545
 30
0.0
 11
1007.030597
 21
54.558545
 31
0.0
  0
ARC
  5
1E4
100
AcDbEntity
  8
外形
  6
CONTINUOUS
100
AcDbCircle
 10
1003.165161
 20
61.562716
 30
0.0
 40
8.0
100
AcDbArc
 50
200.364135
 51
241.106739
  0
ARC
  5
1E5
100
AcDbEntity
  8
外形
  6
CONTINUOUS
100
AcDbCircle
 10
1003.165161
 20
61.562716
 30
0.0
 40
8.0
100
AcDbArc
 50
20.364135
 51
159.635865
  0
LINE
  5
1E6
100
AcDbEntity
  8
外形
  6
CONTINUOUS
100
AcDbLine
 10
1056.273535
 20
12.126815
 30
0.0
 11
1056.273535
 21
8.49225
 31
0.0
  0
LINE
  5
1E7
100
AcDbEntity
  8
外形
  6
CONTINUOUS
100
AcDbLine
 10
1057.273535
 20
-1.873185
 30
0.0
 11
1057.273535
 21
11.126815
 31
0.0
  0
LINE
  5
1E8
100
AcDbEntity
  8
外形
  6
CONTINUOUS
100
AcDbLine
 10
1056.273535
 20
0.761379
 30
0.0
 11
1056.273535
 21
-2.873185
 31
0.0
  0
LINE
  5
1E9
100
AcDbEntity
  8
外形
  6
CONTINUOUS
100
AcDbLine
 10
1056.273535
 20
-2.873185
 30
0.0
 11
1057.273535
 21
-1.873185
 31
0.0
  0
ARC
  5
1EA
100
AcDbEntity
  8
外形
  6
CONTINUOUS
100
AcDbCircle
 10
1049.269364
 20
4.626815
 30
0.0
 40
8.0
100
AcDbArc
 50
331.106739
 51
28.893261
  0
LINE
  5
1EB
100
AcDbEntity
  8
外形
  6
CONTINUOUS
100
AcDbLine
 10
1056.273535
 20
12.126815
 30
0.0
 11
1057.273535
 21
11.126815
 31
0.0
  0
ARC
  5
1ED
100
AcDbEntity
  8
外形
  6
CONTINUOUS
100
AcDbCircle
 10
1048.773535
 20
61.562716
 30
0.0
 40
8.0
100
AcDbArc
 50
339.635865
 51
20.364135
  0
LINE
  5
1EE
100
AcDbEntity
  8
外形
  6
CONTINUOUS
100
AcDbLine
 10
1057.273535
 20
55.562716
 30
0.0
 11
1057.273535
 21
68.562716
 31
0.0
  0
LINE
  5
1EF
100
AcDbEntity
  8
外形
  6
CONTINUOUS
100
AcDbLine
 10
1056.273535
 20
54.562716
 30
0.0
 11
1057.273535
 21
55.562716
 31
0.0
  0
LINE
  5
1F0
100
AcDbEntity
  8
外形
  6
CONTINUOUS
100
AcDbLine
 10
1056.273535
 20
58.778834
 30
0.0
 11
1056.273535
 21
54.562716
 31
0.0
  0
LINE
  5
1F1
100
AcDbEntity
  8
外形
  6
CONTINUOUS
100
AcDbLine
 10
1056.273535
 20
69.562716
 30
0.0
 11
1056.273535
 21
64.346598
 31
0.0
  0
LINE
  5
1F2
100
AcDbEntity
  8
外形
  6
CONTINUOUS
100
AcDbLine
 10
1056.273535
 20
69.562716
 30
0.0
 11
1057.273535
 21
68.562716
 31
0.0
  0
ARC
  5
333
100
AcDbEntity
  8
外形
  6
CONTINUOUS
100
AcDbCircle
 10
846.176059
 20
61.562716
 30
0.0
 40
10.718346
100
AcDbArc
 50
225.594265
 51
257.410397
  0
DIMENSION
  5
341
100
AcDbEntity
  8
寸法
  6
CONTINUOUS
100
AcDbDimension
  2
*D21
 10
930.719908
 20
54.558545
 30
0.0
 11
930.719908
 21
40.688943
 31
0.0
 70
   160
  3
STANDARD
100
AcDbAlignedDimension
 13
897.277623
 23
50.562716
 33
0.0
 14
922.277623
 24
54.558545
 34
0.0
 50
90.0
100
AcDbRotatedDimension
1001
ACAD
1000
DSTYLE
1002
{
1070
    40
1040
1.0
1002
}
  0
ENDSEC
  0
SECTION
  2
OBJECTS
  0
DICTIONARY
  5
1E
100
AcDbDictionary
  3
ACAD_GROUP
350
1C
  3
ACAD_MLINESTYLE
350
1D
  0
DICTIONARY
  5
46
100
AcDbDictionary
280
     1
  3
ACAD_XREC_ROUNDTRIP
360
47
  0
DICTIONARY
  5
35
100
AcDbDictionary
280
     1
  3
ACAD_XREC_ROUNDTRIP
360
36
  0
DICTIONARY
  5
3
100
AcDbDictionary
280
     1
  3
ACAD_LAYOUTSELFREF
360
4
  0
DICTIONARY
  5
A
100
AcDbDictionary
280
     1
  3
ACAD_LAYOUTSELFREF
360
B
  0
DICTIONARY
  5
1C
102
{ACAD_REACTORS
330
1E
102
}
100
AcDbDictionary
  0
DICTIONARY
  5
1D
102
{ACAD_REACTORS
330
1E
102
}
100
AcDbDictionary
  3
STANDARD
350
20
  0
XRECORD
  5
47
102
{ACAD_REACTORS
330
46
102
}
100
AcDbXrecord
102
PLOTBIT
280
     0
  0
XRECORD
  5
36
102
{ACAD_REACTORS
330
35
102
}
100
AcDbXrecord
102
ACADR14ROUNDTRIP
1000
DSTYLE
1002
{
1070
   341
340
0
1070
   343
340
0
1070
   344
340
0
1002
}
  0
XRECORD
  5
4
102
{ACAD_REACTORS
330
3
102
}
100
AcDbXrecord
340
2
  0
XRECORD
  5
B
102
{ACAD_REACTORS
330
A
102
}
100
AcDbXrecord
340
9
  0
MLINESTYLE
  5
20
102
{ACAD_REACTORS
330
1D
102
}
100
AcDbMlineStyle
  2
STANDARD
 70
     0
  3

 62
     0
 51
90.0
 52
90.0
 71
     2
 49
0.5
 62
   256
  6
BYLAYER
 49
-0.5
 62
   256
  6
BYLAYER
  0
ENDSEC
  0
EOF
