  0
SECTION
  2
HEADER
  9
$ACADVER
  1
AC1014
  9
$ACADMAINTVER
 70
     0
  9
$DWGCODEPAGE
  3
ANSI_932
  9
$INSBASE
 10
-587.250952
 20
747.890188
 30
0.0
  9
$EXTMIN
 10
48.27839
 20
2.600252
 30
0.0
  9
$EXTMAX
 10
306.987767
 20
124.370693
 30
0.0
  9
$LIMMIN
 10
-587.250952
 20
327.890188
  9
$LIMMAX
 10
600.749048
 20
957.890188
  9
$ORTHOMODE
 70
     1
  9
$REGENMODE
 70
     1
  9
$FILLMODE
 70
     1
  9
$QTEXTMODE
 70
     0
  9
$MIRRTEXT
 70
     1
  9
$DRAGMODE
 70
     2
  9
$LTSCALE
 40
5.0
  9
$OSMODE
 70
    45
  9
$ATTMODE
 70
     1
  9
$TEXTSIZE
 40
5.0
  9
$TRACEWID
 40
0.05
  9
$TEXTSTYLE
  7
STANDARD
  9
$CLAYER
  8
寸法
  9
$CELTYPE
  6
CONTINUOUS
  9
$CECOLOR
 62
   256
  9
$CELTSCALE
 40
1.0
  9
$DELOBJ
 70
     1
  9
$DISPSILH
 70
     0
  9
$DIMSCALE
 40
0.0
  9
$DIMASZ
 40
2.0
  9
$DIMEXO
 40
1.0
  9
$DIMDLI
 40
8.0
  9
$DIMRND
 40
0.0
  9
$DIMDLE
 40
0.0
  9
$DIMEXE
 40
2.0
  9
$DIMTP
 40
0.0
  9
$DIMTM
 40
0.0
  9
$DIMTXT
 40
3.0
  9
$DIMCEN
 40
-1.0
  9
$DIMTSZ
 40
0.0
  9
$DIMTOL
 70
     0
  9
$DIMLIM
 70
     0
  9
$DIMTIH
 70
     0
  9
$DIMTOH
 70
     0
  9
$DIMSE1
 70
     0
  9
$DIMSE2
 70
     0
  9
$DIMTAD
 70
     1
  9
$DIMZIN
 70
     8
  9
$DIMBLK
  1

  9
$DIMASO
 70
     1
  9
$DIMSHO
 70
     1
  9
$DIMPOST
  1

  9
$DIMAPOST
  1

  9
$DIMALT
 70
     0
  9
$DIMALTD
 70
     2
  9
$DIMALTF
 40
25.4
  9
$DIMLFAC
 40
1.0
  9
$DIMTOFL
 70
     1
  9
$DIMTVP
 40
0.0
  9
$DIMTIX
 70
     0
  9
$DIMSOXD
 70
     0
  9
$DIMSAH
 70
     1
  9
$DIMBLK1
  1
_OPEN30
  9
$DIMBLK2
  1
_OPEN30
  9
$DIMSTYLE
  2
STANDARD
  9
$DIMCLRD
 70
     1
  9
$DIMCLRE
 70
     1
  9
$DIMCLRT
 70
     3
  9
$DIMTFAC
 40
1.0
  9
$DIMGAP
 40
1.0
  9
$DIMJUST
 70
     0
  9
$DIMSD1
 70
     0
  9
$DIMSD2
 70
     0
  9
$DIMTOLJ
 70
     1
  9
$DIMTZIN
 70
     8
  9
$DIMALTZ
 70
     0
  9
$DIMALTTZ
 70
     0
  9
$DIMFIT
 70
     3
  9
$DIMUPT
 70
     0
  9
$DIMUNIT
 70
     2
  9
$DIMDEC
 70
     3
  9
$DIMTDEC
 70
     2
  9
$DIMALTU
 70
     2
  9
$DIMALTTD
 70
     2
  9
$DIMTXSTY
  7
STANDARD
  9
$DIMAUNIT
 70
     0
  9
$LUNITS
 70
     2
  9
$LUPREC
 70
     0
  9
$SKETCHINC
 40
0.1
  9
$FILLETRAD
 40
0.0
  9
$AUNITS
 70
     0
  9
$AUPREC
 70
     0
  9
$MENU
  1
acad
  9
$ELEVATION
 40
0.0
  9
$PELEVATION
 40
0.0
  9
$THICKNESS
 40
0.0
  9
$LIMCHECK
 70
     0
  9
$BLIPMODE
 70
     0
  9
$CHAMFERA
 40
0.0
  9
$CHAMFERB
 40
0.0
  9
$CHAMFERC
 40
0.0
  9
$CHAMFERD
 40
0.0
  9
$SKPOLY
 70
     0
  9
$TDCREATE
 40
2450751.535399305
  9
$TDUPDATE
 40
2452031.443391204
  9
$TDINDWG
 40
2.3781112963
  9
$TDUSRTIMER
 40
2.3781112963
  9
$USRTIMER
 70
     1
  9
$ANGBASE
 50
0.0
  9
$ANGDIR
 70
     0
  9
$PDMODE
 70
    32
  9
$PDSIZE
 40
0.0
  9
$PLINEWID
 40
0.0
  9
$COORDS
 70
     2
  9
$SPLFRAME
 70
     0
  9
$SPLINETYPE
 70
     5
  9
$SPLINESEGS
 70
     8
  9
$ATTDIA
 70
     0
  9
$ATTREQ
 70
     1
  9
$HANDLING
 70
     1
  9
$HANDSEED
  5
29FC
  9
$SURFTAB1
 70
     6
  9
$SURFTAB2
 70
     6
  9
$SURFTYPE
 70
     6
  9
$SURFU
 70
     6
  9
$SURFV
 70
     6
  9
$UCSNAME
  2

  9
$UCSORG
 10
0.0
 20
0.0
 30
0.0
  9
$UCSXDIR
 10
1.0
 20
0.0
 30
0.0
  9
$UCSYDIR
 10
0.0
 20
1.0
 30
0.0
  9
$PUCSNAME
  2

  9
$PUCSORG
 10
0.0
 20
0.0
 30
0.0
  9
$PUCSXDIR
 10
1.0
 20
0.0
 30
0.0
  9
$PUCSYDIR
 10
0.0
 20
1.0
 30
0.0
  9
$USERI1
 70
     0
  9
$USERI2
 70
     0
  9
$USERI3
 70
     0
  9
$USERI4
 70
     0
  9
$USERI5
 70
     0
  9
$USERR1
 40
0.0
  9
$USERR2
 40
0.0
  9
$USERR3
 40
0.0
  9
$USERR4
 40
0.0
  9
$USERR5
 40
0.0
  9
$WORLDVIEW
 70
     1
  9
$SHADEDGE
 70
     3
  9
$SHADEDIF
 70
    70
  9
$TILEMODE
 70
     1
  9
$MAXACTVP
 70
    16
  9
$PINSBASE
 10
0.0
 20
0.0
 30
0.0
  9
$PLIMCHECK
 70
     0
  9
$PEXTMIN
 10
1.000000E+20
 20
1.000000E+20
 30
1.000000E+20
  9
$PEXTMAX
 10
-1.000000E+20
 20
-1.000000E+20
 30
-1.000000E+20
  9
$PLIMMIN
 10
0.0
 20
0.0
  9
$PLIMMAX
 10
12.0
 20
9.0
  9
$UNITMODE
 70
     0
  9
$VISRETAIN
 70
     0
  9
$PLINEGEN
 70
     0
  9
$PSLTSCALE
 70
     1
  9
$TREEDEPTH
 70
  3020
  9
$PICKSTYLE
 70
     1
  9
$CMLSTYLE
  2
STANDARD
  9
$CMLJUST
 70
     0
  9
$CMLSCALE
 40
1.0
  9
$PROXYGRAPHICS
 70
     1
  9
$MEASUREMENT
 70
     0
  0
ENDSEC
  0
SECTION
  2
CLASSES
  0
CLASS
  1
LWPOLYLINE
  2
AcDbPolyline
  3
"AutoCAD"
 90
        0
280
     0
281
     1
  0
CLASS
  1
ACDBDICTIONARYWDFLT
  2
AcDbDictionaryWithDefault
  3
AutoCAD 2000
 90
        0
280
     1
281
     0
  0
CLASS
  1
ACDBPLACEHOLDER
  2
AcDbPlaceHolder
  3
AutoCAD 2000
 90
        0
280
     1
281
     0
  0
CLASS
  1
LAYOUT
  2
AcDbLayout
  3
AutoCAD 2000
 90
        0
280
     1
281
     0
  0
CLASS
  1
LONG_TRANSACTION
  2
AcDbLongTransaction
  3
AutoCAD 2000
 90
        0
280
     1
281
     0
  0
CLASS
  1
LWPOLYLINE
  2
AcDbPolyline
  3
"AutoCAD"
 90
        0
280
     0
281
     1
  0
CLASS
  1
HATCH
  2
AcDbHatch
  3
"ACAD_SEDONA"
 90
        0
280
     0
281
     1
  0
CLASS
  1
XRECORD
  2
AcDbXrecord
  3
"<Built In>"
 90
        0
280
     0
281
     0
  0
CLASS
  1
DICTIONARYVAR
  2
AcDbDictionaryVar
  3
"AutoCAD"
 90
        0
280
     0
281
     0
  0
ENDSEC
  0
SECTION
  2
TABLES
  0
TABLE
  2
VPORT
  5
16
100
AcDbSymbolTable
 70
     1
  0
VPORT
  5
29F7
100
AcDbSymbolTableRecord
100
AcDbViewportTableRecord
  2
*ACTIVE
 70
     0
 10
0.0
 20
0.0
 11
1.0
 21
1.0
 12
188.112183
 22
68.37785
 13
0.0
 23
0.0
 14
1.0
 24
1.0
 15
10.0
 25
10.0
 16
0.0
 26
0.0
 36
1.0
 17
0.0
 27
0.0
 37
0.0
 40
241.402965
 41
1.710425
 42
50.0
 43
0.0
 44
0.0
 50
0.0
 51
0.0
 71
     0
 72
   100
 73
     1
 74
     1
 75
     0
 76
     0
 77
     0
 78
     2
  0
ENDTAB
  0
TABLE
  2
LTYPE
  5
11
100
AcDbSymbolTable
 70
     2
  0
LTYPE
  5
12
100
AcDbSymbolTableRecord
100
AcDbLinetypeTableRecord
  2
BYBLOCK
 70
     0
  3

 72
    65
 73
     0
 40
0.0
  0
LTYPE
  5
13
100
AcDbSymbolTableRecord
100
AcDbLinetypeTableRecord
  2
BYLAYER
 70
     0
  3

 72
    65
 73
     0
 40
0.0
  0
LTYPE
  5
7
100
AcDbSymbolTableRecord
100
AcDbLinetypeTableRecord
  2
CONTINUOUS
 70
     0
  3
Solid line
 72
    65
 73
     0
 40
0.0
  0
LTYPE
  5
AA
100
AcDbSymbolTableRecord
100
AcDbLinetypeTableRecord
  2
CENTER
 70
     0
  3
Center ____ _ ____ _ ____ _ ____ _ ____ _ ____
 72
    65
 73
     4
 40
2.0
 49
1.25
 74
     0
 49
-0.25
 74
     0
 49
0.25
 74
     0
 49
-0.25
 74
     0
  0
ENDTAB
  0
TABLE
  2
LAYER
  5
E
100
AcDbSymbolTable
 70
     5
  0
LAYER
  5
6
100
AcDbSymbolTableRecord
100
AcDbLayerTableRecord
  2
0
 70
     0
 62
     7
  6
CONTINUOUS
  0
LAYER
  5
2C
100
AcDbSymbolTableRecord
100
AcDbLayerTableRecord
  2
外形
 70
     0
 62
     4
  6
CONTINUOUS
  0
LAYER
  5
37
102
{ACAD_XDICTIONARY
360
38
102
}
100
AcDbSymbolTableRecord
100
AcDbLayerTableRecord
  2
DEFPOINTS
 70
     0
 62
     7
  6
CONTINUOUS
  0
LAYER
  5
1F
100
AcDbSymbolTableRecord
100
AcDbLayerTableRecord
  2
寸法
 70
     0
 62
     1
  6
CONTINUOUS
  0
LAYER
  5
673
100
AcDbSymbolTableRecord
100
AcDbLayerTableRecord
  2
参考
 70
     0
 62
     2
  6
CONTINUOUS
  0
ENDTAB
  0
TABLE
  2
STYLE
  5
F
100
AcDbSymbolTable
 70
     1
  0
STYLE
  5
10
100
AcDbSymbolTableRecord
100
AcDbTextStyleTableRecord
  2
STANDARD
 70
     0
 40
0.0
 41
1.0
 50
0.0
 71
     0
 42
5.0
  3
MONOTXT
  4
BIGFONT
  0
ENDTAB
  0
TABLE
  2
VIEW
  5
14
100
AcDbSymbolTable
 70
     0
  0
ENDTAB
  0
TABLE
  2
UCS
  5
15
100
AcDbSymbolTable
 70
     0
  0
ENDTAB
  0
TABLE
  2
APPID
  5
18
100
AcDbSymbolTable
 70
     2
  0
APPID
  5
19
100
AcDbSymbolTableRecord
100
AcDbRegAppTableRecord
  2
ACAD
 70
     0
  0
APPID
  5
C59
100
AcDbSymbolTableRecord
100
AcDbRegAppTableRecord
  2
DRAWINGVARIABLESXDATA
 70
     0
  0
ENDTAB
  0
TABLE
  2
DIMSTYLE
  5
1A
100
AcDbSymbolTable
 70
     1
  0
DIMSTYLE
105
21
102
{ACAD_XDICTIONARY
360
22
102
}
102
{ACAD_REACTORS
330
22A6
330
27E4
330
2850
330
2851
330
28AC
330
2954
330
29D0
330
29F6
102
}
100
AcDbSymbolTableRecord
100
AcDbDimStyleTableRecord
  2
STANDARD
 70
     0
  3

  4

  5

  6
_OPEN30
  7
_OPEN30
 40
0.0
 41
2.0
 42
1.0
 43
8.0
 44
2.0
 45
0.0
 46
0.0
 47
0.0
 48
0.0
140
3.0
141
-1.0
142
0.0
143
25.4
144
1.0
145
0.0
146
1.0
147
1.0
 71
     0
 72
     0
 73
     0
 74
     0
 75
     0
 76
     0
 77
     1
 78
     8
170
     0
171
     2
172
     1
173
     1
174
     0
175
     0
176
     1
177
     1
178
     3
270
     2
271
     2
272
     2
273
     2
274
     2
340
10
275
     0
280
     0
281
     0
282
     0
283
     1
284
     8
285
     0
286
     0
287
     3
288
     0
  0
ENDTAB
  0
TABLE
  2
BLOCK_RECORD
  5
1
100
AcDbSymbolTable
 70
     9
  0
BLOCK_RECORD
  5
2
102
{ACAD_XDICTIONARY
360
3
102
}
100
AcDbSymbolTableRecord
100
AcDbBlockTableRecord
  2
*MODEL_SPACE
  0
BLOCK_RECORD
  5
9
102
{ACAD_XDICTIONARY
360
A
102
}
100
AcDbSymbolTableRecord
100
AcDbBlockTableRecord
  2
*PAPER_SPACE
  0
BLOCK_RECORD
  5
470
100
AcDbSymbolTableRecord
100
AcDbBlockTableRecord
  2
_OPEN30
  0
BLOCK_RECORD
  5
22C5
100
AcDbSymbolTableRecord
100
AcDbBlockTableRecord
  2
*D1
  0
BLOCK_RECORD
  5
280B
100
AcDbSymbolTableRecord
100
AcDbBlockTableRecord
  2
*D2
  0
BLOCK_RECORD
  5
2853
100
AcDbSymbolTableRecord
100
AcDbBlockTableRecord
  2
*D3
  0
BLOCK_RECORD
  5
286B
100
AcDbSymbolTableRecord
100
AcDbBlockTableRecord
  2
*D4
  0
BLOCK_RECORD
  5
28AD
100
AcDbSymbolTableRecord
100
AcDbBlockTableRecord
  2
*D5
  0
BLOCK_RECORD
  5
2942
100
AcDbSymbolTableRecord
100
AcDbBlockTableRecord
  2
*D6
  0
BLOCK_RECORD
  5
29C2
100
AcDbSymbolTableRecord
100
AcDbBlockTableRecord
  2
*D7
  0
BLOCK_RECORD
  5
29EA
100
AcDbSymbolTableRecord
100
AcDbBlockTableRecord
  2
*D8
  0
ENDTAB
  0
ENDSEC
  0
SECTION
  2
BLOCKS
  0
BLOCK
  5
5
100
AcDbEntity
  8
0
100
AcDbBlockBegin
  2
*MODEL_SPACE
 70
     0
 10
0.0
 20
0.0
 30
0.0
  3
*MODEL_SPACE
  1

  0
ENDBLK
  5
8
100
AcDbEntity
  8
0
100
AcDbBlockEnd
  0
BLOCK
  5
C
100
AcDbEntity
 67
     1
  8
0
100
AcDbBlockBegin
  2
*PAPER_SPACE
 70
     0
 10
0.0
 20
0.0
 30
0.0
  3
*PAPER_SPACE
  1

  0
ENDBLK
  5
D
100
AcDbEntity
 67
     1
  8
0
100
AcDbBlockEnd
  0
BLOCK
  5
471
100
AcDbEntity
  8
0
100
AcDbBlockBegin
  2
_OPEN30
 70
     0
 10
0.0
 20
0.0
 30
0.0
  3
_OPEN30
  1

  0
LINE
  5
472
100
AcDbEntity
  8
0
  6
BYBLOCK
 62
     0
100
AcDbLine
 10
-1.0
 20
0.267949
 30
0.0
 11
0.0
 21
0.0
 31
0.0
  0
LINE
  5
473
100
AcDbEntity
  8
0
  6
BYBLOCK
 62
     0
100
AcDbLine
 10
0.0
 20
0.0
 30
0.0
 11
-1.0
 21
-0.267949
 31
0.0
  0
LINE
  5
474
100
AcDbEntity
  8
0
  6
BYBLOCK
 62
     0
100
AcDbLine
 10
0.0
 20
0.0
 30
0.0
 11
-1.0
 21
0.0
 31
0.0
  0
ENDBLK
  5
475
100
AcDbEntity
  8
0
100
AcDbBlockEnd
  0
BLOCK
  5
22D7
100
AcDbEntity
  8
0
100
AcDbBlockBegin
  2
*D1
 70
     1
 10
0.0
 20
0.0
 30
0.0
  3
*D1
  1

  0
LINE
  5
22D8
100
AcDbEntity
  8
0
  6
BYBLOCK
 62
     1
100
AcDbLine
 10
148.896604
 20
-81.889504
 30
0.0
 11
130.461612
 21
-80.276651
 31
0.0
  0
LINE
  5
22D9
100
AcDbEntity
  8
0
  6
BYBLOCK
 62
     1
100
AcDbLine
 10
142.277517
 20
-81.976659
 30
0.0
 11
130.387388
 21
-81.976659
 31
0.0
  0
ARC
  5
22DA
100
AcDbEntity
  8
0
  6
BYBLOCK
 62
     1
100
AcDbCircle
 10
149.892799
 20
-81.976659
 30
0.0
 40
17.505411
100
AcDbArc
 50
161.879219
 51
175.0
  0
LINE
  5
22DB
100
AcDbEntity
  8
0
  6
BYBLOCK
 62
     1
100
AcDbLine
 10
133.255604
 20
-76.532106
 30
0.0
 11
135.930386
 21
-68.35864
 31
0.0
  0
ARC
  5
22DC
100
AcDbEntity
  8
0
  6
BYBLOCK
 62
     1
100
AcDbCircle
 10
149.892799
 20
-81.976659
 30
0.0
 40
17.505411
100
AcDbArc
 50
161.900739
 51
168.45037
  0
ARC
  5
22DD
100
AcDbEntity
  8
0
  6
BYBLOCK
 62
     1
100
AcDbCircle
 10
149.892799
 20
-81.976659
 30
0.0
 40
17.505411
100
AcDbArc
 50
186.54963
 51
193.099261
  0
ARC
  5
22DE
100
AcDbEntity
  8
0
  6
BYBLOCK
 62
     1
100
AcDbCircle
 10
149.892799
 20
-81.976659
 30
0.0
 40
17.505411
100
AcDbArc
 50
175.0
 51
180.0
  0
INSERT
  5
22DF
100
AcDbEntity
  8
0
  6
BYBLOCK
 62
     1
100
AcDbBlockReference
  2
_OPEN30
 10
132.454001
 20
-80.450962
 30
0.0
 41
2.0
 42
2.0
 43
2.0
 50
261.725185
  0
INSERT
  5
22E0
100
AcDbEntity
  8
0
  6
BYBLOCK
 62
     1
100
AcDbBlockReference
  2
_OPEN30
 10
132.387388
 20
-81.976659
 30
0.0
 41
2.0
 42
2.0
 43
2.0
 50
93.274815
  0
MTEXT
  5
22E1
100
AcDbEntity
  8
0
  6
BYBLOCK
 62
     3
100
AcDbMText
 10
132.216987
 20
-71.66782
 30
0.0
 40
3.0
 41
0.0
 71
     5
 72
     1
  1
\A1;5°
 11
0.311021
 21
0.950403
 31
0.0
  0
POINT
  5
22E2
100
AcDbEntity
  8
DEFPOINTS
  6
BYBLOCK
 62
     0
100
AcDbPoint
 10
132.394793
 20
-81.467519
 30
0.0
  0
POINT
  5
22E3
100
AcDbEntity
  8
DEFPOINTS
  6
BYBLOCK
 62
     0
100
AcDbPoint
 10
149.892799
 20
-81.976659
 30
0.0
  0
POINT
  5
22E4
100
AcDbEntity
  8
DEFPOINTS
  6
BYBLOCK
 62
     0
100
AcDbPoint
 10
143.277517
 20
-81.976659
 30
0.0
  0
POINT
  5
22E5
100
AcDbEntity
  8
DEFPOINTS
  6
BYBLOCK
 62
     0
100
AcDbPoint
 10
338.017086
 20
-81.976659
 30
0.0
  0
POINT
  5
22E6
100
AcDbEntity
  8
DEFPOINTS
  6
BYBLOCK
 62
     0
100
AcDbPoint
 10
157.304063
 20
-82.625061
 30
0.0
  0
ENDBLK
  5
22E7
100
AcDbEntity
  8
0
100
AcDbBlockEnd
  0
BLOCK
  5
2817
100
AcDbEntity
  8
0
100
AcDbBlockBegin
  2
*D2
 70
     1
 10
0.0
 20
0.0
 30
0.0
  3
*D2
  1

  0
LINE
  5
2818
100
AcDbEntity
  8
0
  6
BYBLOCK
 62
     1
100
AcDbLine
 10
149.292799
 20
-29.630029
 30
0.0
 11
136.329521
 21
-29.630029
 31
0.0
  0
LINE
  5
2819
100
AcDbEntity
  8
0
  6
BYBLOCK
 62
     1
100
AcDbLine
 10
142.277517
 20
-19.630029
 30
0.0
 11
136.329521
 21
-19.630029
 31
0.0
  0
LINE
  5
281A
100
AcDbEntity
  8
0
  6
BYBLOCK
 62
     1
100
AcDbLine
 10
138.329521
 20
-27.630029
 30
0.0
 11
138.329521
 21
-21.630029
 31
0.0
  0
INSERT
  5
281B
100
AcDbEntity
  8
0
  6
BYBLOCK
 62
     1
100
AcDbBlockReference
  2
_OPEN30
 10
138.329521
 20
-29.630029
 30
0.0
 41
2.0
 42
2.0
 43
2.0
 50
270.0
  0
INSERT
  5
281C
100
AcDbEntity
  8
0
  6
BYBLOCK
 62
     1
100
AcDbBlockReference
  2
_OPEN30
 10
138.329521
 20
-19.630029
 30
0.0
 41
2.0
 42
2.0
 43
2.0
 50
90.0
  0
MTEXT
  5
281D
100
AcDbEntity
  8
0
  6
BYBLOCK
 62
     3
100
AcDbMText
 10
135.829521
 20
-24.630029
 30
0.0
 40
3.0
 41
0.0
 71
     5
 72
     1
  1
\A1;10
 11
0.0
 21
1.0
 31
0.0
  0
POINT
  5
281E
100
AcDbEntity
  8
DEFPOINTS
  6
BYBLOCK
 62
     0
100
AcDbPoint
 10
150.292799
 20
-29.630029
 30
0.0
  0
POINT
  5
281F
100
AcDbEntity
  8
DEFPOINTS
  6
BYBLOCK
 62
     0
100
AcDbPoint
 10
143.277517
 20
-19.630029
 30
0.0
  0
POINT
  5
2820
100
AcDbEntity
  8
DEFPOINTS
  6
BYBLOCK
 62
     0
100
AcDbPoint
 10
138.329521
 20
-19.630029
 30
0.0
  0
ENDBLK
  5
2821
100
AcDbEntity
  8
0
100
AcDbBlockEnd
  0
BLOCK
  5
2895
100
AcDbEntity
  8
0
100
AcDbBlockBegin
  2
*D3
 70
     1
 10
0.0
 20
0.0
 30
0.0
  3
*D3
  1

  0
LINE
  5
2896
100
AcDbEntity
  8
0
  6
BYBLOCK
 62
     1
100
AcDbLine
 10
260.433512
 20
-23.413911
 30
0.0
 11
260.433512
 21
-48.252983
 31
0.0
  0
LINE
  5
2897
100
AcDbEntity
  8
0
  6
BYBLOCK
 62
     1
100
AcDbLine
 10
245.433512
 20
-23.413911
 30
0.0
 11
245.433512
 21
-48.252983
 31
0.0
  0
LINE
  5
2898
100
AcDbEntity
  8
0
  6
BYBLOCK
 62
     1
100
AcDbLine
 10
258.433512
 20
-46.252983
 30
0.0
 11
247.433512
 21
-46.252983
 31
0.0
  0
INSERT
  5
2899
100
AcDbEntity
  8
0
  6
BYBLOCK
 62
     1
100
AcDbBlockReference
  2
_OPEN30
 10
260.433512
 20
-46.252983
 30
0.0
 41
2.0
 42
2.0
 43
2.0
  0
INSERT
  5
289A
100
AcDbEntity
  8
0
  6
BYBLOCK
 62
     1
100
AcDbBlockReference
  2
_OPEN30
 10
245.433512
 20
-46.252983
 30
0.0
 41
2.0
 42
2.0
 43
2.0
 50
180.0
  0
MTEXT
  5
289B
100
AcDbEntity
  8
0
  6
BYBLOCK
 62
     3
100
AcDbMText
 10
252.933512
 20
-43.752983
 30
0.0
 40
3.0
 41
0.0
 71
     5
 72
     1
  1
\A1;15
  0
POINT
  5
289C
100
AcDbEntity
  8
DEFPOINTS
  6
BYBLOCK
 62
     0
100
AcDbPoint
 10
260.433512
 20
-22.413911
 30
0.0
  0
POINT
  5
289D
100
AcDbEntity
  8
DEFPOINTS
  6
BYBLOCK
 62
     0
100
AcDbPoint
 10
245.433512
 20
-22.413911
 30
0.0
  0
POINT
  5
289E
100
AcDbEntity
  8
DEFPOINTS
  6
BYBLOCK
 62
     0
100
AcDbPoint
 10
245.433512
 20
-46.252983
 30
0.0
  0
ENDBLK
  5
289F
100
AcDbEntity
  8
0
100
AcDbBlockEnd
  0
BLOCK
  5
2880
100
AcDbEntity
  8
0
100
AcDbBlockBegin
  2
*D4
 70
     1
 10
0.0
 20
0.0
 30
0.0
  3
*D4
  1

  0
LINE
  5
2881
100
AcDbEntity
  8
0
  6
BYBLOCK
 62
     1
100
AcDbLine
 10
242.143906
 20
-0.457538
 30
0.0
 11
248.029146
 21
-10.91526
 31
0.0
  0
LINE
  5
2882
100
AcDbEntity
  8
0
  6
BYBLOCK
 62
     1
100
AcDbLine
 10
257.837878
 20
-28.344797
 30
0.0
 11
258.818751
 21
-30.087751
 31
0.0
  0
MTEXT
  5
2883
100
AcDbEntity
  8
0
  6
BYBLOCK
 62
     3
100
AcDbMText
 10
246.774781
 20
-3.58883
 30
0.0
 40
3.0
 41
0.0
 71
     5
 72
     1
  1
\A1;\U+220516
 11
0.490437
 21
-0.871477
 31
0.0
  0
LINE
  5
2884
100
AcDbEntity
  8
0
  6
BYBLOCK
 62
     1
100
AcDbLine
 10
256.857004
 20
-26.601844
 30
0.0
 11
249.010019
 21
-12.658214
 31
0.0
  0
INSERT
  5
2885
100
AcDbEntity
  8
0
  6
BYBLOCK
 62
     1
100
AcDbBlockReference
  2
_OPEN30
 10
256.857004
 20
-26.601844
 30
0.0
 41
2.0
 42
2.0
 43
2.0
 50
119.369282
  0
INSERT
  5
2886
100
AcDbEntity
  8
0
  6
BYBLOCK
 62
     1
100
AcDbBlockReference
  2
_OPEN30
 10
249.010019
 20
-12.658214
 30
0.0
 41
2.0
 42
2.0
 43
2.0
 50
299.369282
  0
POINT
  5
2887
100
AcDbEntity
  8
DEFPOINTS
  6
BYBLOCK
 62
     0
100
AcDbPoint
 10
249.010019
 20
-12.658214
 30
0.0
  0
POINT
  5
2888
100
AcDbEntity
  8
DEFPOINTS
  6
BYBLOCK
 62
     0
100
AcDbPoint
 10
256.857004
 20
-26.601844
 30
0.0
  0
ENDBLK
  5
2889
100
AcDbEntity
  8
0
100
AcDbBlockEnd
  0
BLOCK
  5
28D0
100
AcDbEntity
  8
0
100
AcDbBlockBegin
  2
*D5
 70
     1
 10
0.0
 20
0.0
 30
0.0
  3
*D5
  1

  0
LINE
  5
28D1
100
AcDbEntity
  8
0
  6
BYBLOCK
 62
     1
100
AcDbLine
 10
149.892799
 20
-30.230029
 30
0.0
 11
149.892799
 21
-62.272653
 31
0.0
  0
LINE
  5
28D2
100
AcDbEntity
  8
0
  6
BYBLOCK
 62
     1
100
AcDbLine
 10
329.892799
 20
-27.630029
 30
0.0
 11
329.892799
 21
-62.272653
 31
0.0
  0
LINE
  5
28D3
100
AcDbEntity
  8
0
  6
BYBLOCK
 62
     1
100
AcDbLine
 10
151.892799
 20
-60.272653
 30
0.0
 11
327.892799
 21
-60.272653
 31
0.0
  0
INSERT
  5
28D4
100
AcDbEntity
  8
0
  6
BYBLOCK
 62
     1
100
AcDbBlockReference
  2
_OPEN30
 10
149.892799
 20
-60.272653
 30
0.0
 41
2.0
 42
2.0
 43
2.0
 50
180.0
  0
INSERT
  5
28D5
100
AcDbEntity
  8
0
  6
BYBLOCK
 62
     1
100
AcDbBlockReference
  2
_OPEN30
 10
329.892799
 20
-60.272653
 30
0.0
 41
2.0
 42
2.0
 43
2.0
  0
MTEXT
  5
28D6
100
AcDbEntity
  8
0
  6
BYBLOCK
 62
     3
100
AcDbMText
 10
239.892799
 20
-57.772653
 30
0.0
 40
3.0
 41
0.0
 71
     5
 72
     1
  1
\A1;180
  0
POINT
  5
28D7
100
AcDbEntity
  8
DEFPOINTS
  6
BYBLOCK
 62
     0
100
AcDbPoint
 10
149.892799
 20
-29.230029
 30
0.0
  0
POINT
  5
28D8
100
AcDbEntity
  8
DEFPOINTS
  6
BYBLOCK
 62
     0
100
AcDbPoint
 10
329.892799
 20
-26.630029
 30
0.0
  0
POINT
  5
28D9
100
AcDbEntity
  8
DEFPOINTS
  6
BYBLOCK
 62
     0
100
AcDbPoint
 10
329.892799
 20
-60.272653
 30
0.0
  0
ENDBLK
  5
28DA
100
AcDbEntity
  8
0
100
AcDbBlockEnd
  0
BLOCK
  5
2943
100
AcDbEntity
  8
0
100
AcDbBlockBegin
  2
*D6
 70
     1
 10
0.0
 20
0.0
 30
0.0
  3
*D6
  1

  0
LINE
  5
2944
100
AcDbEntity
  8
0
  6
BYBLOCK
 62
     1
100
AcDbLine
 10
96.379632
 20
-30.627593
 30
0.0
 11
95.313868
 21
-45.868731
 31
0.0
  0
LINE
  5
2945
100
AcDbEntity
  8
0
  6
BYBLOCK
 62
     1
100
AcDbLine
 10
96.449388
 20
-37.771708
 30
0.0
 11
96.449388
 21
-45.908384
 31
0.0
  0
ARC
  5
2946
100
AcDbEntity
  8
0
  6
BYBLOCK
 62
     1
100
AcDbCircle
 10
96.449388
 20
-29.630029
 30
0.0
 40
14.278356
100
AcDbArc
 50
249.895957
 51
266.0
  0
LINE
  5
2947
100
AcDbEntity
  8
0
  6
BYBLOCK
 62
     1
100
AcDbLine
 10
91.541547
 20
-43.038404
 30
0.0
 11
83.465545
 21
-40.082361
 31
0.0
  0
ARC
  5
2948
100
AcDbEntity
  8
0
  6
BYBLOCK
 62
     1
100
AcDbCircle
 10
96.449388
 20
-29.630029
 30
0.0
 40
14.278356
100
AcDbArc
 50
249.935763
 51
257.967881
  0
ARC
  5
2949
100
AcDbEntity
  8
0
  6
BYBLOCK
 62
     1
100
AcDbCircle
 10
96.449388
 20
-29.630029
 30
0.0
 40
14.278356
100
AcDbArc
 50
278.032119
 51
286.064237
  0
ARC
  5
294A
100
AcDbEntity
  8
0
  6
BYBLOCK
 62
     1
100
AcDbCircle
 10
96.449388
 20
-29.630029
 30
0.0
 40
14.278356
100
AcDbArc
 50
266.0
 51
270.0
  0
INSERT
  5
294B
100
AcDbEntity
  8
0
  6
BYBLOCK
 62
     1
100
AcDbBlockReference
  2
_OPEN30
 10
95.453381
 20
-43.873603
 30
0.0
 41
2.0
 42
2.0
 43
2.0
 50
351.983941
  0
INSERT
  5
294C
100
AcDbEntity
  8
0
  6
BYBLOCK
 62
     1
100
AcDbBlockReference
  2
_OPEN30
 10
96.449388
 20
-43.908384
 30
0.0
 41
2.0
 42
2.0
 43
2.0
 50
184.016059
  0
MTEXT
  5
294D
100
AcDbEntity
  8
0
  6
BYBLOCK
 62
     3
100
AcDbMText
 10
88.362861
 20
-39.212708
 30
0.0
 40
3.0
 41
0.0
 71
     5
 72
     1
  1
\A1;4°
 11
0.93907
 21
-0.343726
 31
0.0
  0
POINT
  5
294E
100
AcDbEntity
  8
DEFPOINTS
  6
BYBLOCK
 62
     0
100
AcDbPoint
 10
96.117146
 20
-43.904518
 30
0.0
 50
274.0
  0
POINT
  5
294F
100
AcDbEntity
  8
DEFPOINTS
  6
BYBLOCK
 62
     0
100
AcDbPoint
 10
97.428364
 20
-15.630029
 30
0.0
 50
274.0
  0
POINT
  5
2950
100
AcDbEntity
  8
DEFPOINTS
  6
BYBLOCK
 62
     0
100
AcDbPoint
 10
96.449388
 20
-2.488349
 30
0.0
 50
274.0
  0
POINT
  5
2951
100
AcDbEntity
  8
DEFPOINTS
  6
BYBLOCK
 62
     0
100
AcDbPoint
 10
96.449388
 20
-36.771708
 30
0.0
 50
274.0
  0
POINT
  5
2952
100
AcDbEntity
  8
DEFPOINTS
  6
BYBLOCK
 62
     0
100
AcDbPoint
 10
96.449388
 20
-29.630029
 30
0.0
 50
274.0
  0
ENDBLK
  5
2953
100
AcDbEntity
  8
0
100
AcDbBlockEnd
  0
BLOCK
  5
29C3
100
AcDbEntity
  8
0
100
AcDbBlockBegin
  2
*D7
 70
     1
 10
0.0
 20
0.0
 30
0.0
  3
*D7
  1

  0
LINE
  5
29C4
100
AcDbEntity
  8
0
  6
BYBLOCK
 62
     1
100
AcDbLine
 10
118.86348
 20
103.943296
 30
0.0
 11
118.86348
 21
121.834785
 31
0.0
  0
LINE
  5
29C5
100
AcDbEntity
  8
0
  6
BYBLOCK
 62
     1
100
AcDbLine
 10
117.688857
 20
92.928937
 30
0.0
 11
89.957632
 21
92.928937
 31
0.0
  0
ARC
  5
29C6
100
AcDbEntity
  8
0
  6
BYBLOCK
 62
     1
100
AcDbCircle
 10
118.86348
 20
92.928937
 30
0.0
 40
26.905848
100
AcDbArc
 50
94.259964
 51
175.740036
  0
INSERT
  5
29C7
100
AcDbEntity
  8
0
  6
BYBLOCK
 62
     1
100
AcDbBlockReference
  2
_OPEN30
 10
118.86348
 20
119.834785
 30
0.0
 41
2.0
 42
2.0
 43
2.0
 50
2.129982
  0
INSERT
  5
29C8
100
AcDbEntity
  8
0
  6
BYBLOCK
 62
     1
100
AcDbBlockReference
  2
_OPEN30
 10
91.957632
 20
92.928937
 30
0.0
 41
2.0
 42
2.0
 43
2.0
 50
267.870018
  0
MTEXT
  5
29C9
100
AcDbEntity
  8
0
  6
BYBLOCK
 62
     3
100
AcDbMText
 10
98.070405
 20
113.722012
 30
0.0
 40
3.0
 41
0.0
 71
     5
 72
     1
  1
\A1;90°
 11
0.707107
 21
0.707107
 31
0.0
  0
POINT
  5
29CA
100
AcDbEntity
  8
DEFPOINTS
  6
BYBLOCK
 62
     0
100
AcDbPoint
 10
105.410556
 20
116.230085
 30
0.0
  0
POINT
  5
29CB
100
AcDbEntity
  8
DEFPOINTS
  6
BYBLOCK
 62
     0
100
AcDbPoint
 10
119.26348
 20
92.928937
 30
0.0
  0
POINT
  5
29CC
100
AcDbEntity
  8
DEFPOINTS
  6
BYBLOCK
 62
     0
100
AcDbPoint
 10
118.86348
 20
102.943296
 30
0.0
  0
POINT
  5
29CD
100
AcDbEntity
  8
DEFPOINTS
  6
BYBLOCK
 62
     0
100
AcDbPoint
 10
118.86348
 20
93.328937
 30
0.0
  0
POINT
  5
29CE
100
AcDbEntity
  8
DEFPOINTS
  6
BYBLOCK
 62
     0
100
AcDbPoint
 10
118.688857
 20
92.928937
 30
0.0
  0
ENDBLK
  5
29CF
100
AcDbEntity
  8
0
100
AcDbBlockEnd
  0
BLOCK
  5
29EB
100
AcDbEntity
  8
0
100
AcDbBlockBegin
  2
*D8
 70
     1
 10
0.0
 20
0.0
 30
0.0
  3
*D8
  1

  0
LINE
  5
29EC
100
AcDbEntity
  8
0
  6
BYBLOCK
 62
     1
100
AcDbLine
 10
118.86348
 20
39.582306
 30
0.0
 11
118.86348
 21
17.145882
 31
0.0
  0
LINE
  5
29ED
100
AcDbEntity
  8
0
  6
BYBLOCK
 62
     1
100
AcDbLine
 10
136.86348
 20
32.082306
 30
0.0
 11
136.86348
 21
17.145882
 31
0.0
  0
LINE
  5
29EE
100
AcDbEntity
  8
0
  6
BYBLOCK
 62
     1
100
AcDbLine
 10
120.86348
 20
19.145882
 30
0.0
 11
134.86348
 21
19.145882
 31
0.0
  0
INSERT
  5
29EF
100
AcDbEntity
  8
0
  6
BYBLOCK
 62
     1
100
AcDbBlockReference
  2
_OPEN30
 10
118.86348
 20
19.145882
 30
0.0
 41
2.0
 42
2.0
 43
2.0
 50
180.0
  0
INSERT
  5
29F0
100
AcDbEntity
  8
0
  6
BYBLOCK
 62
     1
100
AcDbBlockReference
  2
_OPEN30
 10
136.86348
 20
19.145882
 30
0.0
 41
2.0
 42
2.0
 43
2.0
  0
MTEXT
  5
29F1
100
AcDbEntity
  8
0
  6
BYBLOCK
 62
     3
100
AcDbMText
 10
127.86348
 20
21.645882
 30
0.0
 40
3.0
 41
0.0
 71
     5
 72
     1
  1
\A1;18
  0
POINT
  5
29F2
100
AcDbEntity
  8
DEFPOINTS
  6
BYBLOCK
 62
     0
100
AcDbPoint
 10
118.86348
 20
40.582306
 30
0.0
  0
POINT
  5
29F3
100
AcDbEntity
  8
DEFPOINTS
  6
BYBLOCK
 62
     0
100
AcDbPoint
 10
136.86348
 20
33.082306
 30
0.0
  0
POINT
  5
29F4
100
AcDbEntity
  8
DEFPOINTS
  6
BYBLOCK
 62
     0
100
AcDbPoint
 10
136.86348
 20
19.145882
 30
0.0
  0
ENDBLK
  5
29F5
100
AcDbEntity
  8
0
100
AcDbBlockEnd
  0
ENDSEC
  0
SECTION
  2
ENTITIES
  0
LINE
  5
2266
100
AcDbEntity
  8
外形
  6
CENTER
 62
     1
100
AcDbLine
 10
221.904193
 20
116.005263
 30
0.0
 11
221.904193
 21
90.390105
 31
0.0
  0
LINE
  5
2267
100
AcDbEntity
  8
外形
  6
CENTER
 62
     1
100
AcDbLine
 10
112.248198
 20
102.928937
 30
0.0
 11
306.987767
 21
102.928937
 31
0.0
  0
LINE
  5
2268
100
AcDbEntity
  8
外形
  6
CONTINUOUS
100
AcDbLine
 10
146.11348
 20
100.145055
 30
0.0
 11
213.588532
 21
100.145055
 31
0.0
  0
LINE
  5
2269
100
AcDbEntity
  8
外形
  6
CONTINUOUS
100
AcDbLine
 10
146.11348
 20
105.712819
 30
0.0
 11
213.588532
 21
105.712819
 31
0.0
  0
LINE
  5
226A
100
AcDbEntity
  8
外形
  6
CONTINUOUS
100
AcDbLine
 10
146.11348
 20
110.928937
 30
0.0
 11
213.588532
 21
110.928937
 31
0.0
  0
LINE
  5
226B
100
AcDbEntity
  8
外形
  6
CONTINUOUS
100
AcDbLine
 10
146.11348
 20
94.928937
 30
0.0
 11
213.588532
 21
94.928937
 31
0.0
  0
LINE
  5
226C
100
AcDbEntity
  8
外形
  6
CONTINUOUS
100
AcDbLine
 10
230.219853
 20
94.928937
 30
0.0
 11
297.86348
 21
94.928937
 31
0.0
  0
LINE
  5
226D
100
AcDbEntity
  8
外形
  6
CONTINUOUS
100
AcDbLine
 10
230.219853
 20
100.145055
 30
0.0
 11
297.86348
 21
100.145055
 31
0.0
  0
LINE
  5
226E
100
AcDbEntity
  8
外形
  6
CONTINUOUS
100
AcDbLine
 10
230.219853
 20
105.712819
 30
0.0
 11
297.86348
 21
105.712819
 31
0.0
  0
LINE
  5
226F
100
AcDbEntity
  8
外形
  6
CONTINUOUS
100
AcDbLine
 10
230.219853
 20
110.928937
 30
0.0
 11
297.86348
 21
110.928937
 31
0.0
  0
LINE
  5
2270
100
AcDbEntity
  8
外形
  6
CONTINUOUS
100
AcDbLine
 10
297.86348
 20
100.145055
 30
0.0
 11
297.86348
 21
94.928937
 31
0.0
  0
ARC
  5
2271
100
AcDbEntity
  8
外形
  6
CONTINUOUS
100
AcDbCircle
 10
290.443313
 20
102.928937
 30
0.0
 40
7.925205
100
AcDbArc
 50
339.435023
 51
20.564977
  0
LINE
  5
2272
100
AcDbEntity
  8
外形
  6
CONTINUOUS
100
AcDbLine
 10
298.86348
 20
109.928937
 30
0.0
 11
297.86348
 21
110.928937
 31
0.0
  0
LINE
  5
2273
100
AcDbEntity
  8
外形
  6
CONTINUOUS
100
AcDbLine
 10
297.86348
 20
94.928937
 30
0.0
 11
298.86348
 21
95.928937
 31
0.0
  0
LINE
  5
2274
100
AcDbEntity
  8
外形
  6
CONTINUOUS
100
AcDbLine
 10
297.86348
 20
110.928937
 30
0.0
 11
297.86348
 21
105.712819
 31
0.0
  0
LINE
  5
2275
100
AcDbEntity
  8
外形
  6
CONTINUOUS
100
AcDbLine
 10
298.86348
 20
109.928937
 30
0.0
 11
298.86348
 21
95.928937
 31
0.0
  0
ARC
  5
2277
100
AcDbEntity
  8
外形
  6
CONTINUOUS
100
AcDbCircle
 10
221.904193
 20
102.928937
 30
0.0
 40
8.0
100
AcDbArc
 50
20.364135
 51
159.635865
  0
LINE
  5
2278
100
AcDbEntity
  8
外形
  6
CONTINUOUS
100
AcDbLine
 10
214.404193
 20
105.712819
 30
0.0
 11
214.404193
 21
100.145055
 31
0.0
  0
LINE
  5
2279
100
AcDbEntity
  8
外形
  6
CONTINUOUS
100
AcDbLine
 10
229.404193
 20
105.712819
 30
0.0
 11
229.404193
 21
100.145055
 31
0.0
  0
ARC
  5
227A
100
AcDbEntity
  8
外形
  6
CONTINUOUS
100
AcDbCircle
 10
221.904193
 20
102.928937
 30
0.0
 40
8.0
100
AcDbArc
 50
200.364135
 51
339.635865
  0
LINE
  5
227F
100
AcDbEntity
  8
外形
  6
CONTINUOUS
100
AcDbLine
 10
125.697293
 20
110.678937
 30
0.0
 11
145.86348
 21
110.678937
 31
0.0
  0
ARC
  5
2280
100
AcDbEntity
  8
外形
  6
CONTINUOUS
100
AcDbCircle
 10
135.86348
 20
85.928937
 30
0.0
 40
10.0
100
AcDbArc
 50
67.668355
 51
126.869898
  0
LINE
  5
2284
100
AcDbEntity
  8
外形
  6
CONTINUOUS
100
AcDbLine
 10
127.789759
 20
97.789706
 30
0.0
 11
119.46348
 21
92.982527
 31
0.0
  0
LINE
  5
2285
100
AcDbEntity
  8
外形
  6
CONTINUOUS
100
AcDbLine
 10
127.789759
 20
98.482527
 30
0.0
 11
127.617284
 21
98.582105
 31
0.0
  0
LINE
  5
2286
100
AcDbEntity
  8
外形
  6
CONTINUOUS
100
AcDbLine
 10
129.86348
 20
93.928937
 30
0.0
 11
121.102711
 21
93.928937
 31
0.0
  0
LINE
  5
2288
100
AcDbEntity
  8
外形
  6
CONTINUOUS
100
AcDbLine
 10
119.202102
 20
106.928937
 30
0.0
 11
125.697293
 21
110.678937
 31
0.0
  0
LINE
  5
2289
100
AcDbEntity
  8
外形
  6
CONTINUOUS
100
AcDbLine
 10
119.202102
 20
106.928937
 30
0.0
 11
119.202102
 21
103.338559
 31
0.0
  0
ARC
  5
228A
100
AcDbEntity
  8
外形
  6
CONTINUOUS
100
AcDbCircle
 10
119.26348
 20
102.943296
 30
0.0
 40
0.4
100
AcDbArc
 50
60.0
 51
180.0
  0
ARC
  5
228B
100
AcDbEntity
  8
外形
  6
CONTINUOUS
100
AcDbCircle
 10
119.26348
 20
93.328937
 30
0.0
 40
0.4
100
AcDbArc
 50
180.0
 51
300.0
  0
LINE
  5
228C
100
AcDbEntity
  8
外形
  6
CONTINUOUS
100
AcDbLine
 10
118.86348
 20
102.943296
 30
0.0
 11
118.86348
 21
93.328937
 31
0.0
  0
LINE
  5
2295
100
AcDbEntity
  8
外形
  6
CONTINUOUS
100
AcDbLine
 10
129.038907
 20
97.136116
 30
0.0
 11
126.657709
 21
97.136116
 31
0.0
  0
ARC
  5
2296
100
AcDbEntity
  8
外形
  6
CONTINUOUS
100
AcDbCircle
 10
129.038907
 20
98.136116
 30
0.0
 40
1.0
100
AcDbArc
 50
270.0
 51
65.785968
  0
ARC
  5
2297
100
AcDbEntity
  8
外形
  6
CONTINUOUS
100
AcDbCircle
 10
127.589759
 20
98.136116
 30
0.0
 40
0.4
100
AcDbArc
 50
300.0
 51
60.0
  0
LINE
  5
2298
100
AcDbEntity
  8
外形
  6
CONTINUOUS
100
AcDbLine
 10
141.065121
 20
104.991954
 30
0.0
 11
143.86348
 21
100.145055
 31
0.0
  0
LINE
  5
2299
100
AcDbEntity
  8
外形
  6
CONTINUOUS
100
AcDbLine
 10
145.86348
 20
100.865919
 30
0.0
 11
145.86348
 21
95.178937
 31
0.0
  0
LINE
  5
229A
100
AcDbEntity
  8
外形
  6
CONTINUOUS
100
AcDbLine
 10
146.11348
 20
100.145055
 30
0.0
 11
146.11348
 21
94.928937
 31
0.0
  0
LINE
  5
229C
100
AcDbEntity
  8
外形
  6
CONTINUOUS
100
AcDbLine
 10
145.86348
 20
104.991954
 30
0.0
 11
146.11348
 21
105.712819
 31
0.0
  0
LINE
  5
229E
100
AcDbEntity
  8
外形
  6
CONTINUOUS
100
AcDbLine
 10
145.86348
 20
104.991954
 30
0.0
 11
141.065121
 21
104.991954
 31
0.0
  0
LINE
  5
229F
100
AcDbEntity
  8
外形
  6
CONTINUOUS
100
AcDbLine
 10
146.11348
 20
110.928937
 30
0.0
 11
146.11348
 21
105.712819
 31
0.0
  0
LINE
  5
22A0
100
AcDbEntity
  8
外形
  6
CONTINUOUS
100
AcDbLine
 10
145.86348
 20
95.178937
 30
0.0
 11
146.11348
 21
94.928937
 31
0.0
  0
LINE
  5
22A1
100
AcDbEntity
  8
外形
  6
CONTINUOUS
100
AcDbLine
 10
146.11348
 20
110.928937
 30
0.0
 11
145.86348
 21
110.678937
 31
0.0
  0
LINE
  5
22A2
100
AcDbEntity
  8
外形
  6
CONTINUOUS
100
AcDbLine
 10
139.663151
 20
95.178937
 30
0.0
 11
145.86348
 21
95.178937
 31
0.0
  0
LINE
  5
22A3
100
AcDbEntity
  8
外形
  6
CONTINUOUS
100
AcDbLine
 10
145.86348
 20
110.678937
 30
0.0
 11
145.86348
 21
104.991954
 31
0.0
  0
DIMENSION
  5
22A6
100
AcDbEntity
  8
寸法
  6
CONTINUOUS
100
AcDbDimension
  2
*D1
 10
126.274744
 20
39.933905
 30
0.0
 11
101.187668
 21
50.891145
 31
0.0
 12
-31.029319
 22
122.558966
 32
0.0
 70
    34
  3
STANDARD
100
AcDb2LineAngularDimension
 13
112.248198
 23
40.582306
 33
0.0
 14
306.987767
 24
40.582306
 34
0.0
 15
118.86348
 25
40.582306
 35
0.0
 16
101.365474
 26
41.091446
 36
0.0
1001
ACAD
1000
DSTYLE
1002
{
1070
    40
1040
1.0
1070
   271
1070
     3
1002
}
  0
LINE
  5
22A7
100
AcDbEntity
  8
外形
  6
CONTINUOUS
100
AcDbLine
 10
141.065121
 20
48.082306
 30
0.0
 11
297.86348
 21
48.082306
 31
0.0
  0
LINE
  5
22A8
100
AcDbEntity
  8
外形
  6
CONTINUOUS
100
AcDbLine
 10
136.86348
 20
33.082306
 30
0.0
 11
297.86348
 21
33.082306
 31
0.0
  0
LINE
  5
22A9
100
AcDbEntity
  8
外形
  6
CENTER
 62
     1
100
AcDbLine
 10
112.248198
 20
40.582306
 30
0.0
 11
306.987767
 21
40.582306
 31
0.0
  0
ARC
  5
22AD
100
AcDbEntity
  8
外形
  6
CONTINUOUS
100
AcDbCircle
 10
135.95513
 20
41.633036
 30
0.0
 40
6.232224
100
AcDbArc
 50
192.192392
 51
270.594023
  0
LINE
  5
22AE
100
AcDbEntity
  8
外形
  6
CONTINUOUS
100
AcDbLine
 10
126.657709
 20
40.545129
 30
0.0
 11
124.122419
 21
40.91117
 31
0.0
  0
LINE
  5
22AF
100
AcDbEntity
  8
外形
  6
CONTINUOUS
100
AcDbLine
 10
121.102711
 20
40.386399
 30
0.0
 11
126.657709
 21
40.336072
 31
0.0
  0
LINE
  5
22B3
100
AcDbEntity
  8
外形
  6
CONTINUOUS
100
AcDbLine
 10
121.102711
 20
40.386399
 30
0.0
 11
120.825555
 21
37.2185
 31
0.0
  0
LINE
  5
22B4
100
AcDbEntity
  8
外形
  6
CONTINUOUS
100
AcDbLine
 10
119.202102
 20
37.360534
 30
0.0
 11
120.825555
 21
37.2185
 31
0.0
  0
LINE
  5
22B5
100
AcDbEntity
  8
外形
  6
CONTINUOUS
100
AcDbLine
 10
118.86348
 20
40.582306
 30
0.0
 11
125.871715
 21
39.969165
 31
0.0
  0
LINE
  5
22B6
100
AcDbEntity
  8
外形
  6
CONTINUOUS
100
AcDbLine
 10
118.86348
 20
41.670448
 30
0.0
 11
121.354183
 21
41.451303
 31
0.0
  0
LINE
  5
22B7
100
AcDbEntity
  8
外形
  6
CONTINUOUS
100
AcDbLine
 10
119.86197
 20
31.082306
 30
0.0
 11
118.86348
 21
40.582306
 31
0.0
  0
LINE
  5
22B8
100
AcDbEntity
  8
外形
  6
CONTINUOUS
100
AcDbLine
 10
118.86348
 20
41.670448
 30
0.0
 11
118.86348
 21
40.582306
 31
0.0
  0
SPLINE
  5
22BC
100
AcDbEntity
  8
外形
  6
CONTINUOUS
100
AcDbSpline
210
0.0
220
0.0
230
1.0
 70
     8
 71
     3
 72
    11
 73
     7
 74
     5
 42
0.0000001
 43
0.0000001
 44
0.0000000001
 40
0.0
 40
0.0
 40
0.0
 40
0.0
 40
0.0576312154333561
 40
0.1175298115688618
 40
0.2226641653694059
 40
0.2994514907619283
 40
0.2994514907619283
 40
0.2994514907619283
 40
0.2994514907619283
 10
129.863480040678
 20
40.8189701630655
 30
0.0
 10
129.8833085286379
 20
40.81721209392403
 30
0.0
 10
129.9237456153121
 20
40.81362678805517
 30
0.0
 10
129.9738549810656
 20
40.74515872659631
 30
0.0
 10
129.9354974520281
 20
40.65663065625225
 30
0.0
 10
129.8848555023019
 20
40.62377941685639
 30
0.0
 10
129.863480040678
 20
40.60991323652963
 30
0.0
 11
129.863480040678
 21
40.8189701630655
 31
0.0
 11
129.9196022179649
 21
40.80586832316001
 31
0.0
 11
129.9553339913773
 21
40.75779460697529
 31
0.0
 11
129.923725114897
 21
40.6575244156086
 31
0.0
 11
129.863480040678
 21
40.60991323652963
 31
0.0
  0
ARC
  5
22BD
100
AcDbEntity
  8
外形
  6
CONTINUOUS
100
AcDbCircle
 10
127.420567
 20
50.515989
 30
0.0
 40
10.0
100
AcDbArc
 50
265.624892
 51
284.139955
  0
ARC
  5
22BE
100
AcDbEntity
  8
外形
  6
CONTINUOUS
100
AcDbCircle
 10
127.420567
 20
50.306932
 30
0.0
 40
10.0
100
AcDbArc
 50
265.624892
 51
284.139955
  0
LINE
  5
22BF
100
AcDbEntity
  8
外形
  6
CONTINUOUS
100
AcDbLine
 10
131.679476
 20
44.55565
 30
0.0
 11
136.065121
 21
46.74256
 31
0.0
  0
LINE
  5
22C1
100
AcDbEntity
  8
外形
  6
CONTINUOUS
100
AcDbLine
 10
298.86348
 20
47.082306
 30
0.0
 11
297.86348
 21
48.082306
 31
0.0
  0
LINE
  5
22C2
100
AcDbEntity
  8
外形
  6
CONTINUOUS
100
AcDbLine
 10
297.86348
 20
48.082306
 30
0.0
 11
297.86348
 21
33.082306
 31
0.0
  0
LINE
  5
22C3
100
AcDbEntity
  8
外形
  6
CONTINUOUS
100
AcDbLine
 10
297.86348
 20
33.082306
 30
0.0
 11
298.86348
 21
34.082306
 31
0.0
  0
LINE
  5
22C4
100
AcDbEntity
  8
外形
  6
CONTINUOUS
100
AcDbLine
 10
298.86348
 20
47.082306
 30
0.0
 11
298.86348
 21
34.082306
 31
0.0
  0
MTEXT
  5
22E8
102
{ACAD_REACTORS
330
22E9
102
}
100
AcDbEntity
  8
寸法
  6
CONTINUOUS
 62
     3
100
AcDbMText
 10
82.953712
 20
122.670875
 30
0.0
 40
3.0
 41
0.0
 71
     4
 72
     1
  1
\A1;%%C20最小加工径
  0
LEADER
  5
22E9
100
AcDbEntity
  8
寸法
  6
CONTINUOUS
 62
     1
100
AcDbLeader
  3
STANDARD
 73
     0
 74
     0
 75
     1
 40
3.0
 41
26.0
 76
     3
 10
71.865088
 20
110.574964
 30
0.0
 10
79.953712
 20
120.170875
 30
0.0
 10
81.953712
 20
120.170875
 30
0.0
 77
   256
340
22E8
1001
ACAD
1000
DSTYLE
1002
{
1070
    40
1040
1.0
1002
}
  0
CIRCLE
  5
22EC
100
AcDbEntity
  8
外形
  6
CENTER
 62
     1
100
AcDbCircle
 10
65.420069
 20
102.928937
 30
0.0
 40
10.0
  0
LINE
  5
22F1
100
AcDbEntity
  8
外形
  6
CENTER
 62
     1
100
AcDbLine
 10
48.27839
 20
102.928937
 30
0.0
 11
82.561749
 21
102.928937
 31
0.0
  0
LINE
  5
22F2
100
AcDbEntity
  8
外形
  6
CENTER
 62
     1
100
AcDbLine
 10
65.420069
 20
120.070616
 30
0.0
 11
65.420069
 21
85.787257
 31
0.0
  0
LINE
  5
22F4
100
AcDbEntity
  8
外形
  6
CONTINUOUS
100
AcDbLine
 10
62.930862
 20
102.91878
 30
0.0
 11
66.146234
 21
103.313579
 31
0.0
  0
LINE
  5
22F7
100
AcDbEntity
  8
外形
  6
CONTINUOUS
100
AcDbLine
 10
62.290934
 20
93.767386
 30
0.0
 11
65.420069
 21
92.928937
 31
0.0
  0
LINE
  5
22F8
100
AcDbEntity
  8
外形
  6
CONTINUOUS
100
AcDbLine
 10
62.930862
 20
102.91878
 30
0.0
 11
62.290934
 21
93.767386
 31
0.0
  0
LINE
  5
22F9
100
AcDbEntity
  8
外形
  6
CONTINUOUS
100
AcDbLine
 10
66.399045
 20
106.928937
 30
0.0
 11
65.420069
 21
92.928937
 31
0.0
  0
ARC
  5
2326
100
AcDbEntity
  8
外形
  6
CONTINUOUS
100
AcDbCircle
 10
136.815016
 20
103.821396
 30
0.0
 40
7.949612
100
AcDbArc
 50
263.125448
 51
332.454334
  0
SPLINE
  5
2327
100
AcDbEntity
  8
外形
  6
CONTINUOUS
100
AcDbSpline
210
0.0
220
0.0
230
-1.0
 70
     8
 71
     3
 72
     9
 73
     5
 74
     3
 42
0.0000001
 43
0.0000001
 44
0.0000000001
 40
0.0
 40
0.0
 40
0.0
 40
0.0
 40
10.28496030025619
 40
16.9258283778214
 40
16.9258283778214
 40
16.9258283778214
 40
16.9258283778214
 10
125.6972925212608
 20
110.6789367916203
 30
0.0
 10
129.2997329708948
 20
110.6491222778744
 30
0.0
 10
135.2282234085594
 20
110.6000569117377
 30
0.0
 10
139.4203396644565
 20
106.5722635255579
 30
0.0
 10
141.0651212609489
 20
104.9919541945027
 30
0.0
 11
125.6972925212608
 21
110.6789367916203
 31
0.0
 11
135.8634800406779
 21
109.1203991122898
 31
0.0
 11
141.0651212609489
 21
104.9919541945027
 31
0.0
  0
ARC
  5
2341
100
AcDbEntity
  8
外形
  6
CONTINUOUS
100
AcDbCircle
 10
65.420069
 20
102.928937
 30
0.0
 40
8.0
100
AcDbArc
 50
271.002292
 51
339.635865
  0
ARC
  5
2342
100
AcDbEntity
  8
外形
  6
CONTINUOUS
100
AcDbCircle
 10
65.420069
 20
102.928937
 30
0.0
 40
8.0
100
AcDbArc
 50
20.364135
 51
104.361512
  0
ARC
  5
2346
100
AcDbEntity
  8
外形
  6
CONTINUOUS
100
AcDbCircle
 10
65.420069
 20
102.928937
 30
0.0
 40
9.5
100
AcDbArc
 50
125.334502
 51
250.852254
  0
ARC
  5
2348
100
AcDbEntity
  8
外形
  6
CONTINUOUS
100
AcDbCircle
 10
65.420069
 20
102.928937
 30
0.0
 40
7.75
100
AcDbArc
 50
14.592551
 51
90.0
  0
ARC
  5
2349
100
AcDbEntity
  8
外形
  6
CONTINUOUS
100
AcDbCircle
 10
65.420069
 20
102.928937
 30
0.0
 40
7.75
100
AcDbArc
 50
271.164088
 51
345.407449
  0
LINE
  5
234D
100
AcDbEntity
  8
外形
  6
CONTINUOUS
100
AcDbLine
 10
119.86197
 20
31.082306
 30
0.0
 11
129.86348
 21
31.082306
 31
0.0
  0
LINE
  5
2351
100
AcDbEntity
  8
外形
  6
CONTINUOUS
100
AcDbLine
 10
136.86348
 20
37.256306
 30
0.0
 11
136.86348
 21
33.082306
 31
0.0
  0
LINE
  5
2353
100
AcDbEntity
  8
外形
  6
CONTINUOUS
100
AcDbLine
 10
129.86348
 20
31.082306
 30
0.0
 11
136.019742
 21
31.620909
 31
0.0
  0
LINE
  5
2354
100
AcDbEntity
  8
外形
  6
CONTINUOUS
100
AcDbLine
 10
136.019742
 20
35.401147
 30
0.0
 11
136.019742
 21
31.620909
 31
0.0
  0
LINE
  5
2358
100
AcDbEntity
  8
外形
  6
CONTINUOUS
100
AcDbLine
 10
136.019742
 20
31.620909
 30
0.0
 11
136.86348
 21
33.082306
 31
0.0
  0
SPLINE
  5
236B
100
AcDbEntity
  8
外形
  6
CONTINUOUS
100
AcDbSpline
210
0.0
220
0.0
230
1.0
 70
     8
 71
     3
 72
     9
 73
     5
 74
     3
 42
0.0000001
 43
0.0000001
 44
0.0000000001
 40
0.0
 40
0.0
 40
0.0
 40
0.0
 40
4.347462929481243
 40
8.694925858962486
 40
8.694925858962486
 40
8.694925858962486
 40
8.694925858962486
 10
136.8634800406781
 20
43.90830620082314
 30
0.0
 10
138.2633155598744
 20
42.79963953415648
 30
0.0
 10
141.0629865982668
 20
40.58230620082315
 30
0.0
 10
138.2633155598744
 20
38.36497286748982
 30
0.0
 10
136.8634800406781
 20
37.25630620082316
 30
0.0
 11
136.8634800406781
 21
43.90830620082314
 31
0.0
 11
139.6631510790706
 21
40.58230620082315
 31
0.0
 11
136.8634800406781
 21
37.25630620082316
 31
0.0
  0
LINE
  5
236C
100
AcDbEntity
  8
外形
  6
CONTINUOUS
100
AcDbLine
 10
136.86348
 20
37.256306
 30
0.0
 11
136.019742
 21
35.401147
 31
0.0
  0
LINE
  5
236E
100
AcDbEntity
  8
外形
  6
CONTINUOUS
100
AcDbLine
 10
132.017538
 20
41.243049
 30
0.0
 11
143.86348
 21
48.082306
 31
0.0
  0
ARC
  5
2371
100
AcDbEntity
  8
外形
  6
CONTINUOUS
100
AcDbCircle
 10
127.017538
 20
49.903303
 30
0.0
 40
10.0
100
AcDbArc
 50
263.420466
 51
300.0
  0
ARC
  5
2374
100
AcDbEntity
  8
外形
  6
CONTINUOUS
100
AcDbCircle
 10
141.065121
 20
38.082306
 30
0.0
 40
10.0
100
AcDbArc
 50
90.0
 51
120.0
  0
LINE
  5
2377
100
AcDbEntity
  8
外形
  6
CONTINUOUS
100
AcDbLine
 10
136.86348
 20
43.908306
 30
0.0
 11
136.763381
 21
43.983062
 31
0.0
  0
LINE
  5
23AB
100
AcDbEntity
  8
外形
  6
CONTINUOUS
100
AcDbLine
 10
65.420069
 20
110.678937
 30
0.0
 11
59.925754
 21
110.678937
 31
0.0
  0
LINE
  5
23AC
100
AcDbEntity
  8
外形
  6
CONTINUOUS
100
AcDbLine
 10
56.803225
 20
106.928937
 30
0.0
 11
66.399045
 21
106.928937
 31
0.0
  0
SPLINE
  5
23AF
100
AcDbEntity
  8
外形
  6
CONTINUOUS
100
AcDbSpline
210
0.0
220
0.0
230
-1.0
 70
     8
 71
     3
 72
     9
 73
     5
 74
     3
 42
0.0000001
 43
0.0000001
 44
0.0000000001
 40
0.0
 40
0.0
 40
0.0
 40
0.0
 40
2.582086157045785
 40
4.61826583058278
 40
4.61826583058278
 40
4.61826583058278
 40
4.61826583058278
 10
70.29467054281886
 20
108.9539482580872
 30
0.0
 10
69.3767728498951
 20
108.9130614304613
 30
0.0
 10
67.73504004418166
 20
108.8399320972551
 30
0.0
 10
66.80784309239022
 20
107.5136781942136
 30
0.0
 10
66.39904471311528
 20
106.9289367916206
 30
0.0
 11
70.29467054281886
 21
108.9539482580872
 31
0.0
 11
67.76433861007008
 21
108.439565878413
 31
0.0
 11
66.39904471311528
 21
106.9289367916206
 31
0.0
  0
LINE
  5
23C3
100
AcDbEntity
  8
外形
  6
CONTINUOUS
100
AcDbLine
 10
69.856275
 20
106.195075
 30
0.0
 11
66.364801
 21
106.439222
 31
0.0
  0
ARC
  5
23C4
100
AcDbEntity
  8
外形
  6
CONTINUOUS
100
AcDbCircle
 10
69.821396
 20
105.696293
 30
0.0
 40
0.5
100
AcDbArc
 50
356.0
 51
86.0
  0
LINE
  5
23C5
100
AcDbEntity
  8
外形
  6
CONTINUOUS
100
AcDbLine
 10
70.320179
 20
105.661415
 30
0.0
 11
69.891198
 21
99.526709
 31
0.0
  0
SPLINE
  5
23C6
100
AcDbEntity
  8
外形
  6
CONTINUOUS
100
AcDbSpline
210
0.0
220
0.0
230
1.0
 70
     8
 71
     3
 72
     9
 73
     5
 74
     3
 42
0.0000001
 43
0.0000001
 44
0.0000000001
 40
0.0
 40
0.0
 40
0.0
 40
0.0
 40
2.928278668881448
 40
6.387060404550739
 40
6.387060404550739
 40
6.387060404550739
 40
6.387060404550739
 10
67.3892721920171
 20
99.58646894631614
 30
0.0
 10
68.02095241253539
 20
100.3450052552238
 30
0.0
 10
69.39875151604471
 20
101.9994984820892
 30
0.0
 10
69.97580706205299
 20
104.0792688270916
 30
0.0
 10
70.2882996731418
 20
105.2055258574081
 30
0.0
 11
67.3892721920171
 21
99.58646894631614
 31
0.0
 11
69.11600041431107
 21
101.9514690750602
 31
0.0
 11
70.2882996731418
 21
105.2055258574081
 31
0.0
  0
SPLINE
  5
23C7
100
AcDbEntity
  8
外形
  6
CONTINUOUS
100
AcDbSpline
210
0.0
220
0.0
230
1.0
 70
     8
 71
     3
 72
     9
 73
     5
 74
     0
 42
0.0000001
 43
0.0000001
 40
0.0
 40
0.0
 40
0.0
 40
0.0
 40
1.661962103644384
 40
3.414755074862195
 40
3.414755074862195
 40
3.414755074862195
 40
3.414755074862195
 10
67.22791494760787
 20
97.2789528459168
 30
0.0
 10
67.7795916483315
 20
97.44151884810341
 30
0.0
 10
68.91309572122733
 20
97.77553553822496
 30
0.0
 10
69.52158160783335
 20
98.78392916036967
 30
0.0
 10
69.82571152352413
 20
99.31207750873413
 30
0.0
  0
ARC
  5
23C8
100
AcDbEntity
  8
外形
  6
CONTINUOUS
100
AcDbCircle
 10
69.392416
 20
99.561587
 30
0.0
 40
0.5
100
AcDbArc
 50
330.064862
 51
356.0
  0
LINE
  5
23C9
100
AcDbEntity
  8
外形
  6
CONTINUOUS
100
AcDbLine
 10
67.389272
 20
99.586469
 30
0.0
 11
67.227915
 21
97.278953
 31
0.0
  0
LINE
  5
23CA
100
AcDbEntity
  8
外形
  6
CONTINUOUS
100
AcDbLine
 10
67.227915
 20
97.278953
 30
0.0
 11
65.731569
 21
97.383588
 31
0.0
  0
LINE
  5
23CB
100
AcDbEntity
  8
外形
  6
CONTINUOUS
100
AcDbLine
 10
67.389272
 20
99.586469
 30
0.0
 11
65.892926
 21
99.691104
 31
0.0
  0
LINE
  5
23CC
100
AcDbEntity
  8
外形
  6
CONTINUOUS
100
AcDbLine
 10
65.892926
 20
99.691104
 30
0.0
 11
66.1572
 21
100.961672
 31
0.0
  0
LINE
  5
23CD
100
AcDbEntity
  8
外形
  6
CONTINUOUS
100
AcDbLine
 10
66.1572
 20
100.961672
 30
0.0
 11
66.680921
 21
100.92505
 31
0.0
  0
LINE
  5
23CE
100
AcDbEntity
  8
外形
  6
CONTINUOUS
100
AcDbLine
 10
66.96146
 20
104.93694
 30
0.0
 11
66.680921
 21
100.92505
 31
0.0
  0
ARC
  5
23CF
100
AcDbEntity
  8
外形
  6
CONTINUOUS
100
AcDbCircle
 10
66.462678
 20
104.971818
 30
0.0
 40
0.5
100
AcDbArc
 50
356.0
 51
86.0
  0
LINE
  5
23D4
100
AcDbEntity
  8
外形
  6
CONTINUOUS
100
AcDbLine
 10
72.920069
 20
105.712819
 30
0.0
 11
72.920069
 21
100.145055
 31
0.0
  0
SPLINE
  5
23E7
100
AcDbEntity
  8
外形
  6
CONTINUOUS
100
AcDbSpline
210
0.0
220
0.0
230
-1.0
 70
     8
 71
     3
 72
     9
 73
     5
 74
     3
 42
0.0000001
 43
0.0000001
 44
0.0000000001
 40
0.0
 40
0.0
 40
0.0
 40
0.0
 40
3.906459661296648
 40
8.190530866540861
 40
8.190530866540861
 40
8.190530866540861
 40
8.190530866540861
 10
122.8471884709254
 20
42.28696480130627
 30
0.0
 10
124.0800843561787
 20
42.71241814695229
 30
0.0
 10
126.6650519941261
 20
43.60445059113994
 30
0.0
 10
129.3578365567757
 20
44.08350230034602
 30
0.0
 10
130.766302136693
 20
44.33407111776134
 30
0.0
 11
122.8471884709254
 21
42.28696480130627
 31
0.0
 11
126.5704022849081
 21
43.46938011781162
 31
0.0
 11
130.766302136693
 21
44.33407111776134
 31
0.0
  0
SPLINE
  5
23E8
100
AcDbEntity
  8
外形
  6
CONTINUOUS
100
AcDbSpline
210
0.0
220
0.0
230
-1.0
 70
     8
 71
     3
 72
     9
 73
     5
 74
     3
 42
0.0000001
 43
0.0000001
 44
0.0000000001
 40
0.0
 40
0.0
 40
0.0
 40
0.0
 40
3.352738456494368
 40
6.645027440649494
 40
6.645027440649494
 40
6.645027440649494
 40
6.645027440649494
 10
121.4284819171209
 20
42.66914063653817
 30
0.0
 10
122.4221511074925
 20
43.19319303459389
 30
0.0
 10
124.3915737518856
 20
44.2318492288082
 30
0.0
 10
126.5673824993804
 20
44.70321268836535
 30
0.0
 10
127.6453902630784
 20
44.93675043358821
 30
0.0
 11
121.4284819171209
 21
42.66914063653817
 31
0.0
 11
124.4620290257289
 21
44.09688259414553
 31
0.0
 11
127.6453902630784
 21
44.93675043358821
 31
0.0
  0
LINE
  5
23E9
100
AcDbEntity
  8
外形
  6
CONTINUOUS
100
AcDbLine
 10
121.337958
 20
41.185358
 30
0.0
 11
121.428482
 21
42.669141
 31
0.0
  0
LINE
  5
23EA
100
AcDbEntity
  8
外形
  6
CONTINUOUS
100
AcDbLine
 10
122.847188
 20
42.286965
 30
0.0
 11
122.756664
 21
40.803182
 31
0.0
  0
LINE
  5
23EB
100
AcDbEntity
  8
外形
  6
CONTINUOUS
100
AcDbLine
 10
121.428482
 20
42.669141
 30
0.0
 11
122.847188
 21
42.286965
 31
0.0
  0
LINE
  5
23EC
100
AcDbEntity
  8
外形
  6
CONTINUOUS
100
AcDbLine
 10
121.337958
 20
41.185358
 30
0.0
 11
122.756664
 21
40.803182
 31
0.0
  0
LINE
  5
23ED
100
AcDbEntity
  8
外形
  6
CONTINUOUS
100
AcDbLine
 10
122.756664
 20
40.803182
 30
0.0
 11
124.108615
 21
40.684902
 31
0.0
  0
LINE
  5
23EE
100
AcDbEntity
  8
外形
  6
CONTINUOUS
100
AcDbLine
 10
124.151257
 20
41.383845
 30
0.0
 11
127.419655
 21
41.097897
 31
0.0
  0
LINE
  5
23EF
100
AcDbEntity
  8
外形
  6
CONTINUOUS
100
AcDbLine
 10
124.151257
 20
41.383845
 30
0.0
 11
124.108615
 21
40.684902
 31
0.0
  0
SPLINE
  5
23F0
100
AcDbEntity
  8
外形
  6
CONTINUOUS
100
AcDbSpline
210
0.0
220
0.0
230
1.0
 70
     8
 71
     3
 72
    11
 73
     7
 74
     5
 42
0.0000001
 43
0.0000001
 44
0.0000000001
 40
0.0
 40
0.0
 40
0.0
 40
0.0
 40
2.058006896422941
 40
4.858514597912602
 40
5.833324318789988
 40
6.973723415930797
 40
6.973723415930797
 40
6.973723415930797
 40
6.973723415930797
 10
133.3236594598894
 20
44.27514879690768
 30
0.0
 10
132.8978849810111
 20
43.7299345135626
 30
0.0
 10
131.892722401311
 20
42.44280007332983
 30
0.0
 10
130.0944053395507
 20
41.5404263649307
 30
0.0
 10
128.511860568917
 20
41.08663366908401
 30
0.0
 10
127.8022409782773
 20
41.09395160850645
 30
0.0
 10
127.4196548555336
 20
41.0978970211008
 30
0.0
 11
133.3236594598894
 21
44.27514879690768
 31
0.0
 11
131.9579439132967
 21
42.73559904729927
 31
0.0
 11
129.5032116189789
 21
41.387588383641
 31
0.0
 11
128.5590829803117
 21
41.14494645493675
 31
0.0
 11
127.4196548555336
 21
41.0978970211008
 31
0.0
  0
SPLINE
  5
23F1
100
AcDbEntity
  8
外形
  6
CONTINUOUS
100
AcDbSpline
210
0.0
220
0.0
230
1.0
 70
     8
 71
     3
 72
    10
 73
     6
 74
     4
 42
0.0000001
 43
0.0000001
 44
0.0000000001
 40
0.0
 40
0.0
 40
0.0
 40
0.0
 40
3.478229672647576
 40
5.720025979796161
 40
8.278062007376796
 40
8.278062007376796
 40
8.278062007376796
 40
8.278062007376796
 10
127.6453902630784
 20
44.93675043358821
 30
0.0
 10
128.6320157431203
 20
44.87550984770735
 30
0.0
 10
130.2545432669778
 20
44.77479834351567
 30
0.0
 10
134.578132173816
 20
44.14431310997817
 30
0.0
 10
132.0915227149685
 20
44.26809986134177
 30
0.0
 10
130.7663021366931
 20
44.33407111776134
 30
0.0
 11
127.6453902630784
 21
44.93675043358821
 31
0.0
 11
131.1099943690432
 21
44.62917923107073
 31
0.0
 11
133.3236594598894
 21
44.27514879690774
 31
0.0
 11
130.7663021366931
 21
44.33407111776134
 31
0.0
  0
LINE
  5
23F2
100
AcDbEntity
  8
外形
  6
CONTINUOUS
100
AcDbLine
 10
127.64539
 20
44.93675
 30
0.0
 11
130.766302
 21
44.334071
 31
0.0
  0
LINE
  5
2413
100
AcDbEntity
  8
外形
  6
CONTINUOUS
100
AcDbLine
 10
121.345688
 20
41.31207
 30
0.0
 11
118.86348
 21
41.670448
 31
0.0
  0
TEXT
  5
2414
100
AcDbEntity
  8
外形
  6
CONTINUOUS
 62
     2
100
AcDbText
 10
140.542785
 20
2.600252
 30
0.0
 40
6.0
  1
S16Q-CTFP Ｒ11
100
AcDbText
  0
DIMENSION
  5
27E4
100
AcDbEntity
  8
寸法
  6
CONTINUOUS
100
AcDbDimension
  2
*D2
 10
107.300202
 20
102.928937
 30
0.0
 11
104.800202
 21
97.928937
 31
0.0
 12
-31.029319
 22
122.558966
 32
0.0
 70
    32
  3
STANDARD
100
AcDbAlignedDimension
 13
119.26348
 23
92.928937
 33
0.0
 14
112.248198
 24
102.928937
 34
0.0
 50
90.0
100
AcDbRotatedDimension
1001
ACAD
1000
DSTYLE
1002
{
1070
    40
1040
1.0
1070
   271
1070
     3
1002
}
  0
DIMENSION
  5
2850
100
AcDbEntity
  8
寸法
  6
CONTINUOUS
100
AcDbDimension
  2
*D3
 10
214.404193
 20
76.305983
 30
0.0
 11
221.904193
 21
78.805983
 31
0.0
 12
-31.029319
 22
122.558966
 32
0.0
 70
    32
  3
STANDARD
100
AcDbAlignedDimension
 13
229.404193
 23
100.145055
 33
0.0
 14
214.404193
 24
100.145055
 34
0.0
100
AcDbRotatedDimension
1001
ACAD
1000
DSTYLE
1002
{
1070
    40
1040
1.0
1002
}
  0
DIMENSION
  5
2851
100
AcDbEntity
  8
寸法
  6
CONTINUOUS
100
AcDbDimension
  2
*D4
 10
225.827685
 20
95.957122
 30
0.0
 11
213.56677
 21
117.744044
 31
0.0
 12
-31.029319
 22
122.558966
 32
0.0
 70
   163
  3
STANDARD
100
AcDbDiametricDimension
 15
217.9807
 25
109.900752
 35
0.0
 40
0.0
1001
ACAD
1000
DSTYLE
1002
{
1070
    40
1040
1.0
1070
   271
1070
     1
1002
}
  0
DIMENSION
  5
28AC
100
AcDbEntity
  8
寸法
  6
CONTINUOUS
100
AcDbDimension
  2
*D5
 10
298.86348
 20
62.286313
 30
0.0
 11
208.86348
 21
64.786313
 31
0.0
 12
-31.029319
 22
122.558966
 32
0.0
 70
    32
  3
STANDARD
100
AcDbAlignedDimension
 13
118.86348
 23
93.328937
 33
0.0
 14
298.86348
 24
95.928937
 34
0.0
100
AcDbRotatedDimension
1001
ACAD
1000
DSTYLE
1002
{
1070
    40
1040
1.0
1002
}
  0
DIMENSION
  5
2954
100
AcDbEntity
  8
参考
  6
CONTINUOUS
100
AcDbDimension
  2
*D6
 10
65.420069
 20
92.928937
 30
0.0
 11
57.333542
 21
83.346258
 31
0.0
 12
-31.029319
 22
122.558966
 32
0.0
 70
    34
 51
274.0
  3
STANDARD
100
AcDb2LineAngularDimension
 13
65.420069
 23
120.070616
 33
0.0
 14
65.420069
 24
85.787257
 34
0.0
 15
66.399045
 25
106.928937
 35
0.0
 16
65.087827
 26
78.654447
 36
0.0
1001
ACAD
1000
DSTYLE
1002
{
1070
    40
1040
1.0
1070
   271
1070
     3
1002
}
  0
LINE
  5
29BF
100
AcDbEntity
  8
外形
  6
CONTINUOUS
100
AcDbLine
 10
145.86348
 20
100.865919
 30
0.0
 11
146.11348
 21
100.145055
 31
0.0
  0
LINE
  5
29C0
100
AcDbEntity
  8
外形
  6
CONTINUOUS
100
AcDbLine
 10
145.86348
 20
100.865919
 30
0.0
 11
143.447289
 21
100.865919
 31
0.0
  0
LINE
  5
29C1
100
AcDbEntity
  8
寸法
  6
CONTINUOUS
100
AcDbLine
 10
119.26348
 20
92.928937
 30
0.0
 11
118.688857
 21
92.928937
 31
0.0
  0
DIMENSION
  5
29D0
100
AcDbEntity
  8
寸法
  6
CONTINUOUS
100
AcDbDimension
  2
*D7
 10
118.688857
 20
92.928937
 30
0.0
 11
98.070405
 21
113.722012
 31
0.0
 70
    34
  3
STANDARD
100
AcDb2LineAngularDimension
 13
118.86348
 23
102.943296
 33
0.0
 14
118.86348
 24
93.328937
 34
0.0
 15
119.26348
 25
92.928937
 35
0.0
 16
105.410556
 26
116.230085
 36
0.0
1001
ACAD
1000
DSTYLE
1002
{
1070
    40
1040
1.0
1070
   271
1070
     3
1002
}
  0
LINE
  5
29D1
100
AcDbEntity
  8
外形
  6
CONTINUOUS
100
AcDbLine
 10
122.986654
 20
101.255601
 30
0.0
 11
119.46348
 21
103.289706
 31
0.0
  0
LINE
  5
29D2
100
AcDbEntity
  8
外形
  6
CONTINUOUS
100
AcDbLine
 10
121.428482
 20
99.645967
 30
0.0
 11
127.554866
 21
105.146076
 31
0.0
  0
LINE
  5
29D3
100
AcDbEntity
  8
外形
  6
CONTINUOUS
100
AcDbLine
 10
121.337958
 20
99.802759
 30
0.0
 11
122.689908
 21
101.063331
 31
0.0
  0
LINE
  5
29D4
100
AcDbEntity
  8
外形
  6
CONTINUOUS
100
AcDbLine
 10
121.337958
 20
99.802759
 30
0.0
 11
122.756664
 21
97.345488
 31
0.0
  0
LINE
  5
29D5
100
AcDbEntity
  8
外形
  6
CONTINUOUS
100
AcDbLine
 10
122.721592
 20
101.008454
 30
0.0
 11
127.539359
 21
105.500585
 31
0.0
  0
LINE
  5
29D6
100
AcDbEntity
  8
外形
  6
CONTINUOUS
100
AcDbLine
 10
122.689908
 20
101.063331
 30
0.0
 11
122.721592
 21
101.008454
 31
0.0
  0
ELLIPSE
  5
29D7
100
AcDbEntity
  8
外形
  6
CONTINUOUS
100
AcDbEllipse
 10
129.833135
 20
103.08868
 30
0.0
 11
-3.4
 21
0.0
 31
0.0
210
0.0
220
0.0
230
1.0
 40
0.994522
 41
4.113601594284033
 42
5.656712470687713
  0
ELLIPSE
  5
29D8
100
AcDbEntity
  8
外形
  6
CONTINUOUS
100
AcDbEllipse
 10
129.833135
 20
102.636116
 30
0.0
 11
-3.4
 21
0.0
 31
0.0
210
0.0
220
0.0
230
1.0
 40
0.994522
 41
1.821242339014984
 42
5.446704426637936
  0
ELLIPSE
  5
29D9
100
AcDbEntity
  8
外形
  6
CONTINUOUS
100
AcDbEllipse
 10
129.833135
 20
102.879623
 30
0.0
 11
-3.4
 21
0.0
 31
0.0
210
0.0
220
0.0
230
1.0
 40
0.994522
 41
3.260918927497176
 42
4.113601594284022
  0
LINE
  5
29DA
100
AcDbEntity
  8
外形
  6
CONTINUOUS
100
AcDbLine
 10
131.749515
 20
105.881762
 30
0.0
 11
131.749515
 21
105.672705
 31
0.0
  0
LINE
  5
29DB
100
AcDbEntity
  8
外形
  6
CONTINUOUS
100
AcDbLine
 10
131.749515
 20
105.672705
 30
0.0
 11
132.250827
 21
105.962137
 31
0.0
  0
LINE
  5
29DC
100
AcDbEntity
  8
外形
  6
CONTINUOUS
100
AcDbLine
 10
131.749515
 20
105.881762
 30
0.0
 11
132.250827
 21
106.171194
 31
0.0
  0
LINE
  5
29DD
100
AcDbEntity
  8
外形
  6
CONTINUOUS
100
AcDbLine
 10
134.350827
 20
104.958759
 30
0.0
 11
134.350827
 21
104.749702
 31
0.0
  0
ARC
  5
29DE
100
AcDbEntity
  8
外形
  6
CONTINUOUS
100
AcDbCircle
 10
132.950827
 20
104.749702
 30
0.0
 40
1.4
100
AcDbArc
 50
300.0
 51
120.0
  0
ARC
  5
29DF
100
AcDbEntity
  8
外形
  6
CONTINUOUS
100
AcDbCircle
 10
132.950827
 20
104.958759
 30
0.0
 40
1.4
100
AcDbArc
 50
0.0
 51
120.0
  0
LINE
  5
29E0
100
AcDbEntity
  8
外形
  6
CONTINUOUS
100
AcDbLine
 10
133.208958
 20
103.282153
 30
0.0
 11
133.650827
 21
103.537266
 31
0.0
  0
LINE
  5
29E1
100
AcDbEntity
  8
外形
  6
CONTINUOUS
100
AcDbLine
 10
133.233135
 20
103.08868
 30
0.0
 11
133.233135
 21
102.636116
 31
0.0
  0
ELLIPSE
  5
29E2
100
AcDbEntity
  8
外形
  6
CONTINUOUS
100
AcDbEllipse
 10
129.833135
 20
103.08868
 30
0.0
 11
-3.4
 21
0.0
 31
0.0
210
0.0
220
0.0
230
1.0
 40
0.994522
 41
3.141592653589793
 42
3.20191861130495
  0
LINE
  5
29E3
100
AcDbEntity
  8
外形
  6
CONTINUOUS
100
AcDbLine
 10
122.756664
 20
97.345488
 30
0.0
 11
130.675778
 21
99.360234
 31
0.0
  0
ELLIPSE
  5
29E4
100
AcDbEntity
  8
外形
  6
CONTINUOUS
100
AcDbEllipse
 10
129.833135
 20
102.636116
 30
0.0
 11
-2.25
 21
0.0
 31
0.0
210
0.0
220
0.0
230
1.0
 40
0.994522
 41
0.0
 42
6.283185307179586
  0
ELLIPSE
  5
29E5
100
AcDbEntity
  8
外形
  6
CONTINUOUS
100
AcDbEllipse
 10
129.833135
 20
102.636116
 30
0.0
 11
-2.5
 21
0.0
 31
0.0
210
0.0
220
0.0
230
1.0
 40
0.994522
 41
0.0
 42
6.283185307179586
  0
LINE
  5
29E6
100
AcDbEntity
  8
外形
  6
CONTINUOUS
100
AcDbLine
 10
146.11348
 20
33.082306
 30
0.0
 11
146.11348
 21
48.082306
 31
0.0
  0
LINE
  5
29E7
100
AcDbEntity
  8
外形
  6
CONTINUOUS
100
AcDbLine
 10
145.86348
 20
33.082306
 30
0.0
 11
145.86348
 21
48.082306
 31
0.0
  0
DIMENSION
  5
29F6
100
AcDbEntity
  8
寸法
  6
CONTINUOUS
100
AcDbDimension
  2
*D8
 10
136.86348
 20
19.145882
 30
0.0
 11
127.86348
 21
21.645882
 31
0.0
 70
    32
  3
STANDARD
100
AcDbAlignedDimension
 13
118.86348
 23
40.582306
 33
0.0
 14
136.86348
 24
33.082306
 34
0.0
100
AcDbRotatedDimension
1001
ACAD
1000
DSTYLE
1002
{
1070
    40
1040
1.0
1070
   271
1070
     3
1002
}
  0
ENDSEC
  0
SECTION
  2
OBJECTS
  0
DICTIONARY
  5
1E
100
AcDbDictionary
  3
ACAD_GROUP
350
1C
  3
ACAD_MLINESTYLE
350
1D
  3
ACDBVARIABLEDICTIONARY
350
147A
  3
DRAWINGVARIABLESDICT
350
C58
  0
DICTIONARY
  5
38
100
AcDbDictionary
280
     1
  3
ACAD_XREC_ROUNDTRIP
360
39
  0
DICTIONARY
  5
22
100
AcDbDictionary
280
     1
  3
ACAD_XREC_ROUNDTRIP
360
23
  0
DICTIONARY
  5
3
100
AcDbDictionary
280
     1
  3
ACAD_LAYOUTSELFREF
360
4
  0
DICTIONARY
  5
A
100
AcDbDictionary
280
     1
  3
ACAD_LAYOUTSELFREF
360
B
  0
DICTIONARY
  5
1C
102
{ACAD_REACTORS
330
1E
102
}
100
AcDbDictionary
  0
DICTIONARY
  5
1D
102
{ACAD_REACTORS
330
1E
102
}
100
AcDbDictionary
  3
STANDARD
350
20
  0
DICTIONARY
  5
147A
102
{ACAD_REACTORS
330
1E
102
}
100
AcDbDictionary
  3
SORTENTS
350
147B
  0
DICTIONARY
  5
C58
102
{ACAD_REACTORS
330
1E
102
}
100
AcDbDictionary
1001
DRAWINGVARIABLESXDATA
1000
POLARMODE
1000
0
  0
XRECORD
  5
39
102
{ACAD_REACTORS
330
38
102
}
100
AcDbXrecord
102
PLOTBIT
280
     0
  0
XRECORD
  5
23
102
{ACAD_REACTORS
330
22
102
}
100
AcDbXrecord
102
ACADR14ROUNDTRIP
1000
DSTYLE
1002
{
1070
   341
340
0
1070
   343
340
0
1070
   344
340
0
1002
}
  0
XRECORD
  5
4
102
{ACAD_REACTORS
330
3
102
}
100
AcDbXrecord
340
2
  0
XRECORD
  5
B
102
{ACAD_REACTORS
330
A
102
}
100
AcDbXrecord
340
9
  0
MLINESTYLE
  5
20
102
{ACAD_REACTORS
330
1D
102
}
100
AcDbMlineStyle
  2
STANDARD
 70
     0
  3

 62
     0
 51
90.0
 52
90.0
 71
     2
 49
0.5
 62
   256
  6
BYLAYER
 49
-0.5
 62
   256
  6
BYLAYER
  0
DICTIONARYVAR
  5
147B
102
{ACAD_REACTORS
330
147A
102
}
100
DictionaryVariables
280
     0
  1
96
  0
ENDSEC
  0
EOF
