  0
SECTION
  2
HEADER
  9
$ACADVER
  1
AC1014
  9
$ACADMAINTVER
 70
     0
  9
$DWGCODEPAGE
  3
ANSI_932
  9
$INSBASE
 10
324.536168
 20
-75.792007
 30
0.0
  9
$EXTMIN
 10
313.130841
 20
-75.289466
 30
0.0
  9
$EXTMAX
 10
624.724893
 20
49.876508
 30
0.0
  9
$LIMMIN
 10
-587.250952
 20
327.890188
  9
$LIMMAX
 10
600.749048
 20
957.890188
  9
$ORTHOMODE
 70
     1
  9
$REGENMODE
 70
     1
  9
$FILLMODE
 70
     1
  9
$QTEXTMODE
 70
     0
  9
$MIRRTEXT
 70
     1
  9
$DRAGMODE
 70
     2
  9
$LTSCALE
 40
5.0
  9
$OSMODE
 70
   303
  9
$ATTMODE
 70
     1
  9
$TEXTSIZE
 40
5.0
  9
$TRACEWID
 40
0.05
  9
$TEXTSTYLE
  7
STANDARD
  9
$CLAYER
  8
外形
  9
$CELTYPE
  6
CONTINUOUS
  9
$CECOLOR
 62
     3
  9
$CELTSCALE
 40
1.0
  9
$DELOBJ
 70
     1
  9
$DISPSILH
 70
     0
  9
$DIMSCALE
 40
1.0
  9
$DIMASZ
 40
2.0
  9
$DIMEXO
 40
1.0
  9
$DIMDLI
 40
8.0
  9
$DIMRND
 40
0.0
  9
$DIMDLE
 40
0.0
  9
$DIMEXE
 40
2.0
  9
$DIMTP
 40
0.0
  9
$DIMTM
 40
0.0
  9
$DIMTXT
 40
2.0
  9
$DIMCEN
 40
-1.0
  9
$DIMTSZ
 40
0.0
  9
$DIMTOL
 70
     0
  9
$DIMLIM
 70
     0
  9
$DIMTIH
 70
     0
  9
$DIMTOH
 70
     0
  9
$DIMSE1
 70
     0
  9
$DIMSE2
 70
     0
  9
$DIMTAD
 70
     1
  9
$DIMZIN
 70
     8
  9
$DIMBLK
  1

  9
$DIMASO
 70
     1
  9
$DIMSHO
 70
     1
  9
$DIMPOST
  1

  9
$DIMAPOST
  1

  9
$DIMALT
 70
     0
  9
$DIMALTD
 70
     2
  9
$DIMALTF
 40
25.4
  9
$DIMLFAC
 40
1.0
  9
$DIMTOFL
 70
     1
  9
$DIMTVP
 40
0.0
  9
$DIMTIX
 70
     0
  9
$DIMSOXD
 70
     0
  9
$DIMSAH
 70
     1
  9
$DIMBLK1
  1
_DOTSMALL
  9
$DIMBLK2
  1
_DOTSMALL
  9
$DIMSTYLE
  2
参考寸法
  9
$DIMCLRD
 70
     2
  9
$DIMCLRE
 70
     2
  9
$DIMCLRT
 70
     2
  9
$DIMTFAC
 40
1.0
  9
$DIMGAP
 40
1.0
  9
$DIMJUST
 70
     0
  9
$DIMSD1
 70
     0
  9
$DIMSD2
 70
     0
  9
$DIMTOLJ
 70
     1
  9
$DIMTZIN
 70
     8
  9
$DIMALTZ
 70
     0
  9
$DIMALTTZ
 70
     0
  9
$DIMFIT
 70
     3
  9
$DIMUPT
 70
     0
  9
$DIMUNIT
 70
     2
  9
$DIMDEC
 70
     3
  9
$DIMTDEC
 70
     2
  9
$DIMALTU
 70
     2
  9
$DIMALTTD
 70
     2
  9
$DIMTXSTY
  7
STANDARD
  9
$DIMAUNIT
 70
     0
  9
$LUNITS
 70
     2
  9
$LUPREC
 70
     3
  9
$SKETCHINC
 40
0.1
  9
$FILLETRAD
 40
4.0
  9
$AUNITS
 70
     0
  9
$AUPREC
 70
     3
  9
$MENU
  1
acad
  9
$ELEVATION
 40
0.0
  9
$PELEVATION
 40
0.0
  9
$THICKNESS
 40
0.0
  9
$LIMCHECK
 70
     0
  9
$BLIPMODE
 70
     0
  9
$CHAMFERA
 40
0.0
  9
$CHAMFERB
 40
0.0
  9
$CHAMFERC
 40
0.0
  9
$CHAMFERD
 40
0.0
  9
$SKPOLY
 70
     0
  9
$TDCREATE
 40
2450751.535399305
  9
$TDUPDATE
 40
2451993.441446759
  9
$TDINDWG
 40
3.2877379630
  9
$TDUSRTIMER
 40
3.2877379630
  9
$USRTIMER
 70
     1
  9
$ANGBASE
 50
0.0
  9
$ANGDIR
 70
     0
  9
$PDMODE
 70
    32
  9
$PDSIZE
 40
0.0
  9
$PLINEWID
 40
0.0
  9
$COORDS
 70
     2
  9
$SPLFRAME
 70
     0
  9
$SPLINETYPE
 70
     5
  9
$SPLINESEGS
 70
     8
  9
$ATTDIA
 70
     0
  9
$ATTREQ
 70
     1
  9
$HANDLING
 70
     1
  9
$HANDSEED
  5
387
  9
$SURFTAB1
 70
     6
  9
$SURFTAB2
 70
     6
  9
$SURFTYPE
 70
     6
  9
$SURFU
 70
     6
  9
$SURFV
 70
     6
  9
$UCSNAME
  2

  9
$UCSORG
 10
0.0
 20
0.0
 30
0.0
  9
$UCSXDIR
 10
1.0
 20
0.0
 30
0.0
  9
$UCSYDIR
 10
0.0
 20
1.0
 30
0.0
  9
$PUCSNAME
  2

  9
$PUCSORG
 10
0.0
 20
0.0
 30
0.0
  9
$PUCSXDIR
 10
1.0
 20
0.0
 30
0.0
  9
$PUCSYDIR
 10
0.0
 20
1.0
 30
0.0
  9
$USERI1
 70
     0
  9
$USERI2
 70
     0
  9
$USERI3
 70
     0
  9
$USERI4
 70
     0
  9
$USERI5
 70
     0
  9
$USERR1
 40
0.0
  9
$USERR2
 40
0.0
  9
$USERR3
 40
0.0
  9
$USERR4
 40
0.0
  9
$USERR5
 40
0.0
  9
$WORLDVIEW
 70
     1
  9
$SHADEDGE
 70
     3
  9
$SHADEDIF
 70
    70
  9
$TILEMODE
 70
     1
  9
$MAXACTVP
 70
    16
  9
$PINSBASE
 10
0.0
 20
0.0
 30
0.0
  9
$PLIMCHECK
 70
     0
  9
$PEXTMIN
 10
1.000000E+20
 20
1.000000E+20
 30
1.000000E+20
  9
$PEXTMAX
 10
-1.000000E+20
 20
-1.000000E+20
 30
-1.000000E+20
  9
$PLIMMIN
 10
0.0
 20
0.0
  9
$PLIMMAX
 10
12.0
 20
9.0
  9
$UNITMODE
 70
     0
  9
$VISRETAIN
 70
     0
  9
$PLINEGEN
 70
     0
  9
$PSLTSCALE
 70
     1
  9
$TREEDEPTH
 70
  3020
  9
$PICKSTYLE
 70
     1
  9
$CMLSTYLE
  2
STANDARD
  9
$CMLJUST
 70
     0
  9
$CMLSCALE
 40
1.0
  9
$PROXYGRAPHICS
 70
     1
  9
$MEASUREMENT
 70
     0
  0
ENDSEC
  0
SECTION
  2
CLASSES
  0
CLASS
  1
LWPOLYLINE
  2
AcDbPolyline
  3
"AutoCAD"
 90
        0
280
     0
281
     1
  0
CLASS
  1
ACDBDICTIONARYWDFLT
  2
AcDbDictionaryWithDefault
  3
AutoCAD 2000
 90
        0
280
     1
281
     0
  0
CLASS
  1
ACDBPLACEHOLDER
  2
AcDbPlaceHolder
  3
AutoCAD 2000
 90
        0
280
     1
281
     0
  0
CLASS
  1
LAYOUT
  2
AcDbLayout
  3
AutoCAD 2000
 90
        0
280
     1
281
     0
  0
CLASS
  1
LONG_TRANSACTION
  2
AcDbLongTransaction
  3
AutoCAD 2000
 90
        0
280
     1
281
     0
  0
CLASS
  1
LWPOLYLINE
  2
AcDbPolyline
  3
"AutoCAD"
 90
        0
280
     0
281
     1
  0
CLASS
  1
HATCH
  2
AcDbHatch
  3
"ACAD_SEDONA"
 90
        0
280
     0
281
     1
  0
CLASS
  1
XRECORD
  2
AcDbXrecord
  3
"<Built In>"
 90
        0
280
     0
281
     0
  0
CLASS
  1
DICTIONARYVAR
  2
AcDbDictionaryVar
  3
"AutoCAD"
 90
        0
280
     0
281
     0
  0
ENDSEC
  0
SECTION
  2
TABLES
  0
TABLE
  2
VPORT
  5
16
100
AcDbSymbolTable
 70
     1
  0
VPORT
  5
382
100
AcDbSymbolTableRecord
100
AcDbViewportTableRecord
  2
*ACTIVE
 70
     0
 10
0.0
 20
0.0
 11
1.0
 21
1.0
 12
471.931612
 22
-8.684473
 13
0.0
 23
0.0
 14
1.0
 24
1.0
 15
10.0
 25
10.0
 16
0.0
 26
0.0
 36
1.0
 17
0.0
 27
0.0
 37
0.0
 40
222.705823
 41
1.710425
 42
50.0
 43
0.0
 44
0.0
 50
0.0
 51
0.0
 71
     0
 72
   100
 73
     1
 74
     1
 75
     0
 76
     0
 77
     0
 78
     2
  0
ENDTAB
  0
TABLE
  2
LTYPE
  5
11
100
AcDbSymbolTable
 70
     2
  0
LTYPE
  5
12
100
AcDbSymbolTableRecord
100
AcDbLinetypeTableRecord
  2
BYBLOCK
 70
     0
  3

 72
    65
 73
     0
 40
0.0
  0
LTYPE
  5
13
100
AcDbSymbolTableRecord
100
AcDbLinetypeTableRecord
  2
BYLAYER
 70
     0
  3

 72
    65
 73
     0
 40
0.0
  0
LTYPE
  5
7
100
AcDbSymbolTableRecord
100
AcDbLinetypeTableRecord
  2
CONTINUOUS
 70
     0
  3
Solid line
 72
    65
 73
     0
 40
0.0
  0
LTYPE
  5
4D
100
AcDbSymbolTableRecord
100
AcDbLinetypeTableRecord
  2
CENTER
 70
     0
  3
Center ____ _ ____ _ ____ _ ____ _ ____ _ ____
 72
    65
 73
     4
 40
2.0
 49
1.25
 74
     0
 49
-0.25
 74
     0
 49
0.25
 74
     0
 49
-0.25
 74
     0
  0
ENDTAB
  0
TABLE
  2
LAYER
  5
E
100
AcDbSymbolTable
 70
     4
  0
LAYER
  5
6
100
AcDbSymbolTableRecord
100
AcDbLayerTableRecord
  2
0
 70
     0
 62
     7
  6
CONTINUOUS
  0
LAYER
  5
2C
100
AcDbSymbolTableRecord
100
AcDbLayerTableRecord
  2
外形
 70
     0
 62
     4
  6
CONTINUOUS
  0
LAYER
  5
37
102
{ACAD_XDICTIONARY
360
38
102
}
100
AcDbSymbolTableRecord
100
AcDbLayerTableRecord
  2
DEFPOINTS
 70
     0
 62
     7
  6
CONTINUOUS
  0
LAYER
  5
52
100
AcDbSymbolTableRecord
100
AcDbLayerTableRecord
  2
寸法
 70
     0
 62
     1
  6
CONTINUOUS
  0
ENDTAB
  0
TABLE
  2
STYLE
  5
F
100
AcDbSymbolTable
 70
     1
  0
STYLE
  5
10
100
AcDbSymbolTableRecord
100
AcDbTextStyleTableRecord
  2
STANDARD
 70
     0
 40
0.0
 41
1.0
 50
0.0
 71
     0
 42
5.0
  3
MONOTXT
  4
BIGFONT
  0
ENDTAB
  0
TABLE
  2
VIEW
  5
14
100
AcDbSymbolTable
 70
     0
  0
ENDTAB
  0
TABLE
  2
UCS
  5
15
100
AcDbSymbolTable
 70
     0
  0
ENDTAB
  0
TABLE
  2
APPID
  5
18
100
AcDbSymbolTable
 70
     1
  0
APPID
  5
19
100
AcDbSymbolTableRecord
100
AcDbRegAppTableRecord
  2
ACAD
 70
     0
  0
ENDTAB
  0
TABLE
  2
DIMSTYLE
  5
1A
100
AcDbSymbolTable
 70
     2
  0
DIMSTYLE
105
53
102
{ACAD_XDICTIONARY
360
54
102
}
100
AcDbSymbolTableRecord
100
AcDbDimStyleTableRecord
  2
STANDARD
 70
     0
  3

  4

  5

  6
_OPEN30
  7
_OPEN30
 40
0.0
 41
2.0
 42
1.0
 43
8.0
 44
2.0
 45
0.0
 46
0.0
 47
0.0
 48
0.0
140
3.0
141
-1.0
142
0.0
143
25.4
144
1.0
145
0.0
146
1.0
147
1.0
 71
     0
 72
     0
 73
     0
 74
     0
 75
     0
 76
     0
 77
     1
 78
     8
170
     0
171
     2
172
     1
173
     1
174
     0
175
     0
176
     1
177
     1
178
     3
270
     2
271
     2
272
     2
273
     2
274
     2
340
10
275
     0
280
     0
281
     0
282
     0
283
     1
284
     8
285
     0
286
     0
287
     3
288
     0
  0
DIMSTYLE
105
21
100
AcDbSymbolTableRecord
100
AcDbDimStyleTableRecord
  2
参考寸法
 70
     0
  3

  4

  5

  6
_DOTSMALL
  7
_DOTSMALL
 40
1.0
 41
2.0
 42
1.0
 43
8.0
 44
2.0
 45
0.0
 46
0.0
 47
0.0
 48
0.0
140
2.0
141
-1.0
142
0.0
143
25.4
144
1.0
145
0.0
146
1.0
147
1.0
 71
     0
 72
     0
 73
     0
 74
     0
 75
     0
 76
     0
 77
     1
 78
     8
170
     0
171
     2
172
     1
173
     1
174
     0
175
     0
176
     2
177
     2
178
     2
270
     2
271
     3
272
     2
273
     2
274
     2
340
10
275
     0
280
     0
281
     0
282
     0
283
     1
284
     8
285
     0
286
     0
287
     3
288
     0
  0
ENDTAB
  0
TABLE
  2
BLOCK_RECORD
  5
1
100
AcDbSymbolTable
 70
     9
  0
BLOCK_RECORD
  5
2
102
{ACAD_XDICTIONARY
360
3
102
}
100
AcDbSymbolTableRecord
100
AcDbBlockTableRecord
  2
*MODEL_SPACE
  0
BLOCK_RECORD
  5
9
102
{ACAD_XDICTIONARY
360
A
102
}
100
AcDbSymbolTableRecord
100
AcDbBlockTableRecord
  2
*PAPER_SPACE
  0
BLOCK_RECORD
  5
22
100
AcDbSymbolTableRecord
100
AcDbBlockTableRecord
  2
_DOTSMALL
  0
BLOCK_RECORD
  5
56
100
AcDbSymbolTableRecord
100
AcDbBlockTableRecord
  2
_OPEN30
  0
BLOCK_RECORD
  5
224
100
AcDbSymbolTableRecord
100
AcDbBlockTableRecord
  2
*D2
  0
BLOCK_RECORD
  5
23D
100
AcDbSymbolTableRecord
100
AcDbBlockTableRecord
  2
*D3
  0
BLOCK_RECORD
  5
249
100
AcDbSymbolTableRecord
100
AcDbBlockTableRecord
  2
*D4
  0
BLOCK_RECORD
  5
257
100
AcDbSymbolTableRecord
100
AcDbBlockTableRecord
  2
*D5
  0
BLOCK_RECORD
  5
269
100
AcDbSymbolTableRecord
100
AcDbBlockTableRecord
  2
*D6
  0
BLOCK_RECORD
  5
2B5
100
AcDbSymbolTableRecord
100
AcDbBlockTableRecord
  2
*D7
  0
BLOCK_RECORD
  5
2C0
100
AcDbSymbolTableRecord
100
AcDbBlockTableRecord
  2
*D8
  0
ENDTAB
  0
ENDSEC
  0
SECTION
  2
BLOCKS
  0
BLOCK
  5
5
100
AcDbEntity
  8
0
100
AcDbBlockBegin
  2
*MODEL_SPACE
 70
     0
 10
0.0
 20
0.0
 30
0.0
  3
*MODEL_SPACE
  1

  0
ENDBLK
  5
8
100
AcDbEntity
  8
0
100
AcDbBlockEnd
  0
BLOCK
  5
C
100
AcDbEntity
 67
     1
  8
0
100
AcDbBlockBegin
  2
*PAPER_SPACE
 70
     0
 10
0.0
 20
0.0
 30
0.0
  3
*PAPER_SPACE
  1

  0
ENDBLK
  5
D
100
AcDbEntity
 67
     1
  8
0
100
AcDbBlockEnd
  0
BLOCK
  5
27
100
AcDbEntity
  8
0
100
AcDbBlockBegin
  2
_DOTSMALL
 70
     0
 10
0.0
 20
0.0
 30
0.0
  3
_DOTSMALL
  1

  0
POLYLINE
  5
23
100
AcDbEntity
  8
0
  6
BYBLOCK
 62
     0
100
AcDb2dPolyline
 66
     1
 10
0.0
 20
0.0
 30
0.0
 70
     1
 40
0.5
 41
0.5
  0
VERTEX
  5
24
100
AcDbEntity
  8
0
  6
BYBLOCK
 62
     0
100
AcDbVertex
100
AcDb2dVertex
 10
-0.0625
 20
0.0
 30
0.0
 42
1.0
  0
VERTEX
  5
25
100
AcDbEntity
  8
0
  6
BYBLOCK
 62
     0
100
AcDbVertex
100
AcDb2dVertex
 10
0.0625
 20
0.0
 30
0.0
 42
1.0
  0
SEQEND
  5
26
100
AcDbEntity
  8
0
  6
BYBLOCK
 62
     0
  0
ENDBLK
  5
28
100
AcDbEntity
  8
0
100
AcDbBlockEnd
  0
BLOCK
  5
5A
100
AcDbEntity
  8
0
100
AcDbBlockBegin
  2
_OPEN30
 70
     0
 10
0.0
 20
0.0
 30
0.0
  3
_OPEN30
  1

  0
LINE
  5
57
100
AcDbEntity
  8
0
  6
BYBLOCK
 62
     0
100
AcDbLine
 10
-1.0
 20
0.267949
 30
0.0
 11
0.0
 21
0.0
 31
0.0
  0
LINE
  5
58
100
AcDbEntity
  8
0
  6
BYBLOCK
 62
     0
100
AcDbLine
 10
0.0
 20
0.0
 30
0.0
 11
-1.0
 21
-0.267949
 31
0.0
  0
LINE
  5
59
100
AcDbEntity
  8
0
  6
BYBLOCK
 62
     0
100
AcDbLine
 10
0.0
 20
0.0
 30
0.0
 11
-1.0
 21
0.0
 31
0.0
  0
ENDBLK
  5
5B
100
AcDbEntity
  8
0
100
AcDbBlockEnd
  0
BLOCK
  5
2E2
100
AcDbEntity
  8
0
100
AcDbBlockBegin
  2
*D2
 70
     1
 10
0.0
 20
0.0
 30
0.0
  3
*D2
  1

  0
LINE
  5
2E3
100
AcDbEntity
  8
0
  6
BYBLOCK
 62
     1
100
AcDbLine
 10
370.483508
 20
-45.615285
 30
0.0
 11
370.483508
 21
-58.614833
 31
0.0
  0
LINE
  5
2E4
100
AcDbEntity
  8
0
  6
BYBLOCK
 62
     1
100
AcDbLine
 10
400.483508
 20
-43.165285
 30
0.0
 11
400.483508
 21
-58.614833
 31
0.0
  0
LINE
  5
2E5
100
AcDbEntity
  8
0
  6
BYBLOCK
 62
     1
100
AcDbLine
 10
372.483508
 20
-56.614833
 30
0.0
 11
398.483508
 21
-56.614833
 31
0.0
  0
INSERT
  5
2E6
100
AcDbEntity
  8
0
  6
BYBLOCK
 62
     1
100
AcDbBlockReference
  2
_OPEN30
 10
370.483508
 20
-56.614833
 30
0.0
 41
2.0
 42
2.0
 43
2.0
 50
180.0
  0
INSERT
  5
2E7
100
AcDbEntity
  8
0
  6
BYBLOCK
 62
     1
100
AcDbBlockReference
  2
_OPEN30
 10
400.483508
 20
-56.614833
 30
0.0
 41
2.0
 42
2.0
 43
2.0
  0
MTEXT
  5
2E8
100
AcDbEntity
  8
0
  6
BYBLOCK
 62
     3
100
AcDbMText
 10
385.483508
 20
-54.114833
 30
0.0
 40
3.0
 41
0.0
 71
     5
 72
     1
  1
\A1;30
  0
POINT
  5
2E9
100
AcDbEntity
  8
DEFPOINTS
  6
BYBLOCK
 62
     0
100
AcDbPoint
 10
370.483508
 20
-44.615285
 30
0.0
  0
POINT
  5
2EA
100
AcDbEntity
  8
DEFPOINTS
  6
BYBLOCK
 62
     0
100
AcDbPoint
 10
400.483508
 20
-42.165285
 30
0.0
  0
POINT
  5
2EB
100
AcDbEntity
  8
DEFPOINTS
  6
BYBLOCK
 62
     0
100
AcDbPoint
 10
400.483508
 20
-56.614833
 30
0.0
  0
ENDBLK
  5
2EC
100
AcDbEntity
  8
0
100
AcDbBlockEnd
  0
BLOCK
  5
2F9
100
AcDbEntity
  8
0
100
AcDbBlockBegin
  2
*D3
 70
     1
 10
0.0
 20
0.0
 30
0.0
  3
*D3
  1

  0
LINE
  5
2FA
100
AcDbEntity
  8
0
  6
BYBLOCK
 62
     1
100
AcDbLine
 10
370.483508
 20
4.96989
 30
0.0
 11
370.483508
 21
-14.094029
 31
0.0
  0
LINE
  5
2FB
100
AcDbEntity
  8
0
  6
BYBLOCK
 62
     1
100
AcDbLine
 10
620.483508
 20
6.96989
 30
0.0
 11
620.483508
 21
-14.094029
 31
0.0
  0
LINE
  5
2FC
100
AcDbEntity
  8
0
  6
BYBLOCK
 62
     1
100
AcDbLine
 10
372.483508
 20
-12.094029
 30
0.0
 11
618.483508
 21
-12.094029
 31
0.0
  0
INSERT
  5
2FD
100
AcDbEntity
  8
0
  6
BYBLOCK
 62
     1
100
AcDbBlockReference
  2
_OPEN30
 10
370.483508
 20
-12.094029
 30
0.0
 41
2.0
 42
2.0
 43
2.0
 50
180.0
  0
INSERT
  5
2FE
100
AcDbEntity
  8
0
  6
BYBLOCK
 62
     1
100
AcDbBlockReference
  2
_OPEN30
 10
620.483508
 20
-12.094029
 30
0.0
 41
2.0
 42
2.0
 43
2.0
  0
MTEXT
  5
2FF
100
AcDbEntity
  8
0
  6
BYBLOCK
 62
     3
100
AcDbMText
 10
495.483508
 20
-9.594029
 30
0.0
 40
3.0
 41
0.0
 71
     5
 72
     1
  1
\A1;250
  0
POINT
  5
300
100
AcDbEntity
  8
DEFPOINTS
  6
BYBLOCK
 62
     0
100
AcDbPoint
 10
370.483508
 20
5.96989
 30
0.0
  0
POINT
  5
301
100
AcDbEntity
  8
DEFPOINTS
  6
BYBLOCK
 62
     0
100
AcDbPoint
 10
620.483508
 20
7.96989
 30
0.0
  0
POINT
  5
302
100
AcDbEntity
  8
DEFPOINTS
  6
BYBLOCK
 62
     0
100
AcDbPoint
 10
620.483508
 20
-12.094029
 30
0.0
  0
ENDBLK
  5
303
100
AcDbEntity
  8
0
100
AcDbBlockEnd
  0
BLOCK
  5
304
100
AcDbEntity
  8
0
100
AcDbBlockBegin
  2
*D4
 70
     1
 10
0.0
 20
0.0
 30
0.0
  3
*D4
  1

  0
LINE
  5
305
100
AcDbEntity
  8
0
  6
BYBLOCK
 62
     1
100
AcDbLine
 10
371.2775
 20
15.880191
 30
0.0
 11
372.600578
 21
31.003038
 31
0.0
  0
LINE
  5
306
100
AcDbEntity
  8
0
  6
BYBLOCK
 62
     1
100
AcDbLine
 10
369.410461
 20
5.96989
 30
0.0
 11
345.28169
 21
5.96989
 31
0.0
  0
ARC
  5
307
100
AcDbEntity
  8
0
  6
BYBLOCK
 62
     1
100
AcDbCircle
 10
370.410461
 20
5.96989
 30
0.0
 40
23.128771
100
AcDbArc
 50
89.956048
 51
175.043952
  0
INSERT
  5
308
100
AcDbEntity
  8
0
  6
BYBLOCK
 62
     1
100
AcDbBlockReference
  2
_OPEN30
 10
372.426266
 20
29.010649
 30
0.0
 41
2.0
 42
2.0
 43
2.0
 50
357.478024
  0
INSERT
  5
309
100
AcDbEntity
  8
0
  6
BYBLOCK
 62
     1
100
AcDbBlockReference
  2
_OPEN30
 10
347.28169
 20
5.96989
 30
0.0
 41
2.0
 42
2.0
 43
2.0
 50
267.521976
  0
MTEXT
  5
30A
100
AcDbEntity
  8
0
  6
BYBLOCK
 62
     3
100
AcDbMText
 10
353.095914
 20
24.865402
 30
0.0
 40
3.0
 41
0.0
 71
     5
 72
     1
  1
\A1;95°
 11
0.737277
 21
0.67559
 31
0.0
  0
POINT
  5
30B
100
AcDbEntity
  8
DEFPOINTS
  6
BYBLOCK
 62
     0
100
AcDbPoint
 10
360.030287
 20
26.638515
 30
0.0
  0
POINT
  5
30C
100
AcDbEntity
  8
DEFPOINTS
  6
BYBLOCK
 62
     0
100
AcDbPoint
 10
371.31844
 20
5.96989
 30
0.0
  0
POINT
  5
30D
100
AcDbEntity
  8
DEFPOINTS
  6
BYBLOCK
 62
     0
100
AcDbPoint
 10
371.190344
 20
14.883996
 30
0.0
  0
POINT
  5
30E
100
AcDbEntity
  8
DEFPOINTS
  6
BYBLOCK
 62
     0
100
AcDbPoint
 10
370.486552
 20
6.839614
 30
0.0
  0
POINT
  5
30F
100
AcDbEntity
  8
DEFPOINTS
  6
BYBLOCK
 62
     0
100
AcDbPoint
 10
370.483508
 20
5.96989
 30
0.0
  0
ENDBLK
  5
310
100
AcDbEntity
  8
0
100
AcDbBlockEnd
  0
BLOCK
  5
311
100
AcDbEntity
  8
0
100
AcDbBlockBegin
  2
*D5
 70
     1
 10
0.0
 20
0.0
 30
0.0
  3
*D5
  1

  0
LINE
  5
312
100
AcDbEntity
  8
0
  6
BYBLOCK
 62
     1
100
AcDbLine
 10
328.366741
 20
4.977343
 30
0.0
 11
326.112422
 21
-13.382615
 31
0.0
  0
LINE
  5
313
100
AcDbEntity
  8
0
  6
BYBLOCK
 62
     1
100
AcDbLine
 10
328.488611
 20
4.96989
 30
0.0
 11
328.488611
 21
-13.527949
 31
0.0
  0
ARC
  5
314
100
AcDbEntity
  8
0
  6
BYBLOCK
 62
     1
100
AcDbCircle
 10
328.488611
 20
5.96989
 30
0.0
 40
17.497838
100
AcDbArc
 50
249.873516
 51
263.0
  0
LINE
  5
315
100
AcDbEntity
  8
0
  6
BYBLOCK
 62
     1
100
AcDbLine
 10
322.467714
 20
-10.459448
 30
0.0
 11
314.39287
 21
-7.500242
 31
0.0
  0
ARC
  5
316
100
AcDbEntity
  8
0
  6
BYBLOCK
 62
     1
100
AcDbCircle
 10
328.488611
 20
5.96989
 30
0.0
 40
17.497838
100
AcDbArc
 50
249.895064
 51
256.447532
  0
ARC
  5
317
100
AcDbEntity
  8
0
  6
BYBLOCK
 62
     1
100
AcDbCircle
 10
328.488611
 20
5.96989
 30
0.0
 40
17.497838
100
AcDbArc
 50
276.552468
 51
283.104936
  0
ARC
  5
318
100
AcDbEntity
  8
0
  6
BYBLOCK
 62
     1
100
AcDbCircle
 10
328.488611
 20
5.96989
 30
0.0
 40
17.497838
100
AcDbArc
 50
263.0
 51
270.0
  0
INSERT
  5
319
100
AcDbEntity
  8
0
  6
BYBLOCK
 62
     1
100
AcDbBlockReference
  2
_OPEN30
 10
326.356161
 20
-11.397522
 30
0.0
 41
2.0
 42
2.0
 43
2.0
 50
349.723766
  0
INSERT
  5
31A
100
AcDbEntity
  8
0
  6
BYBLOCK
 62
     1
100
AcDbBlockReference
  2
_OPEN30
 10
328.488611
 20
-11.527949
 30
0.0
 41
2.0
 42
2.0
 43
2.0
 50
183.276234
  0
MTEXT
  5
31B
100
AcDbEntity
  8
0
  6
BYBLOCK
 62
     3
100
AcDbMText
 10
319.290527
 20
-6.632507
 30
0.0
 40
3.0
 41
0.0
 71
     5
 72
     1
  1
\A1;7°
 11
0.938935
 21
-0.344094
 31
0.0
  0
POINT
  5
31C
100
AcDbEntity
  8
DEFPOINTS
  6
BYBLOCK
 62
     0
100
AcDbPoint
 10
327.77622
 20
-11.513441
 30
0.0
  0
POINT
  5
31D
100
AcDbEntity
  8
DEFPOINTS
  6
BYBLOCK
 62
     0
100
AcDbPoint
 10
331.233537
 20
28.325523
 30
0.0
  0
POINT
  5
31E
100
AcDbEntity
  8
DEFPOINTS
  6
BYBLOCK
 62
     0
100
AcDbPoint
 10
328.488611
 20
22.240807
 30
0.0
  0
POINT
  5
31F
100
AcDbEntity
  8
DEFPOINTS
  6
BYBLOCK
 62
     0
100
AcDbPoint
 10
328.488611
 20
5.96989
 30
0.0
  0
POINT
  5
320
100
AcDbEntity
  8
DEFPOINTS
  6
BYBLOCK
 62
     0
100
AcDbPoint
 10
328.488611
 20
5.96989
 30
0.0
  0
ENDBLK
  5
321
100
AcDbEntity
  8
0
100
AcDbBlockEnd
  0
BLOCK
  5
322
100
AcDbEntity
  8
0
100
AcDbBlockBegin
  2
*D6
 70
     1
 10
0.0
 20
0.0
 30
0.0
  3
*D6
  1

  0
LINE
  5
323
100
AcDbEntity
  8
0
  6
BYBLOCK
 62
     1
100
AcDbLine
 10
369.483508
 20
18.96989
 30
0.0
 11
358.377956
 21
18.96989
 31
0.0
  0
LINE
  5
324
100
AcDbEntity
  8
0
  6
BYBLOCK
 62
     1
100
AcDbLine
 10
369.483508
 20
5.96989
 30
0.0
 11
358.377956
 21
5.96989
 31
0.0
  0
LINE
  5
325
100
AcDbEntity
  8
0
  6
BYBLOCK
 62
     1
100
AcDbLine
 10
360.377956
 20
16.96989
 30
0.0
 11
360.377956
 21
7.96989
 31
0.0
  0
INSERT
  5
326
100
AcDbEntity
  8
0
  6
BYBLOCK
 62
     1
100
AcDbBlockReference
  2
_OPEN30
 10
360.377956
 20
18.96989
 30
0.0
 41
2.0
 42
2.0
 43
2.0
 50
90.0
  0
INSERT
  5
327
100
AcDbEntity
  8
0
  6
BYBLOCK
 62
     1
100
AcDbBlockReference
  2
_OPEN30
 10
360.377956
 20
5.96989
 30
0.0
 41
2.0
 42
2.0
 43
2.0
 50
270.0
  0
MTEXT
  5
328
100
AcDbEntity
  8
0
  6
BYBLOCK
 62
     3
100
AcDbMText
 10
357.877956
 20
12.46989
 30
0.0
 40
3.0
 41
0.0
 71
     5
 72
     1
  1
\A1;13
 11
0.0
 21
1.0
 31
0.0
  0
POINT
  5
329
100
AcDbEntity
  8
DEFPOINTS
  6
BYBLOCK
 62
     0
100
AcDbPoint
 10
370.483508
 20
18.96989
 30
0.0
  0
POINT
  5
32A
100
AcDbEntity
  8
DEFPOINTS
  6
BYBLOCK
 62
     0
100
AcDbPoint
 10
370.483508
 20
5.96989
 30
0.0
  0
POINT
  5
32B
100
AcDbEntity
  8
DEFPOINTS
  6
BYBLOCK
 62
     0
100
AcDbPoint
 10
360.377956
 20
5.96989
 30
0.0
  0
ENDBLK
  5
32C
100
AcDbEntity
  8
0
100
AcDbBlockEnd
  0
BLOCK
  5
368
100
AcDbEntity
  8
0
100
AcDbBlockBegin
  2
*D7
 70
     1
 10
0.0
 20
0.0
 30
0.0
  3
*D7
  1

  0
LINE
  5
369
100
AcDbEntity
  8
0
  6
BYBLOCK
 62
     1
100
AcDbLine
 10
553.126546
 20
9.489641
 30
0.0
 11
551.900385
 21
7.9096
 31
0.0
  0
LINE
  5
36A
100
AcDbEntity
  8
0
  6
BYBLOCK
 62
     1
100
AcDbLine
 10
567.84047
 20
28.450138
 30
0.0
 11
576.873021
 21
40.089566
 31
0.0
  0
LINE
  5
36B
100
AcDbEntity
  8
0
  6
BYBLOCK
 62
     1
100
AcDbLine
 10
554.352706
 20
11.069683
 30
0.0
 11
566.614309
 21
26.870097
 31
0.0
  0
INSERT
  5
36C
100
AcDbEntity
  8
0
  6
BYBLOCK
 62
     1
100
AcDbBlockReference
  2
_OPEN30
 10
554.352706
 20
11.069683
 30
0.0
 41
2.0
 42
2.0
 43
2.0
 50
52.187446
  0
INSERT
  5
36D
100
AcDbEntity
  8
0
  6
BYBLOCK
 62
     1
100
AcDbBlockReference
  2
_OPEN30
 10
566.614309
 20
26.870097
 30
0.0
 41
2.0
 42
2.0
 43
2.0
 50
232.187446
  0
MTEXT
  5
36E
100
AcDbEntity
  8
0
  6
BYBLOCK
 62
     3
100
AcDbMText
 10
571.832568
 20
37.672163
 30
0.0
 40
3.0
 41
0.0
 71
     5
 72
     1
  1
\A1;\U+220520
 11
0.61308
 21
0.790021
 31
0.0
  0
POINT
  5
36F
100
AcDbEntity
  8
DEFPOINTS
  6
BYBLOCK
 62
     0
100
AcDbPoint
 10
566.614309
 20
26.870097
 30
0.0
  0
POINT
  5
370
100
AcDbEntity
  8
DEFPOINTS
  6
BYBLOCK
 62
     0
100
AcDbPoint
 10
554.352706
 20
11.069683
 30
0.0
  0
ENDBLK
  5
371
100
AcDbEntity
  8
0
100
AcDbBlockEnd
  0
BLOCK
  5
372
100
AcDbEntity
  8
0
100
AcDbBlockBegin
  2
*D8
 70
     1
 10
0.0
 20
0.0
 30
0.0
  3
*D8
  1

  0
LINE
  5
373
100
AcDbEntity
  8
0
  6
BYBLOCK
 62
     1
100
AcDbLine
 10
551.483508
 20
13.610991
 30
0.0
 11
551.483508
 21
-4.400105
 31
0.0
  0
LINE
  5
374
100
AcDbEntity
  8
0
  6
BYBLOCK
 62
     1
100
AcDbLine
 10
569.483508
 20
13.610991
 30
0.0
 11
569.483508
 21
-4.400105
 31
0.0
  0
LINE
  5
375
100
AcDbEntity
  8
0
  6
BYBLOCK
 62
     1
100
AcDbLine
 10
553.483508
 20
-2.400105
 30
0.0
 11
567.483508
 21
-2.400105
 31
0.0
  0
INSERT
  5
376
100
AcDbEntity
  8
0
  6
BYBLOCK
 62
     1
100
AcDbBlockReference
  2
_OPEN30
 10
551.483508
 20
-2.400105
 30
0.0
 41
2.0
 42
2.0
 43
2.0
 50
180.0
  0
INSERT
  5
377
100
AcDbEntity
  8
0
  6
BYBLOCK
 62
     1
100
AcDbBlockReference
  2
_OPEN30
 10
569.483508
 20
-2.400105
 30
0.0
 41
2.0
 42
2.0
 43
2.0
  0
MTEXT
  5
378
100
AcDbEntity
  8
0
  6
BYBLOCK
 62
     3
100
AcDbMText
 10
560.483508
 20
0.099895
 30
0.0
 40
3.0
 41
0.0
 71
     5
 72
     1
  1
\A1;18
  0
POINT
  5
379
100
AcDbEntity
  8
DEFPOINTS
  6
BYBLOCK
 62
     0
100
AcDbPoint
 10
551.483508
 20
14.610991
 30
0.0
  0
POINT
  5
37A
100
AcDbEntity
  8
DEFPOINTS
  6
BYBLOCK
 62
     0
100
AcDbPoint
 10
569.483508
 20
14.610991
 30
0.0
  0
POINT
  5
37B
100
AcDbEntity
  8
DEFPOINTS
  6
BYBLOCK
 62
     0
100
AcDbPoint
 10
569.483508
 20
-2.400105
 30
0.0
  0
ENDBLK
  5
37C
100
AcDbEntity
  8
0
100
AcDbBlockEnd
  0
ENDSEC
  0
SECTION
  2
ENTITIES
  0
LINE
  5
186
100
AcDbEntity
  8
外形
  6
CONTINUOUS
100
AcDbLine
 10
372.059973
 20
-44.854565
 30
0.0
 11
388.701001
 21
-43.398664
 31
0.0
  0
LINE
  5
187
100
AcDbEntity
  8
外形
  6
CONTINUOUS
100
AcDbLine
 10
379.763585
 20
6.802763
 30
0.0
 11
388.701001
 21
7.584686
 31
0.0
  0
SPLINE
  5
189
100
AcDbEntity
  8
外形
  6
CONTINUOUS
100
AcDbSpline
210
0.0
220
0.0
230
1.0
 70
     8
 71
     3
 72
    11
 73
     7
 74
     0
 42
0.0000001
 43
0.0000001
 40
0.1670199711499376
 40
0.1670199711499376
 40
0.1670199711499376
 40
0.1670199711499376
 40
9.094265528231321
 40
22.16250510536278
 40
27.17298665823694
 40
30.67171654717655
 40
30.67171654717655
 40
30.67171654717655
 40
30.67171654717655
 10
380.10806801359
 20
27.71010847957251
 30
0.0
 10
382.7538175134548
 20
26.89126602685411
 30
0.0
 10
389.2917000055205
 20
24.84462211623179
 30
0.0
 10
400.469213596404
 20
17.53342711754726
 30
0.0
 10
394.9621067649749
 20
11.14137970462229
 30
0.0
 10
392.532314491538
 20
9.77975033499058
 30
0.0
 10
391.5332575390672
 20
9.219889599860721
 30
0.0
  0
LINE
  5
18B
100
AcDbEntity
  8
外形
  6
CENTER
 62
     1
100
AcDbLine
 10
370.08796
 20
11.143974
 30
0.0
 11
381.984535
 21
11.143974
 31
0.0
  0
ARC
  5
18C
100
AcDbEntity
  8
外形
  6
CONTINUOUS
100
AcDbCircle
 10
386.046323
 20
-24.839153
 30
0.0
 40
18.748407
100
AcDbArc
 50
216.477772
 51
278.140144
  0
SPLINE
  5
18D
100
AcDbEntity
  8
外形
  6
CONTINUOUS
100
AcDbSpline
210
0.0
220
0.0
230
1.0
 70
     8
 71
     3
 72
     9
 73
     5
 74
     3
 42
0.0000001
 43
0.0000001
 44
0.0000000001
 40
0.0
 40
0.0
 40
0.0
 40
0.0
 40
11.19117192040572
 40
20.16058206637438
 40
20.16058206637438
 40
20.16058206637438
 40
20.16058206637438
 10
397.4835075654936
 20
-22.26528498174491
 30
0.0
 10
394.6224864516644
 20
-24.74015146296474
 30
0.0
 10
389.4684372270422
 20
-29.1985539567174
 30
0.0
 10
382.9613030014614
 20
-31.14798588841901
 30
0.0
 10
380.0662895761571
 20
-32.01528498174445
 30
0.0
 11
397.4835075654936
 21
-22.26528498174491
 31
0.0
 11
388.4835075654951
 21
-28.91677571331058
 31
0.0
 11
380.0662895761571
 21
-32.01528498174445
 31
0.0
  0
SPLINE
  5
18E
100
AcDbEntity
  8
外形
  6
CONTINUOUS
100
AcDbSpline
210
0.0
220
0.0
230
-1.0
 70
     8
 71
     3
 72
    10
 73
     6
 74
     4
 42
0.0000001
 43
0.0000001
 44
0.0000000001
 40
0.0
 40
0.0
 40
0.0
 40
0.0
 40
5.039786751347365
 40
10.72395326214039
 40
28.36770168425821
 40
28.36770168425821
 40
28.36770168425821
 40
28.36770168425821
 10
370.7183077256613
 20
-31.51525981574207
 30
0.0
 10
372.3680244317626
 20
-31.15251092868133
 30
0.0
 10
375.8783882080222
 20
-30.38063261266074
 30
0.0
 10
384.1674879551134
 20
-25.65507457372864
 30
0.0
 10
391.7491907047481
 20
-23.72504008728256
 30
0.0
 10
397.4835075654941
 20
-22.26528498174485
 30
0.0
 11
370.7183077256613
 21
-31.51525981574207
 31
0.0
 11
375.584237633709
 21
-30.20294254121472
 31
0.0
 11
380.7183077256612
 21
-27.76346038031602
 31
0.0
 11
397.4835075654941
 21
-22.26528498174485
 31
0.0
  0
DIMENSION
  5
18F
100
AcDbEntity
  8
寸法
  6
CONTINUOUS
100
AcDbDimension
  2
*D2
 10
400.483508
 20
-56.614833
 30
0.0
 11
385.483508
 21
-54.114833
 31
0.0
 70
    32
  3
STANDARD
100
AcDbAlignedDimension
 13
370.483508
 23
-44.615285
 33
0.0
 14
400.483508
 24
-42.165285
 34
0.0
100
AcDbRotatedDimension
1001
ACAD
1000
DSTYLE
1002
{
1070
    40
1040
1.0
1002
}
  0
LINE
  5
190
100
AcDbEntity
  8
外形
  6
CONTINUOUS
100
AcDbLine
 10
381.85706
 20
28.71989
 30
0.0
 11
371.897768
 21
22.96989
 31
0.0
  0
LINE
  5
191
100
AcDbEntity
  8
外形
  6
CONTINUOUS
100
AcDbLine
 10
380.666569
 20
13.596455
 30
0.0
 11
381.141558
 21
14.162525
 31
0.0
  0
ARC
  5
192
100
AcDbEntity
  8
外形
  6
CONTINUOUS
100
AcDbCircle
 10
380.031632
 20
15.518059
 30
0.0
 40
0.8
100
AcDbArc
 50
355.0
 51
95.0
  0
ARC
  5
194
100
AcDbEntity
  8
外形
  6
CONTINUOUS
100
AcDbCircle
 10
379.800981
 20
15.287403
 30
0.0
 40
1.75
100
AcDbArc
 50
320.0
 51
140.0
  0
DIMENSION
  5
195
100
AcDbEntity
  8
寸法
  6
CONTINUOUS
100
AcDbDimension
  2
*D3
 10
620.483508
 20
-12.094029
 30
0.0
 11
495.483508
 21
-9.594029
 31
0.0
 70
    32
  3
STANDARD
100
AcDbAlignedDimension
 13
370.483508
 23
5.96989
 33
0.0
 14
620.483508
 24
7.96989
 34
0.0
100
AcDbRotatedDimension
1001
ACAD
1000
DSTYLE
1002
{
1070
    40
1040
1.0
1002
}
  0
LINE
  5
196
100
AcDbEntity
  8
外形
  6
CENTER
 62
     1
100
AcDbLine
 10
624.724893
 20
18.96989
 30
0.0
 11
370.483508
 21
18.96989
 31
0.0
  0
LINE
  5
197
100
AcDbEntity
  8
外形
  6
CENTER
 62
     1
100
AcDbLine
 10
364.761669
 20
-32.015285
 30
0.0
 11
624.724893
 21
-32.015285
 31
0.0
  0
DIMENSION
  5
198
100
AcDbEntity
  8
寸法
  6
CONTINUOUS
 62
     3
100
AcDbDimension
  2
*D4
 10
370.483508
 20
5.96989
 30
0.0
 11
353.095914
 21
24.865402
 31
0.0
 70
    34
  3
STANDARD
100
AcDb2LineAngularDimension
 13
371.190344
 23
14.883996
 33
0.0
 14
370.486552
 24
6.839614
 34
0.0
 15
371.31844
 25
5.96989
 35
0.0
 16
360.030287
 26
26.638515
 36
0.0
1001
ACAD
1000
DSTYLE
1002
{
1070
    40
1040
1.0
1002
}
  0
DIMENSION
  5
199
100
AcDbEntity
  8
寸法
  6
CONTINUOUS
100
AcDbDimension
  2
*D5
 10
328.488611
 20
5.96989
 30
0.0
 11
319.290527
 21
-6.632507
 31
0.0
 70
    34
  3
STANDARD
100
AcDb2LineAngularDimension
 13
328.488611
 23
22.240807
 33
0.0
 14
328.488611
 24
5.96989
 34
0.0
 15
331.233537
 25
28.325523
 35
0.0
 16
327.77622
 26
-11.513441
 36
0.0
1001
ACAD
1000
DSTYLE
1002
{
1070
    40
1040
1.0
1002
}
  0
CIRCLE
  5
19A
100
AcDbEntity
  8
外形
  6
CENTER
 62
     1
100
AcDbCircle
 10
328.488611
 20
18.46989
 30
0.0
 40
12.5
  0
ARC
  5
19B
100
AcDbEntity
  8
外形
  6
CONTINUOUS
100
AcDbCircle
 10
328.488611
 20
17.51989
 30
0.0
 40
11.2
100
AcDbArc
 50
90.0
 51
249.822437
  0
DIMENSION
  5
19C
100
AcDbEntity
  8
寸法
  6
CONTINUOUS
100
AcDbDimension
  2
*D6
 10
360.377956
 20
5.96989
 30
0.0
 11
357.877956
 21
12.46989
 31
0.0
 70
    32
  3
STANDARD
100
AcDbAlignedDimension
 13
370.483508
 23
18.96989
 33
0.0
 14
370.483508
 24
5.96989
 34
0.0
 50
90.0
100
AcDbRotatedDimension
1001
ACAD
1000
DSTYLE
1002
{
1070
    40
1040
1.0
1002
}
  0
LINE
  5
19E
100
AcDbEntity
  8
外形
  6
CONTINUOUS
100
AcDbLine
 10
380.828588
 20
15.448335
 30
0.0
 11
380.124795
 21
7.403953
 31
0.0
  0
LINE
  5
19F
100
AcDbEntity
  8
外形
  6
CONTINUOUS
100
AcDbLine
 10
371.190344
 20
14.883996
 30
0.0
 11
370.486552
 21
6.839614
 31
0.0
  0
LINE
  5
1A0
100
AcDbEntity
  8
外形
  6
CENTER
 62
     1
100
AcDbLine
 10
375.601001
 20
4.86671
 30
0.0
 11
375.601001
 21
17.65759
 31
0.0
  0
ARC
  5
1A2
100
AcDbEntity
  8
外形
  6
CONTINUOUS
100
AcDbCircle
 10
328.488611
 20
18.96989
 30
0.0
 40
10.0
100
AcDbArc
 50
272.423645
 51
334.158067
  0
LINE
  5
1A3
100
AcDbEntity
  8
外形
  6
CENTER
 62
     1
100
AcDbLine
 10
328.488611
 20
34.67682
 30
0.0
 11
328.488611
 21
5.96989
 31
0.0
  0
LINE
  5
1A4
100
AcDbEntity
  8
外形
  6
CONTINUOUS
100
AcDbLine
 10
330.802254
 20
24.813
 30
0.0
 11
328.488611
 21
5.96989
 31
0.0
  0
LINE
  5
1A5
100
AcDbEntity
  8
外形
  6
CONTINUOUS
100
AcDbLine
 10
325.668127
 20
15.574766
 30
0.0
 11
324.607608
 21
6.937532
 31
0.0
  0
LINE
  5
1A7
100
AcDbEntity
  8
外形
  6
CONTINUOUS
100
AcDbLine
 10
324.607608
 20
6.937532
 30
0.0
 11
328.488611
 21
5.96989
 31
0.0
  0
LINE
  5
1A8
100
AcDbEntity
  8
外形
  6
CONTINUOUS
100
AcDbLine
 10
370.483508
 20
-32.015285
 30
0.0
 11
372.059973
 21
-44.854565
 31
0.0
  0
LINE
  5
1A9
100
AcDbEntity
  8
外形
  6
CONTINUOUS
100
AcDbLine
 10
370.718308
 20
-31.51526
 30
0.0
 11
370.718308
 21
-32.015285
 31
0.0
  0
LINE
  5
1AA
100
AcDbEntity
  8
外形
  6
CONTINUOUS
100
AcDbLine
 10
370.483508
 20
-32.015285
 30
0.0
 11
380.06629
 21
-32.015285
 31
0.0
  0
LINE
  5
1AB
100
AcDbEntity
  8
外形
  6
CONTINUOUS
100
AcDbLine
 10
370.970962
 20
-35.985285
 30
0.0
 11
379.578835
 21
-35.985285
 31
0.0
  0
LINE
  5
1AC
100
AcDbEntity
  8
外形
  6
CONTINUOUS
100
AcDbLine
 10
380.06629
 20
-32.015285
 30
0.0
 11
379.578835
 21
-35.985285
 31
0.0
  0
LINE
  5
1AD
100
AcDbEntity
  8
外形
  6
CONTINUOUS
 62
     1
100
AcDbLine
 10
370.483508
 20
6.769889
 30
0.0
 11
370.483508
 21
5.96989
 31
0.0
  0
LINE
  5
1AE
100
AcDbEntity
  8
外形
  6
CENTER
 62
     1
100
AcDbLine
 10
371.31844
 20
5.96989
 30
0.0
 11
370.483508
 21
5.96989
 31
0.0
  0
ARC
  5
1AF
100
AcDbEntity
  8
外形
  6
CONTINUOUS
100
AcDbCircle
 10
371.283508
 20
6.769889
 30
0.0
 40
0.8
100
AcDbArc
 50
175.0
 51
275.0
  0
ARC
  5
1B0
100
AcDbEntity
  8
外形
  6
CONTINUOUS
100
AcDbCircle
 10
379.32784
 20
7.473677
 30
0.0
 40
0.8
100
AcDbArc
 50
275.0
 51
355.0
  0
LINE
  5
1B1
100
AcDbEntity
  8
外形
  6
CONTINUOUS
100
AcDbLine
 10
379.397564
 20
6.676721
 30
0.0
 11
371.353232
 21
5.972933
 31
0.0
  0
LEADER
  5
1B2
100
AcDbEntity
  8
寸法
  6
CONTINUOUS
 62
     1
100
AcDbLeader
  3
STANDARD
 73
     0
 74
     0
 75
     1
 40
3.0
 41
26.0
 76
     3
 10
334.240053
 20
29.568129
 30
0.0
 10
342.207378
 20
46.427542
 30
0.0
 10
344.207378
 20
46.427542
 30
0.0
 77
   256
340
1D4
213
-0.1129475379637483
223
0.5510341987360618
233
0.0
1001
ACAD
1000
DSTYLE
1002
{
1070
   284
1070
    13
1070
   146
1040
0.5
1070
   272
1070
     3
1070
    40
1040
1.0
1070
   287
1070
     0
1002
}
  0
ARC
  5
1B3
100
AcDbEntity
  8
外形
  6
CONTINUOUS
100
AcDbCircle
 10
328.488611
 20
18.96989
 30
0.0
 40
9.75
100
AcDbArc
 50
22.619865
 51
90.0
  0
LINE
  5
1B5
100
AcDbEntity
  8
外形
  6
CENTER
 62
     1
100
AcDbLine
 10
343.276402
 20
18.96989
 30
0.0
 11
313.130841
 21
18.96989
 31
0.0
  0
LINE
  5
1B7
100
AcDbEntity
  8
外形
  6
CONTINUOUS
100
AcDbLine
 10
330.575948
 20
22.96989
 30
0.0
 11
318.704057
 21
22.96989
 31
0.0
  0
LINE
  5
1B8
100
AcDbEntity
  8
外形
  6
CONTINUOUS
100
AcDbLine
 10
329.667941
 20
15.574766
 30
0.0
 11
325.697941
 21
15.574766
 31
0.0
  0
ARC
  5
1B9
100
AcDbEntity
  8
外形
  6
CONTINUOUS
100
AcDbCircle
 10
334.772438
 20
24.325523
 30
0.0
 40
4.0
100
AcDbArc
 50
120.948033
 51
173.0
  0
LINE
  5
1BA
100
AcDbEntity
  8
外形
  6
CONTINUOUS
100
AcDbLine
 10
337.488611
 20
22.71989
 30
0.0
 11
337.488611
 21
14.610991
 31
0.0
  0
LINE
  5
1BD
100
AcDbEntity
  8
外形
  6
CONTINUOUS
100
AcDbLine
 10
371.897768
 20
22.96989
 30
0.0
 11
371.190344
 21
14.883996
 31
0.0
  0
LINE
  5
1BE
100
AcDbEntity
  8
外形
  6
CONTINUOUS
100
AcDbLine
 10
379.961907
 20
16.315015
 30
0.0
 11
371.917575
 21
15.611227
 31
0.0
  0
LINE
  5
1BF
100
AcDbEntity
  8
外形
  6
CONTINUOUS
100
AcDbLine
 10
378.253359
 20
16.165536
 30
0.0
 11
378.460403
 21
16.412281
 31
0.0
  0
ARC
  5
1C0
100
AcDbEntity
  8
外形
  6
CONTINUOUS
100
AcDbCircle
 10
371.9873
 20
14.814271
 30
0.0
 40
0.8
100
AcDbArc
 50
95.0
 51
175.0
  0
LINE
  5
1C1
100
AcDbEntity
  8
外形
  6
CONTINUOUS
100
AcDbLine
 10
376.758912
 20
11.532073
 30
0.0
 11
377.423504
 21
11.143974
 31
0.0
  0
LINE
  5
1C2
100
AcDbEntity
  8
外形
  6
CONTINUOUS
100
AcDbLine
 10
377.423504
 20
11.143974
 30
0.0
 11
376.758912
 21
10.755875
 31
0.0
  0
LINE
  5
1C3
100
AcDbEntity
  8
外形
  6
CONTINUOUS
100
AcDbLine
 10
375.872137
 20
12.291814
 30
0.0
 11
376.540537
 21
12.673318
 31
0.0
  0
LINE
  5
1C4
100
AcDbEntity
  8
外形
  6
CONTINUOUS
100
AcDbLine
 10
376.540537
 20
12.673318
 30
0.0
 11
376.544345
 21
11.903715
 31
0.0
  0
LINE
  5
1C5
100
AcDbEntity
  8
外形
  6
CONTINUOUS
100
AcDbLine
 10
374.770795
 20
11.903715
 30
0.0
 11
374.774603
 21
12.673318
 31
0.0
  0
LINE
  5
1C6
100
AcDbEntity
  8
外形
  6
CONTINUOUS
100
AcDbLine
 10
374.774603
 20
12.673318
 30
0.0
 11
375.443002
 21
12.291814
 31
0.0
  0
LINE
  5
1C7
100
AcDbEntity
  8
外形
  6
CONTINUOUS
100
AcDbLine
 10
374.556227
 20
10.755875
 30
0.0
 11
373.891636
 21
11.143974
 31
0.0
  0
LINE
  5
1C8
100
AcDbEntity
  8
外形
  6
CONTINUOUS
100
AcDbLine
 10
373.891636
 20
11.143974
 30
0.0
 11
374.556227
 21
11.532073
 31
0.0
  0
ARC
  5
1C9
100
AcDbEntity
  8
外形
  6
CONTINUOUS
100
AcDbCircle
 10
376.977189
 20
11.905857
 30
0.0
 40
0.43285
100
AcDbArc
 50
180.283476
 51
239.716524
  0
ARC
  5
1CA
100
AcDbEntity
  8
外形
  6
CONTINUOUS
100
AcDbCircle
 10
376.977189
 20
10.382092
 30
0.0
 40
0.43285
100
AcDbArc
 50
120.283476
 51
179.716524
  0
ARC
  5
1CB
100
AcDbEntity
  8
外形
  6
CONTINUOUS
100
AcDbCircle
 10
374.337951
 20
10.382092
 30
0.0
 40
0.43285
100
AcDbArc
 50
0.283476
 51
59.716524
  0
ARC
  5
1CC
100
AcDbEntity
  8
外形
  6
CONTINUOUS
100
AcDbCircle
 10
374.337951
 20
11.905857
 30
0.0
 40
0.43285
100
AcDbArc
 50
300.283476
 51
359.716524
  0
ARC
  5
1CD
100
AcDbEntity
  8
外形
  6
CONTINUOUS
100
AcDbCircle
 10
375.65757
 20
12.667739
 30
0.0
 40
0.43285
100
AcDbArc
 50
240.283476
 51
299.716524
  0
LINE
  5
1CE
100
AcDbEntity
  8
外形
  6
CONTINUOUS
100
AcDbLine
 10
375.443002
 20
9.996134
 30
0.0
 11
374.774603
 21
9.61463
 31
0.0
  0
LINE
  5
1CF
100
AcDbEntity
  8
外形
  6
CONTINUOUS
100
AcDbLine
 10
376.540537
 20
9.61463
 30
0.0
 11
375.872137
 21
9.996134
 31
0.0
  0
ARC
  5
1D0
100
AcDbEntity
  8
外形
  6
CONTINUOUS
100
AcDbCircle
 10
375.65757
 20
9.620209
 30
0.0
 40
0.43285
100
AcDbArc
 50
60.283476
 51
119.716524
  0
CIRCLE
  5
1D1
100
AcDbEntity
  8
外形
  6
CONTINUOUS
100
AcDbCircle
 10
375.65757
 20
11.143974
 30
0.0
 40
2.800003
  0
LINE
  5
1D2
100
AcDbEntity
  8
外形
  6
CONTINUOUS
100
AcDbLine
 10
374.774603
 20
9.61463
 30
0.0
 11
374.770795
 21
10.384233
 31
0.0
  0
LINE
  5
1D3
100
AcDbEntity
  8
外形
  6
CONTINUOUS
100
AcDbLine
 10
376.544345
 20
10.384233
 30
0.0
 11
376.540537
 21
9.61463
 31
0.0
  0
MTEXT
  5
1D4
102
{ACAD_REACTORS
330
1B2
102
}
100
AcDbEntity
  8
寸法
  6
CONTINUOUS
 62
     3
100
AcDbMText
 10
345.320325
 20
48.376508
 30
0.0
 40
3.0
 41
0.0
 71
     4
 72
     1
  1
%%c25最小加工径
  0
LINE
  5
1D5
100
AcDbEntity
  8
外形
  6
CONTINUOUS
100
AcDbLine
 10
619.483508
 20
-41.015285
 30
0.0
 11
400.483508
 21
-41.015285
 31
0.0
  0
LINE
  5
1D6
100
AcDbEntity
  8
外形
  6
CONTINUOUS
100
AcDbLine
 10
619.483508
 20
-23.015285
 30
0.0
 11
398.233508
 21
-23.015285
 31
0.0
  0
DIMENSION
  5
1D7
100
AcDbEntity
  8
寸法
  6
CONTINUOUS
100
AcDbDimension
  2
*D7
 10
554.352706
 20
11.069683
 30
0.0
 11
573.80762
 21
36.139462
 31
0.0
 70
   163
  3
STANDARD
100
AcDbDiametricDimension
 15
566.614309
 25
26.870097
 35
0.0
 40
0.0
1001
ACAD
1000
DSTYLE
1002
{
1070
   284
1070
    13
1070
   146
1040
0.5
1070
   272
1070
     3
1070
    40
1040
1.0
1070
   287
1070
     0
1002
}
  0
ARC
  5
1D8
100
AcDbEntity
  8
外形
  6
CONTINUOUS
100
AcDbCircle
 10
560.483508
 20
18.96989
 30
0.0
 40
10.0
100
AcDbArc
 50
25.841933
 51
154.158067
  0
ARC
  5
1D9
100
AcDbEntity
  8
外形
  6
CONTINUOUS
100
AcDbCircle
 10
560.483508
 20
18.96989
 30
0.0
 40
10.0
100
AcDbArc
 50
205.841933
 51
334.158067
  0
DIMENSION
  5
1DA
100
AcDbEntity
  8
寸法
  6
CONTINUOUS
100
AcDbDimension
  2
*D8
 10
569.483508
 20
-2.400105
 30
0.0
 11
560.483508
 21
0.099895
 31
0.0
 70
    32
  3
STANDARD
100
AcDbAlignedDimension
 13
551.483508
 23
14.610991
 33
0.0
 14
569.483508
 24
14.610991
 34
0.0
100
AcDbRotatedDimension
1001
ACAD
1000
DSTYLE
1002
{
1070
   284
1070
    13
1070
   146
1040
0.5
1070
   272
1070
     3
1070
    40
1040
1.0
1070
   287
1070
     0
1002
}
  0
LINE
  5
1DB
100
AcDbEntity
  8
外形
  6
CONTINUOUS
100
AcDbLine
 10
391.533258
 20
9.21989
 30
0.0
 11
388.701001
 21
7.584686
 31
0.0
  0
LINE
  5
1DC
100
AcDbEntity
  8
外形
  6
CENTER
 62
     1
100
AcDbLine
 10
560.483508
 20
31.194471
 30
0.0
 11
560.483508
 21
6.003778
 31
0.0
  0
TEXT
  5
1DD
100
AcDbEntity
  8
外形
  6
CONTINUOUS
 62
     2
100
AcDbText
 10
455.900578
 20
-75.289466
 30
0.0
 40
6.0
  1
S20S-SCLCR09
100
AcDbText
  0
LINE
  5
1DE
100
AcDbEntity
  8
外形
  6
CONTINUOUS
100
AcDbLine
 10
398.233508
 20
-23.015285
 30
0.0
 11
398.233508
 21
-42.165285
 31
0.0
  0
LINE
  5
1DF
100
AcDbEntity
  8
外形
  6
CONTINUOUS
100
AcDbLine
 10
397.483508
 20
-22.265285
 30
0.0
 11
397.483508
 21
-41.765285
 31
0.0
  0
LINE
  5
1E0
100
AcDbEntity
  8
外形
  6
CONTINUOUS
100
AcDbLine
 10
391.530096
 20
-27.061092
 30
0.0
 11
391.530096
 21
-41.765285
 31
0.0
  0
LINE
  5
1E1
100
AcDbEntity
  8
外形
  6
CONTINUOUS
100
AcDbLine
 10
388.701001
 20
-43.398664
 30
0.0
 11
388.701001
 21
-28.802414
 31
0.0
  0
LINE
  5
1E2
100
AcDbEntity
  8
外形
  6
CONTINUOUS
100
AcDbLine
 10
397.483508
 20
-41.765285
 30
0.0
 11
391.533258
 21
-41.765285
 31
0.0
  0
LINE
  5
1E3
100
AcDbEntity
  8
外形
  6
CONTINUOUS
100
AcDbLine
 10
391.530096
 20
-41.765285
 30
0.0
 11
388.701001
 21
-43.398664
 31
0.0
  0
LINE
  5
1E4
100
AcDbEntity
  8
外形
  6
CONTINUOUS
100
AcDbLine
 10
400.483508
 20
-42.165285
 30
0.0
 11
398.233508
 21
-42.165285
 31
0.0
  0
LINE
  5
1E5
100
AcDbEntity
  8
外形
  6
CONTINUOUS
100
AcDbLine
 10
400.483508
 20
-41.015285
 30
0.0
 11
400.483508
 21
-42.165285
 31
0.0
  0
LINE
  5
1E6
100
AcDbEntity
  8
外形
  6
CONTINUOUS
100
AcDbLine
 10
397.483508
 20
-41.415285
 30
0.0
 11
398.233508
 21
-42.165285
 31
0.0
  0
LINE
  5
1E7
100
AcDbEntity
  8
外形
  6
CONTINUOUS
100
AcDbLine
 10
397.483508
 20
-22.265285
 30
0.0
 11
398.233508
 21
-23.015285
 31
0.0
  0
LINE
  5
1E8
100
AcDbEntity
  8
外形
  6
CONTINUOUS
100
AcDbLine
 10
549.483508
 20
8.96989
 30
0.0
 11
397.733508
 21
8.96989
 31
0.0
  0
LINE
  5
1E9
100
AcDbEntity
  8
外形
  6
CONTINUOUS
100
AcDbLine
 10
549.483508
 20
14.610991
 30
0.0
 11
397.483508
 21
14.610991
 31
0.0
  0
LINE
  5
1EA
100
AcDbEntity
  8
外形
  6
CONTINUOUS
100
AcDbLine
 10
549.483508
 20
28.96989
 30
0.0
 11
397.733508
 21
28.96989
 31
0.0
  0
LINE
  5
1EB
100
AcDbEntity
  8
外形
  6
CONTINUOUS
100
AcDbLine
 10
549.483508
 20
23.328789
 30
0.0
 11
397.483508
 21
23.328789
 31
0.0
  0
LINE
  5
1EC
100
AcDbEntity
  8
外形
  6
CONTINUOUS
100
AcDbLine
 10
397.483508
 20
28.71989
 30
0.0
 11
397.483508
 21
22.96989
 31
0.0
  0
LINE
  5
1ED
100
AcDbEntity
  8
外形
  6
CONTINUOUS
100
AcDbLine
 10
397.733508
 20
28.96989
 30
0.0
 11
397.733508
 21
23.328789
 31
0.0
  0
LINE
  5
1EE
100
AcDbEntity
  8
外形
  6
CONTINUOUS
100
AcDbLine
 10
397.483508
 20
9.21989
 30
0.0
 11
391.533258
 21
9.21989
 31
0.0
  0
LINE
  5
1EF
100
AcDbEntity
  8
外形
  6
CONTINUOUS
100
AcDbLine
 10
397.483508
 20
22.96989
 30
0.0
 11
391.516098
 21
22.96989
 31
0.0
  0
LINE
  5
1F0
100
AcDbEntity
  8
外形
  6
CONTINUOUS
100
AcDbLine
 10
381.127247
 20
14.145469
 30
0.0
 11
381.141558
 21
14.162525
 31
0.0
  0
LINE
  5
1F1
100
AcDbEntity
  8
外形
  6
CONTINUOUS
100
AcDbLine
 10
397.483508
 20
15.110991
 30
0.0
 11
397.483508
 21
9.21989
 31
0.0
  0
LINE
  5
1F2
100
AcDbEntity
  8
外形
  6
CONTINUOUS
100
AcDbLine
 10
397.483508
 20
15.110991
 30
0.0
 11
397.483508
 21
15.110991
 31
0.0
  0
LINE
  5
1F3
100
AcDbEntity
  8
外形
  6
CONTINUOUS
100
AcDbLine
 10
397.483508
 20
9.21989
 30
0.0
 11
397.733508
 21
8.96989
 31
0.0
  0
LINE
  5
1F4
100
AcDbEntity
  8
外形
  6
CONTINUOUS
100
AcDbLine
 10
397.733508
 20
8.96989
 30
0.0
 11
397.733508
 21
14.610991
 31
0.0
  0
LINE
  5
1F5
100
AcDbEntity
  8
外形
  6
CONTINUOUS
100
AcDbLine
 10
397.483508
 20
28.71989
 30
0.0
 11
381.85706
 21
28.71989
 31
0.0
  0
LINE
  5
1F6
100
AcDbEntity
  8
外形
  6
CONTINUOUS
100
AcDbLine
 10
388.483508
 20
28.71989
 30
0.0
 11
388.483508
 21
24.586163
 31
0.0
  0
LINE
  5
1F7
100
AcDbEntity
  8
外形
  6
CONTINUOUS
100
AcDbLine
 10
397.483508
 20
28.71989
 30
0.0
 11
397.733508
 21
28.96989
 31
0.0
  0
LINE
  5
1F8
100
AcDbEntity
  8
外形
  6
CONTINUOUS
100
AcDbLine
 10
551.483508
 20
23.328789
 30
0.0
 11
551.483508
 21
14.610991
 31
0.0
  0
LINE
  5
1F9
100
AcDbEntity
  8
外形
  6
CONTINUOUS
100
AcDbLine
 10
619.483508
 20
-23.015285
 30
0.0
 11
620.483508
 21
-24.015285
 31
0.0
  0
LINE
  5
1FA
100
AcDbEntity
  8
外形
  6
CONTINUOUS
100
AcDbLine
 10
619.483508
 20
-41.015285
 30
0.0
 11
619.483508
 21
-23.015285
 31
0.0
  0
LINE
  5
1FB
100
AcDbEntity
  8
外形
  6
CONTINUOUS
100
AcDbLine
 10
620.483508
 20
-24.015285
 30
0.0
 11
620.483508
 21
-40.015285
 31
0.0
  0
LINE
  5
1FC
100
AcDbEntity
  8
外形
  6
CONTINUOUS
100
AcDbLine
 10
619.483508
 20
-41.015285
 30
0.0
 11
620.483508
 21
-40.015285
 31
0.0
  0
LINE
  5
1FD
100
AcDbEntity
  8
外形
  6
CONTINUOUS
100
AcDbLine
 10
619.483508
 20
8.96989
 30
0.0
 11
571.483508
 21
8.96989
 31
0.0
  0
LINE
  5
1FE
100
AcDbEntity
  8
外形
  6
CONTINUOUS
100
AcDbLine
 10
619.483508
 20
14.610991
 30
0.0
 11
571.483508
 21
14.610991
 31
0.0
  0
LINE
  5
1FF
100
AcDbEntity
  8
外形
  6
CONTINUOUS
100
AcDbLine
 10
619.483508
 20
23.328789
 30
0.0
 11
571.483508
 21
23.328789
 31
0.0
  0
LINE
  5
200
100
AcDbEntity
  8
外形
  6
CONTINUOUS
100
AcDbLine
 10
619.483508
 20
28.96989
 30
0.0
 11
571.483508
 21
28.96989
 31
0.0
  0
LINE
  5
201
100
AcDbEntity
  8
外形
  6
CONTINUOUS
100
AcDbLine
 10
571.483508
 20
8.96989
 30
0.0
 11
580.539327
 21
8.96989
 31
0.0
  0
LINE
  5
202
100
AcDbEntity
  8
外形
  6
CONTINUOUS
100
AcDbLine
 10
571.483508
 20
23.328789
 30
0.0
 11
571.505898
 21
23.328789
 31
0.0
  0
LINE
  5
203
100
AcDbEntity
  8
外形
  6
CONTINUOUS
100
AcDbLine
 10
569.483508
 20
23.328789
 30
0.0
 11
569.483508
 21
14.610991
 31
0.0
  0
LINE
  5
204
100
AcDbEntity
  8
外形
  6
CONTINUOUS
100
AcDbLine
 10
571.483508
 20
28.96989
 30
0.0
 11
580.539327
 21
28.96989
 31
0.0
  0
LINE
  5
205
100
AcDbEntity
  8
外形
  6
CONTINUOUS
100
AcDbLine
 10
620.483508
 20
9.96989
 30
0.0
 11
620.483508
 21
27.96989
 31
0.0
  0
LINE
  5
206
100
AcDbEntity
  8
外形
  6
CONTINUOUS
100
AcDbLine
 10
620.483508
 20
27.96989
 30
0.0
 11
620.483508
 21
9.96989
 31
0.0
  0
LINE
  5
207
100
AcDbEntity
  8
外形
  6
CONTINUOUS
100
AcDbLine
 10
619.483508
 20
23.328789
 30
0.0
 11
619.483508
 21
28.96989
 31
0.0
  0
LINE
  5
208
100
AcDbEntity
  8
外形
  6
CONTINUOUS
100
AcDbLine
 10
619.483508
 20
8.96989
 30
0.0
 11
620.483508
 21
9.96989
 31
0.0
  0
LINE
  5
209
100
AcDbEntity
  8
外形
  6
CONTINUOUS
100
AcDbLine
 10
619.483508
 20
14.610991
 30
0.0
 11
619.483508
 21
8.96989
 31
0.0
  0
ARC
  5
20A
100
AcDbEntity
  8
外形
  6
CONTINUOUS
100
AcDbCircle
 10
592.383839
 20
18.96989
 30
0.0
 40
27.447988
100
AcDbArc
 50
350.862414
 51
9.137586
  0
LINE
  5
20B
100
AcDbEntity
  8
外形
  6
CONTINUOUS
100
AcDbLine
 10
619.483508
 20
28.96989
 30
0.0
 11
620.483508
 21
27.96989
 31
0.0
  0
ENDSEC
  0
SECTION
  2
OBJECTS
  0
DICTIONARY
  5
1E
100
AcDbDictionary
  3
ACAD_GROUP
350
1C
  3
ACAD_MLINESTYLE
350
1D
  0
DICTIONARY
  5
38
100
AcDbDictionary
280
     1
  3
ACAD_XREC_ROUNDTRIP
360
39
  0
DICTIONARY
  5
54
100
AcDbDictionary
280
     1
  3
ACAD_XREC_ROUNDTRIP
360
55
  0
DICTIONARY
  5
3
100
AcDbDictionary
280
     1
  3
ACAD_LAYOUTSELFREF
360
4
  0
DICTIONARY
  5
A
100
AcDbDictionary
280
     1
  3
ACAD_LAYOUTSELFREF
360
B
  0
DICTIONARY
  5
1C
102
{ACAD_REACTORS
330
1E
102
}
100
AcDbDictionary
  0
DICTIONARY
  5
1D
102
{ACAD_REACTORS
330
1E
102
}
100
AcDbDictionary
  3
STANDARD
350
20
  0
XRECORD
  5
39
102
{ACAD_REACTORS
330
38
102
}
100
AcDbXrecord
102
PLOTBIT
280
     0
  0
XRECORD
  5
55
102
{ACAD_REACTORS
330
54
102
}
100
AcDbXrecord
102
ACADR14ROUNDTRIP
1000
DSTYLE
1002
{
1070
   341
340
0
1070
   343
340
0
1070
   344
340
0
1002
}
  0
XRECORD
  5
4
102
{ACAD_REACTORS
330
3
102
}
100
AcDbXrecord
340
2
  0
XRECORD
  5
B
102
{ACAD_REACTORS
330
A
102
}
100
AcDbXrecord
340
9
  0
MLINESTYLE
  5
20
102
{ACAD_REACTORS
330
1D
102
}
100
AcDbMlineStyle
  2
STANDARD
 70
     0
  3

 62
     0
 51
90.0
 52
90.0
 71
     2
 49
0.5
 62
   256
  6
BYLAYER
 49
-0.5
 62
   256
  6
BYLAYER
  0
ENDSEC
  0
EOF
