  0
SECTION
  2
HEADER
  9
$ACADVER
  1
AC1014
  9
$ACADMAINTVER
 70
     0
  9
$DWGCODEPAGE
  3
ANSI_932
  9
$INSBASE
 10
724.47322
 20
-42.038562
 30
0.0
  9
$EXTMIN
 10
683.056414
 20
-66.56801
 30
0.0
  9
$EXTMAX
 10
937.6417
 20
59.384375
 30
0.0
  9
$LIMMIN
 10
-587.250952
 20
327.890188
  9
$LIMMAX
 10
600.749048
 20
957.890188
  9
$ORTHOMODE
 70
     1
  9
$REGENMODE
 70
     1
  9
$FILLMODE
 70
     1
  9
$QTEXTMODE
 70
     0
  9
$MIRRTEXT
 70
     1
  9
$DRAGMODE
 70
     2
  9
$LTSCALE
 40
5.0
  9
$OSMODE
 70
   303
  9
$ATTMODE
 70
     1
  9
$TEXTSIZE
 40
5.0
  9
$TRACEWID
 40
0.05
  9
$TEXTSTYLE
  7
STANDARD
  9
$CLAYER
  8
外形
  9
$CELTYPE
  6
CONTINUOUS
  9
$CECOLOR
 62
   256
  9
$CELTSCALE
 40
1.0
  9
$DELOBJ
 70
     1
  9
$DISPSILH
 70
     0
  9
$DIMSCALE
 40
1.0
  9
$DIMASZ
 40
2.0
  9
$DIMEXO
 40
1.0
  9
$DIMDLI
 40
8.0
  9
$DIMRND
 40
0.0
  9
$DIMDLE
 40
0.0
  9
$DIMEXE
 40
2.0
  9
$DIMTP
 40
0.0
  9
$DIMTM
 40
0.0
  9
$DIMTXT
 40
2.0
  9
$DIMCEN
 40
-1.0
  9
$DIMTSZ
 40
0.0
  9
$DIMTOL
 70
     0
  9
$DIMLIM
 70
     0
  9
$DIMTIH
 70
     0
  9
$DIMTOH
 70
     0
  9
$DIMSE1
 70
     0
  9
$DIMSE2
 70
     0
  9
$DIMTAD
 70
     1
  9
$DIMZIN
 70
     8
  9
$DIMBLK
  1

  9
$DIMASO
 70
     1
  9
$DIMSHO
 70
     1
  9
$DIMPOST
  1

  9
$DIMAPOST
  1

  9
$DIMALT
 70
     0
  9
$DIMALTD
 70
     2
  9
$DIMALTF
 40
25.4
  9
$DIMLFAC
 40
1.0
  9
$DIMTOFL
 70
     1
  9
$DIMTVP
 40
0.0
  9
$DIMTIX
 70
     0
  9
$DIMSOXD
 70
     0
  9
$DIMSAH
 70
     1
  9
$DIMBLK1
  1
_DOTSMALL
  9
$DIMBLK2
  1
_DOTSMALL
  9
$DIMSTYLE
  2
参考寸法
  9
$DIMCLRD
 70
     2
  9
$DIMCLRE
 70
     2
  9
$DIMCLRT
 70
     2
  9
$DIMTFAC
 40
1.0
  9
$DIMGAP
 40
1.0
  9
$DIMJUST
 70
     0
  9
$DIMSD1
 70
     0
  9
$DIMSD2
 70
     0
  9
$DIMTOLJ
 70
     1
  9
$DIMTZIN
 70
     8
  9
$DIMALTZ
 70
     0
  9
$DIMALTTZ
 70
     0
  9
$DIMFIT
 70
     3
  9
$DIMUPT
 70
     0
  9
$DIMUNIT
 70
     2
  9
$DIMDEC
 70
     3
  9
$DIMTDEC
 70
     2
  9
$DIMALTU
 70
     2
  9
$DIMALTTD
 70
     2
  9
$DIMTXSTY
  7
STANDARD
  9
$DIMAUNIT
 70
     0
  9
$LUNITS
 70
     2
  9
$LUPREC
 70
     3
  9
$SKETCHINC
 40
0.1
  9
$FILLETRAD
 40
6.5
  9
$AUNITS
 70
     0
  9
$AUPREC
 70
     3
  9
$MENU
  1
acad
  9
$ELEVATION
 40
0.0
  9
$PELEVATION
 40
0.0
  9
$THICKNESS
 40
0.0
  9
$LIMCHECK
 70
     0
  9
$BLIPMODE
 70
     0
  9
$CHAMFERA
 40
0.0
  9
$CHAMFERB
 40
0.0
  9
$CHAMFERC
 40
0.0
  9
$CHAMFERD
 40
0.0
  9
$SKPOLY
 70
     0
  9
$TDCREATE
 40
2450751.535399305
  9
$TDUPDATE
 40
2452016.478668981
  9
$TDINDWG
 40
4.5145207176
  9
$TDUSRTIMER
 40
4.5145207176
  9
$USRTIMER
 70
     1
  9
$ANGBASE
 50
0.0
  9
$ANGDIR
 70
     0
  9
$PDMODE
 70
    32
  9
$PDSIZE
 40
0.0
  9
$PLINEWID
 40
0.0
  9
$COORDS
 70
     2
  9
$SPLFRAME
 70
     0
  9
$SPLINETYPE
 70
     5
  9
$SPLINESEGS
 70
     8
  9
$ATTDIA
 70
     0
  9
$ATTREQ
 70
     1
  9
$HANDLING
 70
     1
  9
$HANDSEED
  5
347
  9
$SURFTAB1
 70
     6
  9
$SURFTAB2
 70
     6
  9
$SURFTYPE
 70
     6
  9
$SURFU
 70
     6
  9
$SURFV
 70
     6
  9
$UCSNAME
  2

  9
$UCSORG
 10
0.0
 20
0.0
 30
0.0
  9
$UCSXDIR
 10
1.0
 20
0.0
 30
0.0
  9
$UCSYDIR
 10
0.0
 20
1.0
 30
0.0
  9
$PUCSNAME
  2

  9
$PUCSORG
 10
0.0
 20
0.0
 30
0.0
  9
$PUCSXDIR
 10
1.0
 20
0.0
 30
0.0
  9
$PUCSYDIR
 10
0.0
 20
1.0
 30
0.0
  9
$USERI1
 70
     0
  9
$USERI2
 70
     0
  9
$USERI3
 70
     0
  9
$USERI4
 70
     0
  9
$USERI5
 70
     0
  9
$USERR1
 40
0.0
  9
$USERR2
 40
0.0
  9
$USERR3
 40
0.0
  9
$USERR4
 40
0.0
  9
$USERR5
 40
0.0
  9
$WORLDVIEW
 70
     1
  9
$SHADEDGE
 70
     3
  9
$SHADEDIF
 70
    70
  9
$TILEMODE
 70
     1
  9
$MAXACTVP
 70
    16
  9
$PINSBASE
 10
0.0
 20
0.0
 30
0.0
  9
$PLIMCHECK
 70
     0
  9
$PEXTMIN
 10
1.000000E+20
 20
1.000000E+20
 30
1.000000E+20
  9
$PEXTMAX
 10
-1.000000E+20
 20
-1.000000E+20
 30
-1.000000E+20
  9
$PLIMMIN
 10
0.0
 20
0.0
  9
$PLIMMAX
 10
12.0
 20
9.0
  9
$UNITMODE
 70
     0
  9
$VISRETAIN
 70
     0
  9
$PLINEGEN
 70
     0
  9
$PSLTSCALE
 70
     1
  9
$TREEDEPTH
 70
  3020
  9
$PICKSTYLE
 70
     1
  9
$CMLSTYLE
  2
STANDARD
  9
$CMLJUST
 70
     0
  9
$CMLSCALE
 40
1.0
  9
$PROXYGRAPHICS
 70
     1
  9
$MEASUREMENT
 70
     0
  0
ENDSEC
  0
SECTION
  2
CLASSES
  0
CLASS
  1
LWPOLYLINE
  2
AcDbPolyline
  3
"AutoCAD"
 90
        0
280
     0
281
     1
  0
CLASS
  1
ACDBDICTIONARYWDFLT
  2
AcDbDictionaryWithDefault
  3
AutoCAD 2000
 90
        0
280
     1
281
     0
  0
CLASS
  1
ACDBPLACEHOLDER
  2
AcDbPlaceHolder
  3
AutoCAD 2000
 90
        0
280
     1
281
     0
  0
CLASS
  1
LAYOUT
  2
AcDbLayout
  3
AutoCAD 2000
 90
        0
280
     1
281
     0
  0
CLASS
  1
LONG_TRANSACTION
  2
AcDbLongTransaction
  3
AutoCAD 2000
 90
        0
280
     1
281
     0
  0
CLASS
  1
LWPOLYLINE
  2
AcDbPolyline
  3
"AutoCAD"
 90
        0
280
     0
281
     1
  0
CLASS
  1
HATCH
  2
AcDbHatch
  3
"ACAD_SEDONA"
 90
        0
280
     0
281
     1
  0
CLASS
  1
XRECORD
  2
AcDbXrecord
  3
"<Built In>"
 90
        0
280
     0
281
     0
  0
CLASS
  1
DICTIONARYVAR
  2
AcDbDictionaryVar
  3
"AutoCAD"
 90
        0
280
     0
281
     0
  0
ENDSEC
  0
SECTION
  2
TABLES
  0
TABLE
  2
VPORT
  5
16
100
AcDbSymbolTable
 70
     1
  0
VPORT
  5
342
100
AcDbSymbolTableRecord
100
AcDbViewportTableRecord
  2
*ACTIVE
 70
     0
 10
0.0
 20
0.0
 11
1.0
 21
1.0
 12
823.102111
 22
-9.165934
 13
0.0
 23
0.0
 14
1.0
 24
1.0
 15
10.0
 25
10.0
 16
0.0
 26
0.0
 36
1.0
 17
0.0
 27
0.0
 37
0.0
 40
173.116174
 41
1.710425
 42
50.0
 43
0.0
 44
0.0
 50
0.0
 51
0.0
 71
     0
 72
   100
 73
     1
 74
     1
 75
     0
 76
     0
 77
     0
 78
     2
  0
ENDTAB
  0
TABLE
  2
LTYPE
  5
11
100
AcDbSymbolTable
 70
     2
  0
LTYPE
  5
12
100
AcDbSymbolTableRecord
100
AcDbLinetypeTableRecord
  2
BYBLOCK
 70
     0
  3

 72
    65
 73
     0
 40
0.0
  0
LTYPE
  5
13
100
AcDbSymbolTableRecord
100
AcDbLinetypeTableRecord
  2
BYLAYER
 70
     0
  3

 72
    65
 73
     0
 40
0.0
  0
LTYPE
  5
7
100
AcDbSymbolTableRecord
100
AcDbLinetypeTableRecord
  2
CONTINUOUS
 70
     0
  3
Solid line
 72
    65
 73
     0
 40
0.0
  0
LTYPE
  5
2C
100
AcDbSymbolTableRecord
100
AcDbLinetypeTableRecord
  2
CENTER
 70
     0
  3
Center ____ _ ____ _ ____ _ ____ _ ____ _ ____
 72
    65
 73
     4
 40
2.0
 49
1.25
 74
     0
 49
-0.25
 74
     0
 49
0.25
 74
     0
 49
-0.25
 74
     0
  0
ENDTAB
  0
TABLE
  2
LAYER
  5
E
100
AcDbSymbolTable
 70
     5
  0
LAYER
  5
6
100
AcDbSymbolTableRecord
100
AcDbLayerTableRecord
  2
0
 70
     0
 62
     7
  6
CONTINUOUS
  0
LAYER
  5
1F
100
AcDbSymbolTableRecord
100
AcDbLayerTableRecord
  2
外形
 70
     0
 62
     4
  6
CONTINUOUS
  0
LAYER
  5
48
102
{ACAD_XDICTIONARY
360
49
102
}
100
AcDbSymbolTableRecord
100
AcDbLayerTableRecord
  2
DEFPOINTS
 70
     0
 62
     7
  6
CONTINUOUS
  0
LAYER
  5
36
100
AcDbSymbolTableRecord
100
AcDbLayerTableRecord
  2
寸法
 70
     0
 62
     1
  6
CONTINUOUS
  0
LAYER
  5
54
100
AcDbSymbolTableRecord
100
AcDbLayerTableRecord
  2
参考
 70
     0
 62
     2
  6
CONTINUOUS
  0
ENDTAB
  0
TABLE
  2
STYLE
  5
F
100
AcDbSymbolTable
 70
     1
  0
STYLE
  5
10
100
AcDbSymbolTableRecord
100
AcDbTextStyleTableRecord
  2
STANDARD
 70
     0
 40
0.0
 41
1.0
 50
0.0
 71
     0
 42
5.0
  3
MONOTXT
  4
BIGFONT
  0
ENDTAB
  0
TABLE
  2
VIEW
  5
14
100
AcDbSymbolTable
 70
     0
  0
ENDTAB
  0
TABLE
  2
UCS
  5
15
100
AcDbSymbolTable
 70
     0
  0
ENDTAB
  0
TABLE
  2
APPID
  5
18
100
AcDbSymbolTable
 70
     1
  0
APPID
  5
19
100
AcDbSymbolTableRecord
100
AcDbRegAppTableRecord
  2
ACAD
 70
     0
  0
ENDTAB
  0
TABLE
  2
DIMSTYLE
  5
1A
100
AcDbSymbolTable
 70
     2
  0
DIMSTYLE
105
37
102
{ACAD_XDICTIONARY
360
38
102
}
102
{ACAD_REACTORS
330
35
330
DF
330
D0
330
141
330
134
330
64
330
BD
330
179
102
}
100
AcDbSymbolTableRecord
100
AcDbDimStyleTableRecord
  2
STANDARD
 70
     0
  3

  4

  5

  6
_OPEN30
  7
_OPEN30
 40
0.0
 41
2.0
 42
1.0
 43
8.0
 44
2.0
 45
0.0
 46
0.0
 47
0.0
 48
0.0
140
3.0
141
-1.0
142
0.0
143
25.4
144
1.0
145
0.0
146
1.0
147
1.0
 71
     0
 72
     0
 73
     0
 74
     0
 75
     0
 76
     0
 77
     1
 78
     8
170
     0
171
     2
172
     1
173
     1
174
     0
175
     0
176
     1
177
     1
178
     3
270
     2
271
     2
272
     2
273
     2
274
     2
340
10
275
     0
280
     0
281
     0
282
     0
283
     1
284
     8
285
     0
286
     0
287
     3
288
     0
  0
DIMSTYLE
105
21
102
{ACAD_REACTORS
330
98
330
89
330
7A
330
F7
330
53
102
}
100
AcDbSymbolTableRecord
100
AcDbDimStyleTableRecord
  2
参考寸法
 70
     0
  3

  4

  5

  6
_DOTSMALL
  7
_DOTSMALL
 40
1.0
 41
2.0
 42
1.0
 43
8.0
 44
2.0
 45
0.0
 46
0.0
 47
0.0
 48
0.0
140
2.0
141
-1.0
142
0.0
143
25.4
144
1.0
145
0.0
146
1.0
147
1.0
 71
     0
 72
     0
 73
     0
 74
     0
 75
     0
 76
     0
 77
     1
 78
     8
170
     0
171
     2
172
     1
173
     1
174
     0
175
     0
176
     2
177
     2
178
     2
270
     2
271
     3
272
     2
273
     2
274
     2
340
10
275
     0
280
     0
281
     0
282
     0
283
     1
284
     8
285
     0
286
     0
287
     3
288
     0
  0
ENDTAB
  0
TABLE
  2
BLOCK_RECORD
  5
1
100
AcDbSymbolTable
 70
    28
  0
BLOCK_RECORD
  5
2
102
{ACAD_XDICTIONARY
360
3
102
}
100
AcDbSymbolTableRecord
100
AcDbBlockTableRecord
  2
*MODEL_SPACE
  0
BLOCK_RECORD
  5
9
102
{ACAD_XDICTIONARY
360
A
102
}
100
AcDbSymbolTableRecord
100
AcDbBlockTableRecord
  2
*PAPER_SPACE
  0
BLOCK_RECORD
  5
22
100
AcDbSymbolTableRecord
100
AcDbBlockTableRecord
  2
_DOTSMALL
  0
BLOCK_RECORD
  5
3A
100
AcDbSymbolTableRecord
100
AcDbBlockTableRecord
  2
_OPEN30
  0
BLOCK_RECORD
  5
7B
100
AcDbSymbolTableRecord
100
AcDbBlockTableRecord
  2
*D2
  0
BLOCK_RECORD
  5
40
100
AcDbSymbolTableRecord
100
AcDbBlockTableRecord
  2
*D3
  0
BLOCK_RECORD
  5
D1
100
AcDbSymbolTableRecord
100
AcDbBlockTableRecord
  2
*D4
  0
BLOCK_RECORD
  5
E0
100
AcDbSymbolTableRecord
100
AcDbBlockTableRecord
  2
*D5
  0
BLOCK_RECORD
  5
8A
100
AcDbSymbolTableRecord
100
AcDbBlockTableRecord
  2
*D6
  0
BLOCK_RECORD
  5
99
100
AcDbSymbolTableRecord
100
AcDbBlockTableRecord
  2
*D7
  0
BLOCK_RECORD
  5
142
100
AcDbSymbolTableRecord
100
AcDbBlockTableRecord
  2
*D8
  0
BLOCK_RECORD
  5
135
100
AcDbSymbolTableRecord
100
AcDbBlockTableRecord
  2
*D9
  0
BLOCK_RECORD
  5
65
100
AcDbSymbolTableRecord
100
AcDbBlockTableRecord
  2
*D10
  0
BLOCK_RECORD
  5
F8
100
AcDbSymbolTableRecord
100
AcDbBlockTableRecord
  2
*D11
  0
BLOCK_RECORD
  5
55
100
AcDbSymbolTableRecord
100
AcDbBlockTableRecord
  2
*D12
  0
BLOCK_RECORD
  5
BE
100
AcDbSymbolTableRecord
100
AcDbBlockTableRecord
  2
*D13
  0
BLOCK_RECORD
  5
2A
100
AcDbSymbolTableRecord
100
AcDbBlockTableRecord
  2
5
  0
BLOCK_RECORD
  5
16D
100
AcDbSymbolTableRecord
100
AcDbBlockTableRecord
  2
*D15
  0
BLOCK_RECORD
  5
204
100
AcDbSymbolTableRecord
100
AcDbBlockTableRecord
  2
*D16
  0
BLOCK_RECORD
  5
21E
100
AcDbSymbolTableRecord
100
AcDbBlockTableRecord
  2
*D18
  0
BLOCK_RECORD
  5
257
100
AcDbSymbolTableRecord
100
AcDbBlockTableRecord
  2
*D22
  0
BLOCK_RECORD
  5
271
100
AcDbSymbolTableRecord
100
AcDbBlockTableRecord
  2
*D24
  0
BLOCK_RECORD
  5
28A
100
AcDbSymbolTableRecord
100
AcDbBlockTableRecord
  2
*D26
  0
BLOCK_RECORD
  5
295
100
AcDbSymbolTableRecord
100
AcDbBlockTableRecord
  2
*D27
  0
ENDTAB
  0
ENDSEC
  0
SECTION
  2
BLOCKS
  0
BLOCK
  5
5
100
AcDbEntity
  8
0
100
AcDbBlockBegin
  2
*MODEL_SPACE
 70
     0
 10
0.0
 20
0.0
 30
0.0
  3
*MODEL_SPACE
  1

  0
ENDBLK
  5
8
100
AcDbEntity
  8
0
100
AcDbBlockEnd
  0
BLOCK
  5
C
100
AcDbEntity
 67
     1
  8
0
100
AcDbBlockBegin
  2
*PAPER_SPACE
 70
     0
 10
0.0
 20
0.0
 30
0.0
  3
*PAPER_SPACE
  1

  0
ENDBLK
  5
D
100
AcDbEntity
 67
     1
  8
0
100
AcDbBlockEnd
  0
BLOCK
  5
27
100
AcDbEntity
  8
0
100
AcDbBlockBegin
  2
_DOTSMALL
 70
     0
 10
0.0
 20
0.0
 30
0.0
  3
_DOTSMALL
  1

  0
POLYLINE
  5
23
100
AcDbEntity
  8
0
  6
BYBLOCK
 62
     0
100
AcDb2dPolyline
 66
     1
 10
0.0
 20
0.0
 30
0.0
 70
     1
 40
0.5
 41
0.5
  0
VERTEX
  5
24
100
AcDbEntity
  8
0
  6
BYBLOCK
 62
     0
100
AcDbVertex
100
AcDb2dVertex
 10
-0.0625
 20
0.0
 30
0.0
 42
1.0
  0
VERTEX
  5
25
100
AcDbEntity
  8
0
  6
BYBLOCK
 62
     0
100
AcDbVertex
100
AcDb2dVertex
 10
0.0625
 20
0.0
 30
0.0
 42
1.0
  0
SEQEND
  5
26
100
AcDbEntity
  8
0
  6
BYBLOCK
 62
     0
  0
ENDBLK
  5
28
100
AcDbEntity
  8
0
100
AcDbBlockEnd
  0
BLOCK
  5
3E
100
AcDbEntity
  8
0
100
AcDbBlockBegin
  2
_OPEN30
 70
     0
 10
0.0
 20
0.0
 30
0.0
  3
_OPEN30
  1

  0
LINE
  5
3B
100
AcDbEntity
  8
0
  6
BYBLOCK
 62
     0
100
AcDbLine
 10
-1.0
 20
0.267949
 30
0.0
 11
0.0
 21
0.0
 31
0.0
  0
LINE
  5
3C
100
AcDbEntity
  8
0
  6
BYBLOCK
 62
     0
100
AcDbLine
 10
0.0
 20
0.0
 30
0.0
 11
-1.0
 21
-0.267949
 31
0.0
  0
LINE
  5
3D
100
AcDbEntity
  8
0
  6
BYBLOCK
 62
     0
100
AcDbLine
 10
0.0
 20
0.0
 30
0.0
 11
-1.0
 21
0.0
 31
0.0
  0
ENDBLK
  5
3F
100
AcDbEntity
  8
0
100
AcDbBlockEnd
  0
BLOCK
  5
86
100
AcDbEntity
  8
0
100
AcDbBlockBegin
  2
*D2
 70
     1
 10
0.0
 20
0.0
 30
0.0
  3
*D2
  1

  0
LINE
  5
7C
100
AcDbEntity
  8
0
  6
BYBLOCK
 62
     2
100
AcDbLine
 10
216.989044
 20
503.174981
 30
0.0
 11
216.46158
 21
498.156497
 31
0.0
  0
LINE
  5
7D
100
AcDbEntity
  8
0
  6
BYBLOCK
 62
     2
100
AcDbLine
 10
213.040792
 20
503.589959
 30
0.0
 11
212.513328
 21
498.571475
 31
0.0
  0
LINE
  5
7E
100
AcDbEntity
  8
0
  6
BYBLOCK
 62
     2
100
AcDbLine
 10
216.670637
 20
500.145541
 30
0.0
 11
212.722385
 21
500.560519
 31
0.0
  0
LINE
  5
7F
100
AcDbEntity
  8
0
  6
BYBLOCK
 62
     2
100
AcDbLine
 10
212.722385
 20
500.560519
 30
0.0
 11
204.268948
 21
501.449011
 31
0.0
  0
INSERT
  5
80
100
AcDbEntity
  8
0
  6
BYBLOCK
 62
     2
100
AcDbBlockReference
  2
_DOTSMALL
 10
216.670637
 20
500.145541
 30
0.0
 50
354.0
  0
INSERT
  5
81
100
AcDbEntity
  8
0
  6
BYBLOCK
 62
     2
100
AcDbBlockReference
  2
_DOTSMALL
 10
212.722385
 20
500.560519
 30
0.0
 50
174.0
  0
MTEXT
  5
82
100
AcDbEntity
  8
0
  6
BYBLOCK
 62
     2
100
AcDbMText
 10
208.18133
 20
502.797442
 30
0.0
 40
1.5
 41
0.0
 71
     5
 72
     1
  1
\A1;3.97
 11
0.994522
 21
-0.104528
 31
0.0
  0
POINT
  5
83
100
AcDbEntity
  8
DEFPOINTS
  6
BYBLOCK
 62
     0
100
AcDbPoint
 10
217.093572
 20
504.169503
 30
0.0
  0
POINT
  5
84
100
AcDbEntity
  8
DEFPOINTS
  6
BYBLOCK
 62
     0
100
AcDbPoint
 10
213.14532
 20
504.584481
 30
0.0
  0
POINT
  5
85
100
AcDbEntity
  8
DEFPOINTS
  6
BYBLOCK
 62
     0
100
AcDbPoint
 10
212.722385
 20
500.560519
 30
0.0
  0
ENDBLK
  5
87
100
AcDbEntity
  8
0
100
AcDbBlockEnd
  0
BLOCK
  5
4D
100
AcDbEntity
  8
0
100
AcDbBlockBegin
  2
*D3
 70
     1
 10
0.0
 20
0.0
 30
0.0
  3
*D3
  1

  0
LINE
  5
41
100
AcDbEntity
  8
0
  6
BYBLOCK
 62
     1
100
AcDbLine
 10
1144.777261
 20
503.169544
 30
0.0
 11
1144.777261
 21
487.242578
 31
0.0
  0
LINE
  5
42
100
AcDbEntity
  8
0
  6
BYBLOCK
 62
     1
100
AcDbLine
 10
1324.773173
 20
512.669544
 30
0.0
 11
1324.773173
 21
487.242578
 31
0.0
  0
LINE
  5
43
100
AcDbEntity
  8
0
  6
BYBLOCK
 62
     1
100
AcDbLine
 10
1146.777261
 20
489.242578
 30
0.0
 11
1322.773173
 21
489.242578
 31
0.0
  0
INSERT
  5
44
100
AcDbEntity
  8
0
  6
BYBLOCK
 62
     1
100
AcDbBlockReference
  2
_OPEN30
 10
1144.777261
 20
489.242578
 30
0.0
 41
2.0
 42
2.0
 43
2.0
 50
180.0
  0
INSERT
  5
45
100
AcDbEntity
  8
0
  6
BYBLOCK
 62
     1
100
AcDbBlockReference
  2
_OPEN30
 10
1324.773173
 20
489.242578
 30
0.0
 41
2.0
 42
2.0
 43
2.0
  0
MTEXT
  5
46
100
AcDbEntity
  8
0
  6
BYBLOCK
 62
     3
100
AcDbMText
 10
1234.775217
 20
491.742578
 30
0.0
 40
3.0
 41
0.0
 71
     5
 72
     1
  1
\A1;180
  0
POINT
  5
47
100
AcDbEntity
  8
DEFPOINTS
  6
BYBLOCK
 62
     0
100
AcDbPoint
 10
1144.777261
 20
504.169544
 30
0.0
  0
POINT
  5
4B
100
AcDbEntity
  8
DEFPOINTS
  6
BYBLOCK
 62
     0
100
AcDbPoint
 10
1324.773173
 20
513.669544
 30
0.0
  0
POINT
  5
4C
100
AcDbEntity
  8
DEFPOINTS
  6
BYBLOCK
 62
     0
100
AcDbPoint
 10
1324.773173
 20
489.242578
 30
0.0
  0
ENDBLK
  5
4E
100
AcDbEntity
  8
0
100
AcDbBlockEnd
  0
BLOCK
  5
DB
100
AcDbEntity
  8
0
100
AcDbBlockBegin
  2
*D4
 70
     1
 10
0.0
 20
0.0
 30
0.0
  3
*D4
  1

  0
LINE
  5
D2
100
AcDbEntity
  8
0
  6
BYBLOCK
 62
     1
100
AcDbLine
 10
267.540298
 20
521.169544
 30
0.0
 11
261.108055
 21
521.169544
 31
0.0
  0
LINE
  5
D3
100
AcDbEntity
  8
0
  6
BYBLOCK
 62
     1
100
AcDbLine
 10
274.786363
 20
529.169544
 30
0.0
 11
261.108055
 21
529.169544
 31
0.0
  0
LINE
  5
D4
100
AcDbEntity
  8
0
  6
BYBLOCK
 62
     1
100
AcDbLine
 10
263.108055
 20
523.169544
 30
0.0
 11
263.108055
 21
527.169544
 31
0.0
  0
INSERT
  5
D5
100
AcDbEntity
  8
0
  6
BYBLOCK
 62
     1
100
AcDbBlockReference
  2
_OPEN30
 10
263.108055
 20
521.169544
 30
0.0
 41
2.0
 42
2.0
 43
2.0
 50
270.0
  0
INSERT
  5
D6
100
AcDbEntity
  8
0
  6
BYBLOCK
 62
     1
100
AcDbBlockReference
  2
_OPEN30
 10
263.108055
 20
529.169544
 30
0.0
 41
2.0
 42
2.0
 43
2.0
 50
90.0
  0
MTEXT
  5
D7
100
AcDbEntity
  8
0
  6
BYBLOCK
 62
     3
100
AcDbMText
 10
260.608055
 20
525.169544
 30
0.0
 40
3.0
 41
0.0
 71
     5
 72
     1
  1
\A1;8
 11
0.0
 21
1.0
 31
0.0
  0
POINT
  5
D8
100
AcDbEntity
  8
DEFPOINTS
  6
BYBLOCK
 62
     0
100
AcDbPoint
 10
268.540298
 20
521.169544
 30
0.0
  0
POINT
  5
D9
100
AcDbEntity
  8
DEFPOINTS
  6
BYBLOCK
 62
     0
100
AcDbPoint
 10
275.786363
 20
529.169544
 30
0.0
  0
POINT
  5
DA
100
AcDbEntity
  8
DEFPOINTS
  6
BYBLOCK
 62
     0
100
AcDbPoint
 10
263.108055
 20
529.169544
 30
0.0
  0
ENDBLK
  5
DC
100
AcDbEntity
  8
0
100
AcDbBlockEnd
  0
BLOCK
  5
EA
100
AcDbEntity
  8
0
100
AcDbBlockBegin
  2
*D5
 70
     1
 10
0.0
 20
0.0
 30
0.0
  3
*D5
  1

  0
LINE
  5
E1
100
AcDbEntity
  8
0
  6
BYBLOCK
 62
     1
100
AcDbLine
 10
1143.777261
 20
504.169544
 30
0.0
 11
1137.69036
 21
504.169544
 31
0.0
  0
LINE
  5
E2
100
AcDbEntity
  8
0
  6
BYBLOCK
 62
     1
100
AcDbLine
 10
1144.122604
 20
521.169544
 30
0.0
 11
1137.69036
 21
521.169544
 31
0.0
  0
LINE
  5
E3
100
AcDbEntity
  8
0
  6
BYBLOCK
 62
     1
100
AcDbLine
 10
1139.69036
 20
506.169544
 30
0.0
 11
1139.69036
 21
519.169544
 31
0.0
  0
INSERT
  5
E4
100
AcDbEntity
  8
0
  6
BYBLOCK
 62
     1
100
AcDbBlockReference
  2
_OPEN30
 10
1139.69036
 20
504.169544
 30
0.0
 41
2.0
 42
2.0
 43
2.0
 50
270.0
  0
INSERT
  5
E5
100
AcDbEntity
  8
0
  6
BYBLOCK
 62
     1
100
AcDbBlockReference
  2
_OPEN30
 10
1139.69036
 20
521.169544
 30
0.0
 41
2.0
 42
2.0
 43
2.0
 50
90.0
  0
MTEXT
  5
E6
100
AcDbEntity
  8
0
  6
BYBLOCK
 62
     3
100
AcDbMText
 10
1137.19036
 20
512.669544
 30
0.0
 40
3.0
 41
0.0
 71
     5
 72
     1
  1
\A1;17
 11
0.0
 21
1.0
 31
0.0
  0
POINT
  5
E7
100
AcDbEntity
  8
DEFPOINTS
  6
BYBLOCK
 62
     0
100
AcDbPoint
 10
1144.777261
 20
504.169544
 30
0.0
  0
POINT
  5
E8
100
AcDbEntity
  8
DEFPOINTS
  6
BYBLOCK
 62
     0
100
AcDbPoint
 10
1145.122604
 20
521.169544
 30
0.0
  0
POINT
  5
E9
100
AcDbEntity
  8
DEFPOINTS
  6
BYBLOCK
 62
     0
100
AcDbPoint
 10
1139.69036
 20
521.169544
 30
0.0
  0
ENDBLK
  5
EB
100
AcDbEntity
  8
0
100
AcDbBlockEnd
  0
BLOCK
  5
96
100
AcDbEntity
  8
0
100
AcDbBlockBegin
  2
*D6
 70
     1
 10
0.0
 20
0.0
 30
0.0
  3
*D6
  1

  0
LINE
  5
8B
100
AcDbEntity
  8
0
  6
BYBLOCK
 62
     2
100
AcDbLine
 10
217.093392
 20
498.5864
 30
0.0
 11
217.093392
 21
489.477745
 31
0.0
  0
LINE
  5
8C
100
AcDbEntity
  8
0
  6
BYBLOCK
 62
     2
100
AcDbLine
 10
217.113392
 20
498.5864
 30
0.0
 11
217.113392
 21
489.477745
 31
0.0
  0
LINE
  5
8D
100
AcDbEntity
  8
0
  6
BYBLOCK
 62
     2
100
AcDbLine
 10
217.093392
 20
491.477745
 30
0.0
 11
216.093392
 21
491.477745
 31
0.0
  0
LINE
  5
8E
100
AcDbEntity
  8
0
  6
BYBLOCK
 62
     2
100
AcDbLine
 10
217.113392
 20
491.477745
 30
0.0
 11
226.613392
 21
491.477745
 31
0.0
  0
LINE
  5
8F
100
AcDbEntity
  8
0
  6
BYBLOCK
 62
     2
100
AcDbLine
 10
217.093392
 20
491.477745
 30
0.0
 11
217.113392
 21
491.477745
 31
0.0
  0
INSERT
  5
90
100
AcDbEntity
  8
0
  6
BYBLOCK
 62
     2
100
AcDbBlockReference
  2
_DOTSMALL
 10
217.093392
 20
491.477745
 30
0.0
  0
INSERT
  5
91
100
AcDbEntity
  8
0
  6
BYBLOCK
 62
     2
100
AcDbBlockReference
  2
_DOTSMALL
 10
217.113392
 20
491.477745
 30
0.0
 50
180.0
  0
MTEXT
  5
92
100
AcDbEntity
  8
0
  6
BYBLOCK
 62
     2
100
AcDbMText
 10
222.863392
 20
493.227745
 30
0.0
 40
1.5
 41
0.0
 71
     5
 72
     1
  1
\A1;0.02
  0
POINT
  5
93
100
AcDbEntity
  8
DEFPOINTS
  6
BYBLOCK
 62
     0
100
AcDbPoint
 10
217.093392
 20
499.5864
 30
0.0
  0
POINT
  5
94
100
AcDbEntity
  8
DEFPOINTS
  6
BYBLOCK
 62
     0
100
AcDbPoint
 10
217.113392
 20
499.5864
 30
0.0
  0
POINT
  5
95
100
AcDbEntity
  8
DEFPOINTS
  6
BYBLOCK
 62
     0
100
AcDbPoint
 10
217.113392
 20
491.477745
 30
0.0
  0
ENDBLK
  5
97
100
AcDbEntity
  8
0
100
AcDbBlockEnd
  0
BLOCK
  5
A3
100
AcDbEntity
  8
0
100
AcDbBlockBegin
  2
*D7
 70
     1
 10
0.0
 20
0.0
 30
0.0
  3
*D7
  1

  0
LINE
  5
9A
100
AcDbEntity
  8
0
  6
BYBLOCK
 62
     2
100
AcDbLine
 10
268.194956
 20
503.169544
 30
0.0
 11
268.194956
 21
494.599155
 31
0.0
  0
LINE
  5
9B
100
AcDbEntity
  8
0
  6
BYBLOCK
 62
     2
100
AcDbLine
 10
308.194956
 20
510.169544
 30
0.0
 11
308.194956
 21
494.599155
 31
0.0
  0
LINE
  5
9C
100
AcDbEntity
  8
0
  6
BYBLOCK
 62
     2
100
AcDbLine
 10
268.194956
 20
496.599155
 30
0.0
 11
308.194956
 21
496.599155
 31
0.0
  0
INSERT
  5
9D
100
AcDbEntity
  8
0
  6
BYBLOCK
 62
     2
100
AcDbBlockReference
  2
_DOTSMALL
 10
268.194956
 20
496.599155
 30
0.0
 50
180.0
  0
INSERT
  5
9E
100
AcDbEntity
  8
0
  6
BYBLOCK
 62
     2
100
AcDbBlockReference
  2
_DOTSMALL
 10
308.194956
 20
496.599155
 30
0.0
  0
MTEXT
  5
9F
100
AcDbEntity
  8
0
  6
BYBLOCK
 62
     2
100
AcDbMText
 10
288.194956
 20
498.349155
 30
0.0
 40
1.5
 41
0.0
 71
     5
 72
     1
  1
\A1;40
  0
POINT
  5
A0
100
AcDbEntity
  8
DEFPOINTS
  6
BYBLOCK
 62
     0
100
AcDbPoint
 10
268.194956
 20
504.169544
 30
0.0
  0
POINT
  5
A1
100
AcDbEntity
  8
DEFPOINTS
  6
BYBLOCK
 62
     0
100
AcDbPoint
 10
308.194956
 20
511.169544
 30
0.0
  0
POINT
  5
A2
100
AcDbEntity
  8
DEFPOINTS
  6
BYBLOCK
 62
     0
100
AcDbPoint
 10
308.194956
 20
496.599155
 30
0.0
  0
ENDBLK
  5
A4
100
AcDbEntity
  8
0
100
AcDbBlockEnd
  0
BLOCK
  5
14C
100
AcDbEntity
  8
0
100
AcDbBlockBegin
  2
*D8
 70
     1
 10
0.0
 20
0.0
 30
0.0
  3
*D8
  1

  0
LINE
  5
143
100
AcDbEntity
  8
0
  6
BYBLOCK
 62
     1
100
AcDbLine
 10
1254.694816
 20
514.232373
 30
0.0
 11
1254.694816
 21
498.290149
 31
0.0
  0
LINE
  5
144
100
AcDbEntity
  8
0
  6
BYBLOCK
 62
     1
100
AcDbLine
 10
1276.694816
 20
514.232373
 30
0.0
 11
1276.694816
 21
498.290149
 31
0.0
  0
LINE
  5
145
100
AcDbEntity
  8
0
  6
BYBLOCK
 62
     1
100
AcDbLine
 10
1256.694816
 20
500.290149
 30
0.0
 11
1274.694816
 21
500.290149
 31
0.0
  0
INSERT
  5
146
100
AcDbEntity
  8
0
  6
BYBLOCK
 62
     1
100
AcDbBlockReference
  2
_OPEN30
 10
1254.694816
 20
500.290149
 30
0.0
 41
2.0
 42
2.0
 43
2.0
 50
180.0
  0
INSERT
  5
147
100
AcDbEntity
  8
0
  6
BYBLOCK
 62
     1
100
AcDbBlockReference
  2
_OPEN30
 10
1276.694816
 20
500.290149
 30
0.0
 41
2.0
 42
2.0
 43
2.0
  0
MTEXT
  5
148
100
AcDbEntity
  8
0
  6
BYBLOCK
 62
     3
100
AcDbMText
 10
1265.694816
 20
502.790149
 30
0.0
 40
3.0
 41
0.0
 71
     5
 72
     1
  1
\A1;22
  0
POINT
  5
149
100
AcDbEntity
  8
DEFPOINTS
  6
BYBLOCK
 62
     0
100
AcDbPoint
 10
1254.694816
 20
515.232373
 30
0.0
  0
POINT
  5
14A
100
AcDbEntity
  8
DEFPOINTS
  6
BYBLOCK
 62
     0
100
AcDbPoint
 10
1276.694816
 20
515.232373
 30
0.0
  0
POINT
  5
14B
100
AcDbEntity
  8
DEFPOINTS
  6
BYBLOCK
 62
     0
100
AcDbPoint
 10
1276.694816
 20
500.290149
 30
0.0
  0
ENDBLK
  5
14D
100
AcDbEntity
  8
0
100
AcDbBlockEnd
  0
BLOCK
  5
13E
100
AcDbEntity
  8
0
100
AcDbBlockBegin
  2
*D9
 70
     1
 10
0.0
 20
0.0
 30
0.0
  3
*D9
  1

  0
LINE
  5
136
100
AcDbEntity
  8
0
  6
BYBLOCK
 62
     1
100
AcDbLine
 10
1284.35883
 20
542.24652
 30
0.0
 11
1275.307625
 21
532.025138
 31
0.0
  0
LINE
  5
137
100
AcDbEntity
  8
0
  6
BYBLOCK
 62
     1
100
AcDbLine
 10
1256.082007
 20
510.313951
 30
0.0
 11
1254.756103
 21
508.816628
 31
0.0
  0
MTEXT
  5
138
100
AcDbEntity
  8
0
  6
BYBLOCK
 62
     3
100
AcDbMText
 10
1279.172414
 20
540.160593
 30
0.0
 40
3.0
 41
0.0
 71
     5
 72
     1
  1
\A1;\U+220525
 11
0.662952
 21
0.748662
 31
0.0
  0
LINE
  5
139
100
AcDbEntity
  8
0
  6
BYBLOCK
 62
     1
100
AcDbLine
 10
1257.407912
 20
511.811274
 30
0.0
 11
1273.98172
 21
530.527814
 31
0.0
  0
INSERT
  5
13A
100
AcDbEntity
  8
0
  6
BYBLOCK
 62
     1
100
AcDbBlockReference
  2
_OPEN30
 10
1257.407912
 20
511.811274
 30
0.0
 41
2.0
 42
2.0
 43
2.0
 50
48.474575
  0
INSERT
  5
13B
100
AcDbEntity
  8
0
  6
BYBLOCK
 62
     1
100
AcDbBlockReference
  2
_OPEN30
 10
1273.98172
 20
530.527814
 30
0.0
 41
2.0
 42
2.0
 43
2.0
 50
228.474575
  0
POINT
  5
13C
100
AcDbEntity
  8
DEFPOINTS
  6
BYBLOCK
 62
     0
100
AcDbPoint
 10
1273.98172
 20
530.527814
 30
0.0
  0
POINT
  5
13D
100
AcDbEntity
  8
DEFPOINTS
  6
BYBLOCK
 62
     0
100
AcDbPoint
 10
1257.407912
 20
511.811274
 30
0.0
  0
ENDBLK
  5
13F
100
AcDbEntity
  8
0
100
AcDbBlockEnd
  0
BLOCK
  5
75
100
AcDbEntity
  8
0
100
AcDbBlockBegin
  2
*D10
 70
     1
 10
0.0
 20
0.0
 30
0.0
  3
*D10
  1

  0
LINE
  5
66
100
AcDbEntity
  8
0
  6
BYBLOCK
 62
     1
100
AcDbLine
 10
1093.571169
 20
503.173273
 30
0.0
 11
1091.363662
 21
482.170245
 31
0.0
  0
LINE
  5
67
100
AcDbEntity
  8
0
  6
BYBLOCK
 62
     1
100
AcDbLine
 10
1093.675698
 20
498.5864
 30
0.0
 11
1093.675698
 21
482.049076
 31
0.0
  0
ARC
  5
68
100
AcDbEntity
  8
0
  6
BYBLOCK
 62
     1
100
AcDbCircle
 10
1093.675698
 20
504.167794
 30
0.0
 40
20.118718
100
AcDbArc
 50
252.589617
 51
264.0
  0
LINE
  5
69
100
AcDbEntity
  8
0
  6
BYBLOCK
 62
     1
100
AcDbLine
 10
1087.655901
 20
484.970793
 30
0.0
 11
1079.449901
 21
487.544031
 31
0.0
  0
ARC
  5
6A
100
AcDbEntity
  8
0
  6
BYBLOCK
 62
     1
100
AcDbCircle
 10
1093.675698
 20
504.167794
 30
0.0
 40
20.118718
100
AcDbArc
 50
252.603767
 51
258.301884
  0
ARC
  5
6B
100
AcDbEntity
  8
0
  6
BYBLOCK
 62
     1
100
AcDbCircle
 10
1093.675698
 20
504.167794
 30
0.0
 40
20.118718
100
AcDbArc
 50
275.698116
 51
281.396233
  0
ARC
  5
6C
100
AcDbEntity
  8
0
  6
BYBLOCK
 62
     1
100
AcDbCircle
 10
1093.675698
 20
504.167794
 30
0.0
 40
20.118718
100
AcDbArc
 50
264.0
 51
270.0
  0
INSERT
  5
6D
100
AcDbEntity
  8
0
  6
BYBLOCK
 62
     1
100
AcDbBlockReference
  2
_OPEN30
 10
1091.572719
 20
484.159289
 30
0.0
 41
2.0
 42
2.0
 43
2.0
 50
351.150942
  0
INSERT
  5
6E
100
AcDbEntity
  8
0
  6
BYBLOCK
 62
     1
100
AcDbBlockReference
  2
_OPEN30
 10
1093.675698
 20
484.049076
 30
0.0
 41
2.0
 42
2.0
 43
2.0
 50
182.849058
  0
MTEXT
  5
6F
100
AcDbEntity
  8
0
  6
BYBLOCK
 62
     3
100
AcDbMText
 10
1084.300935
 20
488.642877
 30
0.0
 40
3.0
 41
0.0
 71
     5
 72
     1
  1
\A1;6°
 11
0.954186
 21
-0.299214
 31
0.0
  0
POINT
  5
70
100
AcDbEntity
  8
DEFPOINTS
  6
BYBLOCK
 62
     0
100
AcDbPoint
 10
1092.973565
 20
484.061332
 30
0.0
  0
POINT
  5
71
100
AcDbEntity
  8
DEFPOINTS
  6
BYBLOCK
 62
     0
100
AcDbPoint
 10
1096.710317
 20
533.040272
 30
0.0
  0
POINT
  5
72
100
AcDbEntity
  8
DEFPOINTS
  6
BYBLOCK
 62
     0
100
AcDbPoint
 10
1093.675698
 20
540.681813
 30
0.0
  0
POINT
  5
73
100
AcDbEntity
  8
DEFPOINTS
  6
BYBLOCK
 62
     0
100
AcDbPoint
 10
1093.675698
 20
499.5864
 30
0.0
  0
POINT
  5
74
100
AcDbEntity
  8
DEFPOINTS
  6
BYBLOCK
 62
     0
100
AcDbPoint
 10
1093.675877
 20
504.169503
 30
0.0
  0
ENDBLK
  5
76
100
AcDbEntity
  8
0
100
AcDbBlockEnd
  0
BLOCK
  5
103
100
AcDbEntity
  8
0
100
AcDbBlockBegin
  2
*D11
 70
     1
 10
0.0
 20
0.0
 30
0.0
  3
*D11
  1

  0
LINE
  5
F9
100
AcDbEntity
  8
0
  6
BYBLOCK
 62
     2
100
AcDbLine
 10
-8.354093
 20
513.930231
 30
0.0
 11
-8.354093
 21
503.66145
 31
0.0
  0
LINE
  5
FA
100
AcDbEntity
  8
0
  6
BYBLOCK
 62
     2
100
AcDbLine
 10
-2.754049
 20
513.930231
 30
0.0
 11
-2.754049
 21
503.66145
 31
0.0
  0
LINE
  5
FB
100
AcDbEntity
  8
0
  6
BYBLOCK
 62
     2
100
AcDbLine
 10
-8.354093
 20
505.66145
 30
0.0
 11
-2.754049
 21
505.66145
 31
0.0
  0
LINE
  5
FC
100
AcDbEntity
  8
0
  6
BYBLOCK
 62
     2
100
AcDbLine
 10
-2.754049
 20
505.66145
 30
0.0
 11
4.245951
 21
505.66145
 31
0.0
  0
INSERT
  5
FD
100
AcDbEntity
  8
0
  6
BYBLOCK
 62
     2
100
AcDbBlockReference
  2
_DOTSMALL
 10
-8.354093
 20
505.66145
 30
0.0
 50
180.0
  0
INSERT
  5
FE
100
AcDbEntity
  8
0
  6
BYBLOCK
 62
     2
100
AcDbBlockReference
  2
_DOTSMALL
 10
-2.754049
 20
505.66145
 30
0.0
  0
MTEXT
  5
FF
100
AcDbEntity
  8
0
  6
BYBLOCK
 62
     2
100
AcDbMText
 10
1.245951
 20
507.41145
 30
0.0
 40
1.5
 41
0.0
 71
     5
 72
     1
  1
\A1;5.6
  0
POINT
  5
100
100
AcDbEntity
  8
DEFPOINTS
  6
BYBLOCK
 62
     0
100
AcDbPoint
 10
-8.354093
 20
514.930231
 30
0.0
  0
POINT
  5
101
100
AcDbEntity
  8
DEFPOINTS
  6
BYBLOCK
 62
     0
100
AcDbPoint
 10
-2.754049
 20
514.930231
 30
0.0
  0
POINT
  5
102
100
AcDbEntity
  8
DEFPOINTS
  6
BYBLOCK
 62
     0
100
AcDbPoint
 10
-2.754049
 20
505.66145
 30
0.0
  0
ENDBLK
  5
104
100
AcDbEntity
  8
0
100
AcDbBlockEnd
  0
BLOCK
  5
61
100
AcDbEntity
  8
0
100
AcDbBlockBegin
  2
*D12
 70
     1
 10
0.0
 20
0.0
 30
0.0
  3
*D12
  1

  0
LINE
  5
56
100
AcDbEntity
  8
0
  6
BYBLOCK
 62
     2
100
AcDbLine
 10
299.044554
 20
533.419544
 30
0.0
 11
314.790077
 21
533.419544
 31
0.0
  0
LINE
  5
57
100
AcDbEntity
  8
0
  6
BYBLOCK
 62
     2
100
AcDbLine
 10
284.013605
 20
533.919544
 30
0.0
 11
310.550786
 21
549.240793
 31
0.0
  0
ARC
  5
58
100
AcDbEntity
  8
0
  6
BYBLOCK
 62
     2
100
AcDbCircle
 10
283.147579
 20
533.419544
 30
0.0
 40
29.642498
100
AcDbArc
 50
0.0
 51
30.0
  0
INSERT
  5
59
100
AcDbEntity
  8
0
  6
BYBLOCK
 62
     2
100
AcDbBlockReference
  2
_DOTSMALL
 10
312.790077
 20
533.419544
 30
0.0
 50
270.0
  0
INSERT
  5
5A
100
AcDbEntity
  8
0
  6
BYBLOCK
 62
     2
100
AcDbBlockReference
  2
_DOTSMALL
 10
308.818736
 20
548.240793
 30
0.0
 50
120.0
  0
MTEXT
  5
5B
100
AcDbEntity
  8
0
  6
BYBLOCK
 62
     2
100
AcDbMText
 10
313.470404
 20
541.544521
 30
0.0
 40
1.5
 41
0.0
 71
     5
 72
     1
  1
\A1;30°
 11
0.258819
 21
-0.965926
 31
0.0
  0
POINT
  5
5C
100
AcDbEntity
  8
DEFPOINTS
  6
BYBLOCK
 62
     0
100
AcDbPoint
 10
312.339741
 20
538.56691
 30
0.0
  0
POINT
  5
5D
100
AcDbEntity
  8
DEFPOINTS
  6
BYBLOCK
 62
     0
100
AcDbPoint
 10
275.786363
 20
529.169544
 30
0.0
  0
POINT
  5
5E
100
AcDbEntity
  8
DEFPOINTS
  6
BYBLOCK
 62
     0
100
AcDbPoint
 10
298.044554
 20
533.419544
 30
0.0
  0
POINT
  5
5F
100
AcDbEntity
  8
DEFPOINTS
  6
BYBLOCK
 62
     0
100
AcDbPoint
 10
283.147579
 20
533.419544
 30
0.0
  0
POINT
  5
60
100
AcDbEntity
  8
DEFPOINTS
  6
BYBLOCK
 62
     0
100
AcDbPoint
 10
283.147579
 20
533.419544
 30
0.0
  0
ENDBLK
  5
62
100
AcDbEntity
  8
0
100
AcDbBlockEnd
  0
BLOCK
  5
CA
100
AcDbEntity
  8
0
100
AcDbBlockBegin
  2
*D13
 70
     1
 10
0.0
 20
0.0
 30
0.0
  3
*D13
  1

  0
LINE
  5
BF
100
AcDbEntity
  8
0
  6
BYBLOCK
 62
     1
100
AcDbLine
 10
276.087069
 20
530.123261
 30
0.0
 11
277.902599
 21
535.881387
 31
0.0
  0
LINE
  5
C0
100
AcDbEntity
  8
0
  6
BYBLOCK
 62
     1
100
AcDbLine
 10
266.903894
 20
504.169544
 30
0.0
 11
234.653103
 21
504.169544
 31
0.0
  0
ARC
  5
C1
100
AcDbEntity
  8
0
  6
BYBLOCK
 62
     1
100
AcDbCircle
 10
267.903894
 20
504.169544
 30
0.0
 40
31.250791
100
AcDbArc
 50
76.167463
 51
176.332537
  0
INSERT
  5
C2
100
AcDbEntity
  8
0
  6
BYBLOCK
 62
     1
100
AcDbBlockReference
  2
_OPEN30
 10
277.301188
 20
533.973954
 30
0.0
 41
2.0
 42
2.0
 43
2.0
 50
344.333732
  0
INSERT
  5
C3
100
AcDbEntity
  8
0
  6
BYBLOCK
 62
     1
100
AcDbBlockReference
  2
_OPEN30
 10
236.653103
 20
504.169544
 30
0.0
 41
2.0
 42
2.0
 43
2.0
 50
268.166268
  0
MTEXT
  5
C4
100
AcDbEntity
  8
0
  6
BYBLOCK
 62
     3
100
AcDbMText
 10
247.946725
 20
531.387688
 30
0.0
 40
3.0
 41
0.0
 71
     5
 72
     1
  1
\A1;107.5°
 11
0.806445
 21
0.59131
 31
0.0
  0
POINT
  5
C5
100
AcDbEntity
  8
DEFPOINTS
  6
BYBLOCK
 62
     0
100
AcDbPoint
 10
258.074121
 20
533.834128
 30
0.0
  0
POINT
  5
C6
100
AcDbEntity
  8
DEFPOINTS
  6
BYBLOCK
 62
     0
100
AcDbPoint
 10
275.786363
 20
529.169544
 30
0.0
  0
POINT
  5
C7
100
AcDbEntity
  8
DEFPOINTS
  6
BYBLOCK
 62
     0
100
AcDbPoint
 10
268.994956
 20
504.169544
 30
0.0
  0
POINT
  5
C8
100
AcDbEntity
  8
DEFPOINTS
  6
BYBLOCK
 62
     0
100
AcDbPoint
 10
268.194956
 20
504.169544
 30
0.0
  0
POINT
  5
C9
100
AcDbEntity
  8
DEFPOINTS
  6
BYBLOCK
 62
     0
100
AcDbPoint
 10
268.231982
 20
505.210109
 30
0.0
  0
ENDBLK
  5
CB
100
AcDbEntity
  8
0
100
AcDbBlockEnd
  0
BLOCK
  5
161
100
AcDbEntity
  8
0
100
AcDbBlockBegin
  2
5
 70
     0
 10
0.0
 20
0.0
 30
0.0
  3
5
  1

  0
LINE
  5
2B
100
AcDbEntity
  8
外形
  6
CENTER
 62
     1
100
AcDbLine
 10
56.004051
 20
65.517975
 30
0.0
 11
243.142614
 21
65.517975
 31
0.0
  0
LINE
  5
2D
100
AcDbEntity
  8
外形
  6
CONTINUOUS
100
AcDbLine
 10
89.969208
 20
68.017975
 30
0.0
 11
163.576263
 21
68.017975
 31
0.0
  0
LINE
  5
2E
100
AcDbEntity
  8
外形
  6
CONTINUOUS
100
AcDbLine
 10
95.658709
 20
13.582074
 30
0.0
 11
233.65462
 21
13.582074
 31
0.0
  0
LINE
  5
2F
100
AcDbEntity
  8
外形
  6
CONTINUOUS
100
AcDbLine
 10
95.658709
 20
28.582074
 30
0.0
 11
233.65462
 21
28.582074
 31
0.0
  0
LINE
  5
30
100
AcDbEntity
  8
外形
  6
CONTINUOUS
100
AcDbLine
 10
95.908709
 20
32.082074
 30
0.0
 11
233.65462
 21
32.082074
 31
0.0
  0
LINE
  5
31
100
AcDbEntity
  8
外形
  6
CONTINUOUS
100
AcDbLine
 10
95.908709
 20
10.082074
 30
0.0
 11
233.65462
 21
10.082074
 31
0.0
  0
LINE
  5
32
100
AcDbEntity
  8
外形
  6
CONTINUOUS
100
AcDbLine
 10
95.658709
 20
72.080804
 30
0.0
 11
163.576263
 21
72.080804
 31
0.0
  0
LINE
  5
33
100
AcDbEntity
  8
外形
  6
CONTINUOUS
100
AcDbLine
 10
95.658709
 20
83.955146
 30
0.0
 11
163.576263
 21
83.955146
 31
0.0
  0
LINE
  5
34
100
AcDbEntity
  8
外形
  6
CONTINUOUS
100
AcDbLine
 10
95.908709
 20
90.517975
 30
0.0
 11
163.576263
 21
90.517975
 31
0.0
  0
DIMENSION
  5
35
100
AcDbEntity
  8
寸法
  6
CONTINUOUS
100
AcDbDimension
  2
*D3
 10
235.65462
 20
46.091008
 30
0.0
 11
145.656664
 21
48.591008
 31
0.0
 12
-1089.118553
 22
-443.15157
 32
0.0
  3
STANDARD
100
AcDbAlignedDimension
 13
55.658709
 23
61.017975
 33
0.0
 14
235.65462
 24
70.517975
 34
0.0
100
AcDbRotatedDimension
1001
ACAD
1000
DSTYLE
1002
{
1070
    40
1040
1.0
1002
}
  0
LINE
  5
4F
100
AcDbEntity
  8
外形
  6
CENTER
 62
     1
100
AcDbLine
 10
51.828728
 20
21.082074
 30
0.0
 11
243.142614
 21
21.082074
 31
0.0
  0
LINE
  5
50
100
AcDbEntity
  8
外形
  6
CENTER
 62
     1
100
AcDbLine
 10
56.004051
 20
78.017975
 30
0.0
 11
243.142614
 21
78.017975
 31
0.0
  0
LEADER
  5
51
100
AcDbEntity
  8
寸法
  6
CONTINUOUS
 62
     1
100
AcDbLeader
  3
STANDARD
 73
     0
 74
     0
 75
     1
 40
3.0
 41
26.0
 76
     3
 10
11.758151
 20
91.305924
 30
0.0
 10
19.725477
 20
104.547134
 30
0.0
 10
21.725477
 20
104.547134
 30
0.0
 77
   256
340
52
213
-0.1129475379637483
223
0.5510341987360618
233
0.0
1001
ACAD
1000
DSTYLE
1002
{
1070
   284
1070
    13
1070
   146
1040
0.5
1070
   272
1070
     3
1070
    40
1040
1.0
1070
   287
1070
     0
1002
}
  0
DIMENSION
  5
53
100
AcDbEntity
  8
参考
  6
CONTINUOUS
100
AcDbDimension
  2
*D12
 10
70.611332
 20
90.267975
 30
0.0
 11
100.934156
 21
98.392951
 31
0.0
 12
-212.536248
 22
-443.15157
 32
0.0
 70
     2
  3
参考寸法
100
AcDb2LineAngularDimension
 13
85.508307
 23
90.267975
 33
0.0
 14
70.611332
 24
90.267975
 34
0.0
 15
63.250116
 25
86.017975
 35
0.0
 16
99.803494
 26
95.41534
 36
0.0
1001
ACAD
1000
DSTYLE
1002
{
1070
   140
1040
1.5
1070
    41
1040
1.0
1002
}
  0
ARC
  5
63
100
AcDbEntity
  8
外形
  6
CONTINUOUS
100
AcDbCircle
 10
4.577145
 20
78.017975
 30
0.0
 40
12.25
100
AcDbArc
 50
29.183083
 51
151.202939
  0
DIMENSION
  5
64
100
AcDbEntity
  8
寸法
  6
CONTINUOUS
100
AcDbDimension
  2
*D10
 10
4.557324
 20
61.017933
 30
0.0
 11
-4.817618
 21
45.491308
 31
0.0
 12
-1089.118553
 22
-443.15157
 32
0.0
 70
     2
  3
STANDARD
100
AcDb2LineAngularDimension
 13
4.557145
 23
97.530243
 33
0.0
 14
4.557145
 24
56.434831
 34
0.0
 15
7.591765
 25
89.888702
 35
0.0
 16
3.855012
 26
40.909763
 36
0.0
1001
ACAD
1000
DSTYLE
1002
{
1070
    40
1040
1.0
1002
}
  0
CIRCLE
  5
77
100
AcDbEntity
  8
外形
  6
CENTER
 62
     1
100
AcDbCircle
 10
4.557329
 20
77.017975
 30
0.0
 40
16.0
  0
ARC
  5
78
100
AcDbEntity
  8
外形
  6
CONTINUOUS
100
AcDbCircle
 10
4.557145
 20
77.017975
 30
0.0
 40
16.0
100
AcDbArc
 50
227.956763
 51
270.000659
  0
LINE
  5
79
100
AcDbEntity
  8
外形
  6
CENTER
 62
     1
100
AcDbLine
 10
13.600102
 20
78.017975
 30
0.0
 11
-4.445812
 21
78.017975
 31
0.0
  0
DIMENSION
  5
7A
100
AcDbEntity
  8
参考
  6
CONTINUOUS
100
AcDbDimension
  2
*D2
 10
0.186137
 20
57.408949
 30
0.0
 11
-4.354917
 21
59.645873
 31
0.0
 12
-212.536248
 22
-443.15157
 32
0.0
 70
     1
  3
参考寸法
100
AcDbAlignedDimension
 13
4.557324
 23
61.017933
 33
0.0
 14
0.609073
 24
61.432911
 34
0.0
1001
ACAD
1000
DSTYLE
1002
{
1070
   140
1040
1.5
1070
    41
1040
1.0
1002
}
  0
LINE
  5
88
100
AcDbEntity
  8
外形
  6
CONTINUOUS
100
AcDbLine
 10
-6.157915
 20
83.955146
 30
0.0
 11
-6.157915
 21
65.13574
 31
0.0
  0
DIMENSION
  5
89
100
AcDbEntity
  8
参考
  6
CONTINUOUS
100
AcDbDimension
  2
*D6
 10
4.577145
 20
48.326175
 30
0.0
 11
10.327145
 21
50.076175
 31
0.0
 12
-212.536248
 22
-443.15157
 32
0.0
  3
参考寸法
100
AcDbAlignedDimension
 13
4.557145
 23
56.434831
 33
0.0
 14
4.577145
 24
56.434831
 34
0.0
100
AcDbRotatedDimension
1001
ACAD
1000
DSTYLE
1002
{
1070
   140
1040
1.5
1070
    41
1040
1.0
1002
}
  0
DIMENSION
  5
98
100
AcDbEntity
  8
参考
  6
CONTINUOUS
100
AcDbDimension
  2
*D7
 10
95.658709
 20
53.447585
 30
0.0
 11
75.658709
 21
55.197585
 31
0.0
 12
-212.536248
 22
-443.15157
 32
0.0
  3
参考寸法
100
AcDbAlignedDimension
 13
55.658709
 23
61.017975
 33
0.0
 14
95.658709
 24
68.017975
 34
0.0
100
AcDbRotatedDimension
1001
ACAD
1000
DSTYLE
1002
{
1070
   140
1040
1.5
1070
    41
1040
1.0
1002
}
  0
LINE
  5
A5
100
AcDbEntity
  8
外形
  6
CONTINUOUS
100
AcDbLine
 10
55.866767
 20
17.112074
 30
0.0
 11
66.2963
 21
17.112074
 31
0.0
  0
ARC
  5
A6
100
AcDbEntity
  8
外形
  6
CONTINUOUS
100
AcDbCircle
 10
27.046801
 20
177.565914
 30
0.0
 40
158.187856
100
AcDbArc
 50
280.53161
 51
294.246334
  0
LINE
  5
A7
100
AcDbEntity
  8
外形
  6
CONTINUOUS
100
AcDbLine
 10
95.658709
 20
8.832074
 30
0.0
 11
56.300704
 21
8.832074
 31
0.0
  0
LINE
  5
A8
100
AcDbEntity
  8
外形
  6
CONTINUOUS
100
AcDbLine
 10
65.41635
 20
21.082074
 30
0.0
 11
55.658709
 21
21.082074
 31
0.0
  0
LINE
  5
A9
100
AcDbEntity
  8
外形
  6
CONTINUOUS
100
AcDbLine
 10
56.300704
 20
8.832074
 30
0.0
 11
55.866767
 21
17.112074
 31
0.0
  0
LINE
  5
AA
100
AcDbEntity
  8
外形
  6
CONTINUOUS
100
AcDbLine
 10
56.146163
 20
17.112074
 30
0.0
 11
55.658709
 21
21.082074
 31
0.0
  0
LINE
  5
AB
100
AcDbEntity
  8
外形
  6
CONTINUOUS
100
AcDbLine
 10
55.960053
 20
21.082074
 30
0.0
 11
55.960053
 21
22.042855
 31
0.0
  0
LINE
  5
AC
100
AcDbEntity
  8
外形
  6
CONTINUOUS
100
AcDbLine
 10
89.969208
 20
30.124046
 30
0.0
 11
89.969208
 21
13.175031
 31
0.0
  0
ARC
  5
AD
100
AcDbEntity
  8
外形
  6
CONTINUOUS
100
AcDbCircle
 10
74.939081
 20
40.028352
 30
0.0
 40
18.0
100
AcDbArc
 50
275.226642
 51
338.160029
  0
ARC
  5
AE
100
AcDbEntity
  8
外形
  6
CONTINUOUS
100
AcDbCircle
 10
85.639081
 20
15.675031
 30
0.0
 40
5.0
100
AcDbArc
 50
250.812494
 51
330.0
  0
LINE
  5
AF
100
AcDbEntity
  8
外形
  6
CONTINUOUS
100
AcDbLine
 10
66.2963
 20
17.112074
 30
0.0
 11
83.995777
 21
10.952791
 31
0.0
  0
LINE
  5
B0
100
AcDbEntity
  8
外形
  6
CONTINUOUS
100
AcDbLine
 10
66.2963
 20
8.873616
 30
0.0
 11
66.2963
 21
17.112074
 31
0.0
  0
SPLINE
  5
B1
100
AcDbEntity
  8
外形
  6
CONTINUOUS
100
AcDbSpline
210
-0.0910977313446828
220
0.9958419570111777
230
0.0
 70
    24
 71
     3
 72
     8
 73
     4
 74
     2
 42
0.0000001
 43
0.0000001
 44
0.0000000001
 40
0.0
 40
0.0
 40
0.0
 40
0.0
 40
11.20909791569092
 40
11.20909791569092
 40
11.20909791569092
 40
11.20909791569092
 10
65.41635006173112
 20
21.08207364459389
 30
0.0
 10
69.13718006329498
 20
21.42244810810717
 30
0.0
 10
72.85801006485883
 20
21.76282257162046
 30
0.0
 10
76.57884006642269
 20
22.10319703513375
 30
0.0
 11
65.41635006173112
 21
21.08207364459389
 31
0.0
 11
76.57884006642269
 21
22.10319703513375
 31
0.0
  0
LINE
  5
B2
100
AcDbEntity
  8
外形
  6
CONTINUOUS
100
AcDbLine
 10
65.41635
 20
21.082074
 30
0.0
 11
64.928895
 21
17.112074
 31
0.0
  0
LINE
  5
B3
100
AcDbEntity
  8
外形
  6
CONTINUOUS
100
AcDbLine
 10
89.969208
 20
21.082074
 30
0.0
 11
89.969208
 21
14.006574
 31
0.0
  0
LINE
  5
B4
100
AcDbEntity
  8
外形
  6
CONTINUOUS
100
AcDbLine
 10
95.658709
 20
14.006574
 30
0.0
 11
95.658709
 21
8.832074
 31
0.0
  0
LINE
  5
B5
100
AcDbEntity
  8
外形
  6
CONTINUOUS
100
AcDbLine
 10
95.908709
 20
13.582074
 30
0.0
 11
95.908709
 21
9.082074
 31
0.0
  0
LINE
  5
B6
100
AcDbEntity
  8
外形
  6
CONTINUOUS
100
AcDbLine
 10
95.908709
 20
9.082074
 30
0.0
 11
95.658709
 21
8.832074
 31
0.0
  0
LINE
  5
B7
100
AcDbEntity
  8
外形
  6
CONTINUOUS
100
AcDbLine
 10
89.969208
 20
14.006574
 30
0.0
 11
95.658709
 21
14.006574
 31
0.0
  0
LINE
  5
B8
100
AcDbEntity
  8
外形
  6
CONTINUOUS
100
AcDbLine
 10
89.969208
 20
28.157574
 30
0.0
 11
95.658709
 21
28.157574
 31
0.0
  0
LINE
  5
B9
100
AcDbEntity
  8
外形
  6
CONTINUOUS
100
AcDbLine
 10
95.908709
 20
33.082074
 30
0.0
 11
95.908709
 21
28.582074
 31
0.0
  0
LINE
  5
BA
100
AcDbEntity
  8
外形
  6
CONTINUOUS
100
AcDbLine
 10
95.908709
 20
33.082074
 30
0.0
 11
95.658709
 21
33.332074
 31
0.0
  0
LINE
  5
BB
100
AcDbEntity
  8
外形
  6
CONTINUOUS
100
AcDbLine
 10
95.658709
 20
33.332074
 30
0.0
 11
92.008307
 21
33.332074
 31
0.0
  0
LINE
  5
BC
100
AcDbEntity
  8
外形
  6
CONTINUOUS
100
AcDbLine
 10
95.658709
 20
33.332074
 30
0.0
 11
95.658709
 21
28.157574
 31
0.0
  0
DIMENSION
  5
BD
100
AcDbEntity
  8
寸法
  6
CONTINUOUS
100
AcDbDimension
  2
*D13
 10
55.695735
 20
62.058539
 30
0.0
 11
35.410478
 21
88.236118
 31
0.0
 12
-212.536248
 22
-443.15157
 32
0.0
 70
     2
  3
STANDARD
100
AcDb2LineAngularDimension
 13
56.458709
 23
61.017975
 33
0.0
 14
55.658709
 24
61.017975
 34
0.0
 15
63.250116
 25
86.017975
 35
0.0
 16
45.537874
 26
90.682558
 36
0.0
1001
ACAD
1000
DSTYLE
1002
{
1070
    40
1040
1.0
1002
}
  0
LINE
  5
CC
100
AcDbEntity
  8
外形
  6
CONTINUOUS
100
AcDbLine
 10
63.250116
 20
86.017975
 30
0.0
 11
55.695735
 21
62.058539
 31
0.0
  0
ARC
  5
CD
100
AcDbEntity
  8
外形
  6
CONTINUOUS
100
AcDbCircle
 10
56.458709
 20
61.817975
 30
0.0
 40
0.8
100
AcDbArc
 50
162.5
 51
287.5
  0
LINE
  5
CE
100
AcDbEntity
  8
外形
  6
CONTINUOUS
 62
     1
100
AcDbLine
 10
56.458709
 20
61.017975
 30
0.0
 11
55.658709
 21
61.017975
 31
0.0
  0
LINE
  5
CF
100
AcDbEntity
  8
外形
  6
CENTER
 62
     1
100
AcDbLine
 10
55.839504
 20
67.86856
 30
0.0
 11
69.10097
 21
67.86856
 31
0.0
  0
DIMENSION
  5
D0
100
AcDbEntity
  8
寸法
  6
CONTINUOUS
100
AcDbDimension
  2
*D4
 10
50.571807
 20
86.017975
 30
0.0
 11
48.071807
 21
82.017975
 31
0.0
 12
-212.536248
 22
-443.15157
 32
0.0
  3
STANDARD
100
AcDbAlignedDimension
 13
56.004051
 23
78.017975
 33
0.0
 14
63.250116
 24
86.017975
 34
0.0
 50
90.0
100
AcDbRotatedDimension
1001
ACAD
1000
DSTYLE
1002
{
1070
    40
1040
1.0
1002
}
  0
LINE
  5
DD
100
AcDbEntity
  8
外形
  6
CENTER
 62
     1
100
AcDbLine
 10
4.577145
 20
97.530243
 30
0.0
 11
4.577145
 21
56.434831
 31
0.0
  0
LINE
  5
DE
100
AcDbEntity
  8
外形
  6
CONTINUOUS
100
AcDbLine
 10
15.272204
 20
72.080804
 30
0.0
 11
15.272204
 21
83.991098
 31
0.0
  0
DIMENSION
  5
DF
100
AcDbEntity
  8
寸法
  6
CONTINUOUS
100
AcDbDimension
  2
*D5
 10
50.571807
 20
78.017975
 30
0.0
 11
48.071807
 21
69.517975
 31
0.0
 12
-1089.118553
 22
-443.15157
 32
0.0
  3
STANDARD
100
AcDbAlignedDimension
 13
55.658709
 23
61.017975
 33
0.0
 14
56.004051
 24
78.017975
 34
0.0
 50
90.0
100
AcDbRotatedDimension
1001
ACAD
1000
DSTYLE
1002
{
1070
    40
1040
1.0
1002
}
  0
LINE
  5
EC
100
AcDbEntity
  8
外形
  6
CONTINUOUS
100
AcDbLine
 10
7.591765
 20
89.888702
 30
0.0
 11
4.557324
 21
61.017933
 31
0.0
  0
LINE
  5
ED
100
AcDbEntity
  8
外形
  6
CENTER
 62
     1
100
AcDbLine
 10
4.557145
 20
97.530243
 30
0.0
 11
4.557145
 21
56.434831
 31
0.0
  0
LINE
  5
EE
100
AcDbEntity
  8
外形
  6
CONTINUOUS
100
AcDbLine
 10
1.676245
 20
71.586382
 30
0.0
 11
0.660025
 21
61.917696
 31
0.0
  0
LINE
  5
EF
100
AcDbEntity
  8
外形
  6
CONTINUOUS
100
AcDbLine
 10
4.557323
 20
61.017934
 30
0.0
 11
0.660025
 21
61.917696
 31
0.0
  0
ARC
  5
F0
100
AcDbEntity
  8
外形
  6
CONTINUOUS
100
AcDbCircle
 10
4.557145
 20
78.017975
 30
0.0
 40
12.25
100
AcDbArc
 50
272.341613
 51
331.009341
  0
LINE
  5
F1
100
AcDbEntity
  8
外形
  6
CONTINUOUS
100
AcDbLine
 10
5.67545
 20
71.656188
 30
0.0
 11
1.676245
 21
71.586382
 31
0.0
  0
LINE
  5
F2
100
AcDbEntity
  8
外形
  6
CONTINUOUS
 62
     1
100
AcDbLine
 10
55.658709
 20
61.817975
 30
0.0
 11
55.658709
 21
61.017975
 31
0.0
  0
LINE
  5
F3
100
AcDbEntity
  8
外形
  6
CONTINUOUS
100
AcDbLine
 10
91.647158
 20
74.517975
 30
0.0
 11
91.647158
 21
83.767975
 31
0.0
  0
ARC
  5
F4
100
AcDbEntity
  8
外形
  6
CONTINUOUS
100
AcDbCircle
 10
85.639081
 20
65.517975
 30
0.0
 40
5.0
100
AcDbArc
 50
30.0
 51
109.187506
  0
LINE
  5
F5
100
AcDbEntity
  8
外形
  6
CONTINUOUS
100
AcDbLine
 10
66.2963
 20
64.080932
 30
0.0
 11
83.995777
 21
70.240215
 31
0.0
  0
CIRCLE
  5
F6
100
AcDbEntity
  8
外形
  6
CONTINUOUS
100
AcDbCircle
 10
62.509081
 20
67.86856
 30
0.0
 40
4.7625
  0
DIMENSION
  5
F7
100
AcDbEntity
  8
参考
  6
CONTINUOUS
100
AcDbDimension
  2
*D11
 10
65.309103
 20
58.509881
 30
0.0
 11
69.309103
 21
60.259881
 31
0.0
 12
68.063152
 22
-447.15157
 32
0.0
  3
参考寸法
100
AcDbAlignedDimension
 13
59.709059
 23
67.778662
 33
0.0
 14
65.309103
 24
67.778662
 34
0.0
100
AcDbRotatedDimension
1001
ACAD
1000
DSTYLE
1002
{
1070
   140
1040
1.5
1070
    41
1040
1.0
1002
}
  0
LINE
  5
105
100
AcDbEntity
  8
外形
  6
CONTINUOUS
100
AcDbLine
 10
69.322427
 20
73.678581
 30
0.0
 11
66.2963
 21
64.080932
 31
0.0
  0
LINE
  5
106
100
AcDbEntity
  8
外形
  6
CENTER
 62
     1
100
AcDbLine
 10
62.509081
 20
60.774875
 30
0.0
 11
62.509081
 21
74.430498
 31
0.0
  0
LINE
  5
107
100
AcDbEntity
  8
外形
  6
CONTINUOUS
100
AcDbLine
 10
64.366172
 20
63.594697
 30
0.0
 11
64.473772
 21
63.566869
 31
0.0
  0
LINE
  5
108
100
AcDbEntity
  8
外形
  6
CONTINUOUS
100
AcDbLine
 10
56.699273
 20
61.055001
 30
0.0
 11
66.2963
 21
64.080932
 31
0.0
  0
ARC
  5
109
100
AcDbEntity
  8
外形
  6
CONTINUOUS
100
AcDbCircle
 10
69.309081
 20
73.66856
 30
0.0
 40
1.75
100
AcDbArc
 50
300.5
 51
120.5
  0
ARC
  5
10A
100
AcDbEntity
  8
外形
  6
CONTINUOUS
100
AcDbCircle
 10
68.559453
 20
73.919145
 30
0.0
 40
0.8
100
AcDbArc
 50
342.5
 51
107.5
  0
LINE
  5
10B
100
AcDbEntity
  8
外形
  6
CONTINUOUS
100
AcDbLine
 10
66.732713
 20
74.182
 30
0.0
 11
68.420889
 21
75.176411
 31
0.0
  0
LINE
  5
10C
100
AcDbEntity
  8
外形
  6
CONTINUOUS
100
AcDbLine
 10
68.535145
 20
71.181641
 30
0.0
 11
70.197273
 21
72.160709
 31
0.0
  0
LINE
  5
10D
100
AcDbEntity
  8
外形
  6
CONTINUOUS
100
AcDbLine
 10
63.392054
 20
66.339206
 30
0.0
 11
62.72365
 21
66.720712
 31
0.0
  0
LINE
  5
10E
100
AcDbEntity
  8
外形
  6
CONTINUOUS
100
AcDbLine
 10
62.72365
 20
69.016408
 30
0.0
 11
63.392054
 21
69.397914
 31
0.0
  0
LINE
  5
10F
100
AcDbEntity
  8
外形
  6
CONTINUOUS
100
AcDbLine
 10
63.395862
 20
67.108814
 30
0.0
 11
63.392054
 21
66.339206
 31
0.0
  0
ARC
  5
110
100
AcDbEntity
  8
外形
  6
CONTINUOUS
100
AcDbCircle
 10
63.828709
 20
67.106672
 30
0.0
 40
0.432853
100
AcDbArc
 50
120.283476
 51
179.716524
  0
LINE
  5
111
100
AcDbEntity
  8
外形
  6
CONTINUOUS
100
AcDbLine
 10
63.392054
 20
69.397914
 30
0.0
 11
63.395862
 21
68.628306
 31
0.0
  0
ARC
  5
112
100
AcDbEntity
  8
外形
  6
CONTINUOUS
100
AcDbCircle
 10
63.828709
 20
68.630448
 30
0.0
 40
0.432853
100
AcDbArc
 50
180.283476
 51
239.716524
  0
LINE
  5
113
100
AcDbEntity
  8
外形
  6
CONTINUOUS
100
AcDbLine
 10
63.610431
 20
68.256662
 30
0.0
 11
64.275027
 21
67.86856
 31
0.0
  0
LINE
  5
114
100
AcDbEntity
  8
外形
  6
CONTINUOUS
100
AcDbLine
 10
64.275027
 20
67.86856
 30
0.0
 11
63.610431
 21
67.480458
 31
0.0
  0
LINE
  5
115
100
AcDbEntity
  8
外形
  6
CONTINUOUS
100
AcDbLine
 10
62.294512
 20
66.720712
 30
0.0
 11
61.626108
 21
66.339206
 31
0.0
  0
LINE
  5
116
100
AcDbEntity
  8
外形
  6
CONTINUOUS
100
AcDbLine
 10
61.626108
 20
66.339206
 30
0.0
 11
61.6223
 21
67.108814
 31
0.0
  0
ARC
  5
117
100
AcDbEntity
  8
外形
  6
CONTINUOUS
100
AcDbCircle
 10
61.189453
 20
67.106672
 30
0.0
 40
0.432853
100
AcDbArc
 50
0.283476
 51
59.716524
  0
LINE
  5
118
100
AcDbEntity
  8
外形
  6
CONTINUOUS
100
AcDbLine
 10
61.6223
 20
68.628306
 30
0.0
 11
61.626108
 21
69.397914
 31
0.0
  0
LINE
  5
119
100
AcDbEntity
  8
外形
  6
CONTINUOUS
100
AcDbLine
 10
61.626108
 20
69.397914
 30
0.0
 11
62.294512
 21
69.016408
 31
0.0
  0
ARC
  5
11A
100
AcDbEntity
  8
外形
  6
CONTINUOUS
100
AcDbCircle
 10
61.189453
 20
68.630448
 30
0.0
 40
0.432853
100
AcDbArc
 50
300.283476
 51
359.716524
  0
LINE
  5
11B
100
AcDbEntity
  8
外形
  6
CONTINUOUS
100
AcDbLine
 10
60.743135
 20
67.86856
 30
0.0
 11
61.407731
 21
68.256662
 31
0.0
  0
LINE
  5
11C
100
AcDbEntity
  8
外形
  6
CONTINUOUS
100
AcDbLine
 10
61.407731
 20
67.480458
 30
0.0
 11
60.743135
 21
67.86856
 31
0.0
  0
ARC
  5
11D
100
AcDbEntity
  8
外形
  6
CONTINUOUS
100
AcDbCircle
 10
62.509081
 20
66.344785
 30
0.0
 40
0.432853
100
AcDbArc
 50
60.283476
 51
119.716524
  0
ARC
  5
11E
100
AcDbEntity
  8
外形
  6
CONTINUOUS
100
AcDbCircle
 10
62.509081
 20
69.392335
 30
0.0
 40
0.432853
100
AcDbArc
 50
240.283476
 51
299.716524
  0
CIRCLE
  5
11F
100
AcDbEntity
  8
外形
  6
CONTINUOUS
100
AcDbCircle
 10
62.509081
 20
67.86856
 30
0.0
 40
2.800022
  0
LINE
  5
120
100
AcDbEntity
  8
外形
  6
CONTINUOUS
100
AcDbLine
 10
58.721862
 20
71.656188
 30
0.0
 11
68.318889
 21
74.682119
 31
0.0
  0
ARC
  5
121
100
AcDbEntity
  8
外形
  6
CONTINUOUS
100
AcDbCircle
 10
85.147158
 20
74.517975
 30
0.0
 40
6.5
100
AcDbArc
 50
305.929556
 51
0.0
  0
LINE
  5
122
100
AcDbEntity
  8
外形
  6
CONTINUOUS
100
AcDbLine
 10
95.658709
 20
72.62701
 30
0.0
 11
91.366021
 21
72.62701
 31
0.0
  0
LINE
  5
123
100
AcDbEntity
  8
外形
  6
CONTINUOUS
100
AcDbLine
 10
95.908709
 20
68.017975
 30
0.0
 11
95.908709
 21
72.080804
 31
0.0
  0
LINE
  5
124
100
AcDbEntity
  8
外形
  6
CONTINUOUS
100
AcDbLine
 10
95.658709
 20
68.017975
 30
0.0
 11
95.658709
 21
72.62701
 31
0.0
  0
LINE
  5
125
100
AcDbEntity
  8
外形
  6
CONTINUOUS
100
AcDbLine
 10
69.954413
 20
89.888702
 30
0.0
 11
87.33501
 21
89.888702
 31
0.0
  0
LINE
  5
126
100
AcDbEntity
  8
外形
  6
CONTINUOUS
100
AcDbLine
 10
85.508307
 20
90.267975
 30
0.0
 11
70.611332
 21
90.267975
 31
0.0
  0
LINE
  5
127
100
AcDbEntity
  8
外形
  6
CONTINUOUS
100
AcDbLine
 10
63.250116
 20
86.017975
 30
0.0
 11
70.611332
 21
90.267975
 31
0.0
  0
ARC
  5
128
100
AcDbEntity
  8
外形
  6
CONTINUOUS
100
AcDbCircle
 10
85.147158
 20
83.767975
 30
0.0
 40
6.5
100
AcDbArc
 50
0.0
 51
70.330595
  0
LINE
  5
129
100
AcDbEntity
  8
外形
  6
CONTINUOUS
100
AcDbLine
 10
95.908709
 20
83.955146
 30
0.0
 11
95.908709
 21
90.517975
 31
0.0
  0
LINE
  5
12A
100
AcDbEntity
  8
外形
  6
CONTINUOUS
100
AcDbLine
 10
95.658709
 20
83.408939
 30
0.0
 11
95.658709
 21
90.267975
 31
0.0
  0
LINE
  5
12B
100
AcDbEntity
  8
外形
  6
CONTINUOUS
100
AcDbLine
 10
95.658709
 20
83.408939
 30
0.0
 11
91.647158
 21
83.408939
 31
0.0
  0
LINE
  5
12C
100
AcDbEntity
  8
外形
  6
CONTINUOUS
100
AcDbLine
 10
85.508307
 20
90.267975
 30
0.0
 11
95.658709
 21
90.267975
 31
0.0
  0
LINE
  5
12D
100
AcDbEntity
  8
外形
  6
CONTINUOUS
100
AcDbLine
 10
95.908709
 20
90.517975
 30
0.0
 11
95.658709
 21
90.267975
 31
0.0
  0
MTEXT
  5
52
102
{ACAD_REACTORS
330
51
102
}
100
AcDbEntity
  8
寸法
  6
CONTINUOUS
 62
     3
100
AcDbMText
 10
22.838424
 20
106.496099
 30
0.0
 40
3.0
 41
0.0
 71
     4
 72
     1
  1
%%c32最小加工径
  0
TEXT
  5
12E
100
AcDbEntity
  8
外形
  6
CONTINUOUS
 62
     2
100
AcDbText
 10
117.7709
 20
-17.956285
 30
0.0
 40
6.0
  1
S25Q-SDQCR11
100
AcDbText
  0
LINE
  5
12F
100
AcDbEntity
  8
外形
  6
CONTINUOUS
100
AcDbLine
 10
189.576263
 20
68.017975
 30
0.0
 11
233.65462
 21
68.017975
 31
0.0
  0
LINE
  5
130
100
AcDbEntity
  8
外形
  6
CONTINUOUS
100
AcDbLine
 10
189.576263
 20
72.080804
 30
0.0
 11
233.65462
 21
72.080804
 31
0.0
  0
LINE
  5
131
100
AcDbEntity
  8
外形
  6
CONTINUOUS
100
AcDbLine
 10
189.576263
 20
90.517975
 30
0.0
 11
233.65462
 21
90.517975
 31
0.0
  0
LINE
  5
132
100
AcDbEntity
  8
外形
  6
CONTINUOUS
100
AcDbLine
 10
189.576263
 20
83.955146
 30
0.0
 11
233.65462
 21
83.955146
 31
0.0
  0
LINE
  5
133
100
AcDbEntity
  8
外形
  6
CONTINUOUS
100
AcDbLine
 10
169.076263
 20
68.017975
 30
0.0
 11
184.076263
 21
68.017975
 31
0.0
  0
DIMENSION
  5
134
100
AcDbEntity
  8
寸法
  6
CONTINUOUS
100
AcDbDimension
  2
*D9
 10
168.289359
 20
68.659705
 30
0.0
 11
191.925515
 21
95.351642
 31
0.0
 12
-1089.118553
 22
-443.15157
 32
0.0
 70
   131
  3
STANDARD
100
AcDbDiametricDimension
 15
184.863168
 25
87.376245
 35
0.0
 40
0.0
1001
ACAD
1000
DSTYLE
1002
{
1070
    40
1040
1.0
1002
}
  0
ARC
  5
140
100
AcDbEntity
  8
外形
  6
CONTINUOUS
100
AcDbCircle
 10
176.576263
 20
78.017975
 30
0.0
 40
12.5
100
AcDbArc
 50
28.357637
 51
151.642363
  0
DIMENSION
  5
141
100
AcDbEntity
  8
寸法
  6
CONTINUOUS
100
AcDbDimension
  2
*D8
 10
187.576263
 20
57.13858
 30
0.0
 11
176.576263
 21
59.63858
 31
0.0
 12
-1089.118553
 22
-443.15157
 32
0.0
  3
STANDARD
100
AcDbAlignedDimension
 13
165.576263
 23
72.080804
 33
0.0
 14
187.576263
 24
72.080804
 34
0.0
100
AcDbRotatedDimension
1001
ACAD
1000
DSTYLE
1002
{
1070
    40
1040
1.0
1002
}
  0
LINE
  5
14E
100
AcDbEntity
  8
外形
  6
CONTINUOUS
100
AcDbLine
 10
165.576263
 20
83.955146
 30
0.0
 11
165.576263
 21
72.080804
 31
0.0
  0
ARC
  5
14F
100
AcDbEntity
  8
外形
  6
CONTINUOUS
100
AcDbCircle
 10
176.576263
 20
78.017975
 30
0.0
 40
12.5
100
AcDbArc
 50
208.357637
 51
233.130102
  0
LINE
  5
150
100
AcDbEntity
  8
外形
  6
CONTINUOUS
100
AcDbLine
 10
187.576263
 20
83.955146
 30
0.0
 11
187.576263
 21
72.080804
 31
0.0
  0
LINE
  5
151
100
AcDbEntity
  8
外形
  6
CENTER
 62
     1
100
AcDbLine
 10
176.576263
 20
90.529149
 30
0.0
 11
176.576263
 21
65.736014
 31
0.0
  0
ARC
  5
152
100
AcDbEntity
  8
外形
  6
CONTINUOUS
100
AcDbCircle
 10
176.576263
 20
78.017975
 30
0.0
 40
12.5
100
AcDbArc
 50
306.869898
 51
331.642363
  0
ARC
  5
153
100
AcDbEntity
  8
外形
  6
CONTINUOUS
100
AcDbCircle
 10
223.65462
 20
21.082074
 30
0.0
 40
12.5
100
AcDbArc
 50
16.260205
 51
36.869898
  0
LINE
  5
154
100
AcDbEntity
  8
外形
  6
CONTINUOUS
100
AcDbLine
 10
235.65462
 20
30.082074
 30
0.0
 11
235.65462
 21
12.082074
 31
0.0
  0
ARC
  5
155
100
AcDbEntity
  8
外形
  6
CONTINUOUS
100
AcDbCircle
 10
223.65462
 20
21.082074
 30
0.0
 40
12.5
100
AcDbArc
 50
323.130102
 51
343.739795
  0
LINE
  5
156
100
AcDbEntity
  8
外形
  6
CONTINUOUS
100
AcDbLine
 10
233.65462
 20
10.082074
 30
0.0
 11
235.65462
 21
12.082074
 31
0.0
  0
LINE
  5
157
100
AcDbEntity
  8
外形
  6
CONTINUOUS
100
AcDbLine
 10
233.65462
 20
13.582074
 30
0.0
 11
233.65462
 21
10.082074
 31
0.0
  0
LINE
  5
158
100
AcDbEntity
  8
外形
  6
CONTINUOUS
100
AcDbLine
 10
233.65462
 20
32.082074
 30
0.0
 11
235.65462
 21
30.082074
 31
0.0
  0
LINE
  5
159
100
AcDbEntity
  8
外形
  6
CONTINUOUS
100
AcDbLine
 10
233.65462
 20
32.082074
 30
0.0
 11
233.65462
 21
28.582074
 31
0.0
  0
ARC
  5
15A
100
AcDbEntity
  8
外形
  6
CONTINUOUS
100
AcDbCircle
 10
222.65462
 20
78.017975
 30
0.0
 40
12.5
100
AcDbArc
 50
331.642363
 51
28.357637
  0
LINE
  5
15B
100
AcDbEntity
  8
外形
  6
CONTINUOUS
100
AcDbLine
 10
235.65462
 20
70.017975
 30
0.0
 11
235.65462
 21
88.517975
 31
0.0
  0
LINE
  5
15C
100
AcDbEntity
  8
外形
  6
CENTER
 62
     1
100
AcDbLine
 10
236.889081
 20
60.774875
 30
0.0
 11
236.889081
 21
74.430498
 31
0.0
  0
LINE
  5
15D
100
AcDbEntity
  8
外形
  6
CONTINUOUS
100
AcDbLine
 10
233.65462
 20
68.017975
 30
0.0
 11
235.65462
 21
70.017975
 31
0.0
  0
LINE
  5
15E
100
AcDbEntity
  8
外形
  6
CONTINUOUS
100
AcDbLine
 10
233.65462
 20
72.080804
 30
0.0
 11
233.65462
 21
68.017975
 31
0.0
  0
LINE
  5
15F
100
AcDbEntity
  8
外形
  6
CONTINUOUS
100
AcDbLine
 10
233.65462
 20
90.517975
 30
0.0
 11
235.65462
 21
88.517975
 31
0.0
  0
LINE
  5
160
100
AcDbEntity
  8
外形
  6
CONTINUOUS
100
AcDbLine
 10
233.65462
 20
90.517975
 30
0.0
 11
233.65462
 21
83.955146
 31
0.0
  0
ENDBLK
  5
162
100
AcDbEntity
  8
0
100
AcDbBlockEnd
  0
BLOCK
  5
332
100
AcDbEntity
  8
0
100
AcDbBlockBegin
  2
*D15
 70
     1
 10
0.0
 20
0.0
 30
0.0
  3
*D15
  1

  0
LINE
  5
333
100
AcDbEntity
  8
0
  6
BYBLOCK
 62
     1
100
AcDbLine
 10
751.157794
 20
12.40625
 30
0.0
 11
798.124464
 21
12.40625
 31
0.0
  0
LINE
  5
334
100
AcDbEntity
  8
0
  6
BYBLOCK
 62
     1
100
AcDbLine
 10
791.407794
 20
19.40625
 30
0.0
 11
798.124464
 21
19.40625
 31
0.0
  0
LINE
  5
335
100
AcDbEntity
  8
0
  6
BYBLOCK
 62
     1
100
AcDbLine
 10
796.124464
 20
14.40625
 30
0.0
 11
796.124464
 21
17.40625
 31
0.0
  0
INSERT
  5
336
100
AcDbEntity
  8
0
  6
BYBLOCK
 62
     1
100
AcDbBlockReference
  2
_OPEN30
 10
796.124464
 20
12.40625
 30
0.0
 41
2.0
 42
2.0
 43
2.0
 50
270.0
  0
INSERT
  5
337
100
AcDbEntity
  8
0
  6
BYBLOCK
 62
     1
100
AcDbBlockReference
  2
_OPEN30
 10
796.124464
 20
19.40625
 30
0.0
 41
2.0
 42
2.0
 43
2.0
 50
90.0
  0
MTEXT
  5
338
100
AcDbEntity
  8
0
  6
BYBLOCK
 62
     3
100
AcDbMText
 10
793.624464
 20
15.90625
 30
0.0
 40
3.0
 41
0.0
 71
     5
 72
     1
  1
\A1;7
 11
0.0
 21
1.0
 31
0.0
  0
POINT
  5
339
100
AcDbEntity
  8
DEFPOINTS
  6
BYBLOCK
 62
     0
100
AcDbPoint
 10
750.157794
 20
12.40625
 30
0.0
  0
POINT
  5
33A
100
AcDbEntity
  8
DEFPOINTS
  6
BYBLOCK
 62
     0
100
AcDbPoint
 10
790.407794
 20
19.40625
 30
0.0
  0
POINT
  5
33B
100
AcDbEntity
  8
DEFPOINTS
  6
BYBLOCK
 62
     0
100
AcDbPoint
 10
796.124464
 20
19.40625
 30
0.0
  0
ENDBLK
  5
33C
100
AcDbEntity
  8
0
100
AcDbBlockEnd
  0
BLOCK
  5
2A1
100
AcDbEntity
  8
0
100
AcDbBlockBegin
  2
*D16
 70
     1
 10
0.0
 20
0.0
 30
0.0
  3
*D16
  1

  0
LINE
  5
2A2
100
AcDbEntity
  8
0
  6
BYBLOCK
 62
     1
100
AcDbLine
 10
750.157794
 20
11.40625
 30
0.0
 11
750.157794
 21
-4.520716
 31
0.0
  0
LINE
  5
2A3
100
AcDbEntity
  8
0
  6
BYBLOCK
 62
     1
100
AcDbLine
 10
930.153706
 20
20.90625
 30
0.0
 11
930.153706
 21
-4.520716
 31
0.0
  0
LINE
  5
2A4
100
AcDbEntity
  8
0
  6
BYBLOCK
 62
     1
100
AcDbLine
 10
752.157794
 20
-2.520716
 30
0.0
 11
928.153706
 21
-2.520716
 31
0.0
  0
INSERT
  5
2A5
100
AcDbEntity
  8
0
  6
BYBLOCK
 62
     1
100
AcDbBlockReference
  2
_OPEN30
 10
750.157794
 20
-2.520716
 30
0.0
 41
2.0
 42
2.0
 43
2.0
 50
180.0
  0
INSERT
  5
2A6
100
AcDbEntity
  8
0
  6
BYBLOCK
 62
     1
100
AcDbBlockReference
  2
_OPEN30
 10
930.153706
 20
-2.520716
 30
0.0
 41
2.0
 42
2.0
 43
2.0
  0
MTEXT
  5
2A7
100
AcDbEntity
  8
0
  6
BYBLOCK
 62
     3
100
AcDbMText
 10
840.15575
 20
-0.020716
 30
0.0
 40
3.0
 41
0.0
 71
     5
 72
     1
  1
\A1;180
  0
POINT
  5
2A8
100
AcDbEntity
  8
DEFPOINTS
  6
BYBLOCK
 62
     0
100
AcDbPoint
 10
750.157794
 20
12.40625
 30
0.0
  0
POINT
  5
2A9
100
AcDbEntity
  8
DEFPOINTS
  6
BYBLOCK
 62
     0
100
AcDbPoint
 10
930.153706
 20
21.90625
 30
0.0
  0
POINT
  5
2AA
100
AcDbEntity
  8
DEFPOINTS
  6
BYBLOCK
 62
     0
100
AcDbPoint
 10
930.153706
 20
-2.520716
 30
0.0
  0
ENDBLK
  5
2AB
100
AcDbEntity
  8
0
100
AcDbBlockEnd
  0
BLOCK
  5
2B9
100
AcDbEntity
  8
0
100
AcDbBlockBegin
  2
*D18
 70
     1
 10
0.0
 20
0.0
 30
0.0
  3
*D18
  1

  0
LINE
  5
2BA
100
AcDbEntity
  8
0
  6
BYBLOCK
 62
     1
100
AcDbLine
 10
698.951702
 20
11.409978
 30
0.0
 11
696.744195
 21
-9.593049
 31
0.0
  0
LINE
  5
2BB
100
AcDbEntity
  8
0
  6
BYBLOCK
 62
     1
100
AcDbLine
 10
699.05623
 20
6.823106
 30
0.0
 11
699.05623
 21
-9.714218
 31
0.0
  0
ARC
  5
2BC
100
AcDbEntity
  8
0
  6
BYBLOCK
 62
     1
100
AcDbCircle
 10
699.05623
 20
12.4045
 30
0.0
 40
20.118718
100
AcDbArc
 50
252.589617
 51
264.0
  0
LINE
  5
2BD
100
AcDbEntity
  8
0
  6
BYBLOCK
 62
     1
100
AcDbLine
 10
693.036434
 20
-6.792501
 30
0.0
 11
684.830433
 21
-4.219263
 31
0.0
  0
ARC
  5
2BE
100
AcDbEntity
  8
0
  6
BYBLOCK
 62
     1
100
AcDbCircle
 10
699.05623
 20
12.4045
 30
0.0
 40
20.118718
100
AcDbArc
 50
252.603767
 51
258.301884
  0
ARC
  5
2BF
100
AcDbEntity
  8
0
  6
BYBLOCK
 62
     1
100
AcDbCircle
 10
699.05623
 20
12.4045
 30
0.0
 40
20.118718
100
AcDbArc
 50
275.698116
 51
281.396233
  0
ARC
  5
2C0
100
AcDbEntity
  8
0
  6
BYBLOCK
 62
     1
100
AcDbCircle
 10
699.05623
 20
12.4045
 30
0.0
 40
20.118718
100
AcDbArc
 50
264.0
 51
270.0
  0
INSERT
  5
2C1
100
AcDbEntity
  8
0
  6
BYBLOCK
 62
     1
100
AcDbBlockReference
  2
_OPEN30
 10
696.953251
 20
-7.604005
 30
0.0
 41
2.0
 42
2.0
 43
2.0
 50
351.150942
  0
INSERT
  5
2C2
100
AcDbEntity
  8
0
  6
BYBLOCK
 62
     1
100
AcDbBlockReference
  2
_OPEN30
 10
699.05623
 20
-7.714218
 30
0.0
 41
2.0
 42
2.0
 43
2.0
 50
182.849058
  0
MTEXT
  5
2C3
100
AcDbEntity
  8
0
  6
BYBLOCK
 62
     3
100
AcDbMText
 10
689.681468
 20
-3.120417
 30
0.0
 40
3.0
 41
0.0
 71
     5
 72
     1
  1
\A1;6°
 11
0.954186
 21
-0.299214
 31
0.0
  0
POINT
  5
2C4
100
AcDbEntity
  8
DEFPOINTS
  6
BYBLOCK
 62
     0
100
AcDbPoint
 10
698.354097
 20
-7.701962
 30
0.0
  0
POINT
  5
2C5
100
AcDbEntity
  8
DEFPOINTS
  6
BYBLOCK
 62
     0
100
AcDbPoint
 10
702.09085
 20
41.276978
 30
0.0
  0
POINT
  5
2C6
100
AcDbEntity
  8
DEFPOINTS
  6
BYBLOCK
 62
     0
100
AcDbPoint
 10
699.05623
 20
48.918518
 30
0.0
  0
POINT
  5
2C7
100
AcDbEntity
  8
DEFPOINTS
  6
BYBLOCK
 62
     0
100
AcDbPoint
 10
699.05623
 20
7.823106
 30
0.0
  0
POINT
  5
2C8
100
AcDbEntity
  8
DEFPOINTS
  6
BYBLOCK
 62
     0
100
AcDbPoint
 10
699.05641
 20
12.406209
 30
0.0
  0
ENDBLK
  5
2C9
100
AcDbEntity
  8
0
100
AcDbBlockEnd
  0
BLOCK
  5
2EE
100
AcDbEntity
  8
0
100
AcDbBlockBegin
  2
*D22
 70
     1
 10
0.0
 20
0.0
 30
0.0
  3
*D22
  1

  0
LINE
  5
2EF
100
AcDbEntity
  8
0
  6
BYBLOCK
 62
     1
100
AcDbLine
 10
758.049907
 20
38.359967
 30
0.0
 11
759.865437
 21
44.118093
 31
0.0
  0
LINE
  5
2F0
100
AcDbEntity
  8
0
  6
BYBLOCK
 62
     1
100
AcDbLine
 10
748.866731
 20
12.40625
 30
0.0
 11
716.61594
 21
12.40625
 31
0.0
  0
ARC
  5
2F1
100
AcDbEntity
  8
0
  6
BYBLOCK
 62
     1
100
AcDbCircle
 10
749.866731
 20
12.40625
 30
0.0
 40
31.250791
100
AcDbArc
 50
76.167463
 51
176.332537
  0
INSERT
  5
2F2
100
AcDbEntity
  8
0
  6
BYBLOCK
 62
     1
100
AcDbBlockReference
  2
_OPEN30
 10
759.264026
 20
42.210659
 30
0.0
 41
2.0
 42
2.0
 43
2.0
 50
344.333732
  0
INSERT
  5
2F3
100
AcDbEntity
  8
0
  6
BYBLOCK
 62
     1
100
AcDbBlockReference
  2
_OPEN30
 10
718.61594
 20
12.40625
 30
0.0
 41
2.0
 42
2.0
 43
2.0
 50
268.166268
  0
MTEXT
  5
2F4
100
AcDbEntity
  8
0
  6
BYBLOCK
 62
     3
100
AcDbMText
 10
729.909563
 20
39.624393
 30
0.0
 40
3.0
 41
0.0
 71
     5
 72
     1
  1
\A1;107.5°
 11
0.806445
 21
0.59131
 31
0.0
  0
POINT
  5
2F5
100
AcDbEntity
  8
DEFPOINTS
  6
BYBLOCK
 62
     0
100
AcDbPoint
 10
740.036959
 20
42.070834
 30
0.0
  0
POINT
  5
2F6
100
AcDbEntity
  8
DEFPOINTS
  6
BYBLOCK
 62
     0
100
AcDbPoint
 10
757.749201
 20
37.40625
 30
0.0
  0
POINT
  5
2F7
100
AcDbEntity
  8
DEFPOINTS
  6
BYBLOCK
 62
     0
100
AcDbPoint
 10
750.957794
 20
12.40625
 30
0.0
  0
POINT
  5
2F8
100
AcDbEntity
  8
DEFPOINTS
  6
BYBLOCK
 62
     0
100
AcDbPoint
 10
750.157794
 20
12.40625
 30
0.0
  0
POINT
  5
2F9
100
AcDbEntity
  8
DEFPOINTS
  6
BYBLOCK
 62
     0
100
AcDbPoint
 10
750.19482
 20
13.446815
 30
0.0
  0
ENDBLK
  5
2FA
100
AcDbEntity
  8
0
100
AcDbBlockEnd
  0
BLOCK
  5
306
100
AcDbEntity
  8
0
100
AcDbBlockBegin
  2
*D24
 70
     1
 10
0.0
 20
0.0
 30
0.0
  3
*D24
  1

  0
LINE
  5
307
100
AcDbEntity
  8
0
  6
BYBLOCK
 62
     1
100
AcDbLine
 10
749.157794
 20
12.40625
 30
0.0
 11
743.070893
 21
12.40625
 31
0.0
  0
LINE
  5
308
100
AcDbEntity
  8
0
  6
BYBLOCK
 62
     1
100
AcDbLine
 10
749.503136
 20
29.40625
 30
0.0
 11
743.070893
 21
29.40625
 31
0.0
  0
LINE
  5
309
100
AcDbEntity
  8
0
  6
BYBLOCK
 62
     1
100
AcDbLine
 10
745.070893
 20
14.40625
 30
0.0
 11
745.070893
 21
27.40625
 31
0.0
  0
INSERT
  5
30A
100
AcDbEntity
  8
0
  6
BYBLOCK
 62
     1
100
AcDbBlockReference
  2
_OPEN30
 10
745.070893
 20
12.40625
 30
0.0
 41
2.0
 42
2.0
 43
2.0
 50
270.0
  0
INSERT
  5
30B
100
AcDbEntity
  8
0
  6
BYBLOCK
 62
     1
100
AcDbBlockReference
  2
_OPEN30
 10
745.070893
 20
29.40625
 30
0.0
 41
2.0
 42
2.0
 43
2.0
 50
90.0
  0
MTEXT
  5
30C
100
AcDbEntity
  8
0
  6
BYBLOCK
 62
     3
100
AcDbMText
 10
742.570893
 20
20.90625
 30
0.0
 40
3.0
 41
0.0
 71
     5
 72
     1
  1
\A1;17
 11
0.0
 21
1.0
 31
0.0
  0
POINT
  5
30D
100
AcDbEntity
  8
DEFPOINTS
  6
BYBLOCK
 62
     0
100
AcDbPoint
 10
750.157794
 20
12.40625
 30
0.0
  0
POINT
  5
30E
100
AcDbEntity
  8
DEFPOINTS
  6
BYBLOCK
 62
     0
100
AcDbPoint
 10
750.503136
 20
29.40625
 30
0.0
  0
POINT
  5
30F
100
AcDbEntity
  8
DEFPOINTS
  6
BYBLOCK
 62
     0
100
AcDbPoint
 10
745.070893
 20
29.40625
 30
0.0
  0
ENDBLK
  5
310
100
AcDbEntity
  8
0
100
AcDbBlockEnd
  0
BLOCK
  5
31D
100
AcDbEntity
  8
0
100
AcDbBlockBegin
  2
*D26
 70
     1
 10
0.0
 20
0.0
 30
0.0
  3
*D26
  1

  0
LINE
  5
31E
100
AcDbEntity
  8
0
  6
BYBLOCK
 62
     1
100
AcDbLine
 10
889.739362
 20
50.483226
 30
0.0
 11
880.688157
 21
40.261843
 31
0.0
  0
LINE
  5
31F
100
AcDbEntity
  8
0
  6
BYBLOCK
 62
     1
100
AcDbLine
 10
861.46254
 20
18.550657
 30
0.0
 11
860.136635
 21
17.053333
 31
0.0
  0
MTEXT
  5
320
100
AcDbEntity
  8
0
  6
BYBLOCK
 62
     3
100
AcDbMText
 10
884.552946
 20
48.397298
 30
0.0
 40
3.0
 41
0.0
 71
     5
 72
     1
  1
\A1;\U+220525
 11
0.662952
 21
0.748662
 31
0.0
  0
LINE
  5
321
100
AcDbEntity
  8
0
  6
BYBLOCK
 62
     1
100
AcDbLine
 10
862.788444
 20
20.04798
 30
0.0
 11
879.362253
 21
38.76452
 31
0.0
  0
INSERT
  5
322
100
AcDbEntity
  8
0
  6
BYBLOCK
 62
     1
100
AcDbBlockReference
  2
_OPEN30
 10
862.788444
 20
20.04798
 30
0.0
 41
2.0
 42
2.0
 43
2.0
 50
48.474575
  0
INSERT
  5
323
100
AcDbEntity
  8
0
  6
BYBLOCK
 62
     1
100
AcDbBlockReference
  2
_OPEN30
 10
879.362253
 20
38.76452
 30
0.0
 41
2.0
 42
2.0
 43
2.0
 50
228.474575
  0
POINT
  5
324
100
AcDbEntity
  8
DEFPOINTS
  6
BYBLOCK
 62
     0
100
AcDbPoint
 10
879.362253
 20
38.76452
 30
0.0
  0
POINT
  5
325
100
AcDbEntity
  8
DEFPOINTS
  6
BYBLOCK
 62
     0
100
AcDbPoint
 10
862.788444
 20
20.04798
 30
0.0
  0
ENDBLK
  5
326
100
AcDbEntity
  8
0
100
AcDbBlockEnd
  0
BLOCK
  5
327
100
AcDbEntity
  8
0
100
AcDbBlockBegin
  2
*D27
 70
     1
 10
0.0
 20
0.0
 30
0.0
  3
*D27
  1

  0
LINE
  5
328
100
AcDbEntity
  8
0
  6
BYBLOCK
 62
     1
100
AcDbLine
 10
860.075349
 20
22.469079
 30
0.0
 11
860.075349
 21
6.526855
 31
0.0
  0
LINE
  5
329
100
AcDbEntity
  8
0
  6
BYBLOCK
 62
     1
100
AcDbLine
 10
882.075349
 20
22.469079
 30
0.0
 11
882.075349
 21
6.526855
 31
0.0
  0
LINE
  5
32A
100
AcDbEntity
  8
0
  6
BYBLOCK
 62
     1
100
AcDbLine
 10
862.075349
 20
8.526855
 30
0.0
 11
880.075349
 21
8.526855
 31
0.0
  0
INSERT
  5
32B
100
AcDbEntity
  8
0
  6
BYBLOCK
 62
     1
100
AcDbBlockReference
  2
_OPEN30
 10
860.075349
 20
8.526855
 30
0.0
 41
2.0
 42
2.0
 43
2.0
 50
180.0
  0
INSERT
  5
32C
100
AcDbEntity
  8
0
  6
BYBLOCK
 62
     1
100
AcDbBlockReference
  2
_OPEN30
 10
882.075349
 20
8.526855
 30
0.0
 41
2.0
 42
2.0
 43
2.0
  0
MTEXT
  5
32D
100
AcDbEntity
  8
0
  6
BYBLOCK
 62
     3
100
AcDbMText
 10
871.075349
 20
11.026855
 30
0.0
 40
3.0
 41
0.0
 71
     5
 72
     1
  1
\A1;22
  0
POINT
  5
32E
100
AcDbEntity
  8
DEFPOINTS
  6
BYBLOCK
 62
     0
100
AcDbPoint
 10
860.075349
 20
23.469079
 30
0.0
  0
POINT
  5
32F
100
AcDbEntity
  8
DEFPOINTS
  6
BYBLOCK
 62
     0
100
AcDbPoint
 10
882.075349
 20
23.469079
 30
0.0
  0
POINT
  5
330
100
AcDbEntity
  8
DEFPOINTS
  6
BYBLOCK
 62
     0
100
AcDbPoint
 10
882.075349
 20
8.526855
 30
0.0
  0
ENDBLK
  5
331
100
AcDbEntity
  8
0
100
AcDbBlockEnd
  0
ENDSEC
  0
SECTION
  2
ENTITIES
  0
DIMENSION
  5
179
100
AcDbEntity
  8
寸法
  6
CONTINUOUS
100
AcDbDimension
  2
*D15
 10
796.124464
 20
19.40625
 30
0.0
 11
793.624464
 21
15.90625
 31
0.0
 70
    32
  3
STANDARD
100
AcDbAlignedDimension
 13
750.157794
 23
12.40625
 33
0.0
 14
790.407794
 24
19.40625
 34
0.0
 50
90.0
100
AcDbRotatedDimension
1001
ACAD
1000
DSTYLE
1002
{
1070
    40
1040
1.0
1002
}
  0
LINE
  5
17B
100
AcDbEntity
  8
外形
  6
CONTINUOUS
100
AcDbLine
 10
784.468293
 20
19.40625
 30
0.0
 11
858.075349
 21
19.40625
 31
0.0
  0
LINE
  5
17C
100
AcDbEntity
  8
外形
  6
CONTINUOUS
100
AcDbLine
 10
790.157794
 20
-35.029651
 30
0.0
 11
928.153706
 21
-35.029651
 31
0.0
  0
LINE
  5
17D
100
AcDbEntity
  8
外形
  6
CONTINUOUS
100
AcDbLine
 10
790.157794
 20
-20.029651
 30
0.0
 11
928.153706
 21
-20.029651
 31
0.0
  0
LINE
  5
17E
100
AcDbEntity
  8
外形
  6
CONTINUOUS
100
AcDbLine
 10
790.407794
 20
-16.529651
 30
0.0
 11
928.153706
 21
-16.529651
 31
0.0
  0
LINE
  5
17F
100
AcDbEntity
  8
外形
  6
CONTINUOUS
100
AcDbLine
 10
790.407794
 20
-38.529651
 30
0.0
 11
928.153706
 21
-38.529651
 31
0.0
  0
LINE
  5
180
100
AcDbEntity
  8
外形
  6
CONTINUOUS
100
AcDbLine
 10
790.157794
 20
23.469079
 30
0.0
 11
858.075349
 21
23.469079
 31
0.0
  0
LINE
  5
181
100
AcDbEntity
  8
外形
  6
CONTINUOUS
100
AcDbLine
 10
790.157794
 20
35.343421
 30
0.0
 11
858.075349
 21
35.343421
 31
0.0
  0
LINE
  5
182
100
AcDbEntity
  8
外形
  6
CONTINUOUS
100
AcDbLine
 10
790.407794
 20
41.90625
 30
0.0
 11
858.075349
 21
41.90625
 31
0.0
  0
DIMENSION
  5
183
100
AcDbEntity
  8
寸法
  6
CONTINUOUS
100
AcDbDimension
  2
*D16
 10
930.153706
 20
-2.520716
 30
0.0
 11
840.15575
 21
-0.020716
 31
0.0
 70
    32
  3
STANDARD
100
AcDbAlignedDimension
 13
750.157794
 23
12.40625
 33
0.0
 14
930.153706
 24
21.90625
 34
0.0
100
AcDbRotatedDimension
1001
ACAD
1000
DSTYLE
1002
{
1070
    40
1040
1.0
1002
}
  0
LINE
  5
184
100
AcDbEntity
  8
外形
  6
CENTER
 62
     1
100
AcDbLine
 10
746.327813
 20
-27.529651
 30
0.0
 11
937.6417
 21
-27.529651
 31
0.0
  0
LINE
  5
185
100
AcDbEntity
  8
外形
  6
CENTER
 62
     1
100
AcDbLine
 10
750.503136
 20
29.40625
 30
0.0
 11
937.6417
 21
29.40625
 31
0.0
  0
LEADER
  5
186
100
AcDbEntity
  8
寸法
  6
CONTINUOUS
 62
     1
100
AcDbLeader
  3
STANDARD
 73
     0
 74
     0
 75
     1
 40
3.0
 41
26.0
 76
     3
 10
706.257237
 20
42.6942
 30
0.0
 10
714.224562
 20
55.935409
 30
0.0
 10
716.224562
 20
55.935409
 30
0.0
 77
   256
340
1E7
213
-0.1129475379637483
223
0.5510341987360618
233
0.0
1001
ACAD
1000
DSTYLE
1002
{
1070
   284
1070
    13
1070
   146
1040
0.5
1070
   272
1070
     3
1070
    40
1040
1.0
1070
   287
1070
     0
1002
}
  0
ARC
  5
188
100
AcDbEntity
  8
外形
  6
CONTINUOUS
100
AcDbCircle
 10
699.07623
 20
29.40625
 30
0.0
 40
12.25
100
AcDbArc
 50
29.183083
 51
151.202939
  0
DIMENSION
  5
189
100
AcDbEntity
  8
寸法
  6
CONTINUOUS
100
AcDbDimension
  2
*D18
 10
699.05641
 20
12.406209
 30
0.0
 11
689.681468
 21
-3.120417
 31
0.0
 70
    34
  3
STANDARD
100
AcDb2LineAngularDimension
 13
699.05623
 23
48.918518
 33
0.0
 14
699.05623
 24
7.823106
 34
0.0
 15
702.09085
 25
41.276978
 35
0.0
 16
698.354097
 26
-7.701962
 36
0.0
1001
ACAD
1000
DSTYLE
1002
{
1070
    40
1040
1.0
1002
}
  0
CIRCLE
  5
18A
100
AcDbEntity
  8
外形
  6
CENTER
 62
     1
100
AcDbCircle
 10
699.056414
 20
28.40625
 30
0.0
 40
16.0
  0
ARC
  5
18B
100
AcDbEntity
  8
外形
  6
CONTINUOUS
100
AcDbCircle
 10
700.923059
 20
34.349282
 30
0.0
 40
21.818434
100
AcDbArc
 50
234.783808
 51
254.68189
  0
LINE
  5
18C
100
AcDbEntity
  8
外形
  6
CENTER
 62
     1
100
AcDbLine
 10
708.099187
 20
29.40625
 30
0.0
 11
690.053274
 21
29.40625
 31
0.0
  0
LINE
  5
18E
100
AcDbEntity
  8
外形
  6
CONTINUOUS
100
AcDbLine
 10
688.341171
 20
35.343421
 30
0.0
 11
688.341171
 21
16.524015
 31
0.0
  0
LINE
  5
191
100
AcDbEntity
  8
外形
  6
CONTINUOUS
100
AcDbLine
 10
750.645248
 20
-31.499651
 30
0.0
 11
760.795385
 21
-31.499651
 31
0.0
  0
ARC
  5
192
100
AcDbEntity
  8
外形
  6
CONTINUOUS
100
AcDbCircle
 10
721.545886
 20
128.954189
 30
0.0
 40
158.187856
100
AcDbArc
 50
280.53161
 51
294.246334
  0
LINE
  5
193
100
AcDbEntity
  8
外形
  6
CONTINUOUS
100
AcDbLine
 10
790.157794
 20
-39.779651
 30
0.0
 11
751.762656
 21
-39.779651
 31
0.0
  0
LINE
  5
194
100
AcDbEntity
  8
外形
  6
CONTINUOUS
100
AcDbLine
 10
759.915435
 20
-27.529651
 30
0.0
 11
750.157794
 21
-27.529651
 31
0.0
  0
LINE
  5
196
100
AcDbEntity
  8
外形
  6
CONTINUOUS
100
AcDbLine
 10
750.645248
 20
-31.499651
 30
0.0
 11
750.157794
 21
-27.529651
 31
0.0
  0
LINE
  5
197
100
AcDbEntity
  8
外形
  6
CONTINUOUS
100
AcDbLine
 10
750.459139
 20
-27.529651
 30
0.0
 11
750.459139
 21
-26.56887
 31
0.0
  0
LINE
  5
198
100
AcDbEntity
  8
外形
  6
CONTINUOUS
100
AcDbLine
 10
784.468293
 20
-18.487679
 30
0.0
 11
784.468293
 21
-35.436694
 31
0.0
  0
ARC
  5
199
100
AcDbEntity
  8
外形
  6
CONTINUOUS
100
AcDbCircle
 10
769.438166
 20
-8.583373
 30
0.0
 40
18.0
100
AcDbArc
 50
275.226642
 51
338.160029
  0
ARC
  5
19A
100
AcDbEntity
  8
外形
  6
CONTINUOUS
100
AcDbCircle
 10
780.138166
 20
-32.936694
 30
0.0
 40
5.0
100
AcDbArc
 50
250.812494
 51
330.0
  0
LINE
  5
19B
100
AcDbEntity
  8
外形
  6
CONTINUOUS
100
AcDbLine
 10
760.795385
 20
-31.499651
 30
0.0
 11
778.494863
 21
-37.658934
 31
0.0
  0
LINE
  5
19C
100
AcDbEntity
  8
外形
  6
CONTINUOUS
100
AcDbLine
 10
760.795385
 20
-39.738108
 30
0.0
 11
760.795385
 21
-31.499651
 31
0.0
  0
SPLINE
  5
19D
100
AcDbEntity
  8
外形
  6
CONTINUOUS
100
AcDbSpline
210
-0.0910977313446828
220
0.9958419570111777
230
0.0
 70
    24
 71
     3
 72
     8
 73
     4
 74
     2
 42
0.0000001
 43
0.0000001
 44
0.0000000001
 40
0.0
 40
0.0
 40
0.0
 40
0.0
 40
11.20909791569092
 40
11.20909791569092
 40
11.20909791569092
 40
11.20909791569092
 10
759.9154353037421
 20
-27.52965114287883
 30
0.0
 10
763.6362653053059
 20
-27.18927667936554
 30
0.0
 10
767.3570953068698
 20
-26.84890221585225
 30
0.0
 10
771.0779253084337
 20
-26.50852775233897
 30
0.0
 11
759.9154353037421
 21
-27.52965114287883
 31
0.0
 11
771.0779253084337
 21
-26.50852775233897
 31
0.0
  0
LINE
  5
19E
100
AcDbEntity
  8
外形
  6
CONTINUOUS
100
AcDbLine
 10
759.915435
 20
-27.529651
 30
0.0
 11
759.427981
 21
-31.499651
 31
0.0
  0
LINE
  5
19F
100
AcDbEntity
  8
外形
  6
CONTINUOUS
100
AcDbLine
 10
784.468293
 20
-27.529651
 30
0.0
 11
784.468293
 21
-34.605151
 31
0.0
  0
LINE
  5
1A0
100
AcDbEntity
  8
外形
  6
CONTINUOUS
100
AcDbLine
 10
790.157794
 20
-34.605151
 30
0.0
 11
790.157794
 21
-39.779651
 31
0.0
  0
LINE
  5
1A1
100
AcDbEntity
  8
外形
  6
CONTINUOUS
100
AcDbLine
 10
790.407794
 20
-35.029651
 30
0.0
 11
790.407794
 21
-39.529651
 31
0.0
  0
LINE
  5
1A2
100
AcDbEntity
  8
外形
  6
CONTINUOUS
100
AcDbLine
 10
790.407794
 20
-39.529651
 30
0.0
 11
790.157794
 21
-39.779651
 31
0.0
  0
LINE
  5
1A3
100
AcDbEntity
  8
外形
  6
CONTINUOUS
100
AcDbLine
 10
784.468293
 20
-34.605151
 30
0.0
 11
790.157794
 21
-34.605151
 31
0.0
  0
LINE
  5
1A4
100
AcDbEntity
  8
外形
  6
CONTINUOUS
100
AcDbLine
 10
784.468293
 20
-20.454151
 30
0.0
 11
790.157794
 21
-20.454151
 31
0.0
  0
LINE
  5
1A5
100
AcDbEntity
  8
外形
  6
CONTINUOUS
100
AcDbLine
 10
790.407794
 20
-15.529651
 30
0.0
 11
790.407794
 21
-20.029651
 31
0.0
  0
LINE
  5
1A6
100
AcDbEntity
  8
外形
  6
CONTINUOUS
100
AcDbLine
 10
790.407794
 20
-15.529651
 30
0.0
 11
790.157794
 21
-15.279651
 31
0.0
  0
LINE
  5
1A7
100
AcDbEntity
  8
外形
  6
CONTINUOUS
100
AcDbLine
 10
790.157794
 20
-15.279651
 30
0.0
 11
786.507392
 21
-15.279651
 31
0.0
  0
LINE
  5
1A8
100
AcDbEntity
  8
外形
  6
CONTINUOUS
100
AcDbLine
 10
790.157794
 20
-15.279651
 30
0.0
 11
790.157794
 21
-20.454151
 31
0.0
  0
DIMENSION
  5
1A9
100
AcDbEntity
  8
寸法
  6
CONTINUOUS
100
AcDbDimension
  2
*D22
 10
750.19482
 20
13.446815
 30
0.0
 11
729.909563
 21
39.624393
 31
0.0
 70
    34
  3
STANDARD
100
AcDb2LineAngularDimension
 13
750.957794
 23
12.40625
 33
0.0
 14
750.157794
 24
12.40625
 34
0.0
 15
757.749201
 25
37.40625
 35
0.0
 16
740.036959
 26
42.070834
 36
0.0
1001
ACAD
1000
DSTYLE
1002
{
1070
    40
1040
1.0
1002
}
  0
LINE
  5
1AA
100
AcDbEntity
  8
外形
  6
CONTINUOUS
100
AcDbLine
 10
757.749201
 20
37.40625
 30
0.0
 11
750.19482
 21
13.446815
 31
0.0
  0
ARC
  5
1AB
100
AcDbEntity
  8
外形
  6
CONTINUOUS
100
AcDbCircle
 10
750.957794
 20
13.20625
 30
0.0
 40
0.8
100
AcDbArc
 50
162.5
 51
287.5
  0
LINE
  5
1AC
100
AcDbEntity
  8
外形
  6
CONTINUOUS
 62
     1
100
AcDbLine
 10
750.957794
 20
12.40625
 30
0.0
 11
750.157794
 21
12.40625
 31
0.0
  0
LINE
  5
1AD
100
AcDbEntity
  8
外形
  6
CENTER
 62
     1
100
AcDbLine
 10
750.338589
 20
19.256835
 30
0.0
 11
763.600055
 21
19.256835
 31
0.0
  0
LINE
  5
1AF
100
AcDbEntity
  8
外形
  6
CENTER
 62
     1
100
AcDbLine
 10
699.07623
 20
48.918518
 30
0.0
 11
699.07623
 21
7.823106
 31
0.0
  0
LINE
  5
1B0
100
AcDbEntity
  8
外形
  6
CONTINUOUS
100
AcDbLine
 10
709.77129
 20
23.469079
 30
0.0
 11
709.77129
 21
35.379373
 31
0.0
  0
DIMENSION
  5
1B1
100
AcDbEntity
  8
寸法
  6
CONTINUOUS
100
AcDbDimension
  2
*D24
 10
745.070893
 20
29.40625
 30
0.0
 11
742.570893
 21
20.90625
 31
0.0
 70
    32
  3
STANDARD
100
AcDbAlignedDimension
 13
750.157794
 23
12.40625
 33
0.0
 14
750.503136
 24
29.40625
 34
0.0
 50
90.0
100
AcDbRotatedDimension
1001
ACAD
1000
DSTYLE
1002
{
1070
    40
1040
1.0
1002
}
  0
LINE
  5
1B2
100
AcDbEntity
  8
外形
  6
CONTINUOUS
100
AcDbLine
 10
702.09085
 20
41.276978
 30
0.0
 11
699.05641
 21
12.406209
 31
0.0
  0
LINE
  5
1B3
100
AcDbEntity
  8
外形
  6
CENTER
 62
     1
100
AcDbLine
 10
699.05623
 20
48.918518
 30
0.0
 11
699.05623
 21
7.823106
 31
0.0
  0
LINE
  5
1B4
100
AcDbEntity
  8
外形
  6
CONTINUOUS
100
AcDbLine
 10
696.175331
 20
22.974657
 30
0.0
 11
695.159111
 21
13.305971
 31
0.0
  0
LINE
  5
1B5
100
AcDbEntity
  8
外形
  6
CONTINUOUS
100
AcDbLine
 10
699.056408
 20
12.406209
 30
0.0
 11
695.159111
 21
13.305971
 31
0.0
  0
ARC
  5
1B6
100
AcDbEntity
  8
外形
  6
CONTINUOUS
100
AcDbCircle
 10
699.05623
 20
29.40625
 30
0.0
 40
12.25
100
AcDbArc
 50
272.341613
 51
331.009341
  0
LINE
  5
1B7
100
AcDbEntity
  8
外形
  6
CONTINUOUS
100
AcDbLine
 10
700.174535
 20
23.044463
 30
0.0
 11
696.175331
 21
22.974657
 31
0.0
  0
LINE
  5
1B8
100
AcDbEntity
  8
外形
  6
CONTINUOUS
 62
     1
100
AcDbLine
 10
750.157794
 20
13.20625
 30
0.0
 11
750.157794
 21
12.40625
 31
0.0
  0
LINE
  5
1B9
100
AcDbEntity
  8
外形
  6
CONTINUOUS
100
AcDbLine
 10
786.146244
 20
25.90625
 30
0.0
 11
786.146244
 21
35.15625
 31
0.0
  0
ARC
  5
1BA
100
AcDbEntity
  8
外形
  6
CONTINUOUS
100
AcDbCircle
 10
780.138166
 20
16.90625
 30
0.0
 40
5.0
100
AcDbArc
 50
30.0
 51
109.187506
  0
LINE
  5
1BB
100
AcDbEntity
  8
外形
  6
CONTINUOUS
100
AcDbLine
 10
760.795385
 20
15.469207
 30
0.0
 11
778.494863
 21
21.62849
 31
0.0
  0
LINE
  5
1BE
100
AcDbEntity
  8
外形
  6
CONTINUOUS
100
AcDbLine
 10
763.821512
 20
25.066856
 30
0.0
 11
760.795385
 21
15.469207
 31
0.0
  0
LINE
  5
1BF
100
AcDbEntity
  8
外形
  6
CENTER
 62
     1
100
AcDbLine
 10
757.008166
 20
12.16315
 30
0.0
 11
757.008166
 21
25.818773
 31
0.0
  0
LINE
  5
1C0
100
AcDbEntity
  8
外形
  6
CONTINUOUS
100
AcDbLine
 10
758.865257
 20
14.982972
 30
0.0
 11
758.972858
 21
14.955145
 31
0.0
  0
LINE
  5
1C1
100
AcDbEntity
  8
外形
  6
CONTINUOUS
100
AcDbLine
 10
751.198358
 20
12.443276
 30
0.0
 11
760.795385
 21
15.469207
 31
0.0
  0
ARC
  5
1C2
100
AcDbEntity
  8
外形
  6
CONTINUOUS
100
AcDbCircle
 10
763.808166
 20
25.056835
 30
0.0
 40
1.75
100
AcDbArc
 50
300.5
 51
120.5
  0
ARC
  5
1C3
100
AcDbEntity
  8
外形
  6
CONTINUOUS
100
AcDbCircle
 10
763.058539
 20
25.307421
 30
0.0
 40
0.8
100
AcDbArc
 50
342.5
 51
107.5
  0
LINE
  5
1C4
100
AcDbEntity
  8
外形
  6
CONTINUOUS
100
AcDbLine
 10
761.231799
 20
25.570275
 30
0.0
 11
762.919974
 21
26.564686
 31
0.0
  0
LINE
  5
1C5
100
AcDbEntity
  8
外形
  6
CONTINUOUS
100
AcDbLine
 10
763.03423
 20
22.569916
 30
0.0
 11
764.696358
 21
23.548984
 31
0.0
  0
LINE
  5
1C6
100
AcDbEntity
  8
外形
  6
CONTINUOUS
100
AcDbLine
 10
757.891139
 20
17.727481
 30
0.0
 11
757.222735
 21
18.108988
 31
0.0
  0
LINE
  5
1C7
100
AcDbEntity
  8
外形
  6
CONTINUOUS
100
AcDbLine
 10
757.222735
 20
20.404683
 30
0.0
 11
757.891139
 21
20.78619
 31
0.0
  0
LINE
  5
1C8
100
AcDbEntity
  8
外形
  6
CONTINUOUS
100
AcDbLine
 10
757.894947
 20
18.497089
 30
0.0
 11
757.891139
 21
17.727481
 31
0.0
  0
ARC
  5
1C9
100
AcDbEntity
  8
外形
  6
CONTINUOUS
100
AcDbCircle
 10
758.327794
 20
18.494948
 30
0.0
 40
0.432853
100
AcDbArc
 50
120.283476
 51
179.716524
  0
LINE
  5
1CA
100
AcDbEntity
  8
外形
  6
CONTINUOUS
100
AcDbLine
 10
757.891139
 20
20.78619
 30
0.0
 11
757.894947
 21
20.016581
 31
0.0
  0
ARC
  5
1CB
100
AcDbEntity
  8
外形
  6
CONTINUOUS
100
AcDbCircle
 10
758.327794
 20
20.018723
 30
0.0
 40
0.432853
100
AcDbArc
 50
180.283476
 51
239.716524
  0
LINE
  5
1CC
100
AcDbEntity
  8
外形
  6
CONTINUOUS
100
AcDbLine
 10
758.109516
 20
19.644937
 30
0.0
 11
758.774112
 21
19.256835
 31
0.0
  0
LINE
  5
1CD
100
AcDbEntity
  8
外形
  6
CONTINUOUS
100
AcDbLine
 10
758.774112
 20
19.256835
 30
0.0
 11
758.109516
 21
18.868734
 31
0.0
  0
LINE
  5
1CE
100
AcDbEntity
  8
外形
  6
CONTINUOUS
100
AcDbLine
 10
756.793597
 20
18.108988
 30
0.0
 11
756.125193
 21
17.727481
 31
0.0
  0
LINE
  5
1CF
100
AcDbEntity
  8
外形
  6
CONTINUOUS
100
AcDbLine
 10
756.125193
 20
17.727481
 30
0.0
 11
756.121385
 21
18.497089
 31
0.0
  0
ARC
  5
1D0
100
AcDbEntity
  8
外形
  6
CONTINUOUS
100
AcDbCircle
 10
755.688538
 20
18.494948
 30
0.0
 40
0.432853
100
AcDbArc
 50
0.283476
 51
59.716524
  0
LINE
  5
1D1
100
AcDbEntity
  8
外形
  6
CONTINUOUS
100
AcDbLine
 10
756.121385
 20
20.016581
 30
0.0
 11
756.125193
 21
20.78619
 31
0.0
  0
LINE
  5
1D2
100
AcDbEntity
  8
外形
  6
CONTINUOUS
100
AcDbLine
 10
756.125193
 20
20.78619
 30
0.0
 11
756.793597
 21
20.404683
 31
0.0
  0
ARC
  5
1D3
100
AcDbEntity
  8
外形
  6
CONTINUOUS
100
AcDbCircle
 10
755.688538
 20
20.018723
 30
0.0
 40
0.432853
100
AcDbArc
 50
300.283476
 51
359.716524
  0
LINE
  5
1D4
100
AcDbEntity
  8
外形
  6
CONTINUOUS
100
AcDbLine
 10
755.24222
 20
19.256835
 30
0.0
 11
755.906816
 21
19.644937
 31
0.0
  0
LINE
  5
1D5
100
AcDbEntity
  8
外形
  6
CONTINUOUS
100
AcDbLine
 10
755.906816
 20
18.868734
 30
0.0
 11
755.24222
 21
19.256835
 31
0.0
  0
ARC
  5
1D6
100
AcDbEntity
  8
外形
  6
CONTINUOUS
100
AcDbCircle
 10
757.008166
 20
17.73306
 30
0.0
 40
0.432853
100
AcDbArc
 50
60.283476
 51
119.716524
  0
ARC
  5
1D7
100
AcDbEntity
  8
外形
  6
CONTINUOUS
100
AcDbCircle
 10
757.008166
 20
20.780611
 30
0.0
 40
0.432853
100
AcDbArc
 50
240.283476
 51
299.716524
  0
CIRCLE
  5
1D8
100
AcDbEntity
  8
外形
  6
CONTINUOUS
100
AcDbCircle
 10
757.008166
 20
19.256835
 30
0.0
 40
2.800022
  0
LINE
  5
1D9
100
AcDbEntity
  8
外形
  6
CONTINUOUS
100
AcDbLine
 10
753.220947
 20
23.044463
 30
0.0
 11
762.817974
 21
26.070394
 31
0.0
  0
ARC
  5
1DA
100
AcDbEntity
  8
外形
  6
CONTINUOUS
100
AcDbCircle
 10
779.646244
 20
25.90625
 30
0.0
 40
6.5
100
AcDbArc
 50
305.929556
 51
0.0
  0
LINE
  5
1DB
100
AcDbEntity
  8
外形
  6
CONTINUOUS
100
AcDbLine
 10
790.157794
 20
24.015285
 30
0.0
 11
785.865106
 21
24.015285
 31
0.0
  0
LINE
  5
1DC
100
AcDbEntity
  8
外形
  6
CONTINUOUS
100
AcDbLine
 10
790.407794
 20
19.40625
 30
0.0
 11
790.407794
 21
23.469079
 31
0.0
  0
LINE
  5
1DD
100
AcDbEntity
  8
外形
  6
CONTINUOUS
100
AcDbLine
 10
790.157794
 20
19.40625
 30
0.0
 11
790.157794
 21
24.015285
 31
0.0
  0
LINE
  5
1DE
100
AcDbEntity
  8
外形
  6
CONTINUOUS
100
AcDbLine
 10
764.453498
 20
41.276978
 30
0.0
 11
781.834095
 21
41.276978
 31
0.0
  0
LINE
  5
1DF
100
AcDbEntity
  8
外形
  6
CONTINUOUS
100
AcDbLine
 10
780.007392
 20
41.65625
 30
0.0
 11
765.110417
 21
41.65625
 31
0.0
  0
LINE
  5
1E0
100
AcDbEntity
  8
外形
  6
CONTINUOUS
100
AcDbLine
 10
757.749201
 20
37.40625
 30
0.0
 11
765.110417
 21
41.65625
 31
0.0
  0
ARC
  5
1E1
100
AcDbEntity
  8
外形
  6
CONTINUOUS
100
AcDbCircle
 10
779.646244
 20
35.15625
 30
0.0
 40
6.5
100
AcDbArc
 50
0.0
 51
70.330595
  0
LINE
  5
1E2
100
AcDbEntity
  8
外形
  6
CONTINUOUS
100
AcDbLine
 10
790.407794
 20
35.343421
 30
0.0
 11
790.407794
 21
41.90625
 31
0.0
  0
LINE
  5
1E3
100
AcDbEntity
  8
外形
  6
CONTINUOUS
100
AcDbLine
 10
790.157794
 20
34.797215
 30
0.0
 11
790.157794
 21
41.65625
 31
0.0
  0
LINE
  5
1E4
100
AcDbEntity
  8
外形
  6
CONTINUOUS
100
AcDbLine
 10
790.157794
 20
34.797215
 30
0.0
 11
786.146244
 21
34.797215
 31
0.0
  0
LINE
  5
1E5
100
AcDbEntity
  8
外形
  6
CONTINUOUS
100
AcDbLine
 10
780.007392
 20
41.65625
 30
0.0
 11
790.157794
 21
41.65625
 31
0.0
  0
LINE
  5
1E6
100
AcDbEntity
  8
外形
  6
CONTINUOUS
100
AcDbLine
 10
790.407794
 20
41.90625
 30
0.0
 11
790.157794
 21
41.65625
 31
0.0
  0
MTEXT
  5
1E7
102
{ACAD_REACTORS
330
186
102
}
100
AcDbEntity
  8
寸法
  6
CONTINUOUS
 62
     3
100
AcDbMText
 10
717.337509
 20
57.884375
 30
0.0
 40
3.0
 41
0.0
 71
     4
 72
     1
  1
%%c32最小加工径
  0
TEXT
  5
1E8
100
AcDbEntity
  8
外形
  6
CONTINUOUS
 62
     2
100
AcDbText
 10
812.269985
 20
-66.56801
 30
0.0
 40
6.0
  1
S25Q-SDQCR11
100
AcDbText
  0
LINE
  5
1E9
100
AcDbEntity
  8
外形
  6
CONTINUOUS
100
AcDbLine
 10
884.075349
 20
19.40625
 30
0.0
 11
928.153706
 21
19.40625
 31
0.0
  0
LINE
  5
1EA
100
AcDbEntity
  8
外形
  6
CONTINUOUS
100
AcDbLine
 10
884.075349
 20
23.469079
 30
0.0
 11
928.153706
 21
23.469079
 31
0.0
  0
LINE
  5
1EB
100
AcDbEntity
  8
外形
  6
CONTINUOUS
100
AcDbLine
 10
884.075349
 20
41.90625
 30
0.0
 11
928.153706
 21
41.90625
 31
0.0
  0
LINE
  5
1EC
100
AcDbEntity
  8
外形
  6
CONTINUOUS
100
AcDbLine
 10
884.075349
 20
35.343421
 30
0.0
 11
928.153706
 21
35.343421
 31
0.0
  0
LINE
  5
1ED
100
AcDbEntity
  8
外形
  6
CONTINUOUS
100
AcDbLine
 10
863.575349
 20
19.40625
 30
0.0
 11
878.575349
 21
19.40625
 31
0.0
  0
DIMENSION
  5
1EE
100
AcDbEntity
  8
寸法
  6
CONTINUOUS
100
AcDbDimension
  2
*D26
 10
862.788444
 20
20.04798
 30
0.0
 11
886.4246
 21
46.739918
 31
0.0
 70
   163
  3
STANDARD
100
AcDbDiametricDimension
 15
879.362253
 25
38.76452
 35
0.0
 40
0.0
1001
ACAD
1000
DSTYLE
1002
{
1070
    40
1040
1.0
1002
}
  0
ARC
  5
1EF
100
AcDbEntity
  8
外形
  6
CONTINUOUS
100
AcDbCircle
 10
871.075349
 20
29.40625
 30
0.0
 40
12.5
100
AcDbArc
 50
28.357637
 51
151.642363
  0
DIMENSION
  5
1F0
100
AcDbEntity
  8
寸法
  6
CONTINUOUS
100
AcDbDimension
  2
*D27
 10
882.075349
 20
8.526855
 30
0.0
 11
871.075349
 21
11.026855
 31
0.0
 70
    32
  3
STANDARD
100
AcDbAlignedDimension
 13
860.075349
 23
23.469079
 33
0.0
 14
882.075349
 24
23.469079
 34
0.0
100
AcDbRotatedDimension
1001
ACAD
1000
DSTYLE
1002
{
1070
    40
1040
1.0
1002
}
  0
LINE
  5
1F1
100
AcDbEntity
  8
外形
  6
CONTINUOUS
100
AcDbLine
 10
860.075349
 20
35.343421
 30
0.0
 11
860.075349
 21
23.469079
 31
0.0
  0
ARC
  5
1F2
100
AcDbEntity
  8
外形
  6
CONTINUOUS
100
AcDbCircle
 10
871.075349
 20
29.40625
 30
0.0
 40
12.5
100
AcDbArc
 50
208.357637
 51
233.130102
  0
LINE
  5
1F3
100
AcDbEntity
  8
外形
  6
CONTINUOUS
100
AcDbLine
 10
882.075349
 20
35.343421
 30
0.0
 11
882.075349
 21
23.469079
 31
0.0
  0
LINE
  5
1F4
100
AcDbEntity
  8
外形
  6
CENTER
 62
     1
100
AcDbLine
 10
871.075349
 20
41.917424
 30
0.0
 11
871.075349
 21
17.124289
 31
0.0
  0
ARC
  5
1F5
100
AcDbEntity
  8
外形
  6
CONTINUOUS
100
AcDbCircle
 10
871.075349
 20
29.40625
 30
0.0
 40
12.5
100
AcDbArc
 50
306.869898
 51
331.642363
  0
ARC
  5
1F6
100
AcDbEntity
  8
外形
  6
CONTINUOUS
100
AcDbCircle
 10
918.153706
 20
-27.529651
 30
0.0
 40
12.5
100
AcDbArc
 50
16.260205
 51
36.869898
  0
LINE
  5
1F7
100
AcDbEntity
  8
外形
  6
CONTINUOUS
100
AcDbLine
 10
930.153706
 20
-18.529651
 30
0.0
 11
930.153706
 21
-36.529651
 31
0.0
  0
ARC
  5
1F8
100
AcDbEntity
  8
外形
  6
CONTINUOUS
100
AcDbCircle
 10
918.153706
 20
-27.529651
 30
0.0
 40
12.5
100
AcDbArc
 50
323.130102
 51
343.739795
  0
LINE
  5
1F9
100
AcDbEntity
  8
外形
  6
CONTINUOUS
100
AcDbLine
 10
928.153706
 20
-38.529651
 30
0.0
 11
930.153706
 21
-36.529651
 31
0.0
  0
LINE
  5
1FA
100
AcDbEntity
  8
外形
  6
CONTINUOUS
100
AcDbLine
 10
928.153706
 20
-35.029651
 30
0.0
 11
928.153706
 21
-38.529651
 31
0.0
  0
LINE
  5
1FB
100
AcDbEntity
  8
外形
  6
CONTINUOUS
100
AcDbLine
 10
928.153706
 20
-16.529651
 30
0.0
 11
930.153706
 21
-18.529651
 31
0.0
  0
LINE
  5
1FC
100
AcDbEntity
  8
外形
  6
CONTINUOUS
100
AcDbLine
 10
928.153706
 20
-16.529651
 30
0.0
 11
928.153706
 21
-20.029651
 31
0.0
  0
ARC
  5
1FD
100
AcDbEntity
  8
外形
  6
CONTINUOUS
100
AcDbCircle
 10
917.153706
 20
29.40625
 30
0.0
 40
12.5
100
AcDbArc
 50
331.642363
 51
28.357637
  0
LINE
  5
1FE
100
AcDbEntity
  8
外形
  6
CONTINUOUS
100
AcDbLine
 10
930.153706
 20
21.40625
 30
0.0
 11
930.153706
 21
39.90625
 31
0.0
  0
LINE
  5
200
100
AcDbEntity
  8
外形
  6
CONTINUOUS
100
AcDbLine
 10
928.153706
 20
19.40625
 30
0.0
 11
930.153706
 21
21.40625
 31
0.0
  0
LINE
  5
201
100
AcDbEntity
  8
外形
  6
CONTINUOUS
100
AcDbLine
 10
928.153706
 20
23.469079
 30
0.0
 11
928.153706
 21
19.40625
 31
0.0
  0
LINE
  5
202
100
AcDbEntity
  8
外形
  6
CONTINUOUS
100
AcDbLine
 10
928.153706
 20
41.90625
 30
0.0
 11
930.153706
 21
39.90625
 31
0.0
  0
LINE
  5
203
100
AcDbEntity
  8
外形
  6
CONTINUOUS
100
AcDbLine
 10
928.153706
 20
41.90625
 30
0.0
 11
928.153706
 21
35.343421
 31
0.0
  0
LINE
  5
33D
100
AcDbEntity
  8
外形
  6
CONTINUOUS
100
AcDbLine
 10
751.762656
 20
-39.779651
 30
0.0
 11
750.745999
 21
-31.499651
 31
0.0
  0
ENDSEC
  0
SECTION
  2
OBJECTS
  0
DICTIONARY
  5
1E
100
AcDbDictionary
  3
ACAD_GROUP
350
1C
  3
ACAD_MLINESTYLE
350
1D
  0
DICTIONARY
  5
49
100
AcDbDictionary
280
     1
  3
ACAD_XREC_ROUNDTRIP
360
4A
  0
DICTIONARY
  5
38
100
AcDbDictionary
280
     1
  3
ACAD_XREC_ROUNDTRIP
360
39
  0
DICTIONARY
  5
3
100
AcDbDictionary
280
     1
  3
ACAD_LAYOUTSELFREF
360
4
  0
DICTIONARY
  5
A
100
AcDbDictionary
280
     1
  3
ACAD_LAYOUTSELFREF
360
B
  0
DICTIONARY
  5
1C
102
{ACAD_REACTORS
330
1E
102
}
100
AcDbDictionary
  0
DICTIONARY
  5
1D
102
{ACAD_REACTORS
330
1E
102
}
100
AcDbDictionary
  3
STANDARD
350
20
  0
XRECORD
  5
4A
102
{ACAD_REACTORS
330
49
102
}
100
AcDbXrecord
102
PLOTBIT
280
     0
  0
XRECORD
  5
39
102
{ACAD_REACTORS
330
38
102
}
100
AcDbXrecord
102
ACADR14ROUNDTRIP
1000
DSTYLE
1002
{
1070
   341
340
0
1070
   343
340
0
1070
   344
340
0
1002
}
  0
XRECORD
  5
4
102
{ACAD_REACTORS
330
3
102
}
100
AcDbXrecord
340
2
  0
XRECORD
  5
B
102
{ACAD_REACTORS
330
A
102
}
100
AcDbXrecord
340
9
  0
MLINESTYLE
  5
20
102
{ACAD_REACTORS
330
1D
102
}
100
AcDbMlineStyle
  2
STANDARD
 70
     0
  3

 62
     0
 51
90.0
 52
90.0
 71
     2
 49
0.5
 62
   256
  6
BYLAYER
 49
-0.5
 62
   256
  6
BYLAYER
  0
ENDSEC
  0
EOF
