  0
SECTION
  2
HEADER
  9
$ACADVER
  1
AC1014
  9
$ACADMAINTVER
 70
     0
  9
$DWGCODEPAGE
  3
ANSI_932
  9
$INSBASE
 10
544.181756
 20
-273.198296
 30
0.0
  9
$EXTMIN
 10
514.764407
 20
-293.937094
 30
0.0
  9
$EXTMAX
 10
771.990499
 20
-167.98471
 30
0.0
  9
$LIMMIN
 10
-587.250952
 20
327.890188
  9
$LIMMAX
 10
600.749048
 20
957.890188
  9
$ORTHOMODE
 70
     1
  9
$REGENMODE
 70
     1
  9
$FILLMODE
 70
     1
  9
$QTEXTMODE
 70
     0
  9
$MIRRTEXT
 70
     1
  9
$DRAGMODE
 70
     2
  9
$LTSCALE
 40
5.0
  9
$OSMODE
 70
   303
  9
$ATTMODE
 70
     1
  9
$TEXTSIZE
 40
5.0
  9
$TRACEWID
 40
0.05
  9
$TEXTSTYLE
  7
STANDARD
  9
$CLAYER
  8
寸法
  9
$CELTYPE
  6
CONTINUOUS
  9
$CECOLOR
 62
   256
  9
$CELTSCALE
 40
1.0
  9
$DELOBJ
 70
     1
  9
$DISPSILH
 70
     0
  9
$DIMSCALE
 40
1.0
  9
$DIMASZ
 40
2.0
  9
$DIMEXO
 40
1.0
  9
$DIMDLI
 40
8.0
  9
$DIMRND
 40
0.0
  9
$DIMDLE
 40
0.0
  9
$DIMEXE
 40
2.0
  9
$DIMTP
 40
0.0
  9
$DIMTM
 40
0.0
  9
$DIMTXT
 40
2.0
  9
$DIMCEN
 40
-1.0
  9
$DIMTSZ
 40
0.0
  9
$DIMTOL
 70
     0
  9
$DIMLIM
 70
     0
  9
$DIMTIH
 70
     0
  9
$DIMTOH
 70
     0
  9
$DIMSE1
 70
     0
  9
$DIMSE2
 70
     0
  9
$DIMTAD
 70
     1
  9
$DIMZIN
 70
     8
  9
$DIMBLK
  1

  9
$DIMASO
 70
     1
  9
$DIMSHO
 70
     1
  9
$DIMPOST
  1

  9
$DIMAPOST
  1

  9
$DIMALT
 70
     0
  9
$DIMALTD
 70
     2
  9
$DIMALTF
 40
25.4
  9
$DIMLFAC
 40
1.0
  9
$DIMTOFL
 70
     1
  9
$DIMTVP
 40
0.0
  9
$DIMTIX
 70
     0
  9
$DIMSOXD
 70
     0
  9
$DIMSAH
 70
     1
  9
$DIMBLK1
  1
_DOTSMALL
  9
$DIMBLK2
  1
_DOTSMALL
  9
$DIMSTYLE
  2
参考寸法
  9
$DIMCLRD
 70
     2
  9
$DIMCLRE
 70
     2
  9
$DIMCLRT
 70
     2
  9
$DIMTFAC
 40
1.0
  9
$DIMGAP
 40
1.0
  9
$DIMJUST
 70
     0
  9
$DIMSD1
 70
     0
  9
$DIMSD2
 70
     0
  9
$DIMTOLJ
 70
     1
  9
$DIMTZIN
 70
     8
  9
$DIMALTZ
 70
     0
  9
$DIMALTTZ
 70
     0
  9
$DIMFIT
 70
     3
  9
$DIMUPT
 70
     0
  9
$DIMUNIT
 70
     2
  9
$DIMDEC
 70
     3
  9
$DIMTDEC
 70
     2
  9
$DIMALTU
 70
     2
  9
$DIMALTTD
 70
     2
  9
$DIMTXSTY
  7
STANDARD
  9
$DIMAUNIT
 70
     0
  9
$LUNITS
 70
     2
  9
$LUPREC
 70
     3
  9
$SKETCHINC
 40
0.1
  9
$FILLETRAD
 40
6.5
  9
$AUNITS
 70
     0
  9
$AUPREC
 70
     3
  9
$MENU
  1
acad
  9
$ELEVATION
 40
0.0
  9
$PELEVATION
 40
0.0
  9
$THICKNESS
 40
0.0
  9
$LIMCHECK
 70
     0
  9
$BLIPMODE
 70
     0
  9
$CHAMFERA
 40
0.0
  9
$CHAMFERB
 40
0.0
  9
$CHAMFERC
 40
0.0
  9
$CHAMFERD
 40
0.0
  9
$SKPOLY
 70
     0
  9
$TDCREATE
 40
2450751.535399305
  9
$TDUPDATE
 40
2452019.777384259
  9
$TDINDWG
 40
4.7467837963
  9
$TDUSRTIMER
 40
4.7467837963
  9
$USRTIMER
 70
     1
  9
$ANGBASE
 50
0.0
  9
$ANGDIR
 70
     0
  9
$PDMODE
 70
    32
  9
$PDSIZE
 40
0.0
  9
$PLINEWID
 40
0.0
  9
$COORDS
 70
     2
  9
$SPLFRAME
 70
     0
  9
$SPLINETYPE
 70
     5
  9
$SPLINESEGS
 70
     8
  9
$ATTDIA
 70
     0
  9
$ATTREQ
 70
     1
  9
$HANDLING
 70
     1
  9
$HANDSEED
  5
349
  9
$SURFTAB1
 70
     6
  9
$SURFTAB2
 70
     6
  9
$SURFTYPE
 70
     6
  9
$SURFU
 70
     6
  9
$SURFV
 70
     6
  9
$UCSNAME
  2

  9
$UCSORG
 10
0.0
 20
0.0
 30
0.0
  9
$UCSXDIR
 10
1.0
 20
0.0
 30
0.0
  9
$UCSYDIR
 10
0.0
 20
1.0
 30
0.0
  9
$PUCSNAME
  2

  9
$PUCSORG
 10
0.0
 20
0.0
 30
0.0
  9
$PUCSXDIR
 10
1.0
 20
0.0
 30
0.0
  9
$PUCSYDIR
 10
0.0
 20
1.0
 30
0.0
  9
$USERI1
 70
     0
  9
$USERI2
 70
     0
  9
$USERI3
 70
     0
  9
$USERI4
 70
     0
  9
$USERI5
 70
     0
  9
$USERR1
 40
0.0
  9
$USERR2
 40
0.0
  9
$USERR3
 40
0.0
  9
$USERR4
 40
0.0
  9
$USERR5
 40
0.0
  9
$WORLDVIEW
 70
     1
  9
$SHADEDGE
 70
     3
  9
$SHADEDIF
 70
    70
  9
$TILEMODE
 70
     1
  9
$MAXACTVP
 70
    16
  9
$PINSBASE
 10
0.0
 20
0.0
 30
0.0
  9
$PLIMCHECK
 70
     0
  9
$PEXTMIN
 10
1.000000E+20
 20
1.000000E+20
 30
1.000000E+20
  9
$PEXTMAX
 10
-1.000000E+20
 20
-1.000000E+20
 30
-1.000000E+20
  9
$PLIMMIN
 10
0.0
 20
0.0
  9
$PLIMMAX
 10
12.0
 20
9.0
  9
$UNITMODE
 70
     0
  9
$VISRETAIN
 70
     0
  9
$PLINEGEN
 70
     0
  9
$PSLTSCALE
 70
     1
  9
$TREEDEPTH
 70
  3020
  9
$PICKSTYLE
 70
     1
  9
$CMLSTYLE
  2
STANDARD
  9
$CMLJUST
 70
     0
  9
$CMLSCALE
 40
1.0
  9
$PROXYGRAPHICS
 70
     1
  9
$MEASUREMENT
 70
     0
  0
ENDSEC
  0
SECTION
  2
CLASSES
  0
CLASS
  1
LWPOLYLINE
  2
AcDbPolyline
  3
"AutoCAD"
 90
        0
280
     0
281
     1
  0
CLASS
  1
ACDBDICTIONARYWDFLT
  2
AcDbDictionaryWithDefault
  3
AutoCAD 2000
 90
        0
280
     1
281
     0
  0
CLASS
  1
ACDBPLACEHOLDER
  2
AcDbPlaceHolder
  3
AutoCAD 2000
 90
        0
280
     1
281
     0
  0
CLASS
  1
LAYOUT
  2
AcDbLayout
  3
AutoCAD 2000
 90
        0
280
     1
281
     0
  0
CLASS
  1
LONG_TRANSACTION
  2
AcDbLongTransaction
  3
AutoCAD 2000
 90
        0
280
     1
281
     0
  0
CLASS
  1
LWPOLYLINE
  2
AcDbPolyline
  3
"AutoCAD"
 90
        0
280
     0
281
     1
  0
CLASS
  1
HATCH
  2
AcDbHatch
  3
"ACAD_SEDONA"
 90
        0
280
     0
281
     1
  0
CLASS
  1
XRECORD
  2
AcDbXrecord
  3
"<Built In>"
 90
        0
280
     0
281
     0
  0
CLASS
  1
DICTIONARYVAR
  2
AcDbDictionaryVar
  3
"AutoCAD"
 90
        0
280
     0
281
     0
  0
ENDSEC
  0
SECTION
  2
TABLES
  0
TABLE
  2
VPORT
  5
16
100
AcDbSymbolTable
 70
     1
  0
VPORT
  5
344
100
AcDbSymbolTableRecord
100
AcDbViewportTableRecord
  2
*ACTIVE
 70
     0
 10
0.0
 20
0.0
 11
1.0
 21
1.0
 12
674.618989
 22
-224.948628
 13
0.0
 23
0.0
 14
1.0
 24
1.0
 15
10.0
 25
10.0
 16
0.0
 26
0.0
 36
1.0
 17
0.0
 27
0.0
 37
0.0
 40
222.131735
 41
1.710425
 42
50.0
 43
0.0
 44
0.0
 50
0.0
 51
0.0
 71
     0
 72
   100
 73
     1
 74
     1
 75
     0
 76
     0
 77
     0
 78
     2
  0
ENDTAB
  0
TABLE
  2
LTYPE
  5
11
100
AcDbSymbolTable
 70
     2
  0
LTYPE
  5
12
100
AcDbSymbolTableRecord
100
AcDbLinetypeTableRecord
  2
BYBLOCK
 70
     0
  3

 72
    65
 73
     0
 40
0.0
  0
LTYPE
  5
13
100
AcDbSymbolTableRecord
100
AcDbLinetypeTableRecord
  2
BYLAYER
 70
     0
  3

 72
    65
 73
     0
 40
0.0
  0
LTYPE
  5
7
100
AcDbSymbolTableRecord
100
AcDbLinetypeTableRecord
  2
CONTINUOUS
 70
     0
  3
Solid line
 72
    65
 73
     0
 40
0.0
  0
LTYPE
  5
4E
100
AcDbSymbolTableRecord
100
AcDbLinetypeTableRecord
  2
CENTER
 70
     0
  3
Center ____ _ ____ _ ____ _ ____ _ ____ _ ____
 72
    65
 73
     4
 40
2.0
 49
1.25
 74
     0
 49
-0.25
 74
     0
 49
0.25
 74
     0
 49
-0.25
 74
     0
  0
ENDTAB
  0
TABLE
  2
LAYER
  5
E
100
AcDbSymbolTable
 70
     5
  0
LAYER
  5
6
100
AcDbSymbolTableRecord
100
AcDbLayerTableRecord
  2
0
 70
     0
 62
     7
  6
CONTINUOUS
  0
LAYER
  5
1F
100
AcDbSymbolTableRecord
100
AcDbLayerTableRecord
  2
外形
 70
     0
 62
     4
  6
CONTINUOUS
  0
LAYER
  5
46
102
{ACAD_XDICTIONARY
360
47
102
}
100
AcDbSymbolTableRecord
100
AcDbLayerTableRecord
  2
DEFPOINTS
 70
     0
 62
     7
  6
CONTINUOUS
  0
LAYER
  5
34
100
AcDbSymbolTableRecord
100
AcDbLayerTableRecord
  2
寸法
 70
     0
 62
     1
  6
CONTINUOUS
  0
LAYER
  5
53
100
AcDbSymbolTableRecord
100
AcDbLayerTableRecord
  2
参考
 70
     0
 62
     2
  6
CONTINUOUS
  0
ENDTAB
  0
TABLE
  2
STYLE
  5
F
100
AcDbSymbolTable
 70
     1
  0
STYLE
  5
10
100
AcDbSymbolTableRecord
100
AcDbTextStyleTableRecord
  2
STANDARD
 70
     0
 40
0.0
 41
1.0
 50
0.0
 71
     0
 42
5.0
  3
MONOTXT
  4
BIGFONT
  0
ENDTAB
  0
TABLE
  2
VIEW
  5
14
100
AcDbSymbolTable
 70
     0
  0
ENDTAB
  0
TABLE
  2
UCS
  5
15
100
AcDbSymbolTable
 70
     0
  0
ENDTAB
  0
TABLE
  2
APPID
  5
18
100
AcDbSymbolTable
 70
     1
  0
APPID
  5
19
100
AcDbSymbolTableRecord
100
AcDbRegAppTableRecord
  2
ACAD
 70
     0
  0
ENDTAB
  0
TABLE
  2
DIMSTYLE
  5
1A
100
AcDbSymbolTable
 70
     2
  0
DIMSTYLE
105
35
102
{ACAD_XDICTIONARY
360
36
102
}
102
{ACAD_REACTORS
330
33
330
DE
330
BF
330
13E
330
131
330
62
330
71
330
337
102
}
100
AcDbSymbolTableRecord
100
AcDbDimStyleTableRecord
  2
STANDARD
 70
     0
  3

  4

  5

  6
_OPEN30
  7
_OPEN30
 40
0.0
 41
2.0
 42
1.0
 43
8.0
 44
2.0
 45
0.0
 46
0.0
 47
0.0
 48
0.0
140
3.0
141
-1.0
142
0.0
143
25.4
144
1.0
145
0.0
146
1.0
147
1.0
 71
     0
 72
     0
 73
     0
 74
     0
 75
     0
 76
     0
 77
     1
 78
     8
170
     0
171
     2
172
     1
173
     1
174
     0
175
     0
176
     1
177
     1
178
     3
270
     2
271
     2
272
     2
273
     2
274
     2
340
10
275
     0
280
     0
281
     0
282
     0
283
     1
284
     8
285
     0
286
     0
287
     3
288
     0
  0
DIMSTYLE
105
21
102
{ACAD_REACTORS
330
CF
330
97
330
88
330
F8
330
52
102
}
100
AcDbSymbolTableRecord
100
AcDbDimStyleTableRecord
  2
参考寸法
 70
     0
  3

  4

  5

  6
_DOTSMALL
  7
_DOTSMALL
 40
1.0
 41
2.0
 42
1.0
 43
8.0
 44
2.0
 45
0.0
 46
0.0
 47
0.0
 48
0.0
140
2.0
141
-1.0
142
0.0
143
25.4
144
1.0
145
0.0
146
1.0
147
1.0
 71
     0
 72
     0
 73
     0
 74
     0
 75
     0
 76
     0
 77
     1
 78
     8
170
     0
171
     2
172
     1
173
     1
174
     0
175
     0
176
     2
177
     2
178
     2
270
     2
271
     3
272
     2
273
     2
274
     2
340
10
275
     0
280
     0
281
     0
282
     0
283
     1
284
     8
285
     0
286
     0
287
     3
288
     0
  0
ENDTAB
  0
TABLE
  2
BLOCK_RECORD
  5
1
100
AcDbSymbolTable
 70
    29
  0
BLOCK_RECORD
  5
2
102
{ACAD_XDICTIONARY
360
3
102
}
100
AcDbSymbolTableRecord
100
AcDbBlockTableRecord
  2
*MODEL_SPACE
  0
BLOCK_RECORD
  5
9
102
{ACAD_XDICTIONARY
360
A
102
}
100
AcDbSymbolTableRecord
100
AcDbBlockTableRecord
  2
*PAPER_SPACE
  0
BLOCK_RECORD
  5
22
100
AcDbSymbolTableRecord
100
AcDbBlockTableRecord
  2
_DOTSMALL
  0
BLOCK_RECORD
  5
38
100
AcDbSymbolTableRecord
100
AcDbBlockTableRecord
  2
_OPEN30
  0
BLOCK_RECORD
  5
89
100
AcDbSymbolTableRecord
100
AcDbBlockTableRecord
  2
*D2
  0
BLOCK_RECORD
  5
3E
100
AcDbSymbolTableRecord
100
AcDbBlockTableRecord
  2
*D3
  0
BLOCK_RECORD
  5
C0
100
AcDbSymbolTableRecord
100
AcDbBlockTableRecord
  2
*D4
  0
BLOCK_RECORD
  5
DF
100
AcDbSymbolTableRecord
100
AcDbBlockTableRecord
  2
*D5
  0
BLOCK_RECORD
  5
98
100
AcDbSymbolTableRecord
100
AcDbBlockTableRecord
  2
*D6
  0
BLOCK_RECORD
  5
D0
100
AcDbSymbolTableRecord
100
AcDbBlockTableRecord
  2
*D7
  0
BLOCK_RECORD
  5
13F
100
AcDbSymbolTableRecord
100
AcDbBlockTableRecord
  2
*D8
  0
BLOCK_RECORD
  5
F9
100
AcDbSymbolTableRecord
100
AcDbBlockTableRecord
  2
*D9
  0
BLOCK_RECORD
  5
132
100
AcDbSymbolTableRecord
100
AcDbBlockTableRecord
  2
*D10
  0
BLOCK_RECORD
  5
63
100
AcDbSymbolTableRecord
100
AcDbBlockTableRecord
  2
*D11
  0
BLOCK_RECORD
  5
54
100
AcDbSymbolTableRecord
100
AcDbBlockTableRecord
  2
*D12
  0
BLOCK_RECORD
  5
72
100
AcDbSymbolTableRecord
100
AcDbBlockTableRecord
  2
*D13
  0
BLOCK_RECORD
  5
2A
100
AcDbSymbolTableRecord
100
AcDbBlockTableRecord
  2
5
  0
BLOCK_RECORD
  5
1F0
100
AcDbSymbolTableRecord
100
AcDbBlockTableRecord
  2
*D15
  0
BLOCK_RECORD
  5
20A
100
AcDbSymbolTableRecord
100
AcDbBlockTableRecord
  2
*D17
  0
BLOCK_RECORD
  5
218
100
AcDbSymbolTableRecord
100
AcDbBlockTableRecord
  2
*D18
  0
BLOCK_RECORD
  5
25D
100
AcDbSymbolTableRecord
100
AcDbBlockTableRecord
  2
*D23
  0
BLOCK_RECORD
  5
276
100
AcDbSymbolTableRecord
100
AcDbBlockTableRecord
  2
*D25
  0
BLOCK_RECORD
  5
281
100
AcDbSymbolTableRecord
100
AcDbBlockTableRecord
  2
*D26
  0
BLOCK_RECORD
  5
32B
100
AcDbSymbolTableRecord
100
AcDbBlockTableRecord
  2
*D28
  0
ENDTAB
  0
ENDSEC
  0
SECTION
  2
BLOCKS
  0
BLOCK
  5
5
100
AcDbEntity
  8
0
100
AcDbBlockBegin
  2
*MODEL_SPACE
 70
     0
 10
0.0
 20
0.0
 30
0.0
  3
*MODEL_SPACE
  1

  0
ENDBLK
  5
8
100
AcDbEntity
  8
0
100
AcDbBlockEnd
  0
BLOCK
  5
C
100
AcDbEntity
 67
     1
  8
0
100
AcDbBlockBegin
  2
*PAPER_SPACE
 70
     0
 10
0.0
 20
0.0
 30
0.0
  3
*PAPER_SPACE
  1

  0
ENDBLK
  5
D
100
AcDbEntity
 67
     1
  8
0
100
AcDbBlockEnd
  0
BLOCK
  5
27
100
AcDbEntity
  8
0
100
AcDbBlockBegin
  2
_DOTSMALL
 70
     0
 10
0.0
 20
0.0
 30
0.0
  3
_DOTSMALL
  1

  0
POLYLINE
  5
23
100
AcDbEntity
  8
0
  6
BYBLOCK
 62
     0
100
AcDb2dPolyline
 66
     1
 10
0.0
 20
0.0
 30
0.0
 70
     1
 40
0.5
 41
0.5
  0
VERTEX
  5
24
100
AcDbEntity
  8
0
  6
BYBLOCK
 62
     0
100
AcDbVertex
100
AcDb2dVertex
 10
-0.0625
 20
0.0
 30
0.0
 42
1.0
  0
VERTEX
  5
25
100
AcDbEntity
  8
0
  6
BYBLOCK
 62
     0
100
AcDbVertex
100
AcDb2dVertex
 10
0.0625
 20
0.0
 30
0.0
 42
1.0
  0
SEQEND
  5
26
100
AcDbEntity
  8
0
  6
BYBLOCK
 62
     0
  0
ENDBLK
  5
28
100
AcDbEntity
  8
0
100
AcDbBlockEnd
  0
BLOCK
  5
3C
100
AcDbEntity
  8
0
100
AcDbBlockBegin
  2
_OPEN30
 70
     0
 10
0.0
 20
0.0
 30
0.0
  3
_OPEN30
  1

  0
LINE
  5
39
100
AcDbEntity
  8
0
  6
BYBLOCK
 62
     0
100
AcDbLine
 10
-1.0
 20
0.267949
 30
0.0
 11
0.0
 21
0.0
 31
0.0
  0
LINE
  5
3A
100
AcDbEntity
  8
0
  6
BYBLOCK
 62
     0
100
AcDbLine
 10
0.0
 20
0.0
 30
0.0
 11
-1.0
 21
-0.267949
 31
0.0
  0
LINE
  5
3B
100
AcDbEntity
  8
0
  6
BYBLOCK
 62
     0
100
AcDbLine
 10
0.0
 20
0.0
 30
0.0
 11
-1.0
 21
0.0
 31
0.0
  0
ENDBLK
  5
3D
100
AcDbEntity
  8
0
100
AcDbBlockEnd
  0
BLOCK
  5
94
100
AcDbEntity
  8
0
100
AcDbBlockBegin
  2
*D2
 70
     1
 10
0.0
 20
0.0
 30
0.0
  3
*D2
  1

  0
LINE
  5
8A
100
AcDbEntity
  8
0
  6
BYBLOCK
 62
     2
100
AcDbLine
 10
216.989044
 20
503.174981
 30
0.0
 11
216.46158
 21
498.156497
 31
0.0
  0
LINE
  5
8B
100
AcDbEntity
  8
0
  6
BYBLOCK
 62
     2
100
AcDbLine
 10
213.040792
 20
503.589959
 30
0.0
 11
212.513328
 21
498.571475
 31
0.0
  0
LINE
  5
8C
100
AcDbEntity
  8
0
  6
BYBLOCK
 62
     2
100
AcDbLine
 10
216.670637
 20
500.145541
 30
0.0
 11
212.722385
 21
500.560519
 31
0.0
  0
LINE
  5
8D
100
AcDbEntity
  8
0
  6
BYBLOCK
 62
     2
100
AcDbLine
 10
212.722385
 20
500.560519
 30
0.0
 11
204.268948
 21
501.449011
 31
0.0
  0
INSERT
  5
8E
100
AcDbEntity
  8
0
  6
BYBLOCK
 62
     2
100
AcDbBlockReference
  2
_DOTSMALL
 10
216.670637
 20
500.145541
 30
0.0
 50
354.0
  0
INSERT
  5
8F
100
AcDbEntity
  8
0
  6
BYBLOCK
 62
     2
100
AcDbBlockReference
  2
_DOTSMALL
 10
212.722385
 20
500.560519
 30
0.0
 50
174.0
  0
MTEXT
  5
90
100
AcDbEntity
  8
0
  6
BYBLOCK
 62
     2
100
AcDbMText
 10
208.18133
 20
502.797442
 30
0.0
 40
1.5
 41
0.0
 71
     5
 72
     1
  1
\A1;3.97
 11
0.994522
 21
-0.104528
 31
0.0
  0
POINT
  5
91
100
AcDbEntity
  8
DEFPOINTS
  6
BYBLOCK
 62
     0
100
AcDbPoint
 10
217.093572
 20
504.169503
 30
0.0
  0
POINT
  5
92
100
AcDbEntity
  8
DEFPOINTS
  6
BYBLOCK
 62
     0
100
AcDbPoint
 10
213.14532
 20
504.584481
 30
0.0
  0
POINT
  5
93
100
AcDbEntity
  8
DEFPOINTS
  6
BYBLOCK
 62
     0
100
AcDbPoint
 10
212.722385
 20
500.560519
 30
0.0
  0
ENDBLK
  5
95
100
AcDbEntity
  8
0
100
AcDbBlockEnd
  0
BLOCK
  5
4B
100
AcDbEntity
  8
0
100
AcDbBlockBegin
  2
*D3
 70
     1
 10
0.0
 20
0.0
 30
0.0
  3
*D3
  1

  0
LINE
  5
3F
100
AcDbEntity
  8
0
  6
BYBLOCK
 62
     1
100
AcDbLine
 10
1144.777261
 20
503.169544
 30
0.0
 11
1144.777261
 21
487.242578
 31
0.0
  0
LINE
  5
40
100
AcDbEntity
  8
0
  6
BYBLOCK
 62
     1
100
AcDbLine
 10
1324.773173
 20
512.669544
 30
0.0
 11
1324.773173
 21
487.242578
 31
0.0
  0
LINE
  5
41
100
AcDbEntity
  8
0
  6
BYBLOCK
 62
     1
100
AcDbLine
 10
1146.777261
 20
489.242578
 30
0.0
 11
1322.773173
 21
489.242578
 31
0.0
  0
INSERT
  5
42
100
AcDbEntity
  8
0
  6
BYBLOCK
 62
     1
100
AcDbBlockReference
  2
_OPEN30
 10
1144.777261
 20
489.242578
 30
0.0
 41
2.0
 42
2.0
 43
2.0
 50
180.0
  0
INSERT
  5
43
100
AcDbEntity
  8
0
  6
BYBLOCK
 62
     1
100
AcDbBlockReference
  2
_OPEN30
 10
1324.773173
 20
489.242578
 30
0.0
 41
2.0
 42
2.0
 43
2.0
  0
MTEXT
  5
44
100
AcDbEntity
  8
0
  6
BYBLOCK
 62
     3
100
AcDbMText
 10
1234.775217
 20
491.742578
 30
0.0
 40
3.0
 41
0.0
 71
     5
 72
     1
  1
\A1;180
  0
POINT
  5
45
100
AcDbEntity
  8
DEFPOINTS
  6
BYBLOCK
 62
     0
100
AcDbPoint
 10
1144.777261
 20
504.169544
 30
0.0
  0
POINT
  5
49
100
AcDbEntity
  8
DEFPOINTS
  6
BYBLOCK
 62
     0
100
AcDbPoint
 10
1324.773173
 20
513.669544
 30
0.0
  0
POINT
  5
4A
100
AcDbEntity
  8
DEFPOINTS
  6
BYBLOCK
 62
     0
100
AcDbPoint
 10
1324.773173
 20
489.242578
 30
0.0
  0
ENDBLK
  5
4C
100
AcDbEntity
  8
0
100
AcDbBlockEnd
  0
BLOCK
  5
CA
100
AcDbEntity
  8
0
100
AcDbBlockBegin
  2
*D4
 70
     1
 10
0.0
 20
0.0
 30
0.0
  3
*D4
  1

  0
LINE
  5
C1
100
AcDbEntity
  8
0
  6
BYBLOCK
 62
     1
100
AcDbLine
 10
1144.122604
 20
521.169544
 30
0.0
 11
1137.69036
 21
521.169544
 31
0.0
  0
LINE
  5
C2
100
AcDbEntity
  8
0
  6
BYBLOCK
 62
     1
100
AcDbLine
 10
1144.939616
 20
527.169544
 30
0.0
 11
1137.69036
 21
527.169544
 31
0.0
  0
LINE
  5
C3
100
AcDbEntity
  8
0
  6
BYBLOCK
 62
     1
100
AcDbLine
 10
1139.69036
 20
523.169544
 30
0.0
 11
1139.69036
 21
525.169544
 31
0.0
  0
INSERT
  5
C4
100
AcDbEntity
  8
0
  6
BYBLOCK
 62
     1
100
AcDbBlockReference
  2
_OPEN30
 10
1139.69036
 20
521.169544
 30
0.0
 41
2.0
 42
2.0
 43
2.0
 50
270.0
  0
INSERT
  5
C5
100
AcDbEntity
  8
0
  6
BYBLOCK
 62
     1
100
AcDbBlockReference
  2
_OPEN30
 10
1139.69036
 20
527.169544
 30
0.0
 41
2.0
 42
2.0
 43
2.0
 50
90.0
  0
MTEXT
  5
C6
100
AcDbEntity
  8
0
  6
BYBLOCK
 62
     3
100
AcDbMText
 10
1137.19036
 20
524.169544
 30
0.0
 40
3.0
 41
0.0
 71
     5
 72
     1
  1
\A1;6
 11
0.0
 21
1.0
 31
0.0
  0
POINT
  5
C7
100
AcDbEntity
  8
DEFPOINTS
  6
BYBLOCK
 62
     0
100
AcDbPoint
 10
1145.122604
 20
521.169544
 30
0.0
  0
POINT
  5
C8
100
AcDbEntity
  8
DEFPOINTS
  6
BYBLOCK
 62
     0
100
AcDbPoint
 10
1145.939616
 20
527.169544
 30
0.0
  0
POINT
  5
C9
100
AcDbEntity
  8
DEFPOINTS
  6
BYBLOCK
 62
     0
100
AcDbPoint
 10
1139.69036
 20
527.169544
 30
0.0
  0
ENDBLK
  5
CB
100
AcDbEntity
  8
0
100
AcDbBlockEnd
  0
BLOCK
  5
E9
100
AcDbEntity
  8
0
100
AcDbBlockBegin
  2
*D5
 70
     1
 10
0.0
 20
0.0
 30
0.0
  3
*D5
  1

  0
LINE
  5
E0
100
AcDbEntity
  8
0
  6
BYBLOCK
 62
     1
100
AcDbLine
 10
1143.777261
 20
504.169544
 30
0.0
 11
1137.69036
 21
504.169544
 31
0.0
  0
LINE
  5
E1
100
AcDbEntity
  8
0
  6
BYBLOCK
 62
     1
100
AcDbLine
 10
1144.122604
 20
521.169544
 30
0.0
 11
1137.69036
 21
521.169544
 31
0.0
  0
LINE
  5
E2
100
AcDbEntity
  8
0
  6
BYBLOCK
 62
     1
100
AcDbLine
 10
1139.69036
 20
506.169544
 30
0.0
 11
1139.69036
 21
519.169544
 31
0.0
  0
INSERT
  5
E3
100
AcDbEntity
  8
0
  6
BYBLOCK
 62
     1
100
AcDbBlockReference
  2
_OPEN30
 10
1139.69036
 20
504.169544
 30
0.0
 41
2.0
 42
2.0
 43
2.0
 50
270.0
  0
INSERT
  5
E4
100
AcDbEntity
  8
0
  6
BYBLOCK
 62
     1
100
AcDbBlockReference
  2
_OPEN30
 10
1139.69036
 20
521.169544
 30
0.0
 41
2.0
 42
2.0
 43
2.0
 50
90.0
  0
MTEXT
  5
E5
100
AcDbEntity
  8
0
  6
BYBLOCK
 62
     3
100
AcDbMText
 10
1137.19036
 20
512.669544
 30
0.0
 40
3.0
 41
0.0
 71
     5
 72
     1
  1
\A1;17
 11
0.0
 21
1.0
 31
0.0
  0
POINT
  5
E6
100
AcDbEntity
  8
DEFPOINTS
  6
BYBLOCK
 62
     0
100
AcDbPoint
 10
1144.777261
 20
504.169544
 30
0.0
  0
POINT
  5
E7
100
AcDbEntity
  8
DEFPOINTS
  6
BYBLOCK
 62
     0
100
AcDbPoint
 10
1145.122604
 20
521.169544
 30
0.0
  0
POINT
  5
E8
100
AcDbEntity
  8
DEFPOINTS
  6
BYBLOCK
 62
     0
100
AcDbPoint
 10
1139.69036
 20
521.169544
 30
0.0
  0
ENDBLK
  5
EA
100
AcDbEntity
  8
0
100
AcDbBlockEnd
  0
BLOCK
  5
A4
100
AcDbEntity
  8
0
100
AcDbBlockBegin
  2
*D6
 70
     1
 10
0.0
 20
0.0
 30
0.0
  3
*D6
  1

  0
LINE
  5
99
100
AcDbEntity
  8
0
  6
BYBLOCK
 62
     2
100
AcDbLine
 10
1093.675698
 20
498.5864
 30
0.0
 11
1093.675698
 21
489.477745
 31
0.0
  0
LINE
  5
9A
100
AcDbEntity
  8
0
  6
BYBLOCK
 62
     2
100
AcDbLine
 10
1093.685698
 20
498.5864
 30
0.0
 11
1093.685698
 21
489.477745
 31
0.0
  0
LINE
  5
9B
100
AcDbEntity
  8
0
  6
BYBLOCK
 62
     2
100
AcDbLine
 10
1093.675698
 20
491.477745
 30
0.0
 11
1092.675698
 21
491.477745
 31
0.0
  0
LINE
  5
9C
100
AcDbEntity
  8
0
  6
BYBLOCK
 62
     2
100
AcDbLine
 10
1093.685698
 20
491.477745
 30
0.0
 11
1102.935698
 21
491.477745
 31
0.0
  0
LINE
  5
9D
100
AcDbEntity
  8
0
  6
BYBLOCK
 62
     2
100
AcDbLine
 10
1093.675698
 20
491.477745
 30
0.0
 11
1093.685698
 21
491.477745
 31
0.0
  0
INSERT
  5
9E
100
AcDbEntity
  8
0
  6
BYBLOCK
 62
     2
100
AcDbBlockReference
  2
_DOTSMALL
 10
1093.675698
 20
491.477745
 30
0.0
  0
INSERT
  5
9F
100
AcDbEntity
  8
0
  6
BYBLOCK
 62
     2
100
AcDbBlockReference
  2
_DOTSMALL
 10
1093.685698
 20
491.477745
 30
0.0
 50
180.0
  0
MTEXT
  5
A0
100
AcDbEntity
  8
0
  6
BYBLOCK
 62
     2
100
AcDbMText
 10
1099.310698
 20
493.227745
 30
0.0
 40
1.5
 41
0.0
 71
     5
 72
     1
  1
\A1;0.01
  0
POINT
  5
A1
100
AcDbEntity
  8
DEFPOINTS
  6
BYBLOCK
 62
     0
100
AcDbPoint
 10
1093.675698
 20
499.5864
 30
0.0
  0
POINT
  5
A2
100
AcDbEntity
  8
DEFPOINTS
  6
BYBLOCK
 62
     0
100
AcDbPoint
 10
1093.685698
 20
499.5864
 30
0.0
  0
POINT
  5
A3
100
AcDbEntity
  8
DEFPOINTS
  6
BYBLOCK
 62
     0
100
AcDbPoint
 10
1093.685698
 20
491.477745
 30
0.0
  0
ENDBLK
  5
A5
100
AcDbEntity
  8
0
100
AcDbBlockEnd
  0
BLOCK
  5
DA
100
AcDbEntity
  8
0
100
AcDbBlockBegin
  2
*D7
 70
     1
 10
0.0
 20
0.0
 30
0.0
  3
*D7
  1

  0
LINE
  5
D1
100
AcDbEntity
  8
0
  6
BYBLOCK
 62
     2
100
AcDbLine
 10
1144.777261
 20
503.169544
 30
0.0
 11
1144.777261
 21
497.799846
 31
0.0
  0
LINE
  5
D2
100
AcDbEntity
  8
0
  6
BYBLOCK
 62
     2
100
AcDbLine
 10
1184.777261
 20
510.169544
 30
0.0
 11
1184.777261
 21
497.799846
 31
0.0
  0
LINE
  5
D3
100
AcDbEntity
  8
0
  6
BYBLOCK
 62
     2
100
AcDbLine
 10
1144.777261
 20
499.799846
 30
0.0
 11
1184.777261
 21
499.799846
 31
0.0
  0
INSERT
  5
D4
100
AcDbEntity
  8
0
  6
BYBLOCK
 62
     2
100
AcDbBlockReference
  2
_DOTSMALL
 10
1144.777261
 20
499.799846
 30
0.0
 50
180.0
  0
INSERT
  5
D5
100
AcDbEntity
  8
0
  6
BYBLOCK
 62
     2
100
AcDbBlockReference
  2
_DOTSMALL
 10
1184.777261
 20
499.799846
 30
0.0
  0
MTEXT
  5
D6
100
AcDbEntity
  8
0
  6
BYBLOCK
 62
     2
100
AcDbMText
 10
1164.777261
 20
501.549846
 30
0.0
 40
1.5
 41
0.0
 71
     5
 72
     1
  1
\A1;40
  0
POINT
  5
D7
100
AcDbEntity
  8
DEFPOINTS
  6
BYBLOCK
 62
     0
100
AcDbPoint
 10
1144.777261
 20
504.169544
 30
0.0
  0
POINT
  5
D8
100
AcDbEntity
  8
DEFPOINTS
  6
BYBLOCK
 62
     0
100
AcDbPoint
 10
1184.777261
 20
511.169544
 30
0.0
  0
POINT
  5
D9
100
AcDbEntity
  8
DEFPOINTS
  6
BYBLOCK
 62
     0
100
AcDbPoint
 10
1184.777261
 20
499.799846
 30
0.0
  0
ENDBLK
  5
DB
100
AcDbEntity
  8
0
100
AcDbBlockEnd
  0
BLOCK
  5
149
100
AcDbEntity
  8
0
100
AcDbBlockBegin
  2
*D8
 70
     1
 10
0.0
 20
0.0
 30
0.0
  3
*D8
  1

  0
LINE
  5
140
100
AcDbEntity
  8
0
  6
BYBLOCK
 62
     1
100
AcDbLine
 10
1254.694816
 20
514.232373
 30
0.0
 11
1254.694816
 21
498.290149
 31
0.0
  0
LINE
  5
141
100
AcDbEntity
  8
0
  6
BYBLOCK
 62
     1
100
AcDbLine
 10
1276.694816
 20
514.232373
 30
0.0
 11
1276.694816
 21
498.290149
 31
0.0
  0
LINE
  5
142
100
AcDbEntity
  8
0
  6
BYBLOCK
 62
     1
100
AcDbLine
 10
1256.694816
 20
500.290149
 30
0.0
 11
1274.694816
 21
500.290149
 31
0.0
  0
INSERT
  5
143
100
AcDbEntity
  8
0
  6
BYBLOCK
 62
     1
100
AcDbBlockReference
  2
_OPEN30
 10
1254.694816
 20
500.290149
 30
0.0
 41
2.0
 42
2.0
 43
2.0
 50
180.0
  0
INSERT
  5
144
100
AcDbEntity
  8
0
  6
BYBLOCK
 62
     1
100
AcDbBlockReference
  2
_OPEN30
 10
1276.694816
 20
500.290149
 30
0.0
 41
2.0
 42
2.0
 43
2.0
  0
MTEXT
  5
145
100
AcDbEntity
  8
0
  6
BYBLOCK
 62
     3
100
AcDbMText
 10
1265.694816
 20
502.790149
 30
0.0
 40
3.0
 41
0.0
 71
     5
 72
     1
  1
\A1;22
  0
POINT
  5
146
100
AcDbEntity
  8
DEFPOINTS
  6
BYBLOCK
 62
     0
100
AcDbPoint
 10
1254.694816
 20
515.232373
 30
0.0
  0
POINT
  5
147
100
AcDbEntity
  8
DEFPOINTS
  6
BYBLOCK
 62
     0
100
AcDbPoint
 10
1276.694816
 20
515.232373
 30
0.0
  0
POINT
  5
148
100
AcDbEntity
  8
DEFPOINTS
  6
BYBLOCK
 62
     0
100
AcDbPoint
 10
1276.694816
 20
500.290149
 30
0.0
  0
ENDBLK
  5
14A
100
AcDbEntity
  8
0
100
AcDbBlockEnd
  0
BLOCK
  5
104
100
AcDbEntity
  8
0
100
AcDbBlockBegin
  2
*D9
 70
     1
 10
0.0
 20
0.0
 30
0.0
  3
*D9
  1

  0
LINE
  5
FA
100
AcDbEntity
  8
0
  6
BYBLOCK
 62
     2
100
AcDbLine
 10
1147.119948
 20
511.252398
 30
0.0
 11
1147.119948
 21
501.153845
 31
0.0
  0
LINE
  5
FB
100
AcDbEntity
  8
0
  6
BYBLOCK
 62
     2
100
AcDbLine
 10
1152.719991
 20
511.252398
 30
0.0
 11
1152.719991
 21
501.153845
 31
0.0
  0
LINE
  5
FC
100
AcDbEntity
  8
0
  6
BYBLOCK
 62
     2
100
AcDbLine
 10
1147.119948
 20
503.153845
 30
0.0
 11
1152.719991
 21
503.153845
 31
0.0
  0
LINE
  5
FD
100
AcDbEntity
  8
0
  6
BYBLOCK
 62
     2
100
AcDbLine
 10
1152.719991
 20
503.153845
 30
0.0
 11
1159.719991
 21
503.153845
 31
0.0
  0
INSERT
  5
FE
100
AcDbEntity
  8
0
  6
BYBLOCK
 62
     2
100
AcDbBlockReference
  2
_DOTSMALL
 10
1147.119948
 20
503.153845
 30
0.0
 50
180.0
  0
INSERT
  5
FF
100
AcDbEntity
  8
0
  6
BYBLOCK
 62
     2
100
AcDbBlockReference
  2
_DOTSMALL
 10
1152.719991
 20
503.153845
 30
0.0
  0
MTEXT
  5
100
100
AcDbEntity
  8
0
  6
BYBLOCK
 62
     2
100
AcDbMText
 10
1156.719991
 20
504.903845
 30
0.0
 40
1.5
 41
0.0
 71
     5
 72
     1
  1
\A1;5.6
  0
POINT
  5
101
100
AcDbEntity
  8
DEFPOINTS
  6
BYBLOCK
 62
     0
100
AcDbPoint
 10
1147.119948
 20
512.252398
 30
0.0
  0
POINT
  5
102
100
AcDbEntity
  8
DEFPOINTS
  6
BYBLOCK
 62
     0
100
AcDbPoint
 10
1152.719991
 20
512.252398
 30
0.0
  0
POINT
  5
103
100
AcDbEntity
  8
DEFPOINTS
  6
BYBLOCK
 62
     0
100
AcDbPoint
 10
1152.719991
 20
503.153845
 30
0.0
  0
ENDBLK
  5
105
100
AcDbEntity
  8
0
100
AcDbBlockEnd
  0
BLOCK
  5
13B
100
AcDbEntity
  8
0
100
AcDbBlockBegin
  2
*D10
 70
     1
 10
0.0
 20
0.0
 30
0.0
  3
*D10
  1

  0
LINE
  5
133
100
AcDbEntity
  8
0
  6
BYBLOCK
 62
     1
100
AcDbLine
 10
1284.35883
 20
542.24652
 30
0.0
 11
1275.307625
 21
532.025138
 31
0.0
  0
LINE
  5
134
100
AcDbEntity
  8
0
  6
BYBLOCK
 62
     1
100
AcDbLine
 10
1256.082007
 20
510.313951
 30
0.0
 11
1254.756103
 21
508.816628
 31
0.0
  0
MTEXT
  5
135
100
AcDbEntity
  8
0
  6
BYBLOCK
 62
     3
100
AcDbMText
 10
1279.172414
 20
540.160593
 30
0.0
 40
3.0
 41
0.0
 71
     5
 72
     1
  1
\A1;\U+220525
 11
0.662952
 21
0.748662
 31
0.0
  0
LINE
  5
136
100
AcDbEntity
  8
0
  6
BYBLOCK
 62
     1
100
AcDbLine
 10
1257.407912
 20
511.811274
 30
0.0
 11
1273.98172
 21
530.527814
 31
0.0
  0
INSERT
  5
137
100
AcDbEntity
  8
0
  6
BYBLOCK
 62
     1
100
AcDbBlockReference
  2
_OPEN30
 10
1257.407912
 20
511.811274
 30
0.0
 41
2.0
 42
2.0
 43
2.0
 50
48.474575
  0
INSERT
  5
138
100
AcDbEntity
  8
0
  6
BYBLOCK
 62
     1
100
AcDbBlockReference
  2
_OPEN30
 10
1273.98172
 20
530.527814
 30
0.0
 41
2.0
 42
2.0
 43
2.0
 50
228.474575
  0
POINT
  5
139
100
AcDbEntity
  8
DEFPOINTS
  6
BYBLOCK
 62
     0
100
AcDbPoint
 10
1273.98172
 20
530.527814
 30
0.0
  0
POINT
  5
13A
100
AcDbEntity
  8
DEFPOINTS
  6
BYBLOCK
 62
     0
100
AcDbPoint
 10
1257.407912
 20
511.811274
 30
0.0
  0
ENDBLK
  5
13C
100
AcDbEntity
  8
0
100
AcDbBlockEnd
  0
BLOCK
  5
6F
100
AcDbEntity
  8
0
100
AcDbBlockBegin
  2
*D11
 70
     1
 10
0.0
 20
0.0
 30
0.0
  3
*D11
  1

  0
LINE
  5
64
100
AcDbEntity
  8
0
  6
BYBLOCK
 62
     1
100
AcDbLine
 10
1145.991952
 20
528.168174
 30
0.0
 11
1146.606331
 21
539.891215
 31
0.0
  0
LINE
  5
65
100
AcDbEntity
  8
0
  6
BYBLOCK
 62
     1
100
AcDbLine
 10
1143.734237
 20
504.169544
 30
0.0
 11
1108.963544
 21
504.169544
 31
0.0
  0
ARC
  5
66
100
AcDbEntity
  8
0
  6
BYBLOCK
 62
     1
100
AcDbCircle
 10
1144.734237
 20
504.169544
 30
0.0
 40
33.770693
100
AcDbArc
 50
90.393721
 51
176.606279
  0
INSERT
  5
67
100
AcDbEntity
  8
0
  6
BYBLOCK
 62
     1
100
AcDbBlockReference
  2
_OPEN30
 10
1146.501659
 20
537.893956
 30
0.0
 41
2.0
 42
2.0
 43
2.0
 50
358.696861
  0
INSERT
  5
68
100
AcDbEntity
  8
0
  6
BYBLOCK
 62
     1
100
AcDbBlockReference
  2
_OPEN30
 10
1110.963544
 20
504.169544
 30
0.0
 41
2.0
 42
2.0
 43
2.0
 50
268.303139
  0
MTEXT
  5
69
100
AcDbEntity
  8
0
  6
BYBLOCK
 62
     3
100
AcDbMText
 10
1119.76714
 20
530.479375
 30
0.0
 40
3.0
 41
0.0
 71
     5
 72
     1
  1
\A1;93°
 11
0.725374
 21
0.688355
 31
0.0
  0
POINT
  5
6A
100
AcDbEntity
  8
DEFPOINTS
  6
BYBLOCK
 62
     0
100
AcDbPoint
 10
1128.879857
 20
533.987296
 30
0.0
  0
POINT
  5
6B
100
AcDbEntity
  8
DEFPOINTS
  6
BYBLOCK
 62
     0
100
AcDbPoint
 10
1145.939616
 20
527.169544
 30
0.0
  0
POINT
  5
6C
100
AcDbEntity
  8
DEFPOINTS
  6
BYBLOCK
 62
     0
100
AcDbPoint
 10
1145.577261
 20
504.169544
 30
0.0
  0
POINT
  5
6D
100
AcDbEntity
  8
DEFPOINTS
  6
BYBLOCK
 62
     0
100
AcDbPoint
 10
1144.777261
 20
504.169544
 30
0.0
  0
POINT
  5
6E
100
AcDbEntity
  8
DEFPOINTS
  6
BYBLOCK
 62
     0
100
AcDbPoint
 10
1144.778358
 20
505.011413
 30
0.0
  0
ENDBLK
  5
70
100
AcDbEntity
  8
0
100
AcDbBlockEnd
  0
BLOCK
  5
60
100
AcDbEntity
  8
0
100
AcDbBlockBegin
  2
*D12
 70
     1
 10
0.0
 20
0.0
 30
0.0
  3
*D12
  1

  0
LINE
  5
55
100
AcDbEntity
  8
0
  6
BYBLOCK
 62
     2
100
AcDbLine
 10
1175.62686
 20
533.419544
 30
0.0
 11
1195.886348
 21
533.419544
 31
0.0
  0
LINE
  5
56
100
AcDbEntity
  8
0
  6
BYBLOCK
 62
     2
100
AcDbLine
 10
1157.630959
 20
533.919544
 30
0.0
 11
1190.645072
 21
552.980251
 31
0.0
  0
ARC
  5
57
100
AcDbEntity
  8
0
  6
BYBLOCK
 62
     2
100
AcDbCircle
 10
1156.764934
 20
533.419544
 30
0.0
 40
37.121414
100
AcDbArc
 50
0.0
 51
30.0
  0
INSERT
  5
58
100
AcDbEntity
  8
0
  6
BYBLOCK
 62
     2
100
AcDbBlockReference
  2
_DOTSMALL
 10
1193.886348
 20
533.419544
 30
0.0
 50
270.0
  0
INSERT
  5
59
100
AcDbEntity
  8
0
  6
BYBLOCK
 62
     2
100
AcDbBlockReference
  2
_DOTSMALL
 10
1188.913021
 20
551.980251
 30
0.0
 50
120.0
  0
MTEXT
  5
5A
100
AcDbEntity
  8
0
  6
BYBLOCK
 62
     2
100
AcDbMText
 10
1194.311836
 20
543.480207
 30
0.0
 40
1.5
 41
0.0
 71
     5
 72
     1
  1
\A1;30°
 11
0.258819
 21
-0.965926
 31
0.0
  0
POINT
  5
5B
100
AcDbEntity
  8
DEFPOINTS
  6
BYBLOCK
 62
     0
100
AcDbPoint
 10
1193.32239
 20
539.86561
 30
0.0
  0
POINT
  5
5C
100
AcDbEntity
  8
DEFPOINTS
  6
BYBLOCK
 62
     0
100
AcDbPoint
 10
1145.939616
 20
527.169544
 30
0.0
  0
POINT
  5
5D
100
AcDbEntity
  8
DEFPOINTS
  6
BYBLOCK
 62
     0
100
AcDbPoint
 10
1174.62686
 20
533.419544
 30
0.0
  0
POINT
  5
5E
100
AcDbEntity
  8
DEFPOINTS
  6
BYBLOCK
 62
     0
100
AcDbPoint
 10
1156.764934
 20
533.419544
 30
0.0
  0
POINT
  5
5F
100
AcDbEntity
  8
DEFPOINTS
  6
BYBLOCK
 62
     0
100
AcDbPoint
 10
1156.764934
 20
533.419544
 30
0.0
  0
ENDBLK
  5
61
100
AcDbEntity
  8
0
100
AcDbBlockEnd
  0
BLOCK
  5
82
100
AcDbEntity
  8
0
100
AcDbBlockBegin
  2
*D13
 70
     1
 10
0.0
 20
0.0
 30
0.0
  3
*D13
  1

  0
LINE
  5
73
100
AcDbEntity
  8
0
  6
BYBLOCK
 62
     1
100
AcDbLine
 10
1093.571169
 20
503.173273
 30
0.0
 11
1091.363662
 21
482.170245
 31
0.0
  0
LINE
  5
74
100
AcDbEntity
  8
0
  6
BYBLOCK
 62
     1
100
AcDbLine
 10
1093.675698
 20
498.5864
 30
0.0
 11
1093.675698
 21
482.049076
 31
0.0
  0
ARC
  5
75
100
AcDbEntity
  8
0
  6
BYBLOCK
 62
     1
100
AcDbCircle
 10
1093.675698
 20
504.167794
 30
0.0
 40
20.118718
100
AcDbArc
 50
252.589617
 51
264.0
  0
LINE
  5
76
100
AcDbEntity
  8
0
  6
BYBLOCK
 62
     1
100
AcDbLine
 10
1087.655901
 20
484.970793
 30
0.0
 11
1079.449901
 21
487.544031
 31
0.0
  0
ARC
  5
77
100
AcDbEntity
  8
0
  6
BYBLOCK
 62
     1
100
AcDbCircle
 10
1093.675698
 20
504.167794
 30
0.0
 40
20.118718
100
AcDbArc
 50
252.603767
 51
258.301884
  0
ARC
  5
78
100
AcDbEntity
  8
0
  6
BYBLOCK
 62
     1
100
AcDbCircle
 10
1093.675698
 20
504.167794
 30
0.0
 40
20.118718
100
AcDbArc
 50
275.698116
 51
281.396233
  0
ARC
  5
79
100
AcDbEntity
  8
0
  6
BYBLOCK
 62
     1
100
AcDbCircle
 10
1093.675698
 20
504.167794
 30
0.0
 40
20.118718
100
AcDbArc
 50
264.0
 51
270.0
  0
INSERT
  5
7A
100
AcDbEntity
  8
0
  6
BYBLOCK
 62
     1
100
AcDbBlockReference
  2
_OPEN30
 10
1091.572719
 20
484.159289
 30
0.0
 41
2.0
 42
2.0
 43
2.0
 50
351.150942
  0
INSERT
  5
7B
100
AcDbEntity
  8
0
  6
BYBLOCK
 62
     1
100
AcDbBlockReference
  2
_OPEN30
 10
1093.675698
 20
484.049076
 30
0.0
 41
2.0
 42
2.0
 43
2.0
 50
182.849058
  0
MTEXT
  5
7C
100
AcDbEntity
  8
0
  6
BYBLOCK
 62
     3
100
AcDbMText
 10
1084.300935
 20
488.642877
 30
0.0
 40
3.0
 41
0.0
 71
     5
 72
     1
  1
\A1;6°
 11
0.954186
 21
-0.299214
 31
0.0
  0
POINT
  5
7D
100
AcDbEntity
  8
DEFPOINTS
  6
BYBLOCK
 62
     0
100
AcDbPoint
 10
1092.973565
 20
484.061332
 30
0.0
  0
POINT
  5
7E
100
AcDbEntity
  8
DEFPOINTS
  6
BYBLOCK
 62
     0
100
AcDbPoint
 10
1096.710317
 20
533.040272
 30
0.0
  0
POINT
  5
7F
100
AcDbEntity
  8
DEFPOINTS
  6
BYBLOCK
 62
     0
100
AcDbPoint
 10
1093.675698
 20
540.681813
 30
0.0
  0
POINT
  5
80
100
AcDbEntity
  8
DEFPOINTS
  6
BYBLOCK
 62
     0
100
AcDbPoint
 10
1093.675698
 20
499.5864
 30
0.0
  0
POINT
  5
81
100
AcDbEntity
  8
DEFPOINTS
  6
BYBLOCK
 62
     0
100
AcDbPoint
 10
1093.675877
 20
504.169503
 30
0.0
  0
ENDBLK
  5
83
100
AcDbEntity
  8
0
100
AcDbBlockEnd
  0
BLOCK
  5
15E
100
AcDbEntity
  8
0
100
AcDbBlockBegin
  2
5
 70
     0
 10
0.0
 20
0.0
 30
0.0
  3
5
  1

  0
LINE
  5
2B
100
AcDbEntity
  8
外形
  6
CONTINUOUS
100
AcDbLine
 10
88.501098
 20
78.390617
 30
0.0
 11
166.569055
 21
78.390617
 31
0.0
  0
LINE
  5
2C
100
AcDbEntity
  8
外形
  6
CONTINUOUS
100
AcDbLine
 10
98.6515
 20
23.954716
 30
0.0
 11
236.647412
 21
23.954716
 31
0.0
  0
LINE
  5
2D
100
AcDbEntity
  8
外形
  6
CONTINUOUS
100
AcDbLine
 10
98.6515
 20
38.954716
 30
0.0
 11
236.647412
 21
38.954716
 31
0.0
  0
LINE
  5
2E
100
AcDbEntity
  8
外形
  6
CONTINUOUS
100
AcDbLine
 10
98.9015
 20
42.454716
 30
0.0
 11
236.647412
 21
42.454716
 31
0.0
  0
LINE
  5
2F
100
AcDbEntity
  8
外形
  6
CONTINUOUS
100
AcDbLine
 10
98.9015
 20
20.454716
 30
0.0
 11
236.647412
 21
20.454716
 31
0.0
  0
LINE
  5
30
100
AcDbEntity
  8
外形
  6
CONTINUOUS
100
AcDbLine
 10
98.6515
 20
82.453446
 30
0.0
 11
166.569055
 21
82.453446
 31
0.0
  0
LINE
  5
31
100
AcDbEntity
  8
外形
  6
CONTINUOUS
100
AcDbLine
 10
98.6515
 20
94.327788
 30
0.0
 11
166.569055
 21
94.327788
 31
0.0
  0
LINE
  5
32
100
AcDbEntity
  8
外形
  6
CONTINUOUS
100
AcDbLine
 10
98.9015
 20
100.890617
 30
0.0
 11
166.569055
 21
100.890617
 31
0.0
  0
DIMENSION
  5
33
100
AcDbEntity
  8
寸法
  6
CONTINUOUS
100
AcDbDimension
  2
*D3
 10
238.647412
 20
56.463651
 30
0.0
 11
148.649456
 21
58.963651
 31
0.0
 12
-1086.125761
 22
-432.778927
 32
0.0
  3
STANDARD
100
AcDbAlignedDimension
 13
58.6515
 23
71.390617
 33
0.0
 14
238.647412
 24
80.890617
 34
0.0
100
AcDbRotatedDimension
1001
ACAD
1000
DSTYLE
1002
{
1070
    40
1040
1.0
1002
}
  0
LINE
  5
4D
100
AcDbEntity
  8
外形
  6
CENTER
 62
     1
100
AcDbLine
 10
54.821519
 20
31.454716
 30
0.0
 11
246.135406
 21
31.454716
 31
0.0
  0
LINE
  5
4F
100
AcDbEntity
  8
外形
  6
CENTER
 62
     1
100
AcDbLine
 10
58.996842
 20
88.390617
 30
0.0
 11
246.135406
 21
88.390617
 31
0.0
  0
LEADER
  5
50
100
AcDbEntity
  8
寸法
  6
CONTINUOUS
 62
     1
100
AcDbLeader
  3
STANDARD
 73
     0
 74
     0
 75
     1
 40
3.0
 41
26.0
 76
     3
 10
14.750943
 20
101.678567
 30
0.0
 10
22.718268
 20
114.919776
 30
0.0
 10
24.718268
 20
114.919776
 30
0.0
 77
   256
340
51
213
-0.1129475379637483
223
0.5510341987360618
233
0.0
1001
ACAD
1000
DSTYLE
1002
{
1070
   284
1070
    13
1070
   146
1040
0.5
1070
   272
1070
     3
1070
    40
1040
1.0
1070
   287
1070
     0
1002
}
  0
DIMENSION
  5
52
100
AcDbEntity
  8
参考
  6
CONTINUOUS
100
AcDbDimension
  2
*D12
 10
70.639172
 20
100.640617
 30
0.0
 11
108.186075
 21
110.70128
 31
0.0
 12
-1086.125761
 22
-432.778927
 32
0.0
 70
     2
  3
参考寸法
100
AcDb2LineAngularDimension
 13
88.501098
 23
100.640617
 33
0.0
 14
70.639172
 24
100.640617
 34
0.0
 15
59.813855
 25
94.390617
 35
0.0
 16
107.196629
 26
107.086683
 36
0.0
1001
ACAD
1000
DSTYLE
1002
{
1070
   140
1040
1.5
1070
    41
1040
1.0
1002
}
  0
DIMENSION
  5
62
100
AcDbEntity
  8
寸法
  6
CONTINUOUS
100
AcDbDimension
  2
*D11
 10
58.652596
 20
72.232486
 30
0.0
 11
33.641379
 21
97.700448
 31
0.0
 12
-1086.125761
 22
-432.778927
 32
0.0
 70
     2
  3
STANDARD
100
AcDb2LineAngularDimension
 13
59.4515
 23
71.390617
 33
0.0
 14
58.6515
 24
71.390617
 34
0.0
 15
59.813855
 25
94.390617
 35
0.0
 16
42.754096
 26
101.208369
 36
0.0
1001
ACAD
1000
DSTYLE
1002
{
1070
    40
1040
1.0
1002
}
  0
DIMENSION
  5
71
100
AcDbEntity
  8
寸法
  6
CONTINUOUS
100
AcDbDimension
  2
*D13
 10
7.550116
 20
71.390576
 30
0.0
 11
-1.824826
 21
55.86395
 31
0.0
 12
-1086.125761
 22
-432.778927
 32
0.0
 70
     2
  3
STANDARD
100
AcDb2LineAngularDimension
 13
7.549936
 23
107.902886
 33
0.0
 14
7.549936
 24
66.807473
 34
0.0
 15
10.584556
 25
100.261345
 35
0.0
 16
6.847803
 26
51.282405
 36
0.0
1001
ACAD
1000
DSTYLE
1002
{
1070
    40
1040
1.0
1002
}
  0
ARC
  5
84
100
AcDbEntity
  8
外形
  6
CONTINUOUS
100
AcDbCircle
 10
7.559936
 20
88.390617
 30
0.0
 40
12.25
100
AcDbArc
 50
29.087016
 51
151.105992
  0
CIRCLE
  5
85
100
AcDbEntity
  8
外形
  6
CENTER
 62
     1
100
AcDbCircle
 10
7.55012
 20
87.390617
 30
0.0
 40
16.0
  0
ARC
  5
86
100
AcDbEntity
  8
外形
  6
CONTINUOUS
100
AcDbCircle
 10
7.549936
 20
87.390617
 30
0.0
 40
16.0
100
AcDbArc
 50
227.956763
 51
270.000659
  0
LINE
  5
87
100
AcDbEntity
  8
外形
  6
CENTER
 62
     1
100
AcDbLine
 10
25.334032
 20
88.390617
 30
0.0
 11
-11.090686
 21
88.390617
 31
0.0
  0
DIMENSION
  5
88
100
AcDbEntity
  8
参考
  6
CONTINUOUS
100
AcDbDimension
  2
*D2
 10
3.178929
 20
67.781592
 30
0.0
 11
-1.362126
 21
70.018515
 31
0.0
 12
-209.543456
 22
-432.778927
 32
0.0
 70
     1
  3
参考寸法
100
AcDbAlignedDimension
 13
7.550116
 23
71.390576
 33
0.0
 14
3.601864
 24
71.805554
 34
0.0
1001
ACAD
1000
DSTYLE
1002
{
1070
   140
1040
1.5
1070
    41
1040
1.0
1002
}
  0
LINE
  5
96
100
AcDbEntity
  8
外形
  6
CONTINUOUS
100
AcDbLine
 10
-3.165123
 20
94.309705
 30
0.0
 11
-3.165123
 21
75.508383
 31
0.0
  0
DIMENSION
  5
97
100
AcDbEntity
  8
参考
  6
CONTINUOUS
100
AcDbDimension
  2
*D6
 10
7.559936
 20
58.698818
 30
0.0
 11
13.184936
 21
60.448818
 31
0.0
 12
-1086.125761
 22
-432.778927
 32
0.0
  3
参考寸法
100
AcDbAlignedDimension
 13
7.549936
 23
66.807473
 33
0.0
 14
7.559936
 24
66.807473
 34
0.0
100
AcDbRotatedDimension
1001
ACAD
1000
DSTYLE
1002
{
1070
   140
1040
1.5
1070
    41
1040
1.0
1002
}
  0
LINE
  5
A6
100
AcDbEntity
  8
外形
  6
CONTINUOUS
100
AcDbLine
 10
58.859559
 20
27.484716
 30
0.0
 11
68.428862
 21
27.484716
 31
0.0
  0
ARC
  5
A7
100
AcDbEntity
  8
外形
  6
CONTINUOUS
100
AcDbCircle
 10
30.039592
 20
187.938556
 30
0.0
 40
158.187856
100
AcDbArc
 50
280.53161
 51
294.246334
  0
LINE
  5
A8
100
AcDbEntity
  8
外形
  6
CONTINUOUS
100
AcDbLine
 10
98.6515
 20
19.204716
 30
0.0
 11
59.293495
 21
19.204716
 31
0.0
  0
LINE
  5
A9
100
AcDbEntity
  8
外形
  6
CONTINUOUS
100
AcDbLine
 10
68.409142
 20
31.454716
 30
0.0
 11
58.6515
 21
31.454716
 31
0.0
  0
LINE
  5
AA
100
AcDbEntity
  8
外形
  6
CONTINUOUS
100
AcDbLine
 10
59.293495
 20
19.204716
 30
0.0
 11
58.859559
 21
27.484716
 31
0.0
  0
LINE
  5
AB
100
AcDbEntity
  8
外形
  6
CONTINUOUS
100
AcDbLine
 10
59.138955
 20
27.484716
 30
0.0
 11
58.6515
 21
31.454716
 31
0.0
  0
LINE
  5
AC
100
AcDbEntity
  8
外形
  6
CONTINUOUS
100
AcDbLine
 10
58.952845
 20
31.454716
 30
0.0
 11
58.952845
 21
32.415498
 31
0.0
  0
ARC
  5
AD
100
AcDbEntity
  8
外形
  6
CONTINUOUS
100
AcDbCircle
 10
77.944208
 20
49.454716
 30
0.0
 40
18.0
100
AcDbArc
 50
270.709878
 51
341.370669
  0
LINE
  5
AE
100
AcDbEntity
  8
外形
  6
CONTINUOUS
100
AcDbLine
 10
78.167217
 20
24.379216
 30
0.0
 11
98.6515
 21
24.379216
 31
0.0
  0
LINE
  5
AF
100
AcDbEntity
  8
外形
  6
CONTINUOUS
100
AcDbLine
 10
78.167217
 20
31.454716
 30
0.0
 11
78.167217
 21
24.379216
 31
0.0
  0
LINE
  5
B0
100
AcDbEntity
  8
外形
  6
CONTINUOUS
100
AcDbLine
 10
68.428862
 20
19.204716
 30
0.0
 11
68.428862
 21
27.484716
 31
0.0
  0
ARC
  5
B1
100
AcDbEntity
  8
外形
  6
CONTINUOUS
100
AcDbCircle
 10
73.428862
 20
25.97546
 30
0.0
 40
5.0
100
AcDbArc
 50
180.0
 51
341.382507
  0
ARC
  5
B2
100
AcDbEntity
  8
外形
  6
CONTINUOUS
100
AcDbCircle
 10
73.29804
 20
14.292138
 30
0.0
 40
17.839926
100
AcDbArc
 50
74.160885
 51
105.839115
  0
LINE
  5
B3
100
AcDbEntity
  8
外形
  6
CONTINUOUS
100
AcDbLine
 10
68.409142
 20
31.454716
 30
0.0
 11
67.921687
 21
27.484716
 31
0.0
  0
LINE
  5
B4
100
AcDbEntity
  8
外形
  6
CONTINUOUS
100
AcDbLine
 10
98.6515
 20
24.379216
 30
0.0
 11
98.6515
 21
19.204716
 31
0.0
  0
LINE
  5
B5
100
AcDbEntity
  8
外形
  6
CONTINUOUS
100
AcDbLine
 10
98.9015
 20
23.954716
 30
0.0
 11
98.9015
 21
19.454716
 31
0.0
  0
LINE
  5
B6
100
AcDbEntity
  8
外形
  6
CONTINUOUS
100
AcDbLine
 10
98.9015
 20
19.454716
 30
0.0
 11
98.6515
 21
19.204716
 31
0.0
  0
LINE
  5
B7
100
AcDbEntity
  8
外形
  6
CONTINUOUS
100
AcDbLine
 10
92.249987
 20
38.530216
 30
0.0
 11
98.6515
 21
38.530216
 31
0.0
  0
LINE
  5
B8
100
AcDbEntity
  8
外形
  6
CONTINUOUS
100
AcDbLine
 10
98.9015
 20
43.454716
 30
0.0
 11
98.9015
 21
38.954716
 31
0.0
  0
LINE
  5
B9
100
AcDbEntity
  8
外形
  6
CONTINUOUS
100
AcDbLine
 10
98.9015
 20
43.454716
 30
0.0
 11
98.6515
 21
43.704716
 31
0.0
  0
LINE
  5
BA
100
AcDbEntity
  8
外形
  6
CONTINUOUS
100
AcDbLine
 10
98.6515
 20
43.704716
 30
0.0
 11
95.001098
 21
43.704716
 31
0.0
  0
LINE
  5
BB
100
AcDbEntity
  8
外形
  6
CONTINUOUS
100
AcDbLine
 10
98.6515
 20
43.704716
 30
0.0
 11
98.6515
 21
38.530216
 31
0.0
  0
LINE
  5
BC
100
AcDbEntity
  8
外形
  6
CONTINUOUS
 62
     1
100
AcDbLine
 10
59.4515
 20
71.390617
 30
0.0
 11
58.6515
 21
71.390617
 31
0.0
  0
ARC
  5
BD
100
AcDbEntity
  8
外形
  6
CONTINUOUS
100
AcDbCircle
 10
59.4515
 20
72.190617
 30
0.0
 40
0.8
100
AcDbArc
 50
177.0
 51
302.0
  0
LINE
  5
BE
100
AcDbEntity
  8
外形
  6
CENTER
 62
     1
100
AcDbLine
 10
57.124631
 20
79.56337
 30
0.0
 11
70.386097
 21
79.56337
 31
0.0
  0
DIMENSION
  5
BF
100
AcDbEntity
  8
寸法
  6
CONTINUOUS
100
AcDbDimension
  2
*D4
 10
53.564599
 20
94.390617
 30
0.0
 11
51.064599
 21
91.390617
 31
0.0
 12
-1086.125761
 22
-432.778927
 32
0.0
  3
STANDARD
100
AcDbAlignedDimension
 13
58.996842
 23
88.390617
 33
0.0
 14
59.813855
 24
94.390617
 34
0.0
 50
90.0
100
AcDbRotatedDimension
1001
ACAD
1000
DSTYLE
1002
{
1070
    40
1040
1.0
1002
}
  0
LINE
  5
CC
100
AcDbEntity
  8
外形
  6
CONTINUOUS
100
AcDbLine
 10
59.813855
 20
94.390617
 30
0.0
 11
58.652596
 21
72.232486
 31
0.0
  0
LINE
  5
CD
100
AcDbEntity
  8
外形
  6
CONTINUOUS
100
AcDbLine
 10
59.179275
 20
82.282109
 30
0.0
 11
67.712981
 21
87.61456
 31
0.0
  0
CIRCLE
  5
CE
100
AcDbEntity
  8
外形
  6
CONTINUOUS
100
AcDbCircle
 10
63.794208
 20
79.56337
 30
0.0
 40
4.7625
  0
DIMENSION
  5
CF
100
AcDbEntity
  8
参考
  6
CONTINUOUS
100
AcDbDimension
  2
*D7
 10
98.6515
 20
67.020919
 30
0.0
 11
78.6515
 21
68.770919
 31
0.0
 12
-1086.125761
 22
-432.778927
 32
0.0
  3
参考寸法
100
AcDbAlignedDimension
 13
58.6515
 23
71.390617
 33
0.0
 14
98.6515
 24
78.390617
 34
0.0
100
AcDbRotatedDimension
1001
ACAD
1000
DSTYLE
1002
{
1070
   140
1040
1.5
1070
    41
1040
1.0
1002
}
  0
LINE
  5
DC
100
AcDbEntity
  8
外形
  6
CONTINUOUS
100
AcDbLine
 10
18.264996
 20
82.453446
 30
0.0
 11
18.264996
 21
94.3458
 31
0.0
  0
LINE
  5
DD
100
AcDbEntity
  8
外形
  6
CENTER
 62
     1
100
AcDbLine
 10
7.559936
 20
107.902886
 30
0.0
 11
7.559936
 21
66.807473
 31
0.0
  0
DIMENSION
  5
DE
100
AcDbEntity
  8
寸法
  6
CONTINUOUS
100
AcDbDimension
  2
*D5
 10
53.564599
 20
88.390617
 30
0.0
 11
51.064599
 21
79.890617
 31
0.0
 12
-1086.125761
 22
-432.778927
 32
0.0
  3
STANDARD
100
AcDbAlignedDimension
 13
58.6515
 23
71.390617
 33
0.0
 14
58.996842
 24
88.390617
 34
0.0
 50
90.0
100
AcDbRotatedDimension
1001
ACAD
1000
DSTYLE
1002
{
1070
    40
1040
1.0
1002
}
  0
LINE
  5
EB
100
AcDbEntity
  8
外形
  6
CONTINUOUS
100
AcDbLine
 10
10.584556
 20
100.261345
 30
0.0
 11
7.550116
 21
71.390576
 31
0.0
  0
LINE
  5
EC
100
AcDbEntity
  8
外形
  6
CENTER
 62
     1
100
AcDbLine
 10
7.549936
 20
107.902886
 30
0.0
 11
7.549936
 21
66.807473
 31
0.0
  0
LINE
  5
ED
100
AcDbEntity
  8
外形
  6
CONTINUOUS
100
AcDbLine
 10
4.695657
 20
82.212302
 30
0.0
 11
3.652817
 21
72.290338
 31
0.0
  0
LINE
  5
EE
100
AcDbEntity
  8
外形
  6
CONTINUOUS
100
AcDbLine
 10
7.550115
 20
71.390576
 30
0.0
 11
3.652817
 21
72.290338
 31
0.0
  0
ARC
  5
EF
100
AcDbEntity
  8
外形
  6
CONTINUOUS
100
AcDbCircle
 10
7.549936
 20
88.390617
 30
0.0
 40
12.25
100
AcDbArc
 50
272.341613
 51
331.009341
  0
LINE
  5
F0
100
AcDbEntity
  8
外形
  6
CONTINUOUS
100
AcDbLine
 10
8.694862
 20
82.282109
 30
0.0
 11
4.695657
 21
82.212302
 31
0.0
  0
LINE
  5
F1
100
AcDbEntity
  8
外形
  6
CONTINUOUS
 62
     1
100
AcDbLine
 10
58.6515
 20
72.190617
 30
0.0
 11
58.6515
 21
71.390617
 31
0.0
  0
LINE
  5
F2
100
AcDbEntity
  8
外形
  6
CONTINUOUS
100
AcDbLine
 10
95.001098
 20
84.890617
 30
0.0
 11
95.001098
 21
94.140617
 31
0.0
  0
ARC
  5
F3
100
AcDbEntity
  8
外形
  6
CONTINUOUS
100
AcDbCircle
 10
68.136916
 20
86.936122
 30
0.0
 40
0.8
100
AcDbArc
 50
357.0
 51
122.0
  0
LINE
  5
F4
100
AcDbEntity
  8
外形
  6
CONTINUOUS
100
AcDbLine
 10
66.266936
 20
86.710971
 30
0.0
 11
67.656771
 21
88.100806
 31
0.0
  0
ARC
  5
F5
100
AcDbEntity
  8
外形
  6
CONTINUOUS
100
AcDbCircle
 10
68.894208
 20
86.86337
 30
0.0
 40
1.75
100
AcDbArc
 50
315.0
 51
135.0
  0
LINE
  5
F6
100
AcDbEntity
  8
外形
  6
CONTINUOUS
100
AcDbLine
 10
78.167217
 20
78.390617
 30
0.0
 11
88.501098
 21
78.390617
 31
0.0
  0
LINE
  5
F7
100
AcDbEntity
  8
外形
  6
CONTINUOUS
100
AcDbLine
 10
59.875435
 20
71.512179
 30
0.0
 11
69.909045
 21
77.781874
 31
0.0
  0
DIMENSION
  5
F8
100
AcDbEntity
  8
参考
  6
CONTINUOUS
100
AcDbDimension
  2
*D9
 10
66.59423
 20
70.374918
 30
0.0
 11
70.59423
 21
72.124918
 31
0.0
 12
-1086.125761
 22
-432.778927
 32
0.0
  3
参考寸法
100
AcDbAlignedDimension
 13
60.994187
 23
79.473471
 33
0.0
 14
66.59423
 24
79.473471
 34
0.0
100
AcDbRotatedDimension
1001
ACAD
1000
DSTYLE
1002
{
1070
   140
1040
1.5
1070
    41
1040
1.0
1002
}
  0
LINE
  5
106
100
AcDbEntity
  8
外形
  6
CENTER
 62
     1
100
AcDbLine
 10
63.794208
 20
72.469684
 30
0.0
 11
63.794208
 21
86.125308
 31
0.0
  0
ARC
  5
107
100
AcDbEntity
  8
外形
  6
CONTINUOUS
100
AcDbCircle
 10
74.244208
 20
75.290617
 30
0.0
 40
5.0
100
AcDbArc
 50
38.316134
 51
150.115625
  0
LINE
  5
108
100
AcDbEntity
  8
外形
  6
CONTINUOUS
100
AcDbLine
 10
68.799537
 20
84.293825
 30
0.0
 11
70.131645
 21
85.625933
 31
0.0
  0
LINE
  5
109
100
AcDbEntity
  8
外形
  6
CONTINUOUS
100
AcDbLine
 10
66.662236
 20
75.890617
 30
0.0
 11
66.773377
 21
75.890617
 31
0.0
  0
ARC
  5
10A
100
AcDbEntity
  8
外形
  6
CONTINUOUS
100
AcDbCircle
 10
63.794208
 20
81.087145
 30
0.0
 40
0.432853
100
AcDbArc
 50
240.283476
 51
299.716524
  0
ARC
  5
10B
100
AcDbEntity
  8
外形
  6
CONTINUOUS
100
AcDbCircle
 10
63.794208
 20
78.039594
 30
0.0
 40
0.432853
100
AcDbArc
 50
60.283476
 51
119.716524
  0
ARC
  5
10C
100
AcDbEntity
  8
外形
  6
CONTINUOUS
100
AcDbCircle
 10
65.113836
 20
80.325257
 30
0.0
 40
0.432853
100
AcDbArc
 50
180.283476
 51
239.716524
  0
LINE
  5
10D
100
AcDbEntity
  8
外形
  6
CONTINUOUS
100
AcDbLine
 10
64.677181
 20
81.092724
 30
0.0
 11
64.680989
 21
80.323116
 31
0.0
  0
ARC
  5
10E
100
AcDbEntity
  8
外形
  6
CONTINUOUS
100
AcDbCircle
 10
65.113836
 20
78.801482
 30
0.0
 40
0.432853
100
AcDbArc
 50
120.283476
 51
179.716524
  0
LINE
  5
10F
100
AcDbEntity
  8
外形
  6
CONTINUOUS
100
AcDbLine
 10
64.680989
 20
78.803624
 30
0.0
 11
64.677181
 21
78.034015
 31
0.0
  0
LINE
  5
110
100
AcDbEntity
  8
外形
  6
CONTINUOUS
100
AcDbLine
 10
64.008777
 20
80.711217
 30
0.0
 11
64.677181
 21
81.092724
 31
0.0
  0
LINE
  5
111
100
AcDbEntity
  8
外形
  6
CONTINUOUS
100
AcDbLine
 10
64.677181
 20
78.034015
 30
0.0
 11
64.008777
 21
78.415522
 31
0.0
  0
LINE
  5
112
100
AcDbEntity
  8
外形
  6
CONTINUOUS
100
AcDbLine
 10
62.692858
 20
79.175268
 30
0.0
 11
62.028262
 21
79.56337
 31
0.0
  0
LINE
  5
113
100
AcDbEntity
  8
外形
  6
CONTINUOUS
100
AcDbLine
 10
62.028262
 20
79.56337
 30
0.0
 11
62.692858
 21
79.951471
 31
0.0
  0
ARC
  5
114
100
AcDbEntity
  8
外形
  6
CONTINUOUS
100
AcDbCircle
 10
62.47458
 20
80.325257
 30
0.0
 40
0.432853
100
AcDbArc
 50
300.283476
 51
359.716524
  0
LINE
  5
115
100
AcDbEntity
  8
外形
  6
CONTINUOUS
100
AcDbLine
 10
62.907427
 20
80.323116
 30
0.0
 11
62.911235
 21
81.092724
 31
0.0
  0
ARC
  5
116
100
AcDbEntity
  8
外形
  6
CONTINUOUS
100
AcDbCircle
 10
62.47458
 20
78.801482
 30
0.0
 40
0.432853
100
AcDbArc
 50
0.283476
 51
59.716524
  0
LINE
  5
117
100
AcDbEntity
  8
外形
  6
CONTINUOUS
100
AcDbLine
 10
62.911235
 20
78.034015
 30
0.0
 11
62.907427
 21
78.803624
 31
0.0
  0
LINE
  5
118
100
AcDbEntity
  8
外形
  6
CONTINUOUS
100
AcDbLine
 10
62.911235
 20
81.092724
 30
0.0
 11
63.579639
 21
80.711217
 31
0.0
  0
LINE
  5
119
100
AcDbEntity
  8
外形
  6
CONTINUOUS
100
AcDbLine
 10
63.579639
 20
78.415522
 30
0.0
 11
62.911235
 21
78.034015
 31
0.0
  0
CIRCLE
  5
11A
100
AcDbEntity
  8
外形
  6
CONTINUOUS
100
AcDbCircle
 10
63.794208
 20
79.56337
 30
0.0
 40
2.800022
  0
LINE
  5
11B
100
AcDbEntity
  8
外形
  6
CONTINUOUS
100
AcDbLine
 10
65.560154
 20
79.56337
 30
0.0
 11
64.895558
 21
79.175268
 31
0.0
  0
LINE
  5
11C
100
AcDbEntity
  8
外形
  6
CONTINUOUS
100
AcDbLine
 10
64.895558
 20
79.951471
 30
0.0
 11
65.560154
 21
79.56337
 31
0.0
  0
LINE
  5
11D
100
AcDbEntity
  8
外形
  6
CONTINUOUS
100
AcDbLine
 10
68.93582
 20
86.894253
 30
0.0
 11
68.409142
 21
76.84463
 31
0.0
  0
ARC
  5
11E
100
AcDbEntity
  8
外形
  6
CONTINUOUS
100
AcDbCircle
 10
88.501098
 20
84.890617
 30
0.0
 40
6.5
100
AcDbArc
 50
270.0
 51
0.0
  0
LINE
  5
11F
100
AcDbEntity
  8
外形
  6
CONTINUOUS
100
AcDbLine
 10
98.6515
 20
82.999653
 30
0.0
 11
94.719961
 21
82.999653
 31
0.0
  0
LINE
  5
120
100
AcDbEntity
  8
外形
  6
CONTINUOUS
100
AcDbLine
 10
98.9015
 20
78.390617
 30
0.0
 11
98.9015
 21
82.453446
 31
0.0
  0
LINE
  5
121
100
AcDbEntity
  8
外形
  6
CONTINUOUS
100
AcDbLine
 10
98.6515
 20
78.390617
 30
0.0
 11
98.6515
 21
82.999653
 31
0.0
  0
LINE
  5
122
100
AcDbEntity
  8
外形
  6
CONTINUOUS
100
AcDbLine
 10
69.982254
 20
100.261345
 30
0.0
 11
90.688949
 21
100.261345
 31
0.0
  0
LINE
  5
123
100
AcDbEntity
  8
外形
  6
CONTINUOUS
100
AcDbLine
 10
88.501098
 20
100.640617
 30
0.0
 11
70.639172
 21
100.640617
 31
0.0
  0
LINE
  5
124
100
AcDbEntity
  8
外形
  6
CONTINUOUS
100
AcDbLine
 10
59.813855
 20
94.390617
 30
0.0
 11
70.639172
 21
100.640617
 31
0.0
  0
ARC
  5
125
100
AcDbEntity
  8
外形
  6
CONTINUOUS
100
AcDbCircle
 10
88.501098
 20
94.140617
 30
0.0
 40
6.5
100
AcDbArc
 50
0.0
 51
70.330595
  0
LINE
  5
126
100
AcDbEntity
  8
外形
  6
CONTINUOUS
100
AcDbLine
 10
98.9015
 20
94.327788
 30
0.0
 11
98.9015
 21
100.890617
 31
0.0
  0
LINE
  5
127
100
AcDbEntity
  8
外形
  6
CONTINUOUS
100
AcDbLine
 10
98.6515
 20
93.781582
 30
0.0
 11
98.6515
 21
100.640617
 31
0.0
  0
LINE
  5
128
100
AcDbEntity
  8
外形
  6
CONTINUOUS
100
AcDbLine
 10
98.6515
 20
93.781582
 30
0.0
 11
95.001098
 21
93.781582
 31
0.0
  0
LINE
  5
129
100
AcDbEntity
  8
外形
  6
CONTINUOUS
100
AcDbLine
 10
88.501098
 20
100.640617
 30
0.0
 11
98.6515
 21
100.640617
 31
0.0
  0
LINE
  5
12A
100
AcDbEntity
  8
外形
  6
CONTINUOUS
100
AcDbLine
 10
98.9015
 20
100.890617
 30
0.0
 11
98.6515
 21
100.640617
 31
0.0
  0
MTEXT
  5
51
102
{ACAD_REACTORS
330
50
102
}
100
AcDbEntity
  8
寸法
  6
CONTINUOUS
 62
     3
100
AcDbMText
 10
25.831216
 20
116.868742
 30
0.0
 40
3.0
 41
0.0
 71
     4
 72
     1
  1
%%c32最小加工径
  0
TEXT
  5
12B
100
AcDbEntity
  8
外形
  6
CONTINUOUS
 62
     2
100
AcDbText
 10
120.763692
 20
-7.583642
 30
0.0
 40
6.0
  1
S25Q-SDUCR11
100
AcDbText
  0
LINE
  5
12C
100
AcDbEntity
  8
外形
  6
CONTINUOUS
100
AcDbLine
 10
192.569055
 20
78.390617
 30
0.0
 11
236.647412
 21
78.390617
 31
0.0
  0
LINE
  5
12D
100
AcDbEntity
  8
外形
  6
CONTINUOUS
100
AcDbLine
 10
192.569055
 20
82.453446
 30
0.0
 11
236.647412
 21
82.453446
 31
0.0
  0
LINE
  5
12E
100
AcDbEntity
  8
外形
  6
CONTINUOUS
100
AcDbLine
 10
192.569055
 20
100.890617
 30
0.0
 11
236.647412
 21
100.890617
 31
0.0
  0
LINE
  5
12F
100
AcDbEntity
  8
外形
  6
CONTINUOUS
100
AcDbLine
 10
192.569055
 20
94.327788
 30
0.0
 11
236.647412
 21
94.327788
 31
0.0
  0
LINE
  5
130
100
AcDbEntity
  8
外形
  6
CONTINUOUS
100
AcDbLine
 10
172.069055
 20
78.390617
 30
0.0
 11
187.069055
 21
78.390617
 31
0.0
  0
DIMENSION
  5
131
100
AcDbEntity
  8
寸法
  6
CONTINUOUS
100
AcDbDimension
  2
*D10
 10
171.282151
 20
79.032347
 30
0.0
 11
194.918307
 21
105.724285
 31
0.0
 12
-1086.125761
 22
-432.778927
 32
0.0
 70
   131
  3
STANDARD
100
AcDbDiametricDimension
 15
187.855959
 25
97.748888
 35
0.0
 40
0.0
1001
ACAD
1000
DSTYLE
1002
{
1070
    40
1040
1.0
1002
}
  0
ARC
  5
13D
100
AcDbEntity
  8
外形
  6
CONTINUOUS
100
AcDbCircle
 10
179.569055
 20
88.390617
 30
0.0
 40
12.5
100
AcDbArc
 50
28.357637
 51
151.642363
  0
DIMENSION
  5
13E
100
AcDbEntity
  8
寸法
  6
CONTINUOUS
100
AcDbDimension
  2
*D8
 10
190.569055
 20
67.511223
 30
0.0
 11
179.569055
 21
70.011223
 31
0.0
 12
-1086.125761
 22
-432.778927
 32
0.0
  3
STANDARD
100
AcDbAlignedDimension
 13
168.569055
 23
82.453446
 33
0.0
 14
190.569055
 24
82.453446
 34
0.0
100
AcDbRotatedDimension
1001
ACAD
1000
DSTYLE
1002
{
1070
    40
1040
1.0
1002
}
  0
LINE
  5
14B
100
AcDbEntity
  8
外形
  6
CONTINUOUS
100
AcDbLine
 10
168.569055
 20
94.327788
 30
0.0
 11
168.569055
 21
82.453446
 31
0.0
  0
ARC
  5
14C
100
AcDbEntity
  8
外形
  6
CONTINUOUS
100
AcDbCircle
 10
179.569055
 20
88.390617
 30
0.0
 40
12.5
100
AcDbArc
 50
208.357637
 51
233.130102
  0
LINE
  5
14D
100
AcDbEntity
  8
外形
  6
CONTINUOUS
100
AcDbLine
 10
190.569055
 20
94.327788
 30
0.0
 11
190.569055
 21
82.453446
 31
0.0
  0
LINE
  5
14E
100
AcDbEntity
  8
外形
  6
CENTER
 62
     1
100
AcDbLine
 10
179.569055
 20
100.901792
 30
0.0
 11
179.569055
 21
76.108657
 31
0.0
  0
ARC
  5
14F
100
AcDbEntity
  8
外形
  6
CONTINUOUS
100
AcDbCircle
 10
179.569055
 20
88.390617
 30
0.0
 40
12.5
100
AcDbArc
 50
306.869898
 51
331.642363
  0
ARC
  5
150
100
AcDbEntity
  8
外形
  6
CONTINUOUS
100
AcDbCircle
 10
226.647412
 20
31.454716
 30
0.0
 40
12.5
100
AcDbArc
 50
16.260205
 51
36.869898
  0
LINE
  5
151
100
AcDbEntity
  8
外形
  6
CONTINUOUS
100
AcDbLine
 10
238.647412
 20
40.454716
 30
0.0
 11
238.647412
 21
22.454716
 31
0.0
  0
ARC
  5
152
100
AcDbEntity
  8
外形
  6
CONTINUOUS
100
AcDbCircle
 10
226.647412
 20
31.454716
 30
0.0
 40
12.5
100
AcDbArc
 50
323.130102
 51
343.739795
  0
LINE
  5
153
100
AcDbEntity
  8
外形
  6
CONTINUOUS
100
AcDbLine
 10
236.647412
 20
20.454716
 30
0.0
 11
238.647412
 21
22.454716
 31
0.0
  0
LINE
  5
154
100
AcDbEntity
  8
外形
  6
CONTINUOUS
100
AcDbLine
 10
236.647412
 20
23.954716
 30
0.0
 11
236.647412
 21
20.454716
 31
0.0
  0
LINE
  5
155
100
AcDbEntity
  8
外形
  6
CONTINUOUS
100
AcDbLine
 10
236.647412
 20
42.454716
 30
0.0
 11
238.647412
 21
40.454716
 31
0.0
  0
LINE
  5
156
100
AcDbEntity
  8
外形
  6
CONTINUOUS
100
AcDbLine
 10
236.647412
 20
42.454716
 30
0.0
 11
236.647412
 21
38.954716
 31
0.0
  0
ARC
  5
157
100
AcDbEntity
  8
外形
  6
CONTINUOUS
100
AcDbCircle
 10
225.647412
 20
88.390617
 30
0.0
 40
12.5
100
AcDbArc
 50
331.642363
 51
28.357637
  0
LINE
  5
158
100
AcDbEntity
  8
外形
  6
CENTER
 62
     1
100
AcDbLine
 10
239.894208
 20
76.469684
 30
0.0
 11
239.894208
 21
90.125308
 31
0.0
  0
LINE
  5
159
100
AcDbEntity
  8
外形
  6
CONTINUOUS
100
AcDbLine
 10
238.647412
 20
80.390617
 30
0.0
 11
238.647412
 21
98.890617
 31
0.0
  0
LINE
  5
15A
100
AcDbEntity
  8
外形
  6
CONTINUOUS
100
AcDbLine
 10
236.647412
 20
78.390617
 30
0.0
 11
238.647412
 21
80.390617
 31
0.0
  0
LINE
  5
15B
100
AcDbEntity
  8
外形
  6
CONTINUOUS
100
AcDbLine
 10
236.647412
 20
82.453446
 30
0.0
 11
236.647412
 21
78.390617
 31
0.0
  0
LINE
  5
15C
100
AcDbEntity
  8
外形
  6
CONTINUOUS
100
AcDbLine
 10
236.647412
 20
100.890617
 30
0.0
 11
238.647412
 21
98.890617
 31
0.0
  0
LINE
  5
15D
100
AcDbEntity
  8
外形
  6
CONTINUOUS
100
AcDbLine
 10
236.647412
 20
100.890617
 30
0.0
 11
236.647412
 21
94.327788
 31
0.0
  0
ENDBLK
  5
15F
100
AcDbEntity
  8
0
100
AcDbBlockEnd
  0
BLOCK
  5
28D
100
AcDbEntity
  8
0
100
AcDbBlockBegin
  2
*D15
 70
     1
 10
0.0
 20
0.0
 30
0.0
  3
*D15
  1

  0
LINE
  5
28E
100
AcDbEntity
  8
0
  6
BYBLOCK
 62
     1
100
AcDbLine
 10
584.506593
 20
-215.962834
 30
0.0
 11
584.506593
 21
-231.889801
 31
0.0
  0
LINE
  5
28F
100
AcDbEntity
  8
0
  6
BYBLOCK
 62
     1
100
AcDbLine
 10
764.502505
 20
-206.462834
 30
0.0
 11
764.502505
 21
-231.889801
 31
0.0
  0
LINE
  5
290
100
AcDbEntity
  8
0
  6
BYBLOCK
 62
     1
100
AcDbLine
 10
586.506593
 20
-229.889801
 30
0.0
 11
762.502505
 21
-229.889801
 31
0.0
  0
INSERT
  5
291
100
AcDbEntity
  8
0
  6
BYBLOCK
 62
     1
100
AcDbBlockReference
  2
_OPEN30
 10
584.506593
 20
-229.889801
 30
0.0
 41
2.0
 42
2.0
 43
2.0
 50
180.0
  0
INSERT
  5
292
100
AcDbEntity
  8
0
  6
BYBLOCK
 62
     1
100
AcDbBlockReference
  2
_OPEN30
 10
764.502505
 20
-229.889801
 30
0.0
 41
2.0
 42
2.0
 43
2.0
  0
MTEXT
  5
293
100
AcDbEntity
  8
0
  6
BYBLOCK
 62
     3
100
AcDbMText
 10
674.504549
 20
-227.389801
 30
0.0
 40
3.0
 41
0.0
 71
     5
 72
     1
  1
\A1;180
  0
POINT
  5
294
100
AcDbEntity
  8
DEFPOINTS
  6
BYBLOCK
 62
     0
100
AcDbPoint
 10
584.506593
 20
-214.962834
 30
0.0
  0
POINT
  5
295
100
AcDbEntity
  8
DEFPOINTS
  6
BYBLOCK
 62
     0
100
AcDbPoint
 10
764.502505
 20
-205.462834
 30
0.0
  0
POINT
  5
296
100
AcDbEntity
  8
DEFPOINTS
  6
BYBLOCK
 62
     0
100
AcDbPoint
 10
764.502505
 20
-229.889801
 30
0.0
  0
ENDBLK
  5
297
100
AcDbEntity
  8
0
100
AcDbBlockEnd
  0
BLOCK
  5
2A5
100
AcDbEntity
  8
0
100
AcDbBlockBegin
  2
*D17
 70
     1
 10
0.0
 20
0.0
 30
0.0
  3
*D17
  1

  0
LINE
  5
2A6
100
AcDbEntity
  8
0
  6
BYBLOCK
 62
     1
100
AcDbLine
 10
585.721284
 20
-190.964205
 30
0.0
 11
586.335663
 21
-179.241164
 31
0.0
  0
LINE
  5
2A7
100
AcDbEntity
  8
0
  6
BYBLOCK
 62
     1
100
AcDbLine
 10
583.463569
 20
-214.962834
 30
0.0
 11
548.692877
 21
-214.962834
 31
0.0
  0
ARC
  5
2A8
100
AcDbEntity
  8
0
  6
BYBLOCK
 62
     1
100
AcDbCircle
 10
584.463569
 20
-214.962834
 30
0.0
 40
33.770693
100
AcDbArc
 50
90.393721
 51
176.606279
  0
INSERT
  5
2A9
100
AcDbEntity
  8
0
  6
BYBLOCK
 62
     1
100
AcDbBlockReference
  2
_OPEN30
 10
586.230991
 20
-181.238423
 30
0.0
 41
2.0
 42
2.0
 43
2.0
 50
358.696861
  0
INSERT
  5
2AA
100
AcDbEntity
  8
0
  6
BYBLOCK
 62
     1
100
AcDbBlockReference
  2
_OPEN30
 10
550.692877
 20
-214.962834
 30
0.0
 41
2.0
 42
2.0
 43
2.0
 50
268.303139
  0
MTEXT
  5
2AB
100
AcDbEntity
  8
0
  6
BYBLOCK
 62
     3
100
AcDbMText
 10
559.496472
 20
-188.653003
 30
0.0
 40
3.0
 41
0.0
 71
     5
 72
     1
  1
\A1;93°
 11
0.725374
 21
0.688355
 31
0.0
  0
POINT
  5
2AC
100
AcDbEntity
  8
DEFPOINTS
  6
BYBLOCK
 62
     0
100
AcDbPoint
 10
568.609189
 20
-185.145082
 30
0.0
  0
POINT
  5
2AD
100
AcDbEntity
  8
DEFPOINTS
  6
BYBLOCK
 62
     0
100
AcDbPoint
 10
585.668948
 20
-191.962834
 30
0.0
  0
POINT
  5
2AE
100
AcDbEntity
  8
DEFPOINTS
  6
BYBLOCK
 62
     0
100
AcDbPoint
 10
585.306593
 20
-214.962834
 30
0.0
  0
POINT
  5
2AF
100
AcDbEntity
  8
DEFPOINTS
  6
BYBLOCK
 62
     0
100
AcDbPoint
 10
584.506593
 20
-214.962834
 30
0.0
  0
POINT
  5
2B0
100
AcDbEntity
  8
DEFPOINTS
  6
BYBLOCK
 62
     0
100
AcDbPoint
 10
584.50769
 20
-214.120966
 30
0.0
  0
ENDBLK
  5
2B1
100
AcDbEntity
  8
0
100
AcDbBlockEnd
  0
BLOCK
  5
2B2
100
AcDbEntity
  8
0
100
AcDbBlockBegin
  2
*D18
 70
     1
 10
0.0
 20
0.0
 30
0.0
  3
*D18
  1

  0
LINE
  5
2B3
100
AcDbEntity
  8
0
  6
BYBLOCK
 62
     1
100
AcDbLine
 10
533.300501
 20
-215.959106
 30
0.0
 11
531.092994
 21
-236.962134
 31
0.0
  0
LINE
  5
2B4
100
AcDbEntity
  8
0
  6
BYBLOCK
 62
     1
100
AcDbLine
 10
533.40503
 20
-220.545978
 30
0.0
 11
533.40503
 21
-237.083302
 31
0.0
  0
ARC
  5
2B5
100
AcDbEntity
  8
0
  6
BYBLOCK
 62
     1
100
AcDbCircle
 10
533.40503
 20
-214.964584
 30
0.0
 40
20.118718
100
AcDbArc
 50
252.589617
 51
264.0
  0
LINE
  5
2B6
100
AcDbEntity
  8
0
  6
BYBLOCK
 62
     1
100
AcDbLine
 10
527.385233
 20
-234.161586
 30
0.0
 11
519.179233
 21
-231.588348
 31
0.0
  0
ARC
  5
2B7
100
AcDbEntity
  8
0
  6
BYBLOCK
 62
     1
100
AcDbCircle
 10
533.40503
 20
-214.964584
 30
0.0
 40
20.118718
100
AcDbArc
 50
252.603767
 51
258.301884
  0
ARC
  5
2B8
100
AcDbEntity
  8
0
  6
BYBLOCK
 62
     1
100
AcDbCircle
 10
533.40503
 20
-214.964584
 30
0.0
 40
20.118718
100
AcDbArc
 50
275.698116
 51
281.396233
  0
ARC
  5
2B9
100
AcDbEntity
  8
0
  6
BYBLOCK
 62
     1
100
AcDbCircle
 10
533.40503
 20
-214.964584
 30
0.0
 40
20.118718
100
AcDbArc
 50
264.0
 51
270.0
  0
INSERT
  5
2BA
100
AcDbEntity
  8
0
  6
BYBLOCK
 62
     1
100
AcDbBlockReference
  2
_OPEN30
 10
531.302051
 20
-234.97309
 30
0.0
 41
2.0
 42
2.0
 43
2.0
 50
351.150942
  0
INSERT
  5
2BB
100
AcDbEntity
  8
0
  6
BYBLOCK
 62
     1
100
AcDbBlockReference
  2
_OPEN30
 10
533.40503
 20
-235.083302
 30
0.0
 41
2.0
 42
2.0
 43
2.0
 50
182.849058
  0
MTEXT
  5
2BC
100
AcDbEntity
  8
0
  6
BYBLOCK
 62
     3
100
AcDbMText
 10
524.030267
 20
-230.489501
 30
0.0
 40
3.0
 41
0.0
 71
     5
 72
     1
  1
\A1;6°
 11
0.954186
 21
-0.299214
 31
0.0
  0
POINT
  5
2BD
100
AcDbEntity
  8
DEFPOINTS
  6
BYBLOCK
 62
     0
100
AcDbPoint
 10
532.702897
 20
-235.071046
 30
0.0
  0
POINT
  5
2BE
100
AcDbEntity
  8
DEFPOINTS
  6
BYBLOCK
 62
     0
100
AcDbPoint
 10
536.43965
 20
-186.092107
 30
0.0
  0
POINT
  5
2BF
100
AcDbEntity
  8
DEFPOINTS
  6
BYBLOCK
 62
     0
100
AcDbPoint
 10
533.40503
 20
-178.450566
 30
0.0
  0
POINT
  5
2C0
100
AcDbEntity
  8
DEFPOINTS
  6
BYBLOCK
 62
     0
100
AcDbPoint
 10
533.40503
 20
-219.545978
 30
0.0
  0
POINT
  5
2C1
100
AcDbEntity
  8
DEFPOINTS
  6
BYBLOCK
 62
     0
100
AcDbPoint
 10
533.405209
 20
-214.962876
 30
0.0
  0
ENDBLK
  5
2C2
100
AcDbEntity
  8
0
100
AcDbBlockEnd
  0
BLOCK
  5
2F2
100
AcDbEntity
  8
0
100
AcDbBlockBegin
  2
*D23
 70
     1
 10
0.0
 20
0.0
 30
0.0
  3
*D23
  1

  0
LINE
  5
2F3
100
AcDbEntity
  8
0
  6
BYBLOCK
 62
     1
100
AcDbLine
 10
583.506593
 20
-214.962834
 30
0.0
 11
577.419692
 21
-214.962834
 31
0.0
  0
LINE
  5
2F4
100
AcDbEntity
  8
0
  6
BYBLOCK
 62
     1
100
AcDbLine
 10
583.851936
 20
-197.962834
 30
0.0
 11
577.419692
 21
-197.962834
 31
0.0
  0
LINE
  5
2F5
100
AcDbEntity
  8
0
  6
BYBLOCK
 62
     1
100
AcDbLine
 10
579.419692
 20
-212.962834
 30
0.0
 11
579.419692
 21
-199.962834
 31
0.0
  0
INSERT
  5
2F6
100
AcDbEntity
  8
0
  6
BYBLOCK
 62
     1
100
AcDbBlockReference
  2
_OPEN30
 10
579.419692
 20
-214.962834
 30
0.0
 41
2.0
 42
2.0
 43
2.0
 50
270.0
  0
INSERT
  5
2F7
100
AcDbEntity
  8
0
  6
BYBLOCK
 62
     1
100
AcDbBlockReference
  2
_OPEN30
 10
579.419692
 20
-197.962834
 30
0.0
 41
2.0
 42
2.0
 43
2.0
 50
90.0
  0
MTEXT
  5
2F8
100
AcDbEntity
  8
0
  6
BYBLOCK
 62
     3
100
AcDbMText
 10
576.919692
 20
-206.462834
 30
0.0
 40
3.0
 41
0.0
 71
     5
 72
     1
  1
\A1;17
 11
0.0
 21
1.0
 31
0.0
  0
POINT
  5
2F9
100
AcDbEntity
  8
DEFPOINTS
  6
BYBLOCK
 62
     0
100
AcDbPoint
 10
584.506593
 20
-214.962834
 30
0.0
  0
POINT
  5
2FA
100
AcDbEntity
  8
DEFPOINTS
  6
BYBLOCK
 62
     0
100
AcDbPoint
 10
584.851936
 20
-197.962834
 30
0.0
  0
POINT
  5
2FB
100
AcDbEntity
  8
DEFPOINTS
  6
BYBLOCK
 62
     0
100
AcDbPoint
 10
579.419692
 20
-197.962834
 30
0.0
  0
ENDBLK
  5
2FC
100
AcDbEntity
  8
0
100
AcDbBlockEnd
  0
BLOCK
  5
309
100
AcDbEntity
  8
0
100
AcDbBlockBegin
  2
*D25
 70
     1
 10
0.0
 20
0.0
 30
0.0
  3
*D25
  1

  0
LINE
  5
30A
100
AcDbEntity
  8
0
  6
BYBLOCK
 62
     1
100
AcDbLine
 10
724.088162
 20
-176.885859
 30
0.0
 11
715.036957
 21
-187.107241
 31
0.0
  0
LINE
  5
30B
100
AcDbEntity
  8
0
  6
BYBLOCK
 62
     1
100
AcDbLine
 10
695.811339
 20
-208.818428
 30
0.0
 11
694.485435
 21
-210.315751
 31
0.0
  0
MTEXT
  5
30C
100
AcDbEntity
  8
0
  6
BYBLOCK
 62
     3
100
AcDbMText
 10
718.901746
 20
-178.971786
 30
0.0
 40
3.0
 41
0.0
 71
     5
 72
     1
  1
\A1;\U+220525
 11
0.662952
 21
0.748662
 31
0.0
  0
LINE
  5
30D
100
AcDbEntity
  8
0
  6
BYBLOCK
 62
     1
100
AcDbLine
 10
697.137244
 20
-207.321104
 30
0.0
 11
713.711053
 21
-188.604564
 31
0.0
  0
INSERT
  5
30E
100
AcDbEntity
  8
0
  6
BYBLOCK
 62
     1
100
AcDbBlockReference
  2
_OPEN30
 10
697.137244
 20
-207.321104
 30
0.0
 41
2.0
 42
2.0
 43
2.0
 50
48.474575
  0
INSERT
  5
30F
100
AcDbEntity
  8
0
  6
BYBLOCK
 62
     1
100
AcDbBlockReference
  2
_OPEN30
 10
713.711053
 20
-188.604564
 30
0.0
 41
2.0
 42
2.0
 43
2.0
 50
228.474575
  0
POINT
  5
310
100
AcDbEntity
  8
DEFPOINTS
  6
BYBLOCK
 62
     0
100
AcDbPoint
 10
713.711053
 20
-188.604564
 30
0.0
  0
POINT
  5
311
100
AcDbEntity
  8
DEFPOINTS
  6
BYBLOCK
 62
     0
100
AcDbPoint
 10
697.137244
 20
-207.321104
 30
0.0
  0
ENDBLK
  5
312
100
AcDbEntity
  8
0
100
AcDbBlockEnd
  0
BLOCK
  5
313
100
AcDbEntity
  8
0
100
AcDbBlockBegin
  2
*D26
 70
     1
 10
0.0
 20
0.0
 30
0.0
  3
*D26
  1

  0
LINE
  5
314
100
AcDbEntity
  8
0
  6
BYBLOCK
 62
     1
100
AcDbLine
 10
694.424148
 20
-204.900005
 30
0.0
 11
694.424148
 21
-220.842229
 31
0.0
  0
LINE
  5
315
100
AcDbEntity
  8
0
  6
BYBLOCK
 62
     1
100
AcDbLine
 10
716.424148
 20
-204.900005
 30
0.0
 11
716.424148
 21
-220.842229
 31
0.0
  0
LINE
  5
316
100
AcDbEntity
  8
0
  6
BYBLOCK
 62
     1
100
AcDbLine
 10
696.424148
 20
-218.842229
 30
0.0
 11
714.424148
 21
-218.842229
 31
0.0
  0
INSERT
  5
317
100
AcDbEntity
  8
0
  6
BYBLOCK
 62
     1
100
AcDbBlockReference
  2
_OPEN30
 10
694.424148
 20
-218.842229
 30
0.0
 41
2.0
 42
2.0
 43
2.0
 50
180.0
  0
INSERT
  5
318
100
AcDbEntity
  8
0
  6
BYBLOCK
 62
     1
100
AcDbBlockReference
  2
_OPEN30
 10
716.424148
 20
-218.842229
 30
0.0
 41
2.0
 42
2.0
 43
2.0
  0
MTEXT
  5
319
100
AcDbEntity
  8
0
  6
BYBLOCK
 62
     3
100
AcDbMText
 10
705.424148
 20
-216.342229
 30
0.0
 40
3.0
 41
0.0
 71
     5
 72
     1
  1
\A1;22
  0
POINT
  5
31A
100
AcDbEntity
  8
DEFPOINTS
  6
BYBLOCK
 62
     0
100
AcDbPoint
 10
694.424148
 20
-203.900005
 30
0.0
  0
POINT
  5
31B
100
AcDbEntity
  8
DEFPOINTS
  6
BYBLOCK
 62
     0
100
AcDbPoint
 10
716.424148
 20
-203.900005
 30
0.0
  0
POINT
  5
31C
100
AcDbEntity
  8
DEFPOINTS
  6
BYBLOCK
 62
     0
100
AcDbPoint
 10
716.424148
 20
-218.842229
 30
0.0
  0
ENDBLK
  5
31D
100
AcDbEntity
  8
0
100
AcDbBlockEnd
  0
BLOCK
  5
338
100
AcDbEntity
  8
0
100
AcDbBlockBegin
  2
*D28
 70
     1
 10
0.0
 20
0.0
 30
0.0
  3
*D28
  1

  0
LINE
  5
339
100
AcDbEntity
  8
0
  6
BYBLOCK
 62
     1
100
AcDbLine
 10
585.506593
 20
-214.962834
 30
0.0
 11
633.991973
 21
-214.962834
 31
0.0
  0
LINE
  5
33A
100
AcDbEntity
  8
0
  6
BYBLOCK
 62
     1
100
AcDbLine
 10
625.756593
 20
-207.962834
 30
0.0
 11
633.991973
 21
-207.962834
 31
0.0
  0
LINE
  5
33B
100
AcDbEntity
  8
0
  6
BYBLOCK
 62
     1
100
AcDbLine
 10
631.991973
 20
-212.962834
 30
0.0
 11
631.991973
 21
-209.962834
 31
0.0
  0
INSERT
  5
33C
100
AcDbEntity
  8
0
  6
BYBLOCK
 62
     1
100
AcDbBlockReference
  2
_OPEN30
 10
631.991973
 20
-214.962834
 30
0.0
 41
2.0
 42
2.0
 43
2.0
 50
270.0
  0
INSERT
  5
33D
100
AcDbEntity
  8
0
  6
BYBLOCK
 62
     1
100
AcDbBlockReference
  2
_OPEN30
 10
631.991973
 20
-207.962834
 30
0.0
 41
2.0
 42
2.0
 43
2.0
 50
90.0
  0
MTEXT
  5
33E
100
AcDbEntity
  8
0
  6
BYBLOCK
 62
     3
100
AcDbMText
 10
629.491973
 20
-211.462834
 30
0.0
 40
3.0
 41
0.0
 71
     5
 72
     1
  1
\A1;7
 11
0.0
 21
1.0
 31
0.0
  0
POINT
  5
33F
100
AcDbEntity
  8
DEFPOINTS
  6
BYBLOCK
 62
     0
100
AcDbPoint
 10
584.506593
 20
-214.962834
 30
0.0
  0
POINT
  5
340
100
AcDbEntity
  8
DEFPOINTS
  6
BYBLOCK
 62
     0
100
AcDbPoint
 10
624.756593
 20
-207.962834
 30
0.0
  0
POINT
  5
341
100
AcDbEntity
  8
DEFPOINTS
  6
BYBLOCK
 62
     0
100
AcDbPoint
 10
631.991973
 20
-207.962834
 30
0.0
  0
ENDBLK
  5
342
100
AcDbEntity
  8
0
100
AcDbBlockEnd
  0
ENDSEC
  0
SECTION
  2
ENTITIES
  0
LINE
  5
169
100
AcDbEntity
  8
外形
  6
CONTINUOUS
100
AcDbLine
 10
614.356192
 20
-207.962834
 30
0.0
 11
692.424148
 21
-207.962834
 31
0.0
  0
LINE
  5
16A
100
AcDbEntity
  8
外形
  6
CONTINUOUS
100
AcDbLine
 10
624.506593
 20
-262.398735
 30
0.0
 11
762.502505
 21
-262.398735
 31
0.0
  0
LINE
  5
16B
100
AcDbEntity
  8
外形
  6
CONTINUOUS
100
AcDbLine
 10
624.506593
 20
-247.398735
 30
0.0
 11
762.502505
 21
-247.398735
 31
0.0
  0
LINE
  5
16C
100
AcDbEntity
  8
外形
  6
CONTINUOUS
100
AcDbLine
 10
624.756593
 20
-243.898735
 30
0.0
 11
762.502505
 21
-243.898735
 31
0.0
  0
LINE
  5
16D
100
AcDbEntity
  8
外形
  6
CONTINUOUS
100
AcDbLine
 10
624.756593
 20
-265.898735
 30
0.0
 11
762.502505
 21
-265.898735
 31
0.0
  0
LINE
  5
16E
100
AcDbEntity
  8
外形
  6
CONTINUOUS
100
AcDbLine
 10
624.506593
 20
-203.900005
 30
0.0
 11
692.424148
 21
-203.900005
 31
0.0
  0
LINE
  5
16F
100
AcDbEntity
  8
外形
  6
CONTINUOUS
100
AcDbLine
 10
624.506593
 20
-192.025663
 30
0.0
 11
692.424148
 21
-192.025663
 31
0.0
  0
LINE
  5
170
100
AcDbEntity
  8
外形
  6
CONTINUOUS
100
AcDbLine
 10
624.756593
 20
-185.462834
 30
0.0
 11
692.424148
 21
-185.462834
 31
0.0
  0
DIMENSION
  5
171
100
AcDbEntity
  8
寸法
  6
CONTINUOUS
100
AcDbDimension
  2
*D15
 10
764.502505
 20
-229.889801
 30
0.0
 11
674.504549
 21
-227.389801
 31
0.0
 70
    32
  3
STANDARD
100
AcDbAlignedDimension
 13
584.506593
 23
-214.962834
 33
0.0
 14
764.502505
 24
-205.462834
 34
0.0
100
AcDbRotatedDimension
1001
ACAD
1000
DSTYLE
1002
{
1070
    40
1040
1.0
1002
}
  0
LINE
  5
172
100
AcDbEntity
  8
外形
  6
CENTER
 62
     1
100
AcDbLine
 10
580.676613
 20
-254.898735
 30
0.0
 11
771.990499
 21
-254.898735
 31
0.0
  0
LINE
  5
173
100
AcDbEntity
  8
外形
  6
CENTER
 62
     1
100
AcDbLine
 10
584.851936
 20
-197.962834
 30
0.0
 11
771.990499
 21
-197.962834
 31
0.0
  0
LEADER
  5
174
100
AcDbEntity
  8
寸法
  6
CONTINUOUS
 62
     1
100
AcDbLeader
  3
STANDARD
 73
     0
 74
     0
 75
     1
 40
3.0
 41
26.0
 76
     3
 10
540.606036
 20
-184.674885
 30
0.0
 10
548.573361
 20
-171.433675
 30
0.0
 10
550.573361
 20
-171.433675
 30
0.0
 77
   256
340
1D3
213
-0.1129475379637483
223
0.5510341987360618
233
0.0
1001
ACAD
1000
DSTYLE
1002
{
1070
   284
1070
    13
1070
   146
1040
0.5
1070
   272
1070
     3
1070
    40
1040
1.0
1070
   287
1070
     0
1002
}
  0
DIMENSION
  5
176
100
AcDbEntity
  8
寸法
  6
CONTINUOUS
100
AcDbDimension
  2
*D17
 10
584.50769
 20
-214.120966
 30
0.0
 11
559.496472
 21
-188.653003
 31
0.0
 70
    34
  3
STANDARD
100
AcDb2LineAngularDimension
 13
585.306593
 23
-214.962834
 33
0.0
 14
584.506593
 24
-214.962834
 34
0.0
 15
585.668948
 25
-191.962834
 35
0.0
 16
568.609189
 26
-185.145082
 36
0.0
1001
ACAD
1000
DSTYLE
1002
{
1070
    40
1040
1.0
1002
}
  0
DIMENSION
  5
177
100
AcDbEntity
  8
寸法
  6
CONTINUOUS
100
AcDbDimension
  2
*D18
 10
533.405209
 20
-214.962876
 30
0.0
 11
524.030267
 21
-230.489501
 31
0.0
 70
    34
  3
STANDARD
100
AcDb2LineAngularDimension
 13
533.40503
 23
-178.450566
 33
0.0
 14
533.40503
 24
-219.545978
 34
0.0
 15
536.43965
 25
-186.092107
 35
0.0
 16
532.702897
 26
-235.071046
 36
0.0
1001
ACAD
1000
DSTYLE
1002
{
1070
    40
1040
1.0
1002
}
  0
ARC
  5
178
100
AcDbEntity
  8
外形
  6
CONTINUOUS
100
AcDbCircle
 10
533.41503
 20
-197.962834
 30
0.0
 40
12.25
100
AcDbArc
 50
29.087016
 51
151.105992
  0
CIRCLE
  5
179
100
AcDbEntity
  8
外形
  6
CENTER
 62
     1
100
AcDbCircle
 10
533.405214
 20
-198.962834
 30
0.0
 40
16.0
  0
LINE
  5
17B
100
AcDbEntity
  8
外形
  6
CENTER
 62
     1
100
AcDbLine
 10
551.189125
 20
-197.962834
 30
0.0
 11
514.764407
 21
-197.962834
 31
0.0
  0
LINE
  5
17D
100
AcDbEntity
  8
外形
  6
CONTINUOUS
100
AcDbLine
 10
522.68997
 20
-192.043747
 30
0.0
 11
522.68997
 21
-210.595887
 31
0.0
  0
LINE
  5
17F
100
AcDbEntity
  8
外形
  6
CONTINUOUS
100
AcDbLine
 10
584.714652
 20
-258.868735
 30
0.0
 11
594.283956
 21
-258.868735
 31
0.0
  0
ARC
  5
180
100
AcDbEntity
  8
外形
  6
CONTINUOUS
100
AcDbCircle
 10
555.894686
 20
-98.414895
 30
0.0
 40
158.187856
100
AcDbArc
 50
280.53161
 51
294.246334
  0
LINE
  5
181
100
AcDbEntity
  8
外形
  6
CONTINUOUS
100
AcDbLine
 10
624.506593
 20
-267.148735
 30
0.0
 11
585.148589
 21
-267.148735
 31
0.0
  0
LINE
  5
182
100
AcDbEntity
  8
外形
  6
CONTINUOUS
100
AcDbLine
 10
594.264235
 20
-254.898735
 30
0.0
 11
584.506593
 21
-254.898735
 31
0.0
  0
LINE
  5
183
100
AcDbEntity
  8
外形
  6
CONTINUOUS
100
AcDbLine
 10
585.148589
 20
-267.148735
 30
0.0
 11
584.714652
 21
-258.868735
 31
0.0
  0
LINE
  5
184
100
AcDbEntity
  8
外形
  6
CONTINUOUS
100
AcDbLine
 10
584.994048
 20
-258.868735
 30
0.0
 11
584.506593
 21
-254.898735
 31
0.0
  0
LINE
  5
185
100
AcDbEntity
  8
外形
  6
CONTINUOUS
100
AcDbLine
 10
584.807938
 20
-254.898735
 30
0.0
 11
584.807938
 21
-253.937954
 31
0.0
  0
ARC
  5
186
100
AcDbEntity
  8
外形
  6
CONTINUOUS
100
AcDbCircle
 10
603.799302
 20
-236.898735
 30
0.0
 40
18.0
100
AcDbArc
 50
270.709878
 51
341.370669
  0
LINE
  5
187
100
AcDbEntity
  8
外形
  6
CONTINUOUS
100
AcDbLine
 10
604.022311
 20
-261.974235
 30
0.0
 11
624.506593
 21
-261.974235
 31
0.0
  0
LINE
  5
188
100
AcDbEntity
  8
外形
  6
CONTINUOUS
100
AcDbLine
 10
604.022311
 20
-254.898735
 30
0.0
 11
604.022311
 21
-261.974235
 31
0.0
  0
LINE
  5
189
100
AcDbEntity
  8
外形
  6
CONTINUOUS
100
AcDbLine
 10
594.283956
 20
-267.148735
 30
0.0
 11
594.283956
 21
-258.868735
 31
0.0
  0
ARC
  5
18A
100
AcDbEntity
  8
外形
  6
CONTINUOUS
100
AcDbCircle
 10
599.283956
 20
-260.377992
 30
0.0
 40
5.0
100
AcDbArc
 50
180.0
 51
341.382507
  0
ARC
  5
18B
100
AcDbEntity
  8
外形
  6
CONTINUOUS
100
AcDbCircle
 10
599.153133
 20
-272.061313
 30
0.0
 40
17.839926
100
AcDbArc
 50
74.160885
 51
105.839115
  0
LINE
  5
18C
100
AcDbEntity
  8
外形
  6
CONTINUOUS
100
AcDbLine
 10
594.264235
 20
-254.898735
 30
0.0
 11
593.77678
 21
-258.868735
 31
0.0
  0
LINE
  5
18D
100
AcDbEntity
  8
外形
  6
CONTINUOUS
100
AcDbLine
 10
624.506593
 20
-261.974235
 30
0.0
 11
624.506593
 21
-267.148735
 31
0.0
  0
LINE
  5
18E
100
AcDbEntity
  8
外形
  6
CONTINUOUS
100
AcDbLine
 10
624.756593
 20
-262.398735
 30
0.0
 11
624.756593
 21
-266.898735
 31
0.0
  0
LINE
  5
18F
100
AcDbEntity
  8
外形
  6
CONTINUOUS
100
AcDbLine
 10
624.756593
 20
-266.898735
 30
0.0
 11
624.506593
 21
-267.148735
 31
0.0
  0
LINE
  5
190
100
AcDbEntity
  8
外形
  6
CONTINUOUS
100
AcDbLine
 10
618.10508
 20
-247.823235
 30
0.0
 11
624.506593
 21
-247.823235
 31
0.0
  0
LINE
  5
191
100
AcDbEntity
  8
外形
  6
CONTINUOUS
100
AcDbLine
 10
624.756593
 20
-242.898735
 30
0.0
 11
624.756593
 21
-247.398735
 31
0.0
  0
LINE
  5
192
100
AcDbEntity
  8
外形
  6
CONTINUOUS
100
AcDbLine
 10
624.756593
 20
-242.898735
 30
0.0
 11
624.506593
 21
-242.648735
 31
0.0
  0
LINE
  5
193
100
AcDbEntity
  8
外形
  6
CONTINUOUS
100
AcDbLine
 10
624.506593
 20
-242.648735
 30
0.0
 11
620.856192
 21
-242.648735
 31
0.0
  0
LINE
  5
194
100
AcDbEntity
  8
外形
  6
CONTINUOUS
100
AcDbLine
 10
624.506593
 20
-242.648735
 30
0.0
 11
624.506593
 21
-247.823235
 31
0.0
  0
LINE
  5
195
100
AcDbEntity
  8
外形
  6
CONTINUOUS
 62
     1
100
AcDbLine
 10
585.306593
 20
-214.962834
 30
0.0
 11
584.506593
 21
-214.962834
 31
0.0
  0
ARC
  5
196
100
AcDbEntity
  8
外形
  6
CONTINUOUS
100
AcDbCircle
 10
585.306593
 20
-214.162834
 30
0.0
 40
0.8
100
AcDbArc
 50
177.0
 51
302.0
  0
LINE
  5
197
100
AcDbEntity
  8
外形
  6
CENTER
 62
     1
100
AcDbLine
 10
582.979725
 20
-206.790082
 30
0.0
 11
596.24119
 21
-206.790082
 31
0.0
  0
LINE
  5
199
100
AcDbEntity
  8
外形
  6
CONTINUOUS
100
AcDbLine
 10
585.668948
 20
-191.962834
 30
0.0
 11
584.50769
 21
-214.120966
 31
0.0
  0
LINE
  5
19A
100
AcDbEntity
  8
外形
  6
CONTINUOUS
100
AcDbLine
 10
585.034368
 20
-204.071343
 30
0.0
 11
593.568074
 21
-198.738892
 31
0.0
  0
LINE
  5
19D
100
AcDbEntity
  8
外形
  6
CONTINUOUS
100
AcDbLine
 10
544.120089
 20
-203.900005
 30
0.0
 11
544.120089
 21
-192.007652
 31
0.0
  0
DIMENSION
  5
19F
100
AcDbEntity
  8
寸法
  6
CONTINUOUS
100
AcDbDimension
  2
*D23
 10
579.419692
 20
-197.962834
 30
0.0
 11
576.919692
 21
-206.462834
 31
0.0
 70
    32
  3
STANDARD
100
AcDbAlignedDimension
 13
584.506593
 23
-214.962834
 33
0.0
 14
584.851936
 24
-197.962834
 34
0.0
 50
90.0
100
AcDbRotatedDimension
1001
ACAD
1000
DSTYLE
1002
{
1070
    40
1040
1.0
1002
}
  0
LINE
  5
1A0
100
AcDbEntity
  8
外形
  6
CONTINUOUS
100
AcDbLine
 10
536.43965
 20
-186.092107
 30
0.0
 11
533.405209
 21
-214.962876
 31
0.0
  0
LINE
  5
1A1
100
AcDbEntity
  8
外形
  6
CENTER
 62
     1
100
AcDbLine
 10
533.40503
 20
-178.450566
 30
0.0
 11
533.40503
 21
-219.545978
 31
0.0
  0
LINE
  5
1A2
100
AcDbEntity
  8
外形
  6
CONTINUOUS
100
AcDbLine
 10
530.550751
 20
-204.141149
 30
0.0
 11
529.50791
 21
-214.063113
 31
0.0
  0
LINE
  5
1A3
100
AcDbEntity
  8
外形
  6
CONTINUOUS
100
AcDbLine
 10
533.405208
 20
-214.962875
 30
0.0
 11
529.50791
 21
-214.063113
 31
0.0
  0
ARC
  5
1A4
100
AcDbEntity
  8
外形
  6
CONTINUOUS
100
AcDbCircle
 10
533.40503
 20
-197.962834
 30
0.0
 40
12.25
100
AcDbArc
 50
272.341613
 51
331.009341
  0
LINE
  5
1A5
100
AcDbEntity
  8
外形
  6
CONTINUOUS
100
AcDbLine
 10
534.549956
 20
-204.071343
 30
0.0
 11
530.550751
 21
-204.141149
 31
0.0
  0
LINE
  5
1A6
100
AcDbEntity
  8
外形
  6
CONTINUOUS
 62
     1
100
AcDbLine
 10
584.506593
 20
-214.162834
 30
0.0
 11
584.506593
 21
-214.962834
 31
0.0
  0
LINE
  5
1A7
100
AcDbEntity
  8
外形
  6
CONTINUOUS
100
AcDbLine
 10
620.856192
 20
-201.462834
 30
0.0
 11
620.856192
 21
-192.212834
 31
0.0
  0
ARC
  5
1A8
100
AcDbEntity
  8
外形
  6
CONTINUOUS
100
AcDbCircle
 10
593.99201
 20
-199.41733
 30
0.0
 40
0.8
100
AcDbArc
 50
357.0
 51
122.0
  0
LINE
  5
1A9
100
AcDbEntity
  8
外形
  6
CONTINUOUS
100
AcDbLine
 10
592.122029
 20
-199.642481
 30
0.0
 11
593.511865
 21
-198.252645
 31
0.0
  0
ARC
  5
1AA
100
AcDbEntity
  8
外形
  6
CONTINUOUS
100
AcDbCircle
 10
594.749302
 20
-199.490082
 30
0.0
 40
1.75
100
AcDbArc
 50
315.0
 51
135.0
  0
LINE
  5
1AB
100
AcDbEntity
  8
外形
  6
CONTINUOUS
100
AcDbLine
 10
604.022311
 20
-207.962834
 30
0.0
 11
614.356192
 21
-207.962834
 31
0.0
  0
LINE
  5
1AC
100
AcDbEntity
  8
外形
  6
CONTINUOUS
100
AcDbLine
 10
585.730529
 20
-214.841273
 30
0.0
 11
595.764138
 21
-208.571578
 31
0.0
  0
LINE
  5
1AE
100
AcDbEntity
  8
外形
  6
CENTER
 62
     1
100
AcDbLine
 10
589.649302
 20
-213.883767
 30
0.0
 11
589.649302
 21
-200.228144
 31
0.0
  0
ARC
  5
1AF
100
AcDbEntity
  8
外形
  6
CONTINUOUS
100
AcDbCircle
 10
600.099302
 20
-211.062834
 30
0.0
 40
5.0
100
AcDbArc
 50
38.316134
 51
150.115625
  0
LINE
  5
1B0
100
AcDbEntity
  8
外形
  6
CONTINUOUS
100
AcDbLine
 10
594.654631
 20
-202.059627
 30
0.0
 11
595.986739
 21
-200.727519
 31
0.0
  0
LINE
  5
1B1
100
AcDbEntity
  8
外形
  6
CONTINUOUS
100
AcDbLine
 10
592.51733
 20
-210.462834
 30
0.0
 11
592.62847
 21
-210.462834
 31
0.0
  0
ARC
  5
1B2
100
AcDbEntity
  8
外形
  6
CONTINUOUS
100
AcDbCircle
 10
589.649302
 20
-205.266307
 30
0.0
 40
0.432853
100
AcDbArc
 50
240.283476
 51
299.716524
  0
ARC
  5
1B3
100
AcDbEntity
  8
外形
  6
CONTINUOUS
100
AcDbCircle
 10
589.649302
 20
-208.313857
 30
0.0
 40
0.432853
100
AcDbArc
 50
60.283476
 51
119.716524
  0
ARC
  5
1B4
100
AcDbEntity
  8
外形
  6
CONTINUOUS
100
AcDbCircle
 10
590.96893
 20
-206.028195
 30
0.0
 40
0.432853
100
AcDbArc
 50
180.283476
 51
239.716524
  0
LINE
  5
1B5
100
AcDbEntity
  8
外形
  6
CONTINUOUS
100
AcDbLine
 10
590.532275
 20
-205.260728
 30
0.0
 11
590.536082
 21
-206.030336
 31
0.0
  0
ARC
  5
1B6
100
AcDbEntity
  8
外形
  6
CONTINUOUS
100
AcDbCircle
 10
590.96893
 20
-207.55197
 30
0.0
 40
0.432853
100
AcDbArc
 50
120.283476
 51
179.716524
  0
LINE
  5
1B7
100
AcDbEntity
  8
外形
  6
CONTINUOUS
100
AcDbLine
 10
590.536082
 20
-207.549828
 30
0.0
 11
590.532275
 21
-208.319436
 31
0.0
  0
LINE
  5
1B8
100
AcDbEntity
  8
外形
  6
CONTINUOUS
100
AcDbLine
 10
589.863871
 20
-205.642234
 30
0.0
 11
590.532275
 21
-205.260728
 31
0.0
  0
LINE
  5
1B9
100
AcDbEntity
  8
外形
  6
CONTINUOUS
100
AcDbLine
 10
590.532275
 20
-208.319436
 30
0.0
 11
589.863871
 21
-207.93793
 31
0.0
  0
LINE
  5
1BA
100
AcDbEntity
  8
外形
  6
CONTINUOUS
100
AcDbLine
 10
588.547952
 20
-207.178184
 30
0.0
 11
587.883355
 21
-206.790082
 31
0.0
  0
LINE
  5
1BB
100
AcDbEntity
  8
外形
  6
CONTINUOUS
100
AcDbLine
 10
587.883355
 20
-206.790082
 30
0.0
 11
588.547952
 21
-206.40198
 31
0.0
  0
ARC
  5
1BC
100
AcDbEntity
  8
外形
  6
CONTINUOUS
100
AcDbCircle
 10
588.329674
 20
-206.028195
 30
0.0
 40
0.432853
100
AcDbArc
 50
300.283476
 51
359.716524
  0
LINE
  5
1BD
100
AcDbEntity
  8
外形
  6
CONTINUOUS
100
AcDbLine
 10
588.762521
 20
-206.030336
 30
0.0
 11
588.766329
 21
-205.260728
 31
0.0
  0
ARC
  5
1BE
100
AcDbEntity
  8
外形
  6
CONTINUOUS
100
AcDbCircle
 10
588.329674
 20
-207.55197
 30
0.0
 40
0.432853
100
AcDbArc
 50
0.283476
 51
59.716524
  0
LINE
  5
1BF
100
AcDbEntity
  8
外形
  6
CONTINUOUS
100
AcDbLine
 10
588.766329
 20
-208.319436
 30
0.0
 11
588.762521
 21
-207.549828
 31
0.0
  0
LINE
  5
1C0
100
AcDbEntity
  8
外形
  6
CONTINUOUS
100
AcDbLine
 10
588.766329
 20
-205.260728
 30
0.0
 11
589.434733
 21
-205.642234
 31
0.0
  0
LINE
  5
1C1
100
AcDbEntity
  8
外形
  6
CONTINUOUS
100
AcDbLine
 10
589.434733
 20
-207.93793
 30
0.0
 11
588.766329
 21
-208.319436
 31
0.0
  0
CIRCLE
  5
1C2
100
AcDbEntity
  8
外形
  6
CONTINUOUS
100
AcDbCircle
 10
589.649302
 20
-206.790082
 30
0.0
 40
2.800022
  0
LINE
  5
1C3
100
AcDbEntity
  8
外形
  6
CONTINUOUS
100
AcDbLine
 10
591.415248
 20
-206.790082
 30
0.0
 11
590.750651
 21
-207.178184
 31
0.0
  0
LINE
  5
1C4
100
AcDbEntity
  8
外形
  6
CONTINUOUS
100
AcDbLine
 10
590.750651
 20
-206.40198
 30
0.0
 11
591.415248
 21
-206.790082
 31
0.0
  0
LINE
  5
1C5
100
AcDbEntity
  8
外形
  6
CONTINUOUS
100
AcDbLine
 10
594.790913
 20
-199.459199
 30
0.0
 11
594.264235
 21
-209.508821
 31
0.0
  0
ARC
  5
1C6
100
AcDbEntity
  8
外形
  6
CONTINUOUS
100
AcDbCircle
 10
614.356192
 20
-201.462834
 30
0.0
 40
6.5
100
AcDbArc
 50
270.0
 51
0.0
  0
LINE
  5
1C7
100
AcDbEntity
  8
外形
  6
CONTINUOUS
100
AcDbLine
 10
624.506593
 20
-203.353799
 30
0.0
 11
620.575054
 21
-203.353799
 31
0.0
  0
LINE
  5
1C8
100
AcDbEntity
  8
外形
  6
CONTINUOUS
100
AcDbLine
 10
624.756593
 20
-207.962834
 30
0.0
 11
624.756593
 21
-203.900005
 31
0.0
  0
LINE
  5
1C9
100
AcDbEntity
  8
外形
  6
CONTINUOUS
100
AcDbLine
 10
624.506593
 20
-207.962834
 30
0.0
 11
624.506593
 21
-203.353799
 31
0.0
  0
LINE
  5
1CA
100
AcDbEntity
  8
外形
  6
CONTINUOUS
100
AcDbLine
 10
595.837347
 20
-186.092107
 30
0.0
 11
616.544043
 21
-186.092107
 31
0.0
  0
LINE
  5
1CB
100
AcDbEntity
  8
外形
  6
CONTINUOUS
100
AcDbLine
 10
614.356192
 20
-185.712834
 30
0.0
 11
596.494266
 21
-185.712834
 31
0.0
  0
LINE
  5
1CC
100
AcDbEntity
  8
外形
  6
CONTINUOUS
100
AcDbLine
 10
585.668948
 20
-191.962834
 30
0.0
 11
596.494266
 21
-185.712834
 31
0.0
  0
ARC
  5
1CD
100
AcDbEntity
  8
外形
  6
CONTINUOUS
100
AcDbCircle
 10
614.356192
 20
-192.212834
 30
0.0
 40
6.5
100
AcDbArc
 50
0.0
 51
70.330595
  0
LINE
  5
1CE
100
AcDbEntity
  8
外形
  6
CONTINUOUS
100
AcDbLine
 10
624.756593
 20
-192.025663
 30
0.0
 11
624.756593
 21
-185.462834
 31
0.0
  0
LINE
  5
1CF
100
AcDbEntity
  8
外形
  6
CONTINUOUS
100
AcDbLine
 10
624.506593
 20
-192.57187
 30
0.0
 11
624.506593
 21
-185.712834
 31
0.0
  0
LINE
  5
1D0
100
AcDbEntity
  8
外形
  6
CONTINUOUS
100
AcDbLine
 10
624.506593
 20
-192.57187
 30
0.0
 11
620.856192
 21
-192.57187
 31
0.0
  0
LINE
  5
1D1
100
AcDbEntity
  8
外形
  6
CONTINUOUS
100
AcDbLine
 10
614.356192
 20
-185.712834
 30
0.0
 11
624.506593
 21
-185.712834
 31
0.0
  0
LINE
  5
1D2
100
AcDbEntity
  8
外形
  6
CONTINUOUS
100
AcDbLine
 10
624.756593
 20
-185.462834
 30
0.0
 11
624.506593
 21
-185.712834
 31
0.0
  0
MTEXT
  5
1D3
102
{ACAD_REACTORS
330
174
102
}
100
AcDbEntity
  8
寸法
  6
CONTINUOUS
 62
     3
100
AcDbMText
 10
551.686309
 20
-169.48471
 30
0.0
 40
3.0
 41
0.0
 71
     4
 72
     1
  1
%%c32最小加工径
  0
TEXT
  5
1D4
100
AcDbEntity
  8
外形
  6
CONTINUOUS
 62
     2
100
AcDbText
 10
646.618785
 20
-293.937094
 30
0.0
 40
6.0
  1
S25Q-SDUCR11
100
AcDbText
  0
LINE
  5
1D5
100
AcDbEntity
  8
外形
  6
CONTINUOUS
100
AcDbLine
 10
718.424148
 20
-207.962834
 30
0.0
 11
762.502505
 21
-207.962834
 31
0.0
  0
LINE
  5
1D6
100
AcDbEntity
  8
外形
  6
CONTINUOUS
100
AcDbLine
 10
718.424148
 20
-203.900005
 30
0.0
 11
762.502505
 21
-203.900005
 31
0.0
  0
LINE
  5
1D7
100
AcDbEntity
  8
外形
  6
CONTINUOUS
100
AcDbLine
 10
718.424148
 20
-185.462834
 30
0.0
 11
762.502505
 21
-185.462834
 31
0.0
  0
LINE
  5
1D8
100
AcDbEntity
  8
外形
  6
CONTINUOUS
100
AcDbLine
 10
718.424148
 20
-192.025663
 30
0.0
 11
762.502505
 21
-192.025663
 31
0.0
  0
LINE
  5
1D9
100
AcDbEntity
  8
外形
  6
CONTINUOUS
100
AcDbLine
 10
697.924148
 20
-207.962834
 30
0.0
 11
712.924148
 21
-207.962834
 31
0.0
  0
DIMENSION
  5
1DA
100
AcDbEntity
  8
寸法
  6
CONTINUOUS
100
AcDbDimension
  2
*D25
 10
697.137244
 20
-207.321104
 30
0.0
 11
720.7734
 21
-180.629167
 31
0.0
 70
   163
  3
STANDARD
100
AcDbDiametricDimension
 15
713.711053
 25
-188.604564
 35
0.0
 40
0.0
1001
ACAD
1000
DSTYLE
1002
{
1070
    40
1040
1.0
1002
}
  0
ARC
  5
1DB
100
AcDbEntity
  8
外形
  6
CONTINUOUS
100
AcDbCircle
 10
705.424148
 20
-197.962834
 30
0.0
 40
12.5
100
AcDbArc
 50
28.357637
 51
151.642363
  0
DIMENSION
  5
1DC
100
AcDbEntity
  8
寸法
  6
CONTINUOUS
100
AcDbDimension
  2
*D26
 10
716.424148
 20
-218.842229
 30
0.0
 11
705.424148
 21
-216.342229
 31
0.0
 70
    32
  3
STANDARD
100
AcDbAlignedDimension
 13
694.424148
 23
-203.900005
 33
0.0
 14
716.424148
 24
-203.900005
 34
0.0
100
AcDbRotatedDimension
1001
ACAD
1000
DSTYLE
1002
{
1070
    40
1040
1.0
1002
}
  0
LINE
  5
1DD
100
AcDbEntity
  8
外形
  6
CONTINUOUS
100
AcDbLine
 10
694.424148
 20
-192.025663
 30
0.0
 11
694.424148
 21
-203.900005
 31
0.0
  0
ARC
  5
1DE
100
AcDbEntity
  8
外形
  6
CONTINUOUS
100
AcDbCircle
 10
705.424148
 20
-197.962834
 30
0.0
 40
12.5
100
AcDbArc
 50
208.357637
 51
233.130102
  0
LINE
  5
1DF
100
AcDbEntity
  8
外形
  6
CONTINUOUS
100
AcDbLine
 10
716.424148
 20
-192.025663
 30
0.0
 11
716.424148
 21
-203.900005
 31
0.0
  0
LINE
  5
1E0
100
AcDbEntity
  8
外形
  6
CENTER
 62
     1
100
AcDbLine
 10
705.424148
 20
-185.45166
 30
0.0
 11
705.424148
 21
-210.244795
 31
0.0
  0
ARC
  5
1E1
100
AcDbEntity
  8
外形
  6
CONTINUOUS
100
AcDbCircle
 10
705.424148
 20
-197.962834
 30
0.0
 40
12.5
100
AcDbArc
 50
306.869898
 51
331.642363
  0
ARC
  5
1E2
100
AcDbEntity
  8
外形
  6
CONTINUOUS
100
AcDbCircle
 10
752.502505
 20
-254.898735
 30
0.0
 40
12.5
100
AcDbArc
 50
16.260205
 51
36.869898
  0
LINE
  5
1E3
100
AcDbEntity
  8
外形
  6
CONTINUOUS
100
AcDbLine
 10
764.502505
 20
-245.898735
 30
0.0
 11
764.502505
 21
-263.898735
 31
0.0
  0
ARC
  5
1E4
100
AcDbEntity
  8
外形
  6
CONTINUOUS
100
AcDbCircle
 10
752.502505
 20
-254.898735
 30
0.0
 40
12.5
100
AcDbArc
 50
323.130102
 51
343.739795
  0
LINE
  5
1E5
100
AcDbEntity
  8
外形
  6
CONTINUOUS
100
AcDbLine
 10
762.502505
 20
-265.898735
 30
0.0
 11
764.502505
 21
-263.898735
 31
0.0
  0
LINE
  5
1E6
100
AcDbEntity
  8
外形
  6
CONTINUOUS
100
AcDbLine
 10
762.502505
 20
-262.398735
 30
0.0
 11
762.502505
 21
-265.898735
 31
0.0
  0
LINE
  5
1E7
100
AcDbEntity
  8
外形
  6
CONTINUOUS
100
AcDbLine
 10
762.502505
 20
-243.898735
 30
0.0
 11
764.502505
 21
-245.898735
 31
0.0
  0
LINE
  5
1E8
100
AcDbEntity
  8
外形
  6
CONTINUOUS
100
AcDbLine
 10
762.502505
 20
-243.898735
 30
0.0
 11
762.502505
 21
-247.398735
 31
0.0
  0
ARC
  5
1E9
100
AcDbEntity
  8
外形
  6
CONTINUOUS
100
AcDbCircle
 10
751.502505
 20
-197.962834
 30
0.0
 40
12.5
100
AcDbArc
 50
331.642363
 51
28.357637
  0
LINE
  5
1EB
100
AcDbEntity
  8
外形
  6
CONTINUOUS
100
AcDbLine
 10
764.502505
 20
-205.962834
 30
0.0
 11
764.502505
 21
-187.462834
 31
0.0
  0
LINE
  5
1EC
100
AcDbEntity
  8
外形
  6
CONTINUOUS
100
AcDbLine
 10
762.502505
 20
-207.962834
 30
0.0
 11
764.502505
 21
-205.962834
 31
0.0
  0
LINE
  5
1ED
100
AcDbEntity
  8
外形
  6
CONTINUOUS
100
AcDbLine
 10
762.502505
 20
-203.900005
 30
0.0
 11
762.502505
 21
-207.962834
 31
0.0
  0
LINE
  5
1EE
100
AcDbEntity
  8
外形
  6
CONTINUOUS
100
AcDbLine
 10
762.502505
 20
-185.462834
 30
0.0
 11
764.502505
 21
-187.462834
 31
0.0
  0
LINE
  5
1EF
100
AcDbEntity
  8
外形
  6
CONTINUOUS
100
AcDbLine
 10
762.502505
 20
-185.462834
 30
0.0
 11
762.502505
 21
-192.025663
 31
0.0
  0
ARC
  5
31F
100
AcDbEntity
  8
外形
  6
CONTINUOUS
100
AcDbCircle
 10
533.40503
 20
-197.962834
 30
0.0
 40
16.56522
100
AcDbArc
 50
229.696171
 51
256.393101
  0
DIMENSION
  5
337
100
AcDbEntity
  8
寸法
  6
CONTINUOUS
100
AcDbDimension
  2
*D28
 10
631.991973
 20
-207.962834
 30
0.0
 11
629.491973
 21
-211.462834
 31
0.0
 70
    32
  3
STANDARD
100
AcDbAlignedDimension
 13
584.506593
 23
-214.962834
 33
0.0
 14
624.756593
 24
-207.962834
 34
0.0
 50
90.0
100
AcDbRotatedDimension
1001
ACAD
1000
DSTYLE
1002
{
1070
    40
1040
1.0
1002
}
  0
ENDSEC
  0
SECTION
  2
OBJECTS
  0
DICTIONARY
  5
1E
100
AcDbDictionary
  3
ACAD_GROUP
350
1C
  3
ACAD_MLINESTYLE
350
1D
  0
DICTIONARY
  5
47
100
AcDbDictionary
280
     1
  3
ACAD_XREC_ROUNDTRIP
360
48
  0
DICTIONARY
  5
36
100
AcDbDictionary
280
     1
  3
ACAD_XREC_ROUNDTRIP
360
37
  0
DICTIONARY
  5
3
100
AcDbDictionary
280
     1
  3
ACAD_LAYOUTSELFREF
360
4
  0
DICTIONARY
  5
A
100
AcDbDictionary
280
     1
  3
ACAD_LAYOUTSELFREF
360
B
  0
DICTIONARY
  5
1C
102
{ACAD_REACTORS
330
1E
102
}
100
AcDbDictionary
  0
DICTIONARY
  5
1D
102
{ACAD_REACTORS
330
1E
102
}
100
AcDbDictionary
  3
STANDARD
350
20
  0
XRECORD
  5
48
102
{ACAD_REACTORS
330
47
102
}
100
AcDbXrecord
102
PLOTBIT
280
     0
  0
XRECORD
  5
37
102
{ACAD_REACTORS
330
36
102
}
100
AcDbXrecord
102
ACADR14ROUNDTRIP
1000
DSTYLE
1002
{
1070
   341
340
0
1070
   343
340
0
1070
   344
340
0
1002
}
  0
XRECORD
  5
4
102
{ACAD_REACTORS
330
3
102
}
100
AcDbXrecord
340
2
  0
XRECORD
  5
B
102
{ACAD_REACTORS
330
A
102
}
100
AcDbXrecord
340
9
  0
MLINESTYLE
  5
20
102
{ACAD_REACTORS
330
1D
102
}
100
AcDbMlineStyle
  2
STANDARD
 70
     0
  3

 62
     0
 51
90.0
 52
90.0
 71
     2
 49
0.5
 62
   256
  6
BYLAYER
 49
-0.5
 62
   256
  6
BYLAYER
  0
ENDSEC
  0
EOF
